  0
SECTION
  2
HEADER
  9
$ACADVER
  1
AC1018
  9
$ACADMAINTVER
 70
     2
  9
$DWGCODEPAGE
  3
ANSI_1252
  9
$INSBASE
 10
0.0
 20
0.0
 30
0.0
  9
$EXTMIN
 10
-0.0512417568234014
 20
-0.0362352423246648
 30
-0.0000000000000053
  9
$EXTMAX
 10
840.0512867427483
 20
594.0362670538002
 30
0.0000000000000099
  9
$LIMMIN
 10
0.0
 20
0.0
  9
$LIMMAX
 10
840.0000000000002
 20
593.9999999999998
  9
$ORTHOMODE
 70
     0
  9
$REGENMODE
 70
     1
  9
$FILLMODE
 70
     1
  9
$QTEXTMODE
 70
     0
  9
$MIRRTEXT
 70
     1
  9
$LTSCALE
 40
20.0
  9
$ATTMODE
 70
     1
  9
$TEXTSIZE
 40
3.5
  9
$TRACEWID
 40
1.0
  9
$TEXTSTYLE
  7
STANDARD
  9
$CLAYER
  8
VOLL
  9
$CELTYPE
  6
ByLayer
  9
$CECOLOR
 62
   256
  9
$CELTSCALE
 40
1.0
  9
$DISPSILH
 70
     0
  9
$DIMSCALE
 40
2.0
  9
$DIMASZ
 40
3.5
  9
$DIMEXO
 40
1.0
  9
$DIMDLI
 40
7.0
  9
$DIMRND
 40
0.0
  9
$DIMDLE
 40
0.0
  9
$DIMEXE
 40
1.0
  9
$DIMTP
 40
0.0
  9
$DIMTM
 40
0.0
  9
$DIMTXT
 40
3.5
  9
$DIMCEN
 40
1.5
  9
$DIMTSZ
 40
0.0
  9
$DIMTOL
 70
     0
  9
$DIMLIM
 70
     0
  9
$DIMTIH
 70
     0
  9
$DIMTOH
 70
     0
  9
$DIMSE1
 70
     0
  9
$DIMSE2
 70
     0
  9
$DIMTAD
 70
     1
  9
$DIMZIN
 70
     8
  9
$DIMBLK
  1

  9
$DIMASO
 70
     1
  9
$DIMSHO
 70
     0
  9
$DIMPOST
  1

  9
$DIMAPOST
  1

  9
$DIMALT
 70
     0
  9
$DIMALTD
 70
     2
  9
$DIMALTF
 40
25.4
  9
$DIMLFAC
 40
1.0
  9
$DIMTOFL
 70
     1
  9
$DIMTVP
 40
0.0
  9
$DIMTIX
 70
     0
  9
$DIMSOXD
 70
     0
  9
$DIMSAH
 70
     0
  9
$DIMBLK1
  1

  9
$DIMBLK2
  1

  9
$DIMSTYLE
  2
Standard
  9
$DIMCLRD
 70
     0
  9
$DIMCLRE
 70
     0
  9
$DIMCLRT
 70
     1
  9
$DIMTFAC
 40
0.5142857142857144
  9
$DIMGAP
 40
1.5
  9
$DIMJUST
 70
     0
  9
$DIMSD1
 70
     0
  9
$DIMSD2
 70
     0
  9
$DIMTOLJ
 70
     1
  9
$DIMTZIN
 70
     8
  9
$DIMALTZ
 70
     8
  9
$DIMALTTZ
 70
     8
  9
$DIMUPT
 70
     0
  9
$DIMDEC
 70
     2
  9
$DIMTDEC
 70
     2
  9
$DIMALTU
 70
     2
  9
$DIMALTTD
 70
     2
  9
$DIMTXSTY
  7
STANDARD
  9
$DIMAUNIT
 70
     0
  9
$DIMADEC
 70
     2
  9
$DIMALTRND
 40
0.0
  9
$DIMAZIN
 70
     2
  9
$DIMDSEP
 70
    46
  9
$DIMATFIT
 70
     3
  9
$DIMFRAC
 70
     0
  9
$DIMLDRBLK
  1

  9
$DIMLUNIT
 70
     2
  9
$DIMLWD
 70
    -2
  9
$DIMLWE
 70
    -2
  9
$DIMTMOVE
 70
     0
  9
$LUNITS
 70
     2
  9
$LUPREC
 70
     2
  9
$SKETCHINC
 40
1.0
  9
$FILLETRAD
 40
0.0
  9
$AUNITS
 70
     0
  9
$AUPREC
 70
     0
  9
$MENU
  1
ACAD
  9
$ELEVATION
 40
0.0
  9
$PELEVATION
 40
0.0
  9
$THICKNESS
 40
0.0
  9
$LIMCHECK
 70
     0
  9
$CHAMFERA
 40
0.0
  9
$CHAMFERB
 40
0.0
  9
$CHAMFERC
 40
0.0
  9
$CHAMFERD
 40
0.0
  9
$SKPOLY
 70
     0
  9
$TDCREATE
 40
2455397.867059838
  9
$TDUCREATE
 40
2455397.783726505
  9
$TDUPDATE
 40
2455443.403309421
  9
$TDUUPDATE
 40
2455443.319976088
  9
$TDINDWG
 40
0.0950922917
  9
$TDUSRTIMER
 40
0.0950922917
  9
$USRTIMER
 70
     1
  9
$ANGBASE
 50
0.0
  9
$ANGDIR
 70
     0
  9
$PDMODE
 70
     0
  9
$PDSIZE
 40
0.0
  9
$PLINEWID
 40
0.0
  9
$SPLFRAME
 70
     0
  9
$SPLINETYPE
 70
     6
  9
$SPLINESEGS
 70
     8
  9
$HANDSEED
  5
1A3A
  9
$SURFTAB1
 70
     6
  9
$SURFTAB2
 70
     6
  9
$SURFTYPE
 70
     6
  9
$SURFU
 70
     6
  9
$SURFV
 70
     6
  9
$UCSBASE
  2

  9
$UCSNAME
  2

  9
$UCSORG
 10
0.0
 20
0.0
 30
0.0
  9
$UCSXDIR
 10
1.0
 20
0.0
 30
0.0
  9
$UCSYDIR
 10
0.0
 20
1.0
 30
0.0
  9
$UCSORTHOREF
  2

  9
$UCSORTHOVIEW
 70
     0
  9
$UCSORGTOP
 10
0.0
 20
0.0
 30
0.0
  9
$UCSORGBOTTOM
 10
0.0
 20
0.0
 30
0.0
  9
$UCSORGLEFT
 10
0.0
 20
0.0
 30
0.0
  9
$UCSORGRIGHT
 10
0.0
 20
0.0
 30
0.0
  9
$UCSORGFRONT
 10
0.0
 20
0.0
 30
0.0
  9
$UCSORGBACK
 10
0.0
 20
0.0
 30
0.0
  9
$PUCSBASE
  2

  9
$PUCSNAME
  2

  9
$PUCSORG
 10
0.0
 20
0.0
 30
0.0
  9
$PUCSXDIR
 10
1.0
 20
0.0
 30
0.0
  9
$PUCSYDIR
 10
0.0
 20
1.0
 30
0.0
  9
$PUCSORTHOREF
  2

  9
$PUCSORTHOVIEW
 70
     0
  9
$PUCSORGTOP
 10
0.0
 20
0.0
 30
0.0
  9
$PUCSORGBOTTOM
 10
0.0
 20
0.0
 30
0.0
  9
$PUCSORGLEFT
 10
0.0
 20
0.0
 30
0.0
  9
$PUCSORGRIGHT
 10
0.0
 20
0.0
 30
0.0
  9
$PUCSORGFRONT
 10
0.0
 20
0.0
 30
0.0
  9
$PUCSORGBACK
 10
0.0
 20
0.0
 30
0.0
  9
$USERI1
 70
     0
  9
$USERI2
 70
     0
  9
$USERI3
 70
     0
  9
$USERI4
 70
     0
  9
$USERI5
 70
     0
  9
$USERR1
 40
0.0
  9
$USERR2
 40
0.0
  9
$USERR3
 40
0.0
  9
$USERR4
 40
0.0
  9
$USERR5
 40
0.0
  9
$WORLDVIEW
 70
     1
  9
$SHADEDGE
 70
     3
  9
$SHADEDIF
 70
    70
  9
$TILEMODE
 70
     1
  9
$MAXACTVP
 70
    16
  9
$PINSBASE
 10
0.0
 20
0.0
 30
0.0
  9
$PLIMCHECK
 70
     0
  9
$PEXTMIN
 10
1.000000000000000E+20
 20
1.000000000000000E+20
 30
1.000000000000000E+20
  9
$PEXTMAX
 10
-1.000000000000000E+20
 20
-1.000000000000000E+20
 30
-1.000000000000000E+20
  9
$PLIMMIN
 10
0.0
 20
0.0
  9
$PLIMMAX
 10
12.0
 20
9.0
  9
$UNITMODE
 70
     0
  9
$VISRETAIN
 70
     0
  9
$PLINEGEN
 70
     0
  9
$PSLTSCALE
 70
     0
  9
$TREEDEPTH
 70
  3020
  9
$CMLSTYLE
  2
Standard
  9
$CMLJUST
 70
     0
  9
$CMLSCALE
 40
1.0
  9
$PROXYGRAPHICS
 70
     1
  9
$MEASUREMENT
 70
     0
  9
$CELWEIGHT
370
    -1
  9
$ENDCAPS
280
     0
  9
$JOINSTYLE
280
     0
  9
$LWDISPLAY
290
     0
  9
$INSUNITS
 70
     0
  9
$HYPERLINKBASE
  1

  9
$STYLESHEET
  1
monochrome 1.ctb
  9
$XEDIT
290
     1
  9
$CEPSNTYPE
380
     0
  9
$PSTYLEMODE
290
     1
  9
$FINGERPRINTGUID
  2
{D68B0D0D-A558-11D7-B632-000102183313}
  9
$VERSIONGUID
  2
{FD6AB1C7-8D75-4409-A5A6-3605D49AA153}
  9
$EXTNAMES
290
     1
  9
$PSVPSCALE
 40
0.0
  9
$OLESTARTUP
290
     0
  9
$SORTENTS
280
   127
  9
$INDEXCTL
280
     0
  9
$HIDETEXT
280
     0
  9
$XCLIPFRAME
290
     0
  9
$HALOGAP
280
     0
  9
$OBSCOLOR
 70
   257
  9
$OBSLTYPE
280
     0
  9
$INTERSECTIONDISPLAY
280
     0
  9
$INTERSECTIONCOLOR
 70
   257
  9
$DIMASSOC
280
     1
  9
$PROJECTNAME
  1

  0
ENDSEC
  0
SECTION
  2
CLASSES
  0
CLASS
  1
ACDBDICTIONARYWDFLT
  2
AcDbDictionaryWithDefault
  3
ObjectDBX Classes
 90
        0
 91
        1
280
     0
281
     0
  0
CLASS
  1
DICTIONARYVAR
  2
AcDbDictionaryVar
  3
ObjectDBX Classes
 90
        0
 91
        2
280
     0
281
     0
  0
ENDSEC
  0
SECTION
  2
TABLES
  0
TABLE
  2
VPORT
  5
8
330
0
100
AcDbSymbolTable
 70
     2
  0
VPORT
  5
1A39
330
8
100
AcDbSymbolTableRecord
100
AcDbViewportTableRecord
  2
*Active
 70
     0
 10
0.0
 20
0.0
 11
1.0
 21
1.0
 12
420.0000224929625
 22
297.0000159057378
 13
0.0
 23
0.0
 14
1.0
 24
1.0
 15
10.0
 25
10.0
 16
0.0
 26
0.0
 36
1.0
 17
0.0
 27
0.0
 37
0.0
 40
632.1787304111894
 41
1.336927223719676
 42
50.0
 43
0.0
 44
0.0
 50
0.0
 51
0.0
 71
     0
 72
  1500
 73
     1
 74
     0
 75
     0
 76
     0
 77
     0
 78
     0
281
     0
 65
     1
110
0.0
120
0.0
130
0.0
111
1.0
121
0.0
131
0.0
112
0.0
122
1.0
132
0.0
 79
     0
146
0.0
  0
ENDTAB
  0
TABLE
  2
LTYPE
  5
5
330
0
100
AcDbSymbolTable
 70
     2
  0
LTYPE
  5
13
330
5
100
AcDbSymbolTableRecord
100
AcDbLinetypeTableRecord
  2
ByBlock
 70
     0
  3

 72
    65
 73
     0
 40
0.0
  0
LTYPE
  5
14
330
5
100
AcDbSymbolTableRecord
100
AcDbLinetypeTableRecord
  2
ByLayer
 70
     0
  3

 72
    65
 73
     0
 40
0.0
  0
LTYPE
  5
15
330
5
100
AcDbSymbolTableRecord
100
AcDbLinetypeTableRecord
  2
Continuous
 70
     0
  3
Solid line
 72
    65
 73
     0
 40
0.0
  0
LTYPE
  5
25
330
5
100
AcDbSymbolTableRecord
100
AcDbLinetypeTableRecord
  2
STRICHPUNKT
 70
     0
  3
__ . __ . __ . __ . __ . __ . __ . __ . __ . __
 72
    65
 73
     4
 40
1.0
 49
0.5
 74
     0
 49
-0.25
 74
     0
 49
0.0
 74
     0
 49
-0.25
 74
     0
  0
ENDTAB
  0
TABLE
  2
LAYER
  5
2
330
0
100
AcDbSymbolTable
 70
     8
  0
LAYER
  5
10
330
2
100
AcDbSymbolTableRecord
100
AcDbLayerTableRecord
  2
0
 70
     0
 62
     7
  6
Continuous
370
    -3
390
F
  0
LAYER
  5
2B
330
2
100
AcDbSymbolTableRecord
100
AcDbLayerTableRecord
  2
VOLL
 70
     0
 62
     1
  6
Continuous
370
    -3
390
F
  0
LAYER
  5
2C
330
2
100
AcDbSymbolTableRecord
100
AcDbLayerTableRecord
  2
HILF
 70
     0
 62
     2
  6
Continuous
370
    -3
390
F
  0
LAYER
  5
2D
330
2
100
AcDbSymbolTableRecord
100
AcDbLayerTableRecord
  2
MITTEL
 70
     0
 62
     2
  6
STRICHPUNKT
370
    -3
390
F
  0
LAYER
  5
2F
330
2
100
AcDbSymbolTableRecord
100
AcDbLayerTableRecord
  2
BEM
 70
     0
 62
     7
  6
Continuous
370
    -3
390
F
  0
LAYER
  5
30
330
2
100
AcDbSymbolTableRecord
100
AcDbLayerTableRecord
  2
STEMPEL
 70
     0
 62
     3
  6
Continuous
370
    -3
390
F
  0
LAYER
  5
33
330
2
100
AcDbSymbolTableRecord
100
AcDbLayerTableRecord
  2
TEXT
 70
     0
 62
     7
  6
Continuous
370
    -3
390
F
  0
LAYER
  5
23A
330
2
100
AcDbSymbolTableRecord
100
AcDbLayerTableRecord
  2
DEFPOINTS
 70
     0
 62
     7
  6
Continuous
290
     0
370
    -3
390
F
  0
ENDTAB
  0
TABLE
  2
STYLE
  5
3
330
0
100
AcDbSymbolTable
 70
     2
  0
STYLE
  5
11
330
3
100
AcDbSymbolTableRecord
100
AcDbTextStyleTableRecord
  2
STANDARD
 70
     0
 40
0.0
 41
0.8
 50
0.0
 71
     0
 42
3.5
  3
simplex.shx
  4

  0
STYLE
  5
24
330
3
100
AcDbSymbolTableRecord
100
AcDbTextStyleTableRecord
  2
GREEKS
 70
     0
 40
0.0
 41
0.8
 50
0.0
 71
     0
 42
2.5
  3
SIMPLEX.shx
  4

  0
ENDTAB
  0
TABLE
  2
VIEW
  5
6
330
0
100
AcDbSymbolTable
 70
     0
  0
ENDTAB
  0
TABLE
  2
UCS
  5
7
330
0
100
AcDbSymbolTable
 70
     0
  0
ENDTAB
  0
TABLE
  2
APPID
  5
9
330
0
100
AcDbSymbolTable
 70
     1
  0
APPID
  5
12
330
9
100
AcDbSymbolTableRecord
100
AcDbRegAppTableRecord
  2
ACAD
 70
     0
  0
ENDTAB
  0
TABLE
  2
DIMSTYLE
  5
A
330
0
100
AcDbSymbolTable
 70
     1
100
AcDbDimStyleTable
 71
     1
340
A2
  0
DIMSTYLE
105
A2
102
{ACAD_REACTORS
330
E4C
330
D9D
330
D10
330
12EC
102
}
330
A
100
AcDbSymbolTableRecord
100
AcDbDimStyleTableRecord
  2
Standard
 70
     0
340
11
  0
ENDTAB
  0
TABLE
  2
BLOCK_RECORD
  5
1
330
0
100
AcDbSymbolTable
 70
     7
  0
BLOCK_RECORD
  5
1E
102
{ACAD_XDICTIONARY
360
DB
102
}
330
1
100
AcDbSymbolTableRecord
100
AcDbBlockTableRecord
  2
*Model_Space
340
21
  0
BLOCK_RECORD
  5
1A
102
{ACAD_XDICTIONARY
360
DD
102
}
330
1
100
AcDbSymbolTableRecord
100
AcDbBlockTableRecord
  2
*Paper_Space
340
1D
  0
BLOCK_RECORD
  5
22
330
1
100
AcDbSymbolTableRecord
100
AcDbBlockTableRecord
  2
LOGO
340
0
102
{BLKREFS
331
56
102
}
  0
BLOCK_RECORD
  5
23
330
1
100
AcDbSymbolTableRecord
100
AcDbBlockTableRecord
  2
LORO
340
0
102
{BLKREFS
331
9B
102
}
  0
BLOCK_RECORD
  5
E54
330
1
100
AcDbSymbolTableRecord
100
AcDbBlockTableRecord
  2
*D2
340
0
  0
BLOCK_RECORD
  5
EAF
330
1
100
AcDbSymbolTableRecord
100
AcDbBlockTableRecord
  2
*D3
340
0
  0
BLOCK_RECORD
  5
EBC
330
1
100
AcDbSymbolTableRecord
100
AcDbBlockTableRecord
  2
*D4
340
0
  0
BLOCK_RECORD
  5
12ED
330
1
100
AcDbSymbolTableRecord
100
AcDbBlockTableRecord
  2
*D5
340
0
  0
BLOCK_RECORD
  5
130C
330
1
100
AcDbSymbolTableRecord
100
AcDbBlockTableRecord
  2
8DI931D
340
0
102
{BLKREFS
331
160A
331
1620
102
}
  0
ENDTAB
  0
ENDSEC
  0
SECTION
  2
BLOCKS
  0
BLOCK
  5
37
330
1E
100
AcDbEntity
  8
0
100
AcDbBlockBegin
  2
*Model_Space
 70
     0
 10
0.0
 20
0.0
 30
0.0
  3
*Model_Space
  1

  0
ENDBLK
  5
38
330
1E
100
AcDbEntity
  8
0
100
AcDbBlockEnd
  0
BLOCK
  5
35
330
1A
100
AcDbEntity
 67
     1
  8
0
100
AcDbBlockBegin
  2
*Paper_Space
 70
     0
 10
0.0
 20
0.0
 30
0.0
  3
*Paper_Space
  1

  0
ENDBLK
  5
36
330
1A
100
AcDbEntity
 67
     1
  8
0
100
AcDbBlockEnd
  0
BLOCK
  5
39
330
22
100
AcDbEntity
  8
0
100
AcDbBlockBegin
  2
LOGO
 70
     0
 10
0.0
 20
0.0
 30
0.0
  3
LOGO
  1

  0
ARC
  5
3A
330
22
100
AcDbEntity
  8
0
100
AcDbCircle
 10
11.59973089678112
 20
-9.271599258481501
 30
0.0
 40
4.5
100
AcDbArc
 50
270.0
 51
231.0575587310159
  0
LINE
  5
3B
330
22
100
AcDbEntity
  8
0
100
AcDbLine
 10
3.599730896781125
 20
-4.771599258481529
 30
0.0
 11
3.599730896781153
 21
-11.77159925848133
 31
0.0
  0
LINE
  5
3C
330
22
100
AcDbEntity
  8
0
100
AcDbLine
 10
2.599730896781125
 20
-4.771599258481529
 30
0.0
 11
2.599730896781153
 21
-11.77159925848133
 31
0.0
  0
CIRCLE
  5
3D
330
22
100
AcDbEntity
  8
0
100
AcDbCircle
 10
11.59973089678112
 20
-9.271599258481501
 30
0.0
 40
3.5
  0
ARC
  5
3E
330
22
100
AcDbEntity
  8
0
100
AcDbCircle
 10
31.59973089678115
 20
-9.271599258481472
 30
0.0
 40
4.5
100
AcDbArc
 50
270.0
 51
231.0575587310182
  0
LINE
  5
3F
330
22
100
AcDbEntity
  8
0
100
AcDbLine
 10
17.59973089678112
 20
-4.771599258481472
 30
0.0
 11
17.59973089678115
 21
-13.77159925848147
 31
0.0
  0
ARC
  5
40
330
22
100
AcDbEntity
  8
0
100
AcDbCircle
 10
22.59973089678116
 20
-7.271599258481472
 30
0.0
 40
2.5
100
AcDbArc
 50
293.1161887722295
 51
90.0
  0
CIRCLE
  5
41
330
22
100
AcDbEntity
  8
0
100
AcDbCircle
 10
31.59973089678115
 20
-9.271599258481472
 30
0.0
 40
3.5
  0
ARC
  5
42
330
22
100
AcDbEntity
  8
0
100
AcDbCircle
 10
4.599730896781153
 20
-11.77159925848133
 30
0.0
 40
1.0
100
AcDbArc
 50
180.0
 51
270.0
  0
ARC
  5
43
330
22
100
AcDbEntity
  8
0
100
AcDbCircle
 10
4.599730896781153
 20
-11.77159925848133
 30
0.0
 40
2.0
100
AcDbArc
 50
179.9999999999992
 51
270.0
  0
LINE
  5
44
330
22
100
AcDbEntity
  8
0
100
AcDbLine
 10
11.59973089678115
 20
-13.77159925848144
 30
0.0
 11
4.599730896781153
 21
-13.77159925848147
 31
0.0
  0
LINE
  5
45
330
22
100
AcDbEntity
  8
0
100
AcDbLine
 10
8.771303772034769
 20
-12.77159925848136
 30
0.0
 11
4.599730896781153
 21
-12.77159925848133
 31
0.0
  0
LINE
  5
46
330
22
100
AcDbEntity
  8
0
100
AcDbLine
 10
31.59973089678115
 20
-13.77159925848147
 30
0.0
 11
23.6715276665056
 21
-13.77159925848144
 31
0.0
  0
LINE
  5
47
330
22
100
AcDbEntity
  8
0
100
AcDbLine
 10
23.56565672307022
 20
-9.51278021337896
 30
0.0
 11
24.4388546544846
 21
-12.77159925848144
 31
0.0
  0
LINE
  5
48
330
22
100
AcDbEntity
  8
0
100
AcDbLine
 10
22.59973089678116
 20
-9.771599258481472
 30
0.0
 11
18.59973089678112
 21
-9.771599258481472
 31
0.0
  0
LINE
  5
49
330
22
100
AcDbEntity
  8
0
100
AcDbLine
 10
18.59973089678115
 20
-13.77159925848144
 30
0.0
 11
17.59973089678115
 21
-13.77159925848144
 31
0.0
  0
LINE
  5
4A
330
22
100
AcDbEntity
  8
0
100
AcDbLine
 10
18.59973089678115
 20
-9.771599258481472
 30
0.0
 11
18.59973089678115
 21
-13.77159925848144
 31
0.0
  0
LINE
  5
4B
330
22
100
AcDbEntity
  8
0
100
AcDbLine
 10
22.59973089678116
 20
-9.771599258481472
 30
0.0
 11
23.67152766650562
 21
-13.77159925848147
 31
0.0
  0
ARC
  5
4C
330
22
100
AcDbEntity
  8
0
100
AcDbCircle
 10
22.59973089678116
 20
-7.271599258481472
 30
0.0
 40
2.5
100
AcDbArc
 50
270.0
 51
270.0000000000007
  0
LINE
  5
4D
330
22
100
AcDbEntity
  8
0
100
AcDbLine
 10
28.77130377203494
 20
-12.77159925848147
 30
0.0
 11
24.43885465448463
 21
-12.77159925848144
 31
0.0
  0
LINE
  5
4E
330
22
100
AcDbEntity
  8
0
100
AcDbLine
 10
3.599730896781125
 20
-4.771599258481472
 30
0.0
 11
2.599730896781125
 21
-4.771599258481472
 31
0.0
  0
LINE
  5
4F
330
22
100
AcDbEntity
  8
0
100
AcDbLine
 10
22.59973089678116
 20
-8.771599258481472
 30
0.0
 11
18.59973089678115
 21
-8.771599258481472
 31
0.0
  0
LINE
  5
50
330
22
100
AcDbEntity
  8
0
100
AcDbLine
 10
22.59973089678116
 20
-5.771599258481472
 30
0.0
 11
18.59973089678115
 21
-5.771599258481472
 31
0.0
  0
LINE
  5
51
330
22
100
AcDbEntity
  8
0
100
AcDbLine
 10
22.59973089678116
 20
-4.771599258481472
 30
0.0
 11
17.59973089678115
 21
-4.771599258481472
 31
0.0
  0
LINE
  5
52
330
22
100
AcDbEntity
  8
0
100
AcDbLine
 10
18.59973089678115
 20
-5.771599258481472
 30
0.0
 11
18.59973089678115
 21
-8.771599258481472
 31
0.0
  0
ARC
  5
53
330
22
100
AcDbEntity
  8
0
100
AcDbCircle
 10
22.59973089678116
 20
-7.271599258481472
 30
0.0
 40
1.5
100
AcDbArc
 50
270.0
 51
90.0
  0
ENDBLK
  5
54
330
22
100
AcDbEntity
  8
0
100
AcDbBlockEnd
  0
BLOCK
  5
55
330
23
100
AcDbEntity
  8
0
100
AcDbBlockBegin
  2
LORO
 70
     0
 10
0.0
 20
0.0
 30
0.0
  3
LORO
  1

  0
INSERT
  5
56
330
23
100
AcDbEntity
  8
STEMPEL
100
AcDbBlockReference
  2
LOGO
 10
-1.748032802467321
 20
3.771489518552062
 30
0.0
  0
ENDBLK
  5
57
330
23
100
AcDbEntity
  8
0
100
AcDbBlockEnd
  0
BLOCK
  5
E5F
330
E54
100
AcDbEntity
  8
0
100
AcDbBlockBegin
  2
*D2
 70
     1
 10
0.0
 20
0.0
 30
0.0
  3
*D2
  1

  0
LINE
  5
1956
330
E54
100
AcDbEntity
  8
BEM
 62
     0
370
    -2
100
AcDbLine
 10
100.6325433847416
 20
184.6812725739269
 30
0.0
 11
100.6325433847416
 21
155.4208105347395
 31
0.0
  0
LINE
  5
1957
330
E54
100
AcDbEntity
  8
BEM
 62
     0
370
    -2
100
AcDbLine
 10
438.8673914299369
 20
188.9909128595776
 30
0.0
 11
438.8673914299369
 21
155.4208105347395
 31
0.0
  0
LINE
  5
1958
330
E54
100
AcDbEntity
  8
BEM
 62
     0
370
    -2
100
AcDbLine
 10
107.6325433847416
 20
157.4208105347395
 30
0.0
 11
431.8673914299369
 21
157.4208105347395
 31
0.0
  0
SOLID
  5
1959
330
E54
100
AcDbEntity
  8
BEM
 62
     0
100
AcDbTrace
 10
107.6325433847416
 20
158.5874772014062
 30
0.0
 11
107.6325433847416
 21
156.2541438680729
 31
0.0
 12
100.6325433847416
 22
157.4208105347395
 32
0.0
 13
100.6325433847416
 23
157.4208105347395
 33
0.0
  0
SOLID
  5
195A
330
E54
100
AcDbEntity
  8
BEM
 62
     0
100
AcDbTrace
 10
431.8673914299369
 20
158.5874772014062
 30
0.0
 11
431.8673914299369
 21
156.2541438680729
 31
0.0
 12
438.8673914299369
 22
157.4208105347395
 32
0.0
 13
438.8673914299369
 23
157.4208105347395
 33
0.0
  0
MTEXT
  5
195B
330
E54
100
AcDbEntity
  8
BEM
 62
     1
100
AcDbMText
 10
269.7499674073393
 20
163.9208105347395
 30
0.0
 40
7.0
 41
0.0
 71
     5
 72
     1
  1
\A1;620
 73
     1
 44
1.0
  0
POINT
  5
195C
330
E54
100
AcDbEntity
  8
DEFPOINTS
 62
     0
100
AcDbPoint
 10
100.6325433847416
 20
186.6812725739269
 30
0.0
  0
POINT
  5
195D
330
E54
100
AcDbEntity
  8
DEFPOINTS
 62
     0
100
AcDbPoint
 10
438.8673914299369
 20
190.9909128595776
 30
0.0
  0
POINT
  5
195E
330
E54
100
AcDbEntity
  8
DEFPOINTS
 62
     0
100
AcDbPoint
 10
438.8673914299369
 20
157.4208105347395
 30
0.0
  0
ENDBLK
  5
E60
330
E54
100
AcDbEntity
  8
0
100
AcDbBlockEnd
  0
BLOCK
  5
EBA
330
EAF
100
AcDbEntity
  8
0
100
AcDbBlockBegin
  2
*D3
 70
     1
 10
0.0
 20
0.0
 30
0.0
  3
*D3
  1

  0
LINE
  5
12D9
330
EAF
100
AcDbEntity
  8
BEM
 62
     0
370
    -2
100
AcDbLine
 10
106.5233910274695
 20
185.9909128595774
 30
0.0
 11
76.92891029076389
 21
185.9909128595774
 31
0.0
  0
LINE
  5
12DA
330
EAF
100
AcDbEntity
  8
BEM
 62
     0
370
    -2
100
AcDbLine
 10
106.5233910274695
 20
318.9909128595776
 30
0.0
 11
76.92891029076392
 21
318.9909128595776
 31
0.0
  0
LINE
  5
12DB
330
EAF
100
AcDbEntity
  8
BEM
 62
     0
370
    -2
100
AcDbLine
 10
78.92891029076389
 20
192.9909128595774
 30
0.0
 11
78.92891029076392
 21
311.9909128595776
 31
0.0
  0
SOLID
  5
12DC
330
EAF
100
AcDbEntity
  8
BEM
 62
     0
100
AcDbTrace
 10
77.76224362409722
 20
192.9909128595774
 30
0.0
 11
80.09557695743056
 21
192.9909128595774
 31
0.0
 12
78.92891029076389
 22
185.9909128595774
 32
0.0
 13
78.92891029076389
 23
185.9909128595774
 33
0.0
  0
SOLID
  5
12DD
330
EAF
100
AcDbEntity
  8
BEM
 62
     0
100
AcDbTrace
 10
77.76224362409725
 20
311.9909128595776
 30
0.0
 11
80.0955769574306
 21
311.9909128595776
 31
0.0
 12
78.92891029076392
 22
318.9909128595776
 32
0.0
 13
78.92891029076392
 23
318.9909128595776
 33
0.0
  0
MTEXT
  5
12DE
330
EAF
100
AcDbEntity
  8
BEM
 62
     1
100
AcDbMText
 10
72.42891029076386
 20
252.4909128595775
 30
0.0
 40
7.0
 41
0.0
 71
     5
 72
     1
  1
\A1;%%c133
 11
0.0000000000000001
 21
1.0
 31
0.0
 73
     1
 44
1.0
  0
POINT
  5
12DF
330
EAF
100
AcDbEntity
  8
DEFPOINTS
 62
     0
100
AcDbPoint
 10
108.5233910274695
 20
185.9909128595774
 30
0.0
  0
POINT
  5
12E0
330
EAF
100
AcDbEntity
  8
DEFPOINTS
 62
     0
100
AcDbPoint
 10
108.5233910274695
 20
318.9909128595776
 30
0.0
  0
POINT
  5
12E1
330
EAF
100
AcDbEntity
  8
DEFPOINTS
 62
     0
100
AcDbPoint
 10
78.92891029076392
 20
318.9909128595776
 30
0.0
  0
ENDBLK
  5
EBB
330
EAF
100
AcDbEntity
  8
0
100
AcDbBlockEnd
  0
BLOCK
  5
EC7
330
EBC
100
AcDbEntity
  8
0
100
AcDbBlockBegin
  2
*D4
 70
     1
 10
0.0
 20
0.0
 30
0.0
  3
*D4
  1

  0
LINE
  5
195F
330
EBC
100
AcDbEntity
  8
BEM
 62
     0
370
    -2
100
AcDbLine
 10
792.8096506932456
 20
177.7324680621713
 30
0.0
 11
792.8096506932456
 21
135.8176332977114
 31
0.0
  0
LINE
  5
1960
330
EBC
100
AcDbEntity
  8
BEM
 62
     0
370
    -2
100
AcDbLine
 10
100.6325433847416
 20
184.6812725739269
 30
0.0
 11
100.6325433847416
 21
135.8176332977114
 31
0.0
  0
LINE
  5
1961
330
EBC
100
AcDbEntity
  8
BEM
 62
     0
370
    -2
100
AcDbLine
 10
785.8096506932456
 20
137.8176332977114
 30
0.0
 11
107.6325433847416
 21
137.8176332977114
 31
0.0
  0
SOLID
  5
1962
330
EBC
100
AcDbEntity
  8
BEM
 62
     0
100
AcDbTrace
 10
785.8096506932456
 20
138.984299964378
 30
0.0
 11
785.8096506932456
 21
136.6509666310447
 31
0.0
 12
792.8096506932456
 22
137.8176332977114
 32
0.0
 13
792.8096506932456
 23
137.8176332977114
 33
0.0
  0
SOLID
  5
1963
330
EBC
100
AcDbEntity
  8
BEM
 62
     0
100
AcDbTrace
 10
107.6325433847416
 20
138.984299964378
 30
0.0
 11
107.6325433847416
 21
136.6509666310447
 31
0.0
 12
100.6325433847416
 22
137.8176332977114
 32
0.0
 13
100.6325433847416
 23
137.8176332977114
 33
0.0
  0
MTEXT
  5
1964
330
EBC
100
AcDbEntity
  8
BEM
 62
     1
100
AcDbMText
 10
446.7210970389936
 20
144.3176332977114
 30
0.0
 40
7.0
 41
0.0
 71
     5
 72
     1
  1
\A1;1000
 73
     1
 44
1.0
  0
POINT
  5
1965
330
EBC
100
AcDbEntity
  8
DEFPOINTS
 62
     0
100
AcDbPoint
 10
792.8096506932456
 20
179.7324680621713
 30
0.0
  0
POINT
  5
1966
330
EBC
100
AcDbEntity
  8
DEFPOINTS
 62
     0
100
AcDbPoint
 10
100.6325433847416
 20
186.6812725739269
 30
0.0
  0
POINT
  5
1967
330
EBC
100
AcDbEntity
  8
DEFPOINTS
 62
     0
100
AcDbPoint
 10
100.6325433847416
 20
137.8176332977114
 30
0.0
  0
ENDBLK
  5
EC8
330
EBC
100
AcDbEntity
  8
0
100
AcDbBlockEnd
  0
BLOCK
  5
12F7
330
12ED
100
AcDbEntity
  8
0
100
AcDbBlockBegin
  2
*D5
 70
     1
 10
0.0
 20
0.0
 30
0.0
  3
*D5
  1

  0
LINE
  5
1302
330
12ED
100
AcDbEntity
  8
BEM
 62
     0
370
    -2
100
AcDbLine
 10
792.8096506932456
 20
177.7324680621713
 30
0.0
 11
792.8096506932456
 21
152.6378753307015
 31
0.0
  0
LINE
  5
1303
330
12ED
100
AcDbEntity
  8
BEM
 62
     0
370
    -2
100
AcDbLine
 10
632.8096506932456
 20
181.1075633595484
 30
0.0
 11
632.8096506932456
 21
152.6378753307015
 31
0.0
  0
LINE
  5
1304
330
12ED
100
AcDbEntity
  8
BEM
 62
     0
370
    -2
100
AcDbLine
 10
785.8096506932456
 20
154.6378753307015
 30
0.0
 11
639.8096506932456
 21
154.6378753307015
 31
0.0
  0
SOLID
  5
1305
330
12ED
100
AcDbEntity
  8
BEM
 62
     0
100
AcDbTrace
 10
785.8096506932456
 20
155.8045419973681
 30
0.0
 11
785.8096506932456
 21
153.4712086640348
 31
0.0
 12
792.8096506932456
 22
154.6378753307015
 32
0.0
 13
792.8096506932456
 23
154.6378753307015
 33
0.0
  0
SOLID
  5
1306
330
12ED
100
AcDbEntity
  8
BEM
 62
     0
100
AcDbTrace
 10
639.8096506932456
 20
155.8045419973681
 30
0.0
 11
639.8096506932456
 21
153.4712086640348
 31
0.0
 12
632.8096506932456
 22
154.6378753307015
 32
0.0
 13
632.8096506932456
 23
154.6378753307015
 33
0.0
  0
MTEXT
  5
1307
330
12ED
100
AcDbEntity
  8
BEM
 62
     1
100
AcDbMText
 10
712.8096506932457
 20
161.1378753307015
 30
0.0
 40
7.0
 41
0.0
 71
     5
 72
     1
  1
\A1;160
 73
     1
 44
1.0
  0
POINT
  5
1308
330
12ED
100
AcDbEntity
  8
DEFPOINTS
 62
     0
100
AcDbPoint
 10
792.8096506932456
 20
179.7324680621713
 30
0.0
  0
POINT
  5
1309
330
12ED
100
AcDbEntity
  8
DEFPOINTS
 62
     0
100
AcDbPoint
 10
632.8096506932456
 20
183.1075633595484
 30
0.0
  0
POINT
  5
130A
330
12ED
100
AcDbEntity
  8
DEFPOINTS
 62
     0
100
AcDbPoint
 10
632.8096506932456
 20
154.6378753307015
 30
0.0
  0
ENDBLK
  5
12F8
330
12ED
100
AcDbEntity
  8
0
100
AcDbBlockEnd
  0
BLOCK
  5
130D
330
130C
100
AcDbEntity
  8
0
100
AcDbBlockBegin
  2
8DI931D
 70
     0
 10
0.0
 20
0.0
 30
0.0
  3
8DI931D
  1

  0
LWPOLYLINE
  5
130E
330
130C
100
AcDbEntity
  8
STEMPEL
100
AcDbPolyline
 90
        6
 70
     1
 43
0.0
 10
-3.752776749732561
 20
6.5
 10
-7.505553499465122
 20
0.0
 10
-3.752776749732561
 20
-6.5
 10
3.752776749732561
 20
-6.5
 10
7.505553499465122
 20
0.0
 10
3.752776749732561
 20
6.5
  0
CIRCLE
  5
130F
330
130C
100
AcDbEntity
  8
STEMPEL
100
AcDbCircle
 10
0.0
 20
0.0
 30
0.0
 40
6.5
  0
ENDBLK
  5
1310
330
130C
100
AcDbEntity
  8
0
100
AcDbBlockEnd
  0
ENDSEC
  0
SECTION
  2
ENTITIES
  0
LINE
  5
58
330
1E
100
AcDbEntity
  8
STEMPEL
100
AcDbLine
 10
830.0000000000004
 20
109.9999999999998
 30
0.0
 11
470.0000000000001
 21
109.9999999999999
 31
0.0
  0
LINE
  5
59
330
1E
100
AcDbEntity
  8
STEMPEL
100
AcDbLine
 10
470.0000000000001
 20
109.9999999999999
 30
0.0
 11
470.0000000000001
 21
9.999999999999886
 31
0.0
  0
LINE
  5
5A
330
1E
100
AcDbEntity
  8
STEMPEL
100
AcDbLine
 10
566.0000000000003
 20
109.9999999999997
 30
0.0
 11
566.0000000000001
 21
9.999999999999772
 31
0.0
  0
LINE
  5
5B
330
1E
100
AcDbEntity
  8
STEMPEL
100
AcDbLine
 10
650.0
 20
109.9999999999999
 30
0.0
 11
650.0
 21
9.999999999999886
 31
0.0
  0
LINE
  5
5C
330
1E
100
AcDbEntity
  8
STEMPEL
100
AcDbLine
 10
752.0000000000003
 20
109.9999999999995
 30
0.0
 11
752.0000000000003
 21
39.99999999999989
 31
0.0
  0
LINE
  5
5D
330
1E
100
AcDbEntity
  8
STEMPEL
100
AcDbLine
 10
566.0000000000001
 20
29.99999999999989
 30
0.0
 11
470.0000000000001
 21
29.99999999999989
 31
0.0
  0
LINE
  5
5E
330
1E
100
AcDbEntity
  8
STEMPEL
100
AcDbLine
 10
830.0000000000004
 20
39.99999999999989
 30
0.0
 11
566.0000000000001
 21
39.99999999999989
 31
0.0
  0
LINE
  5
5F
330
1E
100
AcDbEntity
  8
STEMPEL
100
AcDbLine
 10
830.0000000000004
 20
79.99999999999989
 30
0.0
 11
566.0000000000003
 21
79.99999999999989
 31
0.0
  0
LINE
  5
60
330
1E
100
AcDbEntity
  8
VOLL
100
AcDbLine
 10
484.0000000000002
 20
109.9999999999999
 30
0.0
 11
484.0000000000001
 21
9.999999999999886
 31
0.0
  0
LINE
  5
61
330
1E
100
AcDbEntity
  8
VOLL
100
AcDbLine
 10
524.0000000000001
 20
109.9999999999997
 30
0.0
 11
524.0
 21
9.999999999999772
 31
0.0
  0
LINE
  5
62
330
1E
100
AcDbEntity
  8
VOLL
100
AcDbLine
 10
544.0000000000002
 20
109.9999999999997
 30
0.0
 11
544.0
 21
9.999999999999772
 31
0.0
  0
LINE
  5
63
330
1E
100
AcDbEntity
  8
VOLL
100
AcDbLine
 10
584.0000000000003
 20
79.99999999999989
 30
0.0
 11
584.0000000000003
 21
39.99999999999989
 31
0.0
  0
LINE
  5
64
330
1E
100
AcDbEntity
  8
VOLL
100
AcDbLine
 10
610.0000000000003
 20
109.9999999999996
 30
0.0
 11
610.0000000000001
 21
39.99999999999989
 31
0.0
  0
LINE
  5
65
330
1E
100
AcDbEntity
  8
HILF
100
AcDbLine
 10
470.0000000000001
 20
99.99999999999989
 30
0.0
 11
566.0000000000003
 21
99.99999999999989
 31
0.0
  0
LINE
  5
66
330
1E
100
AcDbEntity
  8
HILF
100
AcDbLine
 10
470.0000000000001
 20
89.99999999999989
 30
0.0
 11
566.0000000000003
 21
89.99999999999989
 31
0.0
  0
LINE
  5
67
330
1E
100
AcDbEntity
  8
HILF
100
AcDbLine
 10
470.0000000000001
 20
79.99999999999989
 30
0.0
 11
566.0000000000003
 21
79.99999999999989
 31
0.0
  0
LINE
  5
68
330
1E
100
AcDbEntity
  8
HILF
100
AcDbLine
 10
470.0000000000001
 20
69.99999999999989
 30
0.0
 11
566.0000000000003
 21
69.99999999999989
 31
0.0
  0
LINE
  5
69
330
1E
100
AcDbEntity
  8
HILF
100
AcDbLine
 10
470.0000000000001
 20
59.99999999999989
 30
0.0
 11
566.0000000000003
 21
59.99999999999989
 31
0.0
  0
LINE
  5
6A
330
1E
100
AcDbEntity
  8
HILF
100
AcDbLine
 10
470.0000000000001
 20
49.99999999999989
 30
0.0
 11
566.0000000000003
 21
49.99999999999989
 31
0.0
  0
LINE
  5
6B
330
1E
100
AcDbEntity
  8
HILF
100
AcDbLine
 10
470.0000000000001
 20
39.99999999999989
 30
0.0
 11
566.0000000000003
 21
39.99999999999989
 31
0.0
  0
LINE
  5
6C
330
1E
100
AcDbEntity
  8
HILF
100
AcDbLine
 10
566.0000000000003
 20
69.99999999999989
 30
0.0
 11
650.0
 21
69.99999999999989
 31
0.0
  0
LINE
  5
6D
330
1E
100
AcDbEntity
  8
HILF
100
AcDbLine
 10
566.0000000000003
 20
59.99999999999989
 30
0.0
 11
650.0
 21
59.99999999999989
 31
0.0
  0
LINE
  5
6E
330
1E
100
AcDbEntity
  8
HILF
100
AcDbLine
 10
566.0000000000003
 20
49.99999999999989
 30
0.0
 11
650.0
 21
49.99999999999989
 31
0.0
  0
LINE
  5
6F
330
1E
100
AcDbEntity
  8
HILF
100
AcDbLine
 10
654.773680109695
 20
84.03758247564121
 30
0.0
 11
746.6297842514812
 21
84.03758247564121
 31
0.0
  0
LINE
  5
70
330
1E
100
AcDbEntity
  8
HILF
100
AcDbLine
 10
654.773680109695
 20
69.99999999999989
 30
0.0
 11
746.6297842514812
 21
69.99999999999989
 31
0.0
  0
LINE
  5
71
330
1E
100
AcDbEntity
  8
HILF
100
AcDbLine
 10
654.773680109695
 20
59.99999999999989
 30
0.0
 11
746.6297842514812
 21
59.99999999999989
 31
0.0
  0
LINE
  5
72
330
1E
100
AcDbEntity
  8
HILF
100
AcDbLine
 10
654.773680109695
 20
49.99999999999989
 30
0.0
 11
746.6297842514812
 21
49.99999999999989
 31
0.0
  0
LINE
  5
73
330
1E
100
AcDbEntity
  8
VOLL
100
AcDbLine
 10
752.0000000000003
 20
59.99999999999989
 30
0.0
 11
830.0000000000004
 21
59.99999999999989
 31
0.0
  0
LINE
  5
74
330
1E
100
AcDbEntity
  8
HILF
100
AcDbLine
 10
756.7238616296996
 20
83.77983636955809
 30
0.0
 11
824.8588839326732
 21
83.77983636955804
 31
0.0
  0
LINE
  5
75
330
1E
100
AcDbEntity
  8
HILF
100
AcDbLine
 10
654.773680109695
 20
14.89398258028291
 30
0.0
 11
824.8588839326732
 21
14.89398258028291
 31
0.0
  0
TEXT
  5
76
330
1E
100
AcDbEntity
  8
TEXT
100
AcDbText
 10
492.3998239263299
 20
18.67381894984115
 30
0.0
 40
4.0
  1
Änderung
 41
0.8
  7
GREEKS
 72
     1
 11
503.1426810691869
 21
18.67381894984115
 31
0.0
100
AcDbText
  0
TEXT
  5
78
330
1E
100
AcDbEntity
  8
TEXT
100
AcDbText
 10
573.5163572150376
 20
102.4620895087087
 30
0.0
 40
5.0
  1
Maßstab
 41
0.8
  7
GREEKS
100
AcDbText
  0
TEXT
  5
79
330
1E
100
AcDbEntity
  8
TEXT
100
AcDbText
 10
654.8779403809009
 20
102.5489328011778
 30
0.0
 40
5.0
  1
Benennung
 41
0.8
  7
GREEKS
100
AcDbText
  0
TEXT
  5
7A
330
1E
100
AcDbEntity
  8
TEXT
100
AcDbText
 10
756.1787549576343
 20
102.3132034537135
 30
0.0
 40
5.0
  1
Zeichnungs Nr.
 41
0.8
  7
GREEKS
100
AcDbText
  0
TEXT
  5
7B
330
1E
100
AcDbEntity
  8
TEXT
100
AcDbText
 10
654.7422383911359
 20
30.84560570193048
 30
0.0
 40
5.0
  1
Bauvorhaben
 41
0.8
  7
GREEKS
100
AcDbText
  0
TEXT
  5
7C
330
1E
100
AcDbEntity
  8
TEXT
100
AcDbText
 10
756.7238616296995
 20
73.18118237099949
 30
0.0
 40
5.0
  1
Ersatz für:
 41
0.8
  7
GREEKS
100
AcDbText
  0
TEXT
  5
7D
330
1E
100
AcDbEntity
  8
TEXT
100
AcDbText
 10
478.2664110704578
 20
13.6546584602718
 30
0.0
 40
4.0
  1
Index
 50
89.99999999999998
 41
0.8
  7
GREEKS
100
AcDbText
  0
TEXT
  5
7E
330
1E
100
AcDbEntity
  8
TEXT
100
AcDbText
 10
529.8990113186979
 20
18.67156269339799
 30
0.0
 40
4.0
  1
Tag
 41
0.8
  7
GREEKS
 72
     1
 11
533.6323446520313
 21
18.67156269339799
 31
0.0
100
AcDbText
  0
TEXT
  5
7F
330
1E
100
AcDbEntity
  8
TEXT
100
AcDbText
 10
548.9795678138292
 20
18.59324216966391
 30
0.0
 40
4.0
  1
Name
 41
0.8
  7
GREEKS
 72
     1
 11
555.3033773376387
 21
18.59324216966391
 31
0.0
100
AcDbText
  0
TEXT
  5
80
330
1E
100
AcDbEntity
  8
TEXT
100
AcDbText
 10
592.3311673153651
 20
73.31880501229909
 30
0.0
 40
4.0
  1
Tag
 41
0.8
  7
GREEKS
100
AcDbText
  0
TEXT
  5
81
330
1E
100
AcDbEntity
  8
TEXT
100
AcDbText
 10
622.4626584226296
 20
73.30961091915208
 30
0.0
 40
4.0
  1
Name
 41
0.8
  7
GREEKS
100
AcDbText
  0
TEXT
  5
82
330
1E
100
AcDbEntity
  8
TEXT
100
AcDbText
 10
567.5836127167615
 20
63.62990369617946
 30
0.0
 40
4.0
  1
Gez.
 41
0.8
  7
GREEKS
100
AcDbText
  0
TEXT
  5
83
330
1E
100
AcDbEntity
  8
TEXT
100
AcDbText
 10
567.5515086571672
 20
53.68926291428365
 30
0.0
 40
4.0
  1
Gepr.
 41
0.8
  7
GREEKS
100
AcDbText
  0
TEXT
  5
84
330
1E
100
AcDbEntity
  8
TEXT
100
AcDbText
 10
567.6006777387303
 20
43.52946389649789
 30
0.0
 40
4.0
  1
Norm.
 41
0.8
  7
GREEKS
100
AcDbText
  0
TEXT
  5
85
330
1E
100
AcDbEntity
  8
TEXT
100
AcDbText
 10
757.2400861497007
 20
52.07416177878585
 30
0.0
 40
5.0
  1
ersetzt durch:
 41
0.8
  7
GREEKS
100
AcDbText
  0
TEXT
  5
86
330
1E
100
AcDbEntity
  8
TEXT
100
AcDbText
 10
568.8693027807324
 20
72.96682596523718
 30
0.0
 40
4.0
  1
2009
 41
0.8
  7
GREEKS
100
AcDbText
  0
LINE
  5
87
330
1E
100
AcDbEntity
  8
HILF
100
AcDbLine
 10
0.0
 20
0.0
 30
0.0
 11
840.0000000000002
 21
-0.0000000000001137
 31
0.0
  0
LINE
  5
88
330
1E
100
AcDbEntity
  8
HILF
100
AcDbLine
 10
840.0000000000002
 20
-0.0000000000001137
 30
0.0
 11
840.0000000000002
 21
593.9999999999998
 31
0.0
  0
LINE
  5
89
330
1E
100
AcDbEntity
  8
HILF
100
AcDbLine
 10
840.0000000000002
 20
593.9999999999998
 30
0.0
 11
0.0000000000001705
 21
594.0
 31
0.0
  0
LINE
  5
8B
330
1E
100
AcDbEntity
  8
STEMPEL
100
AcDbLine
 10
830.0
 20
583.9999999999998
 30
0.0
 11
40.00000000000011
 21
584.0
 31
0.0
  0
LINE
  5
8D
330
1E
100
AcDbEntity
  8
STEMPEL
100
AcDbLine
 10
40.0
 20
10.0
 30
0.0
 11
830.0
 21
9.999999999999886
 31
0.0
  0
LINE
  5
8E
330
1E
100
AcDbEntity
  8
STEMPEL
100
AcDbLine
 10
830.0
 20
9.999999999999886
 30
0.0
 11
830.0
 21
583.9999999999998
 31
0.0
  0
TEXT
  5
8F
330
1E
100
AcDbEntity
  8
TEXT
 62
     1
100
AcDbText
 10
655.0390572473189
 20
87.3734307565253
 30
0.0
 40
7.0
  1
Regenstandrohr DN125
 41
0.75
  7
GREEKS
100
AcDbText
  0
TEXT
  5
90
330
1E
100
AcDbEntity
  8
TEXT
 62
     1
100
AcDbText
 10
767.1961422184136
 20
87.37343075652526
 30
0.0
 40
7.0
  1
45510125W
 41
0.8
  7
GREEKS
 72
     1
 11
790.1294755517469
 21
87.37343075652526
 31
0.0
100
AcDbText
  0
TEXT
  5
91
330
1E
100
AcDbEntity
  8
TEXT
100
AcDbText
 10
618.5090226415829
 20
102.8398961137899
 30
0.0
 40
5.0
  1
Zul.Abw.
 41
0.8
  7
GREEKS
100
AcDbText
  0
TEXT
  5
93
330
1E
100
AcDbEntity
  8
TEXT
100
AcDbText
 10
590.1565237511869
 20
63.15085876120213
 30
0.0
 40
4.0
  1
28.09.
 41
0.8
  7
GREEKS
 72
     1
 11
597.1660475607107
 21
63.15085876120213
 31
0.0
100
AcDbText
  0
TEXT
  5
94
330
1E
100
AcDbEntity
  8
TEXT
100
AcDbText
 10
624.0231753226609
 20
62.94297655165462
 30
0.0
 40
4.0
  1
Koeh
 41
0.8
  7
GREEKS
 72
     1
 11
629.2803181798038
 21
62.94297655165462
 31
0.0
100
AcDbText
  0
TEXT
  5
97
330
1E
100
AcDbEntity
  8
TEXT
100
AcDbText
 10
654.3410940884991
 20
52.59097337846049
 30
0.0
 40
5.0
  1
EDV-Art.Nr. 4.5510.125C
 41
0.8
  7
GREEKS
100
AcDbText
  0
TEXT
  5
98
330
1E
100
AcDbEntity
  8
TEXT
100
AcDbText
 10
654.1676050109347
 20
43.31127624791498
 30
0.0
 40
4.0
  1
45510125W.DWG
 41
0.8
  7
GREEKS
100
AcDbText
  0
TEXT
  5
99
330
1E
100
AcDbEntity
  8
TEXT
 62
     1
100
AcDbText
 10
582.703491203422
 20
87.47077088414959
 30
0.0
 40
7.0
  1
1:2
 41
0.8
  7
GREEKS
100
AcDbText
  0
TEXT
  5
9A
330
1E
100
AcDbEntity
  8
TEXT
100
AcDbText
 10
470.0441139350129
 20
114.1143585051042
 30
0.0
 40
5.0
  1
Erstellt mit AUTOCAD 2004
 41
0.8
  7
GREEKS
100
AcDbText
  0
INSERT
  5
9B
330
1E
100
AcDbEntity
  8
HILF
100
AcDbBlockReference
  2
LORO
 10
573.0624985962354
 20
36.98059300298954
 30
0.0
 41
2.0
 42
2.0
 43
2.0
  0
LINE
  5
9C
330
1E
100
AcDbEntity
  8
BEM
100
AcDbLine
 10
456.0
 20
-0.0000000000001137
 30
0.0
 11
456.0
 21
9.999999999999886
 31
0.0
  0
LINE
  5
13E
330
1E
100
AcDbEntity
  8
HILF
100
AcDbLine
 10
0.0
 20
0.0
 30
0.0
 11
0.0000000000001705
 21
594.0
 31
0.0
  0
LINE
  5
13F
330
1E
100
AcDbEntity
  8
STEMPEL
100
AcDbLine
 10
40.0
 20
10.0
 30
0.0
 11
40.00000000000011
 21
584.0
 31
0.0
  0
LINE
  5
14A
330
1E
100
AcDbEntity
  8
HILF
100
AcDbLine
 10
0.0000000000000568
 20
297.0
 30
0.0
 11
40.00000000000006
 21
297.0
 31
0.0
  0
TEXT
  5
15B
330
1E
100
AcDbEntity
  8
BEM
100
AcDbText
 10
837.3022923857165
 20
10.16790107998847
 30
0.0
 40
4.0
  1
Diese Zeichnung ist urheberrechtlich geschützt und bleibt unser Eigentum. Sie darf weder ganz noch teilweise verfielfältigt und nicht an Dritte weitergegeben werden.
 50
89.99999999999998
 41
0.8
  7
GREEKS
100
AcDbText
  0
TEXT
  5
AC9
330
1E
100
AcDbEntity
  8
TEXT
 62
     1
100
AcDbText
 10
700.1618631334714
 20
442.3270059764176
 30
0.0
 40
7.0
  1
DN125
 41
0.8
  7
GREEKS
100
AcDbText
  0
TEXT
  5
ACA
330
1E
100
AcDbEntity
  8
TEXT
100
AcDbText
 10
612.2898419893275
 20
89.26643524492067
 30
0.0
 40
4.0
  1
DIN EN1124-3
 41
0.8
  7
GREEKS
 72
     1
 11
629.2803181798038
 21
89.26643524492067
 31
0.0
100
AcDbText
  0
TEXT
  5
AE3
330
1E
100
AcDbEntity
  8
TEXT
 62
     1
100
AcDbText
 10
664.6057658946469
 20
129.0783465745481
 30
0.0
 40
7.0
  1

 41
0.8
  7
GREEKS
100
AcDbText
  0
DIMENSION
  5
D10
330
1E
100
AcDbEntity
  8
BEM
100
AcDbDimension
  2
*D2
 10
438.8673914299369
 20
157.4208105347395
 30
0.0
 11
269.7499674073393
 21
163.9208105347395
 31
0.0
 70
    32
  1
620
 71
     5
 42
338.2348480451954
  3
Standard
100
AcDbAlignedDimension
 13
100.6325433847416
 23
186.6812725739269
 33
0.0
 14
438.8673914299369
 24
190.9909128595776
 34
0.0
100
AcDbRotatedDimension
1001
ACAD
1000
DSTYLE
1002
{
1070
    40
1040
2.0
1070
    41
1040
3.5
1070
    42
1040
1.0
1070
    43
1040
7.0
1070
    44
1040
1.0
1070
    73
1070
     0
1070
    74
1070
     0
1070
    77
1070
     1
1070
    78
1070
     8
1070
    79
1070
     2
1070
   140
1040
3.5
1070
   141
1040
1.5
1070
   146
1040
0.5142857142857144
1070
   147
1040
1.5
1070
   172
1070
     1
1070
   178
1070
     1
1070
   179
1070
     2
1070
   271
1070
     2
1070
   272
1070
     2
1070
   284
1070
     8
1070
   285
1070
     8
1070
   286
1070
     8
1002
}
  0
LINE
  5
D11
330
1E
100
AcDbEntity
  8
STEMPEL
100
AcDbLine
 10
792.8096506932456
 20
510.2833364925989
 30
0.0
 11
791.8858211010024
 21
510.7141253062922
 31
0.0
  0
ARC
  5
D12
330
1E
100
AcDbEntity
  8
STEMPEL
100
AcDbCircle
 10
779.2072732487813
 20
483.5248916951926
 30
0.0
 40
30.0
100
AcDbArc
 50
65.00000000000652
 51
89.99999999999998
  0
ARC
  5
D13
330
1E
100
AcDbEntity
  8
STEMPEL
100
AcDbCircle
 10
739.8096506932457
 20
527.0248916951926
 30
0.0
 40
18.0
100
AcDbArc
 50
270.0
 51
295.0071583365423
  0
ARC
  5
D14
330
1E
100
AcDbEntity
  8
STEMPEL
100
AcDbCircle
 10
760.1006506932456
 20
483.5248916951926
 30
0.0
 40
29.99973625969209
100
AcDbArc
 50
89.99999999999998
 51
115.0071583365423
  0
LINE
  5
D15
330
1E
100
AcDbEntity
  8
STEMPEL
100
AcDbLine
 10
779.2072732487813
 20
513.5248916951926
 30
0.0
 11
760.1006506932455
 21
513.5248916951926
 31
0.0
  0
LINE
  5
D16
330
1E
100
AcDbEntity
  8
STEMPEL
100
AcDbLine
 10
739.8096506932456
 20
509.0248916951926
 30
0.0
 11
641.2783701159168
 21
509.0248916951926
 31
0.0
  0
LINE
  5
D17
330
1E
100
AcDbEntity
  8
STEMPEL
100
AcDbLine
 10
792.8096506932456
 20
364.7664468977864
 30
0.0
 11
791.8858211010024
 21
364.3356580840931
 31
0.0
  0
ARC
  5
D18
330
1E
100
AcDbEntity
  8
STEMPEL
100
AcDbCircle
 10
779.2072732487813
 20
391.5248916951926
 30
0.0
 40
30.0
100
AcDbArc
 50
270.0
 51
294.9999999999934
  0
LINE
  5
D19
330
1E
100
AcDbEntity
  8
STEMPEL
100
AcDbLine
 10
792.8096506932456
 20
325.2493576569837
 30
0.0
 11
791.8858211010024
 21
325.680146470677
 31
0.0
  0
ARC
  5
D1A
330
1E
100
AcDbEntity
  8
STEMPEL
100
AcDbCircle
 10
779.2072732487812
 20
298.4909128595774
 30
0.0
 40
30.0
100
AcDbArc
 50
65.00000000000652
 51
89.99999999999998
  0
ARC
  5
D1B
330
1E
100
AcDbEntity
  8
STEMPEL
100
AcDbCircle
 10
739.8096506932456
 20
348.0248916951927
 30
0.0
 40
18.0
100
AcDbArc
 50
64.99284166345768
 51
89.99999999999998
  0
ARC
  5
D1C
330
1E
100
AcDbEntity
  8
STEMPEL
100
AcDbCircle
 10
760.1006506932455
 20
298.4909128595774
 30
0.0
 40
29.99973625969209
100
AcDbArc
 50
89.99999999999998
 51
115.0071583365423
  0
ARC
  5
D1D
330
1E
100
AcDbEntity
  8
STEMPEL
100
AcDbCircle
 10
760.1006506932456
 20
391.5248916951926
 30
0.0
 40
29.99973625969209
100
AcDbArc
 50
244.9928416634577
 51
270.0
  0
ARC
  5
D1E
330
1E
100
AcDbEntity
  8
STEMPEL
100
AcDbCircle
 10
739.8096506932457
 20
341.9909128595775
 30
0.0
 40
18.0
100
AcDbArc
 50
270.0
 51
295.0071583365423
  0
LINE
  5
D1F
330
1E
100
AcDbEntity
  8
STEMPEL
100
AcDbLine
 10
779.2072732487813
 20
328.4909128595775
 30
0.0
 11
760.1006506932455
 21
328.4909128595775
 31
0.0
  0
LINE
  5
D20
330
1E
100
AcDbEntity
  8
STEMPEL
100
AcDbLine
 10
779.2072732487813
 20
361.5248916951927
 30
0.0
 11
760.1006506932455
 21
361.5248916951927
 31
0.0
  0
LINE
  5
D21
330
1E
100
AcDbEntity
  8
STEMPEL
100
AcDbLine
 10
739.8096506932456
 20
323.9909128595775
 30
0.0
 11
641.2783701159167
 21
323.9909128595775
 31
0.0
  0
LINE
  5
D22
330
1E
100
AcDbEntity
  8
STEMPEL
100
AcDbLine
 10
739.8096506932456
 20
366.0248916951927
 30
0.0
 11
641.2783701159168
 21
366.0248916951925
 31
0.0
  0
LINE
  5
D23
330
1E
100
AcDbEntity
  8
STEMPEL
100
AcDbLine
 10
792.8096506932456
 20
179.7324680621713
 30
0.0
 11
791.8858211010024
 21
179.3016792484779
 31
0.0
  0
ARC
  5
D24
330
1E
100
AcDbEntity
  8
STEMPEL
100
AcDbCircle
 10
779.2072732487812
 20
206.4909128595775
 30
0.0
 40
30.0
100
AcDbArc
 50
270.0
 51
294.9999999999934
  0
ARC
  5
D25
330
1E
100
AcDbEntity
  8
STEMPEL
100
AcDbCircle
 10
739.8096506932455
 20
162.9909128595775
 30
0.0
 40
18.0
100
AcDbArc
 50
64.99284166345768
 51
89.99999999999998
  0
ARC
  5
D26
330
1E
100
AcDbEntity
  8
STEMPEL
100
AcDbCircle
 10
760.1006506932455
 20
206.4909128595775
 30
0.0
 40
29.99973625969209
100
AcDbArc
 50
244.9928416634577
 51
270.0
  0
LINE
  5
D27
330
1E
100
AcDbEntity
  8
STEMPEL
100
AcDbLine
 10
779.2072732487813
 20
176.4909128595775
 30
0.0
 11
760.1006506932455
 21
176.4909128595775
 31
0.0
  0
LINE
  5
D28
330
1E
100
AcDbEntity
  8
STEMPEL
100
AcDbLine
 10
739.8096506932456
 20
180.9909128595775
 30
0.0
 11
641.2783701159167
 21
180.9909128595774
 31
0.0
  0
LINE
  5
D29
330
1E
100
AcDbEntity
  8
HILF
100
AcDbLine
 10
743.7066615119499
 20
321.864728256456
 30
0.0
 11
743.7066615119499
 21
183.1170974626981
 31
0.0
  0
LINE
  5
D2A
330
1E
100
AcDbEntity
  8
STEMPEL
100
AcDbLine
 10
792.8096506932456
 20
325.2493576569837
 30
0.0
 11
792.8096506932456
 21
179.7324680621713
 31
0.0
  0
LINE
  5
D2D
330
1E
100
AcDbEntity
  8
HILF
100
AcDbLine
 10
743.7066615119499
 20
506.8987070920711
 30
0.0
 11
743.7066615119499
 21
368.1510762983132
 31
0.0
  0
LINE
  5
D2E
330
1E
100
AcDbEntity
  8
STEMPEL
100
AcDbLine
 10
792.8096506932456
 20
510.2833364925989
 30
0.0
 11
792.8096506932456
 21
364.7664468977864
 31
0.0
  0
ARC
  5
D2F
330
1E
100
AcDbEntity
  8
STEMPEL
100
AcDbCircle
 10
625.3096506932457
 20
514.0248916951929
 30
0.0
 40
10.0
100
AcDbArc
 50
270.0
 51
304.771944031949
  0
LINE
  5
D3F
330
1E
100
AcDbEntity
  8
STEMPEL
100
AcDbLine
 10
625.3096506932457
 20
504.0248916951927
 30
0.0
 11
585.4952320243516
 21
504.0248916951927
 31
0.0
  0
LINE
  5
D40
330
1E
100
AcDbEntity
  8
MITTEL
100
AcDbLine
 10
438.8673914299371
 20
523.5248916951928
 30
0.0
 11
438.867391429937
 21
437.5248916951928
 31
0.0
  0
LINE
  5
D8A
330
1E
100
AcDbEntity
  8
STEMPEL
100
AcDbLine
 10
376.8673914299372
 20
504.0248916951928
 30
0.0
 11
268.8511031782307
 21
504.0248916951928
 31
0.0
  0
ARC
  5
D8B
330
1E
100
AcDbEntity
  8
STEMPEL
100
AcDbCircle
 10
625.3096506932457
 20
328.9909128595776
 30
0.0
 40
10.0
100
AcDbArc
 50
270.0
 51
304.771944031949
  0
ARC
  5
D8C
330
1E
100
AcDbEntity
  8
STEMPEL
100
AcDbCircle
 10
625.3096506932457
 20
361.0248916951926
 30
0.0
 40
10.0
100
AcDbArc
 50
55.22805596805095
 51
89.99999999999998
  0
ARC
  5
D8D
330
1E
100
AcDbEntity
  8
STEMPEL
100
AcDbCircle
 10
625.3096506932455
 20
175.9909128595774
 30
0.0
 40
10.0
100
AcDbArc
 50
55.22805596805095
 51
89.99999999999998
  0
LINE
  5
D91
330
1E
100
AcDbEntity
  8
HILF
100
AcDbLine
 10
635.899841373912
 20
320.5278117232099
 30
0.0
 11
635.899841373912
 21
184.4540139959463
 31
0.0
  0
LINE
  5
D92
330
1E
100
AcDbEntity
  8
HILF
100
AcDbLine
 10
628.2977222165816
 20
316.8533089538885
 30
0.0
 11
628.2977222165816
 21
188.1285167652679
 31
0.0
  0
LINE
  5
D96
330
1E
100
AcDbEntity
  8
MITTEL
100
AcDbLine
 10
438.8673914299369
 20
313.9909128595777
 30
0.0
 11
438.8673914299369
 21
190.9909128595776
 31
0.0
  0
DIMENSION
  5
D9D
330
1E
100
AcDbEntity
  8
BEM
100
AcDbDimension
  2
*D3
 10
78.92891029076392
 20
318.9909128595776
 30
0.0
 11
72.42891029076386
 21
252.4909128595775
 31
0.0
 70
    32
  1
%%c<>
 71
     5
 42
133.0000000000002
  3
Standard
100
AcDbAlignedDimension
 13
108.5233910274695
 23
185.9909128595774
 33
0.0
 14
108.5233910274695
 24
318.9909128595776
 34
0.0
 50
90.0
100
AcDbRotatedDimension
1001
ACAD
1000
DSTYLE
1002
{
1070
    40
1040
2.0
1070
    41
1040
3.5
1070
    42
1040
1.0
1070
    43
1040
7.0
1070
    44
1040
1.0
1070
    73
1070
     0
1070
    74
1070
     0
1070
    77
1070
     1
1070
    78
1070
     8
1070
    79
1070
     2
1070
   140
1040
3.5
1070
   141
1040
1.5
1070
   146
1040
0.5142857142857144
1070
   147
1040
1.5
1070
   172
1070
     1
1070
   178
1070
     1
1070
   179
1070
     2
1070
   271
1070
     2
1070
   272
1070
     2
1070
   284
1070
     8
1070
   285
1070
     8
1070
   286
1070
     8
1002
}
  0
LINE
  5
DC8
330
1E
100
AcDbEntity
  8
STEMPEL
100
AcDbLine
 10
625.3096506932457
 20
185.9909128595774
 30
0.0
 11
585.4952320243516
 21
185.9909128595773
 31
0.0
  0
LINE
  5
DC9
330
1E
100
AcDbEntity
  8
STEMPEL
100
AcDbLine
 10
625.3096506932457
 20
318.9909128595776
 30
0.0
 11
585.4952320243516
 21
318.9909128595776
 31
0.0
  0
LINE
  5
DF4
330
1E
100
AcDbEntity
  8
STEMPEL
100
AcDbLine
 10
625.3096506932457
 20
371.0248916951926
 30
0.0
 11
585.4952320243516
 21
371.0248916951926
 31
0.0
  0
LINE
  5
DF5
330
1E
100
AcDbEntity
  8
HILF
100
AcDbLine
 10
635.899841373912
 20
505.561790558825
 30
0.0
 11
635.899841373912
 21
369.4879928315615
 31
0.0
  0
LINE
  5
DF6
330
1E
100
AcDbEntity
  8
HILF
100
AcDbLine
 10
628.2977222165816
 20
501.8872877895035
 30
0.0
 11
628.2977222165816
 21
373.1624956008831
 31
0.0
  0
DIMENSION
  5
E4C
330
1E
100
AcDbEntity
  8
BEM
100
AcDbDimension
  2
*D4
 10
100.6325433847416
 20
137.8176332977114
 30
0.0
 11
446.7210970389936
 21
144.3176332977114
 31
0.0
 70
    32
  1
1000
 71
     5
 42
692.1771073085039
  3
Standard
100
AcDbAlignedDimension
 13
792.8096506932456
 23
179.7324680621713
 33
0.0
 14
100.6325433847416
 24
186.6812725739269
 34
0.0
100
AcDbRotatedDimension
1001
ACAD
1000
DSTYLE
1002
{
1070
    40
1040
2.0
1070
    41
1040
3.5
1070
    42
1040
1.0
1070
    43
1040
7.0
1070
    44
1040
1.0
1070
    73
1070
     0
1070
    74
1070
     0
1070
    77
1070
     1
1070
    78
1070
     8
1070
    79
1070
     2
1070
   140
1040
3.5
1070
   141
1040
1.5
1070
   146
1040
0.5142857142857144
1070
   147
1040
1.5
1070
   172
1070
     1
1070
   178
1070
     1
1070
   179
1070
     2
1070
   271
1070
     2
1070
   272
1070
     2
1070
   284
1070
     8
1070
   285
1070
     8
1070
   286
1070
     8
1002
}
  0
LINE
  5
E4D
330
1E
100
AcDbEntity
  8
MITTEL
100
AcDbLine
 10
797.8096506932454
 20
252.4909128595774
 30
0.0
 11
95.63254338474161
 21
252.4909128595778
 31
0.0
  0
ARC
  5
E4F
330
1E
100
AcDbEntity
  8
STEMPEL
100
AcDbCircle
 10
641.2783701159167
 20
198.9909128595775
 30
0.0
 40
18.0
100
AcDbArc
 50
235.228055968051
 51
270.0
  0
ARC
  5
E50
330
1E
100
AcDbEntity
  8
STEMPEL
100
AcDbCircle
 10
641.2783701159167
 20
305.9909128595775
 30
0.0
 40
18.0
100
AcDbArc
 50
89.99999999999998
 51
124.771944031949
  0
ARC
  5
E51
330
1E
100
AcDbEntity
  8
STEMPEL
100
AcDbCircle
 10
641.2783701159169
 20
384.0248916951927
 30
0.0
 40
18.0
100
AcDbArc
 50
235.228055968051
 51
270.0
  0
ARC
  5
E52
330
1E
100
AcDbEntity
  8
STEMPEL
100
AcDbCircle
 10
641.2783701159169
 20
491.0248916951927
 30
0.0
 40
18.0
100
AcDbArc
 50
89.99999999999998
 51
124.771944031949
  0
LINE
  5
E53
330
1E
100
AcDbEntity
  8
MITTEL
100
AcDbLine
 10
797.8096506932456
 20
437.5248916951925
 30
0.0
 11
95.63254338474166
 21
437.5248916951928
 31
0.0
  0
LINE
  5
1002
330
1E
100
AcDbEntity
  8
STEMPEL
100
AcDbLine
 10
100.6325433847416
 20
186.6812725739269
 30
0.0
 11
100.6325433847416
 21
318.3005531452288
 31
0.0
  0
LINE
  5
1003
330
1E
100
AcDbEntity
  8
HILF
100
AcDbLine
 10
108.6325433847416
 20
188.4909128595777
 30
0.0
 11
108.6325433847415
 21
316.4909128595777
 31
0.0
  0
LINE
  5
1004
330
1E
100
AcDbEntity
  8
STEMPEL
100
AcDbLine
 10
108.5233910274738
 20
318.990912859578
 30
0.0
 11
100.6325433847416
 21
318.3005531452288
 31
0.0
  0
LINE
  5
1005
330
1E
100
AcDbEntity
  8
STEMPEL
100
AcDbLine
 10
108.5233910274703
 20
185.9909128595779
 30
0.0
 11
100.6325433847416
 21
186.6812725739269
 31
0.0
  0
LINE
  5
1007
330
1E
100
AcDbEntity
  8
STEMPEL
100
AcDbLine
 10
108.5233910274704
 20
371.0248916951929
 30
0.0
 11
100.6325433847416
 21
371.715251409542
 31
0.0
  0
LINE
  5
1008
330
1E
100
AcDbEntity
  8
STEMPEL
100
AcDbLine
 10
108.5233910274739
 20
504.0248916951932
 30
0.0
 11
100.6325433847417
 21
503.3345319808439
 31
0.0
  0
LINE
  5
1009
330
1E
100
AcDbEntity
  8
HILF
100
AcDbLine
 10
108.6325433847416
 20
373.5248916951928
 30
0.0
 11
108.6325433847416
 21
501.5248916951929
 31
0.0
  0
LINE
  5
100A
330
1E
100
AcDbEntity
  8
STEMPEL
100
AcDbLine
 10
100.6325433847416
 20
371.715251409542
 30
0.0
 11
100.6325433847417
 21
503.3345319808439
 31
0.0
  0
TEXT
  5
10F1
330
1E
100
AcDbEntity
  8
TEXT
 62
     1
100
AcDbText
 10
700.1618631334712
 20
257.2930271408024
 30
0.0
 40
7.0
  1
DN125
 41
0.8
  7
GREEKS
100
AcDbText
  0
TEXT
  5
11FC
330
1E
100
AcDbEntity
  8
TEXT
 62
     1
100
AcDbText
 10
289.448981866632
 20
111.1543080187042
 30
0.0
 40
7.0
  1
Rohrende leicht eingezogen
 41
0.8
  7
GREEKS
100
AcDbText
  0
LINE
  5
12C6
330
1E
100
AcDbEntity
  8
BEM
100
AcDbLine
 10
456.0
 20
593.9999999999998
 30
0.0
 11
456.0
 21
583.9999999999998
 31
0.0
  0
DIMENSION
  5
12EC
330
1E
100
AcDbEntity
  8
BEM
100
AcDbDimension
  2
*D5
 10
632.8096506932456
 20
154.6378753307015
 30
0.0
 11
712.8096506932457
 21
161.1378753307015
 31
0.0
 70
    32
 71
     5
 42
160.0
  3
Standard
100
AcDbAlignedDimension
 13
792.8096506932456
 23
179.7324680621713
 33
0.0
 14
632.8096506932456
 24
183.1075633595484
 34
0.0
100
AcDbRotatedDimension
1001
ACAD
1000
DSTYLE
1002
{
1070
    40
1040
2.0
1070
    41
1040
3.5
1070
    42
1040
1.0
1070
    43
1040
7.0
1070
    44
1040
1.0
1070
    73
1070
     0
1070
    74
1070
     0
1070
    77
1070
     1
1070
    78
1070
     8
1070
    79
1070
     2
1070
   140
1040
3.5
1070
   141
1040
1.5
1070
   146
1040
0.5142857142857144
1070
   147
1040
1.5
1070
   172
1070
     1
1070
   178
1070
     1
1070
   179
1070
     2
1070
   271
1070
     2
1070
   272
1070
     2
1070
   284
1070
     8
1070
   285
1070
     8
1070
   286
1070
     8
1002
}
  0
CIRCLE
  5
1609
330
1E
100
AcDbEntity
  8
STEMPEL
100
AcDbCircle
 10
510.367391429937
 20
252.709311805323
 30
0.0
 40
5.65
  0
INSERT
  5
160A
330
1E
100
AcDbEntity
  8
STEMPEL
100
AcDbBlockReference
  2
8DI931D
 10
510.367391429937
 20
252.709311805323
 30
0.0
  0
LINE
  5
160B
330
1E
100
AcDbEntity
  8
HILF
100
AcDbLine
 10
483.0443825803795
 20
298.798508919984
 30
0.0
 11
512.6240285980784
 21
270.5798175706739
 31
0.0
  0
LINE
  5
160C
330
1E
100
AcDbEntity
  8
STEMPEL
100
AcDbLine
 10
483.7346480671053
 20
299.5220651084276
 30
0.0
 11
513.3142940848042
 21
271.3033737591179
 31
0.0
  0
LINE
  5
160D
330
1E
100
AcDbEntity
  8
HILF
100
AcDbLine
 10
483.0443825803795
 20
206.1833167991715
 30
0.0
 11
512.6240285980784
 21
234.4020081484816
 31
0.0
  0
LINE
  5
160E
330
1E
100
AcDbEntity
  8
STEMPEL
100
AcDbLine
 10
483.7346480671053
 20
205.4597606107279
 30
0.0
 11
513.3142940848042
 21
233.6784519600376
 31
0.0
  0
ARC
  5
1610
330
1E
100
AcDbEntity
  8
STEMPEL
100
AcDbCircle
 10
438.867391429937
 20
252.4909128595777
 30
0.0
 40
41.5
100
AcDbArc
 50
180.0
 51
270.0
  0
ARC
  5
1611
330
1E
100
AcDbEntity
  8
HILF
100
AcDbCircle
 10
438.867391429937
 20
252.4909128595777
 30
0.0
 40
45.0
100
AcDbArc
 50
180.0
 51
270.0
  0
LINE
  5
1612
330
1E
100
AcDbEntity
  8
HILF
100
AcDbLine
 10
394.6904002794945
 20
206.1833167991717
 30
0.0
 11
365.1107542617952
 21
234.4020081484818
 31
0.0
  0
LINE
  5
1613
330
1E
100
AcDbEntity
  8
STEMPEL
100
AcDbLine
 10
394.0001347927687
 20
205.4597606107281
 30
0.0
 11
364.4204887750693
 21
233.6784519600378
 31
0.0
  0
ARC
  5
1614
330
1E
100
AcDbEntity
  8
HILF
100
AcDbCircle
 10
438.867391429937
 20
252.4909128595777
 30
0.0
 40
45.0
100
AcDbArc
 50
270.0
 51
0.0
  0
ARC
  5
1615
330
1E
100
AcDbEntity
  8
STEMPEL
100
AcDbCircle
 10
438.867391429937
 20
252.4909128595777
 30
0.0
 40
41.5
100
AcDbArc
 50
270.0
 51
0.0
  0
ARC
  5
1616
330
1E
100
AcDbEntity
  8
STEMPEL
100
AcDbCircle
 10
438.867391429937
 20
252.4909128595777
 30
0.0
 40
65.0
100
AcDbArc
 50
226.3488718828344
 51
313.6511281171656
  0
ARC
  5
1617
330
1E
100
AcDbEntity
  8
HILF
100
AcDbCircle
 10
438.867391429937
 20
252.4909128595777
 30
0.0
 40
64.0
100
AcDbArc
 50
226.3488718828344
 51
313.6511281171656
  0
ARC
  5
1618
330
1E
100
AcDbEntity
  8
HILF
100
AcDbCircle
 10
438.867391429937
 20
252.4909128595781
 30
0.0
 40
64.0
100
AcDbArc
 50
46.3488718828344
 51
133.6511281171656
  0
ARC
  5
1619
330
1E
100
AcDbEntity
  8
STEMPEL
100
AcDbCircle
 10
438.867391429937
 20
252.4909128595781
 30
0.0
 40
65.0
100
AcDbArc
 50
46.3488718828344
 51
133.6511281171656
  0
ARC
  5
161A
330
1E
100
AcDbEntity
  8
HILF
100
AcDbCircle
 10
438.867391429937
 20
252.4909128595777
 30
0.0
 40
45.0
100
AcDbArc
 50
89.99999999999998
 51
180.0
  0
ARC
  5
161B
330
1E
100
AcDbEntity
  8
STEMPEL
100
AcDbCircle
 10
438.867391429937
 20
252.4909128595777
 30
0.0
 40
41.5
100
AcDbArc
 50
89.99999999999998
 51
180.0
  0
LINE
  5
161C
330
1E
100
AcDbEntity
  8
MITTEL
100
AcDbLine
 10
367.3673914299365
 20
241.5070111272203
 30
0.0
 11
367.3673914299365
 21
263.9116124834259
 31
0.0
  0
ARC
  5
161D
330
1E
100
AcDbEntity
  8
HILF
100
AcDbCircle
 10
382.367391429937
 20
252.4909128595777
 30
0.0
 40
25.0
100
AcDbArc
 50
133.6511281171656
 51
226.3488718828344
  0
ARC
  5
161E
330
1E
100
AcDbEntity
  8
STEMPEL
100
AcDbCircle
 10
382.367391429937
 20
252.4909128595777
 30
0.0
 40
26.0
100
AcDbArc
 50
133.6511281171656
 51
226.3488718828344
  0
CIRCLE
  5
161F
330
1E
100
AcDbEntity
  8
STEMPEL
100
AcDbCircle
 10
367.3673914299365
 20
252.7093118053231
 30
0.0
 40
5.65
  0
INSERT
  5
1620
330
1E
100
AcDbEntity
  8
STEMPEL
100
AcDbBlockReference
  2
8DI931D
 10
367.3673914299365
 20
252.4909128595777
 30
0.0
  0
LINE
  5
1621
330
1E
100
AcDbEntity
  8
HILF
100
AcDbLine
 10
394.6904002794945
 20
298.7985089199842
 30
0.0
 11
365.1107542617952
 21
270.5798175706741
 31
0.0
  0
LINE
  5
1622
330
1E
100
AcDbEntity
  8
STEMPEL
100
AcDbLine
 10
394.0001347927687
 20
299.5220651084278
 30
0.0
 11
364.4204887750693
 21
271.3033737591181
 31
0.0
  0
LINE
  5
1623
330
1E
100
AcDbEntity
  8
STEMPEL
100
AcDbLine
 10
431.3423914299369
 20
274.0409128595779
 30
0.0
 11
431.3423914299369
 21
261.5109128595777
 31
0.0
  0
ARC
  5
1624
330
1E
100
AcDbEntity
  8
STEMPEL
100
AcDbCircle
 10
438.867391429937
 20
261.5109128595776
 30
0.0
 40
7.524999999999954
100
AcDbArc
 50
298.7083210227482
 51
125.0821845754702
  0
CIRCLE
  5
1625
330
1E
100
AcDbEntity
  8
STEMPEL
100
AcDbCircle
 10
438.867391429937
 20
261.5109128595776
 30
0.0
 40
4.324999999999954
  0
ARC
  5
1626
330
1E
100
AcDbEntity
  8
STEMPEL
100
AcDbCircle
 10
438.867391429937
 20
252.4909128595777
 30
0.0
 40
41.5
100
AcDbArc
 50
0.0
 51
89.99999999999998
  0
ARC
  5
1627
330
1E
100
AcDbEntity
  8
HILF
100
AcDbCircle
 10
438.867391429937
 20
252.4909128595777
 30
0.0
 40
45.0
100
AcDbArc
 50
0.0
 51
89.99999999999998
  0
LINE
  5
1628
330
1E
100
AcDbEntity
  8
STEMPEL
100
AcDbLine
 10
431.3423914299369
 20
243.3769006067496
 30
0.0
 11
431.3423914299369
 21
235.5109128595777
 31
0.0
  0
ARC
  5
1629
330
1E
100
AcDbEntity
  8
STEMPEL
100
AcDbCircle
 10
438.867391429937
 20
235.5109128595776
 30
0.0
 40
7.524999999999954
100
AcDbArc
 50
180.0
 51
125.0821845754575
  0
CIRCLE
  5
162A
330
1E
100
AcDbEntity
  8
STEMPEL
100
AcDbCircle
 10
438.867391429937
 20
235.5109128595776
 30
0.0
 40
4.324999999999954
  0
ARC
  5
162B
330
1E
100
AcDbEntity
  8
STEMPEL
100
AcDbCircle
 10
442.0923914299367
 20
247.9109128595777
 30
0.0
 40
4.299999999999931
100
AcDbArc
 50
232.49196016292
 51
0.0
  0
LINE
  5
162C
330
1E
100
AcDbEntity
  8
STEMPEL
100
AcDbLine
 10
439.4742386150519
 20
244.4998608462087
 30
0.0
 11
434.9593942595288
 21
243.2202133107671
 31
0.0
  0
LINE
  5
162D
330
1E
100
AcDbEntity
  8
STEMPEL
100
AcDbLine
 10
435.2527510605504
 20
254.9109128595778
 30
0.0
 11
432.9423914299368
 21
254.9109128595778
 31
0.0
  0
LINE
  5
162E
330
1E
100
AcDbEntity
  8
STEMPEL
100
AcDbLine
 10
437.7923914299367
 20
251.7109128595775
 30
0.0
 11
432.9423914299368
 21
251.7109128595775
 31
0.0
  0
LINE
  5
162F
330
1E
100
AcDbEntity
  8
STEMPEL
100
AcDbLine
 10
437.7923914299367
 20
247.4192835529047
 30
0.0
 11
433.7801293058196
 21
246.2820834781355
 31
0.0
  0
LINE
  5
1630
330
1E
100
AcDbEntity
  8
STEMPEL
100
AcDbLine
 10
437.7923914299367
 20
251.7109128595775
 30
0.0
 11
437.7923914299367
 21
247.4192835529047
 31
0.0
  0
ARC
  5
1631
330
1E
100
AcDbEntity
  8
STEMPEL
100
AcDbCircle
 10
435.0423914299367
 20
242.7271499581397
 30
0.0
 40
0.5
100
AcDbArc
 50
99.55500261066241
 51
180.0
  0
ARC
  5
1632
330
1E
100
AcDbEntity
  8
STEMPEL
100
AcDbCircle
 10
434.2923914299369
 20
243.3769006067495
 30
0.0
 40
2.95
100
AcDbArc
 50
99.99999999999747
 51
180.0
  0
ARC
  5
1633
330
1E
100
AcDbEntity
  8
STEMPEL
100
AcDbCircle
 10
438.867391429937
 20
261.5109128595776
 30
0.0
 40
7.524999999999954
100
AcDbArc
 50
180.0
 51
241.2916789772517
  0
ARC
  5
1634
330
1E
100
AcDbEntity
  8
STEMPEL
100
AcDbCircle
 10
432.9423914299368
 20
253.3109128595778
 30
0.0
 40
1.600000000000022
100
AcDbArc
 50
89.99999999999998
 51
270.0
  0
LINE
  5
1635
330
1E
100
AcDbEntity
  8
STEMPEL
100
AcDbLine
 10
434.5423914299367
 20
242.7271499581397
 30
0.0
 11
434.5423914299372
 21
241.6688345869138
 31
0.0
  0
LINE
  5
1636
330
1E
100
AcDbEntity
  8
STEMPEL
100
AcDbLine
 10
440.992391429937
 20
247.9109128595778
 30
0.0
 11
440.992391429937
 21
251.7109128595775
 31
0.0
  0
ARC
  5
1637
330
1E
100
AcDbEntity
  8
STEMPEL
100
AcDbCircle
 10
445.3923914299369
 20
253.9109128595777
 30
0.0
 40
1.0
100
AcDbArc
 50
0.0
 51
89.99999999999998
  0
LINE
  5
1638
330
1E
100
AcDbEntity
  8
STEMPEL
100
AcDbLine
 10
446.392391429937
 20
253.9109128595778
 30
0.0
 11
446.3923914299366
 21
247.9109128595778
 31
0.0
  0
LINE
  5
1639
330
1E
100
AcDbEntity
  8
STEMPEL
100
AcDbLine
 10
443.1923914299368
 20
251.7109128595775
 30
0.0
 11
443.1923914299368
 21
247.9109128595778
 31
0.0
  0
LINE
  5
163A
330
1E
100
AcDbEntity
  8
STEMPEL
100
AcDbLine
 10
443.1923914299368
 20
251.7109128595775
 30
0.0
 11
440.992391429937
 21
251.7109128595775
 31
0.0
  0
ARC
  5
163B
330
1E
100
AcDbEntity
  8
STEMPEL
100
AcDbCircle
 10
442.0923914299367
 20
247.9109128595777
 30
0.0
 40
1.099999999999931
100
AcDbArc
 50
180.0
 51
0.0
  0
LINE
  5
163C
330
1E
100
AcDbEntity
  8
STEMPEL
100
AcDbLine
 10
445.392391429937
 20
254.9109128595778
 30
0.0
 11
442.4820317993235
 21
254.9109128595778
 31
0.0
  0
LINE
  5
163D
330
1E
100
AcDbEntity
  8
STEMPEL
100
AcDbLine
 10
444.7923914299367
 20
273.7909128595779
 30
0.0
 11
435.0423914299372
 21
273.7909128595779
 31
0.0
  0
LINE
  5
163E
330
1E
100
AcDbEntity
  8
STEMPEL
100
AcDbLine
 10
444.7923914299367
 20
276.9909128595777
 30
0.0
 11
434.2923914299372
 21
276.9909128595777
 31
0.0
  0
LINE
  5
163F
330
1E
100
AcDbEntity
  8
STEMPEL
100
AcDbLine
 10
434.5423914299372
 20
273.2909128595779
 30
0.0
 11
434.5423914299372
 21
267.6688345869129
 31
0.0
  0
ARC
  5
1640
330
1E
100
AcDbEntity
  8
STEMPEL
100
AcDbCircle
 10
435.0423914299369
 20
273.2909128595778
 30
0.0
 40
0.5
100
AcDbArc
 50
89.99999999999998
 51
180.0
  0
ARC
  5
1641
330
1E
100
AcDbEntity
  8
STEMPEL
100
AcDbCircle
 10
434.2923914299369
 20
274.0409128595778
 30
0.0
 40
2.95
100
AcDbArc
 50
89.99999999999998
 51
180.0
  0
ARC
  5
1642
330
1E
100
AcDbEntity
  8
STEMPEL
100
AcDbCircle
 10
444.7923914299367
 20
275.3909128595777
 30
0.0
 40
1.600000000000022
100
AcDbArc
 50
270.0
 51
89.99999999999998
  0
LINE
  5
1643
330
1E
100
AcDbEntity
  8
MITTEL
100
AcDbLine
 10
510.367391429937
 20
241.50701112722
 30
0.0
 11
510.367391429937
 21
263.9116124834256
 31
0.0
  0
ARC
  5
1644
330
1E
100
AcDbEntity
  8
HILF
100
AcDbCircle
 10
495.367391429937
 20
252.4909128595777
 30
0.0
 40
25.0
100
AcDbArc
 50
313.6511281171656
 51
46.3488718828344
  0
ARC
  5
1645
330
1E
100
AcDbEntity
  8
STEMPEL
100
AcDbCircle
 10
495.367391429937
 20
252.4909128595777
 30
0.0
 40
26.0
100
AcDbArc
 50
313.6511281171656
 51
46.3488718828344
  0
TEXT
  5
17CE
330
1E
100
AcDbEntity
  8
TEXT
100
AcDbText
 10
654.3410940884991
 20
72.59097337846049
 30
0.0
 40
5.0
  1
mit Reinigungsöffnung
 41
0.8
  7
GREEKS
100
AcDbText
  0
POLYLINE
  5
1896
330
1E
100
AcDbEntity
  8
HILF
100
AcDb2dPolyline
 66
     1
 10
0.0
 20
0.0
 30
0.0
 70
     4
 75
     6
  0
VERTEX
  5
1897
330
1896
100
AcDbEntity
  8
HILF
100
AcDbVertex
100
AcDb2dVertex
 10
580.4952320243517
 20
371.0248916951925
 30
0.0
 70
    16
  0
VERTEX
  5
1898
330
1896
100
AcDbEntity
  8
HILF
100
AcDbVertex
100
AcDb2dVertex
 10
580.4952320243517
 20
371.0248916951925
 30
0.0
 70
     8
  0
VERTEX
  5
1899
330
1896
100
AcDbEntity
  8
HILF
100
AcDbVertex
100
AcDb2dVertex
 10
577.4190601493517
 20
382.7468155233175
 30
0.0
 70
     8
  0
VERTEX
  5
189A
330
1896
100
AcDbEntity
  8
HILF
100
AcDbVertex
100
AcDb2dVertex
 10
575.5733570243517
 20
393.1049698201925
 30
0.0
 70
     8
  0
VERTEX
  5
189B
330
1896
100
AcDbEntity
  8
HILF
100
AcDbVertex
100
AcDb2dVertex
 10
574.7823413993517
 20
402.2941788045675
 30
0.0
 70
     8
  0
VERTEX
  5
189C
330
1896
100
AcDbEntity
  8
HILF
100
AcDbVertex
100
AcDb2dVertex
 10
574.8702320243516
 20
410.5092666951925
 30
0.0
 70
     8
  0
VERTEX
  5
189D
330
1896
100
AcDbEntity
  8
HILF
100
AcDbVertex
100
AcDb2dVertex
 10
575.6612476493517
 20
417.9450577108175
 30
0.0
 70
     8
  0
VERTEX
  5
189E
330
1896
100
AcDbEntity
  8
HILF
100
AcDbVertex
100
AcDb2dVertex
 10
576.9796070243517
 20
424.7963760701924
 30
0.0
 70
     8
  0
VERTEX
  5
189F
330
1896
100
AcDbEntity
  8
HILF
100
AcDbVertex
100
AcDb2dVertex
 10
578.6495288993517
 20
431.2580459920674
 30
0.0
 70
     8
  0
VERTEX
  5
18A0
330
1896
100
AcDbEntity
  8
HILF
100
AcDbVertex
100
AcDb2dVertex
 10
580.4952320243517
 20
437.5248916951926
 30
0.0
 70
     8
  0
VERTEX
  5
18A1
330
1896
100
AcDbEntity
  8
HILF
100
AcDbVertex
100
AcDb2dVertex
 10
582.3409351493516
 20
443.7917373983176
 30
0.0
 70
     8
  0
VERTEX
  5
18A2
330
1896
100
AcDbEntity
  8
HILF
100
AcDbVertex
100
AcDb2dVertex
 10
584.0108570243517
 20
450.2534073201927
 30
0.0
 70
     8
  0
VERTEX
  5
18A3
330
1896
100
AcDbEntity
  8
HILF
100
AcDbVertex
100
AcDb2dVertex
 10
585.3292163993517
 20
457.1047256795677
 30
0.0
 70
     8
  0
VERTEX
  5
18A4
330
1896
100
AcDbEntity
  8
HILF
100
AcDbVertex
100
AcDb2dVertex
 10
586.1202320243517
 20
464.5405166951928
 30
0.0
 70
     8
  0
VERTEX
  5
18A5
330
1896
100
AcDbEntity
  8
HILF
100
AcDbVertex
100
AcDb2dVertex
 10
586.2081226493517
 20
472.7556045858177
 30
0.0
 70
     8
  0
VERTEX
  5
18A6
330
1896
100
AcDbEntity
  8
HILF
100
AcDbVertex
100
AcDb2dVertex
 10
585.4171070243516
 20
481.9448135701928
 30
0.0
 70
     8
  0
VERTEX
  5
18A7
330
1896
100
AcDbEntity
  8
HILF
100
AcDbVertex
100
AcDb2dVertex
 10
583.5714038993517
 20
492.3029678670678
 30
0.0
 70
     8
  0
VERTEX
  5
18A8
330
1896
100
AcDbEntity
  8
HILF
100
AcDbVertex
100
AcDb2dVertex
 10
580.4952320243517
 20
504.0248916951928
 30
0.0
 70
     8
  0
VERTEX
  5
18A9
330
1896
100
AcDbEntity
  8
HILF
100
AcDbVertex
100
AcDb2dVertex
 10
570.4952320243517
 20
404.2748916951926
 30
0.0
 70
    16
  0
VERTEX
  5
18AA
330
1896
100
AcDbEntity
  8
HILF
100
AcDbVertex
100
AcDb2dVertex
 10
580.4952320243517
 20
437.5248916951926
 30
0.0
 70
    16
  0
VERTEX
  5
18AB
330
1896
100
AcDbEntity
  8
HILF
100
AcDbVertex
100
AcDb2dVertex
 10
590.4952320243516
 20
470.7748916951927
 30
0.0
 70
    16
  0
VERTEX
  5
18AC
330
1896
100
AcDbEntity
  8
HILF
100
AcDbVertex
100
AcDb2dVertex
 10
580.4952320243517
 20
504.0248916951928
 30
0.0
 70
    16
  0
SEQEND
  5
18AD
330
1896
100
AcDbEntity
  8
HILF
  0
POLYLINE
  5
18AE
330
1E
100
AcDbEntity
  8
HILF
100
AcDb2dPolyline
 66
     1
 10
0.0
 20
0.0
 30
0.0
 70
     4
 75
     6
  0
VERTEX
  5
18AF
330
18AE
100
AcDbEntity
  8
HILF
100
AcDbVertex
100
AcDb2dVertex
 10
585.4952320243516
 20
371.0248916951925
 30
0.0
 70
    16
  0
VERTEX
  5
18B0
330
18AE
100
AcDbEntity
  8
HILF
100
AcDbVertex
100
AcDb2dVertex
 10
585.4952320243516
 20
371.0248916951925
 30
0.0
 70
     8
  0
VERTEX
  5
18B1
330
18AE
100
AcDbEntity
  8
HILF
100
AcDbVertex
100
AcDb2dVertex
 10
582.4190601493516
 20
382.7468155233175
 30
0.0
 70
     8
  0
VERTEX
  5
18B2
330
18AE
100
AcDbEntity
  8
HILF
100
AcDbVertex
100
AcDb2dVertex
 10
580.5733570243517
 20
393.1049698201925
 30
0.0
 70
     8
  0
VERTEX
  5
18B3
330
18AE
100
AcDbEntity
  8
HILF
100
AcDbVertex
100
AcDb2dVertex
 10
579.7823413993516
 20
402.2941788045675
 30
0.0
 70
     8
  0
VERTEX
  5
18B4
330
18AE
100
AcDbEntity
  8
HILF
100
AcDbVertex
100
AcDb2dVertex
 10
579.8702320243517
 20
410.5092666951925
 30
0.0
 70
     8
  0
VERTEX
  5
18B5
330
18AE
100
AcDbEntity
  8
HILF
100
AcDbVertex
100
AcDb2dVertex
 10
580.6612476493516
 20
417.9450577108175
 30
0.0
 70
     8
  0
VERTEX
  5
18B6
330
18AE
100
AcDbEntity
  8
HILF
100
AcDbVertex
100
AcDb2dVertex
 10
581.9796070243516
 20
424.7963760701924
 30
0.0
 70
     8
  0
VERTEX
  5
18B7
330
18AE
100
AcDbEntity
  8
HILF
100
AcDbVertex
100
AcDb2dVertex
 10
583.6495288993517
 20
431.2580459920674
 30
0.0
 70
     8
  0
VERTEX
  5
18B8
330
18AE
100
AcDbEntity
  8
HILF
100
AcDbVertex
100
AcDb2dVertex
 10
585.4952320243516
 20
437.5248916951926
 30
0.0
 70
     8
  0
VERTEX
  5
18B9
330
18AE
100
AcDbEntity
  8
HILF
100
AcDbVertex
100
AcDb2dVertex
 10
587.3409351493517
 20
443.7917373983176
 30
0.0
 70
     8
  0
VERTEX
  5
18BA
330
18AE
100
AcDbEntity
  8
HILF
100
AcDbVertex
100
AcDb2dVertex
 10
589.0108570243516
 20
450.2534073201927
 30
0.0
 70
     8
  0
VERTEX
  5
18BB
330
18AE
100
AcDbEntity
  8
HILF
100
AcDbVertex
100
AcDb2dVertex
 10
590.3292163993516
 20
457.1047256795677
 30
0.0
 70
     8
  0
VERTEX
  5
18BC
330
18AE
100
AcDbEntity
  8
HILF
100
AcDbVertex
100
AcDb2dVertex
 10
591.1202320243517
 20
464.5405166951928
 30
0.0
 70
     8
  0
VERTEX
  5
18BD
330
18AE
100
AcDbEntity
  8
HILF
100
AcDbVertex
100
AcDb2dVertex
 10
591.2081226493516
 20
472.7556045858177
 30
0.0
 70
     8
  0
VERTEX
  5
18BE
330
18AE
100
AcDbEntity
  8
HILF
100
AcDbVertex
100
AcDb2dVertex
 10
590.4171070243517
 20
481.9448135701928
 30
0.0
 70
     8
  0
VERTEX
  5
18BF
330
18AE
100
AcDbEntity
  8
HILF
100
AcDbVertex
100
AcDb2dVertex
 10
588.5714038993516
 20
492.3029678670678
 30
0.0
 70
     8
  0
VERTEX
  5
18C0
330
18AE
100
AcDbEntity
  8
HILF
100
AcDbVertex
100
AcDb2dVertex
 10
585.4952320243516
 20
504.0248916951928
 30
0.0
 70
     8
  0
VERTEX
  5
18C1
330
18AE
100
AcDbEntity
  8
HILF
100
AcDbVertex
100
AcDb2dVertex
 10
575.4952320243517
 20
404.2748916951926
 30
0.0
 70
    16
  0
VERTEX
  5
18C2
330
18AE
100
AcDbEntity
  8
HILF
100
AcDbVertex
100
AcDb2dVertex
 10
585.4952320243516
 20
437.5248916951926
 30
0.0
 70
    16
  0
VERTEX
  5
18C3
330
18AE
100
AcDbEntity
  8
HILF
100
AcDbVertex
100
AcDb2dVertex
 10
595.4952320243517
 20
470.7748916951927
 30
0.0
 70
    16
  0
VERTEX
  5
18C4
330
18AE
100
AcDbEntity
  8
HILF
100
AcDbVertex
100
AcDb2dVertex
 10
585.4952320243516
 20
504.0248916951928
 30
0.0
 70
    16
  0
SEQEND
  5
18C5
330
18AE
100
AcDbEntity
  8
HILF
  0
POLYLINE
  5
18C6
330
1E
100
AcDbEntity
  8
HILF
100
AcDb2dPolyline
 66
     1
 10
0.0
 20
0.0
 30
0.0
 70
     4
 75
     6
  0
VERTEX
  5
18C7
330
18C6
100
AcDbEntity
  8
HILF
100
AcDbVertex
100
AcDb2dVertex
 10
268.8511031782307
 20
371.0248916951925
 30
0.0
 70
    16
  0
VERTEX
  5
18C8
330
18C6
100
AcDbEntity
  8
HILF
100
AcDbVertex
100
AcDb2dVertex
 10
268.8511031782307
 20
371.0248916951925
 30
0.0
 70
     8
  0
VERTEX
  5
18C9
330
18C6
100
AcDbEntity
  8
HILF
100
AcDbVertex
100
AcDb2dVertex
 10
265.7749313032307
 20
382.7468155233175
 30
0.0
 70
     8
  0
VERTEX
  5
18CA
330
18C6
100
AcDbEntity
  8
HILF
100
AcDbVertex
100
AcDb2dVertex
 10
263.9292281782307
 20
393.1049698201925
 30
0.0
 70
     8
  0
VERTEX
  5
18CB
330
18C6
100
AcDbEntity
  8
HILF
100
AcDbVertex
100
AcDb2dVertex
 10
263.1382125532307
 20
402.2941788045675
 30
0.0
 70
     8
  0
VERTEX
  5
18CC
330
18C6
100
AcDbEntity
  8
HILF
100
AcDbVertex
100
AcDb2dVertex
 10
263.2261031782307
 20
410.5092666951925
 30
0.0
 70
     8
  0
VERTEX
  5
18CD
330
18C6
100
AcDbEntity
  8
HILF
100
AcDbVertex
100
AcDb2dVertex
 10
264.0171188032307
 20
417.9450577108175
 30
0.0
 70
     8
  0
VERTEX
  5
18CE
330
18C6
100
AcDbEntity
  8
HILF
100
AcDbVertex
100
AcDb2dVertex
 10
265.3354781782307
 20
424.7963760701924
 30
0.0
 70
     8
  0
VERTEX
  5
18CF
330
18C6
100
AcDbEntity
  8
HILF
100
AcDbVertex
100
AcDb2dVertex
 10
267.0054000532307
 20
431.2580459920674
 30
0.0
 70
     8
  0
VERTEX
  5
18D0
330
18C6
100
AcDbEntity
  8
HILF
100
AcDbVertex
100
AcDb2dVertex
 10
268.8511031782307
 20
437.5248916951926
 30
0.0
 70
     8
  0
VERTEX
  5
18D1
330
18C6
100
AcDbEntity
  8
HILF
100
AcDbVertex
100
AcDb2dVertex
 10
270.6968063032307
 20
443.7917373983176
 30
0.0
 70
     8
  0
VERTEX
  5
18D2
330
18C6
100
AcDbEntity
  8
HILF
100
AcDbVertex
100
AcDb2dVertex
 10
272.3667281782307
 20
450.2534073201927
 30
0.0
 70
     8
  0
VERTEX
  5
18D3
330
18C6
100
AcDbEntity
  8
HILF
100
AcDbVertex
100
AcDb2dVertex
 10
273.6850875532307
 20
457.1047256795677
 30
0.0
 70
     8
  0
VERTEX
  5
18D4
330
18C6
100
AcDbEntity
  8
HILF
100
AcDbVertex
100
AcDb2dVertex
 10
274.4761031782307
 20
464.5405166951928
 30
0.0
 70
     8
  0
VERTEX
  5
18D5
330
18C6
100
AcDbEntity
  8
HILF
100
AcDbVertex
100
AcDb2dVertex
 10
274.5639938032307
 20
472.7556045858177
 30
0.0
 70
     8
  0
VERTEX
  5
18D6
330
18C6
100
AcDbEntity
  8
HILF
100
AcDbVertex
100
AcDb2dVertex
 10
273.7729781782307
 20
481.9448135701928
 30
0.0
 70
     8
  0
VERTEX
  5
18D7
330
18C6
100
AcDbEntity
  8
HILF
100
AcDbVertex
100
AcDb2dVertex
 10
271.9272750532307
 20
492.3029678670678
 30
0.0
 70
     8
  0
VERTEX
  5
18D8
330
18C6
100
AcDbEntity
  8
HILF
100
AcDbVertex
100
AcDb2dVertex
 10
268.8511031782307
 20
504.0248916951928
 30
0.0
 70
     8
  0
VERTEX
  5
18D9
330
18C6
100
AcDbEntity
  8
HILF
100
AcDbVertex
100
AcDb2dVertex
 10
258.8511031782307
 20
404.2748916951926
 30
0.0
 70
    16
  0
VERTEX
  5
18DA
330
18C6
100
AcDbEntity
  8
HILF
100
AcDbVertex
100
AcDb2dVertex
 10
268.8511031782307
 20
437.5248916951926
 30
0.0
 70
    16
  0
VERTEX
  5
18DB
330
18C6
100
AcDbEntity
  8
HILF
100
AcDbVertex
100
AcDb2dVertex
 10
278.8511031782307
 20
470.7748916951927
 30
0.0
 70
    16
  0
VERTEX
  5
18DC
330
18C6
100
AcDbEntity
  8
HILF
100
AcDbVertex
100
AcDb2dVertex
 10
268.8511031782307
 20
504.0248916951928
 30
0.0
 70
    16
  0
SEQEND
  5
18DD
330
18C6
100
AcDbEntity
  8
HILF
  0
POLYLINE
  5
18DE
330
1E
100
AcDbEntity
  8
HILF
100
AcDb2dPolyline
 66
     1
 10
0.0
 20
0.0
 30
0.0
 70
     4
 75
     6
  0
VERTEX
  5
18DF
330
18DE
100
AcDbEntity
  8
HILF
100
AcDbVertex
100
AcDb2dVertex
 10
263.8511031782307
 20
371.0248916951925
 30
0.0
 70
    16
  0
VERTEX
  5
18E0
330
18DE
100
AcDbEntity
  8
HILF
100
AcDbVertex
100
AcDb2dVertex
 10
263.8511031782307
 20
371.0248916951925
 30
0.0
 70
     8
  0
VERTEX
  5
18E1
330
18DE
100
AcDbEntity
  8
HILF
100
AcDbVertex
100
AcDb2dVertex
 10
260.7749313032307
 20
382.7468155233175
 30
0.0
 70
     8
  0
VERTEX
  5
18E2
330
18DE
100
AcDbEntity
  8
HILF
100
AcDbVertex
100
AcDb2dVertex
 10
258.9292281782307
 20
393.1049698201925
 30
0.0
 70
     8
  0
VERTEX
  5
18E3
330
18DE
100
AcDbEntity
  8
HILF
100
AcDbVertex
100
AcDb2dVertex
 10
258.1382125532307
 20
402.2941788045675
 30
0.0
 70
     8
  0
VERTEX
  5
18E4
330
18DE
100
AcDbEntity
  8
HILF
100
AcDbVertex
100
AcDb2dVertex
 10
258.2261031782307
 20
410.5092666951925
 30
0.0
 70
     8
  0
VERTEX
  5
18E5
330
18DE
100
AcDbEntity
  8
HILF
100
AcDbVertex
100
AcDb2dVertex
 10
259.0171188032307
 20
417.9450577108175
 30
0.0
 70
     8
  0
VERTEX
  5
18E6
330
18DE
100
AcDbEntity
  8
HILF
100
AcDbVertex
100
AcDb2dVertex
 10
260.3354781782307
 20
424.7963760701924
 30
0.0
 70
     8
  0
VERTEX
  5
18E7
330
18DE
100
AcDbEntity
  8
HILF
100
AcDbVertex
100
AcDb2dVertex
 10
262.0054000532307
 20
431.2580459920674
 30
0.0
 70
     8
  0
VERTEX
  5
18E8
330
18DE
100
AcDbEntity
  8
HILF
100
AcDbVertex
100
AcDb2dVertex
 10
263.8511031782307
 20
437.5248916951926
 30
0.0
 70
     8
  0
VERTEX
  5
18E9
330
18DE
100
AcDbEntity
  8
HILF
100
AcDbVertex
100
AcDb2dVertex
 10
265.6968063032307
 20
443.7917373983176
 30
0.0
 70
     8
  0
VERTEX
  5
18EA
330
18DE
100
AcDbEntity
  8
HILF
100
AcDbVertex
100
AcDb2dVertex
 10
267.3667281782307
 20
450.2534073201927
 30
0.0
 70
     8
  0
VERTEX
  5
18EB
330
18DE
100
AcDbEntity
  8
HILF
100
AcDbVertex
100
AcDb2dVertex
 10
268.6850875532307
 20
457.1047256795677
 30
0.0
 70
     8
  0
VERTEX
  5
18EC
330
18DE
100
AcDbEntity
  8
HILF
100
AcDbVertex
100
AcDb2dVertex
 10
269.4761031782307
 20
464.5405166951928
 30
0.0
 70
     8
  0
VERTEX
  5
18ED
330
18DE
100
AcDbEntity
  8
HILF
100
AcDbVertex
100
AcDb2dVertex
 10
269.5639938032307
 20
472.7556045858177
 30
0.0
 70
     8
  0
VERTEX
  5
18EE
330
18DE
100
AcDbEntity
  8
HILF
100
AcDbVertex
100
AcDb2dVertex
 10
268.7729781782307
 20
481.9448135701928
 30
0.0
 70
     8
  0
VERTEX
  5
18EF
330
18DE
100
AcDbEntity
  8
HILF
100
AcDbVertex
100
AcDb2dVertex
 10
266.9272750532307
 20
492.3029678670678
 30
0.0
 70
     8
  0
VERTEX
  5
18F0
330
18DE
100
AcDbEntity
  8
HILF
100
AcDbVertex
100
AcDb2dVertex
 10
263.8511031782307
 20
504.0248916951928
 30
0.0
 70
     8
  0
VERTEX
  5
18F1
330
18DE
100
AcDbEntity
  8
HILF
100
AcDbVertex
100
AcDb2dVertex
 10
253.8511031782307
 20
404.2748916951926
 30
0.0
 70
    16
  0
VERTEX
  5
18F2
330
18DE
100
AcDbEntity
  8
HILF
100
AcDbVertex
100
AcDb2dVertex
 10
263.8511031782307
 20
437.5248916951926
 30
0.0
 70
    16
  0
VERTEX
  5
18F3
330
18DE
100
AcDbEntity
  8
HILF
100
AcDbVertex
100
AcDb2dVertex
 10
273.8511031782307
 20
470.7748916951927
 30
0.0
 70
    16
  0
VERTEX
  5
18F4
330
18DE
100
AcDbEntity
  8
HILF
100
AcDbVertex
100
AcDb2dVertex
 10
263.8511031782307
 20
504.0248916951928
 30
0.0
 70
    16
  0
SEQEND
  5
18F5
330
18DE
100
AcDbEntity
  8
HILF
  0
POLYLINE
  5
18F6
330
1E
100
AcDbEntity
  8
HILF
100
AcDb2dPolyline
 66
     1
 10
0.0
 20
0.0
 30
0.0
 70
     4
 75
     6
  0
VERTEX
  5
18F7
330
18F6
100
AcDbEntity
  8
HILF
100
AcDbVertex
100
AcDb2dVertex
 10
263.8511031782307
 20
185.9909128595774
 30
0.0
 70
    16
  0
VERTEX
  5
18F8
330
18F6
100
AcDbEntity
  8
HILF
100
AcDbVertex
100
AcDb2dVertex
 10
263.8511031782307
 20
185.9909128595774
 30
0.0
 70
     8
  0
VERTEX
  5
18F9
330
18F6
100
AcDbEntity
  8
HILF
100
AcDbVertex
100
AcDb2dVertex
 10
260.7749313032307
 20
197.7128366877024
 30
0.0
 70
     8
  0
VERTEX
  5
18FA
330
18F6
100
AcDbEntity
  8
HILF
100
AcDbVertex
100
AcDb2dVertex
 10
258.9292281782307
 20
208.0709909845774
 30
0.0
 70
     8
  0
VERTEX
  5
18FB
330
18F6
100
AcDbEntity
  8
HILF
100
AcDbVertex
100
AcDb2dVertex
 10
258.1382125532307
 20
217.2601999689524
 30
0.0
 70
     8
  0
VERTEX
  5
18FC
330
18F6
100
AcDbEntity
  8
HILF
100
AcDbVertex
100
AcDb2dVertex
 10
258.2261031782307
 20
225.4752878595774
 30
0.0
 70
     8
  0
VERTEX
  5
18FD
330
18F6
100
AcDbEntity
  8
HILF
100
AcDbVertex
100
AcDb2dVertex
 10
259.0171188032307
 20
232.9110788752024
 30
0.0
 70
     8
  0
VERTEX
  5
18FE
330
18F6
100
AcDbEntity
  8
HILF
100
AcDbVertex
100
AcDb2dVertex
 10
260.3354781782307
 20
239.7623972345773
 30
0.0
 70
     8
  0
VERTEX
  5
18FF
330
18F6
100
AcDbEntity
  8
HILF
100
AcDbVertex
100
AcDb2dVertex
 10
262.0054000532307
 20
246.2240671564523
 30
0.0
 70
     8
  0
VERTEX
  5
1900
330
18F6
100
AcDbEntity
  8
HILF
100
AcDbVertex
100
AcDb2dVertex
 10
263.8511031782307
 20
252.4909128595775
 30
0.0
 70
     8
  0
VERTEX
  5
1901
330
18F6
100
AcDbEntity
  8
HILF
100
AcDbVertex
100
AcDb2dVertex
 10
265.6968063032307
 20
258.7577585627025
 30
0.0
 70
     8
  0
VERTEX
  5
1902
330
18F6
100
AcDbEntity
  8
HILF
100
AcDbVertex
100
AcDb2dVertex
 10
267.3667281782307
 20
265.2194284845776
 30
0.0
 70
     8
  0
VERTEX
  5
1903
330
18F6
100
AcDbEntity
  8
HILF
100
AcDbVertex
100
AcDb2dVertex
 10
268.6850875532307
 20
272.0707468439526
 30
0.0
 70
     8
  0
VERTEX
  5
1904
330
18F6
100
AcDbEntity
  8
HILF
100
AcDbVertex
100
AcDb2dVertex
 10
269.4761031782307
 20
279.5065378595776
 30
0.0
 70
     8
  0
VERTEX
  5
1905
330
18F6
100
AcDbEntity
  8
HILF
100
AcDbVertex
100
AcDb2dVertex
 10
269.5639938032307
 20
287.7216257502027
 30
0.0
 70
     8
  0
VERTEX
  5
1906
330
18F6
100
AcDbEntity
  8
HILF
100
AcDbVertex
100
AcDb2dVertex
 10
268.7729781782307
 20
296.9108347345777
 30
0.0
 70
     8
  0
VERTEX
  5
1907
330
18F6
100
AcDbEntity
  8
HILF
100
AcDbVertex
100
AcDb2dVertex
 10
266.9272750532307
 20
307.2689890314527
 30
0.0
 70
     8
  0
VERTEX
  5
1908
330
18F6
100
AcDbEntity
  8
HILF
100
AcDbVertex
100
AcDb2dVertex
 10
263.8511031782307
 20
318.9909128595778
 30
0.0
 70
     8
  0
VERTEX
  5
1909
330
18F6
100
AcDbEntity
  8
HILF
100
AcDbVertex
100
AcDb2dVertex
 10
253.8511031782307
 20
219.2409128595775
 30
0.0
 70
    16
  0
VERTEX
  5
190A
330
18F6
100
AcDbEntity
  8
HILF
100
AcDbVertex
100
AcDb2dVertex
 10
263.8511031782307
 20
252.4909128595775
 30
0.0
 70
    16
  0
VERTEX
  5
190B
330
18F6
100
AcDbEntity
  8
HILF
100
AcDbVertex
100
AcDb2dVertex
 10
273.8511031782307
 20
285.7409128595776
 30
0.0
 70
    16
  0
VERTEX
  5
190C
330
18F6
100
AcDbEntity
  8
HILF
100
AcDbVertex
100
AcDb2dVertex
 10
263.8511031782307
 20
318.9909128595777
 30
0.0
 70
    16
  0
SEQEND
  5
190D
330
18F6
100
AcDbEntity
  8
HILF
  0
POLYLINE
  5
190E
330
1E
100
AcDbEntity
  8
HILF
100
AcDb2dPolyline
 66
     1
 10
0.0
 20
0.0
 30
0.0
 70
     4
 75
     6
  0
VERTEX
  5
190F
330
190E
100
AcDbEntity
  8
HILF
100
AcDbVertex
100
AcDb2dVertex
 10
268.8511031782307
 20
185.9909128595774
 30
0.0
 70
    16
  0
VERTEX
  5
1910
330
190E
100
AcDbEntity
  8
HILF
100
AcDbVertex
100
AcDb2dVertex
 10
268.8511031782307
 20
185.9909128595774
 30
0.0
 70
     8
  0
VERTEX
  5
1911
330
190E
100
AcDbEntity
  8
HILF
100
AcDbVertex
100
AcDb2dVertex
 10
265.7749313032307
 20
197.7128366877024
 30
0.0
 70
     8
  0
VERTEX
  5
1912
330
190E
100
AcDbEntity
  8
HILF
100
AcDbVertex
100
AcDb2dVertex
 10
263.9292281782307
 20
208.0709909845774
 30
0.0
 70
     8
  0
VERTEX
  5
1913
330
190E
100
AcDbEntity
  8
HILF
100
AcDbVertex
100
AcDb2dVertex
 10
263.1382125532307
 20
217.2601999689524
 30
0.0
 70
     8
  0
VERTEX
  5
1914
330
190E
100
AcDbEntity
  8
HILF
100
AcDbVertex
100
AcDb2dVertex
 10
263.2261031782307
 20
225.4752878595774
 30
0.0
 70
     8
  0
VERTEX
  5
1915
330
190E
100
AcDbEntity
  8
HILF
100
AcDbVertex
100
AcDb2dVertex
 10
264.0171188032307
 20
232.9110788752024
 30
0.0
 70
     8
  0
VERTEX
  5
1916
330
190E
100
AcDbEntity
  8
HILF
100
AcDbVertex
100
AcDb2dVertex
 10
265.3354781782307
 20
239.7623972345773
 30
0.0
 70
     8
  0
VERTEX
  5
1917
330
190E
100
AcDbEntity
  8
HILF
100
AcDbVertex
100
AcDb2dVertex
 10
267.0054000532307
 20
246.2240671564523
 30
0.0
 70
     8
  0
VERTEX
  5
1918
330
190E
100
AcDbEntity
  8
HILF
100
AcDbVertex
100
AcDb2dVertex
 10
268.8511031782307
 20
252.4909128595775
 30
0.0
 70
     8
  0
VERTEX
  5
1919
330
190E
100
AcDbEntity
  8
HILF
100
AcDbVertex
100
AcDb2dVertex
 10
270.6968063032307
 20
258.7577585627025
 30
0.0
 70
     8
  0
VERTEX
  5
191A
330
190E
100
AcDbEntity
  8
HILF
100
AcDbVertex
100
AcDb2dVertex
 10
272.3667281782307
 20
265.2194284845776
 30
0.0
 70
     8
  0
VERTEX
  5
191B
330
190E
100
AcDbEntity
  8
HILF
100
AcDbVertex
100
AcDb2dVertex
 10
273.6850875532307
 20
272.0707468439526
 30
0.0
 70
     8
  0
VERTEX
  5
191C
330
190E
100
AcDbEntity
  8
HILF
100
AcDbVertex
100
AcDb2dVertex
 10
274.4761031782307
 20
279.5065378595776
 30
0.0
 70
     8
  0
VERTEX
  5
191D
330
190E
100
AcDbEntity
  8
HILF
100
AcDbVertex
100
AcDb2dVertex
 10
274.5639938032307
 20
287.7216257502027
 30
0.0
 70
     8
  0
VERTEX
  5
191E
330
190E
100
AcDbEntity
  8
HILF
100
AcDbVertex
100
AcDb2dVertex
 10
273.7729781782307
 20
296.9108347345777
 30
0.0
 70
     8
  0
VERTEX
  5
191F
330
190E
100
AcDbEntity
  8
HILF
100
AcDbVertex
100
AcDb2dVertex
 10
271.9272750532307
 20
307.2689890314527
 30
0.0
 70
     8
  0
VERTEX
  5
1920
330
190E
100
AcDbEntity
  8
HILF
100
AcDbVertex
100
AcDb2dVertex
 10
268.8511031782307
 20
318.9909128595778
 30
0.0
 70
     8
  0
VERTEX
  5
1921
330
190E
100
AcDbEntity
  8
HILF
100
AcDbVertex
100
AcDb2dVertex
 10
258.8511031782307
 20
219.2409128595775
 30
0.0
 70
    16
  0
VERTEX
  5
1922
330
190E
100
AcDbEntity
  8
HILF
100
AcDbVertex
100
AcDb2dVertex
 10
268.8511031782307
 20
252.4909128595775
 30
0.0
 70
    16
  0
VERTEX
  5
1923
330
190E
100
AcDbEntity
  8
HILF
100
AcDbVertex
100
AcDb2dVertex
 10
278.8511031782307
 20
285.7409128595776
 30
0.0
 70
    16
  0
VERTEX
  5
1924
330
190E
100
AcDbEntity
  8
HILF
100
AcDbVertex
100
AcDb2dVertex
 10
268.8511031782307
 20
318.9909128595777
 30
0.0
 70
    16
  0
SEQEND
  5
1925
330
190E
100
AcDbEntity
  8
HILF
  0
POLYLINE
  5
1926
330
1E
100
AcDbEntity
  8
HILF
100
AcDb2dPolyline
 66
     1
 10
0.0
 20
0.0
 30
0.0
 70
     4
 75
     6
  0
VERTEX
  5
1927
330
1926
100
AcDbEntity
  8
HILF
100
AcDbVertex
100
AcDb2dVertex
 10
585.4952320243516
 20
185.9909128595774
 30
0.0
 70
    16
  0
VERTEX
  5
1928
330
1926
100
AcDbEntity
  8
HILF
100
AcDbVertex
100
AcDb2dVertex
 10
585.4952320243516
 20
185.9909128595774
 30
0.0
 70
     8
  0
VERTEX
  5
1929
330
1926
100
AcDbEntity
  8
HILF
100
AcDbVertex
100
AcDb2dVertex
 10
582.4190601493516
 20
197.7128366877024
 30
0.0
 70
     8
  0
VERTEX
  5
192A
330
1926
100
AcDbEntity
  8
HILF
100
AcDbVertex
100
AcDb2dVertex
 10
580.5733570243517
 20
208.0709909845774
 30
0.0
 70
     8
  0
VERTEX
  5
192B
330
1926
100
AcDbEntity
  8
HILF
100
AcDbVertex
100
AcDb2dVertex
 10
579.7823413993516
 20
217.2601999689524
 30
0.0
 70
     8
  0
VERTEX
  5
192C
330
1926
100
AcDbEntity
  8
HILF
100
AcDbVertex
100
AcDb2dVertex
 10
579.8702320243517
 20
225.4752878595774
 30
0.0
 70
     8
  0
VERTEX
  5
192D
330
1926
100
AcDbEntity
  8
HILF
100
AcDbVertex
100
AcDb2dVertex
 10
580.6612476493516
 20
232.9110788752024
 30
0.0
 70
     8
  0
VERTEX
  5
192E
330
1926
100
AcDbEntity
  8
HILF
100
AcDbVertex
100
AcDb2dVertex
 10
581.9796070243516
 20
239.7623972345773
 30
0.0
 70
     8
  0
VERTEX
  5
192F
330
1926
100
AcDbEntity
  8
HILF
100
AcDbVertex
100
AcDb2dVertex
 10
583.6495288993517
 20
246.2240671564523
 30
0.0
 70
     8
  0
VERTEX
  5
1930
330
1926
100
AcDbEntity
  8
HILF
100
AcDbVertex
100
AcDb2dVertex
 10
585.4952320243516
 20
252.4909128595775
 30
0.0
 70
     8
  0
VERTEX
  5
1931
330
1926
100
AcDbEntity
  8
HILF
100
AcDbVertex
100
AcDb2dVertex
 10
587.3409351493517
 20
258.7577585627025
 30
0.0
 70
     8
  0
VERTEX
  5
1932
330
1926
100
AcDbEntity
  8
HILF
100
AcDbVertex
100
AcDb2dVertex
 10
589.0108570243516
 20
265.2194284845776
 30
0.0
 70
     8
  0
VERTEX
  5
1933
330
1926
100
AcDbEntity
  8
HILF
100
AcDbVertex
100
AcDb2dVertex
 10
590.3292163993516
 20
272.0707468439526
 30
0.0
 70
     8
  0
VERTEX
  5
1934
330
1926
100
AcDbEntity
  8
HILF
100
AcDbVertex
100
AcDb2dVertex
 10
591.1202320243517
 20
279.5065378595776
 30
0.0
 70
     8
  0
VERTEX
  5
1935
330
1926
100
AcDbEntity
  8
HILF
100
AcDbVertex
100
AcDb2dVertex
 10
591.2081226493516
 20
287.7216257502027
 30
0.0
 70
     8
  0
VERTEX
  5
1936
330
1926
100
AcDbEntity
  8
HILF
100
AcDbVertex
100
AcDb2dVertex
 10
590.4171070243517
 20
296.9108347345777
 30
0.0
 70
     8
  0
VERTEX
  5
1937
330
1926
100
AcDbEntity
  8
HILF
100
AcDbVertex
100
AcDb2dVertex
 10
588.5714038993516
 20
307.2689890314527
 30
0.0
 70
     8
  0
VERTEX
  5
1938
330
1926
100
AcDbEntity
  8
HILF
100
AcDbVertex
100
AcDb2dVertex
 10
585.4952320243516
 20
318.9909128595778
 30
0.0
 70
     8
  0
VERTEX
  5
1939
330
1926
100
AcDbEntity
  8
HILF
100
AcDbVertex
100
AcDb2dVertex
 10
575.4952320243517
 20
219.2409128595775
 30
0.0
 70
    16
  0
VERTEX
  5
193A
330
1926
100
AcDbEntity
  8
HILF
100
AcDbVertex
100
AcDb2dVertex
 10
585.4952320243516
 20
252.4909128595775
 30
0.0
 70
    16
  0
VERTEX
  5
193B
330
1926
100
AcDbEntity
  8
HILF
100
AcDbVertex
100
AcDb2dVertex
 10
595.4952320243517
 20
285.7409128595776
 30
0.0
 70
    16
  0
VERTEX
  5
193C
330
1926
100
AcDbEntity
  8
HILF
100
AcDbVertex
100
AcDb2dVertex
 10
585.4952320243516
 20
318.9909128595777
 30
0.0
 70
    16
  0
SEQEND
  5
193D
330
1926
100
AcDbEntity
  8
HILF
  0
POLYLINE
  5
193E
330
1E
100
AcDbEntity
  8
HILF
100
AcDb2dPolyline
 66
     1
 10
0.0
 20
0.0
 30
0.0
 70
     4
 75
     6
  0
VERTEX
  5
193F
330
193E
100
AcDbEntity
  8
HILF
100
AcDbVertex
100
AcDb2dVertex
 10
580.4952320243517
 20
185.9909128595774
 30
0.0
 70
    16
  0
VERTEX
  5
1940
330
193E
100
AcDbEntity
  8
HILF
100
AcDbVertex
100
AcDb2dVertex
 10
580.4952320243517
 20
185.9909128595774
 30
0.0
 70
     8
  0
VERTEX
  5
1941
330
193E
100
AcDbEntity
  8
HILF
100
AcDbVertex
100
AcDb2dVertex
 10
577.4190601493517
 20
197.7128366877024
 30
0.0
 70
     8
  0
VERTEX
  5
1942
330
193E
100
AcDbEntity
  8
HILF
100
AcDbVertex
100
AcDb2dVertex
 10
575.5733570243517
 20
208.0709909845774
 30
0.0
 70
     8
  0
VERTEX
  5
1943
330
193E
100
AcDbEntity
  8
HILF
100
AcDbVertex
100
AcDb2dVertex
 10
574.7823413993517
 20
217.2601999689524
 30
0.0
 70
     8
  0
VERTEX
  5
1944
330
193E
100
AcDbEntity
  8
HILF
100
AcDbVertex
100
AcDb2dVertex
 10
574.8702320243516
 20
225.4752878595774
 30
0.0
 70
     8
  0
VERTEX
  5
1945
330
193E
100
AcDbEntity
  8
HILF
100
AcDbVertex
100
AcDb2dVertex
 10
575.6612476493517
 20
232.9110788752024
 30
0.0
 70
     8
  0
VERTEX
  5
1946
330
193E
100
AcDbEntity
  8
HILF
100
AcDbVertex
100
AcDb2dVertex
 10
576.9796070243517
 20
239.7623972345773
 30
0.0
 70
     8
  0
VERTEX
  5
1947
330
193E
100
AcDbEntity
  8
HILF
100
AcDbVertex
100
AcDb2dVertex
 10
578.6495288993517
 20
246.2240671564523
 30
0.0
 70
     8
  0
VERTEX
  5
1948
330
193E
100
AcDbEntity
  8
HILF
100
AcDbVertex
100
AcDb2dVertex
 10
580.4952320243517
 20
252.4909128595775
 30
0.0
 70
     8
  0
VERTEX
  5
1949
330
193E
100
AcDbEntity
  8
HILF
100
AcDbVertex
100
AcDb2dVertex
 10
582.3409351493516
 20
258.7577585627025
 30
0.0
 70
     8
  0
VERTEX
  5
194A
330
193E
100
AcDbEntity
  8
HILF
100
AcDbVertex
100
AcDb2dVertex
 10
584.0108570243517
 20
265.2194284845776
 30
0.0
 70
     8
  0
VERTEX
  5
194B
330
193E
100
AcDbEntity
  8
HILF
100
AcDbVertex
100
AcDb2dVertex
 10
585.3292163993517
 20
272.0707468439526
 30
0.0
 70
     8
  0
VERTEX
  5
194C
330
193E
100
AcDbEntity
  8
HILF
100
AcDbVertex
100
AcDb2dVertex
 10
586.1202320243517
 20
279.5065378595776
 30
0.0
 70
     8
  0
VERTEX
  5
194D
330
193E
100
AcDbEntity
  8
HILF
100
AcDbVertex
100
AcDb2dVertex
 10
586.2081226493517
 20
287.7216257502027
 30
0.0
 70
     8
  0
VERTEX
  5
194E
330
193E
100
AcDbEntity
  8
HILF
100
AcDbVertex
100
AcDb2dVertex
 10
585.4171070243516
 20
296.9108347345777
 30
0.0
 70
     8
  0
VERTEX
  5
194F
330
193E
100
AcDbEntity
  8
HILF
100
AcDbVertex
100
AcDb2dVertex
 10
583.5714038993517
 20
307.2689890314527
 30
0.0
 70
     8
  0
VERTEX
  5
1950
330
193E
100
AcDbEntity
  8
HILF
100
AcDbVertex
100
AcDb2dVertex
 10
580.4952320243517
 20
318.9909128595778
 30
0.0
 70
     8
  0
VERTEX
  5
1951
330
193E
100
AcDbEntity
  8
HILF
100
AcDbVertex
100
AcDb2dVertex
 10
570.4952320243517
 20
219.2409128595775
 30
0.0
 70
    16
  0
VERTEX
  5
1952
330
193E
100
AcDbEntity
  8
HILF
100
AcDbVertex
100
AcDb2dVertex
 10
580.4952320243517
 20
252.4909128595775
 30
0.0
 70
    16
  0
VERTEX
  5
1953
330
193E
100
AcDbEntity
  8
HILF
100
AcDbVertex
100
AcDb2dVertex
 10
590.4952320243516
 20
285.7409128595776
 30
0.0
 70
    16
  0
VERTEX
  5
1954
330
193E
100
AcDbEntity
  8
HILF
100
AcDbVertex
100
AcDb2dVertex
 10
580.4952320243517
 20
318.9909128595777
 30
0.0
 70
    16
  0
SEQEND
  5
1955
330
193E
100
AcDbEntity
  8
HILF
  0
LINE
  5
1968
330
1E
100
AcDbEntity
  8
STEMPEL
100
AcDbLine
 10
580.4952320243517
 20
504.0248916951927
 30
0.0
 11
500.8673914299371
 21
504.0248916951927
 31
0.0
  0
LINE
  5
1969
330
1E
100
AcDbEntity
  8
STEMPEL
100
AcDbLine
 10
580.4952320243516
 20
371.0248916951926
 30
0.0
 11
268.8511031782307
 21
371.0248916951926
 31
0.0
  0
LINE
  5
196A
330
1E
100
AcDbEntity
  8
STEMPEL
100
AcDbLine
 10
263.8511031782307
 20
504.0248916951928
 30
0.0
 11
108.5233910274705
 21
504.0248916951927
 31
0.0
  0
LINE
  5
196B
330
1E
100
AcDbEntity
  8
STEMPEL
100
AcDbLine
 10
263.8511031782307
 20
371.0248916951926
 30
0.0
 11
108.523391027475
 21
371.0248916951925
 31
0.0
  0
LINE
  5
196C
330
1E
100
AcDbEntity
  8
STEMPEL
100
AcDbLine
 10
580.4952320243517
 20
318.9909128595776
 30
0.0
 11
268.8511031782307
 21
318.9909128595776
 31
0.0
  0
LINE
  5
196D
330
1E
100
AcDbEntity
  8
STEMPEL
100
AcDbLine
 10
580.4952320243516
 20
185.9909128595773
 30
0.0
 11
268.8511031782306
 21
185.9909128595774
 31
0.0
  0
LINE
  5
196E
330
1E
100
AcDbEntity
  8
STEMPEL
100
AcDbLine
 10
263.8511031782307
 20
318.9909128595776
 30
0.0
 11
108.5233910274695
 21
318.9909128595776
 31
0.0
  0
LINE
  5
196F
330
1E
100
AcDbEntity
  8
STEMPEL
100
AcDbLine
 10
263.8511031782307
 20
185.9909128595774
 30
0.0
 11
108.5233910274745
 21
185.9909128595774
 31
0.0
  0
ARC
  5
19CE
330
1E
100
AcDbEntity
  8
HILF
100
AcDbCircle
 10
438.867391429937
 20
536.5387624146022
 30
0.0
 40
65.87778766784755
100
AcDbArc
 50
210.0671842756765
 51
329.9328157243235
  0
LINE
  5
19D1
330
1E
100
AcDbEntity
  8
STEMPEL
100
AcDbLine
 10
504.4763112351118
 20
525.0248916951927
 30
0.0
 11
515.2584716247531
 21
525.0248916951927
 31
0.0
  0
ARC
  5
19D2
330
1E
100
AcDbEntity
  8
STEMPEL
100
AcDbCircle
 10
504.4757854638251
 20
522.0979407573293
 30
0.0
 40
2.926950985085932
100
AcDbArc
 50
52.11936428281843
 51
121.469194523829
  0
ARC
  5
19D3
330
1E
100
AcDbEntity
  8
STEMPEL
100
AcDbCircle
 10
509.867391429937
 20
527.4748916951928
 30
0.0
 40
5.65
100
AcDbArc
 50
0.0
 51
180.0
  0
LINE
  5
19D4
330
1E
100
AcDbEntity
  8
STEMPEL
100
AcDbLine
 10
504.4763112351118
 20
518.5248916951927
 30
0.0
 11
515.2584716247531
 21
518.5248916951927
 31
0.0
  0
ARC
  5
19D5
330
1E
100
AcDbEntity
  8
STEMPEL
100
AcDbCircle
 10
504.4757854638251
 20
521.4518426330562
 30
0.0
 40
2.926950985085932
100
AcDbArc
 50
238.5308054768434
 51
307.8806357171815
  0
LINE
  5
19D6
330
1E
100
AcDbEntity
  8
STEMPEL
100
AcDbLine
 10
360.1662489143003
 20
518.5248916951927
 30
0.0
 11
517.5685339455742
 21
518.524891695193
 31
0.0
  0
LINE
  5
19D8
330
1E
100
AcDbEntity
  8
MITTEL
100
AcDbLine
 10
367.867391429937
 20
538.1248916951919
 30
0.0
 11
367.867391429937
 21
504.0248916951928
 31
0.0
  0
LINE
  5
19D9
330
1E
100
AcDbEntity
  8
STEMPEL
100
AcDbLine
 10
360.6785834751211
 20
524.4389665061262
 30
0.0
 11
360.6785834751211
 21
519.1108168842593
 31
0.0
  0
LINE
  5
19DA
330
1E
100
AcDbEntity
  8
STEMPEL
100
AcDbLine
 10
364.2729874525291
 20
524.4081587299229
 30
0.0
 11
364.2729874525291
 21
519.1416246604628
 31
0.0
  0
LINE
  5
19DB
330
1E
100
AcDbEntity
  8
STEMPEL
100
AcDbLine
 10
371.4617954073451
 20
524.4081587299229
 30
0.0
 11
371.4617954073451
 21
519.1416246604628
 31
0.0
  0
LINE
  5
19DC
330
1E
100
AcDbEntity
  8
STEMPEL
100
AcDbLine
 10
375.0561993847532
 20
524.4389665061262
 30
0.0
 11
375.0561993847532
 21
519.1108168842593
 31
0.0
  0
ARC
  5
19DD
330
1E
100
AcDbEntity
  8
STEMPEL
100
AcDbCircle
 10
362.4757854638249
 20
521.4518426330562
 30
0.0
 40
2.926950985085932
100
AcDbArc
 50
238.5308054768434
 51
307.8806357171815
  0
LINE
  5
19DE
330
1E
100
AcDbEntity
  8
STEMPEL
100
AcDbLine
 10
362.4763112351118
 20
518.5248916951927
 30
0.0
 11
373.2584716247532
 21
518.5248916951927
 31
0.0
  0
LINE
  5
19DF
330
1E
100
AcDbEntity
  8
STEMPEL
100
AcDbLine
 10
360.6785834751211
 20
519.1108168842593
 30
0.0
 11
360.9477997922495
 21
518.9553847710949
 31
0.0
  0
ARC
  5
19E0
330
1E
100
AcDbEntity
  8
STEMPEL
100
AcDbCircle
 10
373.2589973960489
 20
521.4518426330562
 30
0.0
 40
2.926950985085932
100
AcDbArc
 50
232.1193642828185
 51
301.4691945241509
  0
ARC
  5
19E1
330
1E
100
AcDbEntity
  8
STEMPEL
100
AcDbCircle
 10
367.867391429937
 20
529.3075968951927
 30
0.0
 40
10.7827052
100
AcDbArc
 50
250.5278273813862
 51
289.4721726186137
  0
LINE
  5
19E2
330
1E
100
AcDbEntity
  8
STEMPEL
100
AcDbLine
 10
373.253842154696
 20
518.5248916951927
 30
0.0
 11
373.2584716247429
 21
518.5248916951927
 31
0.0
  0
LINE
  5
19E3
330
1E
100
AcDbEntity
  8
STEMPEL
100
AcDbLine
 10
375.0561993847532
 20
519.1108168842593
 30
0.0
 11
374.7869830676687
 21
518.9553847711201
 31
0.0
  0
LINE
  5
19E4
330
1E
100
AcDbEntity
  8
HILF
100
AcDbLine
 10
364.867391429937
 20
506.5248916951937
 30
0.0
 11
364.867391429937
 21
504.0248916951928
 31
0.0
  0
LINE
  5
19E5
330
1E
100
AcDbEntity
  8
STEMPEL
100
AcDbLine
 10
363.867391429937
 20
506.5248916951937
 30
0.0
 11
363.867391429937
 21
504.0248916951928
 31
0.0
  0
LINE
  5
19E6
330
1E
100
AcDbEntity
  8
HILF
100
AcDbLine
 10
370.867391429937
 20
506.5248916951937
 30
0.0
 11
370.867391429937
 21
504.0248916951928
 31
0.0
  0
LINE
  5
19E7
330
1E
100
AcDbEntity
  8
STEMPEL
100
AcDbLine
 10
371.867391429937
 20
506.5248916951937
 30
0.0
 11
371.867391429937
 21
504.0248916951928
 31
0.0
  0
LINE
  5
19E8
330
1E
100
AcDbEntity
  8
STEMPEL
100
AcDbLine
 10
356.3673914299372
 20
506.524891695193
 30
0.0
 11
357.1776648200255
 21
515.7863589234359
 31
0.0
  0
ARC
  5
19E9
330
1E
100
AcDbEntity
  8
STEMPEL
100
AcDbCircle
 10
360.1662489143
 20
515.5248916951929
 30
0.0
 40
3.0
100
AcDbArc
 50
89.99999999999998
 51
175.0000000000002
  0
ARC
  5
19EA
330
1E
100
AcDbEntity
  8
STEMPEL
100
AcDbCircle
 10
367.867391429937
 20
527.4748916951928
 30
0.0
 40
5.65
100
AcDbArc
 50
0.0
 51
180.0
  0
ARC
  5
19EB
330
1E
100
AcDbEntity
  8
STEMPEL
100
AcDbCircle
 10
362.4757854638249
 20
522.0979407573293
 30
0.0
 40
2.926950985085932
100
AcDbArc
 50
52.11936428281843
 51
121.469194523829
  0
LINE
  5
19EC
330
1E
100
AcDbEntity
  8
STEMPEL
100
AcDbLine
 10
362.4763112351118
 20
525.0248916951927
 30
0.0
 11
373.2584716247532
 21
525.0248916951927
 31
0.0
  0
LINE
  5
19ED
330
1E
100
AcDbEntity
  8
STEMPEL
100
AcDbLine
 10
360.6785834751211
 20
524.4389665061262
 30
0.0
 11
360.9477997922197
 21
524.5943986192733
 31
0.0
  0
ARC
  5
19EE
330
1E
100
AcDbEntity
  8
STEMPEL
100
AcDbCircle
 10
373.2589973960489
 20
522.0979407573293
 30
0.0
 40
2.926950985085932
100
AcDbArc
 50
58.53080547515315
 51
127.8806357171815
  0
ARC
  5
19EF
330
1E
100
AcDbEntity
  8
STEMPEL
100
AcDbCircle
 10
367.867391429937
 20
514.242186495193
 30
0.0
 40
10.7827052
100
AcDbArc
 50
70.52782738138624
 51
109.4721726186137
  0
LINE
  5
19F0
330
1E
100
AcDbEntity
  8
STEMPEL
100
AcDbLine
 10
373.253842154696
 20
525.0248916951927
 30
0.0
 11
373.2584716247429
 21
525.0248916951927
 31
0.0
  0
LINE
  5
19F1
330
1E
100
AcDbEntity
  8
STEMPEL
100
AcDbLine
 10
375.0561993847532
 20
524.4389665061262
 30
0.0
 11
374.7869830676993
 21
524.5943986192473
 31
0.0
  0
LINE
  5
19F2
330
1E
100
AcDbEntity
  8
STEMPEL
100
AcDbLine
 10
362.2173914299371
 20
527.4748916951928
 30
0.0
 11
362.2173914299371
 21
525.0134637965705
 31
0.0
  0
LINE
  5
19F3
330
1E
100
AcDbEntity
  8
STEMPEL
100
AcDbLine
 10
373.5173914299371
 20
527.4748916951928
 30
0.0
 11
373.5173914299371
 21
525.0134637965705
 31
0.0
  0
ARC
  5
19F4
330
1E
100
AcDbEntity
  8
STEMPEL
100
AcDbCircle
 10
376.367391429937
 20
510.0248916951928
 30
0.0
 40
6.0
100
AcDbArc
 50
270.0
 51
324.3146652873544
  0
LINE
  5
19F5
330
1E
100
AcDbEntity
  8
STEMPEL
100
AcDbLine
 10
502.678583475121
 20
524.4389665061262
 30
0.0
 11
502.678583475121
 21
519.1108168842593
 31
0.0
  0
LINE
  5
19F6
330
1E
100
AcDbEntity
  8
STEMPEL
100
AcDbLine
 10
502.678583475121
 20
519.1108168842593
 30
0.0
 11
502.9477997922494
 21
518.9553847710949
 31
0.0
  0
ARC
  5
19F7
330
1E
100
AcDbEntity
  8
STEMPEL
100
AcDbCircle
 10
501.367391429937
 20
510.0248916951928
 30
0.0
 40
6.0
100
AcDbArc
 50
215.6853347126493
 51
270.0
  0
LINE
  5
19F8
330
1E
100
AcDbEntity
  8
STEMPEL
100
AcDbLine
 10
504.2173914299371
 20
527.4748916951928
 30
0.0
 11
504.2173914299371
 21
525.0134637965705
 31
0.0
  0
LINE
  5
19F9
330
1E
100
AcDbEntity
  8
STEMPEL
100
AcDbLine
 10
502.678583475121
 20
524.4389665061262
 30
0.0
 11
502.9477997922197
 21
524.5943986192733
 31
0.0
  0
LINE
  5
19FA
330
1E
100
AcDbEntity
  8
STEMPEL
100
AcDbLine
 10
517.0561993847532
 20
524.4389665061262
 30
0.0
 11
517.0561993847532
 21
519.1108168842593
 31
0.0
  0
LINE
  5
19FB
330
1E
100
AcDbEntity
  8
STEMPEL
100
AcDbLine
 10
513.461795407345
 20
524.4081587299229
 30
0.0
 11
513.461795407345
 21
519.1416246604628
 31
0.0
  0
LINE
  5
19FC
330
1E
100
AcDbEntity
  8
STEMPEL
100
AcDbLine
 10
506.2729874525291
 20
524.4081587299229
 30
0.0
 11
506.2729874525291
 21
519.1416246604628
 31
0.0
  0
LINE
  5
19FD
330
1E
100
AcDbEntity
  8
MITTEL
100
AcDbLine
 10
509.867391429937
 20
538.1248916951919
 30
0.0
 11
509.867391429937
 21
504.0248916951928
 31
0.0
  0
LINE
  5
19FE
330
1E
100
AcDbEntity
  8
STEMPEL
100
AcDbLine
 10
517.0561993847532
 20
519.1108168842593
 30
0.0
 11
516.7869830676686
 21
518.9553847711201
 31
0.0
  0
LINE
  5
19FF
330
1E
100
AcDbEntity
  8
STEMPEL
100
AcDbLine
 10
515.253842154696
 20
518.5248916951927
 30
0.0
 11
515.2584716247426
 21
518.5248916951927
 31
0.0
  0
ARC
  5
1A00
330
1E
100
AcDbEntity
  8
STEMPEL
100
AcDbCircle
 10
509.867391429937
 20
529.3075968951927
 30
0.0
 40
10.7827052
100
AcDbArc
 50
250.5278273813862
 51
289.4721726186137
  0
ARC
  5
1A01
330
1E
100
AcDbEntity
  8
STEMPEL
100
AcDbCircle
 10
515.2589973960489
 20
521.4518426330562
 30
0.0
 40
2.926950985085932
100
AcDbArc
 50
232.1193642828185
 51
301.4691945241509
  0
LINE
  5
1A02
330
1E
100
AcDbEntity
  8
STEMPEL
100
AcDbLine
 10
521.3673914299376
 20
506.5248916951926
 30
0.0
 11
520.5571180398494
 21
515.7863589234355
 31
0.0
  0
LINE
  5
1A03
330
1E
100
AcDbEntity
  8
STEMPEL
100
AcDbLine
 10
513.8673914299371
 20
506.5248916951926
 30
0.0
 11
513.867391429937
 21
504.0248916951928
 31
0.0
  0
LINE
  5
1A04
330
1E
100
AcDbEntity
  8
HILF
100
AcDbLine
 10
512.8673914299371
 20
506.5248916951926
 30
0.0
 11
512.867391429937
 21
504.0248916951928
 31
0.0
  0
ARC
  5
1A05
330
1E
100
AcDbEntity
  8
STEMPEL
100
AcDbCircle
 10
517.568533945574
 20
515.5248916951925
 30
0.0
 40
3.0
100
AcDbArc
 50
4.999999999999727
 51
89.99999999999998
  0
LINE
  5
1A06
330
1E
100
AcDbEntity
  8
STEMPEL
100
AcDbLine
 10
356.3673914299375
 20
506.5248916951937
 30
0.0
 11
521.3673914299376
 21
506.5248916951926
 31
0.0
  0
LINE
  5
1A07
330
1E
100
AcDbEntity
  8
HILF
100
AcDbLine
 10
506.867391429937
 20
506.5248916951926
 30
0.0
 11
506.8673914299369
 21
504.0248916951928
 31
0.0
  0
LINE
  5
1A08
330
1E
100
AcDbEntity
  8
STEMPEL
100
AcDbLine
 10
505.8673914299369
 20
506.5248916951926
 30
0.0
 11
505.867391429937
 21
504.0248916951928
 31
0.0
  0
LINE
  5
1A09
330
1E
100
AcDbEntity
  8
STEMPEL
100
AcDbLine
 10
515.517391429937
 20
527.4748916951928
 30
0.0
 11
515.517391429937
 21
525.0134637965705
 31
0.0
  0
LINE
  5
1A0A
330
1E
100
AcDbEntity
  8
STEMPEL
100
AcDbLine
 10
517.0561993847532
 20
524.4389665061262
 30
0.0
 11
516.7869830676993
 21
524.5943986192473
 31
0.0
  0
LINE
  5
1A0B
330
1E
100
AcDbEntity
  8
STEMPEL
100
AcDbLine
 10
515.253842154696
 20
525.0248916951927
 30
0.0
 11
515.2584716247426
 21
525.0248916951927
 31
0.0
  0
ARC
  5
1A0C
330
1E
100
AcDbEntity
  8
STEMPEL
100
AcDbCircle
 10
509.867391429937
 20
514.2421864951927
 30
0.0
 40
10.7827052
100
AcDbArc
 50
70.52782738138624
 51
109.4721726186137
  0
ARC
  5
1A0D
330
1E
100
AcDbEntity
  8
STEMPEL
100
AcDbCircle
 10
515.2589973960489
 20
522.0979407573293
 30
0.0
 40
2.926950985085932
100
AcDbArc
 50
58.53080547515315
 51
127.8806357171815
  0
ENDSEC
  0
SECTION
  2
OBJECTS
  0
DICTIONARY
  5
C
330
0
100
AcDbDictionary
281
     1
  3
ACAD_COLOR
350
11A
  3
ACAD_GROUP
350
D
  3
ACAD_LAYOUT
350
19
  3
ACAD_MATERIAL
350
119
  3
ACAD_MLINESTYLE
350
16
  3
ACAD_PLOTSETTINGS
350
18
  3
ACAD_PLOTSTYLENAME
350
E
  3
AcDbVariableDictionary
350
125
  0
DICTIONARY
  5
DB
330
1E
100
AcDbDictionary
280
     1
281
     1
  3
ACAD_LAYOUTSELFREF
360
10F
  0
DICTIONARY
  5
DD
330
1A
100
AcDbDictionary
280
     1
281
     1
  3
ACAD_LAYOUTSELFREF
360
10E
  0
DICTIONARY
  5
11A
102
{ACAD_REACTORS
330
C
102
}
330
C
100
AcDbDictionary
281
     1
  0
DICTIONARY
  5
D
102
{ACAD_REACTORS
330
C
102
}
330
C
100
AcDbDictionary
281
     1
  0
DICTIONARY
  5
19
102
{ACAD_REACTORS
330
C
102
}
330
C
100
AcDbDictionary
281
     1
  3
Layout1
350
1D
  3
Model
350
21
  0
DICTIONARY
  5
119
102
{ACAD_REACTORS
330
C
102
}
330
C
100
AcDbDictionary
281
     1
  0
DICTIONARY
  5
16
102
{ACAD_REACTORS
330
C
102
}
330
C
100
AcDbDictionary
281
     1
  3
Standard
350
17
  0
DICTIONARY
  5
18
102
{ACAD_REACTORS
330
C
102
}
330
C
100
AcDbDictionary
281
     1
  0
ACDBDICTIONARYWDFLT
  5
E
102
{ACAD_REACTORS
330
C
102
}
330
C
100
AcDbDictionary
281
     1
  3
Normal
350
F
100
AcDbDictionaryWithDefault
340
F
  0
DICTIONARY
  5
125
102
{ACAD_REACTORS
330
C
102
}
330
C
100
AcDbDictionary
281
     1
  3
DIMASSOC
350
126
  3
PROJECTNAME
350
127
  0
XRECORD
  5
10F
102
{ACAD_REACTORS
330
DB
102
}
330
DB
100
AcDbXrecord
280
     1
340
1E
  0
XRECORD
  5
10E
102
{ACAD_REACTORS
330
DD
102
}
330
DD
100
AcDbXrecord
280
     1
340
1A
  0
LAYOUT
  5
1D
102
{ACAD_REACTORS
330
19
102
}
330
19
100
AcDbPlotSettings
  1

  2
\\NT_WORK01\HP LaserJet 5000 PCL 6
  4

  6

 40
0.0
 41
0.0
 42
0.0
 43
0.0
 44
0.0
 45
0.0
 46
0.0
 47
0.0
 48
0.0
 49
0.0
140
0.0
141
0.0
142
1.0
143
1.0
 70
   688
 72
     0
 73
     0
 74
     5
  7

 75
    16
147
1.0
 76
     0
 77
     2
 78
   300
148
0.0
149
0.0
100
AcDbLayout
  1
Layout1
 70
     0
 71
     1
 10
0.0
 20
0.0
 11
12.0
 21
9.0
 12
0.0
 22
0.0
 32
0.0
 14
1.000000000000000E+20
 24
1.000000000000000E+20
 34
1.000000000000000E+20
 15
-1.000000000000000E+20
 25
-1.000000000000000E+20
 35
-1.000000000000000E+20
146
0.0
 13
0.0
 23
0.0
 33
0.0
 16
1.0
 26
0.0
 36
0.0
 17
0.0
 27
1.0
 37
0.0
 76
     0
330
1A
  0
LAYOUT
  5
21
102
{ACAD_REACTORS
330
19
102
}
330
19
100
AcDbPlotSettings
  1

  2
none_device
  4
Letter_(8.50_x_11.00_Inches)
  6

 40
6.349999904632568
 41
6.349999904632568
 42
6.350006103515625
 43
6.350006103515625
 44
215.8999938964844
 45
279.3999938964844
 46
0.0
 47
0.0
 48
0.0
 49
0.0
140
0.0
141
0.0
142
1.0
143
1.0
 70
 11952
 72
     0
 73
     1
 74
     0
  7

 75
     0
147
1.0
 76
     0
 77
     2
 78
   300
148
-3122.158651940765
149
2.041348059236838
100
AcDbLayout
  1
Model
 70
     1
 71
     0
 10
0.0
 20
0.0
 11
12.0
 21
9.0
 12
0.0
 22
0.0
 32
0.0
 14
0.0
 24
0.0
 34
0.0
 15
0.0
 25
0.0
 35
0.0
146
0.0
 13
0.0
 23
0.0
 33
0.0
 16
1.0
 26
0.0
 36
0.0
 17
0.0
 27
1.0
 37
0.0
 76
     0
330
1E
  0
MLINESTYLE
  5
17
102
{ACAD_REACTORS
330
16
102
}
330
16
100
AcDbMlineStyle
  2
STANDARD
 70
     0
  3

 62
   256
 51
90.0
 52
90.0
 71
     2
 49
0.5
 62
   256
  6
BYLAYER
 49
-0.5
 62
   256
  6
BYLAYER
  0
ACDBPLACEHOLDER
  5
F
102
{ACAD_REACTORS
330
E
102
}
330
E
  0
DICTIONARYVAR
  5
126
102
{ACAD_REACTORS
330
125
102
}
330
125
100
DictionaryVariables
280
     0
  1
1
  0
DICTIONARYVAR
  5
127
102
{ACAD_REACTORS
330
125
102
}
330
125
100
DictionaryVariables
280
     0
  1

  0
ENDSEC
  0
EOF
