  0
SECTION
  2
HEADER
  9
$ACADVER
  1
AC1018
  9
$ACADMAINTVER
 70
     2
  9
$DWGCODEPAGE
  3
ANSI_1252
  9
$INSBASE
 10
0.0
 20
0.0
 30
0.0
  9
$EXTMIN
 10
-0.0096009592126052
 20
-0.0135784994583901
 30
-0.0000000000000092
  9
$EXTMAX
 10
210.0096188069425
 20
297.0136037412465
 30
0.0000000000000061
  9
$LIMMIN
 10
0.0
 20
0.0
  9
$LIMMAX
 10
210.0
 20
297.0
  9
$ORTHOMODE
 70
     1
  9
$REGENMODE
 70
     1
  9
$FILLMODE
 70
     1
  9
$QTEXTMODE
 70
     0
  9
$MIRRTEXT
 70
     1
  9
$LTSCALE
 40
10.0
  9
$ATTMODE
 70
     1
  9
$TEXTSIZE
 40
3.5
  9
$TRACEWID
 40
0.5
  9
$TEXTSTYLE
  7
STANDARD
  9
$CLAYER
  8
BEM
  9
$CELTYPE
  6
ByLayer
  9
$CECOLOR
 62
   256
  9
$CELTSCALE
 40
1.0
  9
$DISPSILH
 70
     0
  9
$DIMSCALE
 40
1.0
  9
$DIMASZ
 40
3.5
  9
$DIMEXO
 40
1.0
  9
$DIMDLI
 40
7.0
  9
$DIMRND
 40
0.0
  9
$DIMDLE
 40
0.0
  9
$DIMEXE
 40
1.0
  9
$DIMTP
 40
0.0
  9
$DIMTM
 40
0.0
  9
$DIMTXT
 40
3.5
  9
$DIMCEN
 40
1.5
  9
$DIMTSZ
 40
0.0
  9
$DIMTOL
 70
     0
  9
$DIMLIM
 70
     0
  9
$DIMTIH
 70
     0
  9
$DIMTOH
 70
     0
  9
$DIMSE1
 70
     0
  9
$DIMSE2
 70
     0
  9
$DIMTAD
 70
     1
  9
$DIMZIN
 70
     8
  9
$DIMBLK
  1

  9
$DIMASO
 70
     1
  9
$DIMSHO
 70
     0
  9
$DIMPOST
  1

  9
$DIMAPOST
  1

  9
$DIMALT
 70
     0
  9
$DIMALTD
 70
     2
  9
$DIMALTF
 40
25.4
  9
$DIMLFAC
 40
1.0
  9
$DIMTOFL
 70
     1
  9
$DIMTVP
 40
0.0
  9
$DIMTIX
 70
     0
  9
$DIMSOXD
 70
     0
  9
$DIMSAH
 70
     0
  9
$DIMBLK1
  1

  9
$DIMBLK2
  1

  9
$DIMSTYLE
  2
Standard
  9
$DIMCLRD
 70
     0
  9
$DIMCLRE
 70
     0
  9
$DIMCLRT
 70
     1
  9
$DIMTFAC
 40
0.5142857142857144
  9
$DIMGAP
 40
1.5
  9
$DIMJUST
 70
     0
  9
$DIMSD1
 70
     0
  9
$DIMSD2
 70
     0
  9
$DIMTOLJ
 70
     1
  9
$DIMTZIN
 70
     8
  9
$DIMALTZ
 70
     8
  9
$DIMALTTZ
 70
     8
  9
$DIMUPT
 70
     0
  9
$DIMDEC
 70
     2
  9
$DIMTDEC
 70
     2
  9
$DIMALTU
 70
     2
  9
$DIMALTTD
 70
     2
  9
$DIMTXSTY
  7
STANDARD
  9
$DIMAUNIT
 70
     0
  9
$DIMADEC
 70
     2
  9
$DIMALTRND
 40
0.0
  9
$DIMAZIN
 70
     2
  9
$DIMDSEP
 70
    46
  9
$DIMATFIT
 70
     3
  9
$DIMFRAC
 70
     0
  9
$DIMLDRBLK
  1

  9
$DIMLUNIT
 70
     2
  9
$DIMLWD
 70
    -2
  9
$DIMLWE
 70
    -2
  9
$DIMTMOVE
 70
     0
  9
$LUNITS
 70
     2
  9
$LUPREC
 70
     2
  9
$SKETCHINC
 40
1.0
  9
$FILLETRAD
 40
0.0
  9
$AUNITS
 70
     1
  9
$AUPREC
 70
     3
  9
$MENU
  1
ACAD
  9
$ELEVATION
 40
0.0
  9
$PELEVATION
 40
0.0
  9
$THICKNESS
 40
0.0
  9
$LIMCHECK
 70
     0
  9
$CHAMFERA
 40
0.0
  9
$CHAMFERB
 40
0.0
  9
$CHAMFERC
 40
0.0
  9
$CHAMFERD
 40
0.0
  9
$SKPOLY
 70
     0
  9
$TDCREATE
 40
2452040.637099653
  9
$TDUCREATE
 40
2452040.553766320
  9
$TDUPDATE
 40
2455666.565932257
  9
$TDUUPDATE
 40
2455666.482598924
  9
$TDINDWG
 40
0.2338407639
  9
$TDUSRTIMER
 40
0.2338407639
  9
$USRTIMER
 70
     1
  9
$ANGBASE
 50
0.0
  9
$ANGDIR
 70
     0
  9
$PDMODE
 70
     0
  9
$PDSIZE
 40
0.0
  9
$PLINEWID
 40
0.0
  9
$SPLFRAME
 70
     0
  9
$SPLINETYPE
 70
     6
  9
$SPLINESEGS
 70
     8
  9
$HANDSEED
  5
C5C
  9
$SURFTAB1
 70
     6
  9
$SURFTAB2
 70
     6
  9
$SURFTYPE
 70
     6
  9
$SURFU
 70
     6
  9
$SURFV
 70
     6
  9
$UCSBASE
  2

  9
$UCSNAME
  2

  9
$UCSORG
 10
0.0
 20
0.0
 30
0.0
  9
$UCSXDIR
 10
1.0
 20
0.0
 30
0.0
  9
$UCSYDIR
 10
0.0
 20
1.0
 30
0.0
  9
$UCSORTHOREF
  2

  9
$UCSORTHOVIEW
 70
     0
  9
$UCSORGTOP
 10
0.0
 20
0.0
 30
0.0
  9
$UCSORGBOTTOM
 10
0.0
 20
0.0
 30
0.0
  9
$UCSORGLEFT
 10
0.0
 20
0.0
 30
0.0
  9
$UCSORGRIGHT
 10
0.0
 20
0.0
 30
0.0
  9
$UCSORGFRONT
 10
0.0
 20
0.0
 30
0.0
  9
$UCSORGBACK
 10
0.0
 20
0.0
 30
0.0
  9
$PUCSBASE
  2

  9
$PUCSNAME
  2

  9
$PUCSORG
 10
0.0
 20
0.0
 30
0.0
  9
$PUCSXDIR
 10
1.0
 20
0.0
 30
0.0
  9
$PUCSYDIR
 10
0.0
 20
1.0
 30
0.0
  9
$PUCSORTHOREF
  2

  9
$PUCSORTHOVIEW
 70
     0
  9
$PUCSORGTOP
 10
0.0
 20
0.0
 30
0.0
  9
$PUCSORGBOTTOM
 10
0.0
 20
0.0
 30
0.0
  9
$PUCSORGLEFT
 10
0.0
 20
0.0
 30
0.0
  9
$PUCSORGRIGHT
 10
0.0
 20
0.0
 30
0.0
  9
$PUCSORGFRONT
 10
0.0
 20
0.0
 30
0.0
  9
$PUCSORGBACK
 10
0.0
 20
0.0
 30
0.0
  9
$USERI1
 70
     0
  9
$USERI2
 70
     0
  9
$USERI3
 70
     0
  9
$USERI4
 70
     0
  9
$USERI5
 70
     0
  9
$USERR1
 40
0.0
  9
$USERR2
 40
0.0
  9
$USERR3
 40
0.0
  9
$USERR4
 40
0.0
  9
$USERR5
 40
0.0
  9
$WORLDVIEW
 70
     1
  9
$SHADEDGE
 70
     3
  9
$SHADEDIF
 70
    70
  9
$TILEMODE
 70
     1
  9
$MAXACTVP
 70
    16
  9
$PINSBASE
 10
0.0
 20
0.0
 30
0.0
  9
$PLIMCHECK
 70
     0
  9
$PEXTMIN
 10
1.000000000000000E+20
 20
1.000000000000000E+20
 30
1.000000000000000E+20
  9
$PEXTMAX
 10
-1.000000000000000E+20
 20
-1.000000000000000E+20
 30
-1.000000000000000E+20
  9
$PLIMMIN
 10
0.0
 20
0.0
  9
$PLIMMAX
 10
12.0
 20
9.0
  9
$UNITMODE
 70
     0
  9
$VISRETAIN
 70
     0
  9
$PLINEGEN
 70
     0
  9
$PSLTSCALE
 70
     0
  9
$TREEDEPTH
 70
  3020
  9
$CMLSTYLE
  2
Standard
  9
$CMLJUST
 70
     0
  9
$CMLSCALE
 40
1.0
  9
$PROXYGRAPHICS
 70
     1
  9
$MEASUREMENT
 70
     0
  9
$CELWEIGHT
370
    -1
  9
$ENDCAPS
280
     0
  9
$JOINSTYLE
280
     0
  9
$LWDISPLAY
290
     0
  9
$INSUNITS
 70
     0
  9
$HYPERLINKBASE
  1

  9
$STYLESHEET
  1
monochrome 1.ctb
  9
$XEDIT
290
     1
  9
$CEPSNTYPE
380
     0
  9
$PSTYLEMODE
290
     1
  9
$FINGERPRINTGUID
  2
{7AADB5C8-6110-11D8-B72B-000102183313}
  9
$VERSIONGUID
  2
{55A5D747-F4BC-468A-AF1A-E95ACA540DA1}
  9
$EXTNAMES
290
     1
  9
$PSVPSCALE
 40
0.0
  9
$OLESTARTUP
290
     0
  9
$SORTENTS
280
    96
  9
$INDEXCTL
280
     0
  9
$HIDETEXT
280
     0
  9
$XCLIPFRAME
290
     0
  9
$HALOGAP
280
     0
  9
$OBSCOLOR
 70
   257
  9
$OBSLTYPE
280
     0
  9
$INTERSECTIONDISPLAY
280
     0
  9
$INTERSECTIONCOLOR
 70
   257
  9
$DIMASSOC
280
     1
  9
$PROJECTNAME
  1

  0
ENDSEC
  0
SECTION
  2
CLASSES
  0
CLASS
  1
ACDBDICTIONARYWDFLT
  2
AcDbDictionaryWithDefault
  3
ObjectDBX Classes
 90
        0
 91
        1
280
     0
281
     0
  0
CLASS
  1
DICTIONARYVAR
  2
AcDbDictionaryVar
  3
ObjectDBX Classes
 90
        0
 91
        3
280
     0
281
     0
  0
ENDSEC
  0
SECTION
  2
TABLES
  0
TABLE
  2
VPORT
  5
8
330
0
100
AcDbSymbolTable
 70
     3
  0
VPORT
  5
C5B
330
8
100
AcDbSymbolTableRecord
100
AcDbViewportTableRecord
  2
*Active
 70
     0
 10
0.0
 20
0.0
 11
1.0
 21
1.0
 12
105.0
 22
148.5
 13
0.0
 23
0.0
 14
1.0
 24
1.0
 15
10.0
 25
10.0
 16
0.0
 26
0.0
 36
1.0
 17
0.0
 27
0.0
 37
0.0
 40
297.0
 41
1.334231805929919
 42
50.0
 43
0.0
 44
0.0
 50
0.0
 51
0.0
 71
     0
 72
  1500
 73
     1
 74
     0
 75
     0
 76
     0
 77
     0
 78
     0
281
     0
 65
     1
110
0.0
120
0.0
130
0.0
111
1.0
121
0.0
131
0.0
112
0.0
122
1.0
132
0.0
 79
     0
146
0.0
  0
ENDTAB
  0
TABLE
  2
LTYPE
  5
5
330
0
100
AcDbSymbolTable
 70
     2
  0
LTYPE
  5
13
330
5
100
AcDbSymbolTableRecord
100
AcDbLinetypeTableRecord
  2
ByBlock
 70
     0
  3

 72
    65
 73
     0
 40
0.0
  0
LTYPE
  5
14
330
5
100
AcDbSymbolTableRecord
100
AcDbLinetypeTableRecord
  2
ByLayer
 70
     0
  3

 72
    65
 73
     0
 40
0.0
  0
LTYPE
  5
15
330
5
100
AcDbSymbolTableRecord
100
AcDbLinetypeTableRecord
  2
Continuous
 70
     0
  3
Solid line
 72
    65
 73
     0
 40
0.0
  0
LTYPE
  5
35
330
5
100
AcDbSymbolTableRecord
100
AcDbLinetypeTableRecord
  2
STRICHPUNKT
 70
     0
  3
__ . __ . __ . __ . __ . __ . __ . __ . __ . __
 72
    65
 73
     4
 40
1.0
 49
0.5
 74
     0
 49
-0.25
 74
     0
 49
0.0
 74
     0
 49
-0.25
 74
     0
  0
ENDTAB
  0
TABLE
  2
LAYER
  5
2
330
0
100
AcDbSymbolTable
 70
     9
  0
LAYER
  5
10
330
2
100
AcDbSymbolTableRecord
100
AcDbLayerTableRecord
  2
0
 70
     0
 62
     7
  6
Continuous
370
    -3
390
F
  0
LAYER
  5
38
330
2
100
AcDbSymbolTableRecord
100
AcDbLayerTableRecord
  2
VOLL
 70
     0
 62
     1
  6
Continuous
370
    -3
390
F
  0
LAYER
  5
39
330
2
100
AcDbSymbolTableRecord
100
AcDbLayerTableRecord
  2
HILF
 70
     0
 62
     2
  6
Continuous
370
    -3
390
F
  0
LAYER
  5
3A
330
2
100
AcDbSymbolTableRecord
100
AcDbLayerTableRecord
  2
MITTEL
 70
     0
 62
     2
  6
STRICHPUNKT
370
    -3
390
F
  0
LAYER
  5
3B
330
2
100
AcDbSymbolTableRecord
100
AcDbLayerTableRecord
  2
BEM
 70
     0
 62
     7
  6
Continuous
370
    -3
390
F
  0
LAYER
  5
3C
330
2
100
AcDbSymbolTableRecord
100
AcDbLayerTableRecord
  2
STEMPEL
 70
     0
 62
     3
  6
Continuous
370
    -3
390
F
  0
LAYER
  5
3D
330
2
100
AcDbSymbolTableRecord
100
AcDbLayerTableRecord
  2
TEXT
 70
     0
 62
     7
  6
Continuous
370
    -3
390
F
  0
LAYER
  5
3E
330
2
100
AcDbSymbolTableRecord
100
AcDbLayerTableRecord
  2
DEFPOINTS
 70
     0
 62
     7
  6
Continuous
290
     0
370
    -3
390
F
  0
LAYER
  5
3F
330
2
100
AcDbSymbolTableRecord
100
AcDbLayerTableRecord
  2
SCHRAFF
 70
     0
 62
     7
  6
Continuous
370
    -3
390
F
  0
ENDTAB
  0
TABLE
  2
STYLE
  5
3
330
0
100
AcDbSymbolTable
 70
     2
  0
STYLE
  5
11
330
3
100
AcDbSymbolTableRecord
100
AcDbTextStyleTableRecord
  2
STANDARD
 70
     0
 40
0.0
 41
0.8
 50
0.0
 71
     0
 42
3.5
  3
simplex.shx
  4

  0
STYLE
  5
34
330
3
100
AcDbSymbolTableRecord
100
AcDbTextStyleTableRecord
  2
GREEKS
 70
     0
 40
0.0
 41
0.8
 50
0.0
 71
     0
 42
2.5
  3
SIMPLEX.shx
  4

  0
ENDTAB
  0
TABLE
  2
VIEW
  5
6
330
0
100
AcDbSymbolTable
 70
     0
  0
ENDTAB
  0
TABLE
  2
UCS
  5
7
330
0
100
AcDbSymbolTable
 70
     0
  0
ENDTAB
  0
TABLE
  2
APPID
  5
9
330
0
100
AcDbSymbolTable
 70
     1
  0
APPID
  5
12
330
9
100
AcDbSymbolTableRecord
100
AcDbRegAppTableRecord
  2
ACAD
 70
     0
  0
ENDTAB
  0
TABLE
  2
DIMSTYLE
  5
A
330
0
100
AcDbSymbolTable
 70
     1
100
AcDbDimStyleTable
 71
     1
340
1CB
  0
DIMSTYLE
105
1CB
102
{ACAD_REACTORS
330
1E8
330
22F
330
7A5
330
90E
330
BED
330
BFA
102
}
330
A
100
AcDbSymbolTableRecord
100
AcDbDimStyleTableRecord
  2
Standard
 70
     0
340
11
  0
ENDTAB
  0
TABLE
  2
BLOCK_RECORD
  5
1
330
0
100
AcDbSymbolTable
 70
     7
  0
BLOCK_RECORD
  5
1E
330
1
100
AcDbSymbolTableRecord
100
AcDbBlockTableRecord
  2
*Model_Space
340
21
  0
BLOCK_RECORD
  5
1A
330
1
100
AcDbSymbolTableRecord
100
AcDbBlockTableRecord
  2
*Paper_Space
340
1D
  0
BLOCK_RECORD
  5
22
330
1
100
AcDbSymbolTableRecord
100
AcDbBlockTableRecord
  2
LOGO
340
0
102
{BLKREFS
331
135
102
}
  0
BLOCK_RECORD
  5
1E9
330
1
100
AcDbSymbolTableRecord
100
AcDbBlockTableRecord
  2
*D1
340
0
  0
BLOCK_RECORD
  5
230
330
1
100
AcDbSymbolTableRecord
100
AcDbBlockTableRecord
  2
*D2
340
0
  0
BLOCK_RECORD
  5
7A6
330
1
100
AcDbSymbolTableRecord
100
AcDbBlockTableRecord
  2
*D3
340
0
  0
BLOCK_RECORD
  5
90F
330
1
100
AcDbSymbolTableRecord
100
AcDbBlockTableRecord
  2
*D4
340
0
  0
BLOCK_RECORD
  5
BEE
330
1
100
AcDbSymbolTableRecord
100
AcDbBlockTableRecord
  2
*D5
340
0
  0
BLOCK_RECORD
  5
BFB
330
1
100
AcDbSymbolTableRecord
100
AcDbBlockTableRecord
  2
*D6
340
0
  0
ENDTAB
  0
ENDSEC
  0
SECTION
  2
BLOCKS
  0
BLOCK
  5
43
330
1E
100
AcDbEntity
  8
0
100
AcDbBlockBegin
  2
*Model_Space
 70
     0
 10
0.0
 20
0.0
 30
0.0
  3
*Model_Space
  1

  0
ENDBLK
  5
44
330
1E
100
AcDbEntity
  8
0
100
AcDbBlockEnd
  0
BLOCK
  5
41
330
1A
100
AcDbEntity
 67
     1
  8
0
100
AcDbBlockBegin
  2
*Paper_Space
 70
     0
 10
0.0
 20
0.0
 30
0.0
  3
*Paper_Space
  1

  0
ENDBLK
  5
42
330
1A
100
AcDbEntity
 67
     1
  8
0
100
AcDbBlockEnd
  0
BLOCK
  5
45
330
22
100
AcDbEntity
  8
0
100
AcDbBlockBegin
  2
LOGO
 70
     0
 10
0.0
 20
0.0
 30
0.0
  3
LOGO
  1

  0
ARC
  5
46
330
22
100
AcDbEntity
  8
0
100
AcDbCircle
 10
11.59973089678112
 20
-9.271599258481501
 30
0.0
 40
4.5
100
AcDbArc
 50
270.0
 51
231.0575587310159
  0
LINE
  5
47
330
22
100
AcDbEntity
  8
0
100
AcDbLine
 10
3.599730896781125
 20
-4.771599258481529
 30
0.0
 11
3.599730896781153
 21
-11.77159925848133
 31
0.0
  0
LINE
  5
48
330
22
100
AcDbEntity
  8
0
100
AcDbLine
 10
2.599730896781125
 20
-4.771599258481529
 30
0.0
 11
2.599730896781153
 21
-11.77159925848133
 31
0.0
  0
CIRCLE
  5
49
330
22
100
AcDbEntity
  8
0
100
AcDbCircle
 10
11.59973089678112
 20
-9.271599258481501
 30
0.0
 40
3.5
  0
ARC
  5
4A
330
22
100
AcDbEntity
  8
0
100
AcDbCircle
 10
31.59973089678115
 20
-9.271599258481472
 30
0.0
 40
4.5
100
AcDbArc
 50
270.0
 51
231.0575587310182
  0
LINE
  5
4B
330
22
100
AcDbEntity
  8
0
100
AcDbLine
 10
17.59973089678112
 20
-4.771599258481472
 30
0.0
 11
17.59973089678115
 21
-13.77159925848147
 31
0.0
  0
ARC
  5
4C
330
22
100
AcDbEntity
  8
0
100
AcDbCircle
 10
22.59973089678116
 20
-7.271599258481472
 30
0.0
 40
2.5
100
AcDbArc
 50
293.1161887722295
 51
90.0
  0
CIRCLE
  5
4D
330
22
100
AcDbEntity
  8
0
100
AcDbCircle
 10
31.59973089678115
 20
-9.271599258481472
 30
0.0
 40
3.5
  0
ARC
  5
4E
330
22
100
AcDbEntity
  8
0
100
AcDbCircle
 10
4.599730896781153
 20
-11.77159925848133
 30
0.0
 40
1.0
100
AcDbArc
 50
180.0
 51
270.0
  0
ARC
  5
4F
330
22
100
AcDbEntity
  8
0
100
AcDbCircle
 10
4.599730896781153
 20
-11.77159925848133
 30
0.0
 40
2.0
100
AcDbArc
 50
179.9999999999992
 51
270.0
  0
LINE
  5
50
330
22
100
AcDbEntity
  8
0
100
AcDbLine
 10
11.59973089678115
 20
-13.77159925848144
 30
0.0
 11
4.599730896781153
 21
-13.77159925848147
 31
0.0
  0
LINE
  5
51
330
22
100
AcDbEntity
  8
0
100
AcDbLine
 10
8.771303772034769
 20
-12.77159925848136
 30
0.0
 11
4.599730896781153
 21
-12.77159925848133
 31
0.0
  0
LINE
  5
52
330
22
100
AcDbEntity
  8
0
100
AcDbLine
 10
31.59973089678115
 20
-13.77159925848147
 30
0.0
 11
23.6715276665056
 21
-13.77159925848144
 31
0.0
  0
LINE
  5
53
330
22
100
AcDbEntity
  8
0
100
AcDbLine
 10
23.56565672307022
 20
-9.51278021337896
 30
0.0
 11
24.4388546544846
 21
-12.77159925848144
 31
0.0
  0
LINE
  5
54
330
22
100
AcDbEntity
  8
0
100
AcDbLine
 10
22.59973089678116
 20
-9.771599258481472
 30
0.0
 11
18.59973089678112
 21
-9.771599258481472
 31
0.0
  0
LINE
  5
55
330
22
100
AcDbEntity
  8
0
100
AcDbLine
 10
18.59973089678115
 20
-13.77159925848144
 30
0.0
 11
17.59973089678115
 21
-13.77159925848144
 31
0.0
  0
LINE
  5
56
330
22
100
AcDbEntity
  8
0
100
AcDbLine
 10
18.59973089678115
 20
-9.771599258481472
 30
0.0
 11
18.59973089678115
 21
-13.77159925848144
 31
0.0
  0
LINE
  5
57
330
22
100
AcDbEntity
  8
0
100
AcDbLine
 10
22.59973089678116
 20
-9.771599258481472
 30
0.0
 11
23.67152766650562
 21
-13.77159925848147
 31
0.0
  0
ARC
  5
58
330
22
100
AcDbEntity
  8
0
100
AcDbCircle
 10
22.59973089678116
 20
-7.271599258481472
 30
0.0
 40
2.5
100
AcDbArc
 50
270.0
 51
270.0000000000007
  0
LINE
  5
59
330
22
100
AcDbEntity
  8
0
100
AcDbLine
 10
28.77130377203494
 20
-12.77159925848147
 30
0.0
 11
24.43885465448463
 21
-12.77159925848144
 31
0.0
  0
LINE
  5
5A
330
22
100
AcDbEntity
  8
0
100
AcDbLine
 10
3.599730896781125
 20
-4.771599258481472
 30
0.0
 11
2.599730896781125
 21
-4.771599258481472
 31
0.0
  0
LINE
  5
5B
330
22
100
AcDbEntity
  8
0
100
AcDbLine
 10
22.59973089678116
 20
-8.771599258481472
 30
0.0
 11
18.59973089678115
 21
-8.771599258481472
 31
0.0
  0
LINE
  5
5C
330
22
100
AcDbEntity
  8
0
100
AcDbLine
 10
22.59973089678116
 20
-5.771599258481472
 30
0.0
 11
18.59973089678115
 21
-5.771599258481472
 31
0.0
  0
LINE
  5
5D
330
22
100
AcDbEntity
  8
0
100
AcDbLine
 10
22.59973089678116
 20
-4.771599258481472
 30
0.0
 11
17.59973089678115
 21
-4.771599258481472
 31
0.0
  0
LINE
  5
5E
330
22
100
AcDbEntity
  8
0
100
AcDbLine
 10
18.59973089678115
 20
-5.771599258481472
 30
0.0
 11
18.59973089678115
 21
-8.771599258481472
 31
0.0
  0
ARC
  5
5F
330
22
100
AcDbEntity
  8
0
100
AcDbCircle
 10
22.59973089678116
 20
-7.271599258481472
 30
0.0
 40
1.5
100
AcDbArc
 50
270.0
 51
90.0
  0
ENDBLK
  5
60
330
22
100
AcDbEntity
  8
0
100
AcDbBlockEnd
  0
BLOCK
  5
1F3
330
1E9
100
AcDbEntity
  8
0
100
AcDbBlockBegin
  2
*D1
 70
     1
 10
0.0
 20
0.0
 30
0.0
  3
*D1
  1

  0
LINE
  5
8E7
330
1E9
100
AcDbEntity
  8
BEM
 62
     0
370
    -2
100
AcDbLine
 10
58.44466763496289
 20
110.2382260447131
 30
0.0
 11
58.44466763496289
 21
92.17625455337888
 31
0.0
  0
LINE
  5
8E8
330
1E9
100
AcDbEntity
  8
BEM
 62
     0
370
    -2
100
AcDbLine
 10
111.4446676349638
 20
110.2382260447131
 30
0.0
 11
111.4446676349638
 21
92.17625455337888
 31
0.0
  0
LINE
  5
8E9
330
1E9
100
AcDbEntity
  8
BEM
 62
     0
370
    -2
100
AcDbLine
 10
61.94466763496288
 20
93.17625455337887
 30
0.0
 11
107.9446676349638
 21
93.17625455337887
 31
0.0
  0
SOLID
  5
8EA
330
1E9
100
AcDbEntity
  8
BEM
 62
     0
100
AcDbTrace
 10
61.94466763496288
 20
93.75958788671221
 30
0.0
 11
61.94466763496288
 21
92.59292122004556
 31
0.0
 12
58.44466763496289
 22
93.17625455337887
 32
0.0
 13
58.44466763496289
 23
93.17625455337887
 33
0.0
  0
SOLID
  5
8EB
330
1E9
100
AcDbEntity
  8
BEM
 62
     0
100
AcDbTrace
 10
107.9446676349638
 20
93.75958788671221
 30
0.0
 11
107.9446676349638
 21
92.59292122004556
 31
0.0
 12
111.4446676349638
 22
93.17625455337887
 32
0.0
 13
111.4446676349638
 23
93.17625455337887
 33
0.0
  0
MTEXT
  5
8EC
330
1E9
100
AcDbEntity
  8
BEM
 62
     1
100
AcDbMText
 10
84.94466763496333
 20
96.42625455337888
 30
0.0
 40
3.5
 41
0.0
 71
     5
 72
     1
  1
\A1;%%c53
 73
     1
 44
1.0
  0
POINT
  5
8ED
330
1E9
100
AcDbEntity
  8
DEFPOINTS
 62
     0
100
AcDbPoint
 10
58.44466763496289
 20
111.2382260447131
 30
0.0
  0
POINT
  5
8EE
330
1E9
100
AcDbEntity
  8
DEFPOINTS
 62
     0
100
AcDbPoint
 10
111.4446676349638
 20
111.2382260447131
 30
0.0
  0
POINT
  5
8EF
330
1E9
100
AcDbEntity
  8
DEFPOINTS
 62
     0
100
AcDbPoint
 10
111.4446676349638
 20
93.17625455337887
 30
0.0
  0
ENDBLK
  5
1F4
330
1E9
100
AcDbEntity
  8
0
100
AcDbBlockEnd
  0
BLOCK
  5
23A
330
230
100
AcDbEntity
  8
0
100
AcDbBlockBegin
  2
*D2
 70
     1
 10
0.0
 20
0.0
 30
0.0
  3
*D2
  1

  0
LINE
  5
8C4
330
230
100
AcDbEntity
  8
BEM
 62
     0
370
    -2
100
AcDbLine
 10
106.9436870498826
 20
125.8124637490727
 30
0.0
 11
103.4436870498826
 21
125.8124637490727
 31
0.0
  0
LINE
  5
8C5
330
230
100
AcDbEntity
  8
BEM
 62
     0
370
    -2
100
AcDbLine
 10
114.9436870498826
 20
125.8124637490727
 30
0.0
 11
122.1103537165493
 21
125.8124637490727
 31
0.0
  0
LINE
  5
8C6
330
230
100
AcDbEntity
  8
BEM
 62
     0
370
    -2
100
AcDbLine
 10
110.4436870498826
 20
125.8124637490727
 30
0.0
 11
111.4436870498826
 21
125.8124637490727
 31
0.0
  0
SOLID
  5
8C7
330
230
100
AcDbEntity
  8
BEM
 62
     0
100
AcDbTrace
 10
106.9436870498826
 20
126.395797082406
 30
0.0
 11
106.9436870498826
 21
125.2291304157394
 31
0.0
 12
110.4436870498826
 22
125.8124637490727
 32
0.0
 13
110.4436870498826
 23
125.8124637490727
 33
0.0
  0
SOLID
  5
8C8
330
230
100
AcDbEntity
  8
BEM
 62
     0
100
AcDbTrace
 10
114.9436870498826
 20
126.395797082406
 30
0.0
 11
114.9436870498826
 21
125.2291304157394
 31
0.0
 12
111.4436870498826
 22
125.8124637490727
 32
0.0
 13
111.4436870498826
 23
125.8124637490727
 33
0.0
  0
MTEXT
  5
8C9
330
230
100
AcDbEntity
  8
BEM
 62
     1
100
AcDbMText
 10
120.2770203832159
 20
129.0624637490727
 30
0.0
 40
3.5
 41
0.0
 71
     5
 72
     1
  1
\A1;1
 73
     1
 44
1.0
  0
POINT
  5
8CA
330
230
100
AcDbEntity
  8
DEFPOINTS
 62
     0
100
AcDbPoint
 10
110.4436870498826
 20
125.8124637490727
 30
0.0
  0
POINT
  5
8CB
330
230
100
AcDbEntity
  8
DEFPOINTS
 62
     0
100
AcDbPoint
 10
111.4436870498826
 20
125.8124637490727
 30
0.0
  0
POINT
  5
8CC
330
230
100
AcDbEntity
  8
DEFPOINTS
 62
     0
100
AcDbPoint
 10
111.4436870498826
 20
125.8124637490727
 30
0.0
  0
ENDBLK
  5
23B
330
230
100
AcDbEntity
  8
0
100
AcDbBlockEnd
  0
BLOCK
  5
7AC
330
7A6
100
AcDbEntity
  8
0
100
AcDbBlockBegin
  2
*D3
 70
     1
 10
0.0
 20
0.0
 30
0.0
  3
*D3
  1

  0
LINE
  5
900
330
7A6
100
AcDbEntity
  8
BEM
 62
     0
370
    -2
100
AcDbLine
 10
114.3121910996114
 20
183.1240094869529
 30
0.0
 11
105.9268117948651
 21
198.8629164278212
 31
0.0
  0
MTEXT
  5
901
330
7A6
100
AcDbEntity
  8
BEM
 62
     1
100
AcDbMText
 10
113.8106712420679
 20
190.9771673832136
 30
0.0
 40
3.5
 41
0.0
 71
     5
 72
     1
  1
\A1;R36.5
 11
0.4702081853128761
 21
-0.8825555293944805
 31
0.0
 73
     1
 44
1.0
  0
SOLID
  5
902
330
7A6
100
AcDbEntity
  8
BEM
 62
     0
100
AcDbTrace
 10
106.4416358536786
 20
199.1372045359204
 30
0.0
 11
105.4119877360517
 21
198.588628319722
 31
0.0
 12
104.28108314627
 22
201.9518607807019
 32
0.0
 13
104.28108314627
 23
201.9518607807019
 33
0.0
  0
POINT
  5
903
330
7A6
100
AcDbEntity
  8
DEFPOINTS
 62
     0
100
AcDbPoint
 10
104.28108314627
 20
201.9518607807019
 30
0.0
  0
POINT
  5
904
330
7A6
100
AcDbEntity
  8
DEFPOINTS
 62
     0
100
AcDbPoint
 10
121.44368191019
 20
169.7385839578034
 30
0.0
  0
ENDBLK
  5
7AD
330
7A6
100
AcDbEntity
  8
0
100
AcDbBlockEnd
  0
BLOCK
  5
919
330
90F
100
AcDbEntity
  8
0
100
AcDbBlockBegin
  2
*D4
 70
     1
 10
0.0
 20
0.0
 30
0.0
  3
*D4
  1

  0
LINE
  5
910
330
90F
100
AcDbEntity
  8
BEM
 62
     0
370
    -2
100
AcDbLine
 10
83.94368704988208
 20
206.2382260399054
 30
0.0
 11
46.06521912449308
 21
206.2382260399054
 31
0.0
  0
LINE
  5
911
330
90F
100
AcDbEntity
  8
BEM
 62
     0
370
    -2
100
AcDbLine
 10
57.88211095259249
 20
106.2382260447131
 30
0.0
 11
46.06521912449307
 21
106.2382260447131
 31
0.0
  0
LINE
  5
912
330
90F
100
AcDbEntity
  8
BEM
 62
     0
370
    -2
100
AcDbLine
 10
47.06521912449309
 20
202.7382260399054
 30
0.0
 11
47.06521912449306
 21
109.7382260447131
 31
0.0
  0
SOLID
  5
913
330
90F
100
AcDbEntity
  8
BEM
 62
     0
100
AcDbTrace
 10
46.48188579115975
 20
202.7382260399054
 30
0.0
 11
47.64855245782642
 21
202.7382260399054
 31
0.0
 12
47.06521912449309
 22
206.2382260399054
 32
0.0
 13
47.06521912449309
 23
206.2382260399054
 33
0.0
  0
SOLID
  5
914
330
90F
100
AcDbEntity
  8
BEM
 62
     0
100
AcDbTrace
 10
46.48188579115973
 20
109.7382260447131
 30
0.0
 11
47.6485524578264
 21
109.7382260447131
 31
0.0
 12
47.06521912449306
 22
106.2382260447131
 32
0.0
 13
47.06521912449306
 23
106.2382260447131
 33
0.0
  0
MTEXT
  5
915
330
90F
100
AcDbEntity
  8
BEM
 62
     1
100
AcDbMText
 10
43.81521912449305
 20
156.2382260423092
 30
0.0
 40
3.5
 41
0.0
 71
     5
 72
     1
  1
\A1;100
 11
0.0000000000000001
 21
1.0
 31
0.0
 73
     1
 44
1.0
  0
POINT
  5
916
330
90F
100
AcDbEntity
  8
DEFPOINTS
 62
     0
100
AcDbPoint
 10
84.94368704988207
 20
206.2382260399054
 30
0.0
  0
POINT
  5
917
330
90F
100
AcDbEntity
  8
DEFPOINTS
 62
     0
100
AcDbPoint
 10
58.8821109525925
 20
106.2382260447131
 30
0.0
  0
POINT
  5
918
330
90F
100
AcDbEntity
  8
DEFPOINTS
 62
     0
100
AcDbPoint
 10
47.06521912449306
 20
106.2382260447131
 30
0.0
  0
ENDBLK
  5
91A
330
90F
100
AcDbEntity
  8
0
100
AcDbBlockEnd
  0
BLOCK
  5
BF8
330
BEE
100
AcDbEntity
  8
0
100
AcDbBlockBegin
  2
*D5
 70
     1
 10
0.0
 20
0.0
 30
0.0
  3
*D5
  1

  0
LINE
  5
C09
330
BEE
100
AcDbEntity
  8
BEM
 62
     0
370
    -2
100
AcDbLine
 10
84.94368704988207
 20
207.2382260399054
 30
0.0
 11
84.94368704988207
 21
245.1166939636426
 31
0.0
  0
LINE
  5
C0A
330
BEE
100
AcDbEntity
  8
BEM
 62
     0
370
    -2
100
AcDbLine
 10
179.9440194213847
 20
236.2564003676151
 30
0.0
 11
179.9440194213847
 21
245.1166939636426
 31
0.0
  0
LINE
  5
C0B
330
BEE
100
AcDbEntity
  8
BEM
 62
     0
370
    -2
100
AcDbLine
 10
88.44368704988207
 20
244.1166939636425
 30
0.0
 11
176.4440194213847
 21
244.1166939636425
 31
0.0
  0
SOLID
  5
C0C
330
BEE
100
AcDbEntity
  8
BEM
 62
     0
100
AcDbTrace
 10
88.44368704988207
 20
244.7000272969759
 30
0.0
 11
88.44368704988207
 21
243.5333606303092
 31
0.0
 12
84.94368704988207
 22
244.1166939636425
 32
0.0
 13
84.94368704988207
 23
244.1166939636425
 33
0.0
  0
SOLID
  5
C0D
330
BEE
100
AcDbEntity
  8
BEM
 62
     0
100
AcDbTrace
 10
176.4440194213847
 20
244.7000272969759
 30
0.0
 11
176.4440194213847
 21
243.5333606303092
 31
0.0
 12
179.9440194213847
 22
244.1166939636425
 32
0.0
 13
179.9440194213847
 23
244.1166939636425
 33
0.0
  0
MTEXT
  5
C0E
330
BEE
100
AcDbEntity
  8
BEM
 62
     1
100
AcDbMText
 10
132.4438532356334
 20
247.3666939636426
 30
0.0
 40
3.5
 41
0.0
 71
     5
 72
     1
  1
\A1;95
 73
     1
 44
1.0
  0
POINT
  5
C0F
330
BEE
100
AcDbEntity
  8
DEFPOINTS
 62
     0
100
AcDbPoint
 10
84.94368704988207
 20
206.2382260399054
 30
0.0
  0
POINT
  5
C10
330
BEE
100
AcDbEntity
  8
DEFPOINTS
 62
     0
100
AcDbPoint
 10
179.9440194213847
 20
235.2564003676151
 30
0.0
  0
POINT
  5
C11
330
BEE
100
AcDbEntity
  8
DEFPOINTS
 62
     0
100
AcDbPoint
 10
179.9440194213847
 20
244.1166939636425
 30
0.0
  0
ENDBLK
  5
BF9
330
BEE
100
AcDbEntity
  8
0
100
AcDbBlockEnd
  0
BLOCK
  5
C07
330
BFB
100
AcDbEntity
  8
0
100
AcDbBlockBegin
  2
*D6
 70
     1
 10
0.0
 20
0.0
 30
0.0
  3
*D6
  1

  0
LINE
  5
BFC
330
BFB
100
AcDbEntity
  8
BEM
 62
     0
370
    -2
100
AcDbLine
 10
84.94367771097655
 20
207.2382260398617
 30
0.0
 11
84.94332396754289
 21
245.116693963599
 31
0.0
  0
LINE
  5
BFD
330
BFB
100
AcDbEntity
  8
BEM
 62
     0
370
    -2
100
AcDbLine
 10
83.94368704993016
 20
206.2382162340546
 30
0.0
 11
46.06521912636227
 21
206.2378448034492
 31
0.0
  0
ARC
  5
BFE
330
BFB
100
AcDbEntity
  8
BEM
 62
     0
370
    -2
100
AcDbCircle
 10
84.94368704988207
 20
206.2382260399054
 30
0.0
 40
37.87846792538898
100
AcDbArc
 50
95.29659501841342
 51
174.7045018953247
  0
SOLID
  5
BFF
330
BFB
100
AcDbEntity
  8
BEM
 62
     0
100
AcDbTrace
 10
81.42011647567329
 20
244.5376701400713
 30
0.0
 11
81.47402781471127
 21
243.3722497529859
 31
0.0
 12
84.94333330644844
 22
244.1166939636425
 32
0.0
 13
84.94333330644844
 23
244.1166939636425
 33
0.0
  0
SOLID
  5
C00
330
BFB
100
AcDbEntity
  8
BEM
 62
     0
100
AcDbTrace
 10
47.80959691782612
 20
209.7071743526044
 30
0.0
 11
46.64417549883485
 21
209.7610633799432
 31
0.0
 12
47.0652191263142
 22
206.2378546093
 32
0.0
 13
47.0652191263142
 23
206.2378546093
 33
0.0
  0
MTEXT
  5
C01
330
BFB
100
AcDbEntity
  8
BEM
 62
     1
100
AcDbMText
 10
55.86119009536432
 20
235.3201662224348
 30
0.0
 40
3.5
 41
0.0
 71
     5
 72
     1
  1
\A1;90°
 11
0.7071000124606354
 21
0.7071135498476672
 31
0.0
 73
     1
 44
1.0
  0
POINT
  5
C02
330
BFB
100
AcDbEntity
  8
DEFPOINTS
 62
     0
100
AcDbPoint
 10
66.00414163139461
 20
239.0417616986689
 30
0.0
  0
POINT
  5
C03
330
BFB
100
AcDbEntity
  8
DEFPOINTS
 62
     0
100
AcDbPoint
 10
185.5103243176571
 20
206.2392121813468
 30
0.0
  0
POINT
  5
C04
330
BFB
100
AcDbEntity
  8
DEFPOINTS
 62
     0
100
AcDbPoint
 10
84.94368704988207
 20
206.2382260399054
 30
0.0
  0
POINT
  5
C05
330
BFB
100
AcDbEntity
  8
DEFPOINTS
 62
     0
100
AcDbPoint
 10
84.94466763496291
 20
101.238226044713
 30
0.0
  0
POINT
  5
C06
330
BFB
100
AcDbEntity
  8
DEFPOINTS
 62
     0
100
AcDbPoint
 10
84.94368704988207
 20
206.2382260399054
 30
0.0
  0
ENDBLK
  5
C08
330
BFB
100
AcDbEntity
  8
0
100
AcDbBlockEnd
  0
ENDSEC
  0
SECTION
  2
ENTITIES
  0
TEXT
  5
134
330
1E
100
AcDbEntity
  8
TEXT
100
AcDbText
 10
102.2108024290628
 20
31.54481959861755
 30
0.0
 40
2.0
  1
Koeh
 41
0.8
  7
GREEKS
 72
     1
 11
104.8393738576343
 21
31.54481959861755
 31
0.0
100
AcDbText
  0
INSERT
  5
135
330
1E
100
AcDbEntity
  8
STEMPEL
100
AcDbBlockReference
  2
LOGO
 10
75.4977742728897
 20
22.51052638224161
 30
0.0
  0
LINE
  5
136
330
1E
100
AcDbEntity
  8
HILF
100
AcDbLine
 10
210.0
 20
0.0
 30
0.0
 11
0.0
 21
0.0
 31
0.0
  0
LINE
  5
137
330
1E
100
AcDbEntity
  8
HILF
100
AcDbLine
 10
210.0
 20
297.0000000000001
 30
0.0
 11
0.0
 21
297.0
 31
0.0
  0
LINE
  5
138
330
1E
100
AcDbEntity
  8
STEMPEL
100
AcDbLine
 10
205.0
 20
292.0
 30
0.0
 11
19.99999999999994
 21
292.0
 31
0.0
  0
LINE
  5
139
330
1E
100
AcDbEntity
  8
STEMPEL
100
AcDbLine
 10
205.0
 20
5.0
 30
0.0
 11
19.99999999999994
 21
5.0
 31
0.0
  0
LINE
  5
13A
330
1E
100
AcDbEntity
  8
STEMPEL
100
AcDbLine
 10
24.99999999999995
 20
5.0
 30
0.0
 11
205.0
 21
5.0
 31
0.0
  0
TEXT
  5
13B
330
1E
100
AcDbEntity
  8
TEXT
100
AcDbText
 10
101.2313292113147
 20
36.65480545957612
 30
0.0
 40
2.0
  1
Name
 41
0.8
  7
GREEKS
100
AcDbText
  0
TEXT
  5
13C
330
1E
100
AcDbEntity
  8
TEXT
100
AcDbText
 10
98.27491395507747
 20
51.32531138882947
 30
0.0
 40
2.5
  1
Zul. Abw.
 41
0.8
  7
GREEKS
 72
     4
 11
104.9891996693631
 21
52.57531138882947
 31
0.0
100
AcDbText
  0
LINE
  5
13D
330
1E
100
AcDbEntity
  8
HILF
100
AcDbLine
 10
73.00000000000006
 20
24.99999999999999
 30
0.0
 11
115.0
 21
24.99999999999999
 31
0.0
  0
LINE
  5
13E
330
1E
100
AcDbEntity
  8
HILF
100
AcDbLine
 10
73.00000000000006
 20
29.99999999999999
 30
0.0
 11
115.0
 21
29.99999999999999
 31
0.0
  0
LINE
  5
13F
330
1E
100
AcDbEntity
  8
HILF
100
AcDbLine
 10
73.00000000000006
 20
34.99999999999997
 30
0.0
 11
115.0
 21
34.99999999999997
 31
0.0
  0
LINE
  5
140
330
1E
100
AcDbEntity
  8
STEMPEL
100
AcDbLine
 10
205.0
 20
40.0
 30
0.0
 11
73.00000000000006
 21
39.99999999999997
 31
0.0
  0
LINE
  5
141
330
1E
100
AcDbEntity
  8
STEMPEL
100
AcDbLine
 10
205.0
 20
20.0
 30
0.0
 11
73.00000000000006
 21
19.99999999999998
 31
0.0
  0
LINE
  5
142
330
1E
100
AcDbEntity
  8
STEMPEL
100
AcDbLine
 10
205.0
 20
55.00000000000003
 30
0.0
 11
19.99999999999998
 21
55.0
 31
0.0
  0
LINE
  5
143
330
1E
100
AcDbEntity
  8
MITTEL
100
AcDbLine
 10
84.94368704988207
 20
206.2382260399054
 30
0.0
 11
84.94466763496289
 21
101.238226044713
 31
0.0
  0
LINE
  5
144
330
1E
100
AcDbEntity
  8
HILF
100
AcDbLine
 10
0.0
 20
0.0
 30
0.0
 11
-0.0000000000000568
 21
297.0
 31
0.0
  0
LINE
  5
145
330
1E
100
AcDbEntity
  8
STEMPEL
100
AcDbLine
 10
20.0
 20
5.0
 30
0.0
 11
19.99999999999994
 21
292.0
 31
0.0
  0
TEXT
  5
146
330
1E
100
AcDbEntity
  8
TEXT
100
AcDbText
 10
20.92754975488837
 20
55.83599999999997
 30
0.0
 40
2.5
  1
Erstellt mit AUTOCAD 2004
 41
0.8
  7
GREEKS
100
AcDbText
  0
LINE
  5
148
330
1E
100
AcDbEntity
  8
HILF
100
AcDbLine
 10
20.00000000000004
 20
19.99999999999998
 30
0.0
 11
73.00000000000006
 21
19.99999999999998
 31
0.0
  0
LINE
  5
149
330
1E
100
AcDbEntity
  8
HILF
100
AcDbLine
 10
20.00000000000004
 20
24.99999999999999
 30
0.0
 11
73.00000000000006
 21
24.99999999999999
 31
0.0
  0
LINE
  5
14A
330
1E
100
AcDbEntity
  8
HILF
100
AcDbLine
 10
20.00000000000004
 20
29.99999999999999
 30
0.0
 11
73.00000000000006
 21
29.99999999999999
 31
0.0
  0
LINE
  5
14B
330
1E
100
AcDbEntity
  8
HILF
100
AcDbLine
 10
20.00000000000004
 20
34.99999999999997
 30
0.0
 11
73.00000000000006
 21
34.99999999999997
 31
0.0
  0
LINE
  5
14C
330
1E
100
AcDbEntity
  8
HILF
100
AcDbLine
 10
20.00000000000004
 20
39.99999999999997
 30
0.0
 11
73.00000000000006
 21
39.99999999999997
 31
0.0
  0
LINE
  5
14D
330
1E
100
AcDbEntity
  8
HILF
100
AcDbLine
 10
20.00000000000004
 20
45.00000000000002
 30
0.0
 11
73.00000000000006
 21
45.00000000000002
 31
0.0
  0
LINE
  5
14E
330
1E
100
AcDbEntity
  8
HILF
100
AcDbLine
 10
20.00000000000004
 20
50.00000000000003
 30
0.0
 11
73.00000000000006
 21
50.00000000000003
 31
0.0
  0
LINE
  5
14F
330
1E
100
AcDbEntity
  8
STEMPEL
100
AcDbLine
 10
72.99999999999994
 20
14.99999999999998
 30
0.0
 11
19.99999999999998
 21
14.99999999999998
 31
0.0
  0
TEXT
  5
150
330
1E
100
AcDbEntity
  8
TEXT
100
AcDbText
 10
24.13320553522878
 20
6.827329230135958
 30
0.0
 40
2.0
  1
Index
 50
90.0
 41
0.8
  7
GREEKS
100
AcDbText
  0
LINE
  5
151
330
1E
100
AcDbEntity
  8
VOLL
100
AcDbLine
 10
27.00000000000005
 20
55.00000000000003
 30
0.0
 11
26.99999999999999
 21
4.999999999999985
 31
0.0
  0
LINE
  5
152
330
1E
100
AcDbEntity
  8
HILF
100
AcDbLine
 10
15.54383567856928
 20
148.5
 30
0.0
 11
0.0000000000000568
 21
148.5
 31
0.0
  0
LINE
  5
154
330
1E
100
AcDbEntity
  8
VOLL
100
AcDbLine
 10
62.00000000000006
 20
54.99999999999997
 30
0.0
 11
62.0
 21
4.999999999999985
 31
0.0
  0
LINE
  5
155
330
1E
100
AcDbEntity
  8
VOLL
100
AcDbLine
 10
52.00000000000006
 20
54.99999999999997
 30
0.0
 11
52.0
 21
4.999999999999985
 31
0.0
  0
LINE
  5
157
330
1E
100
AcDbEntity
  8
STEMPEL
100
AcDbLine
 10
73.00000000000006
 20
54.99999999999997
 30
0.0
 11
73.0
 21
4.999999999999985
 31
0.0
  0
TEXT
  5
159
330
1E
100
AcDbEntity
  8
TEXT
100
AcDbText
 10
86.16558365768254
 20
36.65940250614963
 30
0.0
 40
2.0
  1
Tag
 41
0.8
  7
GREEKS
100
AcDbText
  0
TEXT
  5
15A
330
1E
100
AcDbEntity
  8
TEXT
100
AcDbText
 10
73.79180635838077
 20
31.81495184808982
 30
0.0
 40
2.0
  1
Gez.
 41
0.8
  7
GREEKS
100
AcDbText
  0
LINE
  5
15B
330
1E
100
AcDbEntity
  8
VOLL
100
AcDbLine
 10
82.00000000000006
 20
39.99999999999997
 30
0.0
 11
82.00000000000006
 21
19.99999999999998
 31
0.0
  0
TEXT
  5
15C
330
1E
100
AcDbEntity
  8
TEXT
100
AcDbText
 10
73.80033886936519
 20
21.76473194824904
 30
0.0
 40
2.0
  1
Norm.
 41
0.8
  7
GREEKS
100
AcDbText
  0
TEXT
  5
15D
330
1E
100
AcDbEntity
  8
TEXT
100
AcDbText
 10
73.77575432858361
 20
26.84463145714189
 30
0.0
 40
2.0
  1
Gepr.
 41
0.8
  7
GREEKS
100
AcDbText
  0
TEXT
  5
15E
330
1E
100
AcDbEntity
  8
TEXT
 62
     1
100
AcDbText
 10
80.25031532409434
 20
44.07450714456979
 30
0.0
 40
3.5
  1
1:1
 41
0.8
  7
GREEKS
100
AcDbText
  0
TEXT
  5
15F
330
1E
100
AcDbEntity
  8
TEXT
100
AcDbText
 10
76.75817860751886
 20
51.23104475435443
 30
0.0
 40
2.5
  1
Maßstab
 41
0.8
  7
GREEKS
100
AcDbText
  0
TEXT
  5
160
330
1E
100
AcDbEntity
  8
TEXT
100
AcDbText
 10
74.31105491105199
 20
36.57012735575833
 30
0.0
 40
2.0
  1
2011
 41
0.8
  7
GREEKS
100
AcDbText
  0
LINE
  5
161
330
1E
100
AcDbEntity
  8
VOLL
100
AcDbLine
 10
95.00000000000005
 20
54.99999999999992
 30
0.0
 11
95.0
 21
19.99999999999998
 31
0.0
  0
LINE
  5
186
330
1E
100
AcDbEntity
  8
HILF
100
AcDbLine
 10
210.0
 20
-0.0000000000000568
 30
0.0
 11
210.0
 21
297.0
 31
0.0
  0
LINE
  5
187
330
1E
100
AcDbEntity
  8
STEMPEL
100
AcDbLine
 10
205.0
 20
5.0
 30
0.0
 11
205.0
 21
292.0
 31
0.0
  0
TEXT
  5
188
330
1E
100
AcDbEntity
  8
TEXT
100
AcDbText
 10
168.6200430748503
 20
26.03708088939301
 30
0.0
 40
2.5
  1
ersetzt durch:
 41
0.8
  7
GREEKS
100
AcDbText
  0
TEXT
  5
189
330
1E
100
AcDbEntity
  8
TEXT
100
AcDbText
 10
168.3619308148496
 20
36.59059118549985
 30
0.0
 40
2.5
  1
Ersatz für:
 41
0.8
  7
GREEKS
100
AcDbText
  0
TEXT
  5
18A
330
1E
100
AcDbEntity
  8
TEXT
100
AcDbText
 10
168.089377478817
 20
51.15660172685682
 30
0.0
 40
2.5
  1
Zeichnungs Nr.
 41
0.8
  7
GREEKS
100
AcDbText
  0
LINE
  5
18B
330
1E
100
AcDbEntity
  8
HILF
100
AcDbLine
 10
116.7454849644942
 20
7.446991290141568
 30
0.0
 11
202.4294419663364
 21
7.446991290141568
 31
0.0
  0
LINE
  5
18C
330
1E
100
AcDbEntity
  8
HILF
100
AcDbLine
 10
168.3619308148496
 20
41.88991818477913
 30
0.0
 11
202.4294419663364
 21
41.88991818477913
 31
0.0
  0
LINE
  5
18D
330
1E
100
AcDbEntity
  8
VOLL
100
AcDbLine
 10
166.0
 20
30.0
 30
0.0
 11
205.0
 21
30.0
 31
0.0
  0
TEXT
  5
18E
330
1E
100
AcDbEntity
  8
TEXT
 62
     1
100
AcDbText
 10
117.4641932160007
 20
43.70874394626889
 30
0.0
 40
3.5
  1
Winkelbogen DN50 90°
 41
0.7800000000000001
  7
GREEKS
100
AcDbText
  0
LINE
  5
18F
330
1E
100
AcDbEntity
  8
HILF
100
AcDbLine
 10
117.3868400548473
 20
24.99999999999999
 30
0.0
 11
162.4176958278155
 21
24.99999999999999
 31
0.0
  0
LINE
  5
190
330
1E
100
AcDbEntity
  8
HILF
100
AcDbLine
 10
117.3868400548473
 20
29.99999999999999
 30
0.0
 11
162.4176958278155
 21
29.99999999999999
 31
0.0
  0
LINE
  5
191
330
1E
100
AcDbEntity
  8
HILF
100
AcDbLine
 10
117.3868400548473
 20
34.99999999999997
 30
0.0
 11
162.4176958278155
 21
34.99999999999997
 31
0.0
  0
LINE
  5
192
330
1E
100
AcDbEntity
  8
HILF
100
AcDbLine
 10
117.3868400548473
 20
42.01879123782069
 30
0.0
 11
162.4176958278155
 21
42.01879123782069
 31
0.0
  0
LINE
  5
193
330
1E
100
AcDbEntity
  8
STEMPEL
100
AcDbLine
 10
115.0
 20
55.00000000000003
 30
0.0
 11
115.0
 21
4.999999999999985
 31
0.0
  0
TEXT
  5
194
330
1E
100
AcDbEntity
  8
TEXT
100
AcDbText
 10
117.5648195562657
 20
35.75167208792644
 30
0.0
 40
2.5
  1
mit engem Radius
 41
0.8
  7
GREEKS
100
AcDbText
  0
TEXT
  5
195
330
1E
100
AcDbEntity
  8
TEXT
100
AcDbText
 10
117.4918750788913
 20
21.31487076511316
 30
0.0
 40
2.0
  1
4500050W.DWG
 41
0.8
  7
GREEKS
100
AcDbText
  0
TEXT
  5
196
330
1E
100
AcDbEntity
  8
TEXT
100
AcDbText
 10
117.371119195568
 20
15.42280285096528
 30
0.0
 40
2.5
  1
Bauvorhaben
 41
0.8
  7
GREEKS
100
AcDbText
  0
TEXT
  5
197
330
1E
100
AcDbEntity
  8
TEXT
100
AcDbText
 10
117.4389701904505
 20
51.27446640058898
 30
0.0
 40
2.5
  1
Benennung
 41
0.8
  7
GREEKS
100
AcDbText
  0
LINE
  5
198
330
1E
100
AcDbEntity
  8
STEMPEL
100
AcDbLine
 10
166.0
 20
54.99999999999989
 30
0.0
 11
166.0
 21
20.0
 31
0.0
  0
TEXT
  5
19A
330
1E
100
AcDbEntity
  8
TEXT
 62
     1
100
AcDbText
 10
174.4986121945798
 20
44.07450714456979
 30
0.0
 40
3.5
  1
4500050W
 41
0.8
  7
GREEKS
 72
     1
 11
185.1652788612464
 21
44.07450714456979
 31
0.0
100
AcDbText
  0
LINE
  5
1D4
330
1E
100
AcDbEntity
  8
STEMPEL
100
AcDbLine
 10
111.007224317334
 20
106.2382260447131
 30
0.0
 11
58.8821109525925
 21
106.2382260447131
 31
0.0
  0
LINE
  5
1D6
330
1E
100
AcDbEntity
  8
HILF
100
AcDbLine
 10
110.4446676349635
 20
111.2382260447131
 30
0.0
 11
59.44466763496286
 21
111.2382260447131
 31
0.0
  0
LINE
  5
1D7
330
1E
100
AcDbEntity
  8
STEMPEL
100
AcDbLine
 10
58.44466763496289
 20
111.2382260447131
 30
0.0
 11
58.88211095259248
 21
106.2382260447131
 31
0.0
  0
LINE
  5
1D8
330
1E
100
AcDbEntity
  8
STEMPEL
100
AcDbLine
 10
111.4446676349635
 20
111.2382260447133
 30
0.0
 11
111.007224317334
 21
106.2382260447131
 31
0.0
  0
DIMENSION
  5
1E8
330
1E
100
AcDbEntity
  8
BEM
100
AcDbDimension
  2
*D1
 10
111.4446676349638
 20
93.17625455337887
 30
0.0
 11
84.94466763496333
 21
96.42625455337888
 31
0.0
 70
    32
  1
%%c<>
 71
     5
 42
53.00000000000091
  3
Standard
100
AcDbAlignedDimension
 13
58.44466763496289
 23
111.2382260447131
 33
0.0
 14
111.4446676349638
 24
111.2382260447131
 34
0.0
100
AcDbRotatedDimension
1001
ACAD
1000
DSTYLE
1002
{
1070
    41
1040
3.5
1070
    42
1040
1.0
1070
    43
1040
7.0
1070
    44
1040
1.0
1070
    73
1070
     0
1070
    74
1070
     0
1070
    77
1070
     1
1070
    78
1070
     8
1070
    79
1070
     2
1070
   140
1040
3.5
1070
   141
1040
1.5
1070
   146
1040
0.5142857142857144
1070
   147
1040
1.5
1070
   172
1070
     1
1070
   178
1070
     1
1070
   179
1070
     3
1070
   271
1070
     2
1070
   272
1070
     2
1070
   275
1070
     1
1070
   284
1070
     8
1070
   285
1070
     8
1070
   286
1070
     8
1002
}
  0
TEXT
  5
212
330
1E
100
AcDbEntity
  8
TEXT
100
AcDbText
 10
117.5648195562657
 20
25.75167208792646
 30
0.0
 40
2.5
  1
EDV-Art.Nr. 4.500.050C
 41
0.8
  7
GREEKS
100
AcDbText
  0
LINE
  5
22E
330
1E
100
AcDbEntity
  8
STEMPEL
100
AcDbLine
 10
110.4436870498826
 20
135.9400453420065
 30
0.0
 11
110.4436870498826
 21
115.5101682863192
 31
0.0
  0
DIMENSION
  5
22F
330
1E
100
AcDbEntity
  8
BEM
100
AcDbDimension
  2
*D2
 10
111.4436870498826
 20
125.8124637490727
 30
0.0
 11
120.2770203832159
 21
129.0624637490727
 31
0.0
 70
    32
 71
     5
  3
Standard
100
AcDbAlignedDimension
 13
110.4436870498826
 23
125.8124637490727
 33
0.0
 14
111.4436870498826
 24
125.8124637490727
 34
0.0
100
AcDbRotatedDimension
1001
ACAD
1000
DSTYLE
1002
{
1070
    41
1040
3.5
1070
    42
1040
1.0
1070
    43
1040
7.0
1070
    44
1040
1.0
1070
    73
1070
     0
1070
    74
1070
     0
1070
    77
1070
     1
1070
    78
1070
     8
1070
    79
1070
     2
1070
   140
1040
3.5
1070
   141
1040
1.5
1070
   146
1040
0.5142857142857144
1070
   147
1040
1.5
1070
   172
1070
     1
1070
   178
1070
     1
1070
   179
1070
     3
1070
   271
1070
     2
1070
   272
1070
     2
1070
   275
1070
     1
1070
   284
1070
     8
1070
   285
1070
     8
1070
   286
1070
     8
1002
}
  0
SPLINE
  5
245
330
1E
100
AcDbEntity
  8
HILF
100
AcDbSpline
210
0.0
220
0.0
230
1.0
 70
     8
 71
     3
 72
    12
 73
     8
 74
     0
 42
0.0000000001
 43
0.0000000001
 40
2.138629919121485
 40
2.138629919121485
 40
2.138629919121485
 40
2.138629919121485
 40
10.76787928474789
 40
17.4419291888726
 40
23.68963923458831
 40
31.50224989214767
 40
33.76007931497468
 40
33.76007931497468
 40
33.76007931497468
 40
33.76007931497468
 10
111.443687049887
 20
136.2842536223052
 30
0.0
 10
108.6202113826038
 20
135.3446566558624
 30
0.0
 10
103.8534647496979
 20
133.3459913193041
 30
0.0
 10
100.1643891649228
 20
126.3520625676904
 30
0.0
 10
102.3053680888653
 20
119.1257545553114
 30
0.0
 10
107.3955667611361
 20
116.0474915014328
 30
0.0
 10
110.697577496079
 20
115.4501587406902
 30
0.0
 10
111.4436870498856
 20
115.3631344836128
 30
0.0
  0
HATCH
  5
24F
330
1E
100
AcDbEntity
  8
SCHRAFF
100
AcDbHatch
 10
0.0
 20
0.0
 30
0.0
210
0.0
220
0.0
230
1.0
  2
_USER
 70
     0
 71
     0
 91
        1
 92
        5
 93
        4
 72
     4
 94
        3
 73
     0
 74
     0
 95
        8
 96
        4
 40
2.138629919121485
 40
2.138629919121485
 40
2.138629919121485
 40
2.138629919121485
 40
3.164168886990434
 40
3.164168886990434
 40
3.164168886990434
 40
3.164168886990434
 10
111.443687049887
 20
136.2842536223052
 10
111.1081324496036
 20
136.1725876752048
 10
110.7744929928215
 20
136.0582746933566
 10
110.4436870498826
 20
135.9400453420065
 72
     1
 10
110.4436870498826
 20
135.9400453420065
 11
110.4436870498826
 21
115.5101682863415
 72
     4
 94
        3
 73
     0
 74
     0
 95
        8
 96
        4
 40
32.74763768443943
 40
32.74763768443943
 40
32.74763768443943
 40
32.74763768443943
 40
33.76007931497468
 40
33.76007931497468
 40
33.76007931497468
 40
33.76007931497468
 10
110.4436870498853
 20
115.510168286341
 10
110.7757191272251
 20
115.450610616238
 10
111.1091213091894
 20
115.4021573521434
 10
111.4436870498856
 20
115.3631344836128
 72
     1
 10
111.4436870498826
 20
115.3631344836131
 11
111.4436870498825
 21
136.2842536223037
 97
        0
 75
     0
 76
     0
 52
45.0
 41
2.0
 77
     0
 78
     1
 53
45.0
 43
-22.05631295011733
 44
-0.149670967238535
 45
-1.414213562373094
 46
1.414213562373095
 79
     0
 47
0.0917857522560122
 98
        1
 10
110.9777917319487
 20
131.1242969138135
  0
TEXT
  5
255
330
1E
100
AcDbEntity
  8
TEXT
 62
     1
100
AcDbText
 10
148.9987436921494
 20
65.61381838269608
 30
0.0
 40
3.5
  1
Werkstoff: 1.4301
 41
0.8
  7
GREEKS
100
AcDbText
  0
TEXT
  5
25D
330
1E
100
AcDbEntity
  8
TEXT
 62
     1
100
AcDbText
 10
164.2463460810659
 20
214.4994337533838
 30
0.0
 40
3.5
  1
DN50
 41
0.8
  7
GREEKS
100
AcDbText
  0
LINE
  5
5BB
330
1E
100
AcDbEntity
  8
STEMPEL
100
AcDbLine
 10
58.44368191019002
 20
169.7385839578034
 30
0.0
 11
58.44466763496287
 21
111.2382260447131
 31
0.0
  0
LINE
  5
5BC
330
1E
100
AcDbEntity
  8
STEMPEL
100
AcDbLine
 10
111.4436819101904
 20
169.7385839578033
 30
0.0
 11
111.4446676349635
 21
111.2382260447131
 31
0.0
  0
LINE
  5
5F6
330
1E
100
AcDbEntity
  8
MITTEL
100
AcDbLine
 10
185.5103243176571
 20
206.2392121813467
 30
0.0
 11
84.94368704988207
 21
206.2382260399054
 31
0.0
  0
ARC
  5
711
330
1E
100
AcDbEntity
  8
SCHRAFF
100
AcDbCircle
 10
74.65379076573016
 20
217.2443990446353
 30
0.0
 40
5.0
100
AcDbArc
 50
290.9868215217977
 51
338.1431784782004
  0
ARC
  5
714
330
1E
100
AcDbEntity
  8
SCHRAFF
100
AcDbCircle
 10
85.17956031656407
 20
206.5575765345186
 30
0.0
 40
5.0
100
AcDbArc
 50
290.9868215217981
 51
338.1431784782006
  0
ARC
  5
715
330
1E
100
AcDbEntity
  8
SCHRAFF
100
AcDbCircle
 10
78.16238061600813
 20
213.6821248745965
 30
0.0
 40
5.0
100
AcDbArc
 50
290.9868215217977
 51
338.1431784782004
  0
ARC
  5
716
330
1E
100
AcDbEntity
  8
SCHRAFF
100
AcDbCircle
 10
81.6709704662861
 20
210.1198507045575
 30
0.0
 40
5.0
100
AcDbArc
 50
290.9868215217981
 51
338.1431784782006
  0
ARC
  5
717
330
1E
100
AcDbEntity
  8
SCHRAFF
100
AcDbCircle
 10
88.68815016684207
 20
202.9953023644798
 30
0.0
 40
5.0
100
AcDbArc
 50
290.9868215217981
 51
338.1431784782006
  0
ARC
  5
718
330
1E
100
AcDbEntity
  8
SCHRAFF
100
AcDbCircle
 10
92.19674001712007
 20
199.4330281944408
 30
0.0
 40
5.0
100
AcDbArc
 50
290.9868215217981
 51
338.1431784782006
  0
ARC
  5
719
330
1E
100
AcDbEntity
  8
SCHRAFF
100
AcDbCircle
 10
95.70532986739804
 20
195.8707540244019
 30
0.0
 40
5.0
100
AcDbArc
 50
290.9868215217981
 51
338.1431784782006
  0
ARC
  5
71C
330
1E
100
AcDbEntity
  8
SCHRAFF
100
AcDbCircle
 10
102.722509567954
 20
188.7462056843242
 30
0.0
 40
5.0
100
AcDbArc
 50
290.9868215217981
 51
338.1431784782006
  0
ARC
  5
71D
330
1E
100
AcDbEntity
  8
SCHRAFF
100
AcDbCircle
 10
109.73968926851
 20
181.6216573442463
 30
0.0
 40
5.0
100
AcDbArc
 50
290.9868215217981
 51
338.1431784782006
  0
ARC
  5
71E
330
1E
100
AcDbEntity
  8
SCHRAFF
100
AcDbCircle
 10
106.231099418232
 20
185.1839315142852
 30
0.0
 40
5.0
100
AcDbArc
 50
290.9868215217981
 51
338.1431784782006
  0
ARC
  5
71F
330
1E
100
AcDbEntity
  8
SCHRAFF
100
AcDbCircle
 10
99.21391971767603
 20
192.308479854363
 30
0.0
 40
5.0
100
AcDbArc
 50
290.9868215217981
 51
338.1431784782006
  0
ARC
  5
75F
330
1E
100
AcDbEntity
  8
MITTEL
100
AcDbCircle
 10
121.44368191019
 20
169.7385839578034
 30
0.0
 40
36.5
100
AcDbArc
 50
89.99999193473028
 51
180.0
  0
ARC
  5
760
330
1E
100
AcDbEntity
  8
STEMPEL
100
AcDbCircle
 10
121.44368191019
 20
169.7385839578034
 30
0.0
 40
63.0
100
AcDbArc
 50
90.00022040054396
 51
180.0
  0
ARC
  5
761
330
1E
100
AcDbEntity
  8
STEMPEL
100
AcDbCircle
 10
121.44368191019
 20
169.7385839578034
 30
0.0
 40
10.0
100
AcDbArc
 50
89.9985526001037
 51
180.0
  0
LINE
  5
764
330
1E
100
AcDbEntity
  8
STEMPEL
100
AcDbLine
 10
77.23544979668734
 20
214.6232385002934
 30
0.0
 11
114.426502209634
 21
176.8631322978812
 31
0.0
  0
ARC
  5
767
330
1E
100
AcDbEntity
  8
SCHRAFF
100
AcDbCircle
 10
78.03564057583726
 20
213.810804141959
 30
0.0
 40
2.286688209350645
100
AcDbArc
 50
73.5640992617093
 51
195.5659007382901
  0
HATCH
  5
76C
330
1E
100
AcDbEntity
  8
SCHRAFF
100
AcDbHatch
 10
0.0
 20
0.0
 30
0.0
210
0.0
220
0.0
230
1.0
  2
_USER
 70
     0
 71
     0
 91
        1
 92
        7
 72
     1
 73
     1
 93
        2
 10
78.68264184117567
 20
216.0040511251859
 42
0.5890556042571715
 10
75.83282250514455
 20
213.1971792449635
 42
-0.0158770171376698
 97
        0
 75
     0
 76
     0
 52
-1.935000000000035
 41
0.1
 77
     0
 78
     1
 53
358.0649999999999
 43
-14.64644170147148
 44
4.452530723669837
 45
0.0033765701558752
 46
0.0999429776121487
 79
     0
 47
0.0293500081751935
 98
        1
 10
76.63757876541307
 20
214.9271755932575
  0
ARC
  5
76D
330
1E
100
AcDbEntity
  8
SCHRAFF
100
AcDbCircle
 10
113.6559213735817
 20
177.6455036565562
 30
0.0
 40
2.385467850311166
100
AcDbArc
 50
257.592405964495
 51
11.53759403550604
  0
HATCH
  5
770
330
1E
100
AcDbEntity
  8
SCHRAFF
100
AcDbHatch
 10
0.0
 20
0.0
 30
0.0
210
0.0
220
0.0
230
1.0
  2
_USER
 70
     0
 71
     0
 91
        1
 92
        7
 72
     1
 73
     1
 93
        2
 10
115.9931876982942
 20
178.1226231303079
 42
0.1010205144336468
 10
113.143368362263
 20
175.3157512500854
 42
0.5426460724641128
 97
        0
 75
     0
 76
     0
 52
-1.935000000000035
 41
0.1
 77
     0
 78
     1
 53
358.0649999999999
 43
-14.64644170147148
 44
4.452530723669837
 45
0.0033765701558752
 46
0.0999429776121487
 79
     0
 47
0.0269982625631785
 98
        1
 10
114.4353587103599
 20
176.0162397695932
  0
DIMENSION
  5
7A5
330
1E
100
AcDbEntity
  8
BEM
100
AcDbDimension
  2
*D3
 10
121.44368191019
 20
169.7385839578034
 30
0.0
 11
110.9423657715358
 21
189.4489907809467
 31
0.0
 70
   164
 71
     5
 42
36.4999999999999
  3
Standard
100
AcDbRadialDimension
 15
104.28108314627
 25
201.9518607807019
 35
0.0
 40
0.0
1001
ACAD
1000
DSTYLE
1002
{
1070
    41
1040
3.5
1070
    42
1040
1.0
1070
    43
1040
7.0
1070
    44
1040
1.0
1070
    73
1070
     0
1070
    74
1070
     0
1070
    77
1070
     1
1070
    78
1070
     8
1070
    79
1070
     2
1070
   140
1040
3.5
1070
   141
1040
1.5
1070
   146
1040
0.5142857142857144
1070
   147
1040
1.5
1070
   172
1070
     1
1070
   178
1070
     1
1070
   179
1070
     2
1070
   271
1070
     2
1070
   272
1070
     2
1070
   284
1070
     8
1070
   285
1070
     8
1070
   286
1070
     8
1070
   288
1070
     1
1002
}
  0
TEXT
  5
7BE
330
1E
100
AcDbEntity
  8
TEXT
100
AcDbText
 10
117.5648195562657
 20
30.75167208792646
 30
0.0
 40
2.5
  1
dünnwandig
 41
0.8
  7
GREEKS
100
AcDbText
  0
LINE
  5
8E5
330
1E
100
AcDbEntity
  8
STEMPEL
100
AcDbLine
 10
137.5223951588401
 20
179.7387416175987
 30
0.0
 11
121.4432331731734
 21
179.7385839477351
 31
0.0
  0
DIMENSION
  5
90E
330
1E
100
AcDbEntity
  8
BEM
100
AcDbDimension
  2
*D4
 10
47.06521912449306
 20
106.2382260447131
 30
0.0
 11
43.81521912449305
 21
156.2382260423092
 31
0.0
 70
    32
 71
     5
 42
99.99999999519227
  3
Standard
100
AcDbAlignedDimension
 13
84.94368704988207
 23
206.2382260399054
 33
0.0
 14
58.8821109525925
 24
106.2382260447131
 34
0.0
 50
90.0
100
AcDbRotatedDimension
1001
ACAD
1000
DSTYLE
1002
{
1070
    41
1040
3.5
1070
    42
1040
1.0
1070
    43
1040
7.0
1070
    44
1040
1.0
1070
    73
1070
     0
1070
    74
1070
     0
1070
    77
1070
     1
1070
    78
1070
     8
1070
    79
1070
     2
1070
   140
1040
3.5
1070
   141
1040
1.5
1070
   146
1040
0.5142857142857144
1070
   147
1040
1.5
1070
   172
1070
     1
1070
   178
1070
     1
1070
   179
1070
     2
1070
   271
1070
     2
1070
   272
1070
     2
1070
   284
1070
     8
1070
   285
1070
     8
1070
   286
1070
     8
1002
}
  0
TEXT
  5
A89
330
1E
100
AcDbEntity
  8
VOLL
100
AcDbText
 10
310.6960088152306
 20
50.48390610181991
 30
0.0
 40
1.8
  1

  7
GREEKS
100
AcDbText
  0
LINE
  5
A95
330
1E
100
AcDbEntity
  8
STEMPEL
100
AcDbLine
 10
179.9440194213846
 20
177.2219148303676
 30
0.0
 11
179.9440194213847
 21
235.2564003676151
 31
0.0
  0
ARC
  5
A99
330
1E
100
AcDbEntity
  8
STEMPEL
100
AcDbCircle
 10
171.6978081701494
 20
218.1391575989914
 30
0.0
 40
19.0
100
AcDbArc
 50
64.27761350779917
 51
89.99999999999998
  0
LINE
  5
A9A
330
1E
100
AcDbEntity
  8
STEMPEL
100
AcDbLine
 10
171.6978081701494
 20
237.1391575989914
 30
0.0
 11
167.1060194213846
 21
237.1391575989914
 31
0.0
  0
ARC
  5
A9E
330
1E
100
AcDbEntity
  8
STEMPEL
100
AcDbCircle
 10
167.1060194213847
 20
212.6391575989914
 30
0.0
 40
24.5
100
AcDbArc
 50
89.99999999999998
 51
109.604861687464
  0
LINE
  5
AA0
330
1E
100
AcDbEntity
  8
STEMPEL
100
AcDbLine
 10
155.5301825185944
 20
235.1391575989914
 30
0.0
 11
147.1823397628683
 21
235.1391575989913
 31
0.0
  0
ARC
  5
AA1
330
1E
100
AcDbEntity
  8
STEMPEL
100
AcDbCircle
 10
155.5301825185944
 20
245.1391575989914
 30
0.0
 40
10.0
100
AcDbArc
 50
270.0
 51
289.604861687464
  0
ARC
  5
AA5
330
1E
100
AcDbEntity
  8
STEMPEL
100
AcDbCircle
 10
147.1823397628683
 20
223.6391575989914
 30
0.0
 40
11.5
100
AcDbArc
 50
89.99999999999998
 51
117.6604498993014
  0
ARC
  5
AA6
330
1E
100
AcDbEntity
  8
STEMPEL
100
AcDbCircle
 10
137.4334936773051
 20
242.2391575989914
 30
0.0
 40
9.5
100
AcDbArc
 50
270.0
 51
297.6604498993013
  0
ARC
  5
AA8
330
1E
100
AcDbEntity
  8
STEMPEL
100
AcDbCircle
 10
137.4334936773051
 20
170.2391575989913
 30
0.0
 40
9.5
100
AcDbArc
 50
62.33955010069871
 51
89.99999999999998
  0
ARC
  5
AA9
330
1E
100
AcDbEntity
  8
STEMPEL
100
AcDbCircle
 10
147.1823397628683
 20
188.8391575989913
 30
0.0
 40
11.5
100
AcDbArc
 50
242.3395501006987
 51
270.0
  0
ARC
  5
AAD
330
1E
100
AcDbEntity
  8
STEMPEL
100
AcDbCircle
 10
155.5301825185944
 20
167.3391575989913
 30
0.0
 40
10.0
100
AcDbArc
 50
70.39513831253597
 51
89.99999999999998
  0
LINE
  5
AAE
330
1E
100
AcDbEntity
  8
STEMPEL
100
AcDbLine
 10
155.5301825185944
 20
177.3391575989913
 30
0.0
 11
147.1823397628683
 21
177.3391575989913
 31
0.0
  0
ARC
  5
AB0
330
1E
100
AcDbEntity
  8
STEMPEL
100
AcDbCircle
 10
167.1060194213847
 20
199.8391575989913
 30
0.0
 40
24.5
100
AcDbArc
 50
250.395138312536
 51
270.0
  0
LINE
  5
AB4
330
1E
100
AcDbEntity
  8
STEMPEL
100
AcDbLine
 10
171.6978081701494
 20
175.3391575989913
 30
0.0
 11
167.1060194213847
 21
175.3391575989913
 31
0.0
  0
ARC
  5
AB5
330
1E
100
AcDbEntity
  8
STEMPEL
100
AcDbCircle
 10
171.6978081701494
 20
194.3391575989913
 30
0.0
 40
19.0
100
AcDbArc
 50
270.0
 51
295.7223864922008
  0
LINE
  5
BE9
330
1E
100
AcDbEntity
  8
HILF
100
AcDbLine
 10
157.2326955801119
 20
178.2066066683618
 30
0.0
 11
157.2326955801119
 21
234.2717085296208
 31
0.0
  0
LINE
  5
BEA
330
1E
100
AcDbEntity
  8
HILF
100
AcDbLine
 10
144.4333139613991
 20
178.705409173909
 30
0.0
 11
144.4333139613991
 21
233.7729060240737
 31
0.0
  0
LINE
  5
BEB
330
1E
100
AcDbEntity
  8
HILF
100
AcDbLine
 10
139.7044280350404
 20
180.4906383282741
 30
0.0
 11
139.7044280350404
 21
231.9876768697085
 31
0.0
  0
LINE
  5
BEC
330
1E
100
AcDbEntity
  8
STEMPEL
100
AcDbLine
 10
121.4434395671346
 20
232.7385839573373
 30
0.0
 11
137.4334936773051
 21
232.7391575989913
 31
0.0
  0
DIMENSION
  5
BED
330
1E
100
AcDbEntity
  8
BEM
100
AcDbDimension
  2
*D5
 10
179.9440194213847
 20
244.1166939636425
 30
0.0
 11
132.4438532356334
 21
247.3666939636426
 31
0.0
 70
    32
 71
     5
 42
95.00033237150265
  3
Standard
100
AcDbAlignedDimension
 13
84.94368704988207
 23
206.2382260399054
 33
0.0
 14
179.9440194213847
 24
235.2564003676151
 34
0.0
100
AcDbRotatedDimension
1001
ACAD
1000
DSTYLE
1002
{
1070
    41
1040
3.5
1070
    42
1040
1.0
1070
    43
1040
7.0
1070
    44
1040
1.0
1070
    73
1070
     0
1070
    74
1070
     0
1070
    77
1070
     1
1070
    78
1070
     8
1070
    79
1070
     2
1070
   140
1040
3.5
1070
   141
1040
1.5
1070
   146
1040
0.5142857142857144
1070
   147
1040
1.5
1070
   172
1070
     1
1070
   178
1070
     1
1070
   179
1070
     2
1070
   271
1070
     2
1070
   272
1070
     2
1070
   284
1070
     8
1070
   285
1070
     8
1070
   286
1070
     8
1002
}
  0
DIMENSION
  5
BFA
330
1E
100
AcDbEntity
  8
BEM
100
AcDbDimension
  2
*D6
 10
84.94368704988207
 20
206.2382260399054
 30
0.0
 11
55.86119009536433
 21
235.3201662224348
 31
0.0
 70
    34
 71
     5
 42
1.570796793740173
  3
Standard
100
AcDb2LineAngularDimension
 13
84.94368704988207
 23
206.2382260399054
 33
0.0
 14
84.94466763496289
 24
101.238226044713
 34
0.0
 15
185.5103243176571
 25
206.2392121813467
 35
0.0
 16
66.00414163139461
 26
239.0417616986689
 36
0.0
1001
ACAD
1000
DSTYLE
1002
{
1070
    41
1040
3.5
1070
    42
1040
1.0
1070
    43
1040
7.0
1070
    44
1040
1.0
1070
    73
1070
     0
1070
    74
1070
     0
1070
    77
1070
     1
1070
    78
1070
     8
1070
    79
1070
     2
1070
   140
1040
3.5
1070
   141
1040
1.5
1070
   146
1040
0.5142857142857144
1070
   147
1040
1.5
1070
   172
1070
     1
1070
   178
1070
     1
1070
   179
1070
     2
1070
   271
1070
     2
1070
   272
1070
     2
1070
   284
1070
     8
1070
   285
1070
     8
1070
   286
1070
     8
1002
}
  0
TEXT
  5
C1B
330
1E
100
AcDbEntity
  8
BEM
100
AcDbText
 10
208.2905770718718
 20
6.074024076691515
 30
0.0
 40
2.0
  1
Diese Zeichnung ist urheberrechtlich geschützt und bleibt unser Eigentum. Sie darf weder ganz noch teilweise vervielfältigt und nicht an Dritte weitergegeben werden.
 50
90.0
 41
0.8
  7
GREEKS
100
AcDbText
  0
TEXT
  5
C1C
330
1E
100
AcDbEntity
  8
TEXT
100
AcDbText
 10
96.34413576239619
 20
44.50323185339641
 30
0.0
 40
2.0
  1
DIN EN1124-3
 41
0.8
  7
GREEKS
 72
     1
 11
104.8393738576343
 21
44.50323185339641
 31
0.0
100
AcDbText
  0
TEXT
  5
C1D
330
1E
100
AcDbEntity
  8
TEXT
100
AcDbText
 10
64.61958341495059
 20
9.29662108483204
 30
0.0
 40
2.0
  1
Name
 41
0.8
  7
GREEKS
 72
     1
 11
67.78148817685536
 21
9.29662108483204
 31
0.0
100
AcDbText
  0
TEXT
  5
C1E
330
1E
100
AcDbEntity
  8
TEXT
100
AcDbText
 10
55.17481598333814
 20
9.33578134669905
 30
0.0
 40
2.0
  1
Tag
 41
0.8
  7
GREEKS
 72
     1
 11
57.04148265000481
 21
9.33578134669905
 31
0.0
100
AcDbText
  0
TEXT
  5
C1F
330
1E
100
AcDbEntity
  8
TEXT
100
AcDbText
 10
33.49933939241158
 20
9.336909474920659
 30
0.0
 40
2.0
  1
Änderung
 41
0.8
  7
GREEKS
 72
     1
 11
38.87076796384015
 21
9.336909474920659
 31
0.0
100
AcDbText
  0
TEXT
  5
C20
330
1E
100
AcDbEntity
  8
TEXT
 62
     1
100
AcDbText
 10
185.1652788612464
 20
31.49546252238474
 30
0.0
 40
3.5
  1

 41
0.8
  7
GREEKS
 72
     1
 11
185.1652788612464
 21
31.49546252238474
 31
0.0
100
AcDbText
  0
TEXT
  5
C4B
330
1E
100
AcDbEntity
  8
TEXT
100
AcDbText
 10
85.35187950649897
 20
31.55382520412866
 30
0.0
 40
2.0
  1
14.04.
 41
0.8
  7
GREEKS
 72
     1
 11
88.70426045887993
 21
31.55382520412866
 31
0.0
100
AcDbText
  0
ENDSEC
  0
SECTION
  2
OBJECTS
  0
DICTIONARY
  5
C
330
0
100
AcDbDictionary
281
     1
  3
ACAD_COLOR
350
82D
  3
ACAD_GROUP
350
D
  3
ACAD_LAYOUT
350
19
  3
ACAD_MATERIAL
350
82C
  3
ACAD_MLINESTYLE
350
16
  3
ACAD_PLOTSETTINGS
350
18
  3
ACAD_PLOTSTYLENAME
350
E
  3
AcDbVariableDictionary
350
246
  0
DICTIONARY
  5
82D
102
{ACAD_REACTORS
330
C
102
}
330
C
100
AcDbDictionary
281
     1
  0
DICTIONARY
  5
D
102
{ACAD_REACTORS
330
C
102
}
330
C
100
AcDbDictionary
281
     1
  0
DICTIONARY
  5
19
102
{ACAD_REACTORS
330
C
102
}
330
C
100
AcDbDictionary
281
     1
  3
Layout1
350
1D
  3
Model
350
21
  0
DICTIONARY
  5
82C
102
{ACAD_REACTORS
330
C
102
}
330
C
100
AcDbDictionary
281
     1
  0
DICTIONARY
  5
16
102
{ACAD_REACTORS
330
C
102
}
330
C
100
AcDbDictionary
281
     1
  3
Standard
350
17
  0
DICTIONARY
  5
18
102
{ACAD_REACTORS
330
C
102
}
330
C
100
AcDbDictionary
281
     1
  0
ACDBDICTIONARYWDFLT
  5
E
102
{ACAD_REACTORS
330
C
102
}
330
C
100
AcDbDictionary
281
     1
  3
Normal
350
F
100
AcDbDictionaryWithDefault
340
F
  0
DICTIONARY
  5
246
102
{ACAD_REACTORS
330
C
102
}
330
C
100
AcDbDictionary
281
     1
  3
DIMASSOC
350
C38
  3
PROJECTNAME
350
C39
  3
SORTENTS
350
247
  0
LAYOUT
  5
1D
102
{ACAD_REACTORS
330
19
102
}
330
19
100
AcDbPlotSettings
  1

  2
Tektronix Phaser 740
  4

  6

 40
0.0
 41
0.0
 42
0.0
 43
0.0
 44
0.0
 45
0.0
 46
0.0
 47
0.0
 48
0.0
 49
0.0
140
0.0
141
0.0
142
1.0
143
1.0
 70
   688
 72
     0
 73
     0
 74
     5
  7
monochrome.ctb
 75
    16
147
1.0
 76
     0
 77
     2
 78
   300
148
0.0
149
0.0
100
AcDbLayout
  1
Layout1
 70
     0
 71
     1
 10
0.0
 20
0.0
 11
12.0
 21
9.0
 12
0.0
 22
0.0
 32
0.0
 14
1.000000000000000E+20
 24
1.000000000000000E+20
 34
1.000000000000000E+20
 15
-1.000000000000000E+20
 25
-1.000000000000000E+20
 35
-1.000000000000000E+20
146
0.0
 13
0.0
 23
0.0
 33
0.0
 16
1.0
 26
0.0
 36
0.0
 17
0.0
 27
1.0
 37
0.0
 76
     0
330
1A
  0
LAYOUT
  5
21
102
{ACAD_REACTORS
330
19
102
}
330
19
100
AcDbPlotSettings
  1

  2
Tektronix Phaser 740
  4
A4
  6

 40
5.873749732971191
 41
6.085414409637451
 42
5.577407836914062
 43
5.662078857421875
 44
209.9733276367187
 45
296.9683227539062
 46
0.0
 47
0.0
 48
0.0
 49
0.0
140
0.0
141
0.0
142
1.0
143
1.0
 70
 11952
 72
     0
 73
     1
 74
     0
  7
monochrome.ctb
 75
     0
147
1.0
 76
     0
 77
     2
 78
   300
148
1150.120678237584
149
45.30495740799864
100
AcDbLayout
  1
Model
 70
     1
 71
     0
 10
0.0
 20
0.0
 11
12.0
 21
9.0
 12
0.0
 22
0.0
 32
0.0
 14
0.0
 24
0.0
 34
0.0
 15
0.0
 25
0.0
 35
0.0
146
0.0
 13
0.0
 23
0.0
 33
0.0
 16
1.0
 26
0.0
 36
0.0
 17
0.0
 27
1.0
 37
0.0
 76
     0
330
1E
  0
MLINESTYLE
  5
17
102
{ACAD_REACTORS
330
16
102
}
330
16
100
AcDbMlineStyle
  2
STANDARD
 70
     0
  3

 62
   256
 51
90.0
 52
90.0
 71
     2
 49
0.5
 62
   256
  6
BYLAYER
 49
-0.5
 62
   256
  6
BYLAYER
  0
ACDBPLACEHOLDER
  5
F
102
{ACAD_REACTORS
330
E
102
}
330
E
  0
DICTIONARYVAR
  5
C38
102
{ACAD_REACTORS
330
246
102
}
330
246
100
DictionaryVariables
280
     0
  1
1
  0
DICTIONARYVAR
  5
C39
102
{ACAD_REACTORS
330
246
102
}
330
246
100
DictionaryVariables
280
     0
  1

  0
DICTIONARYVAR
  5
247
102
{ACAD_REACTORS
330
246
102
}
330
246
100
DictionaryVariables
280
     0
  1
96
  0
ENDSEC
  0
EOF
