  0
SECTION
  2
HEADER
  9
$ACADVER
  1
AC1018
  9
$ACADMAINTVER
 70
     2
  9
$DWGCODEPAGE
  3
ANSI_1252
  9
$INSBASE
 10
0.0
 20
0.0
 30
0.0
  9
$EXTMIN
 10
-0.0120881660668602
 20
-0.0180974281511226
 30
-0.0000000000000021
  9
$EXTMAX
 10
420.0037120994515
 20
594.0090617168207
 30
0.0000000000000132
  9
$LIMMIN
 10
0.0
 20
0.0
  9
$LIMMAX
 10
419.9999999999999
 20
594.0000000000002
  9
$ORTHOMODE
 70
     1
  9
$REGENMODE
 70
     1
  9
$FILLMODE
 70
     1
  9
$QTEXTMODE
 70
     0
  9
$MIRRTEXT
 70
     1
  9
$LTSCALE
 40
20.0
  9
$ATTMODE
 70
     1
  9
$TEXTSIZE
 40
3.5
  9
$TRACEWID
 40
0.5
  9
$TEXTSTYLE
  7
STANDARD
  9
$CLAYER
  8
VOLL
  9
$CELTYPE
  6
ByLayer
  9
$CECOLOR
 62
   256
  9
$CELTSCALE
 40
1.0
  9
$DISPSILH
 70
     0
  9
$DIMSCALE
 40
2.0
  9
$DIMASZ
 40
3.5
  9
$DIMEXO
 40
1.0
  9
$DIMDLI
 40
7.0
  9
$DIMRND
 40
0.0
  9
$DIMDLE
 40
0.0
  9
$DIMEXE
 40
1.0
  9
$DIMTP
 40
0.0
  9
$DIMTM
 40
0.0
  9
$DIMTXT
 40
3.5
  9
$DIMCEN
 40
1.5
  9
$DIMTSZ
 40
0.0
  9
$DIMTOL
 70
     0
  9
$DIMLIM
 70
     0
  9
$DIMTIH
 70
     0
  9
$DIMTOH
 70
     0
  9
$DIMSE1
 70
     0
  9
$DIMSE2
 70
     0
  9
$DIMTAD
 70
     1
  9
$DIMZIN
 70
     8
  9
$DIMBLK
  1

  9
$DIMASO
 70
     1
  9
$DIMSHO
 70
     0
  9
$DIMPOST
  1

  9
$DIMAPOST
  1

  9
$DIMALT
 70
     0
  9
$DIMALTD
 70
     2
  9
$DIMALTF
 40
25.4
  9
$DIMLFAC
 40
1.0
  9
$DIMTOFL
 70
     1
  9
$DIMTVP
 40
0.0
  9
$DIMTIX
 70
     0
  9
$DIMSOXD
 70
     0
  9
$DIMSAH
 70
     0
  9
$DIMBLK1
  1

  9
$DIMBLK2
  1

  9
$DIMSTYLE
  2
Standard
  9
$DIMCLRD
 70
     0
  9
$DIMCLRE
 70
     0
  9
$DIMCLRT
 70
     1
  9
$DIMTFAC
 40
0.5142857142857144
  9
$DIMGAP
 40
1.5
  9
$DIMJUST
 70
     0
  9
$DIMSD1
 70
     0
  9
$DIMSD2
 70
     0
  9
$DIMTOLJ
 70
     1
  9
$DIMTZIN
 70
     8
  9
$DIMALTZ
 70
     8
  9
$DIMALTTZ
 70
     8
  9
$DIMUPT
 70
     0
  9
$DIMDEC
 70
     2
  9
$DIMTDEC
 70
     2
  9
$DIMALTU
 70
     2
  9
$DIMALTTD
 70
     2
  9
$DIMTXSTY
  7
STANDARD
  9
$DIMAUNIT
 70
     0
  9
$DIMADEC
 70
     2
  9
$DIMALTRND
 40
0.0
  9
$DIMAZIN
 70
     2
  9
$DIMDSEP
 70
    46
  9
$DIMATFIT
 70
     3
  9
$DIMFRAC
 70
     0
  9
$DIMLDRBLK
  1

  9
$DIMLUNIT
 70
     2
  9
$DIMLWD
 70
    -2
  9
$DIMLWE
 70
    -2
  9
$DIMTMOVE
 70
     0
  9
$LUNITS
 70
     2
  9
$LUPREC
 70
     2
  9
$SKETCHINC
 40
1.0
  9
$FILLETRAD
 40
0.0
  9
$AUNITS
 70
     1
  9
$AUPREC
 70
     3
  9
$MENU
  1
ACAD
  9
$ELEVATION
 40
0.0
  9
$PELEVATION
 40
0.0
  9
$THICKNESS
 40
0.0
  9
$LIMCHECK
 70
     0
  9
$CHAMFERA
 40
0.0
  9
$CHAMFERB
 40
0.0
  9
$CHAMFERC
 40
0.0
  9
$CHAMFERD
 40
0.0
  9
$SKPOLY
 70
     0
  9
$TDCREATE
 40
2452040.637099653
  9
$TDUCREATE
 40
2452040.553766320
  9
$TDUPDATE
 40
2455666.555134526
  9
$TDUUPDATE
 40
2455666.471801192
  9
$TDINDWG
 40
0.4056526736
  9
$TDUSRTIMER
 40
0.4056526736
  9
$USRTIMER
 70
     1
  9
$ANGBASE
 50
0.0
  9
$ANGDIR
 70
     0
  9
$PDMODE
 70
     0
  9
$PDSIZE
 40
0.0
  9
$PLINEWID
 40
0.0
  9
$SPLFRAME
 70
     0
  9
$SPLINETYPE
 70
     6
  9
$SPLINESEGS
 70
     8
  9
$HANDSEED
  5
18BC
  9
$SURFTAB1
 70
     6
  9
$SURFTAB2
 70
     6
  9
$SURFTYPE
 70
     6
  9
$SURFU
 70
     6
  9
$SURFV
 70
     6
  9
$UCSBASE
  2

  9
$UCSNAME
  2

  9
$UCSORG
 10
0.0
 20
0.0
 30
0.0
  9
$UCSXDIR
 10
1.0
 20
0.0
 30
0.0
  9
$UCSYDIR
 10
0.0
 20
1.0
 30
0.0
  9
$UCSORTHOREF
  2

  9
$UCSORTHOVIEW
 70
     0
  9
$UCSORGTOP
 10
0.0
 20
0.0
 30
0.0
  9
$UCSORGBOTTOM
 10
0.0
 20
0.0
 30
0.0
  9
$UCSORGLEFT
 10
0.0
 20
0.0
 30
0.0
  9
$UCSORGRIGHT
 10
0.0
 20
0.0
 30
0.0
  9
$UCSORGFRONT
 10
0.0
 20
0.0
 30
0.0
  9
$UCSORGBACK
 10
0.0
 20
0.0
 30
0.0
  9
$PUCSBASE
  2

  9
$PUCSNAME
  2

  9
$PUCSORG
 10
0.0
 20
0.0
 30
0.0
  9
$PUCSXDIR
 10
1.0
 20
0.0
 30
0.0
  9
$PUCSYDIR
 10
0.0
 20
1.0
 30
0.0
  9
$PUCSORTHOREF
  2

  9
$PUCSORTHOVIEW
 70
     0
  9
$PUCSORGTOP
 10
0.0
 20
0.0
 30
0.0
  9
$PUCSORGBOTTOM
 10
0.0
 20
0.0
 30
0.0
  9
$PUCSORGLEFT
 10
0.0
 20
0.0
 30
0.0
  9
$PUCSORGRIGHT
 10
0.0
 20
0.0
 30
0.0
  9
$PUCSORGFRONT
 10
0.0
 20
0.0
 30
0.0
  9
$PUCSORGBACK
 10
0.0
 20
0.0
 30
0.0
  9
$USERI1
 70
     0
  9
$USERI2
 70
     0
  9
$USERI3
 70
     0
  9
$USERI4
 70
     0
  9
$USERI5
 70
     0
  9
$USERR1
 40
0.0
  9
$USERR2
 40
0.0
  9
$USERR3
 40
0.0
  9
$USERR4
 40
0.0
  9
$USERR5
 40
0.0
  9
$WORLDVIEW
 70
     1
  9
$SHADEDGE
 70
     3
  9
$SHADEDIF
 70
    70
  9
$TILEMODE
 70
     1
  9
$MAXACTVP
 70
    16
  9
$PINSBASE
 10
0.0
 20
0.0
 30
0.0
  9
$PLIMCHECK
 70
     0
  9
$PEXTMIN
 10
1.000000000000000E+20
 20
1.000000000000000E+20
 30
1.000000000000000E+20
  9
$PEXTMAX
 10
-1.000000000000000E+20
 20
-1.000000000000000E+20
 30
-1.000000000000000E+20
  9
$PLIMMIN
 10
0.0
 20
0.0
  9
$PLIMMAX
 10
12.0
 20
9.0
  9
$UNITMODE
 70
     0
  9
$VISRETAIN
 70
     0
  9
$PLINEGEN
 70
     0
  9
$PSLTSCALE
 70
     0
  9
$TREEDEPTH
 70
  3020
  9
$CMLSTYLE
  2
Standard
  9
$CMLJUST
 70
     0
  9
$CMLSCALE
 40
1.0
  9
$PROXYGRAPHICS
 70
     1
  9
$MEASUREMENT
 70
     0
  9
$CELWEIGHT
370
    -1
  9
$ENDCAPS
280
     0
  9
$JOINSTYLE
280
     0
  9
$LWDISPLAY
290
     0
  9
$INSUNITS
 70
     0
  9
$HYPERLINKBASE
  1

  9
$STYLESHEET
  1
monochrome 1.ctb
  9
$XEDIT
290
     1
  9
$CEPSNTYPE
380
     0
  9
$PSTYLEMODE
290
     1
  9
$FINGERPRINTGUID
  2
{7AADB5C8-6110-11D8-B72B-000102183313}
  9
$VERSIONGUID
  2
{4FCD117D-8CC1-4CCA-98C9-245FF2C5F2FD}
  9
$EXTNAMES
290
     1
  9
$PSVPSCALE
 40
0.0
  9
$OLESTARTUP
290
     0
  9
$SORTENTS
280
    96
  9
$INDEXCTL
280
     0
  9
$HIDETEXT
280
     0
  9
$XCLIPFRAME
290
     0
  9
$HALOGAP
280
     0
  9
$OBSCOLOR
 70
   257
  9
$OBSLTYPE
280
     0
  9
$INTERSECTIONDISPLAY
280
     0
  9
$INTERSECTIONCOLOR
 70
   257
  9
$DIMASSOC
280
     1
  9
$PROJECTNAME
  1

  0
ENDSEC
  0
SECTION
  2
CLASSES
  0
CLASS
  1
ACDBDICTIONARYWDFLT
  2
AcDbDictionaryWithDefault
  3
ObjectDBX Classes
 90
        0
 91
        1
280
     0
281
     0
  0
CLASS
  1
DICTIONARYVAR
  2
AcDbDictionaryVar
  3
ObjectDBX Classes
 90
        0
 91
        3
280
     0
281
     0
  0
ENDSEC
  0
SECTION
  2
TABLES
  0
TABLE
  2
VPORT
  5
8
330
0
100
AcDbSymbolTable
 70
     4
  0
VPORT
  5
18BB
330
8
100
AcDbSymbolTableRecord
100
AcDbViewportTableRecord
  2
*Active
 70
     0
 10
0.0
 20
0.0
 11
1.0
 21
1.0
 12
210.0
 22
297.0
 13
0.0
 23
0.0
 14
1.0
 24
1.0
 15
10.0
 25
10.0
 16
0.0
 26
0.0
 36
1.0
 17
0.0
 27
0.0
 37
0.0
 40
594.0
 41
1.334231805929919
 42
50.0
 43
0.0
 44
0.0
 50
0.0
 51
0.0
 71
     0
 72
  1500
 73
     1
 74
     0
 75
     0
 76
     0
 77
     0
 78
     0
281
     0
 65
     1
110
0.0
120
0.0
130
0.0
111
1.0
121
0.0
131
0.0
112
0.0
122
1.0
132
0.0
 79
     0
146
0.0
  0
ENDTAB
  0
TABLE
  2
LTYPE
  5
5
330
0
100
AcDbSymbolTable
 70
     2
  0
LTYPE
  5
13
330
5
100
AcDbSymbolTableRecord
100
AcDbLinetypeTableRecord
  2
ByBlock
 70
     0
  3

 72
    65
 73
     0
 40
0.0
  0
LTYPE
  5
14
330
5
100
AcDbSymbolTableRecord
100
AcDbLinetypeTableRecord
  2
ByLayer
 70
     0
  3

 72
    65
 73
     0
 40
0.0
  0
LTYPE
  5
15
330
5
100
AcDbSymbolTableRecord
100
AcDbLinetypeTableRecord
  2
Continuous
 70
     0
  3
Solid line
 72
    65
 73
     0
 40
0.0
  0
LTYPE
  5
35
330
5
100
AcDbSymbolTableRecord
100
AcDbLinetypeTableRecord
  2
STRICHPUNKT
 70
     0
  3
__ . __ . __ . __ . __ . __ . __ . __ . __ . __
 72
    65
 73
     4
 40
1.0
 49
0.5
 74
     0
 49
-0.25
 74
     0
 49
0.0
 74
     0
 49
-0.25
 74
     0
  0
ENDTAB
  0
TABLE
  2
LAYER
  5
2
330
0
100
AcDbSymbolTable
 70
     9
  0
LAYER
  5
10
330
2
100
AcDbSymbolTableRecord
100
AcDbLayerTableRecord
  2
0
 70
     0
 62
     7
  6
Continuous
370
    -3
390
F
  0
LAYER
  5
38
330
2
100
AcDbSymbolTableRecord
100
AcDbLayerTableRecord
  2
VOLL
 70
     0
 62
     1
  6
Continuous
370
    -3
390
F
  0
LAYER
  5
39
330
2
100
AcDbSymbolTableRecord
100
AcDbLayerTableRecord
  2
HILF
 70
     0
 62
     2
  6
Continuous
370
    -3
390
F
  0
LAYER
  5
3A
330
2
100
AcDbSymbolTableRecord
100
AcDbLayerTableRecord
  2
MITTEL
 70
     0
 62
     2
  6
STRICHPUNKT
370
    -3
390
F
  0
LAYER
  5
3B
330
2
100
AcDbSymbolTableRecord
100
AcDbLayerTableRecord
  2
BEM
 70
     0
 62
     7
  6
Continuous
370
    -3
390
F
  0
LAYER
  5
3C
330
2
100
AcDbSymbolTableRecord
100
AcDbLayerTableRecord
  2
STEMPEL
 70
     0
 62
     3
  6
Continuous
370
    -3
390
F
  0
LAYER
  5
3D
330
2
100
AcDbSymbolTableRecord
100
AcDbLayerTableRecord
  2
TEXT
 70
     0
 62
     7
  6
Continuous
370
    -3
390
F
  0
LAYER
  5
3E
330
2
100
AcDbSymbolTableRecord
100
AcDbLayerTableRecord
  2
DEFPOINTS
 70
     0
 62
     7
  6
Continuous
290
     0
370
    -3
390
F
  0
LAYER
  5
3F
330
2
100
AcDbSymbolTableRecord
100
AcDbLayerTableRecord
  2
SCHRAFF
 70
     0
 62
     7
  6
Continuous
370
    -3
390
F
  0
ENDTAB
  0
TABLE
  2
STYLE
  5
3
330
0
100
AcDbSymbolTable
 70
     2
  0
STYLE
  5
11
330
3
100
AcDbSymbolTableRecord
100
AcDbTextStyleTableRecord
  2
STANDARD
 70
     0
 40
0.0
 41
0.8
 50
0.0
 71
     0
 42
3.5
  3
simplex.shx
  4

  0
STYLE
  5
34
330
3
100
AcDbSymbolTableRecord
100
AcDbTextStyleTableRecord
  2
GREEKS
 70
     0
 40
0.0
 41
0.8
 50
0.0
 71
     0
 42
2.5
  3
SIMPLEX.shx
  4

  0
ENDTAB
  0
TABLE
  2
VIEW
  5
6
330
0
100
AcDbSymbolTable
 70
     0
  0
ENDTAB
  0
TABLE
  2
UCS
  5
7
330
0
100
AcDbSymbolTable
 70
     0
  0
ENDTAB
  0
TABLE
  2
APPID
  5
9
330
0
100
AcDbSymbolTable
 70
     1
  0
APPID
  5
12
330
9
100
AcDbSymbolTableRecord
100
AcDbRegAppTableRecord
  2
ACAD
 70
     0
  0
ENDTAB
  0
TABLE
  2
DIMSTYLE
  5
A
330
0
100
AcDbSymbolTable
 70
     1
100
AcDbDimStyleTable
 71
     1
340
1CB
  0
DIMSTYLE
105
1CB
102
{ACAD_REACTORS
330
1208
330
1256
330
107C
330
17D5
102
}
330
A
100
AcDbSymbolTableRecord
100
AcDbDimStyleTableRecord
  2
Standard
 70
     0
340
11
  0
ENDTAB
  0
TABLE
  2
BLOCK_RECORD
  5
1
330
0
100
AcDbSymbolTable
 70
     8
  0
BLOCK_RECORD
  5
1E
330
1
100
AcDbSymbolTableRecord
100
AcDbBlockTableRecord
  2
*Model_Space
340
21
  0
BLOCK_RECORD
  5
1A
330
1
100
AcDbSymbolTableRecord
100
AcDbBlockTableRecord
  2
*Paper_Space
340
1D
  0
BLOCK_RECORD
  5
22
330
1
100
AcDbSymbolTableRecord
100
AcDbBlockTableRecord
  2
LOGO
340
0
102
{BLKREFS
331
135
102
}
  0
BLOCK_RECORD
  5
1093
330
1
100
AcDbSymbolTableRecord
100
AcDbBlockTableRecord
  2
*D1
340
0
  0
BLOCK_RECORD
  5
1220
330
1
100
AcDbSymbolTableRecord
100
AcDbBlockTableRecord
  2
*D3
340
0
  0
BLOCK_RECORD
  5
1257
330
1
100
AcDbSymbolTableRecord
100
AcDbBlockTableRecord
  2
*D4
340
0
  0
BLOCK_RECORD
  5
17D6
330
1
100
AcDbSymbolTableRecord
100
AcDbBlockTableRecord
  2
*D5
340
0
  0
ENDTAB
  0
ENDSEC
  0
SECTION
  2
BLOCKS
  0
BLOCK
  5
43
330
1E
100
AcDbEntity
  8
0
100
AcDbBlockBegin
  2
*Model_Space
 70
     0
 10
0.0
 20
0.0
 30
0.0
  3
*Model_Space
  1

  0
ENDBLK
  5
44
330
1E
100
AcDbEntity
  8
0
100
AcDbBlockEnd
  0
BLOCK
  5
41
330
1A
100
AcDbEntity
 67
     1
  8
0
100
AcDbBlockBegin
  2
*Paper_Space
 70
     0
 10
0.0
 20
0.0
 30
0.0
  3
*Paper_Space
  1

  0
ENDBLK
  5
42
330
1A
100
AcDbEntity
 67
     1
  8
0
100
AcDbBlockEnd
  0
BLOCK
  5
45
330
22
100
AcDbEntity
  8
0
100
AcDbBlockBegin
  2
LOGO
 70
     0
 10
0.0
 20
0.0
 30
0.0
  3
LOGO
  1

  0
ARC
  5
46
330
22
100
AcDbEntity
  8
0
100
AcDbCircle
 10
11.59973089678112
 20
-9.271599258481501
 30
0.0
 40
4.5
100
AcDbArc
 50
270.0
 51
231.0575587310159
  0
LINE
  5
47
330
22
100
AcDbEntity
  8
0
100
AcDbLine
 10
3.599730896781125
 20
-4.771599258481529
 30
0.0
 11
3.599730896781153
 21
-11.77159925848133
 31
0.0
  0
LINE
  5
48
330
22
100
AcDbEntity
  8
0
100
AcDbLine
 10
2.599730896781125
 20
-4.771599258481529
 30
0.0
 11
2.599730896781153
 21
-11.77159925848133
 31
0.0
  0
CIRCLE
  5
49
330
22
100
AcDbEntity
  8
0
100
AcDbCircle
 10
11.59973089678112
 20
-9.271599258481501
 30
0.0
 40
3.5
  0
ARC
  5
4A
330
22
100
AcDbEntity
  8
0
100
AcDbCircle
 10
31.59973089678115
 20
-9.271599258481472
 30
0.0
 40
4.5
100
AcDbArc
 50
270.0
 51
231.0575587310182
  0
LINE
  5
4B
330
22
100
AcDbEntity
  8
0
100
AcDbLine
 10
17.59973089678112
 20
-4.771599258481472
 30
0.0
 11
17.59973089678115
 21
-13.77159925848147
 31
0.0
  0
ARC
  5
4C
330
22
100
AcDbEntity
  8
0
100
AcDbCircle
 10
22.59973089678116
 20
-7.271599258481472
 30
0.0
 40
2.5
100
AcDbArc
 50
293.1161887722295
 51
90.0
  0
CIRCLE
  5
4D
330
22
100
AcDbEntity
  8
0
100
AcDbCircle
 10
31.59973089678115
 20
-9.271599258481472
 30
0.0
 40
3.5
  0
ARC
  5
4E
330
22
100
AcDbEntity
  8
0
100
AcDbCircle
 10
4.599730896781153
 20
-11.77159925848133
 30
0.0
 40
1.0
100
AcDbArc
 50
180.0
 51
270.0
  0
ARC
  5
4F
330
22
100
AcDbEntity
  8
0
100
AcDbCircle
 10
4.599730896781153
 20
-11.77159925848133
 30
0.0
 40
2.0
100
AcDbArc
 50
179.9999999999992
 51
270.0
  0
LINE
  5
50
330
22
100
AcDbEntity
  8
0
100
AcDbLine
 10
11.59973089678115
 20
-13.77159925848144
 30
0.0
 11
4.599730896781153
 21
-13.77159925848147
 31
0.0
  0
LINE
  5
51
330
22
100
AcDbEntity
  8
0
100
AcDbLine
 10
8.771303772034769
 20
-12.77159925848136
 30
0.0
 11
4.599730896781153
 21
-12.77159925848133
 31
0.0
  0
LINE
  5
52
330
22
100
AcDbEntity
  8
0
100
AcDbLine
 10
31.59973089678115
 20
-13.77159925848147
 30
0.0
 11
23.6715276665056
 21
-13.77159925848144
 31
0.0
  0
LINE
  5
53
330
22
100
AcDbEntity
  8
0
100
AcDbLine
 10
23.56565672307022
 20
-9.51278021337896
 30
0.0
 11
24.4388546544846
 21
-12.77159925848144
 31
0.0
  0
LINE
  5
54
330
22
100
AcDbEntity
  8
0
100
AcDbLine
 10
22.59973089678116
 20
-9.771599258481472
 30
0.0
 11
18.59973089678112
 21
-9.771599258481472
 31
0.0
  0
LINE
  5
55
330
22
100
AcDbEntity
  8
0
100
AcDbLine
 10
18.59973089678115
 20
-13.77159925848144
 30
0.0
 11
17.59973089678115
 21
-13.77159925848144
 31
0.0
  0
LINE
  5
56
330
22
100
AcDbEntity
  8
0
100
AcDbLine
 10
18.59973089678115
 20
-9.771599258481472
 30
0.0
 11
18.59973089678115
 21
-13.77159925848144
 31
0.0
  0
LINE
  5
57
330
22
100
AcDbEntity
  8
0
100
AcDbLine
 10
22.59973089678116
 20
-9.771599258481472
 30
0.0
 11
23.67152766650562
 21
-13.77159925848147
 31
0.0
  0
ARC
  5
58
330
22
100
AcDbEntity
  8
0
100
AcDbCircle
 10
22.59973089678116
 20
-7.271599258481472
 30
0.0
 40
2.5
100
AcDbArc
 50
270.0
 51
270.0000000000007
  0
LINE
  5
59
330
22
100
AcDbEntity
  8
0
100
AcDbLine
 10
28.77130377203494
 20
-12.77159925848147
 30
0.0
 11
24.43885465448463
 21
-12.77159925848144
 31
0.0
  0
LINE
  5
5A
330
22
100
AcDbEntity
  8
0
100
AcDbLine
 10
3.599730896781125
 20
-4.771599258481472
 30
0.0
 11
2.599730896781125
 21
-4.771599258481472
 31
0.0
  0
LINE
  5
5B
330
22
100
AcDbEntity
  8
0
100
AcDbLine
 10
22.59973089678116
 20
-8.771599258481472
 30
0.0
 11
18.59973089678115
 21
-8.771599258481472
 31
0.0
  0
LINE
  5
5C
330
22
100
AcDbEntity
  8
0
100
AcDbLine
 10
22.59973089678116
 20
-5.771599258481472
 30
0.0
 11
18.59973089678115
 21
-5.771599258481472
 31
0.0
  0
LINE
  5
5D
330
22
100
AcDbEntity
  8
0
100
AcDbLine
 10
22.59973089678116
 20
-4.771599258481472
 30
0.0
 11
17.59973089678115
 21
-4.771599258481472
 31
0.0
  0
LINE
  5
5E
330
22
100
AcDbEntity
  8
0
100
AcDbLine
 10
18.59973089678115
 20
-5.771599258481472
 30
0.0
 11
18.59973089678115
 21
-8.771599258481472
 31
0.0
  0
ARC
  5
5F
330
22
100
AcDbEntity
  8
0
100
AcDbCircle
 10
22.59973089678116
 20
-7.271599258481472
 30
0.0
 40
1.5
100
AcDbArc
 50
270.0
 51
90.0
  0
ENDBLK
  5
60
330
22
100
AcDbEntity
  8
0
100
AcDbBlockEnd
  0
BLOCK
  5
109D
330
1093
100
AcDbEntity
  8
0
100
AcDbBlockBegin
  2
*D1
 70
     1
 10
0.0
 20
0.0
 30
0.0
  3
*D1
  1

  0
LINE
  5
17B0
330
1093
100
AcDbEntity
  8
BEM
 62
     0
370
    -2
100
AcDbLine
 10
117.4043839726996
 20
184.4497149751981
 30
0.0
 11
117.4043839726996
 21
154.0259424937701
 31
0.0
  0
LINE
  5
17B1
330
1093
100
AcDbEntity
  8
BEM
 62
     0
370
    -2
100
AcDbLine
 10
276.4043839726999
 20
184.4497149751969
 30
0.0
 11
276.4043839726999
 21
154.0259424937701
 31
0.0
  0
LINE
  5
17B2
330
1093
100
AcDbEntity
  8
BEM
 62
     0
370
    -2
100
AcDbLine
 10
124.4043839726996
 20
156.0259424937701
 30
0.0
 11
269.4043839726999
 21
156.0259424937701
 31
0.0
  0
SOLID
  5
17B3
330
1093
100
AcDbEntity
  8
BEM
 62
     0
100
AcDbTrace
 10
124.4043839726996
 20
157.1926091604368
 30
0.0
 11
124.4043839726996
 21
154.8592758271034
 31
0.0
 12
117.4043839726996
 22
156.0259424937701
 32
0.0
 13
117.4043839726996
 23
156.0259424937701
 33
0.0
  0
SOLID
  5
17B4
330
1093
100
AcDbEntity
  8
BEM
 62
     0
100
AcDbTrace
 10
269.4043839726999
 20
157.1926091604368
 30
0.0
 11
269.4043839726999
 21
154.8592758271034
 31
0.0
 12
276.4043839726999
 22
156.0259424937701
 32
0.0
 13
276.4043839726999
 23
156.0259424937701
 33
0.0
  0
MTEXT
  5
17B5
330
1093
100
AcDbEntity
  8
BEM
 62
     1
100
AcDbMText
 10
196.9043839726997
 20
162.5259424937701
 30
0.0
 40
7.0
 41
0.0
 71
     5
 72
     1
  1
\A1;%%c159
 73
     1
 44
1.0
  0
POINT
  5
17B6
330
1093
100
AcDbEntity
  8
DEFPOINTS
 62
     0
100
AcDbPoint
 10
117.4043839726996
 20
186.4497149751981
 30
0.0
  0
POINT
  5
17B7
330
1093
100
AcDbEntity
  8
DEFPOINTS
 62
     0
100
AcDbPoint
 10
276.4043839726999
 20
186.449714975197
 30
0.0
  0
POINT
  5
17B8
330
1093
100
AcDbEntity
  8
DEFPOINTS
 62
     0
100
AcDbPoint
 10
276.4043839726999
 20
156.0259424937701
 30
0.0
  0
ENDBLK
  5
109E
330
1093
100
AcDbEntity
  8
0
100
AcDbBlockEnd
  0
BLOCK
  5
122A
330
1220
100
AcDbEntity
  8
0
100
AcDbBlockBegin
  2
*D3
 70
     1
 10
0.0
 20
0.0
 30
0.0
  3
*D3
  1

  0
LINE
  5
17C2
330
1220
100
AcDbEntity
  8
BEM
 62
     0
370
    -2
100
AcDbLine
 10
195.1723331651305
 20
342.4497149751973
 30
0.0
 11
105.4399691706164
 21
394.2567194824376
 31
0.0
  0
LINE
  5
17C3
330
1220
100
AcDbEntity
  8
BEM
 62
     0
370
    -2
100
AcDbLine
 10
203.4928692855432
 20
528.1714400388516
 30
0.0
 11
187.9399691706048
 21
537.1509111068883
 31
0.0
  0
LINE
  5
17C4
330
1220
100
AcDbEntity
  8
BEM
 62
     0
370
    -2
100
AcDbLine
 10
110.6720199781846
 20
399.3188973089293
 30
0.0
 11
186.1720199781745
 21
530.088733280397
 31
0.0
  0
SOLID
  5
17C5
330
1220
100
AcDbEntity
  8
BEM
 62
     0
100
AcDbTrace
 10
109.6616570071027
 20
399.9022306422625
 30
0.0
 11
111.6823829492666
 21
398.7355639755961
 31
0.0
 12
107.1720199781854
 22
393.2567194824378
 32
0.0
 13
107.1720199781854
 23
393.2567194824378
 33
0.0
  0
SOLID
  5
17C6
330
1220
100
AcDbEntity
  8
BEM
 62
     0
100
AcDbTrace
 10
185.1616570070925
 20
530.6720666137302
 30
0.0
 11
187.1823829492564
 21
529.5053999470638
 31
0.0
 12
189.6720199781737
 22
536.1509111068884
 32
0.0
 13
189.6720199781737
 23
536.1509111068884
 33
0.0
  0
MTEXT
  5
17C7
330
1220
100
AcDbEntity
  8
BEM
 62
     1
100
AcDbMText
 10
142.7928548535803
 20
467.9538152946626
 30
0.0
 40
7.0
 41
0.0
 71
     5
 72
     1
  1
\A1;165
 11
0.4999999999998991
 21
0.8660254037844968
 31
0.0
 73
     1
 44
1.0
  0
POINT
  5
17C8
330
1220
100
AcDbEntity
  8
DEFPOINTS
 62
     0
100
AcDbPoint
 10
196.9043839726995
 20
341.4497149751975
 30
0.0
  0
POINT
  5
17C9
330
1220
100
AcDbEntity
  8
DEFPOINTS
 62
     0
100
AcDbPoint
 10
205.2249200931123
 20
527.1714400388517
 30
0.0
  0
POINT
  5
17CA
330
1220
100
AcDbEntity
  8
DEFPOINTS
 62
     0
100
AcDbPoint
 10
189.6720199781737
 20
536.1509111068884
 30
0.0
  0
ENDBLK
  5
122B
330
1220
100
AcDbEntity
  8
0
100
AcDbBlockEnd
  0
BLOCK
  5
1261
330
1257
100
AcDbEntity
  8
0
100
AcDbBlockBegin
  2
*D4
 70
     1
 10
0.0
 20
0.0
 30
0.0
  3
*D4
  1

  0
LINE
  5
17B9
330
1257
100
AcDbEntity
  8
BEM
 62
     0
370
    -2
100
AcDbLine
 10
116.2792706079588
 20
176.4497149751975
 30
0.0
 11
92.02093443843882
 21
176.4497149751975
 31
0.0
  0
LINE
  5
17BA
330
1257
100
AcDbEntity
  8
BEM
 62
     0
370
    -2
100
AcDbLine
 10
194.9043839726995
 20
341.4497149751976
 30
0.0
 11
92.02093443843883
 21
341.4497149751976
 31
0.0
  0
LINE
  5
17BB
330
1257
100
AcDbEntity
  8
BEM
 62
     0
370
    -2
100
AcDbLine
 10
94.02093443843881
 20
183.4497149751975
 30
0.0
 11
94.02093443843885
 21
334.4497149751977
 31
0.0
  0
SOLID
  5
17BC
330
1257
100
AcDbEntity
  8
BEM
 62
     0
100
AcDbTrace
 10
92.85426777177214
 20
183.4497149751975
 30
0.0
 11
95.18760110510548
 21
183.4497149751975
 31
0.0
 12
94.02093443843881
 22
176.4497149751975
 32
0.0
 13
94.02093443843881
 23
176.4497149751975
 33
0.0
  0
SOLID
  5
17BD
330
1257
100
AcDbEntity
  8
BEM
 62
     0
100
AcDbTrace
 10
92.85426777177217
 20
334.4497149751977
 30
0.0
 11
95.18760110510552
 21
334.4497149751977
 31
0.0
 12
94.02093443843885
 22
341.4497149751976
 32
0.0
 13
94.02093443843885
 23
341.4497149751976
 33
0.0
  0
MTEXT
  5
17BE
330
1257
100
AcDbEntity
  8
BEM
 62
     1
100
AcDbMText
 10
87.52093443843879
 20
258.9497149751976
 30
0.0
 40
7.0
 41
0.0
 71
     5
 72
     1
  1
\A1;165
 11
0.0000000000000001
 21
1.0
 31
0.0
 73
     1
 44
1.0
  0
POINT
  5
17BF
330
1257
100
AcDbEntity
  8
DEFPOINTS
 62
     0
100
AcDbPoint
 10
118.2792706079588
 20
176.4497149751975
 30
0.0
  0
POINT
  5
17C0
330
1257
100
AcDbEntity
  8
DEFPOINTS
 62
     0
100
AcDbPoint
 10
196.9043839726995
 20
341.4497149751976
 30
0.0
  0
POINT
  5
17C1
330
1257
100
AcDbEntity
  8
DEFPOINTS
 62
     0
100
AcDbPoint
 10
94.02093443843885
 20
341.4497149751976
 30
0.0
  0
ENDBLK
  5
1262
330
1257
100
AcDbEntity
  8
0
100
AcDbBlockEnd
  0
BLOCK
  5
17E2
330
17D6
100
AcDbEntity
  8
0
100
AcDbBlockBegin
  2
*D5
 70
     1
 10
0.0
 20
0.0
 30
0.0
  3
*D5
  1

  0
LINE
  5
17E4
330
17D6
100
AcDbEntity
  8
BEM
 62
     0
370
    -2
100
AcDbLine
 10
282.9043839726996
 20
490.406084426121
 30
0.0
 11
300.182141273288
 21
520.3320379115844
 31
0.0
  0
LINE
  5
17E5
330
17D6
100
AcDbEntity
  8
BEM
 62
     0
370
    -2
100
AcDbLine
 10
196.9043839726995
 20
343.4497149751976
 30
0.0
 11
196.9043839726997
 21
548.0052295763746
 31
0.0
  0
ARC
  5
17E6
330
17D6
100
AcDbEntity
  8
BEM
 62
     0
370
    -2
100
AcDbCircle
 10
196.9043839726995
 20
341.4497149751976
 30
0.0
 40
204.555514601177
100
AcDbArc
 50
61.96078814890549
 51
88.03921185109448
  0
SOLID
  5
17E7
330
17D6
100
AcDbEntity
  8
BEM
 62
     0
100
AcDbTrace
 10
293.6269253093616
 20
523.0159452905531
 30
0.0
 11
292.4950045982644
 21
520.9755531840614
 31
0.0
 12
299.182141273288
 22
518.5999871040155
 32
0.0
 13
299.182141273288
 23
518.5999871040155
 33
0.0
  0
SOLID
  5
17E8
330
17D6
100
AcDbEntity
  8
BEM
 62
     0
100
AcDbTrace
 10
203.8833972518717
 20
544.7189618125511
 30
0.0
 11
203.9233212142376
 21
547.0519535660027
 31
0.0
 12
196.9043839726997
 22
546.0052295763746
 32
0.0
 13
196.9043839726997
 23
546.0052295763746
 33
0.0
  0
MTEXT
  5
17E9
330
17D6
100
AcDbEntity
  8
BEM
 62
     1
100
AcDbMText
 10
251.5295707253974
 20
545.3136873092039
 30
0.0
 40
7.0
 41
0.0
 71
     5
 72
     1
  1
\A1;30°
 11
0.9659258262890681
 21
-0.2588190451025215
 31
0.0
 73
     1
 44
1.0
  0
POINT
  5
17EA
330
17D6
100
AcDbEntity
  8
DEFPOINTS
 62
     0
100
AcDbPoint
 10
266.86649039465
 20
533.6690225869878
 30
0.0
  0
POINT
  5
17EB
330
17D6
100
AcDbEntity
  8
DEFPOINTS
 62
     0
100
AcDbPoint
 10
196.9043839726995
 20
341.4497149751976
 30
0.0
  0
POINT
  5
17EC
330
17D6
100
AcDbEntity
  8
DEFPOINTS
 62
     0
100
AcDbPoint
 10
281.9043839726996
 20
488.6740336185519
 30
0.0
  0
POINT
  5
17ED
330
17D6
100
AcDbEntity
  8
DEFPOINTS
 62
     0
100
AcDbPoint
 10
196.9043839726995
 20
341.4497149751976
 30
0.0
  0
POINT
  5
17EE
330
17D6
100
AcDbEntity
  8
DEFPOINTS
 62
     0
100
AcDbPoint
 10
196.9043839726994
 20
171.4497149751978
 30
0.0
  0
ENDBLK
  5
17E3
330
17D6
100
AcDbEntity
  8
0
100
AcDbBlockEnd
  0
ENDSEC
  0
SECTION
  2
ENTITIES
  0
TEXT
  5
134
330
1E
100
AcDbEntity
  8
TEXT
100
AcDbText
 10
204.4216048581257
 20
63.0896391972351
 30
0.0
 40
4.0
  1
Koeh
 41
0.8
  7
GREEKS
 72
     1
 11
209.6787477152686
 21
63.0896391972351
 31
0.0
100
AcDbText
  0
INSERT
  5
135
330
1E
100
AcDbEntity
  8
STEMPEL
100
AcDbBlockReference
  2
LOGO
 10
150.9955485457794
 20
45.02105276448322
 30
0.0
 41
2.0
 42
2.0
 43
2.0
  0
LINE
  5
136
330
1E
100
AcDbEntity
  8
HILF
100
AcDbLine
 10
420.0
 20
0.0
 30
0.0
 11
0.0
 21
0.0
 31
0.0
  0
LINE
  5
137
330
1E
100
AcDbEntity
  8
HILF
100
AcDbLine
 10
419.9999999999999
 20
594.0000000000002
 30
0.0
 11
0.0
 21
594.0
 31
0.0
  0
LINE
  5
138
330
1E
100
AcDbEntity
  8
STEMPEL
100
AcDbLine
 10
410.0
 20
584.0
 30
0.0
 11
39.99999999999989
 21
584.0
 31
0.0
  0
LINE
  5
139
330
1E
100
AcDbEntity
  8
STEMPEL
100
AcDbLine
 10
410.0
 20
10.0
 30
0.0
 11
39.99999999999989
 21
10.0
 31
0.0
  0
LINE
  5
13A
330
1E
100
AcDbEntity
  8
STEMPEL
100
AcDbLine
 10
49.99999999999989
 20
10.0
 30
0.0
 11
410.0
 21
10.0
 31
0.0
  0
TEXT
  5
13B
330
1E
100
AcDbEntity
  8
TEXT
100
AcDbText
 10
202.4626584226295
 20
73.30961091915225
 30
0.0
 40
4.0
  1
Name
 41
0.8
  7
GREEKS
100
AcDbText
  0
TEXT
  5
13C
330
1E
100
AcDbEntity
  8
TEXT
100
AcDbText
 10
196.5498279101549
 20
102.6506227776589
 30
0.0
 40
5.0
  1
Zul. Abw.
 41
0.8
  7
GREEKS
 72
     4
 11
209.9783993387263
 21
105.1506227776589
 31
0.0
100
AcDbText
  0
LINE
  5
13D
330
1E
100
AcDbEntity
  8
HILF
100
AcDbLine
 10
146.0000000000001
 20
49.99999999999997
 30
0.0
 11
230.0
 21
49.99999999999997
 31
0.0
  0
LINE
  5
13E
330
1E
100
AcDbEntity
  8
HILF
100
AcDbLine
 10
146.0000000000001
 20
59.99999999999998
 30
0.0
 11
230.0
 21
59.99999999999998
 31
0.0
  0
LINE
  5
13F
330
1E
100
AcDbEntity
  8
HILF
100
AcDbLine
 10
146.0000000000001
 20
69.99999999999994
 30
0.0
 11
230.0
 21
69.99999999999994
 31
0.0
  0
LINE
  5
140
330
1E
100
AcDbEntity
  8
STEMPEL
100
AcDbLine
 10
410.0
 20
80.0
 30
0.0
 11
146.0000000000001
 21
79.99999999999994
 31
0.0
  0
LINE
  5
141
330
1E
100
AcDbEntity
  8
STEMPEL
100
AcDbLine
 10
410.0
 20
40.0
 30
0.0
 11
146.0000000000001
 21
39.99999999999997
 31
0.0
  0
LINE
  5
142
330
1E
100
AcDbEntity
  8
STEMPEL
100
AcDbLine
 10
410.0
 20
110.0
 30
0.0
 11
39.99999999999997
 21
110.0
 31
0.0
  0
LINE
  5
144
330
1E
100
AcDbEntity
  8
HILF
100
AcDbLine
 10
0.0
 20
0.0
 30
0.0
 11
-0.0000000000001137
 21
594.0
 31
0.0
  0
LINE
  5
145
330
1E
100
AcDbEntity
  8
STEMPEL
100
AcDbLine
 10
40.0
 20
10.0
 30
0.0
 11
39.99999999999989
 21
584.0
 31
0.0
  0
TEXT
  5
146
330
1E
100
AcDbEntity
  8
TEXT
100
AcDbText
 10
41.85509950977674
 20
111.6719999999999
 30
0.0
 40
5.0
  1
Erstellt mit AUTOCAD 2004
 41
0.8
  7
GREEKS
100
AcDbText
  0
TEXT
  5
147
330
1E
100
AcDbEntity
  8
TEXT
100
AcDbText
 10
67.18675857092764
 20
18.67381894984132
 30
0.0
 40
4.0
  1
Änderung
 41
0.8
  7
GREEKS
 72
     1
 11
77.92961571378478
 21
18.67381894984132
 31
0.0
100
AcDbText
  0
LINE
  5
148
330
1E
100
AcDbEntity
  8
HILF
100
AcDbLine
 10
40.00000000000008
 20
39.99999999999997
 30
0.0
 11
146.0000000000001
 21
39.99999999999997
 31
0.0
  0
LINE
  5
149
330
1E
100
AcDbEntity
  8
HILF
100
AcDbLine
 10
40.00000000000008
 20
49.99999999999997
 30
0.0
 11
146.0000000000001
 21
49.99999999999997
 31
0.0
  0
LINE
  5
14A
330
1E
100
AcDbEntity
  8
HILF
100
AcDbLine
 10
40.00000000000008
 20
59.99999999999998
 30
0.0
 11
146.0000000000001
 21
59.99999999999998
 31
0.0
  0
LINE
  5
14B
330
1E
100
AcDbEntity
  8
HILF
100
AcDbLine
 10
40.00000000000008
 20
69.99999999999994
 30
0.0
 11
146.0000000000001
 21
69.99999999999994
 31
0.0
  0
LINE
  5
14C
330
1E
100
AcDbEntity
  8
HILF
100
AcDbLine
 10
40.00000000000008
 20
79.99999999999994
 30
0.0
 11
146.0000000000001
 21
79.99999999999994
 31
0.0
  0
LINE
  5
14D
330
1E
100
AcDbEntity
  8
HILF
100
AcDbLine
 10
40.00000000000008
 20
90.00000000000005
 30
0.0
 11
146.0000000000001
 21
90.00000000000005
 31
0.0
  0
LINE
  5
14E
330
1E
100
AcDbEntity
  8
HILF
100
AcDbLine
 10
40.00000000000008
 20
100.0
 30
0.0
 11
146.0000000000001
 21
100.0
 31
0.0
  0
LINE
  5
14F
330
1E
100
AcDbEntity
  8
STEMPEL
100
AcDbLine
 10
145.9999999999999
 20
29.99999999999997
 30
0.0
 11
39.99999999999997
 21
29.99999999999997
 31
0.0
  0
TEXT
  5
150
330
1E
100
AcDbEntity
  8
TEXT
100
AcDbText
 10
48.26641107045756
 20
13.65465846027192
 30
0.0
 40
4.0
  1
Index
 50
90.0
 41
0.8
  7
GREEKS
100
AcDbText
  0
LINE
  5
151
330
1E
100
AcDbEntity
  8
VOLL
100
AcDbLine
 10
54.00000000000009
 20
110.0
 30
0.0
 11
53.99999999999998
 21
9.999999999999971
 31
0.0
  0
LINE
  5
152
330
1E
100
AcDbEntity
  8
HILF
100
AcDbLine
 10
31.08767135713856
 20
297.0
 30
0.0
 11
0.0000000000001137
 21
297.0
 31
0.0
  0
TEXT
  5
153
330
1E
100
AcDbEntity
  8
TEXT
100
AcDbText
 10
110.5329027008845
 20
18.6715626933981
 30
0.0
 40
4.0
  1
Tag
 41
0.8
  7
GREEKS
 72
     1
 11
114.2662360342178
 21
18.6715626933981
 31
0.0
100
AcDbText
  0
LINE
  5
154
330
1E
100
AcDbEntity
  8
VOLL
100
AcDbLine
 10
124.0000000000001
 20
109.9999999999999
 30
0.0
 11
124.0
 21
9.999999999999971
 31
0.0
  0
LINE
  5
155
330
1E
100
AcDbEntity
  8
VOLL
100
AcDbLine
 10
104.0000000000001
 20
109.9999999999999
 30
0.0
 11
104.0
 21
9.999999999999971
 31
0.0
  0
TEXT
  5
156
330
1E
100
AcDbEntity
  8
TEXT
100
AcDbText
 10
129.3050679443042
 20
18.59324216966408
 30
0.0
 40
4.0
  1
Name
 41
0.8
  7
GREEKS
 72
     1
 11
135.6288774681137
 21
18.59324216966408
 31
0.0
100
AcDbText
  0
LINE
  5
157
330
1E
100
AcDbEntity
  8
STEMPEL
100
AcDbLine
 10
146.0000000000001
 20
109.9999999999999
 30
0.0
 11
146.0
 21
9.999999999999971
 31
0.0
  0
TEXT
  5
159
330
1E
100
AcDbEntity
  8
TEXT
100
AcDbText
 10
172.331167315365
 20
73.31880501229926
 30
0.0
 40
4.0
  1
Tag
 41
0.8
  7
GREEKS
100
AcDbText
  0
TEXT
  5
15A
330
1E
100
AcDbEntity
  8
TEXT
100
AcDbText
 10
147.5836127167615
 20
63.62990369617964
 30
0.0
 40
4.0
  1
Gez.
 41
0.8
  7
GREEKS
100
AcDbText
  0
LINE
  5
15B
330
1E
100
AcDbEntity
  8
VOLL
100
AcDbLine
 10
164.0000000000001
 20
79.99999999999994
 30
0.0
 11
164.0000000000001
 21
39.99999999999997
 31
0.0
  0
TEXT
  5
15C
330
1E
100
AcDbEntity
  8
TEXT
100
AcDbText
 10
147.6006777387303
 20
43.52946389649807
 30
0.0
 40
4.0
  1
Norm.
 41
0.8
  7
GREEKS
100
AcDbText
  0
TEXT
  5
15D
330
1E
100
AcDbEntity
  8
TEXT
100
AcDbText
 10
147.5515086571672
 20
53.68926291428377
 30
0.0
 40
4.0
  1
Gepr.
 41
0.8
  7
GREEKS
100
AcDbText
  0
TEXT
  5
15E
330
1E
100
AcDbEntity
  8
TEXT
 62
     1
100
AcDbText
 10
160.5006306481887
 20
88.14901428913959
 30
0.0
 40
7.0
  1
1:2
 41
0.8
  7
GREEKS
100
AcDbText
  0
TEXT
  5
15F
330
1E
100
AcDbEntity
  8
TEXT
100
AcDbText
 10
153.5163572150377
 20
102.4620895087088
 30
0.0
 40
5.0
  1
Maßstab
 41
0.8
  7
GREEKS
100
AcDbText
  0
TEXT
  5
160
330
1E
100
AcDbEntity
  8
TEXT
100
AcDbText
 10
148.622109822104
 20
73.14025471151666
 30
0.0
 40
4.0
  1
2011
 41
0.8
  7
GREEKS
100
AcDbText
  0
LINE
  5
161
330
1E
100
AcDbEntity
  8
VOLL
100
AcDbLine
 10
190.0000000000001
 20
109.9999999999998
 30
0.0
 11
190.0
 21
39.99999999999997
 31
0.0
  0
LINE
  5
186
330
1E
100
AcDbEntity
  8
HILF
100
AcDbLine
 10
420.0
 20
-0.0000000000001137
 30
0.0
 11
419.9999999999999
 21
594.0
 31
0.0
  0
LINE
  5
187
330
1E
100
AcDbEntity
  8
STEMPEL
100
AcDbLine
 10
410.0
 20
10.0
 30
0.0
 11
410.0
 21
584.0
 31
0.0
  0
TEXT
  5
188
330
1E
100
AcDbEntity
  8
TEXT
100
AcDbText
 10
337.2400861497006
 20
52.07416177878602
 30
0.0
 40
5.0
  1
ersetzt durch:
 41
0.8
  7
GREEKS
100
AcDbText
  0
TEXT
  5
189
330
1E
100
AcDbEntity
  8
TEXT
100
AcDbText
 10
336.7238616296993
 20
73.1811823709997
 30
0.0
 40
5.0
  1
Ersatz für:
 41
0.8
  7
GREEKS
100
AcDbText
  0
TEXT
  5
18A
330
1E
100
AcDbEntity
  8
TEXT
100
AcDbText
 10
336.178754957634
 20
102.3132034537136
 30
0.0
 40
5.0
  1
Zeichnungs Nr.
 41
0.8
  7
GREEKS
100
AcDbText
  0
LINE
  5
18B
330
1E
100
AcDbEntity
  8
HILF
100
AcDbLine
 10
233.4909699289885
 20
14.89398258028314
 30
0.0
 11
404.8588839326728
 21
14.89398258028314
 31
0.0
  0
LINE
  5
18C
330
1E
100
AcDbEntity
  8
HILF
100
AcDbLine
 10
336.7238616296993
 20
83.77983636955827
 30
0.0
 11
404.8588839326728
 21
83.77983636955827
 31
0.0
  0
LINE
  5
18D
330
1E
100
AcDbEntity
  8
VOLL
100
AcDbLine
 10
332.0
 20
60.0
 30
0.0
 11
410.0
 21
60.0
 31
0.0
  0
TEXT
  5
18E
330
1E
100
AcDbEntity
  8
TEXT
 62
     1
100
AcDbText
 10
234.9283864320014
 20
87.41748789253779
 30
0.0
 40
7.0
  1
Bogen DN150 30°
 41
0.8
  7
GREEKS
100
AcDbText
  0
LINE
  5
18F
330
1E
100
AcDbEntity
  8
HILF
100
AcDbLine
 10
234.7736801096948
 20
49.99999999999997
 30
0.0
 11
324.835391655631
 21
49.99999999999997
 31
0.0
  0
LINE
  5
190
330
1E
100
AcDbEntity
  8
HILF
100
AcDbLine
 10
234.7736801096948
 20
59.99999999999998
 30
0.0
 11
324.835391655631
 21
59.99999999999998
 31
0.0
  0
LINE
  5
191
330
1E
100
AcDbEntity
  8
HILF
100
AcDbLine
 10
234.7736801096948
 20
69.99999999999994
 30
0.0
 11
324.835391655631
 21
69.99999999999994
 31
0.0
  0
LINE
  5
192
330
1E
100
AcDbEntity
  8
HILF
100
AcDbLine
 10
234.7736801096948
 20
84.03758247564139
 30
0.0
 11
324.8353916556311
 21
84.03758247564139
 31
0.0
  0
LINE
  5
193
330
1E
100
AcDbEntity
  8
STEMPEL
100
AcDbLine
 10
230.0
 20
110.0
 30
0.0
 11
230.0
 21
9.999999999999971
 31
0.0
  0
TEXT
  5
194
330
1E
100
AcDbEntity
  8
TEXT
100
AcDbText
 10
235.1296391125315
 20
71.50334417585288
 30
0.0
 40
5.0
  1
dünnwandig
 41
0.8
  7
GREEKS
100
AcDbText
  0
TEXT
  5
195
330
1E
100
AcDbEntity
  8
TEXT
100
AcDbText
 10
234.9837501577827
 20
42.62974153022633
 30
0.0
 40
4.0
  1
4330150W.DWG
 41
0.8
  7
GREEKS
100
AcDbText
  0
TEXT
  5
196
330
1E
100
AcDbEntity
  8
TEXT
100
AcDbText
 10
234.742238391136
 20
30.84560570193057
 30
0.0
 40
5.0
  1
Bauvorhaben
 41
0.8
  7
GREEKS
100
AcDbText
  0
TEXT
  5
197
330
1E
100
AcDbEntity
  8
TEXT
100
AcDbText
 10
234.877940380901
 20
102.5489328011779
 30
0.0
 40
5.0
  1
Benennung
 41
0.8
  7
GREEKS
100
AcDbText
  0
LINE
  5
198
330
1E
100
AcDbEntity
  8
STEMPEL
100
AcDbLine
 10
332.0
 20
109.9999999999997
 30
0.0
 11
332.0
 21
40.0
 31
0.0
  0
TEXT
  5
19A
330
1E
100
AcDbEntity
  8
TEXT
 62
     1
100
AcDbText
 10
349.9916862327385
 20
88.14901428913959
 30
0.0
 40
7.0
  1
4330150W
 41
0.8
  7
GREEKS
 72
     1
 11
370.7916862327385
 21
88.14901428913959
 31
0.0
100
AcDbText
  0
TEXT
  5
212
330
1E
100
AcDbEntity
  8
TEXT
100
AcDbText
 10
235.1296391125315
 20
51.50334417585292
 30
0.0
 40
5.0
  1
EDV-Art.Nr. 4.330.150C
 41
0.8
  7
GREEKS
100
AcDbText
  0
LINE
  5
EFF
102
{ACAD_REACTORS
330
17AF
102
}
330
1E
100
AcDbEntity
  8
STEMPEL
100
AcDbLine
 10
276.4043839726995
 20
320.1477541769236
 30
0.0
 11
276.4043839726993
 21
186.4497149751966
 31
0.0
  0
LINE
  5
F3D
330
1E
100
AcDbEntity
  8
STEMPEL
100
AcDbLine
 10
117.4043839726996
 20
362.7516757734718
 30
0.0
 11
117.4043839726996
 21
186.4497149751981
 31
0.0
  0
LINE
  5
107B
330
1E
100
AcDbEntity
  8
STEMPEL
100
AcDbLine
 10
275.5294973374402
 20
176.4497149751976
 30
0.0
 11
118.2792706079588
 21
176.4497149751974
 31
0.0
  0
DIMENSION
  5
107C
330
1E
100
AcDbEntity
  8
BEM
100
AcDbDimension
  2
*D1
 10
276.4043839726999
 20
156.0259424937701
 30
0.0
 11
196.9043839726997
 21
162.5259424937701
 31
0.0
 70
    32
  1
%%c<>
 71
     5
 42
159.0000000000002
  3
Standard
100
AcDbAlignedDimension
 13
117.4043839726996
 23
186.4497149751981
 33
0.0
 14
276.4043839726999
 24
186.449714975197
 34
0.0
100
AcDbRotatedDimension
1001
ACAD
1000
DSTYLE
1002
{
1070
    40
1040
2.0
1070
    41
1040
3.5
1070
    42
1040
1.0
1070
    43
1040
7.0
1070
    44
1040
1.0
1070
    73
1070
     0
1070
    74
1070
     0
1070
    77
1070
     1
1070
    78
1070
     8
1070
    79
1070
     2
1070
   140
1040
3.5
1070
   141
1040
1.5
1070
   146
1040
0.5142857142857144
1070
   147
1040
1.5
1070
   172
1070
     1
1070
   178
1070
     1
1070
   179
1070
     2
1070
   271
1070
     2
1070
   272
1070
     2
1070
   284
1070
     8
1070
   285
1070
     8
1070
   286
1070
     8
1002
}
  0
LINE
  5
107D
330
1E
100
AcDbEntity
  8
HILF
100
AcDbLine
 10
274.9043839726993
 20
186.449714975197
 30
0.0
 11
118.9043839726997
 21
186.4497149751984
 31
0.0
  0
LINE
  5
107F
330
1E
100
AcDbEntity
  8
STEMPEL
100
AcDbLine
 10
117.4043839726996
 20
186.4497149751981
 30
0.0
 11
118.2792706079588
 21
176.449714975198
 31
0.0
  0
LINE
  5
1084
330
1E
100
AcDbEntity
  8
STEMPEL
100
AcDbLine
 10
276.4043839726994
 20
186.4497149751976
 30
0.0
 11
275.5294973374402
 21
176.4497149751969
 31
0.0
  0
LINE
  5
1086
330
1E
100
AcDbEntity
  8
MITTEL
100
AcDbLine
 10
196.9043839726995
 20
341.4497149751976
 30
0.0
 11
196.9043839726994
 21
171.4497149751978
 31
0.0
  0
TEXT
  5
1179
330
1E
100
AcDbEntity
  8
TEXT
 62
     1
100
AcDbText
 10
297.0573649355706
 20
132.2248663682012
 30
0.0
 40
7.0
  1
Werkstoff: 1.4301
 41
0.8
  7
GREEKS
100
AcDbText
  0
LINE
  5
1207
102
{ACAD_REACTORS
330
17AF
102
}
330
1E
100
AcDbEntity
  8
STEMPEL
100
AcDbLine
 10
305.4139494006623
 20
370.3937954036485
 30
0.0
 11
276.4043839726995
 21
320.1477541769236
 31
0.0
  0
DIMENSION
  5
1208
330
1E
100
AcDbEntity
  8
BEM
100
AcDbDimension
  2
*D3
 10
189.6720199781737
 20
536.1509111068884
 30
0.0
 11
142.7928548535803
 21
467.9538152946626
 31
0.0
 70
    32
 71
     5
 42
165.00000000001
  3
Standard
100
AcDbAlignedDimension
 13
196.9043839726995
 23
341.4497149751976
 33
0.0
 14
205.2249200931123
 24
527.1714400388519
 34
0.0
 50
60.00000000000667
100
AcDbRotatedDimension
1001
ACAD
1000
DSTYLE
1002
{
1070
    40
1040
2.0
1070
    41
1040
3.5
1070
    42
1040
1.0
1070
    43
1040
7.0
1070
    44
1040
1.0
1070
    73
1070
     0
1070
    74
1070
     0
1070
    77
1070
     1
1070
    78
1070
     8
1070
    79
1070
     2
1070
   140
1040
3.5
1070
   141
1040
1.5
1070
   146
1040
0.5142857142857144
1070
   147
1040
1.5
1070
   172
1070
     1
1070
   178
1070
     1
1070
   179
1070
     2
1070
   271
1070
     2
1070
   272
1070
     2
1070
   284
1070
     8
1070
   285
1070
     8
1070
   286
1070
     8
1002
}
  0
LINE
  5
1209
330
1E
100
AcDbEntity
  8
STEMPEL
100
AcDbLine
 10
167.7159101989366
 20
449.8937954036484
 30
0.0
 11
117.4043839726996
 21
362.7516757734718
 31
0.0
  0
LINE
  5
120A
330
1E
100
AcDbEntity
  8
MITTEL
100
AcDbLine
 10
281.9043839726996
 20
488.6740336185521
 30
0.0
 11
196.9043839726995
 21
341.4497149751976
 31
0.0
  0
LINE
  5
120B
330
1E
100
AcDbEntity
  8
HILF
100
AcDbLine
 10
325.1611529273211
 20
398.3890732791295
 30
0.0
 11
182.0869302617786
 21
480.9930142491771
 31
0.0
  0
LINE
  5
120C
330
1E
100
AcDbEntity
  8
HILF
100
AcDbLine
 10
312.0340707959332
 20
378.0304181044014
 30
0.0
 11
171.0193587592698
 21
459.4453000584664
 31
0.0
  0
LINE
  5
120D
330
1E
100
AcDbEntity
  8
HILF
100
AcDbLine
 10
306.0558218852845
 20
373.637311477931
 30
0.0
 11
170.2039412745368
 21
452.0714313184631
 31
0.0
  0
LINE
  5
120E
330
1E
100
AcDbEntity
  8
STEMPEL
100
AcDbLine
 10
353.583847852287
 20
441.5163731604082
 30
0.0
 11
205.2249200931123
 21
527.1714400388519
 31
0.0
  0
TEXT
  5
120F
330
1E
100
AcDbEntity
  8
TEXT
 62
     1
100
AcDbText
 10
253.174886124548
 20
459.7292768721066
 30
0.0
 40
7.0
  1
DN150
 50
59.99999999999999
 41
0.8
  7
GREEKS
100
AcDbText
  0
ARC
  5
1210
330
1E
100
AcDbEntity
  8
STEMPEL
100
AcDbCircle
 10
162.3867800847948
 20
486.6634712858093
 30
0.0
 40
19.0
100
AcDbArc
 50
330.0
 51
357.9064081148548
  0
ARC
  5
1211
330
1E
100
AcDbEntity
  8
STEMPEL
100
AcDbCircle
 10
159.0556561610924
 20
454.8937954036482
 30
0.0
 40
10.0
100
AcDbArc
 50
330.0
 51
1.586338096527812
  0
ARC
  5
1212
330
1E
100
AcDbEntity
  8
STEMPEL
100
AcDbCircle
 10
186.0453082600001
 20
455.6412441175644
 30
0.0
 40
17.0
100
AcDbArc
 50
150.0
 51
181.5863380965278
  0
LINE
  5
1213
330
1E
100
AcDbEntity
  8
STEMPEL
100
AcDbLine
 10
178.8412627566989
 20
477.163471285809
 30
0.0
 11
171.3228763956643
 21
464.1412441175643
 31
0.0
  0
LINE
  5
1214
330
1E
100
AcDbEntity
  8
STEMPEL
100
AcDbLine
 10
194.0035582250254
 20
515.425337396322
 30
0.0
 11
185.8638075694153
 21
501.3268756998634
 31
0.0
  0
ARC
  5
1215
330
1E
100
AcDbEntity
  8
STEMPEL
100
AcDbCircle
 10
215.3369167428706
 20
484.3797428857956
 30
0.0
 40
34.0
100
AcDbArc
 50
150.0
 51
177.3202406357856
  0
LINE
  5
1216
330
1E
100
AcDbEntity
  8
STEMPEL
100
AcDbLine
 10
205.2249200931123
 20
527.1714400388519
 30
0.0
 11
203.9468231177608
 21
526.276506902148
 31
0.0
  0
ARC
  5
1217
330
1E
100
AcDbEntity
  8
STEMPEL
100
AcDbCircle
 10
223.4484219536965
 20
498.4253373963221
 30
0.0
 40
34.0
100
AcDbArc
 50
125.0000000000073
 51
150.0
  0
ARC
  5
1218
330
1E
100
AcDbEntity
  8
STEMPEL
100
AcDbCircle
 10
339.9219878606046
 20
384.1634712858093
 30
0.0
 40
19.0
100
AcDbArc
 50
122.8456571516186
 51
150.0
  0
ARC
  5
1219
330
1E
100
AcDbEntity
  8
STEMPEL
100
AcDbCircle
 10
314.0742034385068
 20
365.3937954036481
 30
0.0
 40
10.0
100
AcDbArc
 50
118.413661903472
 51
150.0
  0
ARC
  5
121A
330
1E
100
AcDbEntity
  8
STEMPEL
100
AcDbCircle
 10
301.22668696333
 20
389.1412441175643
 30
0.0
 40
17.0
100
AcDbArc
 50
298.4136619034723
 51
330.0
  0
LINE
  5
121B
330
1E
100
AcDbEntity
  8
STEMPEL
100
AcDbLine
 10
323.4675051887001
 20
393.6634712858091
 30
0.0
 11
315.9491188276653
 21
380.6412441175643
 31
0.0
  0
ARC
  5
121C
330
1E
100
AcDbEntity
  8
STEMPEL
100
AcDbCircle
 10
319.577241773769
 20
442.9253373963219
 30
0.0
 40
34.0
100
AcDbArc
 50
330.0
 51
354.9999999999926
  0
ARC
  5
121D
330
1E
100
AcDbEntity
  8
STEMPEL
100
AcDbCircle
 10
311.4691527218109
 20
428.8777705655538
 30
0.0
 40
34.0
100
AcDbArc
 50
302.2594896725498
 51
330.0
  0
LINE
  5
121E
330
1E
100
AcDbEntity
  8
STEMPEL
100
AcDbLine
 10
349.0221055024396
 20
425.9253373963221
 30
0.0
 11
340.8823548468295
 21
411.8268756998634
 31
0.0
  0
LINE
  5
121F
330
1E
100
AcDbEntity
  8
STEMPEL
100
AcDbLine
 10
353.583847852287
 20
441.5163731604082
 30
0.0
 11
353.4478615088881
 21
439.9620421429016
 31
0.0
  0
DIMENSION
  5
1256
330
1E
100
AcDbEntity
  8
BEM
100
AcDbDimension
  2
*D4
 10
94.02093443843885
 20
341.4497149751976
 30
0.0
 11
87.52093443843879
 21
258.9497149751976
 31
0.0
 70
    32
 71
     5
 42
165.0000000000001
  3
Standard
100
AcDbAlignedDimension
 13
118.2792706079588
 23
176.4497149751975
 33
0.0
 14
196.9043839726995
 24
341.4497149751976
 34
0.0
 50
90.0
100
AcDbRotatedDimension
1001
ACAD
1000
DSTYLE
1002
{
1070
    40
1040
2.0
1070
    41
1040
3.5
1070
    42
1040
1.0
1070
    43
1040
7.0
1070
    44
1040
1.0
1070
    73
1070
     0
1070
    74
1070
     0
1070
    77
1070
     1
1070
    78
1070
     8
1070
    79
1070
     2
1070
   140
1040
3.5
1070
   141
1040
1.5
1070
   146
1040
0.5142857142857144
1070
   147
1040
1.5
1070
   172
1070
     1
1070
   178
1070
     1
1070
   179
1070
     2
1070
   271
1070
     2
1070
   272
1070
     2
1070
   284
1070
     8
1070
   285
1070
     8
1070
   286
1070
     8
1002
}
  0
LINE
  5
1624
330
1E
100
AcDbEntity
  8
STEMPEL
100
AcDbLine
 10
117.4043839726996
 20
362.7516757734718
 30
0.0
 11
276.4043839726995
 21
320.1477541769235
 31
0.0
  0
ARC
  5
1628
330
1E
100
AcDbEntity
  8
SCHRAFF
100
AcDbCircle
 10
118.6159219594612
 20
362.4270451483194
 30
0.0
 40
5.0
100
AcDbArc
 50
308.1301023541564
 51
21.86989764584499
  0
ARC
  5
1629
330
1E
100
AcDbEntity
  8
SCHRAFF
100
AcDbCircle
 10
123.4455510909065
 20
361.1329499228068
 30
0.0
 40
5.0
100
AcDbArc
 50
308.1301023541564
 51
21.86989764584499
  0
ARC
  5
162A
330
1E
100
AcDbEntity
  8
SCHRAFF
100
AcDbCircle
 10
128.2751802223519
 20
359.8388546972942
 30
0.0
 40
5.0
100
AcDbArc
 50
308.1301023541564
 51
21.86989764584499
  0
ARC
  5
162B
330
1E
100
AcDbEntity
  8
SCHRAFF
100
AcDbCircle
 10
133.1048093537972
 20
358.5447594717816
 30
0.0
 40
5.0
100
AcDbArc
 50
308.1301023541564
 51
21.86989764584499
  0
ARC
  5
162C
330
1E
100
AcDbEntity
  8
SCHRAFF
100
AcDbCircle
 10
137.9344384852425
 20
357.250664246269
 30
0.0
 40
5.0
100
AcDbArc
 50
308.1301023541564
 51
21.86989764584499
  0
ARC
  5
162D
330
1E
100
AcDbEntity
  8
SCHRAFF
100
AcDbCircle
 10
142.7640676166878
 20
355.9565690207564
 30
0.0
 40
5.0
100
AcDbArc
 50
308.1301023541564
 51
21.86989764584499
  0
ARC
  5
162E
330
1E
100
AcDbEntity
  8
SCHRAFF
100
AcDbCircle
 10
147.5936967481333
 20
354.6624737952439
 30
0.0
 40
5.0
100
AcDbArc
 50
308.1301023541564
 51
21.86989764584499
  0
ARC
  5
162F
330
1E
100
AcDbEntity
  8
SCHRAFF
100
AcDbCircle
 10
152.4233258795786
 20
353.3683785697312
 30
0.0
 40
5.0
100
AcDbArc
 50
308.1301023541564
 51
21.86989764584499
  0
ARC
  5
1630
330
1E
100
AcDbEntity
  8
SCHRAFF
100
AcDbCircle
 10
157.2529550110239
 20
352.0742833442186
 30
0.0
 40
5.0
100
AcDbArc
 50
308.1301023541564
 51
21.86989764584499
  0
ARC
  5
1632
330
1E
100
AcDbEntity
  8
SCHRAFF
100
AcDbCircle
 10
162.0825841424692
 20
350.7801881187059
 30
0.0
 40
5.0
100
AcDbArc
 50
308.1301023541564
 51
21.86989764584499
  0
ARC
  5
1633
330
1E
100
AcDbEntity
  8
SCHRAFF
100
AcDbCircle
 10
166.9122132739146
 20
349.4860928931934
 30
0.0
 40
5.0
100
AcDbArc
 50
308.1301023541564
 51
21.86989764584499
  0
ARC
  5
1634
330
1E
100
AcDbEntity
  8
SCHRAFF
100
AcDbCircle
 10
171.7418424053598
 20
348.1919976676808
 30
0.0
 40
5.0
100
AcDbArc
 50
308.1301023541564
 51
21.86989764584499
  0
ARC
  5
1635
330
1E
100
AcDbEntity
  8
SCHRAFF
100
AcDbCircle
 10
176.5714715368053
 20
346.8979024421682
 30
0.0
 40
5.0
100
AcDbArc
 50
308.1301023541564
 51
21.86989764584499
  0
ARC
  5
1636
330
1E
100
AcDbEntity
  8
SCHRAFF
100
AcDbCircle
 10
181.4011006682506
 20
345.6038072166557
 30
0.0
 40
5.0
100
AcDbArc
 50
308.1301023541564
 51
21.86989764584499
  0
ARC
  5
1637
330
1E
100
AcDbEntity
  8
SCHRAFF
100
AcDbCircle
 10
186.2307297996959
 20
344.309711991143
 30
0.0
 40
5.0
100
AcDbArc
 50
308.1301023541564
 51
21.86989764584499
  0
ARC
  5
1638
330
1E
100
AcDbEntity
  8
SCHRAFF
100
AcDbCircle
 10
191.0603589311413
 20
343.0156167656303
 30
0.0
 40
5.0
100
AcDbArc
 50
308.1301023541564
 51
21.86989764584499
  0
ARC
  5
1639
330
1E
100
AcDbEntity
  8
SCHRAFF
100
AcDbCircle
 10
195.8899880625866
 20
341.7215215401177
 30
0.0
 40
5.0
100
AcDbArc
 50
308.1301023541564
 51
21.86989764584499
  0
ARC
  5
163A
330
1E
100
AcDbEntity
  8
SCHRAFF
100
AcDbCircle
 10
200.719617194032
 20
340.4274263146052
 30
0.0
 40
5.0
100
AcDbArc
 50
308.1301023541564
 51
21.86989764584499
  0
ARC
  5
163B
330
1E
100
AcDbEntity
  8
SCHRAFF
100
AcDbCircle
 10
205.5492463254774
 20
339.1333310890926
 30
0.0
 40
5.0
100
AcDbArc
 50
308.1301023541564
 51
21.86989764584499
  0
ARC
  5
163C
330
1E
100
AcDbEntity
  8
SCHRAFF
100
AcDbCircle
 10
210.3788754569226
 20
337.83923586358
 30
0.0
 40
5.0
100
AcDbArc
 50
308.1301023541564
 51
21.86989764584499
  0
ARC
  5
163D
330
1E
100
AcDbEntity
  8
SCHRAFF
100
AcDbCircle
 10
215.208504588368
 20
336.5451406380674
 30
0.0
 40
5.0
100
AcDbArc
 50
308.1301023541564
 51
21.86989764584499
  0
ARC
  5
163E
330
1E
100
AcDbEntity
  8
SCHRAFF
100
AcDbCircle
 10
220.0381337198133
 20
335.2510454125548
 30
0.0
 40
5.0
100
AcDbArc
 50
308.1301023541564
 51
21.86989764584499
  0
ARC
  5
163F
330
1E
100
AcDbEntity
  8
SCHRAFF
100
AcDbCircle
 10
224.8677628512587
 20
333.9569501870422
 30
0.0
 40
5.0
100
AcDbArc
 50
308.1301023541564
 51
21.86989764584499
  0
ARC
  5
1640
330
1E
100
AcDbEntity
  8
SCHRAFF
100
AcDbCircle
 10
229.697391982704
 20
332.6628549615294
 30
0.0
 40
5.0
100
AcDbArc
 50
308.1301023541564
 51
21.86989764584499
  0
ARC
  5
1641
330
1E
100
AcDbEntity
  8
SCHRAFF
100
AcDbCircle
 10
234.5270211141493
 20
331.3687597360171
 30
0.0
 40
5.0
100
AcDbArc
 50
308.1301023541564
 51
21.86989764584499
  0
ARC
  5
1642
330
1E
100
AcDbEntity
  8
SCHRAFF
100
AcDbCircle
 10
239.3566502455947
 20
330.0746645105045
 30
0.0
 40
5.0
100
AcDbArc
 50
308.1301023541564
 51
21.86989764584499
  0
ARC
  5
1643
330
1E
100
AcDbEntity
  8
SCHRAFF
100
AcDbCircle
 10
244.18627937704
 20
328.7805692849918
 30
0.0
 40
5.0
100
AcDbArc
 50
308.1301023541564
 51
21.86989764584499
  0
ARC
  5
1644
330
1E
100
AcDbEntity
  8
SCHRAFF
100
AcDbCircle
 10
249.0159085084854
 20
327.4864740594792
 30
0.0
 40
5.0
100
AcDbArc
 50
308.1301023541564
 51
21.86989764584499
  0
ARC
  5
1646
330
1E
100
AcDbEntity
  8
SCHRAFF
100
AcDbCircle
 10
253.8455376399308
 20
326.1923788339665
 30
0.0
 40
5.0
100
AcDbArc
 50
308.1301023541564
 51
21.86989764584499
  0
ARC
  5
1647
330
1E
100
AcDbEntity
  8
SCHRAFF
100
AcDbCircle
 10
258.6751667713761
 20
324.898283608454
 30
0.0
 40
5.0
100
AcDbArc
 50
308.1301023541564
 51
21.86989764584499
  0
ARC
  5
1648
330
1E
100
AcDbEntity
  8
SCHRAFF
100
AcDbCircle
 10
263.5047959028214
 20
323.6041883829414
 30
0.0
 40
5.0
100
AcDbArc
 50
308.1301023541564
 51
21.86989764584499
  0
ARC
  5
1649
330
1E
100
AcDbEntity
  8
SCHRAFF
100
AcDbCircle
 10
268.3344250342667
 20
322.3100931574287
 30
0.0
 40
5.0
100
AcDbArc
 50
308.1301023541564
 51
21.86989764584499
  0
ARC
  5
164B
102
{ACAD_REACTORS
330
17AF
102
}
330
1E
100
AcDbEntity
  8
SCHRAFF
100
AcDbCircle
 10
274.5451672845287
 20
320.6459297870734
 30
0.0
 40
4.362648041815128
100
AcDbArc
 50
295.2245539603681
 51
34.77544603963226
  0
ARC
  5
164C
330
1E
100
AcDbEntity
  8
SCHRAFF
100
AcDbCircle
 10
118.9967336801569
 20
362.3250069552906
 30
0.0
 40
3.116644736322843
100
AcDbArc
 50
90.72499260628871
 51
239.2750073937122
  0
TEXT
  5
1655
330
1E
100
AcDbEntity
  8
BEM
100
AcDbText
 10
416.5811541437437
 20
12.14804815338303
 30
0.0
 40
4.0
  1
Diese Zeichnung ist urheberrechtlich geschützt und bleibt unser Eigentum. Sie darf weder ganz noch teilweise vervielfältigt und nicht an Dritte weitergegeben werden.
 50
90.0
 41
0.8
  7
GREEKS
100
AcDbText
  0
TEXT
  5
165A
330
1E
100
AcDbEntity
  8
TEXT
 62
     1
100
AcDbText
 10
367.247717454267
 20
62.91084877520188
 30
0.0
 40
7.0
  1

 41
0.8
  7
GREEKS
 72
     1
 11
367.247717454267
 21
62.91084877520188
 31
0.0
100
AcDbText
  0
HATCH
  5
17AB
330
1E
100
AcDbEntity
  8
SCHRAFF
100
AcDbHatch
 10
0.0
 20
0.0
 30
0.0
210
0.0
220
0.0
230
1.0
  2
_USER
 70
     0
 71
     0
 91
        1
 92
        7
 72
     1
 73
     1
 93
        3
 10
118.9572982433148
 20
365.441402189976
 42
0.7573235302008791
 10
117.4043839726996
 20
359.6458472322414
 42
0.0
 10
117.4043839726996
 20
362.7516757734718
 42
0.0
 97
        0
 75
     0
 76
     0
 52
0.0
 41
0.1
 77
     0
 78
     1
 53
0.0
 43
0.0
 44
-32.33449684811899
 45
0.0
 46
0.1
 79
     0
 47
0.0182618859075027
 98
        1
 10
117.267049213131
 20
363.5340263498181
  0
HATCH
  5
17AF
330
1E
100
AcDbEntity
  8
SCHRAFF
100
AcDbHatch
 10
0.0
 20
0.0
 30
0.0
210
0.0
220
0.0
230
1.0
  2
_USER
 70
     0
 71
     1
 91
        1
 92
        7
 72
     1
 73
     1
 93
        3
 10
278.1286189518631
 20
323.1342167650224
 42
0.0
 10
276.4043839726995
 20
320.1477541769236
 42
0.0
 10
276.4043839726995
 20
316.6992842185962
 42
0.4639241285209566
 97
        3
330
1207
330
EFF
330
164B
 75
     0
 76
     0
 52
0.0
 41
0.1
 77
     0
 78
     1
 53
0.0
 43
0.0
 44
-32.33449684811899
 45
0.0
 46
0.1
 79
     0
 47
0.1097378518480538
 98
        1
 10
278.0353626222918
 20
319.9640833751405
  0
DIMENSION
  5
17D5
330
1E
100
AcDbEntity
  8
BEM
100
AcDbDimension
  2
*D5
 10
196.9043839726994
 20
171.4497149751978
 30
0.0
 11
251.5295707253974
 21
545.3136873092039
 31
0.0
 70
    34
 71
     5
 42
0.5235987755982981
  3
Standard
100
AcDb2LineAngularDimension
 13
281.9043839726996
 23
488.6740336185521
 33
0.0
 14
196.9043839726995
 24
341.4497149751976
 34
0.0
 15
196.9043839726995
 25
341.4497149751976
 35
0.0
 16
266.86649039465
 26
533.6690225869878
 36
0.0
1001
ACAD
1000
DSTYLE
1002
{
1070
    40
1040
2.0
1070
    41
1040
3.5
1070
    42
1040
1.0
1070
    43
1040
7.0
1070
    44
1040
1.0
1070
    73
1070
     0
1070
    74
1070
     0
1070
    77
1070
     1
1070
    78
1070
     8
1070
    79
1070
     2
1070
   140
1040
3.5
1070
   141
1040
1.5
1070
   146
1040
0.5142857142857144
1070
   147
1040
1.5
1070
   172
1070
     1
1070
   178
1070
     1
1070
   179
1070
     2
1070
   271
1070
     2
1070
   272
1070
     2
1070
   284
1070
     8
1070
   285
1070
     8
1070
   286
1070
     8
1002
}
  0
TEXT
  5
17EF
330
1E
100
AcDbEntity
  8
TEXT
100
AcDbText
 10
193.7250163275297
 20
89.50724631152979
 30
0.0
 40
4.0
  1
DIN EN1124-3
 41
0.8
  7
GREEKS
 72
     1
 11
210.7154925180059
 21
89.50724631152979
 31
0.0
100
AcDbText
  0
TEXT
  5
182E
330
1E
100
AcDbEntity
  8
TEXT
100
AcDbText
 10
171.1059845537778
 20
63.29410943275277
 30
0.0
 40
4.24
  1
14.04.
 41
0.8
  7
GREEKS
 72
     1
 11
178.2130321728255
 21
63.29410943275277
 31
0.0
100
AcDbText
  0
ENDSEC
  0
SECTION
  2
OBJECTS
  0
DICTIONARY
  5
C
330
0
100
AcDbDictionary
281
     1
  3
ACAD_COLOR
350
1607
  3
ACAD_GROUP
350
D
  3
ACAD_LAYOUT
350
19
  3
ACAD_MATERIAL
350
1606
  3
ACAD_MLINESTYLE
350
16
  3
ACAD_PLOTSETTINGS
350
18
  3
ACAD_PLOTSTYLENAME
350
E
  3
AcDbVariableDictionary
350
246
  0
DICTIONARY
  5
1607
102
{ACAD_REACTORS
330
C
102
}
330
C
100
AcDbDictionary
281
     1
  0
DICTIONARY
  5
D
102
{ACAD_REACTORS
330
C
102
}
330
C
100
AcDbDictionary
281
     1
  0
DICTIONARY
  5
19
102
{ACAD_REACTORS
330
C
102
}
330
C
100
AcDbDictionary
281
     1
  3
Layout1
350
1D
  3
Model
350
21
  0
DICTIONARY
  5
1606
102
{ACAD_REACTORS
330
C
102
}
330
C
100
AcDbDictionary
281
     1
  0
DICTIONARY
  5
16
102
{ACAD_REACTORS
330
C
102
}
330
C
100
AcDbDictionary
281
     1
  3
Standard
350
17
  0
DICTIONARY
  5
18
102
{ACAD_REACTORS
330
C
102
}
330
C
100
AcDbDictionary
281
     1
  0
ACDBDICTIONARYWDFLT
  5
E
102
{ACAD_REACTORS
330
C
102
}
330
C
100
AcDbDictionary
281
     1
  3
Normal
350
F
100
AcDbDictionaryWithDefault
340
F
  0
DICTIONARY
  5
246
102
{ACAD_REACTORS
330
C
102
}
330
C
100
AcDbDictionary
281
     1
  3
DIMASSOC
350
16CB
  3
PROJECTNAME
350
16CC
  3
SORTENTS
350
247
  0
LAYOUT
  5
1D
102
{ACAD_REACTORS
330
19
102
}
330
19
100
AcDbPlotSettings
  1

  2
Tektronix Phaser 740
  4

  6

 40
0.0
 41
0.0
 42
0.0
 43
0.0
 44
0.0
 45
0.0
 46
0.0
 47
0.0
 48
0.0
 49
0.0
140
0.0
141
0.0
142
1.0
143
1.0
 70
   688
 72
     0
 73
     0
 74
     5
  7
monochrome.ctb
 75
    16
147
1.0
 76
     0
 77
     2
 78
   300
148
0.0
149
0.0
100
AcDbLayout
  1
Layout1
 70
     0
 71
     1
 10
0.0
 20
0.0
 11
12.0
 21
9.0
 12
0.0
 22
0.0
 32
0.0
 14
1.000000000000000E+20
 24
1.000000000000000E+20
 34
1.000000000000000E+20
 15
-1.000000000000000E+20
 25
-1.000000000000000E+20
 35
-1.000000000000000E+20
146
0.0
 13
0.0
 23
0.0
 33
0.0
 16
1.0
 26
0.0
 36
0.0
 17
0.0
 27
1.0
 37
0.0
 76
     0
330
1A
  0
LAYOUT
  5
21
102
{ACAD_REACTORS
330
19
102
}
330
19
100
AcDbPlotSettings
  1

  2
Tektronix Phaser 740
  4
A4
  6

 40
5.873749732971191
 41
6.085414409637451
 42
5.577407836914062
 43
5.662078857421875
 44
209.9733276367187
 45
296.9683227539062
 46
0.0
 47
0.0
 48
0.0
 49
0.0
140
0.0
141
0.0
142
1.0
143
1.0
 70
 11952
 72
     0
 73
     1
 74
     0
  7
monochrome.ctb
 75
     0
147
1.0
 76
     0
 77
     2
 78
   300
148
1150.120678237584
149
45.30495740799864
100
AcDbLayout
  1
Model
 70
     1
 71
     0
 10
0.0
 20
0.0
 11
12.0
 21
9.0
 12
0.0
 22
0.0
 32
0.0
 14
0.0
 24
0.0
 34
0.0
 15
0.0
 25
0.0
 35
0.0
146
0.0
 13
0.0
 23
0.0
 33
0.0
 16
1.0
 26
0.0
 36
0.0
 17
0.0
 27
1.0
 37
0.0
 76
     0
330
1E
  0
MLINESTYLE
  5
17
102
{ACAD_REACTORS
330
16
102
}
330
16
100
AcDbMlineStyle
  2
STANDARD
 70
     0
  3

 62
   256
 51
90.0
 52
90.0
 71
     2
 49
0.5
 62
   256
  6
BYLAYER
 49
-0.5
 62
   256
  6
BYLAYER
  0
ACDBPLACEHOLDER
  5
F
102
{ACAD_REACTORS
330
E
102
}
330
E
  0
DICTIONARYVAR
  5
16CB
102
{ACAD_REACTORS
330
246
102
}
330
246
100
DictionaryVariables
280
     0
  1
1
  0
DICTIONARYVAR
  5
16CC
102
{ACAD_REACTORS
330
246
102
}
330
246
100
DictionaryVariables
280
     0
  1

  0
DICTIONARYVAR
  5
247
102
{ACAD_REACTORS
330
246
102
}
330
246
100
DictionaryVariables
280
     0
  1
96
  0
ENDSEC
  0
EOF
