  0
SECTION
  2
HEADER
  9
$ACADVER
  1
AC1018
  9
$ACADMAINTVER
 70
     2
  9
$DWGCODEPAGE
  3
ANSI_1252
  9
$INSBASE
 10
0.0
 20
0.0
 30
0.0
  9
$EXTMIN
 10
-0.0128164049388033
 20
-0.0181260584133725
 30
-0.0015258207003583
  9
$EXTMAX
 10
420.012818360716
 20
594.0181288244416
 30
0.0000000349246037
  9
$LIMMIN
 10
0.0
 20
0.0
  9
$LIMMAX
 10
419.9999999999999
 20
594.0000000000002
  9
$ORTHOMODE
 70
     1
  9
$REGENMODE
 70
     1
  9
$FILLMODE
 70
     1
  9
$QTEXTMODE
 70
     0
  9
$MIRRTEXT
 70
     1
  9
$LTSCALE
 40
20.0
  9
$ATTMODE
 70
     1
  9
$TEXTSIZE
 40
3.5
  9
$TRACEWID
 40
0.5
  9
$TEXTSTYLE
  7
STANDARD
  9
$CLAYER
  8
VOLL
  9
$CELTYPE
  6
ByLayer
  9
$CECOLOR
 62
   256
  9
$CELTSCALE
 40
1.0
  9
$DISPSILH
 70
     0
  9
$DIMSCALE
 40
2.0
  9
$DIMASZ
 40
3.5
  9
$DIMEXO
 40
1.0
  9
$DIMDLI
 40
7.0
  9
$DIMRND
 40
0.0
  9
$DIMDLE
 40
0.0
  9
$DIMEXE
 40
1.0
  9
$DIMTP
 40
0.0
  9
$DIMTM
 40
0.0
  9
$DIMTXT
 40
3.5
  9
$DIMCEN
 40
1.5
  9
$DIMTSZ
 40
0.0
  9
$DIMTOL
 70
     0
  9
$DIMLIM
 70
     0
  9
$DIMTIH
 70
     0
  9
$DIMTOH
 70
     0
  9
$DIMSE1
 70
     0
  9
$DIMSE2
 70
     0
  9
$DIMTAD
 70
     1
  9
$DIMZIN
 70
     8
  9
$DIMBLK
  1

  9
$DIMASO
 70
     1
  9
$DIMSHO
 70
     0
  9
$DIMPOST
  1

  9
$DIMAPOST
  1

  9
$DIMALT
 70
     0
  9
$DIMALTD
 70
     2
  9
$DIMALTF
 40
25.4
  9
$DIMLFAC
 40
1.0
  9
$DIMTOFL
 70
     1
  9
$DIMTVP
 40
0.0
  9
$DIMTIX
 70
     0
  9
$DIMSOXD
 70
     0
  9
$DIMSAH
 70
     0
  9
$DIMBLK1
  1

  9
$DIMBLK2
  1

  9
$DIMSTYLE
  2
Standard
  9
$DIMCLRD
 70
     0
  9
$DIMCLRE
 70
     0
  9
$DIMCLRT
 70
     1
  9
$DIMTFAC
 40
0.5142857142857144
  9
$DIMGAP
 40
1.5
  9
$DIMJUST
 70
     0
  9
$DIMSD1
 70
     0
  9
$DIMSD2
 70
     0
  9
$DIMTOLJ
 70
     1
  9
$DIMTZIN
 70
     8
  9
$DIMALTZ
 70
     8
  9
$DIMALTTZ
 70
     8
  9
$DIMUPT
 70
     0
  9
$DIMDEC
 70
     2
  9
$DIMTDEC
 70
     2
  9
$DIMALTU
 70
     2
  9
$DIMALTTD
 70
     2
  9
$DIMTXSTY
  7
STANDARD
  9
$DIMAUNIT
 70
     0
  9
$DIMADEC
 70
     2
  9
$DIMALTRND
 40
0.0
  9
$DIMAZIN
 70
     2
  9
$DIMDSEP
 70
    46
  9
$DIMATFIT
 70
     3
  9
$DIMFRAC
 70
     0
  9
$DIMLDRBLK
  1

  9
$DIMLUNIT
 70
     2
  9
$DIMLWD
 70
    -2
  9
$DIMLWE
 70
    -2
  9
$DIMTMOVE
 70
     0
  9
$LUNITS
 70
     2
  9
$LUPREC
 70
     2
  9
$SKETCHINC
 40
1.0
  9
$FILLETRAD
 40
0.0
  9
$AUNITS
 70
     1
  9
$AUPREC
 70
     3
  9
$MENU
  1
ACAD
  9
$ELEVATION
 40
0.0
  9
$PELEVATION
 40
0.0
  9
$THICKNESS
 40
0.0
  9
$LIMCHECK
 70
     0
  9
$CHAMFERA
 40
0.0
  9
$CHAMFERB
 40
0.0
  9
$CHAMFERC
 40
0.0
  9
$CHAMFERD
 40
0.0
  9
$SKPOLY
 70
     0
  9
$TDCREATE
 40
2452040.637099653
  9
$TDUCREATE
 40
2452040.553766320
  9
$TDUPDATE
 40
2455666.543643055
  9
$TDUUPDATE
 40
2455666.460309722
  9
$TDINDWG
 40
0.3847702315
  9
$TDUSRTIMER
 40
0.3847702315
  9
$USRTIMER
 70
     1
  9
$ANGBASE
 50
0.0
  9
$ANGDIR
 70
     0
  9
$PDMODE
 70
     0
  9
$PDSIZE
 40
0.0
  9
$PLINEWID
 40
0.0
  9
$SPLFRAME
 70
     0
  9
$SPLINETYPE
 70
     6
  9
$SPLINESEGS
 70
     8
  9
$HANDSEED
  5
1792
  9
$SURFTAB1
 70
     6
  9
$SURFTAB2
 70
     6
  9
$SURFTYPE
 70
     6
  9
$SURFU
 70
     6
  9
$SURFV
 70
     6
  9
$UCSBASE
  2

  9
$UCSNAME
  2

  9
$UCSORG
 10
0.0
 20
0.0
 30
0.0
  9
$UCSXDIR
 10
1.0
 20
0.0
 30
0.0
  9
$UCSYDIR
 10
0.0
 20
1.0
 30
0.0
  9
$UCSORTHOREF
  2

  9
$UCSORTHOVIEW
 70
     0
  9
$UCSORGTOP
 10
0.0
 20
0.0
 30
0.0
  9
$UCSORGBOTTOM
 10
0.0
 20
0.0
 30
0.0
  9
$UCSORGLEFT
 10
0.0
 20
0.0
 30
0.0
  9
$UCSORGRIGHT
 10
0.0
 20
0.0
 30
0.0
  9
$UCSORGFRONT
 10
0.0
 20
0.0
 30
0.0
  9
$UCSORGBACK
 10
0.0
 20
0.0
 30
0.0
  9
$PUCSBASE
  2

  9
$PUCSNAME
  2

  9
$PUCSORG
 10
0.0
 20
0.0
 30
0.0
  9
$PUCSXDIR
 10
1.0
 20
0.0
 30
0.0
  9
$PUCSYDIR
 10
0.0
 20
1.0
 30
0.0
  9
$PUCSORTHOREF
  2

  9
$PUCSORTHOVIEW
 70
     0
  9
$PUCSORGTOP
 10
0.0
 20
0.0
 30
0.0
  9
$PUCSORGBOTTOM
 10
0.0
 20
0.0
 30
0.0
  9
$PUCSORGLEFT
 10
0.0
 20
0.0
 30
0.0
  9
$PUCSORGRIGHT
 10
0.0
 20
0.0
 30
0.0
  9
$PUCSORGFRONT
 10
0.0
 20
0.0
 30
0.0
  9
$PUCSORGBACK
 10
0.0
 20
0.0
 30
0.0
  9
$USERI1
 70
     0
  9
$USERI2
 70
     0
  9
$USERI3
 70
     0
  9
$USERI4
 70
     0
  9
$USERI5
 70
     0
  9
$USERR1
 40
0.0
  9
$USERR2
 40
0.0
  9
$USERR3
 40
0.0
  9
$USERR4
 40
0.0
  9
$USERR5
 40
0.0
  9
$WORLDVIEW
 70
     1
  9
$SHADEDGE
 70
     3
  9
$SHADEDIF
 70
    70
  9
$TILEMODE
 70
     1
  9
$MAXACTVP
 70
    16
  9
$PINSBASE
 10
0.0
 20
0.0
 30
0.0
  9
$PLIMCHECK
 70
     0
  9
$PEXTMIN
 10
1.000000000000000E+20
 20
1.000000000000000E+20
 30
1.000000000000000E+20
  9
$PEXTMAX
 10
-1.000000000000000E+20
 20
-1.000000000000000E+20
 30
-1.000000000000000E+20
  9
$PLIMMIN
 10
0.0
 20
0.0
  9
$PLIMMAX
 10
12.0
 20
9.0
  9
$UNITMODE
 70
     0
  9
$VISRETAIN
 70
     0
  9
$PLINEGEN
 70
     0
  9
$PSLTSCALE
 70
     0
  9
$TREEDEPTH
 70
  3020
  9
$CMLSTYLE
  2
Standard
  9
$CMLJUST
 70
     0
  9
$CMLSCALE
 40
1.0
  9
$PROXYGRAPHICS
 70
     1
  9
$MEASUREMENT
 70
     0
  9
$CELWEIGHT
370
    -1
  9
$ENDCAPS
280
     0
  9
$JOINSTYLE
280
     0
  9
$LWDISPLAY
290
     0
  9
$INSUNITS
 70
     0
  9
$HYPERLINKBASE
  1

  9
$STYLESHEET
  1
monochrome 1.ctb
  9
$XEDIT
290
     1
  9
$CEPSNTYPE
380
     0
  9
$PSTYLEMODE
290
     1
  9
$FINGERPRINTGUID
  2
{7AADB5C8-6110-11D8-B72B-000102183313}
  9
$VERSIONGUID
  2
{3473809A-38A7-4AEF-B410-869F5BA67AC6}
  9
$EXTNAMES
290
     1
  9
$PSVPSCALE
 40
0.0
  9
$OLESTARTUP
290
     0
  9
$SORTENTS
280
    96
  9
$INDEXCTL
280
     0
  9
$HIDETEXT
280
     0
  9
$XCLIPFRAME
290
     0
  9
$HALOGAP
280
     0
  9
$OBSCOLOR
 70
   257
  9
$OBSLTYPE
280
     0
  9
$INTERSECTIONDISPLAY
280
     0
  9
$INTERSECTIONCOLOR
 70
   257
  9
$DIMASSOC
280
     1
  9
$PROJECTNAME
  1

  0
ENDSEC
  0
SECTION
  2
CLASSES
  0
CLASS
  1
ACDBDICTIONARYWDFLT
  2
AcDbDictionaryWithDefault
  3
ObjectDBX Classes
 90
        0
 91
        1
280
     0
281
     0
  0
CLASS
  1
DICTIONARYVAR
  2
AcDbDictionaryVar
  3
ObjectDBX Classes
 90
        0
 91
        3
280
     0
281
     0
  0
ENDSEC
  0
SECTION
  2
TABLES
  0
TABLE
  2
VPORT
  5
8
330
0
100
AcDbSymbolTable
 70
     3
  0
VPORT
  5
1791
330
8
100
AcDbSymbolTableRecord
100
AcDbViewportTableRecord
  2
*Active
 70
     0
 10
0.0
 20
0.0
 11
1.0
 21
1.0
 12
210.0
 22
297.0
 13
0.0
 23
0.0
 14
1.0
 24
1.0
 15
10.0
 25
10.0
 16
0.0
 26
0.0
 36
1.0
 17
0.0
 27
0.0
 37
0.0
 40
594.0
 41
1.334231805929919
 42
50.0
 43
0.0
 44
0.0
 50
0.0
 51
0.0
 71
     0
 72
  1500
 73
     1
 74
     0
 75
     0
 76
     0
 77
     0
 78
     0
281
     0
 65
     1
110
0.0
120
0.0
130
0.0
111
1.0
121
0.0
131
0.0
112
0.0
122
1.0
132
0.0
 79
     0
146
0.0
  0
ENDTAB
  0
TABLE
  2
LTYPE
  5
5
330
0
100
AcDbSymbolTable
 70
     2
  0
LTYPE
  5
13
330
5
100
AcDbSymbolTableRecord
100
AcDbLinetypeTableRecord
  2
ByBlock
 70
     0
  3

 72
    65
 73
     0
 40
0.0
  0
LTYPE
  5
14
330
5
100
AcDbSymbolTableRecord
100
AcDbLinetypeTableRecord
  2
ByLayer
 70
     0
  3

 72
    65
 73
     0
 40
0.0
  0
LTYPE
  5
15
330
5
100
AcDbSymbolTableRecord
100
AcDbLinetypeTableRecord
  2
Continuous
 70
     0
  3
Solid line
 72
    65
 73
     0
 40
0.0
  0
LTYPE
  5
35
330
5
100
AcDbSymbolTableRecord
100
AcDbLinetypeTableRecord
  2
STRICHPUNKT
 70
     0
  3
__ . __ . __ . __ . __ . __ . __ . __ . __ . __
 72
    65
 73
     4
 40
1.0
 49
0.5
 74
     0
 49
-0.25
 74
     0
 49
0.0
 74
     0
 49
-0.25
 74
     0
  0
ENDTAB
  0
TABLE
  2
LAYER
  5
2
330
0
100
AcDbSymbolTable
 70
     9
  0
LAYER
  5
10
330
2
100
AcDbSymbolTableRecord
100
AcDbLayerTableRecord
  2
0
 70
     0
 62
     7
  6
Continuous
370
    -3
390
F
  0
LAYER
  5
38
330
2
100
AcDbSymbolTableRecord
100
AcDbLayerTableRecord
  2
VOLL
 70
     0
 62
     1
  6
Continuous
370
    -3
390
F
  0
LAYER
  5
39
330
2
100
AcDbSymbolTableRecord
100
AcDbLayerTableRecord
  2
HILF
 70
     0
 62
     2
  6
Continuous
370
    -3
390
F
  0
LAYER
  5
3A
330
2
100
AcDbSymbolTableRecord
100
AcDbLayerTableRecord
  2
MITTEL
 70
     0
 62
     2
  6
STRICHPUNKT
370
    -3
390
F
  0
LAYER
  5
3B
330
2
100
AcDbSymbolTableRecord
100
AcDbLayerTableRecord
  2
BEM
 70
     0
 62
     7
  6
Continuous
370
    -3
390
F
  0
LAYER
  5
3C
330
2
100
AcDbSymbolTableRecord
100
AcDbLayerTableRecord
  2
STEMPEL
 70
     0
 62
     3
  6
Continuous
370
    -3
390
F
  0
LAYER
  5
3D
330
2
100
AcDbSymbolTableRecord
100
AcDbLayerTableRecord
  2
TEXT
 70
     0
 62
     7
  6
Continuous
370
    -3
390
F
  0
LAYER
  5
3E
330
2
100
AcDbSymbolTableRecord
100
AcDbLayerTableRecord
  2
DEFPOINTS
 70
     0
 62
     7
  6
Continuous
290
     0
370
    -3
390
F
  0
LAYER
  5
3F
330
2
100
AcDbSymbolTableRecord
100
AcDbLayerTableRecord
  2
SCHRAFF
 70
     0
 62
     7
  6
Continuous
370
    -3
390
F
  0
ENDTAB
  0
TABLE
  2
STYLE
  5
3
330
0
100
AcDbSymbolTable
 70
     2
  0
STYLE
  5
11
330
3
100
AcDbSymbolTableRecord
100
AcDbTextStyleTableRecord
  2
STANDARD
 70
     0
 40
0.0
 41
0.8
 50
0.0
 71
     0
 42
3.5
  3
simplex.shx
  4

  0
STYLE
  5
34
330
3
100
AcDbSymbolTableRecord
100
AcDbTextStyleTableRecord
  2
GREEKS
 70
     0
 40
0.0
 41
0.8
 50
0.0
 71
     0
 42
2.5
  3
SIMPLEX.shx
  4

  0
ENDTAB
  0
TABLE
  2
VIEW
  5
6
330
0
100
AcDbSymbolTable
 70
     0
  0
ENDTAB
  0
TABLE
  2
UCS
  5
7
330
0
100
AcDbSymbolTable
 70
     0
  0
ENDTAB
  0
TABLE
  2
APPID
  5
9
330
0
100
AcDbSymbolTable
 70
     1
  0
APPID
  5
12
330
9
100
AcDbSymbolTableRecord
100
AcDbRegAppTableRecord
  2
ACAD
 70
     0
  0
ENDTAB
  0
TABLE
  2
DIMSTYLE
  5
A
330
0
100
AcDbSymbolTable
 70
     1
100
AcDbDimStyleTable
 71
     1
340
1CB
  0
DIMSTYLE
105
1CB
102
{ACAD_REACTORS
330
1208
330
1256
330
107C
330
15D7
102
}
330
A
100
AcDbSymbolTableRecord
100
AcDbDimStyleTableRecord
  2
Standard
 70
     0
340
11
  0
ENDTAB
  0
TABLE
  2
BLOCK_RECORD
  5
1
330
0
100
AcDbSymbolTable
 70
     8
  0
BLOCK_RECORD
  5
1E
330
1
100
AcDbSymbolTableRecord
100
AcDbBlockTableRecord
  2
*Model_Space
340
21
  0
BLOCK_RECORD
  5
1A
330
1
100
AcDbSymbolTableRecord
100
AcDbBlockTableRecord
  2
*Paper_Space
340
1D
  0
BLOCK_RECORD
  5
22
330
1
100
AcDbSymbolTableRecord
100
AcDbBlockTableRecord
  2
LOGO
340
0
102
{BLKREFS
331
135
102
}
  0
BLOCK_RECORD
  5
1093
330
1
100
AcDbSymbolTableRecord
100
AcDbBlockTableRecord
  2
*D1
340
0
  0
BLOCK_RECORD
  5
1220
330
1
100
AcDbSymbolTableRecord
100
AcDbBlockTableRecord
  2
*D3
340
0
  0
BLOCK_RECORD
  5
1257
330
1
100
AcDbSymbolTableRecord
100
AcDbBlockTableRecord
  2
*D4
340
0
  0
BLOCK_RECORD
  5
15D8
330
1
100
AcDbSymbolTableRecord
100
AcDbBlockTableRecord
  2
*D5
340
0
  0
ENDTAB
  0
ENDSEC
  0
SECTION
  2
BLOCKS
  0
BLOCK
  5
43
330
1E
100
AcDbEntity
  8
0
100
AcDbBlockBegin
  2
*Model_Space
 70
     0
 10
0.0
 20
0.0
 30
0.0
  3
*Model_Space
  1

  0
ENDBLK
  5
44
330
1E
100
AcDbEntity
  8
0
100
AcDbBlockEnd
  0
BLOCK
  5
41
330
1A
100
AcDbEntity
 67
     1
  8
0
100
AcDbBlockBegin
  2
*Paper_Space
 70
     0
 10
0.0
 20
0.0
 30
0.0
  3
*Paper_Space
  1

  0
ENDBLK
  5
42
330
1A
100
AcDbEntity
 67
     1
  8
0
100
AcDbBlockEnd
  0
BLOCK
  5
45
330
22
100
AcDbEntity
  8
0
100
AcDbBlockBegin
  2
LOGO
 70
     0
 10
0.0
 20
0.0
 30
0.0
  3
LOGO
  1

  0
ARC
  5
46
330
22
100
AcDbEntity
  8
0
100
AcDbCircle
 10
11.59973089678112
 20
-9.271599258481501
 30
0.0
 40
4.5
100
AcDbArc
 50
270.0
 51
231.0575587310159
  0
LINE
  5
47
330
22
100
AcDbEntity
  8
0
100
AcDbLine
 10
3.599730896781125
 20
-4.771599258481529
 30
0.0
 11
3.599730896781153
 21
-11.77159925848133
 31
0.0
  0
LINE
  5
48
330
22
100
AcDbEntity
  8
0
100
AcDbLine
 10
2.599730896781125
 20
-4.771599258481529
 30
0.0
 11
2.599730896781153
 21
-11.77159925848133
 31
0.0
  0
CIRCLE
  5
49
330
22
100
AcDbEntity
  8
0
100
AcDbCircle
 10
11.59973089678112
 20
-9.271599258481501
 30
0.0
 40
3.5
  0
ARC
  5
4A
330
22
100
AcDbEntity
  8
0
100
AcDbCircle
 10
31.59973089678115
 20
-9.271599258481472
 30
0.0
 40
4.5
100
AcDbArc
 50
270.0
 51
231.0575587310182
  0
LINE
  5
4B
330
22
100
AcDbEntity
  8
0
100
AcDbLine
 10
17.59973089678112
 20
-4.771599258481472
 30
0.0
 11
17.59973089678115
 21
-13.77159925848147
 31
0.0
  0
ARC
  5
4C
330
22
100
AcDbEntity
  8
0
100
AcDbCircle
 10
22.59973089678116
 20
-7.271599258481472
 30
0.0
 40
2.5
100
AcDbArc
 50
293.1161887722295
 51
90.0
  0
CIRCLE
  5
4D
330
22
100
AcDbEntity
  8
0
100
AcDbCircle
 10
31.59973089678115
 20
-9.271599258481472
 30
0.0
 40
3.5
  0
ARC
  5
4E
330
22
100
AcDbEntity
  8
0
100
AcDbCircle
 10
4.599730896781153
 20
-11.77159925848133
 30
0.0
 40
1.0
100
AcDbArc
 50
180.0
 51
270.0
  0
ARC
  5
4F
330
22
100
AcDbEntity
  8
0
100
AcDbCircle
 10
4.599730896781153
 20
-11.77159925848133
 30
0.0
 40
2.0
100
AcDbArc
 50
179.9999999999992
 51
270.0
  0
LINE
  5
50
330
22
100
AcDbEntity
  8
0
100
AcDbLine
 10
11.59973089678115
 20
-13.77159925848144
 30
0.0
 11
4.599730896781153
 21
-13.77159925848147
 31
0.0
  0
LINE
  5
51
330
22
100
AcDbEntity
  8
0
100
AcDbLine
 10
8.771303772034769
 20
-12.77159925848136
 30
0.0
 11
4.599730896781153
 21
-12.77159925848133
 31
0.0
  0
LINE
  5
52
330
22
100
AcDbEntity
  8
0
100
AcDbLine
 10
31.59973089678115
 20
-13.77159925848147
 30
0.0
 11
23.6715276665056
 21
-13.77159925848144
 31
0.0
  0
LINE
  5
53
330
22
100
AcDbEntity
  8
0
100
AcDbLine
 10
23.56565672307022
 20
-9.51278021337896
 30
0.0
 11
24.4388546544846
 21
-12.77159925848144
 31
0.0
  0
LINE
  5
54
330
22
100
AcDbEntity
  8
0
100
AcDbLine
 10
22.59973089678116
 20
-9.771599258481472
 30
0.0
 11
18.59973089678112
 21
-9.771599258481472
 31
0.0
  0
LINE
  5
55
330
22
100
AcDbEntity
  8
0
100
AcDbLine
 10
18.59973089678115
 20
-13.77159925848144
 30
0.0
 11
17.59973089678115
 21
-13.77159925848144
 31
0.0
  0
LINE
  5
56
330
22
100
AcDbEntity
  8
0
100
AcDbLine
 10
18.59973089678115
 20
-9.771599258481472
 30
0.0
 11
18.59973089678115
 21
-13.77159925848144
 31
0.0
  0
LINE
  5
57
330
22
100
AcDbEntity
  8
0
100
AcDbLine
 10
22.59973089678116
 20
-9.771599258481472
 30
0.0
 11
23.67152766650562
 21
-13.77159925848147
 31
0.0
  0
ARC
  5
58
330
22
100
AcDbEntity
  8
0
100
AcDbCircle
 10
22.59973089678116
 20
-7.271599258481472
 30
0.0
 40
2.5
100
AcDbArc
 50
270.0
 51
270.0000000000007
  0
LINE
  5
59
330
22
100
AcDbEntity
  8
0
100
AcDbLine
 10
28.77130377203494
 20
-12.77159925848147
 30
0.0
 11
24.43885465448463
 21
-12.77159925848144
 31
0.0
  0
LINE
  5
5A
330
22
100
AcDbEntity
  8
0
100
AcDbLine
 10
3.599730896781125
 20
-4.771599258481472
 30
0.0
 11
2.599730896781125
 21
-4.771599258481472
 31
0.0
  0
LINE
  5
5B
330
22
100
AcDbEntity
  8
0
100
AcDbLine
 10
22.59973089678116
 20
-8.771599258481472
 30
0.0
 11
18.59973089678115
 21
-8.771599258481472
 31
0.0
  0
LINE
  5
5C
330
22
100
AcDbEntity
  8
0
100
AcDbLine
 10
22.59973089678116
 20
-5.771599258481472
 30
0.0
 11
18.59973089678115
 21
-5.771599258481472
 31
0.0
  0
LINE
  5
5D
330
22
100
AcDbEntity
  8
0
100
AcDbLine
 10
22.59973089678116
 20
-4.771599258481472
 30
0.0
 11
17.59973089678115
 21
-4.771599258481472
 31
0.0
  0
LINE
  5
5E
330
22
100
AcDbEntity
  8
0
100
AcDbLine
 10
18.59973089678115
 20
-5.771599258481472
 30
0.0
 11
18.59973089678115
 21
-8.771599258481472
 31
0.0
  0
ARC
  5
5F
330
22
100
AcDbEntity
  8
0
100
AcDbCircle
 10
22.59973089678116
 20
-7.271599258481472
 30
0.0
 40
1.5
100
AcDbArc
 50
270.0
 51
90.0
  0
ENDBLK
  5
60
330
22
100
AcDbEntity
  8
0
100
AcDbBlockEnd
  0
BLOCK
  5
109D
330
1093
100
AcDbEntity
  8
0
100
AcDbBlockBegin
  2
*D1
 70
     1
 10
0.0
 20
0.0
 30
0.0
  3
*D1
  1

  0
LINE
  5
16A7
330
1093
100
AcDbEntity
  8
BEM
 62
     0
370
    -2
100
AcDbLine
 10
105.4580711151935
 20
163.0651468977585
 30
0.0
 11
105.4580711151935
 21
132.6413744163305
 31
0.0
  0
LINE
  5
16A8
330
1093
100
AcDbEntity
  8
BEM
 62
     0
370
    -2
100
AcDbLine
 10
264.4580711151937
 20
163.0651468977575
 30
0.0
 11
264.4580711151937
 21
132.6413744163305
 31
0.0
  0
LINE
  5
16A9
330
1093
100
AcDbEntity
  8
BEM
 62
     0
370
    -2
100
AcDbLine
 10
112.4580711151935
 20
134.6413744163305
 30
0.0
 11
257.4580711151936
 21
134.6413744163305
 31
0.0
  0
SOLID
  5
16AA
330
1093
100
AcDbEntity
  8
BEM
 62
     0
100
AcDbTrace
 10
112.4580711151935
 20
135.8080410829972
 30
0.0
 11
112.4580711151935
 21
133.4747077496639
 31
0.0
 12
105.4580711151935
 22
134.6413744163305
 32
0.0
 13
105.4580711151935
 23
134.6413744163305
 33
0.0
  0
SOLID
  5
16AB
330
1093
100
AcDbEntity
  8
BEM
 62
     0
100
AcDbTrace
 10
257.4580711151936
 20
135.8080410829972
 30
0.0
 11
257.4580711151936
 21
133.4747077496639
 31
0.0
 12
264.4580711151937
 22
134.6413744163305
 32
0.0
 13
264.4580711151937
 23
134.6413744163305
 33
0.0
  0
MTEXT
  5
16AC
330
1093
100
AcDbEntity
  8
BEM
 62
     1
100
AcDbMText
 10
184.9580711151936
 20
141.1413744163305
 30
0.0
 40
7.0
 41
0.0
 71
     5
 72
     1
  1
\A1;%%c159
 73
     1
 44
1.0
  0
POINT
  5
16AD
330
1093
100
AcDbEntity
  8
DEFPOINTS
 62
     0
100
AcDbPoint
 10
105.4580711151935
 20
165.0651468977585
 30
0.0
  0
POINT
  5
16AE
330
1093
100
AcDbEntity
  8
DEFPOINTS
 62
     0
100
AcDbPoint
 10
264.4580711151937
 20
165.0651468977575
 30
0.0
  0
POINT
  5
16AF
330
1093
100
AcDbEntity
  8
DEFPOINTS
 62
     0
100
AcDbPoint
 10
264.4580711151937
 20
134.6413744163305
 30
0.0
  0
ENDBLK
  5
109E
330
1093
100
AcDbEntity
  8
0
100
AcDbBlockEnd
  0
BLOCK
  5
122A
330
1220
100
AcDbEntity
  8
0
100
AcDbBlockBegin
  2
*D3
 70
     1
 10
0.0
 20
0.0
 30
0.0
  3
*D3
  1

  0
LINE
  5
1694
330
1220
100
AcDbEntity
  8
BEM
 62
     0
370
    -2
100
AcDbLine
 10
183.54385755282
 20
351.4793604601309
 30
0.0
 11
110.2776891527362
 21
424.7455288601972
 31
0.0
  0
LINE
  5
1695
330
1220
100
AcDbEntity
  8
BEM
 62
     0
370
    -2
100
AcDbLine
 10
260.8624012514621
 20
549.9324614242425
 30
0.0
 11
248.1635114841038
 21
562.6313511915977
 31
0.0
  0
LINE
  5
1696
330
1220
100
AcDbEntity
  8
BEM
 62
     0
370
    -2
100
AcDbLine
 10
116.6416501834147
 20
428.2810627661307
 30
0.0
 11
244.6279775781718
 21
556.2673901609184
 31
0.0
  0
SOLID
  5
1697
330
1220
100
AcDbEntity
  8
BEM
 62
     0
100
AcDbTrace
 10
115.8166922720303
 20
429.1060206775149
 30
0.0
 11
117.4666080947991
 21
427.4561048547464
 31
0.0
 12
111.6919027151094
 22
423.3313152978243
 32
0.0
 13
111.6919027151094
 23
423.3313152978243
 33
0.0
  0
SOLID
  5
1698
330
1220
100
AcDbEntity
  8
BEM
 62
     0
100
AcDbTrace
 10
243.8030196667874
 20
557.0923480723027
 30
0.0
 11
245.4529354895562
 21
555.4424322495342
 31
0.0
 12
249.5777250464771
 22
561.2171376292248
 32
0.0
 13
249.5777250464771
 23
561.2171376292248
 33
0.0
  0
MTEXT
  5
1699
330
1220
100
AcDbEntity
  8
BEM
 62
     1
100
AcDbMText
 10
176.0386198030802
 20
496.8704205412366
 30
0.0
 40
7.0
 41
0.0
 71
     5
 72
     1
  1
\A1;195
 11
0.7071067811864631
 21
0.707106781186632
 31
0.0
 73
     1
 44
1.0
  0
POINT
  5
169A
330
1220
100
AcDbEntity
  8
DEFPOINTS
 62
     0
100
AcDbPoint
 10
184.9580711151933
 20
350.065146897758
 30
0.0
  0
POINT
  5
169B
330
1220
100
AcDbEntity
  8
DEFPOINTS
 62
     0
100
AcDbPoint
 10
262.2766148138353
 20
548.5182478618696
 30
0.0
  0
POINT
  5
169C
330
1220
100
AcDbEntity
  8
DEFPOINTS
 62
     0
100
AcDbPoint
 10
249.5777250464771
 20
561.2171376292248
 30
0.0
  0
ENDBLK
  5
122B
330
1220
100
AcDbEntity
  8
0
100
AcDbBlockEnd
  0
BLOCK
  5
1261
330
1257
100
AcDbEntity
  8
0
100
AcDbBlockBegin
  2
*D4
 70
     1
 10
0.0
 20
0.0
 30
0.0
  3
*D4
  1

  0
LINE
  5
16B0
330
1257
100
AcDbEntity
  8
BEM
 62
     0
370
    -2
100
AcDbLine
 10
104.3329577504527
 20
155.0651468977579
 30
0.0
 11
80.07462158093263
 21
155.0651468977579
 31
0.0
  0
LINE
  5
16B1
330
1257
100
AcDbEntity
  8
BEM
 62
     0
370
    -2
100
AcDbLine
 10
182.9580711151933
 20
350.065146897758
 30
0.0
 11
80.07462158093266
 21
350.0651468977581
 31
0.0
  0
LINE
  5
16B2
330
1257
100
AcDbEntity
  8
BEM
 62
     0
370
    -2
100
AcDbLine
 10
82.07462158093264
 20
162.0651468977579
 30
0.0
 11
82.07462158093267
 21
343.0651468977581
 31
0.0
  0
SOLID
  5
16B3
330
1257
100
AcDbEntity
  8
BEM
 62
     0
100
AcDbTrace
 10
80.90795491426597
 20
162.0651468977579
 30
0.0
 11
83.24128824759931
 21
162.0651468977579
 31
0.0
 12
82.07462158093262
 22
155.0651468977579
 32
0.0
 13
82.07462158093262
 23
155.0651468977579
 33
0.0
  0
SOLID
  5
16B4
330
1257
100
AcDbEntity
  8
BEM
 62
     0
100
AcDbTrace
 10
80.907954914266
 20
343.0651468977581
 30
0.0
 11
83.24128824759934
 21
343.0651468977581
 31
0.0
 12
82.07462158093267
 22
350.0651468977581
 32
0.0
 13
82.07462158093267
 23
350.0651468977581
 33
0.0
  0
MTEXT
  5
16B5
330
1257
100
AcDbEntity
  8
BEM
 62
     1
100
AcDbMText
 10
75.57462158093262
 20
252.5651468977581
 30
0.0
 40
7.0
 41
0.0
 71
     5
 72
     1
  1
\A1;195
 11
0.0000000000000001
 21
1.0
 31
0.0
 73
     1
 44
1.0
  0
POINT
  5
16B6
330
1257
100
AcDbEntity
  8
DEFPOINTS
 62
     0
100
AcDbPoint
 10
106.3329577504527
 20
155.0651468977579
 30
0.0
  0
POINT
  5
16B7
330
1257
100
AcDbEntity
  8
DEFPOINTS
 62
     0
100
AcDbPoint
 10
184.9580711151933
 20
350.065146897758
 30
0.0
  0
POINT
  5
16B8
330
1257
100
AcDbEntity
  8
DEFPOINTS
 62
     0
100
AcDbPoint
 10
82.07462158093267
 20
350.0651468977581
 30
0.0
  0
ENDBLK
  5
1262
330
1257
100
AcDbEntity
  8
0
100
AcDbBlockEnd
  0
BLOCK
  5
15E3
330
15D8
100
AcDbEntity
  8
0
100
AcDbBlockBegin
  2
*D5
 70
     1
 10
0.0
 20
0.0
 30
0.0
  3
*D5
  1

  0
LINE
  5
169D
330
15D8
100
AcDbEntity
  8
BEM
 62
     0
370
    -2
100
AcDbLine
 10
184.9580711151932
 20
352.065146897758
 30
0.0
 11
184.9580711151932
 21
446.7380004187465
 31
0.0
  0
ARC
  5
169E
330
15D8
100
AcDbEntity
  8
BEM
 62
     0
370
    -2
100
AcDbCircle
 10
184.9580711151932
 20
350.065146897758
 30
0.0
 40
94.67285352098853
100
AcDbArc
 50
49.23734848573939
 51
85.76265151426055
  0
SOLID
  5
169F
330
15D8
100
AcDbEntity
  8
BEM
 62
     0
100
AcDbTrace
 10
247.5664305145813
 20
422.6272303370963
 30
0.0
 11
245.9786390009264
 21
420.9174459782926
 31
0.0
 12
251.901887834165
 22
417.0089636167297
 32
0.0
 13
251.901887834165
 23
417.0089636167297
 33
0.0
  0
SOLID
  5
16A0
330
15D8
100
AcDbEntity
  8
BEM
 62
     0
100
AcDbTrace
 10
191.9101549138407
 20
443.3133453841174
 30
0.0
 11
191.9964168819017
 21
445.64508364501
 31
0.0
 12
184.9580711151932
 22
444.7380004187466
 32
0.0
 13
184.9580711151932
 23
444.7380004187466
 33
0.0
  0
MTEXT
  5
16A1
330
15D8
100
AcDbEntity
  8
BEM
 62
     1
100
AcDbMText
 10
223.6752459627756
 20
443.5366755115618
 30
0.0
 40
7.0
 41
0.0
 71
     5
 72
     1
  1
\A1;45°
 11
0.9238795325112871
 21
-0.3826834323650891
 31
0.0
 73
     1
 44
1.0
  0
POINT
  5
16A2
330
15D8
100
AcDbEntity
  8
DEFPOINTS
 62
     0
100
AcDbPoint
 10
232.2944978756876
 20
432.0542430956971
 30
0.0
  0
POINT
  5
16A3
330
15D8
100
AcDbEntity
  8
DEFPOINTS
 62
     0
100
AcDbPoint
 10
184.9580711151933
 20
350.0651468977581
 30
0.0
  0
POINT
  5
16A4
330
15D8
100
AcDbEntity
  8
DEFPOINTS
 62
     0
100
AcDbPoint
 10
326.379427352503
 20
491.4865031350676
 30
0.0
  0
POINT
  5
16A5
330
15D8
100
AcDbEntity
  8
DEFPOINTS
 62
     0
100
AcDbPoint
 10
184.9580711151933
 20
350.0651468977581
 30
0.0
  0
POINT
  5
16A6
330
15D8
100
AcDbEntity
  8
DEFPOINTS
 62
     0
100
AcDbPoint
 10
184.9580711151933
 20
150.0651468977582
 30
0.0
  0
ENDBLK
  5
15E4
330
15D8
100
AcDbEntity
  8
0
100
AcDbBlockEnd
  0
ENDSEC
  0
SECTION
  2
ENTITIES
  0
TEXT
  5
134
330
1E
100
AcDbEntity
  8
TEXT
100
AcDbText
 10
204.4216048581257
 20
63.0896391972351
 30
0.0
 40
4.0
  1
Koeh
 41
0.8
  7
GREEKS
 72
     1
 11
209.6787477152686
 21
63.0896391972351
 31
0.0
100
AcDbText
  0
INSERT
  5
135
330
1E
100
AcDbEntity
  8
STEMPEL
100
AcDbBlockReference
  2
LOGO
 10
150.9955485457794
 20
45.02105276448322
 30
0.0
 41
2.0
 42
2.0
 43
2.0
  0
LINE
  5
136
330
1E
100
AcDbEntity
  8
HILF
100
AcDbLine
 10
420.0
 20
0.0
 30
0.0
 11
0.0
 21
0.0
 31
0.0
  0
LINE
  5
137
330
1E
100
AcDbEntity
  8
HILF
100
AcDbLine
 10
419.9999999999999
 20
594.0000000000002
 30
0.0
 11
0.0
 21
594.0
 31
0.0
  0
LINE
  5
138
330
1E
100
AcDbEntity
  8
STEMPEL
100
AcDbLine
 10
410.0
 20
584.0
 30
0.0
 11
39.99999999999989
 21
584.0
 31
0.0
  0
LINE
  5
139
330
1E
100
AcDbEntity
  8
STEMPEL
100
AcDbLine
 10
410.0
 20
10.0
 30
0.0
 11
39.99999999999989
 21
10.0
 31
0.0
  0
LINE
  5
13A
330
1E
100
AcDbEntity
  8
STEMPEL
100
AcDbLine
 10
49.99999999999989
 20
10.0
 30
0.0
 11
410.0
 21
10.0
 31
0.0
  0
TEXT
  5
13B
330
1E
100
AcDbEntity
  8
TEXT
100
AcDbText
 10
202.4626584226295
 20
73.30961091915225
 30
0.0
 40
4.0
  1
Name
 41
0.8
  7
GREEKS
100
AcDbText
  0
TEXT
  5
13C
330
1E
100
AcDbEntity
  8
TEXT
100
AcDbText
 10
196.5498279101549
 20
102.6506227776589
 30
0.0
 40
5.0
  1
Zul. Abw.
 41
0.8
  7
GREEKS
 72
     4
 11
209.9783993387263
 21
105.1506227776589
 31
0.0
100
AcDbText
  0
LINE
  5
13D
330
1E
100
AcDbEntity
  8
HILF
100
AcDbLine
 10
146.0000000000001
 20
49.99999999999997
 30
0.0
 11
230.0
 21
49.99999999999997
 31
0.0
  0
LINE
  5
13E
330
1E
100
AcDbEntity
  8
HILF
100
AcDbLine
 10
146.0000000000001
 20
59.99999999999998
 30
0.0
 11
230.0
 21
59.99999999999998
 31
0.0
  0
LINE
  5
13F
330
1E
100
AcDbEntity
  8
HILF
100
AcDbLine
 10
146.0000000000001
 20
69.99999999999994
 30
0.0
 11
230.0
 21
69.99999999999994
 31
0.0
  0
LINE
  5
140
330
1E
100
AcDbEntity
  8
STEMPEL
100
AcDbLine
 10
410.0
 20
80.0
 30
0.0
 11
146.0000000000001
 21
79.99999999999994
 31
0.0
  0
LINE
  5
141
330
1E
100
AcDbEntity
  8
STEMPEL
100
AcDbLine
 10
410.0
 20
40.0
 30
0.0
 11
146.0000000000001
 21
39.99999999999997
 31
0.0
  0
LINE
  5
142
330
1E
100
AcDbEntity
  8
STEMPEL
100
AcDbLine
 10
410.0
 20
110.0
 30
0.0
 11
39.99999999999997
 21
110.0
 31
0.0
  0
LINE
  5
144
330
1E
100
AcDbEntity
  8
HILF
100
AcDbLine
 10
0.0
 20
0.0
 30
0.0
 11
-0.0000000000001137
 21
594.0
 31
0.0
  0
LINE
  5
145
330
1E
100
AcDbEntity
  8
STEMPEL
100
AcDbLine
 10
40.0
 20
10.0
 30
0.0
 11
39.99999999999989
 21
584.0
 31
0.0
  0
TEXT
  5
146
330
1E
100
AcDbEntity
  8
TEXT
100
AcDbText
 10
41.85509950977674
 20
111.6719999999999
 30
0.0
 40
5.0
  1
Erstellt mit AUTOCAD 2004
 41
0.8
  7
GREEKS
100
AcDbText
  0
TEXT
  5
147
330
1E
100
AcDbEntity
  8
TEXT
100
AcDbText
 10
67.18675857092764
 20
18.67381894984132
 30
0.0
 40
4.0
  1
Änderung
 41
0.8
  7
GREEKS
 72
     1
 11
77.92961571378478
 21
18.67381894984132
 31
0.0
100
AcDbText
  0
LINE
  5
148
330
1E
100
AcDbEntity
  8
HILF
100
AcDbLine
 10
40.00000000000008
 20
39.99999999999997
 30
0.0
 11
146.0000000000001
 21
39.99999999999997
 31
0.0
  0
LINE
  5
149
330
1E
100
AcDbEntity
  8
HILF
100
AcDbLine
 10
40.00000000000008
 20
49.99999999999997
 30
0.0
 11
146.0000000000001
 21
49.99999999999997
 31
0.0
  0
LINE
  5
14A
330
1E
100
AcDbEntity
  8
HILF
100
AcDbLine
 10
40.00000000000008
 20
59.99999999999998
 30
0.0
 11
146.0000000000001
 21
59.99999999999998
 31
0.0
  0
LINE
  5
14B
330
1E
100
AcDbEntity
  8
HILF
100
AcDbLine
 10
40.00000000000008
 20
69.99999999999994
 30
0.0
 11
146.0000000000001
 21
69.99999999999994
 31
0.0
  0
LINE
  5
14C
330
1E
100
AcDbEntity
  8
HILF
100
AcDbLine
 10
40.00000000000008
 20
79.99999999999994
 30
0.0
 11
146.0000000000001
 21
79.99999999999994
 31
0.0
  0
LINE
  5
14D
330
1E
100
AcDbEntity
  8
HILF
100
AcDbLine
 10
40.00000000000008
 20
90.00000000000005
 30
0.0
 11
146.0000000000001
 21
90.00000000000005
 31
0.0
  0
LINE
  5
14E
330
1E
100
AcDbEntity
  8
HILF
100
AcDbLine
 10
40.00000000000008
 20
100.0
 30
0.0
 11
146.0000000000001
 21
100.0
 31
0.0
  0
LINE
  5
14F
330
1E
100
AcDbEntity
  8
STEMPEL
100
AcDbLine
 10
145.9999999999999
 20
29.99999999999997
 30
0.0
 11
39.99999999999997
 21
29.99999999999997
 31
0.0
  0
TEXT
  5
150
330
1E
100
AcDbEntity
  8
TEXT
100
AcDbText
 10
48.26641107045756
 20
13.65465846027192
 30
0.0
 40
4.0
  1
Index
 50
90.0
 41
0.8
  7
GREEKS
100
AcDbText
  0
LINE
  5
151
330
1E
100
AcDbEntity
  8
VOLL
100
AcDbLine
 10
54.00000000000009
 20
110.0
 30
0.0
 11
53.99999999999998
 21
9.999999999999971
 31
0.0
  0
LINE
  5
152
330
1E
100
AcDbEntity
  8
HILF
100
AcDbLine
 10
31.08767135713856
 20
297.0
 30
0.0
 11
0.0000000000001137
 21
297.0
 31
0.0
  0
TEXT
  5
153
330
1E
100
AcDbEntity
  8
TEXT
100
AcDbText
 10
110.5329027008845
 20
18.6715626933981
 30
0.0
 40
4.0
  1
Tag
 41
0.8
  7
GREEKS
 72
     1
 11
114.2662360342178
 21
18.6715626933981
 31
0.0
100
AcDbText
  0
LINE
  5
154
330
1E
100
AcDbEntity
  8
VOLL
100
AcDbLine
 10
124.0000000000001
 20
109.9999999999999
 30
0.0
 11
124.0
 21
9.999999999999971
 31
0.0
  0
LINE
  5
155
330
1E
100
AcDbEntity
  8
VOLL
100
AcDbLine
 10
104.0000000000001
 20
109.9999999999999
 30
0.0
 11
104.0
 21
9.999999999999971
 31
0.0
  0
TEXT
  5
156
330
1E
100
AcDbEntity
  8
TEXT
100
AcDbText
 10
129.3050679443042
 20
18.59324216966408
 30
0.0
 40
4.0
  1
Name
 41
0.8
  7
GREEKS
 72
     1
 11
135.6288774681137
 21
18.59324216966408
 31
0.0
100
AcDbText
  0
LINE
  5
157
330
1E
100
AcDbEntity
  8
STEMPEL
100
AcDbLine
 10
146.0000000000001
 20
109.9999999999999
 30
0.0
 11
146.0
 21
9.999999999999971
 31
0.0
  0
TEXT
  5
159
330
1E
100
AcDbEntity
  8
TEXT
100
AcDbText
 10
172.331167315365
 20
73.31880501229926
 30
0.0
 40
4.0
  1
Tag
 41
0.8
  7
GREEKS
100
AcDbText
  0
TEXT
  5
15A
330
1E
100
AcDbEntity
  8
TEXT
100
AcDbText
 10
147.5836127167615
 20
63.62990369617964
 30
0.0
 40
4.0
  1
Gez.
 41
0.8
  7
GREEKS
100
AcDbText
  0
LINE
  5
15B
330
1E
100
AcDbEntity
  8
VOLL
100
AcDbLine
 10
164.0000000000001
 20
79.99999999999994
 30
0.0
 11
164.0000000000001
 21
39.99999999999997
 31
0.0
  0
TEXT
  5
15C
330
1E
100
AcDbEntity
  8
TEXT
100
AcDbText
 10
147.6006777387303
 20
43.52946389649807
 30
0.0
 40
4.0
  1
Norm.
 41
0.8
  7
GREEKS
100
AcDbText
  0
TEXT
  5
15D
330
1E
100
AcDbEntity
  8
TEXT
100
AcDbText
 10
147.5515086571672
 20
53.68926291428377
 30
0.0
 40
4.0
  1
Gepr.
 41
0.8
  7
GREEKS
100
AcDbText
  0
TEXT
  5
15E
330
1E
100
AcDbEntity
  8
TEXT
 62
     1
100
AcDbText
 10
160.5006306481887
 20
88.14901428913959
 30
0.0
 40
7.0
  1
1:2
 41
0.8
  7
GREEKS
100
AcDbText
  0
TEXT
  5
15F
330
1E
100
AcDbEntity
  8
TEXT
100
AcDbText
 10
153.5163572150377
 20
102.4620895087088
 30
0.0
 40
5.0
  1
Maßstab
 41
0.8
  7
GREEKS
100
AcDbText
  0
TEXT
  5
160
330
1E
100
AcDbEntity
  8
TEXT
100
AcDbText
 10
148.622109822104
 20
73.14025471151666
 30
0.0
 40
4.0
  1
2011
 41
0.8
  7
GREEKS
100
AcDbText
  0
LINE
  5
161
330
1E
100
AcDbEntity
  8
VOLL
100
AcDbLine
 10
190.0000000000001
 20
109.9999999999998
 30
0.0
 11
190.0
 21
39.99999999999997
 31
0.0
  0
LINE
  5
186
330
1E
100
AcDbEntity
  8
HILF
100
AcDbLine
 10
420.0
 20
-0.0000000000001137
 30
0.0
 11
419.9999999999999
 21
594.0
 31
0.0
  0
LINE
  5
187
330
1E
100
AcDbEntity
  8
STEMPEL
100
AcDbLine
 10
410.0
 20
10.0
 30
0.0
 11
410.0
 21
584.0
 31
0.0
  0
TEXT
  5
188
330
1E
100
AcDbEntity
  8
TEXT
100
AcDbText
 10
337.2400861497006
 20
52.07416177878602
 30
0.0
 40
5.0
  1
ersetzt durch:
 41
0.8
  7
GREEKS
100
AcDbText
  0
TEXT
  5
189
330
1E
100
AcDbEntity
  8
TEXT
100
AcDbText
 10
336.7238616296993
 20
73.1811823709997
 30
0.0
 40
5.0
  1
Ersatz für:
 41
0.8
  7
GREEKS
100
AcDbText
  0
TEXT
  5
18A
330
1E
100
AcDbEntity
  8
TEXT
100
AcDbText
 10
336.178754957634
 20
102.3132034537136
 30
0.0
 40
5.0
  1
Zeichnungs Nr.
 41
0.8
  7
GREEKS
100
AcDbText
  0
LINE
  5
18B
330
1E
100
AcDbEntity
  8
HILF
100
AcDbLine
 10
233.4909699289885
 20
14.89398258028314
 30
0.0
 11
404.8588839326728
 21
14.89398258028314
 31
0.0
  0
LINE
  5
18C
330
1E
100
AcDbEntity
  8
HILF
100
AcDbLine
 10
336.7238616296993
 20
83.77983636955827
 30
0.0
 11
404.8588839326728
 21
83.77983636955827
 31
0.0
  0
LINE
  5
18D
330
1E
100
AcDbEntity
  8
VOLL
100
AcDbLine
 10
332.0
 20
60.0
 30
0.0
 11
410.0
 21
60.0
 31
0.0
  0
TEXT
  5
18E
330
1E
100
AcDbEntity
  8
TEXT
 62
     1
100
AcDbText
 10
234.9283864320014
 20
87.41748789253779
 30
0.0
 40
7.0
  1
Bogen DN150 45°
 41
0.8
  7
GREEKS
100
AcDbText
  0
LINE
  5
18F
330
1E
100
AcDbEntity
  8
HILF
100
AcDbLine
 10
234.7736801096948
 20
49.99999999999997
 30
0.0
 11
324.835391655631
 21
49.99999999999997
 31
0.0
  0
LINE
  5
190
330
1E
100
AcDbEntity
  8
HILF
100
AcDbLine
 10
234.7736801096948
 20
59.99999999999998
 30
0.0
 11
324.835391655631
 21
59.99999999999998
 31
0.0
  0
LINE
  5
191
330
1E
100
AcDbEntity
  8
HILF
100
AcDbLine
 10
234.7736801096948
 20
69.99999999999994
 30
0.0
 11
324.835391655631
 21
69.99999999999994
 31
0.0
  0
LINE
  5
192
330
1E
100
AcDbEntity
  8
HILF
100
AcDbLine
 10
234.7736801096948
 20
84.03758247564139
 30
0.0
 11
324.8353916556311
 21
84.03758247564139
 31
0.0
  0
LINE
  5
193
330
1E
100
AcDbEntity
  8
STEMPEL
100
AcDbLine
 10
230.0
 20
110.0
 30
0.0
 11
230.0
 21
9.999999999999971
 31
0.0
  0
TEXT
  5
194
330
1E
100
AcDbEntity
  8
TEXT
100
AcDbText
 10
235.1296391125315
 20
71.50334417585288
 30
0.0
 40
5.0
  1
dünnwandig
 41
0.8
  7
GREEKS
100
AcDbText
  0
TEXT
  5
195
330
1E
100
AcDbEntity
  8
TEXT
100
AcDbText
 10
234.9837501577827
 20
42.62974153022633
 30
0.0
 40
4.0
  1
4320150W.DWG
 41
0.8
  7
GREEKS
100
AcDbText
  0
TEXT
  5
196
330
1E
100
AcDbEntity
  8
TEXT
100
AcDbText
 10
234.742238391136
 20
30.84560570193057
 30
0.0
 40
5.0
  1
Bauvorhaben
 41
0.8
  7
GREEKS
100
AcDbText
  0
TEXT
  5
197
330
1E
100
AcDbEntity
  8
TEXT
100
AcDbText
 10
234.877940380901
 20
102.5489328011779
 30
0.0
 40
5.0
  1
Benennung
 41
0.8
  7
GREEKS
100
AcDbText
  0
LINE
  5
198
330
1E
100
AcDbEntity
  8
STEMPEL
100
AcDbLine
 10
332.0
 20
109.9999999999997
 30
0.0
 11
332.0
 21
40.0
 31
0.0
  0
TEXT
  5
19A
330
1E
100
AcDbEntity
  8
TEXT
 62
     1
100
AcDbText
 10
349.8872193220621
 20
88.14901428913959
 30
0.0
 40
7.0
  1
4320150W
 41
0.8
  7
GREEKS
 72
     1
 11
370.6872193220621
 21
88.14901428913959
 31
0.0
100
AcDbText
  0
TEXT
  5
212
330
1E
100
AcDbEntity
  8
TEXT
100
AcDbText
 10
235.1296391125315
 20
51.50334417585292
 30
0.0
 40
5.0
  1
EDV-Art.Nr. 4.320.150C
 41
0.8
  7
GREEKS
100
AcDbText
  0
LINE
  5
EFF
102
{ACAD_REACTORS
330
1654
102
}
330
1E
100
AcDbEntity
  8
STEMPEL
100
AcDbLine
 10
264.4580711151935
 20
317.1351686890971
 30
0.0
 11
264.4580711151932
 21
165.0651468977571
 31
0.0
  0
LINE
  5
F3D
102
{ACAD_REACTORS
330
1650
102
}
330
1E
100
AcDbEntity
  8
STEMPEL
100
AcDbLine
 10
105.4580711151934
 20
382.9951251064191
 30
0.0
 11
105.4580711151935
 21
165.0651468977585
 31
0.0
  0
LINE
  5
107B
330
1E
100
AcDbEntity
  8
STEMPEL
100
AcDbLine
 10
263.5831844799342
 20
155.065146897758
 30
0.0
 11
106.3329577504527
 21
155.0651468977579
 31
0.0
  0
DIMENSION
  5
107C
330
1E
100
AcDbEntity
  8
BEM
100
AcDbDimension
  2
*D1
 10
264.4580711151937
 20
134.6413744163305
 30
0.0
 11
184.9580711151936
 21
141.1413744163305
 31
0.0
 70
    32
  1
%%c<>
 71
     5
 42
159.0000000000001
  3
Standard
100
AcDbAlignedDimension
 13
105.4580711151935
 23
165.0651468977585
 33
0.0
 14
264.4580711151937
 24
165.0651468977575
 34
0.0
100
AcDbRotatedDimension
1001
ACAD
1000
DSTYLE
1002
{
1070
    40
1040
2.0
1070
    41
1040
3.5
1070
    42
1040
1.0
1070
    43
1040
7.0
1070
    44
1040
1.0
1070
    73
1070
     0
1070
    74
1070
     0
1070
    77
1070
     1
1070
    78
1070
     8
1070
    79
1070
     2
1070
   140
1040
3.5
1070
   141
1040
1.5
1070
   146
1040
0.5142857142857144
1070
   147
1040
1.5
1070
   172
1070
     1
1070
   178
1070
     1
1070
   179
1070
     2
1070
   271
1070
     2
1070
   272
1070
     2
1070
   284
1070
     8
1070
   285
1070
     8
1070
   286
1070
     8
1002
}
  0
LINE
  5
107D
330
1E
100
AcDbEntity
  8
HILF
100
AcDbLine
 10
262.9580711151932
 20
165.0651468977575
 30
0.0
 11
106.9580711151935
 21
165.0651468977588
 31
0.0
  0
LINE
  5
107F
330
1E
100
AcDbEntity
  8
STEMPEL
100
AcDbLine
 10
105.4580711151935
 20
165.0651468977585
 30
0.0
 11
106.3329577504527
 21
155.0651468977585
 31
0.0
  0
LINE
  5
1084
330
1E
100
AcDbEntity
  8
STEMPEL
100
AcDbLine
 10
264.4580711151932
 20
165.065146897758
 30
0.0
 11
263.5831844799341
 21
155.0651468977575
 31
0.0
  0
LINE
  5
1086
330
1E
100
AcDbEntity
  8
MITTEL
100
AcDbLine
 10
184.9580711151933
 20
350.065146897758
 30
0.0
 11
184.9580711151933
 21
150.0651468977582
 31
0.0
  0
TEXT
  5
1179
330
1E
100
AcDbEntity
  8
TEXT
 62
     1
100
AcDbText
 10
297.0573649355706
 20
132.2248663682012
 30
0.0
 40
7.0
  1
Werkstoff: 1.4301
 41
0.8
  7
GREEKS
100
AcDbText
  0
LINE
  5
1207
102
{ACAD_REACTORS
330
1654
102
}
330
1E
100
AcDbEntity
  8
STEMPEL
100
AcDbLine
 10
318.4747454549247
 20
371.1518430288283
 30
0.0
 11
264.4580711151935
 21
317.1351686890971
 31
0.0
  0
DIMENSION
  5
1208
330
1E
100
AcDbEntity
  8
BEM
100
AcDbDimension
  2
*D3
 10
249.5777250464771
 20
561.2171376292248
 30
0.0
 11
176.0386198030802
 21
496.8704205412366
 31
0.0
 70
    32
 71
     5
 42
195.0000000000103
  3
Standard
100
AcDbAlignedDimension
 13
184.9580711151933
 23
350.065146897758
 33
0.0
 14
262.2766148138353
 24
548.5182478618696
 34
0.0
 50
45.00000000000684
100
AcDbRotatedDimension
1001
ACAD
1000
DSTYLE
1002
{
1070
    40
1040
2.0
1070
    41
1040
3.5
1070
    42
1040
1.0
1070
    43
1040
7.0
1070
    44
1040
1.0
1070
    73
1070
     0
1070
    74
1070
     0
1070
    77
1070
     1
1070
    78
1070
     8
1070
    79
1070
     2
1070
   140
1040
3.5
1070
   141
1040
1.5
1070
   146
1040
0.5142857142857144
1070
   147
1040
1.5
1070
   172
1070
     1
1070
   178
1070
     1
1070
   179
1070
     2
1070
   271
1070
     2
1070
   272
1070
     2
1070
   284
1070
     8
1070
   285
1070
     8
1070
   286
1070
     8
1002
}
  0
LINE
  5
1209
102
{ACAD_REACTORS
330
1650
102
}
330
1E
100
AcDbEntity
  8
STEMPEL
100
AcDbLine
 10
206.0447672462636
 20
483.5818212374893
 30
0.0
 11
105.4580711151934
 21
382.9951251064191
 31
0.0
  0
LINE
  5
120A
330
1E
100
AcDbEntity
  8
MITTEL
100
AcDbLine
 10
326.379427352503
 20
491.4865031350675
 30
0.0
 11
184.9580711151933
 21
350.065146897758
 31
0.0
  0
LINE
  5
120B
330
1E
100
AcDbEntity
  8
HILF
100
AcDbLine
 10
344.7947904254227
 20
393.0822525826796
 30
0.0
 11
227.975176800115
 21
509.9018662079872
 31
0.0
  0
LINE
  5
120C
330
1E
100
AcDbEntity
  8
HILF
100
AcDbLine
 10
326.8457950790028
 20
376.8148406231242
 30
0.0
 11
211.7077648405592
 21
491.9528708615676
 31
0.0
  0
LINE
  5
120D
330
1E
100
AcDbEntity
  8
HILF
100
AcDbLine
 10
319.934230398126
 20
374.118710149414
 30
0.0
 11
209.0116343668488
 21
485.0413061806912
 31
0.0
  0
LINE
  5
120E
330
1E
100
AcDbEntity
  8
STEMPEL
100
AcDbLine
 10
383.4111720793051
 20
427.3836905964001
 30
0.0
 11
262.2766148138353
 21
548.5182478618696
 31
0.0
  0
TEXT
  5
120F
330
1E
100
AcDbEntity
  8
TEXT
 62
     1
100
AcDbText
 10
291.1374091028173
 20
470.9637562573545
 30
0.0
 40
7.0
  1
DN150
 50
44.99999999999999
 41
0.8
  7
GREEKS
100
AcDbText
  0
ARC
  5
1210
330
1E
100
AcDbEntity
  8
STEMPEL
100
AcDbCircle
 10
210.4139152379093
 20
520.4778811637161
 30
0.0
 40
19.0
100
AcDbArc
 50
315.0
 51
342.9064081148547
  0
ARC
  5
1211
330
1E
100
AcDbEntity
  8
STEMPEL
100
AcDbCircle
 10
198.9736994343983
 20
490.6528890493546
 30
0.0
 40
10.0
100
AcDbArc
 50
315.0
 51
346.5863380965278
  0
ARC
  5
1212
330
1E
100
AcDbEntity
  8
STEMPEL
100
AcDbCircle
 10
225.2371554016889
 20
484.3894330820642
 30
0.0
 40
17.0
100
AcDbArc
 50
135.0
 51
166.5863380965277
  0
LINE
  5
1213
330
1E
100
AcDbEntity
  8
STEMPEL
100
AcDbLine
 10
223.8489440804534
 20
507.0428523211715
 30
0.0
 11
213.2163401215174
 21
496.4102483622355
 31
0.0
  0
LINE
  5
1214
330
1E
100
AcDbEntity
  8
STEMPEL
100
AcDbLine
 10
248.3974965096992
 20
540.0766861246559
 30
0.0
 11
236.8861507382002
 21
528.5653403531571
 31
0.0
  0
ARC
  5
1215
330
1E
100
AcDbEntity
  8
STEMPEL
100
AcDbCircle
 10
260.9687473377152
 20
504.5674651140218
 30
0.0
 40
34.0
100
AcDbArc
 50
135.0
 51
162.3202406357857
  0
LINE
  5
1216
330
1E
100
AcDbEntity
  8
STEMPEL
100
AcDbLine
 10
262.2766148138353
 20
548.5182478618696
 30
0.0
 11
260.810442196969
 21
547.9846046710342
 31
0.0
  0
ARC
  5
1217
330
1E
100
AcDbEntity
  8
STEMPEL
100
AcDbCircle
 10
272.439127070042
 20
516.0350555643133
 30
0.0
 40
34.0
100
AcDbArc
 50
110.0000000000074
 51
135.0
  0
ARC
  5
1218
330
1E
100
AcDbEntity
  8
STEMPEL
100
AcDbCircle
 10
355.3708053811514
 20
375.520991020474
 30
0.0
 40
19.0
100
AcDbArc
 50
107.8456571516186
 51
135.0
  0
ARC
  5
1219
330
1E
100
AcDbEntity
  8
STEMPEL
100
AcDbCircle
 10
325.5458132667901
 20
364.0807752169626
 30
0.0
 40
10.0
100
AcDbArc
 50
103.413661903472
 51
135.0
  0
ARC
  5
121A
330
1E
100
AcDbEntity
  8
STEMPEL
100
AcDbCircle
 10
319.2823572994995
 20
390.3442311842534
 30
0.0
 40
17.0
100
AcDbArc
 50
283.4136619034723
 51
315.0
  0
LINE
  5
121B
330
1E
100
AcDbEntity
  8
STEMPEL
100
AcDbLine
 10
341.9357765386069
 20
388.9560198630181
 30
0.0
 11
331.3031725796707
 21
378.3234159040822
 31
0.0
  0
ARC
  5
121C
330
1E
100
AcDbEntity
  8
STEMPEL
100
AcDbCircle
 10
350.9279797817486
 20
437.5462028526064
 30
0.0
 40
34.0
100
AcDbArc
 50
315.0
 51
339.9999999999927
  0
ARC
  5
121D
330
1E
100
AcDbEntity
  8
STEMPEL
100
AcDbCircle
 10
339.4603893314573
 20
426.0758231202799
 30
0.0
 40
34.0
100
AcDbArc
 50
287.2594896725498
 51
315.0
  0
LINE
  5
121E
330
1E
100
AcDbEntity
  8
STEMPEL
100
AcDbLine
 10
374.969610342091
 20
413.5045722922641
 30
0.0
 11
363.4582645705918
 21
401.9932265207651
 31
0.0
  0
LINE
  5
121F
330
1E
100
AcDbEntity
  8
STEMPEL
100
AcDbLine
 10
383.4111720793051
 20
427.3836905964001
 30
0.0
 11
382.8775288884692
 21
425.9175179795338
 31
0.0
  0
DIMENSION
  5
1256
330
1E
100
AcDbEntity
  8
BEM
100
AcDbDimension
  2
*D4
 10
82.07462158093267
 20
350.0651468977581
 30
0.0
 11
75.57462158093262
 21
252.5651468977581
 31
0.0
 70
    32
 71
     5
 42
195.0000000000001
  3
Standard
100
AcDbAlignedDimension
 13
106.3329577504527
 23
155.0651468977579
 33
0.0
 14
184.9580711151933
 24
350.065146897758
 34
0.0
 50
90.0
100
AcDbRotatedDimension
1001
ACAD
1000
DSTYLE
1002
{
1070
    40
1040
2.0
1070
    41
1040
3.5
1070
    42
1040
1.0
1070
    43
1040
7.0
1070
    44
1040
1.0
1070
    73
1070
     0
1070
    74
1070
     0
1070
    77
1070
     1
1070
    78
1070
     8
1070
    79
1070
     2
1070
   140
1040
3.5
1070
   141
1040
1.5
1070
   146
1040
0.5142857142857144
1070
   147
1040
1.5
1070
   172
1070
     1
1070
   178
1070
     1
1070
   179
1070
     2
1070
   271
1070
     2
1070
   272
1070
     2
1070
   284
1070
     8
1070
   285
1070
     8
1070
   286
1070
     8
1002
}
  0
DIMENSION
  5
15D7
330
1E
100
AcDbEntity
  8
BEM
100
AcDbDimension
  2
*D5
 10
184.9580711151933
 20
150.0651468977582
 30
0.0
 11
223.6752459627756
 21
443.5366755115618
 31
0.0
 70
    34
 71
     5
 42
0.7853981633974492
 51
315.402291057239
  3
Standard
100
AcDb2LineAngularDimension
 13
326.379427352503
 23
491.4865031350675
 33
0.0
 14
184.9580711151932
 24
350.065146897758
 34
0.0
 15
184.9580711151932
 25
350.065146897758
 35
0.0
 16
232.2944978756876
 26
432.0542430956971
 36
0.0
1001
ACAD
1000
DSTYLE
1002
{
1070
    40
1040
2.0
1070
    41
1040
3.5
1070
    42
1040
1.0
1070
    43
1040
7.0
1070
    44
1040
1.0
1070
    73
1070
     0
1070
    74
1070
     0
1070
    77
1070
     1
1070
    78
1070
     8
1070
    79
1070
     2
1070
   140
1040
3.5
1070
   141
1040
1.5
1070
   146
1040
0.5142857142857144
1070
   147
1040
1.5
1070
   172
1070
     1
1070
   178
1070
     1
1070
   179
1070
     2
1070
   271
1070
     2
1070
   272
1070
     2
1070
   284
1070
     8
1070
   285
1070
     8
1070
   286
1070
     8
1002
}
  0
LINE
  5
1624
330
1E
100
AcDbEntity
  8
STEMPEL
100
AcDbLine
 10
105.4580711151934
 20
382.9951251064191
 30
0.0
 11
264.4580711151935
 21
317.1351686890971
 31
0.0
  0
ARC
  5
1627
330
1E
100
AcDbEntity
  8
SCHRAFF
100
AcDbCircle
 10
105.4580711151934
 20
382.9951251064191
 30
0.0
 40
5.0
100
AcDbArc
 50
300.6301023541565
 51
14.36989764584501
  0
ARC
  5
1628
330
1E
100
AcDbEntity
  8
SCHRAFF
100
AcDbCircle
 10
110.0774687777498
 20
381.0817079445936
 30
0.0
 40
5.0
100
AcDbArc
 50
300.6301023541565
 51
14.36989764584501
  0
ARC
  5
1629
330
1E
100
AcDbEntity
  8
SCHRAFF
100
AcDbCircle
 10
114.6968664403062
 20
379.1682907827682
 30
0.0
 40
5.0
100
AcDbArc
 50
300.6301023541565
 51
14.36989764584501
  0
ARC
  5
162A
330
1E
100
AcDbEntity
  8
SCHRAFF
100
AcDbCircle
 10
119.3162641028627
 20
377.2548736209427
 30
0.0
 40
5.0
100
AcDbArc
 50
300.6301023541565
 51
14.36989764584501
  0
ARC
  5
162B
330
1E
100
AcDbEntity
  8
SCHRAFF
100
AcDbCircle
 10
123.9356617654191
 20
375.3414564591172
 30
0.0
 40
5.0
100
AcDbArc
 50
300.6301023541565
 51
14.36989764584501
  0
ARC
  5
162C
330
1E
100
AcDbEntity
  8
SCHRAFF
100
AcDbCircle
 10
128.5550594279756
 20
373.4280392972918
 30
0.0
 40
5.0
100
AcDbArc
 50
300.6301023541565
 51
14.36989764584501
  0
ARC
  5
162D
330
1E
100
AcDbEntity
  8
SCHRAFF
100
AcDbCircle
 10
133.174457090532
 20
371.5146221354663
 30
0.0
 40
5.0
100
AcDbArc
 50
300.6301023541565
 51
14.36989764584501
  0
ARC
  5
162E
330
1E
100
AcDbEntity
  8
SCHRAFF
100
AcDbCircle
 10
137.7938547530884
 20
369.601204973641
 30
0.0
 40
5.0
100
AcDbArc
 50
300.6301023541565
 51
14.36989764584501
  0
ARC
  5
162F
330
1E
100
AcDbEntity
  8
SCHRAFF
100
AcDbCircle
 10
142.4132524156449
 20
367.6877878118155
 30
0.0
 40
5.0
100
AcDbArc
 50
300.6301023541565
 51
14.36989764584501
  0
ARC
  5
1630
330
1E
100
AcDbEntity
  8
SCHRAFF
100
AcDbCircle
 10
147.0326500782013
 20
365.77437064999
 30
0.0
 40
5.0
100
AcDbArc
 50
300.6301023541565
 51
14.36989764584501
  0
ARC
  5
1632
330
1E
100
AcDbEntity
  8
SCHRAFF
100
AcDbCircle
 10
151.6520477407577
 20
363.8609534881646
 30
0.0
 40
5.0
100
AcDbArc
 50
300.6301023541565
 51
14.36989764584501
  0
ARC
  5
1633
330
1E
100
AcDbEntity
  8
SCHRAFF
100
AcDbCircle
 10
156.2714454033141
 20
361.9475363263391
 30
0.0
 40
5.0
100
AcDbArc
 50
300.6301023541565
 51
14.36989764584501
  0
ARC
  5
1634
330
1E
100
AcDbEntity
  8
SCHRAFF
100
AcDbCircle
 10
160.8908430658706
 20
360.0341191645136
 30
0.0
 40
5.0
100
AcDbArc
 50
300.6301023541565
 51
14.36989764584501
  0
ARC
  5
1635
330
1E
100
AcDbEntity
  8
SCHRAFF
100
AcDbCircle
 10
165.5102407284271
 20
358.1207020026883
 30
0.0
 40
5.0
100
AcDbArc
 50
300.6301023541565
 51
14.36989764584501
  0
ARC
  5
1636
330
1E
100
AcDbEntity
  8
SCHRAFF
100
AcDbCircle
 10
170.1296383909835
 20
356.2072848408628
 30
0.0
 40
5.0
100
AcDbArc
 50
300.6301023541565
 51
14.36989764584501
  0
ARC
  5
1637
330
1E
100
AcDbEntity
  8
SCHRAFF
100
AcDbCircle
 10
174.7490360535399
 20
354.2938676790374
 30
0.0
 40
5.0
100
AcDbArc
 50
300.6301023541565
 51
14.36989764584501
  0
ARC
  5
1638
330
1E
100
AcDbEntity
  8
SCHRAFF
100
AcDbCircle
 10
179.3684337160963
 20
352.3804505172119
 30
0.0
 40
5.0
100
AcDbArc
 50
300.6301023541565
 51
14.36989764584501
  0
ARC
  5
1639
330
1E
100
AcDbEntity
  8
SCHRAFF
100
AcDbCircle
 10
183.9878313786527
 20
350.4670333553864
 30
0.0
 40
5.0
100
AcDbArc
 50
300.6301023541565
 51
14.36989764584501
  0
ARC
  5
163A
330
1E
100
AcDbEntity
  8
SCHRAFF
100
AcDbCircle
 10
188.6072290412092
 20
348.5536161935611
 30
0.0
 40
5.0
100
AcDbArc
 50
300.6301023541565
 51
14.36989764584501
  0
ARC
  5
163B
330
1E
100
AcDbEntity
  8
SCHRAFF
100
AcDbCircle
 10
193.2266267037656
 20
346.6401990317356
 30
0.0
 40
5.0
100
AcDbArc
 50
300.6301023541565
 51
14.36989764584501
  0
ARC
  5
163C
330
1E
100
AcDbEntity
  8
SCHRAFF
100
AcDbCircle
 10
197.8460243663221
 20
344.7267818699101
 30
0.0
 40
5.0
100
AcDbArc
 50
300.6301023541565
 51
14.36989764584501
  0
ARC
  5
163D
330
1E
100
AcDbEntity
  8
SCHRAFF
100
AcDbCircle
 10
202.4654220288785
 20
342.8133647080847
 30
0.0
 40
5.0
100
AcDbArc
 50
300.6301023541565
 51
14.36989764584501
  0
ARC
  5
163E
330
1E
100
AcDbEntity
  8
SCHRAFF
100
AcDbCircle
 10
207.0848196914349
 20
340.8999475462592
 30
0.0
 40
5.0
100
AcDbArc
 50
300.6301023541565
 51
14.36989764584501
  0
ARC
  5
163F
330
1E
100
AcDbEntity
  8
SCHRAFF
100
AcDbCircle
 10
211.7042173539914
 20
338.9865303844338
 30
0.0
 40
5.0
100
AcDbArc
 50
300.6301023541565
 51
14.36989764584501
  0
ARC
  5
1640
330
1E
100
AcDbEntity
  8
SCHRAFF
100
AcDbCircle
 10
216.3236150165478
 20
337.0731132226083
 30
0.0
 40
5.0
100
AcDbArc
 50
300.6301023541565
 51
14.36989764584501
  0
ARC
  5
1641
330
1E
100
AcDbEntity
  8
SCHRAFF
100
AcDbCircle
 10
220.9430126791043
 20
335.1596960607829
 30
0.0
 40
5.0
100
AcDbArc
 50
300.6301023541565
 51
14.36989764584501
  0
ARC
  5
1642
330
1E
100
AcDbEntity
  8
SCHRAFF
100
AcDbCircle
 10
225.5624103416607
 20
333.2462788989575
 30
0.0
 40
5.0
100
AcDbArc
 50
300.6301023541565
 51
14.36989764584501
  0
ARC
  5
1643
330
1E
100
AcDbEntity
  8
SCHRAFF
100
AcDbCircle
 10
230.1818080042171
 20
331.332861737132
 30
0.0
 40
5.0
100
AcDbArc
 50
300.6301023541565
 51
14.36989764584501
  0
ARC
  5
1644
330
1E
100
AcDbEntity
  8
SCHRAFF
100
AcDbCircle
 10
234.8012056667736
 20
329.4194445753066
 30
0.0
 40
5.0
100
AcDbArc
 50
300.6301023541565
 51
14.36989764584501
  0
ARC
  5
1646
330
1E
100
AcDbEntity
  8
SCHRAFF
100
AcDbCircle
 10
239.42060332933
 20
327.5060274134812
 30
0.0
 40
5.0
100
AcDbArc
 50
300.6301023541565
 51
14.36989764584501
  0
ARC
  5
1647
330
1E
100
AcDbEntity
  8
SCHRAFF
100
AcDbCircle
 10
244.0400009918864
 20
325.5926102516557
 30
0.0
 40
5.0
100
AcDbArc
 50
300.6301023541565
 51
14.36989764584501
  0
ARC
  5
1648
330
1E
100
AcDbEntity
  8
SCHRAFF
100
AcDbCircle
 10
248.6593986544428
 20
323.6791930898302
 30
0.0
 40
5.0
100
AcDbArc
 50
300.6301023541565
 51
14.36989764584501
  0
ARC
  5
1649
330
1E
100
AcDbEntity
  8
SCHRAFF
100
AcDbCircle
 10
253.2787963169992
 20
321.7657759280048
 30
0.0
 40
5.0
100
AcDbArc
 50
300.6301023541565
 51
14.36989764584501
  0
ARC
  5
164A
330
1E
100
AcDbEntity
  8
SCHRAFF
100
AcDbCircle
 10
257.8981939795558
 20
319.8523587661794
 30
0.0
 40
5.0
100
AcDbArc
 50
300.6301023541565
 51
14.36989764584501
  0
ARC
  5
164B
102
{ACAD_REACTORS
330
1654
102
}
330
1E
100
AcDbEntity
  8
SCHRAFF
100
AcDbCircle
 10
262.6797852489757
 20
317.8717588126608
 30
0.0
 40
4.362648041815128
100
AcDbArc
 50
294.0551737574914
 51
20.94482624251061
  0
ARC
  5
164C
102
{ACAD_REACTORS
330
1650
102
}
330
1E
100
AcDbEntity
  8
SCHRAFF
100
AcDbCircle
 10
107.3864985671612
 20
382.1963443017614
 30
0.0
 40
3.116644736322843
100
AcDbArc
 50
83.22499260628871
 51
231.7750073937122
  0
HATCH
  5
1650
330
1E
100
AcDbEntity
  8
SCHRAFF
100
AcDbHatch
 10
0.0
 20
0.0
 30
0.0
210
0.0
220
0.0
230
1.0
  2
_USER
 70
     0
 71
     1
 91
        1
 92
        7
 72
     1
 73
     1
 93
        3
 10
105.4580711151933
 20
382.9951251064191
 42
0.0
 10
107.7541717093839
 20
385.2912257006096
 42
0.7573235302007828
 10
105.4580711151934
 20
379.7479485055418
 42
0.0
 97
        3
330
1209
330
164C
330
F3D
 75
     0
 76
     0
 52
0.0
 41
0.1
 77
     0
 78
     1
 53
0.0
 43
0.0
 44
-17.96251323393358
 45
0.0
 46
0.1
 79
     0
 47
0.0424648261889135
 98
        1
 10
105.0493050283085
 20
382.4280660843758
  0
HATCH
  5
1654
330
1E
100
AcDbEntity
  8
SCHRAFF
100
AcDbHatch
 10
0.0
 20
0.0
 30
0.0
210
0.0
220
0.0
230
1.0
  2
_USER
 70
     0
 71
     1
 91
        1
 92
        7
 72
     1
 73
     1
 93
        3
 10
266.754171709384
 20
319.4312692832876
 42
0.0
 10
264.4580711151935
 20
317.135168689097
 42
0.0
 10
264.4580711151935
 20
313.8879920882197
 42
0.3984015344038388
 97
        3
330
1207
330
EFF
330
164B
 75
     0
 76
     0
 52
0.0
 41
0.1
 77
     0
 78
     1
 53
0.0
 43
0.0
 44
-17.96251323393358
 45
0.0
 46
0.1
 79
     0
 47
0.0644074162973957
 98
        1
 10
265.7299284470055
 20
316.383297580961
  0
TEXT
  5
1655
330
1E
100
AcDbEntity
  8
BEM
100
AcDbText
 10
416.5811541437437
 20
12.14804815338303
 30
0.0
 40
4.0
  1
Diese Zeichnung ist urheberrechtlich geschützt und bleibt unser Eigentum. Sie darf weder ganz noch teilweise vervielfältigt und nicht an Dritte weitergegeben werden.
 50
90.0
 41
0.8
  7
GREEKS
100
AcDbText
  0
TEXT
  5
165A
330
1E
100
AcDbEntity
  8
TEXT
 62
     1
100
AcDbText
 10
370.6872193220621
 20
62.91084877520188
 30
0.0
 40
7.0
  1

 41
0.8
  7
GREEKS
 72
     1
 11
370.6872193220621
 21
62.91084877520188
 31
0.0
100
AcDbText
  0
TEXT
  5
16CF
330
1E
100
AcDbEntity
  8
TEXT
100
AcDbText
 10
192.6882715247924
 20
88.30381894129255
 30
0.0
 40
4.0
  1
DIN EN1124-3
 41
0.8
  7
GREEKS
 72
     1
 11
209.6787477152686
 21
88.30381894129255
 31
0.0
100
AcDbText
  0
TEXT
  5
170C
330
1E
100
AcDbEntity
  8
TEXT
100
AcDbText
 10
170.7037590129979
 20
63.10765040825732
 30
0.0
 40
4.0
  1
14.04.
 41
0.8
  7
GREEKS
 72
     1
 11
177.4085209177598
 21
63.10765040825732
 31
0.0
100
AcDbText
  0
ENDSEC
  0
SECTION
  2
OBJECTS
  0
DICTIONARY
  5
C
330
0
100
AcDbDictionary
281
     1
  3
ACAD_COLOR
350
1607
  3
ACAD_GROUP
350
D
  3
ACAD_LAYOUT
350
19
  3
ACAD_MATERIAL
350
1606
  3
ACAD_MLINESTYLE
350
16
  3
ACAD_PLOTSETTINGS
350
18
  3
ACAD_PLOTSTYLENAME
350
E
  3
AcDbVariableDictionary
350
246
  0
DICTIONARY
  5
1607
102
{ACAD_REACTORS
330
C
102
}
330
C
100
AcDbDictionary
281
     1
  0
DICTIONARY
  5
D
102
{ACAD_REACTORS
330
C
102
}
330
C
100
AcDbDictionary
281
     1
  0
DICTIONARY
  5
19
102
{ACAD_REACTORS
330
C
102
}
330
C
100
AcDbDictionary
281
     1
  3
Layout1
350
1D
  3
Model
350
21
  0
DICTIONARY
  5
1606
102
{ACAD_REACTORS
330
C
102
}
330
C
100
AcDbDictionary
281
     1
  0
DICTIONARY
  5
16
102
{ACAD_REACTORS
330
C
102
}
330
C
100
AcDbDictionary
281
     1
  3
Standard
350
17
  0
DICTIONARY
  5
18
102
{ACAD_REACTORS
330
C
102
}
330
C
100
AcDbDictionary
281
     1
  0
ACDBDICTIONARYWDFLT
  5
E
102
{ACAD_REACTORS
330
C
102
}
330
C
100
AcDbDictionary
281
     1
  3
Normal
350
F
100
AcDbDictionaryWithDefault
340
F
  0
DICTIONARY
  5
246
102
{ACAD_REACTORS
330
C
102
}
330
C
100
AcDbDictionary
281
     1
  3
DIMASSOC
350
16CB
  3
PROJECTNAME
350
16CC
  3
SORTENTS
350
247
  0
LAYOUT
  5
1D
102
{ACAD_REACTORS
330
19
102
}
330
19
100
AcDbPlotSettings
  1

  2
Tektronix Phaser 740
  4

  6

 40
0.0
 41
0.0
 42
0.0
 43
0.0
 44
0.0
 45
0.0
 46
0.0
 47
0.0
 48
0.0
 49
0.0
140
0.0
141
0.0
142
1.0
143
1.0
 70
   688
 72
     0
 73
     0
 74
     5
  7
monochrome.ctb
 75
    16
147
1.0
 76
     0
 77
     2
 78
   300
148
0.0
149
0.0
100
AcDbLayout
  1
Layout1
 70
     0
 71
     1
 10
0.0
 20
0.0
 11
12.0
 21
9.0
 12
0.0
 22
0.0
 32
0.0
 14
1.000000000000000E+20
 24
1.000000000000000E+20
 34
1.000000000000000E+20
 15
-1.000000000000000E+20
 25
-1.000000000000000E+20
 35
-1.000000000000000E+20
146
0.0
 13
0.0
 23
0.0
 33
0.0
 16
1.0
 26
0.0
 36
0.0
 17
0.0
 27
1.0
 37
0.0
 76
     0
330
1A
  0
LAYOUT
  5
21
102
{ACAD_REACTORS
330
19
102
}
330
19
100
AcDbPlotSettings
  1

  2
Tektronix Phaser 740
  4
A4
  6

 40
5.873749732971191
 41
6.085414409637451
 42
5.577407836914062
 43
5.662078857421875
 44
209.9733276367187
 45
296.9683227539062
 46
0.0
 47
0.0
 48
0.0
 49
0.0
140
0.0
141
0.0
142
1.0
143
1.0
 70
 11952
 72
     0
 73
     1
 74
     0
  7
monochrome.ctb
 75
     0
147
1.0
 76
     0
 77
     2
 78
   300
148
1150.120678237584
149
45.30495740799864
100
AcDbLayout
  1
Model
 70
     1
 71
     0
 10
0.0
 20
0.0
 11
12.0
 21
9.0
 12
0.0
 22
0.0
 32
0.0
 14
0.0
 24
0.0
 34
0.0
 15
0.0
 25
0.0
 35
0.0
146
0.0
 13
0.0
 23
0.0
 33
0.0
 16
1.0
 26
0.0
 36
0.0
 17
0.0
 27
1.0
 37
0.0
 76
     0
330
1E
  0
MLINESTYLE
  5
17
102
{ACAD_REACTORS
330
16
102
}
330
16
100
AcDbMlineStyle
  2
STANDARD
 70
     0
  3

 62
   256
 51
90.0
 52
90.0
 71
     2
 49
0.5
 62
   256
  6
BYLAYER
 49
-0.5
 62
   256
  6
BYLAYER
  0
ACDBPLACEHOLDER
  5
F
102
{ACAD_REACTORS
330
E
102
}
330
E
  0
DICTIONARYVAR
  5
16CB
102
{ACAD_REACTORS
330
246
102
}
330
246
100
DictionaryVariables
280
     0
  1
1
  0
DICTIONARYVAR
  5
16CC
102
{ACAD_REACTORS
330
246
102
}
330
246
100
DictionaryVariables
280
     0
  1

  0
DICTIONARYVAR
  5
247
102
{ACAD_REACTORS
330
246
102
}
330
246
100
DictionaryVariables
280
     0
  1
96
  0
ENDSEC
  0
EOF
