  0
SECTION
  2
HEADER
  9
$ACADVER
  1
AC1018
  9
$ACADMAINTVER
 70
     2
  9
$DWGCODEPAGE
  3
ANSI_1252
  9
$INSBASE
 10
0.0
 20
0.0
 30
0.0
  9
$EXTMIN
 10
-0.0320385670876249
 20
-0.0453116877386037
 30
-0.000000000000013
  9
$EXTMAX
 10
420.0000019560163
 20
594.0000027663659
 30
0.0000000000000023
  9
$LIMMIN
 10
0.0
 20
0.0
  9
$LIMMAX
 10
419.9999999999999
 20
594.0000000000002
  9
$ORTHOMODE
 70
     0
  9
$REGENMODE
 70
     1
  9
$FILLMODE
 70
     1
  9
$QTEXTMODE
 70
     0
  9
$MIRRTEXT
 70
     1
  9
$LTSCALE
 40
20.0
  9
$ATTMODE
 70
     1
  9
$TEXTSIZE
 40
3.5
  9
$TRACEWID
 40
0.5
  9
$TEXTSTYLE
  7
STANDARD
  9
$CLAYER
  8
SCHRAFF
  9
$CELTYPE
  6
ByLayer
  9
$CECOLOR
 62
   256
  9
$CELTSCALE
 40
1.0
  9
$DISPSILH
 70
     0
  9
$DIMSCALE
 40
2.0
  9
$DIMASZ
 40
3.5
  9
$DIMEXO
 40
1.0
  9
$DIMDLI
 40
7.0
  9
$DIMRND
 40
0.0
  9
$DIMDLE
 40
0.0
  9
$DIMEXE
 40
1.0
  9
$DIMTP
 40
0.0
  9
$DIMTM
 40
0.0
  9
$DIMTXT
 40
3.5
  9
$DIMCEN
 40
1.5
  9
$DIMTSZ
 40
0.0
  9
$DIMTOL
 70
     0
  9
$DIMLIM
 70
     0
  9
$DIMTIH
 70
     0
  9
$DIMTOH
 70
     0
  9
$DIMSE1
 70
     0
  9
$DIMSE2
 70
     0
  9
$DIMTAD
 70
     1
  9
$DIMZIN
 70
     8
  9
$DIMBLK
  1

  9
$DIMASO
 70
     1
  9
$DIMSHO
 70
     0
  9
$DIMPOST
  1

  9
$DIMAPOST
  1

  9
$DIMALT
 70
     0
  9
$DIMALTD
 70
     2
  9
$DIMALTF
 40
25.4
  9
$DIMLFAC
 40
1.0
  9
$DIMTOFL
 70
     1
  9
$DIMTVP
 40
0.0
  9
$DIMTIX
 70
     0
  9
$DIMSOXD
 70
     0
  9
$DIMSAH
 70
     0
  9
$DIMBLK1
  1

  9
$DIMBLK2
  1

  9
$DIMSTYLE
  2
Standard
  9
$DIMCLRD
 70
     0
  9
$DIMCLRE
 70
     0
  9
$DIMCLRT
 70
     1
  9
$DIMTFAC
 40
0.5142857142857144
  9
$DIMGAP
 40
1.5
  9
$DIMJUST
 70
     0
  9
$DIMSD1
 70
     0
  9
$DIMSD2
 70
     0
  9
$DIMTOLJ
 70
     1
  9
$DIMTZIN
 70
     8
  9
$DIMALTZ
 70
     8
  9
$DIMALTTZ
 70
     8
  9
$DIMUPT
 70
     0
  9
$DIMDEC
 70
     2
  9
$DIMTDEC
 70
     2
  9
$DIMALTU
 70
     2
  9
$DIMALTTD
 70
     2
  9
$DIMTXSTY
  7
STANDARD
  9
$DIMAUNIT
 70
     0
  9
$DIMADEC
 70
     2
  9
$DIMALTRND
 40
0.0
  9
$DIMAZIN
 70
     2
  9
$DIMDSEP
 70
    46
  9
$DIMATFIT
 70
     3
  9
$DIMFRAC
 70
     0
  9
$DIMLDRBLK
  1

  9
$DIMLUNIT
 70
     2
  9
$DIMLWD
 70
    -2
  9
$DIMLWE
 70
    -2
  9
$DIMTMOVE
 70
     0
  9
$LUNITS
 70
     2
  9
$LUPREC
 70
     2
  9
$SKETCHINC
 40
1.0
  9
$FILLETRAD
 40
154.0
  9
$AUNITS
 70
     1
  9
$AUPREC
 70
     3
  9
$MENU
  1
ACAD
  9
$ELEVATION
 40
0.0
  9
$PELEVATION
 40
0.0
  9
$THICKNESS
 40
0.0
  9
$LIMCHECK
 70
     0
  9
$CHAMFERA
 40
0.0
  9
$CHAMFERB
 40
0.0
  9
$CHAMFERC
 40
0.0
  9
$CHAMFERD
 40
0.0
  9
$SKPOLY
 70
     0
  9
$TDCREATE
 40
2452040.637099653
  9
$TDUCREATE
 40
2452040.553766320
  9
$TDUPDATE
 40
2455666.533907917
  9
$TDUUPDATE
 40
2455666.450574583
  9
$TDINDWG
 40
0.1872957060
  9
$TDUSRTIMER
 40
0.1872957060
  9
$USRTIMER
 70
     1
  9
$ANGBASE
 50
0.0
  9
$ANGDIR
 70
     0
  9
$PDMODE
 70
     0
  9
$PDSIZE
 40
0.0
  9
$PLINEWID
 40
0.0
  9
$SPLFRAME
 70
     0
  9
$SPLINETYPE
 70
     6
  9
$SPLINESEGS
 70
     8
  9
$HANDSEED
  5
B4C
  9
$SURFTAB1
 70
     6
  9
$SURFTAB2
 70
     6
  9
$SURFTYPE
 70
     6
  9
$SURFU
 70
     6
  9
$SURFV
 70
     6
  9
$UCSBASE
  2

  9
$UCSNAME
  2

  9
$UCSORG
 10
0.0
 20
0.0
 30
0.0
  9
$UCSXDIR
 10
1.0
 20
0.0
 30
0.0
  9
$UCSYDIR
 10
0.0
 20
1.0
 30
0.0
  9
$UCSORTHOREF
  2

  9
$UCSORTHOVIEW
 70
     0
  9
$UCSORGTOP
 10
0.0
 20
0.0
 30
0.0
  9
$UCSORGBOTTOM
 10
0.0
 20
0.0
 30
0.0
  9
$UCSORGLEFT
 10
0.0
 20
0.0
 30
0.0
  9
$UCSORGRIGHT
 10
0.0
 20
0.0
 30
0.0
  9
$UCSORGFRONT
 10
0.0
 20
0.0
 30
0.0
  9
$UCSORGBACK
 10
0.0
 20
0.0
 30
0.0
  9
$PUCSBASE
  2

  9
$PUCSNAME
  2

  9
$PUCSORG
 10
0.0
 20
0.0
 30
0.0
  9
$PUCSXDIR
 10
1.0
 20
0.0
 30
0.0
  9
$PUCSYDIR
 10
0.0
 20
1.0
 30
0.0
  9
$PUCSORTHOREF
  2

  9
$PUCSORTHOVIEW
 70
     0
  9
$PUCSORGTOP
 10
0.0
 20
0.0
 30
0.0
  9
$PUCSORGBOTTOM
 10
0.0
 20
0.0
 30
0.0
  9
$PUCSORGLEFT
 10
0.0
 20
0.0
 30
0.0
  9
$PUCSORGRIGHT
 10
0.0
 20
0.0
 30
0.0
  9
$PUCSORGFRONT
 10
0.0
 20
0.0
 30
0.0
  9
$PUCSORGBACK
 10
0.0
 20
0.0
 30
0.0
  9
$USERI1
 70
     0
  9
$USERI2
 70
     0
  9
$USERI3
 70
     0
  9
$USERI4
 70
     0
  9
$USERI5
 70
     0
  9
$USERR1
 40
0.0
  9
$USERR2
 40
0.0
  9
$USERR3
 40
0.0
  9
$USERR4
 40
0.0
  9
$USERR5
 40
0.0
  9
$WORLDVIEW
 70
     1
  9
$SHADEDGE
 70
     3
  9
$SHADEDIF
 70
    70
  9
$TILEMODE
 70
     1
  9
$MAXACTVP
 70
    16
  9
$PINSBASE
 10
0.0
 20
0.0
 30
0.0
  9
$PLIMCHECK
 70
     0
  9
$PEXTMIN
 10
1.000000000000000E+20
 20
1.000000000000000E+20
 30
1.000000000000000E+20
  9
$PEXTMAX
 10
-1.000000000000000E+20
 20
-1.000000000000000E+20
 30
-1.000000000000000E+20
  9
$PLIMMIN
 10
0.0
 20
0.0
  9
$PLIMMAX
 10
12.0
 20
9.0
  9
$UNITMODE
 70
     0
  9
$VISRETAIN
 70
     0
  9
$PLINEGEN
 70
     0
  9
$PSLTSCALE
 70
     0
  9
$TREEDEPTH
 70
  3020
  9
$CMLSTYLE
  2
Standard
  9
$CMLJUST
 70
     0
  9
$CMLSCALE
 40
1.0
  9
$PROXYGRAPHICS
 70
     1
  9
$MEASUREMENT
 70
     0
  9
$CELWEIGHT
370
    -1
  9
$ENDCAPS
280
     0
  9
$JOINSTYLE
280
     0
  9
$LWDISPLAY
290
     0
  9
$INSUNITS
 70
     0
  9
$HYPERLINKBASE
  1

  9
$STYLESHEET
  1
monochrome 1.ctb
  9
$XEDIT
290
     1
  9
$CEPSNTYPE
380
     0
  9
$PSTYLEMODE
290
     1
  9
$FINGERPRINTGUID
  2
{7AADB5C8-6110-11D8-B72B-000102183313}
  9
$VERSIONGUID
  2
{667F34F7-E82E-4FB3-A436-63928595422E}
  9
$EXTNAMES
290
     1
  9
$PSVPSCALE
 40
0.0
  9
$OLESTARTUP
290
     0
  9
$SORTENTS
280
    96
  9
$INDEXCTL
280
     0
  9
$HIDETEXT
280
     0
  9
$XCLIPFRAME
290
     0
  9
$HALOGAP
280
     0
  9
$OBSCOLOR
 70
   257
  9
$OBSLTYPE
280
     0
  9
$INTERSECTIONDISPLAY
280
     0
  9
$INTERSECTIONCOLOR
 70
   257
  9
$DIMASSOC
280
     1
  9
$PROJECTNAME
  1

  0
ENDSEC
  0
SECTION
  2
CLASSES
  0
CLASS
  1
ACDBDICTIONARYWDFLT
  2
AcDbDictionaryWithDefault
  3
ObjectDBX Classes
 90
        0
 91
        1
280
     0
281
     0
  0
CLASS
  1
DICTIONARYVAR
  2
AcDbDictionaryVar
  3
ObjectDBX Classes
 90
        0
 91
        3
280
     0
281
     0
  0
ENDSEC
  0
SECTION
  2
TABLES
  0
TABLE
  2
VPORT
  5
8
330
0
100
AcDbSymbolTable
 70
     3
  0
VPORT
  5
B4B
330
8
100
AcDbSymbolTableRecord
100
AcDbViewportTableRecord
  2
*Active
 70
     0
 10
0.0
 20
0.0
 11
1.0
 21
1.0
 12
210.0
 22
297.0
 13
0.0
 23
0.0
 14
1.0
 24
1.0
 15
10.0
 25
10.0
 16
0.0
 26
0.0
 36
1.0
 17
0.0
 27
0.0
 37
0.0
 40
594.0
 41
1.334231805929919
 42
50.0
 43
0.0
 44
0.0
 50
0.0
 51
0.0
 71
     0
 72
  1500
 73
     1
 74
     0
 75
     0
 76
     0
 77
     0
 78
     0
281
     0
 65
     1
110
0.0
120
0.0
130
0.0
111
1.0
121
0.0
131
0.0
112
0.0
122
1.0
132
0.0
 79
     0
146
0.0
  0
ENDTAB
  0
TABLE
  2
LTYPE
  5
5
330
0
100
AcDbSymbolTable
 70
     2
  0
LTYPE
  5
13
330
5
100
AcDbSymbolTableRecord
100
AcDbLinetypeTableRecord
  2
ByBlock
 70
     0
  3

 72
    65
 73
     0
 40
0.0
  0
LTYPE
  5
14
330
5
100
AcDbSymbolTableRecord
100
AcDbLinetypeTableRecord
  2
ByLayer
 70
     0
  3

 72
    65
 73
     0
 40
0.0
  0
LTYPE
  5
15
330
5
100
AcDbSymbolTableRecord
100
AcDbLinetypeTableRecord
  2
Continuous
 70
     0
  3
Solid line
 72
    65
 73
     0
 40
0.0
  0
LTYPE
  5
35
330
5
100
AcDbSymbolTableRecord
100
AcDbLinetypeTableRecord
  2
STRICHPUNKT
 70
     0
  3
__ . __ . __ . __ . __ . __ . __ . __ . __ . __
 72
    65
 73
     4
 40
1.0
 49
0.5
 74
     0
 49
-0.25
 74
     0
 49
0.0
 74
     0
 49
-0.25
 74
     0
  0
ENDTAB
  0
TABLE
  2
LAYER
  5
2
330
0
100
AcDbSymbolTable
 70
     9
  0
LAYER
  5
10
330
2
100
AcDbSymbolTableRecord
100
AcDbLayerTableRecord
  2
0
 70
     0
 62
     7
  6
Continuous
370
    -3
390
F
  0
LAYER
  5
38
330
2
100
AcDbSymbolTableRecord
100
AcDbLayerTableRecord
  2
VOLL
 70
     0
 62
     1
  6
Continuous
370
    -3
390
F
  0
LAYER
  5
39
330
2
100
AcDbSymbolTableRecord
100
AcDbLayerTableRecord
  2
HILF
 70
     0
 62
     2
  6
Continuous
370
    -3
390
F
  0
LAYER
  5
3A
330
2
100
AcDbSymbolTableRecord
100
AcDbLayerTableRecord
  2
MITTEL
 70
     0
 62
     2
  6
STRICHPUNKT
370
    -3
390
F
  0
LAYER
  5
3B
330
2
100
AcDbSymbolTableRecord
100
AcDbLayerTableRecord
  2
BEM
 70
     0
 62
     7
  6
Continuous
370
    -3
390
F
  0
LAYER
  5
3C
330
2
100
AcDbSymbolTableRecord
100
AcDbLayerTableRecord
  2
STEMPEL
 70
     0
 62
     3
  6
Continuous
370
    -3
390
F
  0
LAYER
  5
3D
330
2
100
AcDbSymbolTableRecord
100
AcDbLayerTableRecord
  2
TEXT
 70
     0
 62
     7
  6
Continuous
370
    -3
390
F
  0
LAYER
  5
3E
330
2
100
AcDbSymbolTableRecord
100
AcDbLayerTableRecord
  2
DEFPOINTS
 70
     0
 62
     7
  6
Continuous
290
     0
370
    -3
390
F
  0
LAYER
  5
3F
330
2
100
AcDbSymbolTableRecord
100
AcDbLayerTableRecord
  2
SCHRAFF
 70
     0
 62
     7
  6
Continuous
370
    -3
390
F
  0
ENDTAB
  0
TABLE
  2
STYLE
  5
3
330
0
100
AcDbSymbolTable
 70
     2
  0
STYLE
  5
11
330
3
100
AcDbSymbolTableRecord
100
AcDbTextStyleTableRecord
  2
STANDARD
 70
     0
 40
0.0
 41
0.8
 50
0.0
 71
     0
 42
3.5
  3
simplex.shx
  4

  0
STYLE
  5
34
330
3
100
AcDbSymbolTableRecord
100
AcDbTextStyleTableRecord
  2
GREEKS
 70
     0
 40
0.0
 41
0.8
 50
0.0
 71
     0
 42
2.5
  3
SIMPLEX.shx
  4

  0
ENDTAB
  0
TABLE
  2
VIEW
  5
6
330
0
100
AcDbSymbolTable
 70
     0
  0
ENDTAB
  0
TABLE
  2
UCS
  5
7
330
0
100
AcDbSymbolTable
 70
     0
  0
ENDTAB
  0
TABLE
  2
APPID
  5
9
330
0
100
AcDbSymbolTable
 70
     2
  0
APPID
  5
12
330
9
100
AcDbSymbolTableRecord
100
AcDbRegAppTableRecord
  2
ACAD
 70
     0
  0
APPID
  5
895
330
9
100
AcDbSymbolTableRecord
100
AcDbRegAppTableRecord
  2
DCO15
 70
     0
  0
ENDTAB
  0
TABLE
  2
DIMSTYLE
  5
A
330
0
100
AcDbSymbolTable
 70
     1
100
AcDbDimStyleTable
 71
     1
340
1CB
  0
DIMSTYLE
105
1CB
102
{ACAD_REACTORS
330
695
330
741
330
75C
330
A46
102
}
330
A
100
AcDbSymbolTableRecord
100
AcDbDimStyleTableRecord
  2
Standard
 70
     0
340
11
  0
ENDTAB
  0
TABLE
  2
BLOCK_RECORD
  5
1
330
0
100
AcDbSymbolTable
 70
     9
  0
BLOCK_RECORD
  5
1E
330
1
100
AcDbSymbolTableRecord
100
AcDbBlockTableRecord
  2
*Model_Space
340
21
  0
BLOCK_RECORD
  5
1A
330
1
100
AcDbSymbolTableRecord
100
AcDbBlockTableRecord
  2
*Paper_Space
340
1D
  0
BLOCK_RECORD
  5
22
330
1
100
AcDbSymbolTableRecord
100
AcDbBlockTableRecord
  2
LOGO
340
0
102
{BLKREFS
331
135
102
}
  0
BLOCK_RECORD
  5
6B2
330
1
100
AcDbSymbolTableRecord
100
AcDbBlockTableRecord
  2
*D2
340
0
  0
BLOCK_RECORD
  5
742
330
1
100
AcDbSymbolTableRecord
100
AcDbBlockTableRecord
  2
*D3
340
0
  0
BLOCK_RECORD
  5
75D
330
1
100
AcDbSymbolTableRecord
100
AcDbBlockTableRecord
  2
*D4
340
0
  0
BLOCK_RECORD
  5
A47
330
1
100
AcDbSymbolTableRecord
100
AcDbBlockTableRecord
  2
*D6
340
0
  0
ENDTAB
  0
ENDSEC
  0
SECTION
  2
BLOCKS
  0
BLOCK
  5
43
330
1E
100
AcDbEntity
  8
0
100
AcDbBlockBegin
  2
*Model_Space
 70
     0
 10
0.0
 20
0.0
 30
0.0
  3
*Model_Space
  1

  0
ENDBLK
  5
44
330
1E
100
AcDbEntity
  8
0
100
AcDbBlockEnd
  0
BLOCK
  5
41
330
1A
100
AcDbEntity
 67
     1
  8
0
100
AcDbBlockBegin
  2
*Paper_Space
 70
     0
 10
0.0
 20
0.0
 30
0.0
  3
*Paper_Space
  1

  0
ENDBLK
  5
42
330
1A
100
AcDbEntity
 67
     1
  8
0
100
AcDbBlockEnd
  0
BLOCK
  5
45
330
22
100
AcDbEntity
  8
0
100
AcDbBlockBegin
  2
LOGO
 70
     0
 10
0.0
 20
0.0
 30
0.0
  3
LOGO
  1

  0
ARC
  5
46
330
22
100
AcDbEntity
  8
0
100
AcDbCircle
 10
11.59973089678112
 20
-9.271599258481501
 30
0.0
 40
4.5
100
AcDbArc
 50
270.0
 51
231.0575587310159
  0
LINE
  5
47
330
22
100
AcDbEntity
  8
0
100
AcDbLine
 10
3.599730896781125
 20
-4.771599258481529
 30
0.0
 11
3.599730896781153
 21
-11.77159925848133
 31
0.0
  0
LINE
  5
48
330
22
100
AcDbEntity
  8
0
100
AcDbLine
 10
2.599730896781125
 20
-4.771599258481529
 30
0.0
 11
2.599730896781153
 21
-11.77159925848133
 31
0.0
  0
CIRCLE
  5
49
330
22
100
AcDbEntity
  8
0
100
AcDbCircle
 10
11.59973089678112
 20
-9.271599258481501
 30
0.0
 40
3.5
  0
ARC
  5
4A
330
22
100
AcDbEntity
  8
0
100
AcDbCircle
 10
31.59973089678115
 20
-9.271599258481472
 30
0.0
 40
4.5
100
AcDbArc
 50
270.0
 51
231.0575587310182
  0
LINE
  5
4B
330
22
100
AcDbEntity
  8
0
100
AcDbLine
 10
17.59973089678112
 20
-4.771599258481472
 30
0.0
 11
17.59973089678115
 21
-13.77159925848147
 31
0.0
  0
ARC
  5
4C
330
22
100
AcDbEntity
  8
0
100
AcDbCircle
 10
22.59973089678116
 20
-7.271599258481472
 30
0.0
 40
2.5
100
AcDbArc
 50
293.1161887722295
 51
90.0
  0
CIRCLE
  5
4D
330
22
100
AcDbEntity
  8
0
100
AcDbCircle
 10
31.59973089678115
 20
-9.271599258481472
 30
0.0
 40
3.5
  0
ARC
  5
4E
330
22
100
AcDbEntity
  8
0
100
AcDbCircle
 10
4.599730896781153
 20
-11.77159925848133
 30
0.0
 40
1.0
100
AcDbArc
 50
180.0
 51
270.0
  0
ARC
  5
4F
330
22
100
AcDbEntity
  8
0
100
AcDbCircle
 10
4.599730896781153
 20
-11.77159925848133
 30
0.0
 40
2.0
100
AcDbArc
 50
179.9999999999992
 51
270.0
  0
LINE
  5
50
330
22
100
AcDbEntity
  8
0
100
AcDbLine
 10
11.59973089678115
 20
-13.77159925848144
 30
0.0
 11
4.599730896781153
 21
-13.77159925848147
 31
0.0
  0
LINE
  5
51
330
22
100
AcDbEntity
  8
0
100
AcDbLine
 10
8.771303772034769
 20
-12.77159925848136
 30
0.0
 11
4.599730896781153
 21
-12.77159925848133
 31
0.0
  0
LINE
  5
52
330
22
100
AcDbEntity
  8
0
100
AcDbLine
 10
31.59973089678115
 20
-13.77159925848147
 30
0.0
 11
23.6715276665056
 21
-13.77159925848144
 31
0.0
  0
LINE
  5
53
330
22
100
AcDbEntity
  8
0
100
AcDbLine
 10
23.56565672307022
 20
-9.51278021337896
 30
0.0
 11
24.4388546544846
 21
-12.77159925848144
 31
0.0
  0
LINE
  5
54
330
22
100
AcDbEntity
  8
0
100
AcDbLine
 10
22.59973089678116
 20
-9.771599258481472
 30
0.0
 11
18.59973089678112
 21
-9.771599258481472
 31
0.0
  0
LINE
  5
55
330
22
100
AcDbEntity
  8
0
100
AcDbLine
 10
18.59973089678115
 20
-13.77159925848144
 30
0.0
 11
17.59973089678115
 21
-13.77159925848144
 31
0.0
  0
LINE
  5
56
330
22
100
AcDbEntity
  8
0
100
AcDbLine
 10
18.59973089678115
 20
-9.771599258481472
 30
0.0
 11
18.59973089678115
 21
-13.77159925848144
 31
0.0
  0
LINE
  5
57
330
22
100
AcDbEntity
  8
0
100
AcDbLine
 10
22.59973089678116
 20
-9.771599258481472
 30
0.0
 11
23.67152766650562
 21
-13.77159925848147
 31
0.0
  0
ARC
  5
58
330
22
100
AcDbEntity
  8
0
100
AcDbCircle
 10
22.59973089678116
 20
-7.271599258481472
 30
0.0
 40
2.5
100
AcDbArc
 50
270.0
 51
270.0000000000007
  0
LINE
  5
59
330
22
100
AcDbEntity
  8
0
100
AcDbLine
 10
28.77130377203494
 20
-12.77159925848147
 30
0.0
 11
24.43885465448463
 21
-12.77159925848144
 31
0.0
  0
LINE
  5
5A
330
22
100
AcDbEntity
  8
0
100
AcDbLine
 10
3.599730896781125
 20
-4.771599258481472
 30
0.0
 11
2.599730896781125
 21
-4.771599258481472
 31
0.0
  0
LINE
  5
5B
330
22
100
AcDbEntity
  8
0
100
AcDbLine
 10
22.59973089678116
 20
-8.771599258481472
 30
0.0
 11
18.59973089678115
 21
-8.771599258481472
 31
0.0
  0
LINE
  5
5C
330
22
100
AcDbEntity
  8
0
100
AcDbLine
 10
22.59973089678116
 20
-5.771599258481472
 30
0.0
 11
18.59973089678115
 21
-5.771599258481472
 31
0.0
  0
LINE
  5
5D
330
22
100
AcDbEntity
  8
0
100
AcDbLine
 10
22.59973089678116
 20
-4.771599258481472
 30
0.0
 11
17.59973089678115
 21
-4.771599258481472
 31
0.0
  0
LINE
  5
5E
330
22
100
AcDbEntity
  8
0
100
AcDbLine
 10
18.59973089678115
 20
-5.771599258481472
 30
0.0
 11
18.59973089678115
 21
-8.771599258481472
 31
0.0
  0
ARC
  5
5F
330
22
100
AcDbEntity
  8
0
100
AcDbCircle
 10
22.59973089678116
 20
-7.271599258481472
 30
0.0
 40
1.5
100
AcDbArc
 50
270.0
 51
90.0
  0
ENDBLK
  5
60
330
22
100
AcDbEntity
  8
0
100
AcDbBlockEnd
  0
BLOCK
  5
6BC
330
6B2
100
AcDbEntity
  8
0
100
AcDbBlockBegin
  2
*D2
 70
     1
 10
0.0
 20
0.0
 30
0.0
  3
*D2
  1

  0
LINE
  5
A03
330
6B2
100
AcDbEntity
  8
BEM
 62
     0
370
    -2
100
AcDbLine
 10
148.1985840622011
 20
224.0269738002634
 30
0.0
 11
148.1985840622011
 21
198.1113458608542
 31
0.0
  0
LINE
  5
A04
330
6B2
100
AcDbEntity
  8
BEM
 62
     0
370
    -2
100
AcDbLine
 10
221.1985840622011
 20
224.0269738002637
 30
0.0
 11
221.1985840622011
 21
198.1113458608542
 31
0.0
  0
LINE
  5
A05
330
6B2
100
AcDbEntity
  8
BEM
 62
     0
370
    -2
100
AcDbLine
 10
155.1985840622011
 20
200.1113458608543
 30
0.0
 11
214.1985840622012
 21
200.1113458608543
 31
0.0
  0
SOLID
  5
A06
330
6B2
100
AcDbEntity
  8
BEM
 62
     0
100
AcDbTrace
 10
155.1985840622011
 20
201.2780125275209
 30
0.0
 11
155.1985840622011
 21
198.9446791941876
 31
0.0
 12
148.1985840622011
 22
200.1113458608543
 32
0.0
 13
148.1985840622011
 23
200.1113458608543
 33
0.0
  0
SOLID
  5
A07
330
6B2
100
AcDbEntity
  8
BEM
 62
     0
100
AcDbTrace
 10
214.1985840622012
 20
201.2780125275209
 30
0.0
 11
214.1985840622012
 21
198.9446791941876
 31
0.0
 12
221.1985840622011
 22
200.1113458608543
 32
0.0
 13
221.1985840622011
 23
200.1113458608543
 33
0.0
  0
MTEXT
  5
A08
330
6B2
100
AcDbEntity
  8
BEM
 62
     1
100
AcDbMText
 10
184.6985840622011
 20
206.6113458608543
 30
0.0
 40
7.0
 41
0.0
 71
     5
 72
     1
  1
\A1;%%c73
 73
     1
 44
1.0
  0
POINT
  5
A09
330
6B2
100
AcDbEntity
  8
DEFPOINTS
 62
     0
100
AcDbPoint
 10
148.1985840622011
 20
226.0269738002634
 30
0.0
  0
POINT
  5
A0A
330
6B2
100
AcDbEntity
  8
DEFPOINTS
 62
     0
100
AcDbPoint
 10
221.1985840622011
 20
226.0269738002637
 30
0.0
  0
POINT
  5
A0B
330
6B2
100
AcDbEntity
  8
DEFPOINTS
 62
     0
100
AcDbPoint
 10
221.1985840622011
 20
200.1113458608543
 30
0.0
  0
ENDBLK
  5
6BD
330
6B2
100
AcDbEntity
  8
0
100
AcDbBlockEnd
  0
BLOCK
  5
74C
330
742
100
AcDbEntity
  8
0
100
AcDbBlockBegin
  2
*D3
 70
     1
 10
0.0
 20
0.0
 30
0.0
  3
*D3
  1

  0
LINE
  5
B38
330
742
100
AcDbEntity
  8
BEM
 62
     0
370
    -2
100
AcDbLine
 10
146.6360273798307
 20
221.0269738002632
 30
0.0
 11
126.4762259791102
 21
221.0269738002632
 31
0.0
  0
LINE
  5
B39
330
742
100
AcDbEntity
  8
BEM
 62
     0
370
    -2
100
AcDbLine
 10
182.6985840622013
 20
378.0312659610653
 30
0.0
 11
126.4762259791102
 21
378.0312659610653
 31
0.0
  0
LINE
  5
B3A
330
742
100
AcDbEntity
  8
BEM
 62
     0
370
    -2
100
AcDbLine
 10
128.4762259791102
 20
228.0269738002632
 30
0.0
 11
128.4762259791102
 21
371.0312659610653
 31
0.0
  0
SOLID
  5
B3B
330
742
100
AcDbEntity
  8
BEM
 62
     0
100
AcDbTrace
 10
127.3095593124435
 20
228.0269738002632
 30
0.0
 11
129.6428926457768
 21
228.0269738002632
 31
0.0
 12
128.4762259791102
 22
221.0269738002632
 32
0.0
 13
128.4762259791102
 23
221.0269738002632
 33
0.0
  0
SOLID
  5
B3C
330
742
100
AcDbEntity
  8
BEM
 62
     0
100
AcDbTrace
 10
127.3095593124435
 20
371.0312659610654
 30
0.0
 11
129.6428926457769
 21
371.0312659610653
 31
0.0
 12
128.4762259791102
 22
378.0312659610653
 32
0.0
 13
128.4762259791102
 23
378.0312659610653
 33
0.0
  0
MTEXT
  5
B3D
330
742
100
AcDbEntity
  8
BEM
 62
     1
100
AcDbMText
 10
121.9762259791101
 20
299.5291198806643
 30
0.0
 40
7.0
 41
0.0
 71
     5
 72
     1
  1
\A1;157
 11
0.0000000000000001
 21
1.0
 31
0.0
 73
     1
 44
1.0
  0
POINT
  5
B3E
330
742
100
AcDbEntity
  8
DEFPOINTS
 62
     0
100
AcDbPoint
 10
148.6360273798307
 20
221.0269738002632
 30
0.0
  0
POINT
  5
B3F
330
742
100
AcDbEntity
  8
DEFPOINTS
 62
     0
100
AcDbPoint
 10
184.6985840622012
 20
378.0312659610653
 30
0.0
  0
POINT
  5
B40
330
742
100
AcDbEntity
  8
DEFPOINTS
 62
     0
100
AcDbPoint
 10
128.4762259791102
 20
378.0312659610653
 30
0.0
  0
ENDBLK
  5
74D
330
742
100
AcDbEntity
  8
0
100
AcDbBlockEnd
  0
BLOCK
  5
767
330
75D
100
AcDbEntity
  8
0
100
AcDbBlockBegin
  2
*D4
 70
     1
 10
0.0
 20
0.0
 30
0.0
  3
*D4
  1

  0
LINE
  5
B41
330
75D
100
AcDbEntity
  8
BEM
 62
     0
370
    -2
100
AcDbLine
 10
184.0145437755499
 20
379.9106512026371
 30
0.0
 11
158.1964443872344
 21
450.845296285269
 31
0.0
  0
LINE
  5
B42
330
75D
100
AcDbEntity
  8
BEM
 62
     0
370
    -2
100
AcDbLine
 10
333.1472108813359
 20
476.0027264933011
 30
0.0
 11
320.7673010950297
 21
510.0162490860626
 31
0.0
  0
LINE
  5
B43
330
75D
100
AcDbEntity
  8
BEM
 62
     0
370
    -2
100
AcDbLine
 10
165.4583330193871
 20
451.3600520469768
 30
0.0
 11
314.8734930361797
 21
505.7427228412112
 31
0.0
  0
SOLID
  5
B44
330
75D
100
AcDbEntity
  8
BEM
 62
     0
100
AcDbTrace
 10
165.0593095188404
 20
452.4563601045604
 30
0.0
 11
165.8573565199337
 21
450.2637439893932
 31
0.0
 12
158.8804846738857
 22
448.9659110436972
 32
0.0
 13
158.8804846738857
 23
448.9659110436972
 33
0.0
  0
SOLID
  5
B45
330
75D
100
AcDbEntity
  8
BEM
 62
     0
100
AcDbTrace
 10
314.474469535633
 20
506.8390308987948
 30
0.0
 11
315.2725165367262
 21
504.6464147836275
 31
0.0
 12
321.451341381681
 22
508.1368638444908
 32
0.0
 13
321.451341381681
 23
508.1368638444908
 33
0.0
  0
MTEXT
  5
B46
330
75D
100
AcDbEntity
  8
BEM
 62
     1
100
AcDbMText
 10
237.9427820961664
 20
484.6593894792023
 30
0.0
 40
7.0
 41
0.0
 71
     5
 72
     1
  1
\A1;173
 11
0.9396926207859078
 21
0.3420201433256703
 31
0.0
 73
     1
 44
1.0
  0
POINT
  5
B47
330
75D
100
AcDbEntity
  8
DEFPOINTS
 62
     0
100
AcDbPoint
 10
184.6985840622012
 20
378.0312659610653
 30
0.0
  0
POINT
  5
B48
330
75D
100
AcDbEntity
  8
DEFPOINTS
 62
     0
100
AcDbPoint
 10
333.8312511679872
 20
474.1233412517293
 30
0.0
  0
POINT
  5
B49
330
75D
100
AcDbEntity
  8
DEFPOINTS
 62
     0
100
AcDbPoint
 10
321.4513413816809
 20
508.1368638444909
 30
0.0
  0
ENDBLK
  5
768
330
75D
100
AcDbEntity
  8
0
100
AcDbBlockEnd
  0
BLOCK
  5
A52
330
A47
100
AcDbEntity
  8
0
100
AcDbBlockBegin
  2
*D6
 70
     1
 10
0.0
 20
0.0
 30
0.0
  3
*D6
  1

  0
LINE
  5
AFD
330
A47
100
AcDbEntity
  8
BEM
 62
     0
370
    -2
100
AcDbLine
 10
184.6985840622012
 20
380.0312659610653
 30
0.0
 11
184.6985840622013
 21
448.7837149510652
 31
0.0
  0
ARC
  5
AFE
330
A47
100
AcDbEntity
  8
BEM
 62
     0
370
    -2
100
AcDbCircle
 10
184.6985840622012
 20
378.0312659610653
 30
0.0
 40
68.75244899000001
100
AcDbArc
 50
25.8360668927262
 51
84.1639331072738
  0
SOLID
  5
AFF
330
A47
100
AcDbEntity
  8
BEM
 62
     0
100
AcDbTrace
 10
247.6534293332104
 20
408.4477447986685
 30
0.0
 11
245.5042825994557
 21
407.5391124410915
 31
0.0
 12
249.3047530390638
 22
401.5459884186159
 32
0.0
 13
249.3047530390638
 23
401.5459884186159
 33
0.0
  0
SOLID
  5
B00
330
A47
100
AcDbEntity
  8
BEM
 62
     0
100
AcDbTrace
 10
191.6301159260362
 20
445.2622100605862
 30
0.0
 11
191.7488995735519
 21
447.5925179564504
 31
0.0
 12
184.6985840622013
 22
446.7837149510653
 32
0.0
 13
184.6985840622013
 23
446.7837149510653
 33
0.0
  0
MTEXT
  5
B01
330
A47
100
AcDbEntity
  8
BEM
 62
     1
100
AcDbMText
 10
222.9321272846491
 20
442.847369296963
 30
0.0
 40
7.0
 41
0.0
 71
     5
 72
     1
  1
\A1;70°
 11
0.861315534654704
 21
-0.5080704181139475
 31
0.0
 73
     1
 44
1.0
  0
POINT
  5
B02
330
A47
100
AcDbEntity
  8
DEFPOINTS
 62
     0
100
AcDbPoint
 10
234.7073032511229
 20
425.2120591634494
 30
0.0
  0
POINT
  5
B03
330
A47
100
AcDbEntity
  8
DEFPOINTS
 62
     0
100
AcDbPoint
 10
184.6985840622012
 20
378.0312659610653
 30
0.0
  0
POINT
  5
B04
330
A47
100
AcDbEntity
  8
DEFPOINTS
 62
     0
100
AcDbPoint
 10
351.9679038739258
 20
438.9123194784873
 30
0.0
  0
POINT
  5
B05
330
A47
100
AcDbEntity
  8
DEFPOINTS
 62
     0
100
AcDbPoint
 10
184.6985840622012
 20
378.0312659610653
 30
0.0
  0
POINT
  5
B06
330
A47
100
AcDbEntity
  8
DEFPOINTS
 62
     0
100
AcDbPoint
 10
184.6985840622012
 20
216.0269738002634
 30
0.0
  0
ENDBLK
  5
A53
330
A47
100
AcDbEntity
  8
0
100
AcDbBlockEnd
  0
ENDSEC
  0
SECTION
  2
ENTITIES
  0
TEXT
  5
134
330
1E
100
AcDbEntity
  8
TEXT
100
AcDbText
 10
204.4216048581257
 20
63.0896391972351
 30
0.0
 40
4.0
  1
Koeh
 41
0.8
  7
GREEKS
 72
     1
 11
209.6787477152686
 21
63.0896391972351
 31
0.0
100
AcDbText
  0
INSERT
  5
135
330
1E
100
AcDbEntity
  8
STEMPEL
100
AcDbBlockReference
  2
LOGO
 10
150.9955485457794
 20
45.02105276448322
 30
0.0
 41
2.0
 42
2.0
 43
2.0
  0
LINE
  5
136
330
1E
100
AcDbEntity
  8
HILF
100
AcDbLine
 10
420.0
 20
0.0
 30
0.0
 11
0.0
 21
0.0
 31
0.0
  0
LINE
  5
137
330
1E
100
AcDbEntity
  8
HILF
100
AcDbLine
 10
419.9999999999999
 20
594.0000000000002
 30
0.0
 11
0.0
 21
594.0
 31
0.0
  0
LINE
  5
138
330
1E
100
AcDbEntity
  8
STEMPEL
100
AcDbLine
 10
410.0
 20
584.0
 30
0.0
 11
39.99999999999989
 21
584.0
 31
0.0
  0
LINE
  5
139
330
1E
100
AcDbEntity
  8
STEMPEL
100
AcDbLine
 10
410.0
 20
10.0
 30
0.0
 11
39.99999999999989
 21
10.0
 31
0.0
  0
LINE
  5
13A
330
1E
100
AcDbEntity
  8
STEMPEL
100
AcDbLine
 10
49.99999999999989
 20
10.0
 30
0.0
 11
410.0
 21
10.0
 31
0.0
  0
TEXT
  5
13B
330
1E
100
AcDbEntity
  8
TEXT
100
AcDbText
 10
202.4626584226295
 20
73.30961091915225
 30
0.0
 40
4.0
  1
Name
 41
0.8
  7
GREEKS
100
AcDbText
  0
TEXT
  5
13C
330
1E
100
AcDbEntity
  8
TEXT
100
AcDbText
 10
196.5498279101549
 20
102.6506227776589
 30
0.0
 40
5.0
  1
Zul. Abw.
 41
0.8
  7
GREEKS
 72
     4
 11
209.9783993387263
 21
105.1506227776589
 31
0.0
100
AcDbText
  0
LINE
  5
13D
330
1E
100
AcDbEntity
  8
HILF
100
AcDbLine
 10
146.0000000000001
 20
49.99999999999997
 30
0.0
 11
230.0
 21
49.99999999999997
 31
0.0
  0
LINE
  5
13E
330
1E
100
AcDbEntity
  8
HILF
100
AcDbLine
 10
146.0000000000001
 20
59.99999999999997
 30
0.0
 11
230.0
 21
59.99999999999997
 31
0.0
  0
LINE
  5
13F
330
1E
100
AcDbEntity
  8
HILF
100
AcDbLine
 10
146.0000000000001
 20
69.99999999999994
 30
0.0
 11
230.0
 21
69.99999999999994
 31
0.0
  0
LINE
  5
140
330
1E
100
AcDbEntity
  8
STEMPEL
100
AcDbLine
 10
410.0
 20
80.0
 30
0.0
 11
146.0000000000001
 21
79.99999999999994
 31
0.0
  0
LINE
  5
141
330
1E
100
AcDbEntity
  8
STEMPEL
100
AcDbLine
 10
410.0
 20
40.0
 30
0.0
 11
146.0000000000001
 21
39.99999999999997
 31
0.0
  0
LINE
  5
142
330
1E
100
AcDbEntity
  8
STEMPEL
100
AcDbLine
 10
410.0
 20
110.0
 30
0.0
 11
39.99999999999997
 21
110.0
 31
0.0
  0
LINE
  5
144
330
1E
100
AcDbEntity
  8
HILF
100
AcDbLine
 10
0.0
 20
0.0
 30
0.0
 11
-0.0000000000001137
 21
594.0
 31
0.0
  0
LINE
  5
145
330
1E
100
AcDbEntity
  8
STEMPEL
100
AcDbLine
 10
40.0
 20
10.0
 30
0.0
 11
39.99999999999989
 21
584.0
 31
0.0
  0
LINE
  5
148
330
1E
100
AcDbEntity
  8
HILF
100
AcDbLine
 10
40.00000000000008
 20
39.99999999999997
 30
0.0
 11
146.0000000000001
 21
39.99999999999997
 31
0.0
  0
LINE
  5
149
330
1E
100
AcDbEntity
  8
HILF
100
AcDbLine
 10
40.00000000000008
 20
49.99999999999997
 30
0.0
 11
146.0000000000001
 21
49.99999999999997
 31
0.0
  0
LINE
  5
14A
330
1E
100
AcDbEntity
  8
HILF
100
AcDbLine
 10
40.00000000000008
 20
59.99999999999997
 30
0.0
 11
146.0000000000001
 21
59.99999999999997
 31
0.0
  0
LINE
  5
14B
330
1E
100
AcDbEntity
  8
HILF
100
AcDbLine
 10
40.00000000000008
 20
69.99999999999994
 30
0.0
 11
146.0000000000001
 21
69.99999999999994
 31
0.0
  0
LINE
  5
14C
330
1E
100
AcDbEntity
  8
HILF
100
AcDbLine
 10
40.00000000000008
 20
79.99999999999994
 30
0.0
 11
146.0000000000001
 21
79.99999999999994
 31
0.0
  0
LINE
  5
14D
330
1E
100
AcDbEntity
  8
HILF
100
AcDbLine
 10
40.00000000000008
 20
90.00000000000005
 30
0.0
 11
146.0000000000001
 21
90.00000000000005
 31
0.0
  0
LINE
  5
14E
330
1E
100
AcDbEntity
  8
HILF
100
AcDbLine
 10
40.00000000000008
 20
100.0
 30
0.0
 11
146.0000000000001
 21
100.0
 31
0.0
  0
LINE
  5
14F
330
1E
100
AcDbEntity
  8
STEMPEL
100
AcDbLine
 10
145.9999999999999
 20
29.99999999999997
 30
0.0
 11
39.99999999999997
 21
29.99999999999997
 31
0.0
  0
TEXT
  5
150
330
1E
100
AcDbEntity
  8
TEXT
100
AcDbText
 10
48.26641107045756
 20
13.65465846027192
 30
0.0
 40
4.0
  1
Index
 50
90.0
 41
0.8
  7
GREEKS
100
AcDbText
  0
LINE
  5
151
330
1E
100
AcDbEntity
  8
VOLL
100
AcDbLine
 10
54.00000000000009
 20
110.0
 30
0.0
 11
53.99999999999997
 21
9.999999999999971
 31
0.0
  0
LINE
  5
152
330
1E
100
AcDbEntity
  8
HILF
100
AcDbLine
 10
31.08767135713856
 20
297.0
 30
0.0
 11
0.0000000000001137
 21
297.0
 31
0.0
  0
LINE
  5
154
330
1E
100
AcDbEntity
  8
VOLL
100
AcDbLine
 10
124.0000000000001
 20
109.9999999999999
 30
0.0
 11
124.0
 21
9.999999999999971
 31
0.0
  0
LINE
  5
155
330
1E
100
AcDbEntity
  8
VOLL
100
AcDbLine
 10
104.0000000000001
 20
109.9999999999999
 30
0.0
 11
104.0
 21
9.999999999999971
 31
0.0
  0
LINE
  5
157
330
1E
100
AcDbEntity
  8
STEMPEL
100
AcDbLine
 10
146.0000000000001
 20
109.9999999999999
 30
0.0
 11
146.0
 21
9.999999999999971
 31
0.0
  0
TEXT
  5
159
330
1E
100
AcDbEntity
  8
TEXT
100
AcDbText
 10
172.331167315365
 20
73.31880501229926
 30
0.0
 40
4.0
  1
Tag
 41
0.8
  7
GREEKS
100
AcDbText
  0
TEXT
  5
15A
330
1E
100
AcDbEntity
  8
TEXT
100
AcDbText
 10
147.5836127167615
 20
63.62990369617964
 30
0.0
 40
4.0
  1
Gez.
 41
0.8
  7
GREEKS
100
AcDbText
  0
LINE
  5
15B
330
1E
100
AcDbEntity
  8
VOLL
100
AcDbLine
 10
164.0000000000001
 20
79.99999999999994
 30
0.0
 11
164.0000000000001
 21
39.99999999999997
 31
0.0
  0
TEXT
  5
15C
330
1E
100
AcDbEntity
  8
TEXT
100
AcDbText
 10
147.6006777387303
 20
43.52946389649807
 30
0.0
 40
4.0
  1
Norm.
 41
0.8
  7
GREEKS
100
AcDbText
  0
TEXT
  5
15D
330
1E
100
AcDbEntity
  8
TEXT
100
AcDbText
 10
147.5515086571672
 20
53.68926291428377
 30
0.0
 40
4.0
  1
Gepr.
 41
0.8
  7
GREEKS
100
AcDbText
  0
TEXT
  5
15E
330
1E
100
AcDbEntity
  8
TEXT
 62
     1
100
AcDbText
 10
160.5006306481887
 20
88.14901428913959
 30
0.0
 40
7.0
  1
1:2
 41
0.8
  7
GREEKS
100
AcDbText
  0
TEXT
  5
15F
330
1E
100
AcDbEntity
  8
TEXT
100
AcDbText
 10
153.5163572150377
 20
102.4620895087088
 30
0.0
 40
5.0
  1
Maßstab
 41
0.8
  7
GREEKS
100
AcDbText
  0
TEXT
  5
160
330
1E
100
AcDbEntity
  8
TEXT
100
AcDbText
 10
148.622109822104
 20
73.14025471151666
 30
0.0
 40
4.0
  1
2011
 41
0.8
  7
GREEKS
100
AcDbText
  0
LINE
  5
161
330
1E
100
AcDbEntity
  8
VOLL
100
AcDbLine
 10
190.0000000000001
 20
109.9999999999998
 30
0.0
 11
190.0
 21
39.99999999999997
 31
0.0
  0
LINE
  5
186
330
1E
100
AcDbEntity
  8
HILF
100
AcDbLine
 10
420.0
 20
-0.0000000000001137
 30
0.0
 11
419.9999999999999
 21
594.0
 31
0.0
  0
LINE
  5
187
330
1E
100
AcDbEntity
  8
STEMPEL
100
AcDbLine
 10
410.0
 20
10.0
 30
0.0
 11
410.0
 21
584.0
 31
0.0
  0
TEXT
  5
188
330
1E
100
AcDbEntity
  8
TEXT
100
AcDbText
 10
337.2400861497006
 20
52.07416177878602
 30
0.0
 40
5.0
  1
ersetzt durch:
 41
0.8
  7
GREEKS
100
AcDbText
  0
TEXT
  5
189
330
1E
100
AcDbEntity
  8
TEXT
100
AcDbText
 10
336.7238616296993
 20
73.1811823709997
 30
0.0
 40
5.0
  1
Ersatz für:
 41
0.8
  7
GREEKS
100
AcDbText
  0
TEXT
  5
18A
330
1E
100
AcDbEntity
  8
TEXT
100
AcDbText
 10
336.178754957634
 20
102.3132034537136
 30
0.0
 40
5.0
  1
Zeichnungs Nr.
 41
0.8
  7
GREEKS
100
AcDbText
  0
LINE
  5
18B
330
1E
100
AcDbEntity
  8
HILF
100
AcDbLine
 10
233.4909699289885
 20
14.89398258028314
 30
0.0
 11
404.8588839326728
 21
14.89398258028314
 31
0.0
  0
LINE
  5
18C
330
1E
100
AcDbEntity
  8
HILF
100
AcDbLine
 10
336.7238616296993
 20
83.77983636955827
 30
0.0
 11
404.8588839326728
 21
83.77983636955827
 31
0.0
  0
LINE
  5
18D
330
1E
100
AcDbEntity
  8
VOLL
100
AcDbLine
 10
332.0
 20
60.0
 30
0.0
 11
410.0
 21
60.0
 31
0.0
  0
TEXT
  5
18E
330
1E
100
AcDbEntity
  8
TEXT
 62
     1
100
AcDbText
 10
234.9283864320014
 20
87.41748789253779
 30
0.0
 40
7.0
  1
Bogen DN70 70°
 41
0.8
  7
GREEKS
100
AcDbText
  0
LINE
  5
18F
330
1E
100
AcDbEntity
  8
HILF
100
AcDbLine
 10
234.7736801096947
 20
49.99999999999997
 30
0.0
 11
324.835391655631
 21
49.99999999999997
 31
0.0
  0
LINE
  5
190
330
1E
100
AcDbEntity
  8
HILF
100
AcDbLine
 10
234.7736801096947
 20
59.99999999999997
 30
0.0
 11
324.835391655631
 21
59.99999999999997
 31
0.0
  0
LINE
  5
191
330
1E
100
AcDbEntity
  8
HILF
100
AcDbLine
 10
234.7736801096947
 20
69.99999999999994
 30
0.0
 11
324.835391655631
 21
69.99999999999994
 31
0.0
  0
LINE
  5
192
330
1E
100
AcDbEntity
  8
HILF
100
AcDbLine
 10
234.7736801096947
 20
84.03758247564139
 30
0.0
 11
324.8353916556311
 21
84.03758247564139
 31
0.0
  0
LINE
  5
193
330
1E
100
AcDbEntity
  8
STEMPEL
100
AcDbLine
 10
230.0
 20
110.0
 30
0.0
 11
230.0
 21
9.999999999999971
 31
0.0
  0
TEXT
  5
194
330
1E
100
AcDbEntity
  8
TEXT
100
AcDbText
 10
235.1296391125315
 20
71.50334417585288
 30
0.0
 40
5.0
  1
dünnwandig
 41
0.8
  7
GREEKS
100
AcDbText
  0
TEXT
  5
195
330
1E
100
AcDbEntity
  8
TEXT
100
AcDbText
 10
234.9837501577827
 20
42.62974153022632
 30
0.0
 40
4.0
  1
4310070W.DWG
 41
0.8
  7
GREEKS
100
AcDbText
  0
TEXT
  5
196
330
1E
100
AcDbEntity
  8
TEXT
100
AcDbText
 10
234.742238391136
 20
30.84560570193057
 30
0.0
 40
5.0
  1
Bauvorhaben
 41
0.8
  7
GREEKS
100
AcDbText
  0
TEXT
  5
197
330
1E
100
AcDbEntity
  8
TEXT
100
AcDbText
 10
234.877940380901
 20
102.5489328011779
 30
0.0
 40
5.0
  1
Benennung
 41
0.8
  7
GREEKS
100
AcDbText
  0
LINE
  5
198
330
1E
100
AcDbEntity
  8
STEMPEL
100
AcDbLine
 10
332.0
 20
109.9999999999997
 30
0.0
 11
332.0
 21
40.0
 31
0.0
  0
TEXT
  5
19A
330
1E
100
AcDbEntity
  8
TEXT
 62
     1
100
AcDbText
 10
349.5579014358639
 20
88.14901428913959
 30
0.0
 40
7.0
  1
4310070W
 41
0.8
  7
GREEKS
 72
     1
 11
370.357901435864
 21
88.14901428913959
 31
0.0
100
AcDbText
  0
TEXT
  5
212
330
1E
100
AcDbEntity
  8
TEXT
100
AcDbText
 10
235.1296391125315
 20
51.50334417585291
 30
0.0
 40
5.0
  1
EDV-Art.Nr. 4.310.070C
 41
0.8
  7
GREEKS
100
AcDbText
  0
TEXT
  5
255
330
1E
100
AcDbEntity
  8
TEXT
 62
     1
100
AcDbText
 10
297.9974873842989
 20
131.2276367653921
 30
0.0
 40
7.0
  1
Werkstoff: 1.4301
 41
0.8
  7
GREEKS
100
AcDbText
  0
TEXT
  5
269
330
1E
100
AcDbEntity
  8
TEXT
 62
     1
100
AcDbText
 10
256.5528046057611
 20
416.8898765672808
 30
0.0
 40
7.0
  1
DN70
 50
19.99999999999993
 41
0.8
  7
GREEKS
100
AcDbText
  0
LINE
  5
644
330
1E
100
AcDbEntity
  8
MITTEL
100
AcDbLine
 10
184.6985840622012
 20
378.0312659610653
 30
0.0
 11
184.6985840622012
 21
216.0269738002635
 31
0.0
  0
LINE
  5
678
330
1E
100
AcDbEntity
  8
STEMPEL
100
AcDbLine
 10
220.7611407445715
 20
221.0269738002633
 30
0.0
 11
148.6360273798307
 21
221.0269738002632
 31
0.0
  0
LINE
  5
679
330
1E
100
AcDbEntity
  8
STEMPEL
100
AcDbLine
 10
148.1985840622011
 20
226.0269738002632
 30
0.0
 11
148.6360273798307
 21
221.0269738002632
 31
0.0
  0
LINE
  5
67A
330
1E
100
AcDbEntity
  8
STEMPEL
100
AcDbLine
 10
221.1985840622011
 20
226.0269738002638
 30
0.0
 11
220.7611407445715
 21
221.0269738002633
 31
0.0
  0
LINE
  5
692
330
1E
100
AcDbEntity
  8
HILF
100
AcDbLine
 10
219.9485840622012
 20
226.0269738002635
 30
0.0
 11
149.4485840622011
 21
226.0269738002635
 31
0.0
  0
DIMENSION
  5
695
330
1E
100
AcDbEntity
  8
BEM
100
AcDbDimension
  2
*D2
 10
221.1985840622011
 20
200.1113458608543
 30
0.0
 11
184.6985840622011
 21
206.6113458608543
 31
0.0
 70
    32
  1
%%c<>
 71
     5
 42
73.00000000000003
  3
Standard
100
AcDbAlignedDimension
 13
148.1985840622011
 23
226.0269738002634
 33
0.0
 14
221.1985840622011
 24
226.0269738002637
 34
0.0
100
AcDbRotatedDimension
1001
ACAD
1000
DSTYLE
1002
{
1070
    40
1040
2.0
1070
    41
1040
3.5
1070
    42
1040
1.0
1070
    43
1040
7.0
1070
    44
1040
1.0
1070
    73
1070
     0
1070
    74
1070
     0
1070
    77
1070
     1
1070
    78
1070
     8
1070
    79
1070
     2
1070
   140
1040
3.5
1070
   141
1040
1.5
1070
   146
1040
0.5142857142857144
1070
   147
1040
1.5
1070
   172
1070
     1
1070
   178
1070
     1
1070
   179
1070
     2
1070
   271
1070
     2
1070
   272
1070
     2
1070
   284
1070
     8
1070
   285
1070
     8
1070
   286
1070
     8
1002
}
  0
LINE
  5
696
102
{ACAD_REACTORS
330
AA3
102
}
330
1E
100
AcDbEntity
  8
STEMPEL
100
AcDbLine
 10
221.1985840622011
 20
321.2960821206221
 30
0.0
 11
221.1985840622011
 21
226.0269738002637
 31
0.0
  0
LINE
  5
697
102
{ACAD_REACTORS
330
AA3
102
}
330
1E
100
AcDbEntity
  8
STEMPEL
100
AcDbLine
 10
148.198584062201
 20
344.3128937087879
 30
0.0
 11
148.1985840622011
 21
226.0269738002634
 31
0.0
  0
LINE
  5
6F4
330
1E
100
AcDbEntity
  8
MITTEL
100
AcDbLine
 10
351.9679038739259
 20
438.9123194784873
 30
0.0
 11
184.6985840622012
 21
378.0312659610653
 31
0.0
  0
LINE
  5
6F6
330
1E
100
AcDbEntity
  8
STEMPEL
100
AcDbLine
 10
303.7065779160977
 20
382.5041446682483
 30
0.0
 11
250.4959528873845
 21
363.1370610110964
 31
0.0
  0
LINE
  5
6F7
330
1E
100
AcDbEntity
  8
STEMPEL
100
AcDbLine
 10
278.739107453324
 20
451.1017059856197
 30
0.0
 11
203.8997544211923
 21
423.862409130184
 31
0.0
  0
LINE
  5
6F8
330
1E
100
AcDbEntity
  8
STEMPEL
100
AcDbLine
 10
360.7076303720055
 20
400.2810962719888
 30
0.0
 11
333.8312511679871
 21
474.1233412517292
 31
0.0
  0
LINE
  5
6F9
330
1E
100
AcDbEntity
  8
HILF
  6
Continuous
100
AcDbLine
 10
285.2194503523912
 20
454.6079550648211
 30
0.0
 11
310.9245820480193
 21
383.9836861669754
 31
0.0
  0
LINE
  5
6FA
330
1E
100
AcDbEntity
  8
HILF
  6
Continuous
100
AcDbLine
 10
305.568876355185
 20
462.6033745019685
 30
0.0
 11
331.6525033065655
 21
390.9391984355721
 31
0.0
  0
LINE
  5
6FB
330
1E
100
AcDbEntity
  8
HILF
  6
Continuous
100
AcDbLine
 10
281.6219128778846
 20
451.2714775848051
 30
0.0
 11
306.0240620726088
 21
384.2271236861376
 31
0.0
  0
LINE
  5
6FC
330
1E
100
AcDbEntity
  8
STEMPEL
100
AcDbLine
 10
302.8715828074858
 20
462.7052797907585
 30
0.0
 11
287.0934951730887
 21
456.9625255381943
 31
0.0
  0
ARC
  5
6FD
330
1E
100
AcDbEntity
  8
STEMPEL
100
AcDbCircle
 10
291.0780298428327
 20
446.0151065060384
 30
0.0
 40
11.65
100
AcDbArc
 50
109.9999999999999
 51
140.1013105468016
  0
ARC
  5
6FE
330
1E
100
AcDbEntity
  8
STEMPEL
100
AcDbCircle
 10
276.0029463067187
 20
458.6192469519068
 30
0.0
 40
8.0
100
AcDbArc
 50
290.0
 51
320.1013105468026
  0
LINE
  5
700
330
1E
100
AcDbEntity
  8
STEMPEL
100
AcDbLine
 10
323.1587543616014
 20
472.7496508050982
 30
0.0
 11
314.6422979118868
 21
469.6499141559776
 31
0.0
  0
ARC
  5
701
330
1E
100
AcDbEntity
  8
STEMPEL
100
AcDbCircle
 10
323.011019322057
 20
446.4638975566147
 30
0.0
 40
24.65009324312573
100
AcDbArc
 50
109.8382525687443
 51
131.1831543930338
  0
ARC
  5
702
330
1E
100
AcDbEntity
  8
STEMPEL
100
AcDbCircle
 10
298.6476340374139
 20
474.3104836574643
 30
0.0
 40
12.35
100
AcDbArc
 50
290.0
 51
311.1831543930339
  0
ARC
  5
703
330
1E
100
AcDbEntity
  8
STEMPEL
100
AcDbCircle
 10
331.5659477334232
 20
449.5776511952374
 30
0.0
 40
24.65
100
AcDbArc
 50
84.72715153216338
 51
110.0614902701031
  0
LINE
  5
704
330
1E
100
AcDbEntity
  8
STEMPEL
100
AcDbLine
 10
329.6517600298855
 20
389.1273475832219
 30
0.0
 11
313.8736723954886
 21
383.3845933306576
 31
0.0
  0
ARC
  5
705
330
1E
100
AcDbEntity
  8
STEMPEL
100
AcDbCircle
 10
309.8891377257444
 20
394.3320123628136
 30
0.0
 40
11.65
100
AcDbArc
 50
259.8986894531984
 51
290.0
  0
ARC
  5
706
330
1E
100
AcDbEntity
  8
STEMPEL
100
AcDbCircle
 10
306.4427390627031
 20
374.9866037019609
 30
0.0
 40
8.0
100
AcDbArc
 50
79.89868945319731
 51
109.9999999999999
  0
LINE
  5
707
330
1E
100
AcDbEntity
  8
STEMPEL
100
AcDbLine
 10
351.6490323006294
 20
394.4732554936321
 30
0.0
 11
343.1325758509148
 21
391.3735188445116
 31
0.0
  0
ARC
  5
708
330
1E
100
AcDbEntity
  8
STEMPEL
100
AcDbCircle
 10
334.6397041951298
 20
414.5143484498938
 30
0.0
 40
24.65009324312573
100
AcDbArc
 50
268.8168456069661
 51
290.1617474312555
  0
ARC
  5
709
330
1E
100
AcDbEntity
  8
STEMPEL
100
AcDbCircle
 10
333.8757087999576
 20
377.5221437165158
 30
0.0
 40
12.35
100
AcDbArc
 50
88.81684560696605
 51
109.9999999999999
  0
ARC
  5
70A
330
1E
100
AcDbEntity
  8
STEMPEL
100
AcDbCircle
 10
343.1946418244606
 20
417.6280767623667
 30
0.0
 40
24.65
100
AcDbArc
 50
289.9385097298968
 51
315.2728484678366
  0
DIMENSION
  5
741
330
1E
100
AcDbEntity
  8
BEM
100
AcDbDimension
  2
*D3
 10
128.4762259791102
 20
378.0312659610653
 30
0.0
 11
121.9762259791101
 21
299.5291198806643
 31
0.0
 70
    32
 71
     5
 42
157.0042921608021
  3
Standard
100
AcDbAlignedDimension
 13
148.6360273798307
 23
221.0269738002632
 33
0.0
 14
184.6985840622012
 24
378.0312659610653
 34
0.0
 50
90.0
100
AcDbRotatedDimension
1001
ACAD
1000
DSTYLE
1002
{
1070
    40
1040
2.0
1070
    41
1040
3.5
1070
    42
1040
1.0
1070
    43
1040
7.0
1070
    44
1040
1.0
1070
    73
1070
     0
1070
    74
1070
     0
1070
    77
1070
     1
1070
    78
1070
     8
1070
    79
1070
     2
1070
   140
1040
3.5
1070
   141
1040
1.5
1070
   146
1040
0.5142857142857144
1070
   147
1040
1.5
1070
   172
1070
     1
1070
   178
1070
     1
1070
   179
1070
     2
1070
   271
1070
     2
1070
   272
1070
     2
1070
   284
1070
     8
1070
   285
1070
     8
1070
   286
1070
     8
1002
}
  0
DIMENSION
  5
75C
330
1E
100
AcDbEntity
  8
BEM
100
AcDbDimension
  2
*D4
 10
321.4513413816809
 20
508.1368638444909
 30
0.0
 11
237.9427820961664
 21
484.6593894792023
 31
0.0
 70
    32
 71
     5
 42
173.0042921608023
 51
356.9999999999999
  3
Standard
100
AcDbAlignedDimension
 13
184.6985840622012
 23
378.0312659610653
 33
0.0
 14
333.8312511679871
 24
474.1233412517292
 34
0.0
 50
20.00000000000009
100
AcDbRotatedDimension
1001
ACAD
1000
DSTYLE
1002
{
1070
    40
1040
2.0
1070
    41
1040
3.5
1070
    42
1040
1.0
1070
    43
1040
7.0
1070
    44
1040
1.0
1070
    73
1070
     0
1070
    74
1070
     0
1070
    77
1070
     1
1070
    78
1070
     8
1070
    79
1070
     2
1070
   140
1040
3.5
1070
   141
1040
1.5
1070
   146
1040
0.5142857142857144
1070
   147
1040
1.5
1070
   172
1070
     1
1070
   178
1070
     1
1070
   179
1070
     2
1070
   271
1070
     2
1070
   272
1070
     2
1070
   284
1070
     8
1070
   285
1070
     8
1070
   286
1070
     8
1002
}
  0
TEXT
  5
854
330
1E
100
AcDbEntity
  8
TEXT
100
AcDbText
 10
41.85509950977674
 20
111.6719999999999
 30
0.0
 40
5.0
  1
Erstellt mit AUTOCAD 2004
 41
0.8
  7
GREEKS
100
AcDbText
  0
TEXT
  5
855
330
1E
100
AcDbEntity
  8
TEXT
100
AcDbText
 10
66.99867878482315
 20
18.67381894984132
 30
0.0
 40
4.0
  1
Änderung
 41
0.8
  7
GREEKS
 72
     1
 11
77.7415359276803
 21
18.67381894984132
 31
0.0
100
AcDbText
  0
TEXT
  5
856
330
1E
100
AcDbEntity
  8
TEXT
100
AcDbText
 10
110.3496319666763
 20
18.6715626933981
 30
0.0
 40
4.0
  1
Tag
 41
0.8
  7
GREEKS
 72
     1
 11
114.0829653000096
 21
18.6715626933981
 31
0.0
100
AcDbText
  0
TEXT
  5
857
330
1E
100
AcDbEntity
  8
TEXT
100
AcDbText
 10
129.2391668299012
 20
18.59324216966408
 30
0.0
 40
4.0
  1
Name
 41
0.8
  7
GREEKS
 72
     1
 11
135.5629763537107
 21
18.59324216966408
 31
0.0
100
AcDbText
  0
TEXT
  5
858
330
1E
100
AcDbEntity
  8
TEXT
100
AcDbText
 10
192.6882715247924
 20
89.00646370679282
 30
0.0
 40
4.0
  1
DIN EN1124-3
 41
0.8
  7
GREEKS
 72
     1
 11
209.6787477152686
 21
89.00646370679282
 31
0.0
100
AcDbText
  0
TEXT
  5
859
330
1E
100
AcDbEntity
  8
BEM
100
AcDbText
 10
416.5811541437437
 20
12.14804815338303
 30
0.0
 40
4.0
  1
Diese Zeichnung ist urheberrechtlich geschützt und bleibt unser Eigentum. Sie darf weder ganz noch teilweise vervielfältigt und nicht an Dritte weitergegeben werden.
 50
90.0
 41
0.8
  7
GREEKS
100
AcDbText
  0
TEXT
  5
88E
330
1E
100
AcDbEntity
  8
TEXT
 62
     1
100
AcDbText
 10
370.357901435864
 20
63.28576361770024
 30
0.0
 40
7.0
  1

 41
0.8
  7
GREEKS
 72
     1
 11
370.357901435864
 21
63.28576361770024
 31
0.0
100
AcDbText
  0
TEXT
  5
8DE
330
1E
100
AcDbEntity
  8
TEXT
100
AcDbText
 10
170.7037590129979
 20
63.10765040825732
 30
0.0
 40
4.0
  1
14.04.
 41
0.8
  7
GREEKS
 72
     1
 11
177.4085209177598
 21
63.10765040825732
 31
0.0
100
AcDbText
  0
LINE
  5
977
330
1E
100
AcDbEntity
  8
MITTEL
100
AcDbLine
 10
227.1978536542881
 20
393.4997350706397
 30
0.0
 11
184.6985840622012
 21
332.8044879147052
 31
0.0
  0
LINE
  5
978
102
{ACAD_REACTORS
330
AA3
102
}
330
1E
100
AcDbEntity
  8
STEMPEL
100
AcDbLine
 10
203.8997544211923
 20
423.862409130184
 30
0.0
 11
148.198584062201
 21
344.3128937087879
 31
0.0
  0
LINE
  5
979
102
{ACAD_REACTORS
330
AA3
102
}
330
1E
100
AcDbEntity
  8
STEMPEL
100
AcDbLine
 10
250.4959528873845
 20
363.1370610110964
 30
0.0
 11
221.1985840622011
 21
321.2960821206221
 31
0.0
  0
LINE
  5
97A
330
1E
100
AcDbEntity
  8
STEMPEL
100
AcDbLine
 10
250.4959528873845
 20
363.1370610110964
 30
0.0
 11
203.8997544211923
 21
423.862409130184
 31
0.0
  0
LINE
  5
97B
330
1E
100
AcDbEntity
  8
STEMPEL
100
AcDbLine
 10
221.1985840622011
 20
321.2960821206221
 30
0.0
 11
148.198584062201
 21
344.3128937087879
 31
0.0
  0
DIMENSION
  5
A46
330
1E
100
AcDbEntity
  8
BEM
100
AcDbDimension
  2
*D6
 10
184.6985840622012
 20
216.0269738002635
 30
0.0
 11
219.6296695669084
 21
437.2488183217074
 31
0.0
 70
   162
 71
     5
 42
1.221730476396029
  3
Standard
100
AcDb2LineAngularDimension
 13
351.9679038739259
 23
438.9123194784873
 33
0.0
 14
184.6985840622012
 24
378.0312659610653
 34
0.0
 15
184.6985840622012
 25
378.0312659610653
 35
0.0
 16
234.7073032511229
 26
425.2120591634494
 36
0.0
1001
ACAD
1000
DSTYLE
1002
{
1070
    40
1040
2.0
1070
    41
1040
3.5
1070
    42
1040
1.0
1070
    43
1040
7.0
1070
    44
1040
1.0
1070
    73
1070
     0
1070
    74
1070
     0
1070
    77
1070
     1
1070
    78
1070
     8
1070
    79
1070
     2
1070
   140
1040
3.5
1070
   141
1040
1.5
1070
   146
1040
0.5142857142857144
1070
   147
1040
1.5
1070
   172
1070
     1
1070
   178
1070
     1
1070
   179
1070
     2
1070
   271
1070
     2
1070
   272
1070
     2
1070
   284
1070
     8
1070
   285
1070
     8
1070
   286
1070
     8
1002
}
  0
ARC
  5
A86
330
1E
100
AcDbEntity
  8
SCHRAFF
100
AcDbCircle
 10
148.198584062201
 20
344.3128937087879
 30
0.0
 40
5.0
100
AcDbArc
 50
305.6301023541552
 51
19.36989764584417
  0
ARC
  5
A87
330
1E
100
AcDbEntity
  8
SCHRAFF
100
AcDbCircle
 10
152.9671688159422
 20
342.8093647112665
 30
0.0
 40
5.0
100
AcDbArc
 50
305.6301023541552
 51
19.36989764584417
  0
ARC
  5
A88
330
1E
100
AcDbEntity
  8
SCHRAFF
100
AcDbCircle
 10
157.7357535696833
 20
341.3058357137452
 30
0.0
 40
5.0
100
AcDbArc
 50
305.6301023541552
 51
19.36989764584417
  0
ARC
  5
A89
330
1E
100
AcDbEntity
  8
SCHRAFF
100
AcDbCircle
 10
162.5043383234244
 20
339.8023067162239
 30
0.0
 40
5.0
100
AcDbArc
 50
305.6301023541552
 51
19.36989764584417
  0
ARC
  5
A8A
330
1E
100
AcDbEntity
  8
SCHRAFF
100
AcDbCircle
 10
167.2729230771656
 20
338.2987777187025
 30
0.0
 40
5.0
100
AcDbArc
 50
305.6301023541552
 51
19.36989764584417
  0
ARC
  5
A8B
330
1E
100
AcDbEntity
  8
SCHRAFF
100
AcDbCircle
 10
172.0415078309067
 20
336.7952487211811
 30
0.0
 40
5.0
100
AcDbArc
 50
305.6301023541552
 51
19.36989764584417
  0
ARC
  5
A8C
330
1E
100
AcDbEntity
  8
SCHRAFF
100
AcDbCircle
 10
176.8100925846478
 20
335.2917197236597
 30
0.0
 40
5.0
100
AcDbArc
 50
305.6301023541552
 51
19.36989764584417
  0
ARC
  5
A8D
330
1E
100
AcDbEntity
  8
SCHRAFF
100
AcDbCircle
 10
181.578677338389
 20
333.7881907261384
 30
0.0
 40
5.0
100
AcDbArc
 50
305.6301023541552
 51
19.36989764584417
  0
ARC
  5
A8E
330
1E
100
AcDbEntity
  8
SCHRAFF
100
AcDbCircle
 10
186.3472620921301
 20
332.284661728617
 30
0.0
 40
5.0
100
AcDbArc
 50
305.6301023541552
 51
19.36989764584417
  0
ARC
  5
A8F
330
1E
100
AcDbEntity
  8
SCHRAFF
100
AcDbCircle
 10
191.1158468458712
 20
330.7811327310956
 30
0.0
 40
5.0
100
AcDbArc
 50
305.6301023541552
 51
19.36989764584417
  0
ARC
  5
A90
330
1E
100
AcDbEntity
  8
SCHRAFF
100
AcDbCircle
 10
195.8844315996123
 20
329.2776037335743
 30
0.0
 40
5.0
100
AcDbArc
 50
305.6301023541552
 51
19.36989764584417
  0
ARC
  5
A91
330
1E
100
AcDbEntity
  8
SCHRAFF
100
AcDbCircle
 10
200.6530163533535
 20
327.7740747360529
 30
0.0
 40
5.0
100
AcDbArc
 50
305.6301023541552
 51
19.36989764584417
  0
ARC
  5
A92
330
1E
100
AcDbEntity
  8
SCHRAFF
100
AcDbCircle
 10
205.4216011070946
 20
326.2705457385316
 30
0.0
 40
5.0
100
AcDbArc
 50
305.6301023541552
 51
19.36989764584417
  0
ARC
  5
A93
330
1E
100
AcDbEntity
  8
SCHRAFF
100
AcDbCircle
 10
210.1901858608357
 20
324.7670167410102
 30
0.0
 40
5.0
100
AcDbArc
 50
305.6301023541552
 51
19.36989764584417
  0
ARC
  5
A94
330
1E
100
AcDbEntity
  8
SCHRAFF
100
AcDbCircle
 10
214.9587706145768
 20
323.2634877434888
 30
0.0
 40
5.0
100
AcDbArc
 50
305.6301023541552
 51
19.36989764584417
  0
ARC
  5
A96
102
{ACAD_REACTORS
330
AA3
102
}
330
1E
100
AcDbEntity
  8
SCHRAFF
100
AcDbCircle
 10
149.6756189181444
 20
343.8471864075769
 30
0.0
 40
3.05996555173867
100
AcDbArc
 50
83.8616674237096
 51
241.1383325762906
  0
ARC
  5
A97
102
{ACAD_REACTORS
330
AA3
102
}
330
1E
100
AcDbEntity
  8
SCHRAFF
100
AcDbCircle
 10
220.6975985551254
 20
321.454042244249
 30
0.0
 40
3.341318984589014
100
AcDbArc
 50
278.6232437660948
 51
46.37675623390538
  0
HATCH
  5
AA3
330
1E
100
AcDbEntity
  8
SCHRAFF
100
AcDbHatch
 10
0.0
 20
0.0
 30
0.0
210
0.0
220
0.0
230
1.0
  2
_USER
 70
     0
 71
     1
 91
        2
 92
        7
 72
     1
 73
     1
 93
        3
 10
150.0028188592266
 20
346.8896080378549
 42
0.8190492843569291
 10
148.198584062201
 20
341.1673063333655
 42
0.0
 10
148.1985840622011
 20
344.312893708788
 42
0.0
 97
        3
330
A96
330
697
330
978
 92
        7
 72
     1
 73
     1
 93
        3
 10
223.0028188592267
 20
323.872796449689
 42
0.0
 10
221.1985840622011
 20
321.296082120622
 42
0.0
 10
221.1985840622011
 20
318.1504947451996
 42
0.6233749075032556
 97
        3
330
979
330
696
330
A97
 75
     0
 76
     0
 52
0.0
 41
0.1
 77
     0
 78
     1
 53
0.0
 43
0.0
 44
0.0
 45
0.0
 46
0.1
 79
     0
 47
0.1520368027653675
 98
        2
 10
147.6526652655488
 20
344.5115053301099
 10
222.1956395413563
 20
320.7937642696429
  0
ARC
  5
AA4
330
1E
100
AcDbEntity
  8
SCHRAFF
100
AcDbCircle
 10
240.4254401617153
 20
376.2612087127092
 30
0.0
 40
5.0
100
AcDbArc
 50
270.6301023541552
 51
344.3698976458441
  0
HATCH
  5
AA5
330
1E
100
AcDbEntity
  8
SCHRAFF
100
AcDbHatch
 10
0.0
 20
0.0
 30
0.0
210
0.0
220
0.0
230
1.0
  2
_USER
 70
     0
 71
     0
 91
        2
 92
        7
 72
     1
 73
     1
 93
        3
 10
202.095519624167
 20
421.2856948011168
 42
-0.8190492843569291
 10
206.8556396659145
 20
424.938263375169
 42
0.0
 10
203.8997544211926
 20
423.8624091301836
 42
0.0
 97
        0
 92
        7
 72
     1
 73
     1
 93
        3
 10
248.6917180903591
 20
360.5603466820292
 42
0.0
 10
250.4959528873849
 20
363.1370610110962
 42
0.0
 10
253.4518381321066
 20
364.2129152560816
 42
-0.6233749075032556
 97
        0
 75
     0
 76
     0
 52
0.0
 41
0.1
 77
     0
 78
     1
 53
289.9999999999993
 43
476.7611389191713
 44
680.8854702395064
 45
-0.0939692620785913
 46
-0.0342020143325658
 79
     0
 47
0.1520368027653675
 98
        2
 10
203.5264053211589
 20
424.3074758197553
 10
251.3089903231232
 20
362.3719381582068
  0
ARC
  5
AA6
330
1E
100
AcDbEntity
  8
SCHRAFF
100
AcDbCircle
 10
219.1187901464104
 20
404.0285756229026
 30
0.0
 40
5.0
100
AcDbArc
 50
270.6301023541552
 51
344.3698976458441
  0
ARC
  5
AA7
330
1E
100
AcDbEntity
  8
SCHRAFF
100
AcDbCircle
 10
204.8425518087134
 20
422.6337316533181
 30
0.0
 40
3.05996555173867
100
AcDbArc
 50
48.86166742370875
 51
206.1383325762897
  0
ARC
  5
AA8
330
1E
100
AcDbEntity
  8
SCHRAFF
100
AcDbCircle
 10
206.9435615662362
 20
419.8956424287275
 30
0.0
 40
5.0
100
AcDbArc
 50
270.6301023541552
 51
344.3698976458441
  0
ARC
  5
AA9
330
1E
100
AcDbEntity
  8
SCHRAFF
100
AcDbCircle
 10
203.8997544211926
 20
423.8624091301836
 30
0.0
 40
5.0
100
AcDbArc
 50
270.6301023541552
 51
344.3698976458441
  0
ARC
  5
AAA
330
1E
100
AcDbEntity
  8
SCHRAFF
100
AcDbCircle
 10
209.9873687112797
 20
415.9288757272713
 30
0.0
 40
5.0
100
AcDbArc
 50
270.6301023541552
 51
344.3698976458441
  0
ARC
  5
AAB
330
1E
100
AcDbEntity
  8
SCHRAFF
100
AcDbCircle
 10
213.0311758563233
 20
411.962109025815
 30
0.0
 40
5.0
100
AcDbArc
 50
270.6301023541552
 51
344.3698976458441
  0
ARC
  5
AAC
330
1E
100
AcDbEntity
  8
SCHRAFF
100
AcDbCircle
 10
216.0749830013669
 20
407.9953423243588
 30
0.0
 40
5.0
100
AcDbArc
 50
270.6301023541552
 51
344.3698976458441
  0
ARC
  5
AAD
330
1E
100
AcDbEntity
  8
SCHRAFF
100
AcDbCircle
 10
225.2064044364975
 20
396.0950422199903
 30
0.0
 40
5.0
100
AcDbArc
 50
270.6301023541552
 51
344.3698976458441
  0
ARC
  5
AAE
330
1E
100
AcDbEntity
  8
SCHRAFF
100
AcDbCircle
 10
222.162597291454
 20
400.0618089214464
 30
0.0
 40
5.0
100
AcDbArc
 50
270.6301023541552
 51
344.3698976458441
  0
ARC
  5
AAF
330
1E
100
AcDbEntity
  8
SCHRAFF
100
AcDbCircle
 10
228.2502115815411
 20
392.1282755185341
 30
0.0
 40
5.0
100
AcDbArc
 50
270.6301023541552
 51
344.3698976458441
  0
ARC
  5
AB0
330
1E
100
AcDbEntity
  8
SCHRAFF
100
AcDbCircle
 10
231.2940187265847
 20
388.1615088170779
 30
0.0
 40
5.0
100
AcDbArc
 50
270.6301023541552
 51
344.3698976458441
  0
ARC
  5
AB1
330
1E
100
AcDbEntity
  8
SCHRAFF
100
AcDbCircle
 10
234.3378258716283
 20
384.1947421156216
 30
0.0
 40
5.0
100
AcDbArc
 50
270.6301023541552
 51
344.3698976458441
  0
ARC
  5
AB2
330
1E
100
AcDbEntity
  8
SCHRAFF
100
AcDbCircle
 10
237.3816330166718
 20
380.2279754141654
 30
0.0
 40
5.0
100
AcDbArc
 50
270.6301023541552
 51
344.3698976458441
  0
ARC
  5
AB3
330
1E
100
AcDbEntity
  8
SCHRAFF
100
AcDbCircle
 10
250.1761717899001
 20
363.5538078510933
 30
0.0
 40
3.341318984589014
100
AcDbArc
 50
243.623243766094
 51
11.37675623390453
  0
ARC
  5
AB4
330
1E
100
AcDbEntity
  8
SCHRAFF
100
AcDbCircle
 10
246.5130544518024
 20
368.3276753097969
 30
0.0
 40
5.0
100
AcDbArc
 50
270.6301023541552
 51
344.3698976458441
  0
ARC
  5
AB5
330
1E
100
AcDbEntity
  8
SCHRAFF
100
AcDbCircle
 10
243.4692473067589
 20
372.2944420112531
 30
0.0
 40
5.0
100
AcDbArc
 50
270.6301023541552
 51
344.3698976458441
  0
ENDSEC
  0
SECTION
  2
OBJECTS
  0
DICTIONARY
  5
C
330
0
100
AcDbDictionary
281
     1
  3
ACAD_COLOR
350
802
  3
ACAD_GROUP
350
D
  3
ACAD_LAYOUT
350
19
  3
ACAD_MATERIAL
350
801
  3
ACAD_MLINESTYLE
350
16
  3
ACAD_PLOTSETTINGS
350
18
  3
ACAD_PLOTSTYLENAME
350
E
  3
AcDbVariableDictionary
350
246
  3
ASE_INDEX_DICTIONARY
350
894
  0
DICTIONARY
  5
802
102
{ACAD_REACTORS
330
C
102
}
330
C
100
AcDbDictionary
281
     1
  0
DICTIONARY
  5
D
102
{ACAD_REACTORS
330
C
102
}
330
C
100
AcDbDictionary
281
     1
  0
DICTIONARY
  5
19
102
{ACAD_REACTORS
330
C
102
}
330
C
100
AcDbDictionary
281
     1
  3
Layout1
350
1D
  3
Model
350
21
  0
DICTIONARY
  5
801
102
{ACAD_REACTORS
330
C
102
}
330
C
100
AcDbDictionary
281
     1
  0
DICTIONARY
  5
16
102
{ACAD_REACTORS
330
C
102
}
330
C
100
AcDbDictionary
281
     1
  3
Standard
350
17
  0
DICTIONARY
  5
18
102
{ACAD_REACTORS
330
C
102
}
330
C
100
AcDbDictionary
281
     1
  0
ACDBDICTIONARYWDFLT
  5
E
102
{ACAD_REACTORS
330
C
102
}
330
C
100
AcDbDictionary
281
     1
  3
Normal
350
F
100
AcDbDictionaryWithDefault
340
F
  0
DICTIONARY
  5
246
102
{ACAD_REACTORS
330
C
102
}
330
C
100
AcDbDictionary
281
     1
  3
DIMASSOC
350
86C
  3
PROJECTNAME
350
86D
  3
SORTENTS
350
247
  0
DICTIONARY
  5
894
102
{ACAD_REACTORS
330
C
102
}
330
C
100
AcDbDictionary
281
     1
  3
ASEBlockHierarchyIndexRecord
350
896
1001
DCO15
1040
1558863328.156
  0
LAYOUT
  5
1D
102
{ACAD_REACTORS
330
19
102
}
330
19
100
AcDbPlotSettings
  1

  2
Tektronix Phaser 740
  4

  6

 40
0.0
 41
0.0
 42
0.0
 43
0.0
 44
0.0
 45
0.0
 46
0.0
 47
0.0
 48
0.0
 49
0.0
140
0.0
141
0.0
142
1.0
143
1.0
 70
   688
 72
     0
 73
     0
 74
     5
  7
monochrome.ctb
 75
    16
147
1.0
 76
     0
 77
     2
 78
   300
148
0.0
149
0.0
100
AcDbLayout
  1
Layout1
 70
     0
 71
     1
 10
0.0
 20
0.0
 11
12.0
 21
9.0
 12
0.0
 22
0.0
 32
0.0
 14
1.000000000000000E+20
 24
1.000000000000000E+20
 34
1.000000000000000E+20
 15
-1.000000000000000E+20
 25
-1.000000000000000E+20
 35
-1.000000000000000E+20
146
0.0
 13
0.0
 23
0.0
 33
0.0
 16
1.0
 26
0.0
 36
0.0
 17
0.0
 27
1.0
 37
0.0
 76
     0
330
1A
  0
LAYOUT
  5
21
102
{ACAD_REACTORS
330
19
102
}
330
19
100
AcDbPlotSettings
  1

  2
Tektronix Phaser 740
  4
A4
  6

 40
5.873749732971191
 41
6.085414409637451
 42
5.577407836914062
 43
5.662078857421875
 44
209.9733276367187
 45
296.9683227539062
 46
0.0
 47
0.0
 48
0.0
 49
0.0
140
0.0
141
0.0
142
1.0
143
1.0
 70
 11952
 72
     0
 73
     1
 74
     0
  7
monochrome.ctb
 75
     0
147
1.0
 76
     0
 77
     2
 78
   300
148
1150.120678237584
149
45.30495740799864
100
AcDbLayout
  1
Model
 70
     1
 71
     0
 10
0.0
 20
0.0
 11
12.0
 21
9.0
 12
0.0
 22
0.0
 32
0.0
 14
0.0
 24
0.0
 34
0.0
 15
0.0
 25
0.0
 35
0.0
146
0.0
 13
0.0
 23
0.0
 33
0.0
 16
1.0
 26
0.0
 36
0.0
 17
0.0
 27
1.0
 37
0.0
 76
     0
330
1E
  0
MLINESTYLE
  5
17
102
{ACAD_REACTORS
330
16
102
}
330
16
100
AcDbMlineStyle
  2
STANDARD
 70
     0
  3

 62
   256
 51
90.0
 52
90.0
 71
     2
 49
0.5
 62
   256
  6
BYLAYER
 49
-0.5
 62
   256
  6
BYLAYER
  0
ACDBPLACEHOLDER
  5
F
102
{ACAD_REACTORS
330
E
102
}
330
E
  0
DICTIONARYVAR
  5
86C
102
{ACAD_REACTORS
330
246
102
}
330
246
100
DictionaryVariables
280
     0
  1
1
  0
DICTIONARYVAR
  5
86D
102
{ACAD_REACTORS
330
246
102
}
330
246
100
DictionaryVariables
280
     0
  1

  0
DICTIONARYVAR
  5
247
102
{ACAD_REACTORS
330
246
102
}
330
246
100
DictionaryVariables
280
     0
  1
96
  0
XRECORD
  5
896
102
{ACAD_REACTORS
330
894
102
}
330
894
100
AcDbXrecord
280
     1
330
135
  0
ENDSEC
  0
EOF
