  0
SECTION
  2
HEADER
  9
$ACADVER
  1
AC1018
  9
$ACADMAINTVER
 70
     2
  9
$DWGCODEPAGE
  3
ANSI_1252
  9
$INSBASE
 10
0.0
 20
0.0
 30
0.0
  9
$EXTMIN
 10
-0.0128036914306904
 20
-0.018108077881152
 30
-0.0000000000000023
  9
$EXTMAX
 10
420.0128242284961
 20
594.0181371231585
 30
0.0000000000000129
  9
$LIMMIN
 10
0.0
 20
0.0
  9
$LIMMAX
 10
419.9999999999999
 20
594.0
  9
$ORTHOMODE
 70
     1
  9
$REGENMODE
 70
     1
  9
$FILLMODE
 70
     1
  9
$QTEXTMODE
 70
     0
  9
$MIRRTEXT
 70
     1
  9
$LTSCALE
 40
20.0
  9
$ATTMODE
 70
     1
  9
$TEXTSIZE
 40
3.5
  9
$TRACEWID
 40
0.5
  9
$TEXTSTYLE
  7
STANDARD
  9
$CLAYER
  8
SCHRAFF
  9
$CELTYPE
  6
ByLayer
  9
$CECOLOR
 62
   256
  9
$CELTSCALE
 40
1.0
  9
$DISPSILH
 70
     0
  9
$DIMSCALE
 40
2.0
  9
$DIMASZ
 40
3.5
  9
$DIMEXO
 40
1.0
  9
$DIMDLI
 40
7.0
  9
$DIMRND
 40
0.0
  9
$DIMDLE
 40
0.0
  9
$DIMEXE
 40
1.0
  9
$DIMTP
 40
0.0
  9
$DIMTM
 40
0.0
  9
$DIMTXT
 40
3.5
  9
$DIMCEN
 40
1.5
  9
$DIMTSZ
 40
0.0
  9
$DIMTOL
 70
     0
  9
$DIMLIM
 70
     0
  9
$DIMTIH
 70
     0
  9
$DIMTOH
 70
     0
  9
$DIMSE1
 70
     0
  9
$DIMSE2
 70
     0
  9
$DIMTAD
 70
     1
  9
$DIMZIN
 70
     8
  9
$DIMBLK
  1

  9
$DIMASO
 70
     1
  9
$DIMSHO
 70
     0
  9
$DIMPOST
  1

  9
$DIMAPOST
  1

  9
$DIMALT
 70
     0
  9
$DIMALTD
 70
     2
  9
$DIMALTF
 40
25.4
  9
$DIMLFAC
 40
1.0
  9
$DIMTOFL
 70
     1
  9
$DIMTVP
 40
0.0
  9
$DIMTIX
 70
     0
  9
$DIMSOXD
 70
     0
  9
$DIMSAH
 70
     0
  9
$DIMBLK1
  1

  9
$DIMBLK2
  1

  9
$DIMSTYLE
  2
Standard
  9
$DIMCLRD
 70
     0
  9
$DIMCLRE
 70
     0
  9
$DIMCLRT
 70
     1
  9
$DIMTFAC
 40
0.5142857142857144
  9
$DIMGAP
 40
1.5
  9
$DIMJUST
 70
     0
  9
$DIMSD1
 70
     0
  9
$DIMSD2
 70
     0
  9
$DIMTOLJ
 70
     1
  9
$DIMTZIN
 70
     8
  9
$DIMALTZ
 70
     8
  9
$DIMALTTZ
 70
     8
  9
$DIMUPT
 70
     0
  9
$DIMDEC
 70
     2
  9
$DIMTDEC
 70
     2
  9
$DIMALTU
 70
     2
  9
$DIMALTTD
 70
     2
  9
$DIMTXSTY
  7
STANDARD
  9
$DIMAUNIT
 70
     0
  9
$DIMADEC
 70
     2
  9
$DIMALTRND
 40
0.0
  9
$DIMAZIN
 70
     2
  9
$DIMDSEP
 70
    46
  9
$DIMATFIT
 70
     3
  9
$DIMFRAC
 70
     0
  9
$DIMLDRBLK
  1

  9
$DIMLUNIT
 70
     2
  9
$DIMLWD
 70
    -2
  9
$DIMLWE
 70
    -2
  9
$DIMTMOVE
 70
     0
  9
$LUNITS
 70
     2
  9
$LUPREC
 70
     2
  9
$SKETCHINC
 40
1.0
  9
$FILLETRAD
 40
0.0
  9
$AUNITS
 70
     1
  9
$AUPREC
 70
     3
  9
$MENU
  1
ACAD
  9
$ELEVATION
 40
0.0
  9
$PELEVATION
 40
0.0
  9
$THICKNESS
 40
0.0
  9
$LIMCHECK
 70
     0
  9
$CHAMFERA
 40
0.0
  9
$CHAMFERB
 40
0.0
  9
$CHAMFERC
 40
0.0
  9
$CHAMFERD
 40
0.0
  9
$SKPOLY
 70
     0
  9
$TDCREATE
 40
2452040.637099653
  9
$TDUCREATE
 40
2452040.553766320
  9
$TDUPDATE
 40
2455666.486783345
  9
$TDUUPDATE
 40
2455666.403450012
  9
$TDINDWG
 40
0.5612878819
  9
$TDUSRTIMER
 40
0.5612878819
  9
$USRTIMER
 70
     1
  9
$ANGBASE
 50
0.0
  9
$ANGDIR
 70
     0
  9
$PDMODE
 70
     0
  9
$PDSIZE
 40
0.0
  9
$PLINEWID
 40
0.0
  9
$SPLFRAME
 70
     0
  9
$SPLINETYPE
 70
     6
  9
$SPLINESEGS
 70
     8
  9
$HANDSEED
  5
2368
  9
$SURFTAB1
 70
     6
  9
$SURFTAB2
 70
     6
  9
$SURFTYPE
 70
     6
  9
$SURFU
 70
     6
  9
$SURFV
 70
     6
  9
$UCSBASE
  2

  9
$UCSNAME
  2

  9
$UCSORG
 10
0.0
 20
0.0
 30
0.0
  9
$UCSXDIR
 10
1.0
 20
0.0
 30
0.0
  9
$UCSYDIR
 10
0.0
 20
1.0
 30
0.0
  9
$UCSORTHOREF
  2

  9
$UCSORTHOVIEW
 70
     0
  9
$UCSORGTOP
 10
0.0
 20
0.0
 30
0.0
  9
$UCSORGBOTTOM
 10
0.0
 20
0.0
 30
0.0
  9
$UCSORGLEFT
 10
0.0
 20
0.0
 30
0.0
  9
$UCSORGRIGHT
 10
0.0
 20
0.0
 30
0.0
  9
$UCSORGFRONT
 10
0.0
 20
0.0
 30
0.0
  9
$UCSORGBACK
 10
0.0
 20
0.0
 30
0.0
  9
$PUCSBASE
  2

  9
$PUCSNAME
  2

  9
$PUCSORG
 10
0.0
 20
0.0
 30
0.0
  9
$PUCSXDIR
 10
1.0
 20
0.0
 30
0.0
  9
$PUCSYDIR
 10
0.0
 20
1.0
 30
0.0
  9
$PUCSORTHOREF
  2

  9
$PUCSORTHOVIEW
 70
     0
  9
$PUCSORGTOP
 10
0.0
 20
0.0
 30
0.0
  9
$PUCSORGBOTTOM
 10
0.0
 20
0.0
 30
0.0
  9
$PUCSORGLEFT
 10
0.0
 20
0.0
 30
0.0
  9
$PUCSORGRIGHT
 10
0.0
 20
0.0
 30
0.0
  9
$PUCSORGFRONT
 10
0.0
 20
0.0
 30
0.0
  9
$PUCSORGBACK
 10
0.0
 20
0.0
 30
0.0
  9
$USERI1
 70
     0
  9
$USERI2
 70
     0
  9
$USERI3
 70
     0
  9
$USERI4
 70
     0
  9
$USERI5
 70
     0
  9
$USERR1
 40
0.0
  9
$USERR2
 40
0.0
  9
$USERR3
 40
0.0
  9
$USERR4
 40
0.0
  9
$USERR5
 40
0.0
  9
$WORLDVIEW
 70
     1
  9
$SHADEDGE
 70
     3
  9
$SHADEDIF
 70
    70
  9
$TILEMODE
 70
     1
  9
$MAXACTVP
 70
    16
  9
$PINSBASE
 10
0.0
 20
0.0
 30
0.0
  9
$PLIMCHECK
 70
     0
  9
$PEXTMIN
 10
1.000000000000000E+20
 20
1.000000000000000E+20
 30
1.000000000000000E+20
  9
$PEXTMAX
 10
-1.000000000000000E+20
 20
-1.000000000000000E+20
 30
-1.000000000000000E+20
  9
$PLIMMIN
 10
0.0
 20
0.0
  9
$PLIMMAX
 10
12.0
 20
9.0
  9
$UNITMODE
 70
     0
  9
$VISRETAIN
 70
     0
  9
$PLINEGEN
 70
     0
  9
$PSLTSCALE
 70
     0
  9
$TREEDEPTH
 70
  3020
  9
$CMLSTYLE
  2
Standard
  9
$CMLJUST
 70
     0
  9
$CMLSCALE
 40
1.0
  9
$PROXYGRAPHICS
 70
     1
  9
$MEASUREMENT
 70
     0
  9
$CELWEIGHT
370
    -1
  9
$ENDCAPS
280
     0
  9
$JOINSTYLE
280
     0
  9
$LWDISPLAY
290
     0
  9
$INSUNITS
 70
     0
  9
$HYPERLINKBASE
  1

  9
$STYLESHEET
  1
monochrome 1.ctb
  9
$XEDIT
290
     1
  9
$CEPSNTYPE
380
     0
  9
$PSTYLEMODE
290
     1
  9
$FINGERPRINTGUID
  2
{7AADB5C8-6110-11D8-B72B-000102183313}
  9
$VERSIONGUID
  2
{F3EB43AD-26AD-469B-A118-FCF3563876DD}
  9
$EXTNAMES
290
     1
  9
$PSVPSCALE
 40
0.0
  9
$OLESTARTUP
290
     0
  9
$SORTENTS
280
    96
  9
$INDEXCTL
280
     0
  9
$HIDETEXT
280
     0
  9
$XCLIPFRAME
290
     0
  9
$HALOGAP
280
     0
  9
$OBSCOLOR
 70
   257
  9
$OBSLTYPE
280
     0
  9
$INTERSECTIONDISPLAY
280
     0
  9
$INTERSECTIONCOLOR
 70
   257
  9
$DIMASSOC
280
     1
  9
$PROJECTNAME
  1

  0
ENDSEC
  0
SECTION
  2
CLASSES
  0
CLASS
  1
ACDBDICTIONARYWDFLT
  2
AcDbDictionaryWithDefault
  3
ObjectDBX Classes
 90
        0
 91
        1
280
     0
281
     0
  0
CLASS
  1
DICTIONARYVAR
  2
AcDbDictionaryVar
  3
ObjectDBX Classes
 90
        0
 91
        3
280
     0
281
     0
  0
ENDSEC
  0
SECTION
  2
TABLES
  0
TABLE
  2
VPORT
  5
8
330
0
100
AcDbSymbolTable
 70
     3
  0
VPORT
  5
2367
330
8
100
AcDbSymbolTableRecord
100
AcDbViewportTableRecord
  2
*Active
 70
     0
 10
0.0
 20
0.0
 11
1.0
 21
1.0
 12
210.0
 22
297.0
 13
0.0
 23
0.0
 14
1.0
 24
1.0
 15
10.0
 25
10.0
 16
0.0
 26
0.0
 36
1.0
 17
0.0
 27
0.0
 37
0.0
 40
594.0
 41
1.334231805929919
 42
50.0
 43
0.0
 44
0.0
 50
0.0
 51
0.0
 71
     0
 72
  1500
 73
     1
 74
     0
 75
     0
 76
     0
 77
     0
 78
     0
281
     0
 65
     1
110
0.0
120
0.0
130
0.0
111
1.0
121
0.0
131
0.0
112
0.0
122
1.0
132
0.0
 79
     0
146
0.0
  0
ENDTAB
  0
TABLE
  2
LTYPE
  5
5
330
0
100
AcDbSymbolTable
 70
     2
  0
LTYPE
  5
13
330
5
100
AcDbSymbolTableRecord
100
AcDbLinetypeTableRecord
  2
ByBlock
 70
     0
  3

 72
    65
 73
     0
 40
0.0
  0
LTYPE
  5
14
330
5
100
AcDbSymbolTableRecord
100
AcDbLinetypeTableRecord
  2
ByLayer
 70
     0
  3

 72
    65
 73
     0
 40
0.0
  0
LTYPE
  5
15
330
5
100
AcDbSymbolTableRecord
100
AcDbLinetypeTableRecord
  2
Continuous
 70
     0
  3
Solid line
 72
    65
 73
     0
 40
0.0
  0
LTYPE
  5
35
330
5
100
AcDbSymbolTableRecord
100
AcDbLinetypeTableRecord
  2
STRICHPUNKT
 70
     0
  3
__ . __ . __ . __ . __ . __ . __ . __ . __ . __
 72
    65
 73
     4
 40
1.0
 49
0.5
 74
     0
 49
-0.25
 74
     0
 49
0.0
 74
     0
 49
-0.25
 74
     0
  0
ENDTAB
  0
TABLE
  2
LAYER
  5
2
330
0
100
AcDbSymbolTable
 70
     9
  0
LAYER
  5
10
330
2
100
AcDbSymbolTableRecord
100
AcDbLayerTableRecord
  2
0
 70
     0
 62
     7
  6
Continuous
370
    -3
390
F
  0
LAYER
  5
38
330
2
100
AcDbSymbolTableRecord
100
AcDbLayerTableRecord
  2
VOLL
 70
     0
 62
     1
  6
Continuous
370
    -3
390
F
  0
LAYER
  5
39
330
2
100
AcDbSymbolTableRecord
100
AcDbLayerTableRecord
  2
HILF
 70
     0
 62
     2
  6
Continuous
370
    -3
390
F
  0
LAYER
  5
3A
330
2
100
AcDbSymbolTableRecord
100
AcDbLayerTableRecord
  2
MITTEL
 70
     0
 62
     2
  6
STRICHPUNKT
370
    -3
390
F
  0
LAYER
  5
3B
330
2
100
AcDbSymbolTableRecord
100
AcDbLayerTableRecord
  2
BEM
 70
     0
 62
     7
  6
Continuous
370
    -3
390
F
  0
LAYER
  5
3C
330
2
100
AcDbSymbolTableRecord
100
AcDbLayerTableRecord
  2
STEMPEL
 70
     0
 62
     3
  6
Continuous
370
    -3
390
F
  0
LAYER
  5
3D
330
2
100
AcDbSymbolTableRecord
100
AcDbLayerTableRecord
  2
TEXT
 70
     0
 62
     7
  6
Continuous
370
    -3
390
F
  0
LAYER
  5
3E
330
2
100
AcDbSymbolTableRecord
100
AcDbLayerTableRecord
  2
DEFPOINTS
 70
     0
 62
     7
  6
Continuous
290
     0
370
    -3
390
F
  0
LAYER
  5
3F
330
2
100
AcDbSymbolTableRecord
100
AcDbLayerTableRecord
  2
SCHRAFF
 70
     0
 62
     7
  6
Continuous
370
    -3
390
F
  0
ENDTAB
  0
TABLE
  2
STYLE
  5
3
330
0
100
AcDbSymbolTable
 70
     2
  0
STYLE
  5
11
330
3
100
AcDbSymbolTableRecord
100
AcDbTextStyleTableRecord
  2
STANDARD
 70
     0
 40
0.0
 41
0.8
 50
0.0
 71
     0
 42
3.5
  3
simplex.shx
  4

  0
STYLE
  5
34
330
3
100
AcDbSymbolTableRecord
100
AcDbTextStyleTableRecord
  2
GREEKS
 70
     0
 40
0.0
 41
0.8
 50
0.0
 71
     0
 42
2.5
  3
SIMPLEX.shx
  4

  0
ENDTAB
  0
TABLE
  2
VIEW
  5
6
330
0
100
AcDbSymbolTable
 70
     0
  0
ENDTAB
  0
TABLE
  2
UCS
  5
7
330
0
100
AcDbSymbolTable
 70
     0
  0
ENDTAB
  0
TABLE
  2
APPID
  5
9
330
0
100
AcDbSymbolTable
 70
     2
  0
APPID
  5
12
330
9
100
AcDbSymbolTableRecord
100
AcDbRegAppTableRecord
  2
ACAD
 70
     0
  0
APPID
  5
1555
330
9
100
AcDbSymbolTableRecord
100
AcDbRegAppTableRecord
  2
AVE_RENDER
 70
     0
  0
ENDTAB
  0
TABLE
  2
DIMSTYLE
  5
A
330
0
100
AcDbSymbolTable
 70
     1
100
AcDbDimStyleTable
 71
     1
340
1CB
  0
DIMSTYLE
105
1CB
102
{ACAD_REACTORS
330
170F
330
1AB8
330
1AE8
330
20EC
330
2183
330
223D
102
}
330
A
100
AcDbSymbolTableRecord
100
AcDbDimStyleTableRecord
  2
Standard
 70
     0
340
11
  0
ENDTAB
  0
TABLE
  2
BLOCK_RECORD
  5
1
330
0
100
AcDbSymbolTable
 70
     9
  0
BLOCK_RECORD
  5
1E
330
1
100
AcDbSymbolTableRecord
100
AcDbBlockTableRecord
  2
*Model_Space
340
21
  0
BLOCK_RECORD
  5
1A
330
1
100
AcDbSymbolTableRecord
100
AcDbBlockTableRecord
  2
*Paper_Space
340
1D
  0
BLOCK_RECORD
  5
22
330
1
100
AcDbSymbolTableRecord
100
AcDbBlockTableRecord
  2
LOGO
340
0
102
{BLKREFS
331
135
102
}
  0
BLOCK_RECORD
  5
1710
330
1
100
AcDbSymbolTableRecord
100
AcDbBlockTableRecord
  2
*D1
340
0
  0
BLOCK_RECORD
  5
1AB9
330
1
100
AcDbSymbolTableRecord
100
AcDbBlockTableRecord
  2
*D2
340
0
  0
BLOCK_RECORD
  5
1AE9
330
1
100
AcDbSymbolTableRecord
100
AcDbBlockTableRecord
  2
*D3
340
0
  0
BLOCK_RECORD
  5
20ED
330
1
100
AcDbSymbolTableRecord
100
AcDbBlockTableRecord
  2
*D6
340
0
  0
BLOCK_RECORD
  5
2184
330
1
100
AcDbSymbolTableRecord
100
AcDbBlockTableRecord
  2
*D7
340
0
  0
BLOCK_RECORD
  5
223E
330
1
100
AcDbSymbolTableRecord
100
AcDbBlockTableRecord
  2
*D8
340
0
  0
ENDTAB
  0
ENDSEC
  0
SECTION
  2
BLOCKS
  0
BLOCK
  5
43
330
1E
100
AcDbEntity
  8
0
100
AcDbBlockBegin
  2
*Model_Space
 70
     0
 10
0.0
 20
0.0
 30
0.0
  3
*Model_Space
  1

  0
ENDBLK
  5
44
330
1E
100
AcDbEntity
  8
0
100
AcDbBlockEnd
  0
BLOCK
  5
41
330
1A
100
AcDbEntity
 67
     1
  8
0
100
AcDbBlockBegin
  2
*Paper_Space
 70
     0
 10
0.0
 20
0.0
 30
0.0
  3
*Paper_Space
  1

  0
ENDBLK
  5
42
330
1A
100
AcDbEntity
 67
     1
  8
0
100
AcDbBlockEnd
  0
BLOCK
  5
45
330
22
100
AcDbEntity
  8
0
100
AcDbBlockBegin
  2
LOGO
 70
     0
 10
0.0
 20
0.0
 30
0.0
  3
LOGO
  1

  0
ARC
  5
46
330
22
100
AcDbEntity
  8
0
100
AcDbCircle
 10
11.59973089678112
 20
-9.271599258481501
 30
0.0
 40
4.5
100
AcDbArc
 50
270.0
 51
231.0575587310159
  0
LINE
  5
47
330
22
100
AcDbEntity
  8
0
100
AcDbLine
 10
3.599730896781125
 20
-4.771599258481529
 30
0.0
 11
3.599730896781153
 21
-11.77159925848133
 31
0.0
  0
LINE
  5
48
330
22
100
AcDbEntity
  8
0
100
AcDbLine
 10
2.599730896781125
 20
-4.771599258481529
 30
0.0
 11
2.599730896781153
 21
-11.77159925848133
 31
0.0
  0
CIRCLE
  5
49
330
22
100
AcDbEntity
  8
0
100
AcDbCircle
 10
11.59973089678112
 20
-9.271599258481501
 30
0.0
 40
3.5
  0
ARC
  5
4A
330
22
100
AcDbEntity
  8
0
100
AcDbCircle
 10
31.59973089678115
 20
-9.271599258481472
 30
0.0
 40
4.5
100
AcDbArc
 50
270.0
 51
231.0575587310182
  0
LINE
  5
4B
330
22
100
AcDbEntity
  8
0
100
AcDbLine
 10
17.59973089678112
 20
-4.771599258481472
 30
0.0
 11
17.59973089678115
 21
-13.77159925848147
 31
0.0
  0
ARC
  5
4C
330
22
100
AcDbEntity
  8
0
100
AcDbCircle
 10
22.59973089678116
 20
-7.271599258481472
 30
0.0
 40
2.5
100
AcDbArc
 50
293.1161887722295
 51
90.0
  0
CIRCLE
  5
4D
330
22
100
AcDbEntity
  8
0
100
AcDbCircle
 10
31.59973089678115
 20
-9.271599258481472
 30
0.0
 40
3.5
  0
ARC
  5
4E
330
22
100
AcDbEntity
  8
0
100
AcDbCircle
 10
4.599730896781153
 20
-11.77159925848133
 30
0.0
 40
1.0
100
AcDbArc
 50
180.0
 51
270.0
  0
ARC
  5
4F
330
22
100
AcDbEntity
  8
0
100
AcDbCircle
 10
4.599730896781153
 20
-11.77159925848133
 30
0.0
 40
2.0
100
AcDbArc
 50
179.9999999999992
 51
270.0
  0
LINE
  5
50
330
22
100
AcDbEntity
  8
0
100
AcDbLine
 10
11.59973089678115
 20
-13.77159925848144
 30
0.0
 11
4.599730896781153
 21
-13.77159925848147
 31
0.0
  0
LINE
  5
51
330
22
100
AcDbEntity
  8
0
100
AcDbLine
 10
8.771303772034769
 20
-12.77159925848136
 30
0.0
 11
4.599730896781153
 21
-12.77159925848133
 31
0.0
  0
LINE
  5
52
330
22
100
AcDbEntity
  8
0
100
AcDbLine
 10
31.59973089678115
 20
-13.77159925848147
 30
0.0
 11
23.6715276665056
 21
-13.77159925848144
 31
0.0
  0
LINE
  5
53
330
22
100
AcDbEntity
  8
0
100
AcDbLine
 10
23.56565672307022
 20
-9.51278021337896
 30
0.0
 11
24.4388546544846
 21
-12.77159925848144
 31
0.0
  0
LINE
  5
54
330
22
100
AcDbEntity
  8
0
100
AcDbLine
 10
22.59973089678116
 20
-9.771599258481472
 30
0.0
 11
18.59973089678112
 21
-9.771599258481472
 31
0.0
  0
LINE
  5
55
330
22
100
AcDbEntity
  8
0
100
AcDbLine
 10
18.59973089678115
 20
-13.77159925848144
 30
0.0
 11
17.59973089678115
 21
-13.77159925848144
 31
0.0
  0
LINE
  5
56
330
22
100
AcDbEntity
  8
0
100
AcDbLine
 10
18.59973089678115
 20
-9.771599258481472
 30
0.0
 11
18.59973089678115
 21
-13.77159925848144
 31
0.0
  0
LINE
  5
57
330
22
100
AcDbEntity
  8
0
100
AcDbLine
 10
22.59973089678116
 20
-9.771599258481472
 30
0.0
 11
23.67152766650562
 21
-13.77159925848147
 31
0.0
  0
ARC
  5
58
330
22
100
AcDbEntity
  8
0
100
AcDbCircle
 10
22.59973089678116
 20
-7.271599258481472
 30
0.0
 40
2.5
100
AcDbArc
 50
270.0
 51
270.0000000000007
  0
LINE
  5
59
330
22
100
AcDbEntity
  8
0
100
AcDbLine
 10
28.77130377203494
 20
-12.77159925848147
 30
0.0
 11
24.43885465448463
 21
-12.77159925848144
 31
0.0
  0
LINE
  5
5A
330
22
100
AcDbEntity
  8
0
100
AcDbLine
 10
3.599730896781125
 20
-4.771599258481472
 30
0.0
 11
2.599730896781125
 21
-4.771599258481472
 31
0.0
  0
LINE
  5
5B
330
22
100
AcDbEntity
  8
0
100
AcDbLine
 10
22.59973089678116
 20
-8.771599258481472
 30
0.0
 11
18.59973089678115
 21
-8.771599258481472
 31
0.0
  0
LINE
  5
5C
330
22
100
AcDbEntity
  8
0
100
AcDbLine
 10
22.59973089678116
 20
-5.771599258481472
 30
0.0
 11
18.59973089678115
 21
-5.771599258481472
 31
0.0
  0
LINE
  5
5D
330
22
100
AcDbEntity
  8
0
100
AcDbLine
 10
22.59973089678116
 20
-4.771599258481472
 30
0.0
 11
17.59973089678115
 21
-4.771599258481472
 31
0.0
  0
LINE
  5
5E
330
22
100
AcDbEntity
  8
0
100
AcDbLine
 10
18.59973089678115
 20
-5.771599258481472
 30
0.0
 11
18.59973089678115
 21
-8.771599258481472
 31
0.0
  0
ARC
  5
5F
330
22
100
AcDbEntity
  8
0
100
AcDbCircle
 10
22.59973089678116
 20
-7.271599258481472
 30
0.0
 40
1.5
100
AcDbArc
 50
270.0
 51
90.0
  0
ENDBLK
  5
60
330
22
100
AcDbEntity
  8
0
100
AcDbBlockEnd
  0
BLOCK
  5
171A
330
1710
100
AcDbEntity
  8
0
100
AcDbBlockBegin
  2
*D1
 70
     1
 10
0.0
 20
0.0
 30
0.0
  3
*D1
  1

  0
LINE
  5
2354
330
1710
100
AcDbEntity
  8
BEM
 62
     0
370
    -2
100
AcDbLine
 10
163.1594804925781
 20
234.2308850950838
 30
0.0
 11
142.317528672747
 21
234.2308850950838
 31
0.0
  0
LINE
  5
2355
330
1710
100
AcDbEntity
  8
BEM
 62
     0
370
    -2
100
AcDbLine
 10
213.2595711843709
 20
309.2308850950835
 30
0.0
 11
142.317528672747
 21
309.2308850950835
 31
0.0
  0
LINE
  5
2356
330
1710
100
AcDbEntity
  8
BEM
 62
     0
370
    -2
100
AcDbLine
 10
144.3175286727471
 20
241.2308850950839
 30
0.0
 11
144.3175286727471
 21
302.2308850950835
 31
0.0
  0
SOLID
  5
2357
330
1710
100
AcDbEntity
  8
BEM
 62
     0
100
AcDbTrace
 10
143.1508620060804
 20
241.2308850950839
 30
0.0
 11
145.4841953394137
 21
241.2308850950839
 31
0.0
 12
144.3175286727471
 22
234.2308850950838
 32
0.0
 13
144.3175286727471
 23
234.2308850950838
 33
0.0
  0
SOLID
  5
2358
330
1710
100
AcDbEntity
  8
BEM
 62
     0
100
AcDbTrace
 10
143.1508620060804
 20
302.2308850950835
 30
0.0
 11
145.4841953394137
 21
302.2308850950835
 31
0.0
 12
144.3175286727471
 22
309.2308850950835
 32
0.0
 13
144.3175286727471
 23
309.2308850950835
 33
0.0
  0
MTEXT
  5
2359
330
1710
100
AcDbEntity
  8
BEM
 62
     1
100
AcDbMText
 10
137.817528672747
 20
271.7308850950837
 30
0.0
 40
7.0
 41
0.0
 71
     5
 72
     1
  1
\A1;75
 11
0.0000000000000001
 21
1.0
 31
0.0
 73
     1
 44
1.0
  0
POINT
  5
235A
330
1710
100
AcDbEntity
  8
DEFPOINTS
 62
     0
100
AcDbPoint
 10
165.1594804925782
 20
234.2308850950838
 30
0.0
  0
POINT
  5
235B
330
1710
100
AcDbEntity
  8
DEFPOINTS
 62
     0
100
AcDbPoint
 10
215.259571184371
 20
309.2308850950835
 30
0.0
  0
POINT
  5
235C
330
1710
100
AcDbEntity
  8
DEFPOINTS
 62
     0
100
AcDbPoint
 10
144.3175286727471
 20
309.2308850950835
 30
0.0
  0
ENDBLK
  5
171B
330
1710
100
AcDbEntity
  8
0
100
AcDbBlockEnd
  0
BLOCK
  5
1AC3
330
1AB9
100
AcDbEntity
  8
0
100
AcDbBlockBegin
  2
*D2
 70
     1
 10
0.0
 20
0.0
 30
0.0
  3
*D2
  1

  0
LINE
  5
235D
330
1AB9
100
AcDbEntity
  8
BEM
 62
     0
370
    -2
100
AcDbLine
 10
158.5997882656478
 20
504.2341779994138
 30
0.0
 11
125.5990190023693
 21
504.2341779994139
 31
0.0
  0
LINE
  5
235E
330
1AB9
100
AcDbEntity
  8
BEM
 62
     0
370
    -2
100
AcDbLine
 10
163.1594804925781
 20
234.2308850950838
 30
0.0
 11
125.5990190023693
 21
234.2308850950838
 31
0.0
  0
LINE
  5
235F
330
1AB9
100
AcDbEntity
  8
BEM
 62
     0
370
    -2
100
AcDbLine
 10
127.5990190023693
 20
497.2341779994138
 30
0.0
 11
127.5990190023693
 21
241.2308850950839
 31
0.0
  0
SOLID
  5
2360
330
1AB9
100
AcDbEntity
  8
BEM
 62
     0
100
AcDbTrace
 10
126.4323523357026
 20
497.2341779994138
 30
0.0
 11
128.765685669036
 21
497.2341779994137
 31
0.0
 12
127.5990190023693
 22
504.2341779994139
 32
0.0
 13
127.5990190023693
 23
504.2341779994139
 33
0.0
  0
SOLID
  5
2361
330
1AB9
100
AcDbEntity
  8
BEM
 62
     0
100
AcDbTrace
 10
126.4323523357026
 20
241.2308850950839
 30
0.0
 11
128.7656856690359
 21
241.2308850950839
 31
0.0
 12
127.5990190023693
 22
234.2308850950838
 32
0.0
 13
127.5990190023693
 23
234.2308850950838
 33
0.0
  0
MTEXT
  5
2362
330
1AB9
100
AcDbEntity
  8
BEM
 62
     1
100
AcDbMText
 10
121.0990190023692
 20
369.2325315472489
 30
0.0
 40
7.0
 41
0.0
 71
     5
 72
     1
  1
\A1;270
 11
0.0000000000000001
 21
1.0
 31
0.0
 73
     1
 44
1.0
  0
POINT
  5
2363
330
1AB9
100
AcDbEntity
  8
DEFPOINTS
 62
     0
100
AcDbPoint
 10
160.5997882656478
 20
504.2341779994138
 30
0.0
  0
POINT
  5
2364
330
1AB9
100
AcDbEntity
  8
DEFPOINTS
 62
     0
100
AcDbPoint
 10
165.1594804925782
 20
234.2308850950838
 30
0.0
  0
POINT
  5
2365
330
1AB9
100
AcDbEntity
  8
DEFPOINTS
 62
     0
100
AcDbPoint
 10
127.5990190023693
 20
234.2308850950838
 30
0.0
  0
ENDBLK
  5
1AC4
330
1AB9
100
AcDbEntity
  8
0
100
AcDbBlockEnd
  0
BLOCK
  5
1AF3
330
1AE9
100
AcDbEntity
  8
0
100
AcDbBlockBegin
  2
*D3
 70
     1
 10
0.0
 20
0.0
 30
0.0
  3
*D3
  1

  0
LINE
  5
2199
330
1AE9
100
AcDbEntity
  8
BEM
 62
     0
370
    -2
100
AcDbLine
 10
164.4595711843708
 20
240.2308850950838
 30
0.0
 11
164.4595711843708
 21
211.1409958420065
 31
0.0
  0
LINE
  5
219A
330
1AE9
100
AcDbEntity
  8
BEM
 62
     0
370
    -2
100
AcDbLine
 10
266.0595711843708
 20
240.2308850950832
 30
0.0
 11
266.0595711843708
 21
211.1409958420065
 31
0.0
  0
LINE
  5
219B
330
1AE9
100
AcDbEntity
  8
BEM
 62
     0
370
    -2
100
AcDbLine
 10
171.4595711843708
 20
213.1409958420065
 30
0.0
 11
259.0595711843708
 21
213.1409958420065
 31
0.0
  0
SOLID
  5
219C
330
1AE9
100
AcDbEntity
  8
BEM
 62
     0
100
AcDbTrace
 10
171.4595711843708
 20
214.3076625086731
 30
0.0
 11
171.4595711843708
 21
211.9743291753398
 31
0.0
 12
164.4595711843708
 22
213.1409958420065
 32
0.0
 13
164.4595711843708
 23
213.1409958420065
 33
0.0
  0
SOLID
  5
219D
330
1AE9
100
AcDbEntity
  8
BEM
 62
     0
100
AcDbTrace
 10
259.0595711843708
 20
214.3076625086731
 30
0.0
 11
259.0595711843708
 21
211.9743291753398
 31
0.0
 12
266.0595711843708
 22
213.1409958420065
 32
0.0
 13
266.0595711843708
 23
213.1409958420065
 33
0.0
  0
MTEXT
  5
219E
330
1AE9
100
AcDbEntity
  8
BEM
 62
     1
100
AcDbMText
 10
215.2595711843708
 20
219.6409958420065
 30
0.0
 40
7.0
 41
0.0
 71
     5
 72
     1
  1
\A1;%%c101.6
 73
     1
 44
1.0
  0
POINT
  5
219F
330
1AE9
100
AcDbEntity
  8
DEFPOINTS
 62
     0
100
AcDbPoint
 10
164.4595711843708
 20
242.2308850950838
 30
0.0
  0
POINT
  5
21A0
330
1AE9
100
AcDbEntity
  8
DEFPOINTS
 62
     0
100
AcDbPoint
 10
266.0595711843708
 20
242.2308850950832
 30
0.0
  0
POINT
  5
21A1
330
1AE9
100
AcDbEntity
  8
DEFPOINTS
 62
     0
100
AcDbPoint
 10
266.0595711843708
 20
213.1409958420065
 30
0.0
  0
ENDBLK
  5
1AF4
330
1AE9
100
AcDbEntity
  8
0
100
AcDbBlockEnd
  0
BLOCK
  5
20F7
330
20ED
100
AcDbEntity
  8
0
100
AcDbBlockBegin
  2
*D6
 70
     1
 10
0.0
 20
0.0
 30
0.0
  3
*D6
  1

  0
LINE
  5
22AC
330
20ED
100
AcDbEntity
  8
BEM
 62
     0
370
    -2
100
AcDbLine
 10
264.6453576219978
 20
396.0933309355973
 30
0.0
 11
217.1438889401015
 21
348.5918622537009
 31
0.0
  0
LINE
  5
22AD
330
20ED
100
AcDbEntity
  8
BEM
 62
     0
370
    -2
100
AcDbLine
 10
264.6453576219977
 20
321.1400121298231
 30
0.0
 11
254.6205483429885
 21
311.1152028508139
 31
0.0
  0
LINE
  5
22AE
330
20ED
100
AcDbEntity
  8
BEM
 62
     0
370
    -2
100
AcDbLine
 10
223.5078499707804
 20
345.0563283477682
 30
0.0
 11
251.0850144370558
 21
317.4791638814928
 31
0.0
  0
SOLID
  5
22AF
330
20ED
100
AcDbEntity
  8
BEM
 62
     0
100
AcDbTrace
 10
224.3328078821647
 20
345.8812862591525
 30
0.0
 11
222.6828920593961
 21
344.2313704363839
 31
0.0
 12
218.5581025024746
 22
350.006075816074
 32
0.0
 13
218.5581025024746
 23
350.006075816074
 33
0.0
  0
SOLID
  5
22B0
330
20ED
100
AcDbEntity
  8
BEM
 62
     0
100
AcDbTrace
 10
251.9099723484401
 20
318.3041217928771
 30
0.0
 11
250.2600565256715
 21
316.6542059701085
 31
0.0
 12
256.0347619053616
 22
312.529416413187
 32
0.0
 13
256.0347619053616
 23
312.529416413187
 33
0.0
  0
MTEXT
  5
22B1
330
20ED
100
AcDbEntity
  8
BEM
 62
     1
100
AcDbMText
 10
241.8926262816306
 20
335.8639401923431
 30
0.0
 40
7.0
 41
0.0
 71
     5
 72
     1
  1
\A1;%%c53
 11
0.7071067811865476
 21
-0.7071067811865475
 31
0.0
 73
     1
 44
1.0
  0
POINT
  5
22B2
330
20ED
100
AcDbEntity
  8
DEFPOINTS
 62
     0
100
AcDbPoint
 10
266.0595711843708
 20
397.5075444979704
 30
0.0
  0
POINT
  5
22B3
330
20ED
100
AcDbEntity
  8
DEFPOINTS
 62
     0
100
AcDbPoint
 10
266.0595711843707
 20
322.5542256921962
 30
0.0
  0
POINT
  5
22B4
330
20ED
100
AcDbEntity
  8
DEFPOINTS
 62
     0
100
AcDbPoint
 10
256.0347619053616
 20
312.529416413187
 30
0.0
  0
ENDBLK
  5
20F8
330
20ED
100
AcDbEntity
  8
0
100
AcDbBlockEnd
  0
BLOCK
  5
218E
330
2184
100
AcDbEntity
  8
0
100
AcDbBlockBegin
  2
*D7
 70
     1
 10
0.0
 20
0.0
 30
0.0
  3
*D7
  1

  0
LINE
  5
234B
330
2184
100
AcDbEntity
  8
BEM
 62
     0
370
    -2
100
AcDbLine
 10
216.6737847467441
 20
307.8166715327104
 30
0.0
 11
250.2825701211528
 21
274.2078861583013
 31
0.0
  0
LINE
  5
234C
330
2184
100
AcDbEntity
  8
BEM
 62
     0
370
    -2
100
AcDbLine
 10
353.8646927755545
 20
403.9710012954605
 30
0.0
 11
366.9551890169338
 21
390.880505054081
 31
0.0
  0
LINE
  5
234D
330
2184
100
AcDbEntity
  8
BEM
 62
     0
370
    -2
100
AcDbLine
 10
253.8181040270856
 20
280.5718471889802
 30
0.0
 11
360.5912279862549
 21
387.3449711481483
 31
0.0
  0
SOLID
  5
234E
330
2184
100
AcDbEntity
  8
BEM
 62
     0
100
AcDbTrace
 10
252.9931461157013
 20
281.3968051003645
 30
0.0
 11
254.6430619384699
 21
279.7468892775959
 31
0.0
 12
248.8683565587797
 22
275.6220997206744
 32
0.0
 13
248.8683565587797
 23
275.6220997206744
 33
0.0
  0
SOLID
  5
234F
330
2184
100
AcDbEntity
  8
BEM
 62
     0
100
AcDbTrace
 10
359.7662700748706
 20
388.1699290595327
 30
0.0
 11
361.4161858976392
 21
386.5200132367641
 31
0.0
 12
365.5409754545607
 22
392.2947186164541
 32
0.0
 13
365.5409754545607
 23
392.2947186164541
 33
0.0
  0
MTEXT
  5
2350
330
2184
100
AcDbEntity
  8
BEM
 62
     1
100
AcDbMText
 10
302.6084719289577
 20
338.5546032462768
 30
0.0
 40
7.0
 41
0.0
 71
     5
 72
     1
  1
\A1;165
 11
0.7071067811865511
 21
0.7071067811865439
 31
0.0
 73
     1
 44
1.0
  0
POINT
  5
2351
330
2184
100
AcDbEntity
  8
DEFPOINTS
 62
     0
100
AcDbPoint
 10
215.259571184371
 20
309.2308850950835
 30
0.0
  0
POINT
  5
2352
330
2184
100
AcDbEntity
  8
DEFPOINTS
 62
     0
100
AcDbPoint
 10
352.4504792131814
 20
405.3852148578336
 30
0.0
  0
POINT
  5
2353
330
2184
100
AcDbEntity
  8
DEFPOINTS
 62
     0
100
AcDbPoint
 10
365.5409754545607
 20
392.2947186164541
 30
0.0
  0
ENDBLK
  5
218F
330
2184
100
AcDbEntity
  8
0
100
AcDbBlockEnd
  0
BLOCK
  5
224A
330
223E
100
AcDbEntity
  8
0
100
AcDbBlockBegin
  2
*D8
 70
     1
 10
0.0
 20
0.0
 30
0.0
  3
*D8
  1

  0
LINE
  5
223F
330
223E
100
AcDbEntity
  8
BEM
 62
     0
370
    -2
100
AcDbLine
 10
336.8819375484571
 20
430.8532514591696
 30
0.0
 11
368.6392645235756
 21
462.6105784342882
 31
0.0
  0
LINE
  5
2240
330
223E
100
AcDbEntity
  8
BEM
 62
     0
370
    -2
100
AcDbLine
 10
215.259571184371
 20
511.2341779994134
 30
0.0
 11
215.259571184371
 21
526.1425276080131
 31
0.0
  0
ARC
  5
2241
330
223E
100
AcDbEntity
  8
BEM
 62
     0
370
    -2
100
AcDbCircle
 10
215.2595711843709
 20
309.2308850950834
 30
0.0
 40
214.9116425129296
100
AcDbArc
 50
46.86629343610492
 51
88.13370656389507
  0
SOLID
  5
2242
330
223E
100
AcDbEntity
  8
BEM
 62
     0
100
AcDbTrace
 10
363.0067629602381
 20
466.9031290559367
 30
0.0
 11
361.3839360897967
 21
465.2265619105416
 31
0.0
 12
367.2250509612024
 22
461.196364871915
 32
0.0
 13
367.2250509612024
 23
461.196364871915
 33
0.0
  0
SOLID
  5
2243
330
223E
100
AcDbEntity
  8
BEM
 62
     0
100
AcDbTrace
 10
222.2396427751624
 20
522.8620153282832
 30
0.0
 11
222.277642888005
 21
525.1950392106874
 31
0.0
 12
215.259571184371
 22
524.1425276080128
 32
0.0
 13
215.259571184371
 23
524.1425276080128
 33
0.0
  0
MTEXT
  5
2244
330
223E
100
AcDbEntity
  8
BEM
 62
     1
100
AcDbMText
 10
299.990138506811
 20
513.7885698724848
 30
0.0
 40
7.0
 41
0.0
 71
     5
 72
     1
  1
\A1;45°
 11
0.9238795325112864
 21
-0.3826834323650904
 31
0.0
 73
     1
 44
1.0
  0
POINT
  5
2245
330
223E
100
AcDbEntity
  8
DEFPOINTS
 62
     0
100
AcDbPoint
 10
322.7153924408357
 20
495.34982708032
 30
0.0
  0
POINT
  5
2246
330
223E
100
AcDbEntity
  8
DEFPOINTS
 62
     0
100
AcDbPoint
 10
215.259571184371
 20
509.2341779994135
 30
0.0
  0
POINT
  5
2247
330
223E
100
AcDbEntity
  8
DEFPOINTS
 62
     0
100
AcDbPoint
 10
335.467723986084
 20
429.4390378967965
 30
0.0
  0
POINT
  5
2248
330
223E
100
AcDbEntity
  8
DEFPOINTS
 62
     0
100
AcDbPoint
 10
242.0749999321389
 20
336.0463138428514
 30
0.0
  0
POINT
  5
2249
330
223E
100
AcDbEntity
  8
DEFPOINTS
 62
     0
100
AcDbPoint
 10
215.2595711843708
 20
229.2308850950836
 30
0.0
  0
ENDBLK
  5
224B
330
223E
100
AcDbEntity
  8
0
100
AcDbBlockEnd
  0
ENDSEC
  0
SECTION
  2
ENTITIES
  0
TEXT
  5
134
330
1E
100
AcDbEntity
  8
TEXT
100
AcDbText
 10
204.4216048581257
 20
63.0896391972351
 30
0.0
 40
4.0
  1
Koeh
 41
0.8
  7
GREEKS
 72
     1
 11
209.6787477152686
 21
63.0896391972351
 31
0.0
100
AcDbText
  0
INSERT
  5
135
330
1E
100
AcDbEntity
  8
STEMPEL
100
AcDbBlockReference
  2
LOGO
 10
150.9955485457794
 20
45.02105276448322
 30
0.0
 41
2.0
 42
2.0
 43
2.0
  0
LINE
  5
136
330
1E
100
AcDbEntity
  8
HILF
100
AcDbLine
 10
420.0
 20
0.0
 30
0.0
 11
0.0
 21
0.0
 31
0.0
  0
LINE
  5
137
330
1E
100
AcDbEntity
  8
HILF
100
AcDbLine
 10
419.9999999999999
 20
594.0000000000002
 30
0.0
 11
0.0
 21
594.0
 31
0.0
  0
LINE
  5
138
330
1E
100
AcDbEntity
  8
STEMPEL
100
AcDbLine
 10
410.0
 20
584.0
 30
0.0
 11
39.99999999999989
 21
584.0
 31
0.0
  0
LINE
  5
139
330
1E
100
AcDbEntity
  8
STEMPEL
100
AcDbLine
 10
410.0
 20
10.0
 30
0.0
 11
39.99999999999989
 21
10.0
 31
0.0
  0
LINE
  5
13A
330
1E
100
AcDbEntity
  8
STEMPEL
100
AcDbLine
 10
49.99999999999989
 20
10.0
 30
0.0
 11
410.0
 21
10.0
 31
0.0
  0
TEXT
  5
13B
330
1E
100
AcDbEntity
  8
TEXT
100
AcDbText
 10
202.4626584226295
 20
73.30961091915225
 30
0.0
 40
4.0
  1
Name
 41
0.8
  7
GREEKS
100
AcDbText
  0
TEXT
  5
13C
330
1E
100
AcDbEntity
  8
TEXT
100
AcDbText
 10
196.5498279101549
 20
102.6506227776589
 30
0.0
 40
5.0
  1
Zul. Abw.
 41
0.8
  7
GREEKS
 72
     4
 11
209.9783993387263
 21
105.1506227776589
 31
0.0
100
AcDbText
  0
LINE
  5
13D
330
1E
100
AcDbEntity
  8
HILF
100
AcDbLine
 10
146.0000000000001
 20
49.99999999999997
 30
0.0
 11
230.0
 21
49.99999999999997
 31
0.0
  0
LINE
  5
13E
330
1E
100
AcDbEntity
  8
HILF
100
AcDbLine
 10
146.0000000000001
 20
59.99999999999997
 30
0.0
 11
230.0
 21
59.99999999999997
 31
0.0
  0
LINE
  5
13F
330
1E
100
AcDbEntity
  8
HILF
100
AcDbLine
 10
146.0000000000001
 20
69.99999999999994
 30
0.0
 11
230.0
 21
69.99999999999994
 31
0.0
  0
LINE
  5
140
330
1E
100
AcDbEntity
  8
STEMPEL
100
AcDbLine
 10
410.0
 20
80.0
 30
0.0
 11
146.0000000000001
 21
79.99999999999994
 31
0.0
  0
LINE
  5
141
330
1E
100
AcDbEntity
  8
STEMPEL
100
AcDbLine
 10
410.0
 20
40.0
 30
0.0
 11
146.0000000000001
 21
39.99999999999997
 31
0.0
  0
LINE
  5
142
330
1E
100
AcDbEntity
  8
STEMPEL
100
AcDbLine
 10
410.0
 20
110.0
 30
0.0
 11
39.99999999999997
 21
110.0
 31
0.0
  0
LINE
  5
144
330
1E
100
AcDbEntity
  8
HILF
100
AcDbLine
 10
0.0
 20
0.0
 30
0.0
 11
-0.0000000000001137
 21
594.0
 31
0.0
  0
LINE
  5
145
330
1E
100
AcDbEntity
  8
STEMPEL
100
AcDbLine
 10
40.0
 20
10.0
 30
0.0
 11
39.99999999999989
 21
584.0
 31
0.0
  0
TEXT
  5
146
330
1E
100
AcDbEntity
  8
TEXT
100
AcDbText
 10
41.85509950977674
 20
111.6719999999999
 30
0.0
 40
5.0
  1
Erstellt mit AUTOCAD 2004
 41
0.8
  7
GREEKS
100
AcDbText
  0
TEXT
  5
147
330
1E
100
AcDbEntity
  8
TEXT
100
AcDbText
 10
67.93969678957707
 20
18.67381894984132
 30
0.0
 40
4.0
  1
Änderung
 41
0.8
  7
GREEKS
 72
     1
 11
78.68255393243422
 21
18.67381894984132
 31
0.0
100
AcDbText
  0
LINE
  5
148
330
1E
100
AcDbEntity
  8
HILF
100
AcDbLine
 10
40.00000000000008
 20
39.99999999999997
 30
0.0
 11
146.0000000000001
 21
39.99999999999997
 31
0.0
  0
LINE
  5
149
330
1E
100
AcDbEntity
  8
HILF
100
AcDbLine
 10
40.00000000000008
 20
49.99999999999997
 30
0.0
 11
146.0000000000001
 21
49.99999999999997
 31
0.0
  0
LINE
  5
14A
330
1E
100
AcDbEntity
  8
HILF
100
AcDbLine
 10
40.00000000000008
 20
59.99999999999997
 30
0.0
 11
146.0000000000001
 21
59.99999999999997
 31
0.0
  0
LINE
  5
14B
330
1E
100
AcDbEntity
  8
HILF
100
AcDbLine
 10
40.00000000000008
 20
69.99999999999994
 30
0.0
 11
146.0000000000001
 21
69.99999999999994
 31
0.0
  0
LINE
  5
14C
330
1E
100
AcDbEntity
  8
HILF
100
AcDbLine
 10
40.00000000000008
 20
79.99999999999994
 30
0.0
 11
146.0000000000001
 21
79.99999999999994
 31
0.0
  0
LINE
  5
14D
330
1E
100
AcDbEntity
  8
HILF
100
AcDbLine
 10
40.00000000000008
 20
90.00000000000005
 30
0.0
 11
146.0000000000001
 21
90.00000000000005
 31
0.0
  0
LINE
  5
14E
330
1E
100
AcDbEntity
  8
HILF
100
AcDbLine
 10
40.00000000000008
 20
100.0
 30
0.0
 11
146.0000000000001
 21
100.0
 31
0.0
  0
LINE
  5
14F
330
1E
100
AcDbEntity
  8
STEMPEL
100
AcDbLine
 10
145.9999999999999
 20
29.99999999999997
 30
0.0
 11
39.99999999999997
 21
29.99999999999997
 31
0.0
  0
TEXT
  5
150
330
1E
100
AcDbEntity
  8
TEXT
100
AcDbText
 10
48.26641107045756
 20
13.65465846027192
 30
0.0
 40
4.0
  1
Index
 50
90.0
 41
0.8
  7
GREEKS
100
AcDbText
  0
LINE
  5
151
330
1E
100
AcDbEntity
  8
VOLL
100
AcDbLine
 10
54.00000000000009
 20
110.0
 30
0.0
 11
53.99999999999997
 21
9.999999999999971
 31
0.0
  0
LINE
  5
152
330
1E
100
AcDbEntity
  8
HILF
100
AcDbLine
 10
31.08767135713856
 20
297.0
 30
0.0
 11
0.0000000000001137
 21
297.0
 31
0.0
  0
TEXT
  5
153
330
1E
100
AcDbEntity
  8
TEXT
100
AcDbText
 10
110.2820548933125
 20
18.6715626933981
 30
0.0
 40
4.0
  1
Tag
 41
0.8
  7
GREEKS
 72
     1
 11
114.0153882266458
 21
18.6715626933981
 31
0.0
100
AcDbText
  0
LINE
  5
154
330
1E
100
AcDbEntity
  8
VOLL
100
AcDbLine
 10
124.0000000000001
 20
109.9999999999999
 30
0.0
 11
124.0
 21
9.999999999999971
 31
0.0
  0
LINE
  5
155
330
1E
100
AcDbEntity
  8
VOLL
100
AcDbLine
 10
104.0000000000001
 20
109.9999999999999
 30
0.0
 11
104.0
 21
9.999999999999971
 31
0.0
  0
TEXT
  5
156
330
1E
100
AcDbEntity
  8
TEXT
100
AcDbText
 10
128.9001864118674
 20
18.59324216966408
 30
0.0
 40
4.0
  1
Name
 41
0.8
  7
GREEKS
 72
     1
 11
135.2239959356769
 21
18.59324216966408
 31
0.0
100
AcDbText
  0
LINE
  5
157
330
1E
100
AcDbEntity
  8
STEMPEL
100
AcDbLine
 10
146.0000000000001
 20
109.9999999999999
 30
0.0
 11
146.0
 21
9.999999999999971
 31
0.0
  0
TEXT
  5
159
330
1E
100
AcDbEntity
  8
TEXT
100
AcDbText
 10
172.331167315365
 20
73.31880501229926
 30
0.0
 40
4.0
  1
Tag
 41
0.8
  7
GREEKS
100
AcDbText
  0
TEXT
  5
15A
330
1E
100
AcDbEntity
  8
TEXT
100
AcDbText
 10
147.5836127167615
 20
63.62990369617964
 30
0.0
 40
4.0
  1
Gez.
 41
0.8
  7
GREEKS
100
AcDbText
  0
LINE
  5
15B
330
1E
100
AcDbEntity
  8
VOLL
100
AcDbLine
 10
164.0000000000001
 20
79.99999999999994
 30
0.0
 11
164.0000000000001
 21
39.99999999999997
 31
0.0
  0
TEXT
  5
15C
330
1E
100
AcDbEntity
  8
TEXT
100
AcDbText
 10
147.6006777387303
 20
43.52946389649807
 30
0.0
 40
4.0
  1
Norm.
 41
0.8
  7
GREEKS
100
AcDbText
  0
TEXT
  5
15D
330
1E
100
AcDbEntity
  8
TEXT
100
AcDbText
 10
147.5515086571672
 20
53.68926291428377
 30
0.0
 40
4.0
  1
Gepr.
 41
0.8
  7
GREEKS
100
AcDbText
  0
TEXT
  5
15E
330
1E
100
AcDbEntity
  8
TEXT
 62
     1
100
AcDbText
 10
160.5006306481887
 20
88.14901428913959
 30
0.0
 40
7.0
  1
1:2
 41
0.8
  7
GREEKS
100
AcDbText
  0
TEXT
  5
15F
330
1E
100
AcDbEntity
  8
TEXT
100
AcDbText
 10
153.5163572150377
 20
102.4620895087088
 30
0.0
 40
5.0
  1
Maßstab
 41
0.8
  7
GREEKS
100
AcDbText
  0
TEXT
  5
160
330
1E
100
AcDbEntity
  8
TEXT
100
AcDbText
 10
148.622109822104
 20
73.14025471151666
 30
0.0
 40
4.0
  1
2011
 41
0.8
  7
GREEKS
100
AcDbText
  0
LINE
  5
161
330
1E
100
AcDbEntity
  8
VOLL
100
AcDbLine
 10
190.0000000000001
 20
109.9999999999998
 30
0.0
 11
190.0
 21
39.99999999999997
 31
0.0
  0
LINE
  5
186
330
1E
100
AcDbEntity
  8
HILF
100
AcDbLine
 10
420.0
 20
-0.0000000000001137
 30
0.0
 11
419.9999999999999
 21
594.0
 31
0.0
  0
LINE
  5
187
330
1E
100
AcDbEntity
  8
STEMPEL
100
AcDbLine
 10
410.0
 20
10.0
 30
0.0
 11
410.0
 21
584.0
 31
0.0
  0
TEXT
  5
188
330
1E
100
AcDbEntity
  8
TEXT
100
AcDbText
 10
337.2400861497006
 20
52.07416177878602
 30
0.0
 40
5.0
  1
ersetzt durch:
 41
0.8
  7
GREEKS
100
AcDbText
  0
TEXT
  5
189
330
1E
100
AcDbEntity
  8
TEXT
100
AcDbText
 10
336.7238616296993
 20
73.1811823709997
 30
0.0
 40
5.0
  1
Ersatz für:
 41
0.8
  7
GREEKS
100
AcDbText
  0
TEXT
  5
18A
330
1E
100
AcDbEntity
  8
TEXT
100
AcDbText
 10
336.178754957634
 20
102.3132034537136
 30
0.0
 40
5.0
  1
Zeichnungs Nr.
 41
0.8
  7
GREEKS
100
AcDbText
  0
LINE
  5
18B
330
1E
100
AcDbEntity
  8
HILF
100
AcDbLine
 10
233.4909699289885
 20
14.89398258028314
 30
0.0
 11
404.8588839326728
 21
14.89398258028314
 31
0.0
  0
LINE
  5
18C
330
1E
100
AcDbEntity
  8
HILF
100
AcDbLine
 10
336.7238616296993
 20
83.77983636955827
 30
0.0
 11
404.8588839326728
 21
83.77983636955827
 31
0.0
  0
LINE
  5
18D
330
1E
100
AcDbEntity
  8
VOLL
100
AcDbLine
 10
332.0
 20
60.0
 30
0.0
 11
410.0
 21
60.0
 31
0.0
  0
TEXT
  5
18E
330
1E
100
AcDbEntity
  8
TEXT
 62
     1
100
AcDbText
 10
234.9283864320014
 20
87.41748789253779
 30
0.0
 40
7.0
  1
Red.-Abzweig DN100/50
 41
0.7
  7
GREEKS
100
AcDbText
  0
LINE
  5
18F
330
1E
100
AcDbEntity
  8
HILF
100
AcDbLine
 10
234.7736801096947
 20
49.99999999999997
 30
0.0
 11
324.835391655631
 21
49.99999999999997
 31
0.0
  0
LINE
  5
190
330
1E
100
AcDbEntity
  8
HILF
100
AcDbLine
 10
234.7736801096947
 20
59.99999999999997
 30
0.0
 11
324.835391655631
 21
59.99999999999997
 31
0.0
  0
LINE
  5
191
330
1E
100
AcDbEntity
  8
HILF
100
AcDbLine
 10
234.7736801096947
 20
69.99999999999994
 30
0.0
 11
324.835391655631
 21
69.99999999999994
 31
0.0
  0
LINE
  5
192
330
1E
100
AcDbEntity
  8
HILF
100
AcDbLine
 10
234.7736801096947
 20
84.03758247564139
 30
0.0
 11
324.8353916556311
 21
84.03758247564139
 31
0.0
  0
LINE
  5
193
330
1E
100
AcDbEntity
  8
STEMPEL
100
AcDbLine
 10
230.0
 20
110.0
 30
0.0
 11
230.0
 21
9.999999999999971
 31
0.0
  0
TEXT
  5
194
330
1E
100
AcDbEntity
  8
TEXT
100
AcDbText
 10
235.1296391125315
 20
71.50334417585288
 30
0.0
 40
5.0
  1
dünnwandig 45° 
 41
0.8
  7
GREEKS
100
AcDbText
  0
TEXT
  5
195
330
1E
100
AcDbEntity
  8
TEXT
100
AcDbText
 10
234.9837501577827
 20
42.62974153022632
 30
0.0
 40
4.0
  1
4250DB0W.DWG
 41
0.8
  7
GREEKS
100
AcDbText
  0
TEXT
  5
196
330
1E
100
AcDbEntity
  8
TEXT
100
AcDbText
 10
234.742238391136
 20
30.84560570193057
 30
0.0
 40
5.0
  1
Bauvorhaben
 41
0.8
  7
GREEKS
100
AcDbText
  0
TEXT
  5
197
330
1E
100
AcDbEntity
  8
TEXT
100
AcDbText
 10
234.877940380901
 20
102.5489328011779
 30
0.0
 40
5.0
  1
Benennung
 41
0.8
  7
GREEKS
100
AcDbText
  0
LINE
  5
198
330
1E
100
AcDbEntity
  8
STEMPEL
100
AcDbLine
 10
332.0
 20
109.9999999999997
 30
0.0
 11
332.0
 21
40.0
 31
0.0
  0
TEXT
  5
19A
330
1E
100
AcDbEntity
  8
TEXT
 62
     1
100
AcDbText
 10
348.6489529119772
 20
88.14901428913959
 30
0.0
 40
7.0
  1
4250DB0W
 41
0.8
  7
GREEKS
 72
     1
 11
370.2489529119772
 21
88.14901428913959
 31
0.0
100
AcDbText
  0
TEXT
  5
212
330
1E
100
AcDbEntity
  8
TEXT
100
AcDbText
 10
235.1296391125315
 20
51.50334417585291
 30
0.0
 40
5.0
  1
EDV-Art.Nr. 4.250.DB0C
 41
0.8
  7
GREEKS
100
AcDbText
  0
TEXT
  5
255
330
1E
100
AcDbEntity
  8
TEXT
 62
     1
100
AcDbText
 10
297.0573649355706
 20
132.2248663682012
 30
0.0
 40
7.0
  1
Werkstoff: 1.4301
 41
0.8
  7
GREEKS
100
AcDbText
  0
LINE
  5
15D2
330
1E
100
AcDbEntity
  8
MITTEL
100
AcDbLine
 10
215.259571184371
 20
509.2341779994135
 30
0.0
 11
215.2595711843708
 21
229.2308850950836
 31
0.0
  0
LINE
  5
1606
330
1E
100
AcDbEntity
  8
STEMPEL
100
AcDbLine
 10
265.3596618761633
 20
234.2308850950831
 30
0.0
 11
165.1594804925782
 21
234.2308850950838
 31
0.0
  0
TEXT
  5
160F
330
1E
100
AcDbEntity
  8
TEXT
 62
     1
100
AcDbText
 10
205.3609553208938
 20
469.3713735635606
 30
0.0
 40
7.0
  1
DN100
 50
89.99999999999994
 41
0.8
  7
GREEKS
100
AcDbText
  0
TEXT
  5
16FA
330
1E
100
AcDbEntity
  8
TEXT
 62
     1
100
AcDbText
 10
304.5247185303872
 20
432.3578952924519
 30
0.0
 40
7.0
  1
DN50
 50
314.9999999999999
 41
0.8
  7
GREEKS
100
AcDbText
  0
LINE
  5
1702
330
1E
100
AcDbEntity
  8
MITTEL
100
AcDbLine
 10
335.467723986084
 20
429.4390378967965
 30
0.0
 11
245.8241406219357
 21
339.7954545326482
 31
0.0
  0
DIMENSION
  5
170F
330
1E
100
AcDbEntity
  8
BEM
100
AcDbDimension
  2
*D1
 10
144.3175286727471
 20
309.2308850950835
 30
0.0
 11
137.817528672747
 21
271.7308850950837
 31
0.0
 70
    32
 71
     5
 42
74.99999999999966
  3
Standard
100
AcDbAlignedDimension
 13
165.1594804925782
 23
234.2308850950838
 33
0.0
 14
215.259571184371
 24
309.2308850950835
 34
0.0
 50
90.0
100
AcDbRotatedDimension
1001
ACAD
1000
DSTYLE
1002
{
1070
    40
1040
2.0
1070
    41
1040
3.5
1070
    42
1040
1.0
1070
    43
1040
7.0
1070
    44
1040
1.0
1070
    73
1070
     0
1070
    74
1070
     0
1070
    77
1070
     1
1070
    78
1070
     8
1070
    79
1070
     2
1070
   140
1040
3.5
1070
   141
1040
1.5
1070
   146
1040
0.5142857142857144
1070
   147
1040
1.5
1070
   172
1070
     1
1070
   178
1070
     1
1070
   179
1070
     2
1070
   271
1070
     2
1070
   272
1070
     2
1070
   284
1070
     8
1070
   285
1070
     8
1070
   286
1070
     8
1002
}
  0
TEXT
  5
1905
330
1E
100
AcDbEntity
  8
VOLL
100
AcDbText
 10
525.3664702311624
 20
212.4618221180262
 30
0.0
 40
1.8
  1

  7
GREEKS
100
AcDbText
  0
LINE
  5
1A80
330
1E
100
AcDbEntity
  8
STEMPEL
100
AcDbLine
 10
269.9193541030943
 20
504.2341779994133
 30
0.0
 11
160.5997882656478
 21
504.2341779994138
 31
0.0
  0
LINE
  5
1A83
330
1E
100
AcDbEntity
  8
STEMPEL
100
AcDbLine
 10
164.459571184371
 20
429.011260298339
 30
0.0
 11
164.4595711843708
 21
242.2308850950838
 31
0.0
  0
LINE
  5
1A8A
102
{ACAD_REACTORS
330
2293
102
}
330
1E
100
AcDbEntity
  8
STEMPEL
100
AcDbLine
 10
266.059571184371
 20
429.590634094162
 30
0.0
 11
266.0595711843708
 21
397.5075444979704
 31
0.0
  0
LINE
  5
1AA1
330
1E
100
AcDbEntity
  8
HILF
100
AcDbLine
 10
264.8047963874414
 20
242.2308850950832
 30
0.0
 11
165.7143459813
 21
242.2308850950839
 31
0.0
  0
LINE
  5
1AA2
330
1E
100
AcDbEntity
  8
STEMPEL
100
AcDbLine
 10
164.4595711843708
 20
242.2308850950838
 30
0.0
 11
165.1594804925782
 21
234.2308850950838
 31
0.0
  0
LINE
  5
1AA5
330
1E
100
AcDbEntity
  8
STEMPEL
100
AcDbLine
 10
266.0595711843707
 20
242.2308850950844
 30
0.0
 11
265.3596618761633
 21
234.2308850950831
 31
0.0
  0
DIMENSION
  5
1AB8
330
1E
100
AcDbEntity
  8
BEM
100
AcDbDimension
  2
*D2
 10
127.5990190023693
 20
234.2308850950838
 30
0.0
 11
121.0990190023692
 21
369.2325315472489
 31
0.0
 70
    32
 71
     5
 42
270.00329290433
  3
Standard
100
AcDbAlignedDimension
 13
160.5997882656478
 23
504.2341779994138
 33
0.0
 14
165.1594804925782
 24
234.2308850950838
 34
0.0
 50
90.0
100
AcDbRotatedDimension
1001
ACAD
1000
DSTYLE
1002
{
1070
    40
1040
2.0
1070
    41
1040
3.5
1070
    42
1040
1.0
1070
    43
1040
7.0
1070
    44
1040
1.0
1070
    73
1070
     0
1070
    74
1070
     0
1070
    77
1070
     1
1070
    78
1070
     8
1070
    79
1070
     2
1070
   140
1040
3.5
1070
   141
1040
1.5
1070
   146
1040
0.5142857142857144
1070
   147
1040
1.5
1070
   172
1070
     1
1070
   178
1070
     1
1070
   179
1070
     2
1070
   271
1070
     2
1070
   272
1070
     2
1070
   284
1070
     8
1070
   285
1070
     8
1070
   286
1070
     8
1002
}
  0
LINE
  5
1ACE
102
{ACAD_REACTORS
330
22A3
102
}
330
1E
100
AcDbEntity
  8
STEMPEL
100
AcDbLine
 10
266.0595711843708
 20
322.5542256921962
 30
0.0
 11
266.0595711843708
 21
242.2308850950832
 31
0.0
  0
DIMENSION
  5
1AE8
330
1E
100
AcDbEntity
  8
BEM
100
AcDbDimension
  2
*D3
 10
266.0595711843708
 20
213.1409958420065
 30
0.0
 11
215.2595711843708
 21
219.6409958420065
 31
0.0
 70
    32
  1
%%c<>
 71
     5
 42
101.5999999999999
  3
Standard
100
AcDbAlignedDimension
 13
164.4595711843708
 23
242.2308850950838
 33
0.0
 14
266.0595711843708
 24
242.2308850950832
 34
0.0
100
AcDbRotatedDimension
1001
ACAD
1000
DSTYLE
1002
{
1070
    40
1040
2.0
1070
    41
1040
3.5
1070
    42
1040
1.0
1070
    43
1040
7.0
1070
    44
1040
1.0
1070
    73
1070
     0
1070
    74
1070
     0
1070
    77
1070
     1
1070
    78
1070
     8
1070
    79
1070
     2
1070
   140
1040
3.5
1070
   141
1040
1.5
1070
   146
1040
0.5142857142857144
1070
   147
1040
1.5
1070
   172
1070
     1
1070
   178
1070
     1
1070
   179
1070
     2
1070
   271
1070
     2
1070
   272
1070
     2
1070
   284
1070
     8
1070
   285
1070
     8
1070
   286
1070
     8
1002
}
  0
TEXT
  5
1BF4
330
1E
100
AcDbEntity
  8
TEXT
 62
     1
100
AcDbText
 10
370.2489529119772
 20
63.57571472249742
 30
0.0
 40
7.0
  1

 41
0.8
  7
GREEKS
 72
     1
 11
370.2489529119772
 21
63.57571472249742
 31
0.0
100
AcDbText
  0
TEXT
  5
1BF5
330
1E
100
AcDbEntity
  8
BEM
100
AcDbText
 10
416.5811541437437
 20
12.14804815338303
 30
0.0
 40
4.0
  1
Diese Zeichnung ist urheberrechtlich geschützt und bleibt unser Eigentum. Sie darf weder ganz noch teilweise vervielfältigt und nicht an Dritte weitergegeben werden.
 50
90.0
 41
0.8
  7
GREEKS
100
AcDbText
  0
TEXT
  5
1C10
330
1E
100
AcDbEntity
  8
TEXT
100
AcDbText
 10
192.6882715247924
 20
88.73450771838452
 30
0.0
 40
4.0
  1
DIN EN1124-3
 41
0.8
  7
GREEKS
 72
     1
 11
209.6787477152686
 21
88.73450771838452
 31
0.0
100
AcDbText
  0
TEXT
  5
1DDC
330
1E
100
AcDbEntity
  8
VOLL
100
AcDbText
 10
539.7246252213716
 20
194.5107114195854
 30
0.0
 40
1.8
  1

  7
GREEKS
100
AcDbText
  0
LINE
  5
1DE8
330
1E
100
AcDbEntity
  8
STEMPEL
100
AcDbLine
 10
352.4504792131813
 20
405.3852148578335
 30
0.0
 11
311.4139009471212
 21
446.4217931238939
 31
0.0
  0
ARC
  5
1DEC
330
1E
100
AcDbEntity
  8
STEMPEL
100
AcDbCircle
 10
317.6866674891861
 20
428.4871227921384
 30
0.0
 40
19.0
100
AcDbArc
 50
109.2776135077998
 51
134.9999999999999
  0
LINE
  5
1DED
330
1E
100
AcDbEntity
  8
STEMPEL
100
AcDbLine
 10
304.2516386466417
 20
441.9221516346829
 30
0.0
 11
301.004753684614
 21
438.6752666726552
 31
0.0
  0
LINE
  5
1DEF
102
{ACAD_REACTORS
330
2293
102
}
330
1E
100
AcDbEntity
  8
STEMPEL
100
AcDbLine
 10
283.1343793532637
 20
414.5823526668633
 30
0.0
 11
266.0595711843708
 21
397.5075444979704
 31
0.0
  0
ARC
  5
1DF1
330
1E
100
AcDbEntity
  8
STEMPEL
100
AcDbCircle
 10
318.3288698236844
 20
421.3511505335848
 30
0.0
 40
24.5
100
AcDbArc
 50
134.9999999999999
 51
154.6048616874637
  0
LINE
  5
1DF3
330
1E
100
AcDbEntity
  8
STEMPEL
100
AcDbLine
 10
294.2336144751146
 20
429.0757003384095
 30
0.0
 11
288.3307982542616
 21
423.1728841175567
 31
0.0
  0
ARC
  5
1DF4
330
1E
100
AcDbEntity
  8
STEMPEL
100
AcDbCircle
 10
287.1625466632491
 20
436.1467681502752
 30
0.0
 40
10.0
100
AcDbArc
 50
315.0
 51
334.6048616874638
  0
ARC
  5
1DF8
330
1E
100
AcDbEntity
  8
STEMPEL
100
AcDbCircle
 10
296.462526237907
 20
415.0411561339114
 30
0.0
 40
11.5
100
AcDbArc
 50
134.9999999999999
 51
162.6604498993009
  0
ARC
  5
1DF9
330
1E
100
AcDbEntity
  8
STEMPEL
100
AcDbCircle
 10
276.4168649319917
 20
421.2998670881354
 30
0.0
 40
9.5
100
AcDbArc
 50
315.0
 51
342.6604498993011
  0
ARC
  5
1DFB
330
1E
100
AcDbEntity
  8
STEMPEL
100
AcDbCircle
 10
327.328553177423
 20
370.388178842704
 30
0.0
 40
9.5
100
AcDbArc
 50
107.3395501006988
 51
134.9999999999999
  0
ARC
  5
1DFC
330
1E
100
AcDbEntity
  8
STEMPEL
100
AcDbCircle
 10
321.0698422231989
 20
390.4338401486195
 30
0.0
 40
11.5
100
AcDbArc
 50
287.339550100699
 51
315.0
  0
ARC
  5
1E00
330
1E
100
AcDbEntity
  8
STEMPEL
100
AcDbCircle
 10
342.1754542395625
 20
381.1338605739616
 30
0.0
 40
10.0
100
AcDbArc
 50
115.3951383125361
 51
134.9999999999999
  0
LINE
  5
1E01
330
1E
100
AcDbEntity
  8
STEMPEL
100
AcDbLine
 10
335.104386427697
 20
388.2049283858271
 30
0.0
 11
329.2015702068442
 21
382.3021121649744
 31
0.0
  0
ARC
  5
1E03
330
1E
100
AcDbEntity
  8
STEMPEL
100
AcDbCircle
 10
327.3798366228723
 20
412.3001837343969
 30
0.0
 40
24.5
100
AcDbArc
 50
295.3951383125362
 51
315.0
  0
LINE
  5
1E05
102
{ACAD_REACTORS
330
22A3
102
}
330
1E
100
AcDbEntity
  8
STEMPEL
100
AcDbLine
 10
320.6110387561508
 20
377.1056932639764
 30
0.0
 11
266.0595711843708
 21
322.5542256921962
 31
0.0
  0
LINE
  5
1E07
330
1E
100
AcDbEntity
  8
STEMPEL
100
AcDbLine
 10
347.9508377239703
 20
398.2229525573543
 30
0.0
 11
344.7039527619428
 21
394.9760675953267
 31
0.0
  0
ARC
  5
1E08
330
1E
100
AcDbEntity
  8
STEMPEL
100
AcDbCircle
 10
334.5158088814259
 20
411.6579813998986
 30
0.0
 40
19.0
100
AcDbArc
 50
315.0
 51
340.7223864922001
  0
LINE
  5
1F3C
330
1E
100
AcDbEntity
  8
HILF
100
AcDbLine
 10
335.6948658392689
 20
390.0221660359707
 30
0.0
 11
296.0508521252582
 21
429.6661797499815
 31
0.0
  0
LINE
  5
1F3D
330
1E
100
AcDbEntity
  8
HILF
100
AcDbLine
 10
326.2916296675374
 20
381.3243431325298
 30
0.0
 11
287.3530292218172
 21
420.26294357825
 31
0.0
  0
LINE
  5
1F3E
330
1E
100
AcDbEntity
  8
HILF
100
AcDbLine
 10
321.6854547205281
 20
379.2428634675675
 30
0.0
 11
285.271549556855
 21
415.6567686312407
 31
0.0
  0
DIMENSION
  5
20EC
330
1E
100
AcDbEntity
  8
BEM
100
AcDbDimension
  2
*D6
 10
256.0347619053616
 20
312.529416413187
 30
0.0
 11
241.8926262816306
 21
335.8639401923431
 31
0.0
 70
    32
  1
%%c<>
 71
     5
 42
53.00000000000008
 51
87.00000000000018
  3
Standard
100
AcDbAlignedDimension
 13
266.0595711843708
 23
397.5075444979704
 33
0.0
 14
266.0595711843708
 24
322.5542256921962
 34
0.0
 50
315.0
100
AcDbRotatedDimension
1001
ACAD
1000
DSTYLE
1002
{
1070
    40
1040
2.0
1070
    41
1040
3.5
1070
    42
1040
1.0
1070
    43
1040
7.0
1070
    44
1040
1.0
1070
    73
1070
     0
1070
    74
1070
     0
1070
    77
1070
     1
1070
    78
1070
     8
1070
    79
1070
     2
1070
   140
1040
3.5
1070
   141
1040
1.5
1070
   146
1040
0.5142857142857144
1070
   147
1040
1.5
1070
   172
1070
     1
1070
   178
1070
     1
1070
   179
1070
     2
1070
   271
1070
     2
1070
   272
1070
     2
1070
   284
1070
     8
1070
   285
1070
     8
1070
   286
1070
     8
1002
}
  0
LINE
  5
2102
330
1E
100
AcDbEntity
  8
MITTEL
100
AcDbLine
 10
236.1979958752127
 20
330.1693097859252
 30
0.0
 11
215.259571184371
 21
309.2308850950835
 31
0.0
  0
DIMENSION
  5
2183
330
1E
100
AcDbEntity
  8
BEM
100
AcDbDimension
  2
*D7
 10
365.5409754545607
 20
392.2947186164541
 30
0.0
 11
302.6084719289577
 21
338.5546032462768
 31
0.0
 70
    32
 71
     5
 42
165.0
  3
Standard
100
AcDbAlignedDimension
 13
215.259571184371
 23
309.2308850950835
 33
0.0
 14
352.4504792131813
 24
405.3852148578335
 34
0.0
 50
44.99999999999971
100
AcDbRotatedDimension
1001
ACAD
1000
DSTYLE
1002
{
1070
    40
1040
2.0
1070
    41
1040
3.5
1070
    42
1040
1.0
1070
    43
1040
7.0
1070
    44
1040
1.0
1070
    73
1070
     0
1070
    74
1070
     0
1070
    77
1070
     1
1070
    78
1070
     8
1070
    79
1070
     2
1070
   140
1040
3.5
1070
   141
1040
1.5
1070
   146
1040
0.5142857142857144
1070
   147
1040
1.5
1070
   172
1070
     1
1070
   178
1070
     1
1070
   179
1070
     2
1070
   271
1070
     2
1070
   272
1070
     2
1070
   284
1070
     8
1070
   285
1070
     8
1070
   286
1070
     8
1002
}
  0
DIMENSION
  5
223D
330
1E
100
AcDbEntity
  8
BEM
100
AcDbDimension
  2
*D8
 10
215.2595711843708
 20
229.2308850950836
 30
0.0
 11
299.990138506811
 21
513.7885698724846
 31
0.0
 70
    34
 71
     5
 42
0.785398163397447
  3
Standard
100
AcDb2LineAngularDimension
 13
335.467723986084
 23
429.4390378967965
 33
0.0
 14
242.0749999321389
 24
336.0463138428514
 34
0.0
 15
215.259571184371
 25
509.2341779994135
 35
0.0
 16
322.7153924408357
 26
495.34982708032
 36
0.0
1001
ACAD
1000
DSTYLE
1002
{
1070
    40
1040
2.0
1070
    41
1040
3.5
1070
    42
1040
1.0
1070
    43
1040
7.0
1070
    44
1040
1.0
1070
    73
1070
     0
1070
    74
1070
     0
1070
    77
1070
     1
1070
    78
1070
     8
1070
    79
1070
     2
1070
   140
1040
3.5
1070
   141
1040
1.5
1070
   146
1040
0.5142857142857144
1070
   147
1040
1.5
1070
   172
1070
     1
1070
   178
1070
     1
1070
   179
1070
     2
1070
   271
1070
     2
1070
   272
1070
     2
1070
   284
1070
     8
1070
   285
1070
     8
1070
   286
1070
     8
1002
}
  0
ELLIPSE
  5
224C
330
1E
100
AcDbEntity
  8
STEMPEL
100
AcDbEllipse
 10
266.0595711843707
 20
352.5712819552877
 30
0.0
 11
0.0
 21
-30.01705626309143
 31
0.0
210
0.0
220
0.0
230
1.0
 40
0.2485121483737156
 41
4.712388980384689
 42
6.283185307179586
  0
ARC
  5
225F
330
1E
100
AcDbEntity
  8
STEMPEL
100
AcDbCircle
 10
389.504458747119
 20
353.9278953415951
 30
0.0
 40
130.9115200659296
100
AcDbArc
 50
160.5554808770012
 51
180.5937568571233
  0
ARC
  5
2264
330
1E
100
AcDbEntity
  8
SCHRAFF
100
AcDbCircle
 10
266.0595711843708
 20
397.5075444979704
 30
0.0
 40
5.0
100
AcDbArc
 50
214.5559941697614
 51
288.3058225697529
  0
ARC
  5
2265
330
1E
100
AcDbEntity
  8
SCHRAFF
100
AcDbCircle
 10
264.4854434389197
 20
392.7617967338134
 30
0.0
 40
5.0
100
AcDbArc
 50
216.7444670632204
 51
290.4942954632119
  0
ARC
  5
2266
330
1E
100
AcDbEntity
  8
SCHRAFF
100
AcDbCircle
 10
263.0936886132909
 20
387.9593995714227
 30
0.0
 40
5.0
100
AcDbArc
 50
218.9329399566789
 51
292.6827683566705
  0
ARC
  5
2267
330
1E
100
AcDbEntity
  8
SCHRAFF
100
AcDbCircle
 10
261.8863369457693
 20
383.1073585626376
 30
0.0
 40
5.0
100
AcDbArc
 50
221.1214128501381
 51
294.8712412501292
  0
ARC
  5
2268
330
1E
100
AcDbEntity
  8
SCHRAFF
100
AcDbCircle
 10
260.8651496744219
 20
378.2127516778267
 30
0.0
 40
5.0
100
AcDbArc
 50
223.3098857435967
 51
297.0597141435881
  0
ARC
  5
2269
330
1E
100
AcDbEntity
  8
SCHRAFF
100
AcDbCircle
 10
260.0316164678715
 20
373.2827189808177
 30
0.0
 40
5.0
100
AcDbArc
 50
225.498358637056
 51
299.2481870370476
  0
ARC
  5
226A
330
1E
100
AcDbEntity
  8
SCHRAFF
100
AcDbCircle
 10
259.3869532522257
 20
368.3244522132473
 30
0.0
 40
5.0
100
AcDbArc
 50
227.6868315305153
 51
301.4366599305067
  0
ARC
  5
226B
330
1E
100
AcDbEntity
  8
SCHRAFF
100
AcDbCircle
 10
258.9321004373305
 20
363.3451843035258
 30
0.0
 40
5.0
100
AcDbArc
 50
229.8753044239733
 51
303.6251328239654
  0
ARC
  5
226C
330
1E
100
AcDbEntity
  8
SCHRAFF
100
AcDbCircle
 10
258.6677215449368
 20
358.3521788157203
 30
0.0
 40
5.0
100
AcDbArc
 50
232.0637773174322
 51
305.8136057174242
  0
ARC
  5
226D
330
1E
100
AcDbEntity
  8
SCHRAFF
100
AcDbCircle
 10
258.5942022407806
 20
353.3527193537468
 30
0.0
 40
5.0
100
AcDbArc
 50
233.8242593213069
 51
307.5732567354183
  0
ARC
  5
226E
330
1E
100
AcDbEntity
  8
SCHRAFF
100
AcDbCircle
 10
258.6739809273504
 20
348.3533558581436
 30
0.0
 40
5.0
100
AcDbArc
 50
236.143181609954
 51
309.8986093301079
  0
ARC
  5
226F
330
1E
100
AcDbEntity
  8
SCHRAFF
100
AcDbCircle
 10
258.9597564549271
 20
343.3615293038813
 30
0.0
 40
5.0
100
AcDbArc
 50
238.8457160866535
 51
312.6046700145153
  0
ARC
  5
2270
330
1E
100
AcDbEntity
  8
SCHRAFF
100
AcDbCircle
 10
259.485063882649
 20
338.3892006636585
 30
0.0
 40
5.0
100
AcDbArc
 50
242.1704806496876
 51
315.95383524875
  0
ARC
  5
2271
330
1E
100
AcDbEntity
  8
SCHRAFF
100
AcDbCircle
 10
260.3078086249625
 20
333.45735607071
 30
0.0
 40
5.0
100
AcDbArc
 50
246.9372694173828
 51
320.7736339610722
  0
ARC
  5
2272
330
1E
100
AcDbEntity
  8
SCHRAFF
100
AcDbCircle
 10
261.5639691246766
 20
328.6177217044631
 30
0.0
 40
5.0
100
AcDbArc
 50
256.1056964268186
 51
330.5418858235825
  0
ARC
  5
2273
102
{ACAD_REACTORS
330
2293
102
}
330
1E
100
AcDbEntity
  8
SCHRAFF
100
AcDbCircle
 10
264.3098316401591
 20
397.0216296826471
 30
0.0
 40
8.978837840260451
100
AcDbArc
 50
39.28792366530798
 51
78.76265315269082
  0
HATCH
  5
2293
330
1E
100
AcDbEntity
  8
SCHRAFF
100
AcDbHatch
 10
0.0
 20
0.0
 30
0.0
210
0.0
220
0.0
230
1.0
  2
_USER
 70
     0
 71
     1
 91
        1
 92
        7
 72
     1
 73
     1
 93
        3
 10
266.0595711843709
 20
405.8283282972878
 42
0.0
 10
266.0595711843708
 20
397.5075444979704
 42
0.0
 10
271.2592159075491
 20
402.7071892211486
 42
0.1739647475328172
 97
        3
330
1A8A
330
1DEF
330
2273
 75
     0
 76
     0
 52
0.0
 41
0.1
 77
     0
 78
     1
 53
0.0
 43
0.0
 44
0.0
 45
0.0
 46
0.1
 79
     0
 47
0.1789807819281579
 98
        1
 10
266.8808072467777
 20
403.0650966023038
  0
ARC
  5
2294
102
{ACAD_REACTORS
330
22A3
102
}
330
1E
100
AcDbEntity
  8
SCHRAFF
100
AcDbCircle
 10
266.0595711843708
 20
322.5542256921962
 30
0.0
 40
3.0
100
AcDbArc
 50
270.0
 51
45.0
  0
HATCH
  5
22A3
330
1E
100
AcDbEntity
  8
SCHRAFF
100
AcDbHatch
 10
0.0
 20
0.0
 30
0.0
210
0.0
220
0.0
230
1.0
  2
_USER
 70
     0
 71
     1
 91
        1
 92
        7
 72
     1
 73
     1
 93
        3
 10
268.1808915279304
 20
324.6755460357559
 42
0.0
 10
266.0595711843708
 20
322.5542256921962
 42
0.0
 10
266.0595711843708
 20
319.5542256921962
 42
0.6681786379192988
 97
        3
330
1E05
330
1ACE
330
2294
 75
     0
 76
     0
 52
0.0
 41
0.1
 77
     0
 78
     1
 53
0.0
 43
0.0
 44
0.0
 45
0.0
 46
0.1
 79
     0
 47
0.06440742176659
 98
        1
 10
268.492042785053
 20
322.9323432823424
  0
LINE
  5
2308
330
1E
100
AcDbEntity
  8
STEMPEL
100
AcDbLine
 10
273.1885057497442
 20
492.0378670817632
 30
0.0
 11
273.1885057497444
 21
473.4641779994137
 31
0.0
  0
ARC
  5
2309
330
1E
100
AcDbEntity
  8
STEMPEL
100
AcDbCircle
 10
281.9885057497443
 20
456.7309774687322
 30
0.0
 40
12.8
100
AcDbArc
 50
153.1119523822725
 51
180.0
  0
ARC
  5
230A
330
1E
100
AcDbEntity
  8
STEMPEL
100
AcDbCircle
 10
274.0885057497443
 20
429.6910513227734
 30
0.0
 40
8.0
100
AcDbArc
 50
149.1404189093777
 51
180.0
  0
ARC
  5
230B
330
1E
100
AcDbEntity
  8
STEMPEL
100
AcDbCircle
 10
254.9885057497443
 20
441.0060855692968
 30
0.0
 40
14.2
100
AcDbArc
 50
329.3570682370604
 51
0.0
  0
LINE
  5
230D
330
1E
100
AcDbEntity
  8
STEMPEL
100
AcDbLine
 10
269.1885057497444
 20
456.7309774687322
 30
0.0
 11
269.1885057497444
 21
441.0060855692968
 31
0.0
  0
ARC
  5
230E
330
1E
100
AcDbEntity
  8
STEMPEL
100
AcDbCircle
 10
248.9885057497443
 20
473.4641779994136
 30
0.0
 40
24.2
100
AcDbArc
 50
333.1119523822725
 51
0.0
  0
ARC
  5
230F
330
1E
100
AcDbEntity
  8
STEMPEL
100
AcDbCircle
 10
248.9885057497443
 20
492.0378670817632
 30
0.0
 40
24.2
100
AcDbArc
 50
0.0
 51
30.26365194209988
  0
ARC
  5
2310
330
1E
100
AcDbEntity
  8
STEMPEL
100
AcDbCircle
 10
148.5885057497443
 20
456.7309774687321
 30
0.0
 40
12.8
100
AcDbArc
 50
0.0
 51
26.88804761772753
  0
ARC
  5
2311
330
1E
100
AcDbEntity
  8
STEMPEL
100
AcDbCircle
 10
181.5885057497443
 20
473.4641779994135
 30
0.0
 40
24.2
100
AcDbArc
 50
180.0
 51
206.8880476177275
  0
LINE
  5
2312
330
1E
100
AcDbEntity
  8
STEMPEL
100
AcDbLine
 10
157.3885057497444
 20
492.0378670817632
 30
0.0
 11
157.3885057497444
 21
473.4641779994135
 31
0.0
  0
ARC
  5
2313
330
1E
100
AcDbEntity
  8
STEMPEL
100
AcDbCircle
 10
156.4885057497444
 20
429.6910513227733
 30
0.0
 40
8.0
100
AcDbArc
 50
355.1254772421714
 51
30.85958109062227
  0
ARC
  5
2314
330
1E
100
AcDbEntity
  8
STEMPEL
100
AcDbCircle
 10
175.5885057497443
 20
441.0060855692967
 30
0.0
 40
14.2
100
AcDbArc
 50
180.0
 51
210.6429317629395
  0
LINE
  5
2316
330
1E
100
AcDbEntity
  8
STEMPEL
100
AcDbLine
 10
161.3885057497444
 20
456.7309774687321
 30
0.0
 11
161.3885057497443
 21
441.0060855692967
 31
0.0
  0
ARC
  5
2317
330
1E
100
AcDbEntity
  8
STEMPEL
100
AcDbCircle
 10
181.5885057497443
 20
492.0378670817632
 30
0.0
 40
24.2
100
AcDbArc
 50
149.7363480579001
 51
180.0
  0
LINE
  5
2319
330
1E
100
AcDbEntity
  8
HILF
100
AcDbLine
 10
265.1381055954859
 20
431.8195101733626
 30
0.0
 11
165.4389059040028
 21
431.8195101733626
 31
0.0
  0
LINE
  5
231A
330
1E
100
AcDbEntity
  8
HILF
100
AcDbLine
 10
267.4352535792591
 20
437.2539570442501
 30
0.0
 11
163.1417579202295
 21
437.2539570442501
 31
0.0
  0
LINE
  5
231B
330
1E
100
AcDbEntity
  8
HILF
100
AcDbLine
 10
268.3084551729451
 20
459.7069170205739
 30
0.0
 11
162.2685563265435
 21
459.706917020574
 31
0.0
  0
TEXT
  5
233C
330
1E
100
AcDbEntity
  8
TEXT
100
AcDbText
 10
170.7037590129979
 20
63.10765040825732
 30
0.0
 40
4.0
  1
14.04.
 41
0.8
  7
GREEKS
 72
     1
 11
177.4085209177598
 21
63.10765040825732
 31
0.0
100
AcDbText
  0
ENDSEC
  0
SECTION
  2
OBJECTS
  0
DICTIONARY
  5
C
330
0
100
AcDbDictionary
281
     1
  3
ACAD_COLOR
350
1790
  3
ACAD_GROUP
350
D
  3
ACAD_LAYOUT
350
19
  3
ACAD_MATERIAL
350
178F
  3
ACAD_MLINESTYLE
350
16
  3
ACAD_PLOTSETTINGS
350
18
  3
ACAD_PLOTSTYLENAME
350
E
  3
AcDbVariableDictionary
350
246
  0
DICTIONARY
  5
1790
102
{ACAD_REACTORS
330
C
102
}
330
C
100
AcDbDictionary
281
     1
  0
DICTIONARY
  5
D
102
{ACAD_REACTORS
330
C
102
}
330
C
100
AcDbDictionary
281
     1
  0
DICTIONARY
  5
19
102
{ACAD_REACTORS
330
C
102
}
330
C
100
AcDbDictionary
281
     1
  3
Layout1
350
1D
  3
Model
350
21
  0
DICTIONARY
  5
178F
102
{ACAD_REACTORS
330
C
102
}
330
C
100
AcDbDictionary
281
     1
  0
DICTIONARY
  5
16
102
{ACAD_REACTORS
330
C
102
}
330
C
100
AcDbDictionary
281
     1
  3
Standard
350
17
  0
DICTIONARY
  5
18
102
{ACAD_REACTORS
330
C
102
}
330
C
100
AcDbDictionary
281
     1
  0
ACDBDICTIONARYWDFLT
  5
E
102
{ACAD_REACTORS
330
C
102
}
330
C
100
AcDbDictionary
281
     1
  3
Normal
350
F
100
AcDbDictionaryWithDefault
340
F
  0
DICTIONARY
  5
246
102
{ACAD_REACTORS
330
C
102
}
330
C
100
AcDbDictionary
281
     1
  3
DIMASSOC
350
1C0C
  3
PROJECTNAME
350
1C0D
  3
SORTENTS
350
247
  0
LAYOUT
  5
1D
102
{ACAD_REACTORS
330
19
102
}
330
19
100
AcDbPlotSettings
  1

  2
Tektronix Phaser 740
  4

  6

 40
0.0
 41
0.0
 42
0.0
 43
0.0
 44
0.0
 45
0.0
 46
0.0
 47
0.0
 48
0.0
 49
0.0
140
0.0
141
0.0
142
1.0
143
1.0
 70
   688
 72
     0
 73
     0
 74
     5
  7
monochrome.ctb
 75
    16
147
1.0
 76
     0
 77
     2
 78
   300
148
0.0
149
0.0
100
AcDbLayout
  1
Layout1
 70
     0
 71
     1
 10
0.0
 20
0.0
 11
12.0
 21
9.0
 12
0.0
 22
0.0
 32
0.0
 14
1.000000000000000E+20
 24
1.000000000000000E+20
 34
1.000000000000000E+20
 15
-1.000000000000000E+20
 25
-1.000000000000000E+20
 35
-1.000000000000000E+20
146
0.0
 13
0.0
 23
0.0
 33
0.0
 16
1.0
 26
0.0
 36
0.0
 17
0.0
 27
1.0
 37
0.0
 76
     0
330
1A
  0
LAYOUT
  5
21
102
{ACAD_REACTORS
330
19
102
}
330
19
100
AcDbPlotSettings
  1

  2
Tektronix Phaser 740
  4
A4
  6

 40
5.873749732971191
 41
6.085414409637451
 42
5.577407836914062
 43
5.662078857421875
 44
209.9733276367187
 45
296.9683227539062
 46
0.0
 47
0.0
 48
0.0
 49
0.0
140
0.0
141
0.0
142
1.0
143
1.0
 70
 11952
 72
     0
 73
     1
 74
     0
  7
monochrome.ctb
 75
     0
147
1.0
 76
     0
 77
     2
 78
   300
148
1150.120678237584
149
45.30495740799864
100
AcDbLayout
  1
Model
 70
     1
 71
     0
 10
0.0
 20
0.0
 11
12.0
 21
9.0
 12
0.0
 22
0.0
 32
0.0
 14
0.0
 24
0.0
 34
0.0
 15
0.0
 25
0.0
 35
0.0
146
0.0
 13
0.0
 23
0.0
 33
0.0
 16
1.0
 26
0.0
 36
0.0
 17
0.0
 27
1.0
 37
0.0
 76
     0
330
1E
  0
MLINESTYLE
  5
17
102
{ACAD_REACTORS
330
16
102
}
330
16
100
AcDbMlineStyle
  2
STANDARD
 70
     0
  3

 62
   256
 51
90.0
 52
90.0
 71
     2
 49
0.5
 62
   256
  6
BYLAYER
 49
-0.5
 62
   256
  6
BYLAYER
  0
ACDBPLACEHOLDER
  5
F
102
{ACAD_REACTORS
330
E
102
}
330
E
  0
DICTIONARYVAR
  5
1C0C
102
{ACAD_REACTORS
330
246
102
}
330
246
100
DictionaryVariables
280
     0
  1
1
  0
DICTIONARYVAR
  5
1C0D
102
{ACAD_REACTORS
330
246
102
}
330
246
100
DictionaryVariables
280
     0
  1

  0
DICTIONARYVAR
  5
247
102
{ACAD_REACTORS
330
246
102
}
330
246
100
DictionaryVariables
280
     0
  1
96
  0
ENDSEC
  0
EOF
