  0
SECTION
  2
HEADER
  9
$ACADVER
  1
AC1018
  9
$ACADMAINTVER
 70
     2
  9
$DWGCODEPAGE
  3
ANSI_1252
  9
$INSBASE
 10
0.0
 20
0.0
 30
0.0
  9
$EXTMIN
 10
-0.0100254561212978
 20
-0.0141255098021702
 30
-0.0000000000000022
  9
$EXTMAX
 10
217.5471504129601
 20
310.4377706307753
 30
0.0000000000000131
  9
$LIMMIN
 10
0.0
 20
0.0
  9
$LIMMAX
 10
210.0
 20
297.0
  9
$ORTHOMODE
 70
     1
  9
$REGENMODE
 70
     1
  9
$FILLMODE
 70
     1
  9
$QTEXTMODE
 70
     0
  9
$MIRRTEXT
 70
     1
  9
$LTSCALE
 40
20.0
  9
$ATTMODE
 70
     1
  9
$TEXTSIZE
 40
3.5
  9
$TRACEWID
 40
0.5
  9
$TEXTSTYLE
  7
STANDARD
  9
$CLAYER
  8
SCHRAFF
  9
$CELTYPE
  6
ByLayer
  9
$CECOLOR
 62
   256
  9
$CELTSCALE
 40
1.0
  9
$DISPSILH
 70
     0
  9
$DIMSCALE
 40
1.0
  9
$DIMASZ
 40
3.5
  9
$DIMEXO
 40
1.0
  9
$DIMDLI
 40
7.0
  9
$DIMRND
 40
0.0
  9
$DIMDLE
 40
0.0
  9
$DIMEXE
 40
1.0
  9
$DIMTP
 40
0.0
  9
$DIMTM
 40
0.0
  9
$DIMTXT
 40
3.5
  9
$DIMCEN
 40
1.5
  9
$DIMTSZ
 40
0.0
  9
$DIMTOL
 70
     0
  9
$DIMLIM
 70
     0
  9
$DIMTIH
 70
     0
  9
$DIMTOH
 70
     0
  9
$DIMSE1
 70
     0
  9
$DIMSE2
 70
     0
  9
$DIMTAD
 70
     1
  9
$DIMZIN
 70
     8
  9
$DIMBLK
  1

  9
$DIMASO
 70
     1
  9
$DIMSHO
 70
     0
  9
$DIMPOST
  1

  9
$DIMAPOST
  1

  9
$DIMALT
 70
     0
  9
$DIMALTD
 70
     2
  9
$DIMALTF
 40
25.4
  9
$DIMLFAC
 40
1.0
  9
$DIMTOFL
 70
     1
  9
$DIMTVP
 40
0.0
  9
$DIMTIX
 70
     0
  9
$DIMSOXD
 70
     0
  9
$DIMSAH
 70
     0
  9
$DIMBLK1
  1

  9
$DIMBLK2
  1

  9
$DIMSTYLE
  2
Standard
  9
$DIMCLRD
 70
     0
  9
$DIMCLRE
 70
     0
  9
$DIMCLRT
 70
     1
  9
$DIMTFAC
 40
0.5142857142857144
  9
$DIMGAP
 40
1.5
  9
$DIMJUST
 70
     0
  9
$DIMSD1
 70
     0
  9
$DIMSD2
 70
     0
  9
$DIMTOLJ
 70
     1
  9
$DIMTZIN
 70
     8
  9
$DIMALTZ
 70
     8
  9
$DIMALTTZ
 70
     8
  9
$DIMUPT
 70
     0
  9
$DIMDEC
 70
     2
  9
$DIMTDEC
 70
     2
  9
$DIMALTU
 70
     2
  9
$DIMALTTD
 70
     2
  9
$DIMTXSTY
  7
STANDARD
  9
$DIMAUNIT
 70
     0
  9
$DIMADEC
 70
     2
  9
$DIMALTRND
 40
0.0
  9
$DIMAZIN
 70
     2
  9
$DIMDSEP
 70
    46
  9
$DIMATFIT
 70
     3
  9
$DIMFRAC
 70
     0
  9
$DIMLDRBLK
  1

  9
$DIMLUNIT
 70
     2
  9
$DIMLWD
 70
    -2
  9
$DIMLWE
 70
    -2
  9
$DIMTMOVE
 70
     0
  9
$LUNITS
 70
     2
  9
$LUPREC
 70
     2
  9
$SKETCHINC
 40
1.0
  9
$FILLETRAD
 40
0.0
  9
$AUNITS
 70
     1
  9
$AUPREC
 70
     3
  9
$MENU
  1
ACAD
  9
$ELEVATION
 40
0.0
  9
$PELEVATION
 40
0.0
  9
$THICKNESS
 40
0.0
  9
$LIMCHECK
 70
     0
  9
$CHAMFERA
 40
0.0
  9
$CHAMFERB
 40
0.0
  9
$CHAMFERC
 40
0.0
  9
$CHAMFERD
 40
0.0
  9
$SKPOLY
 70
     0
  9
$TDCREATE
 40
2452040.637099653
  9
$TDUCREATE
 40
2452040.553766320
  9
$TDUPDATE
 40
2455666.419556030
  9
$TDUUPDATE
 40
2455666.336222697
  9
$TDINDWG
 40
0.3930248495
  9
$TDUSRTIMER
 40
0.3930248495
  9
$USRTIMER
 70
     1
  9
$ANGBASE
 50
0.0
  9
$ANGDIR
 70
     0
  9
$PDMODE
 70
     0
  9
$PDSIZE
 40
0.0
  9
$PLINEWID
 40
0.0
  9
$SPLFRAME
 70
     0
  9
$SPLINETYPE
 70
     6
  9
$SPLINESEGS
 70
     8
  9
$HANDSEED
  5
18EE
  9
$SURFTAB1
 70
     6
  9
$SURFTAB2
 70
     6
  9
$SURFTYPE
 70
     6
  9
$SURFU
 70
     6
  9
$SURFV
 70
     6
  9
$UCSBASE
  2

  9
$UCSNAME
  2

  9
$UCSORG
 10
0.0
 20
0.0
 30
0.0
  9
$UCSXDIR
 10
1.0
 20
0.0
 30
0.0
  9
$UCSYDIR
 10
0.0
 20
1.0
 30
0.0
  9
$UCSORTHOREF
  2

  9
$UCSORTHOVIEW
 70
     0
  9
$UCSORGTOP
 10
0.0
 20
0.0
 30
0.0
  9
$UCSORGBOTTOM
 10
0.0
 20
0.0
 30
0.0
  9
$UCSORGLEFT
 10
0.0
 20
0.0
 30
0.0
  9
$UCSORGRIGHT
 10
0.0
 20
0.0
 30
0.0
  9
$UCSORGFRONT
 10
0.0
 20
0.0
 30
0.0
  9
$UCSORGBACK
 10
0.0
 20
0.0
 30
0.0
  9
$PUCSBASE
  2

  9
$PUCSNAME
  2

  9
$PUCSORG
 10
0.0
 20
0.0
 30
0.0
  9
$PUCSXDIR
 10
1.0
 20
0.0
 30
0.0
  9
$PUCSYDIR
 10
0.0
 20
1.0
 30
0.0
  9
$PUCSORTHOREF
  2

  9
$PUCSORTHOVIEW
 70
     0
  9
$PUCSORGTOP
 10
0.0
 20
0.0
 30
0.0
  9
$PUCSORGBOTTOM
 10
0.0
 20
0.0
 30
0.0
  9
$PUCSORGLEFT
 10
0.0
 20
0.0
 30
0.0
  9
$PUCSORGRIGHT
 10
0.0
 20
0.0
 30
0.0
  9
$PUCSORGFRONT
 10
0.0
 20
0.0
 30
0.0
  9
$PUCSORGBACK
 10
0.0
 20
0.0
 30
0.0
  9
$USERI1
 70
     0
  9
$USERI2
 70
     0
  9
$USERI3
 70
     0
  9
$USERI4
 70
     0
  9
$USERI5
 70
     0
  9
$USERR1
 40
0.0
  9
$USERR2
 40
0.0
  9
$USERR3
 40
0.0
  9
$USERR4
 40
0.0
  9
$USERR5
 40
0.0
  9
$WORLDVIEW
 70
     1
  9
$SHADEDGE
 70
     3
  9
$SHADEDIF
 70
    70
  9
$TILEMODE
 70
     1
  9
$MAXACTVP
 70
    16
  9
$PINSBASE
 10
0.0
 20
0.0
 30
0.0
  9
$PLIMCHECK
 70
     0
  9
$PEXTMIN
 10
1.000000000000000E+20
 20
1.000000000000000E+20
 30
1.000000000000000E+20
  9
$PEXTMAX
 10
-1.000000000000000E+20
 20
-1.000000000000000E+20
 30
-1.000000000000000E+20
  9
$PLIMMIN
 10
0.0
 20
0.0
  9
$PLIMMAX
 10
12.0
 20
9.0
  9
$UNITMODE
 70
     0
  9
$VISRETAIN
 70
     0
  9
$PLINEGEN
 70
     0
  9
$PSLTSCALE
 70
     0
  9
$TREEDEPTH
 70
  3020
  9
$CMLSTYLE
  2
Standard
  9
$CMLJUST
 70
     0
  9
$CMLSCALE
 40
1.0
  9
$PROXYGRAPHICS
 70
     1
  9
$MEASUREMENT
 70
     0
  9
$CELWEIGHT
370
    -1
  9
$ENDCAPS
280
     0
  9
$JOINSTYLE
280
     0
  9
$LWDISPLAY
290
     0
  9
$INSUNITS
 70
     0
  9
$HYPERLINKBASE
  1

  9
$STYLESHEET
  1
monochrome 1.ctb
  9
$XEDIT
290
     1
  9
$CEPSNTYPE
380
     0
  9
$PSTYLEMODE
290
     1
  9
$FINGERPRINTGUID
  2
{7AADB5C8-6110-11D8-B72B-000102183313}
  9
$VERSIONGUID
  2
{4449CB07-20E2-4134-9DD8-4928829219D0}
  9
$EXTNAMES
290
     1
  9
$PSVPSCALE
 40
0.0
  9
$OLESTARTUP
290
     0
  9
$SORTENTS
280
    96
  9
$INDEXCTL
280
     0
  9
$HIDETEXT
280
     0
  9
$XCLIPFRAME
290
     0
  9
$HALOGAP
280
     0
  9
$OBSCOLOR
 70
   257
  9
$OBSLTYPE
280
     0
  9
$INTERSECTIONDISPLAY
280
     0
  9
$INTERSECTIONCOLOR
 70
   257
  9
$DIMASSOC
280
     1
  9
$PROJECTNAME
  1

  0
ENDSEC
  0
SECTION
  2
CLASSES
  0
CLASS
  1
ACDBDICTIONARYWDFLT
  2
AcDbDictionaryWithDefault
  3
ObjectDBX Classes
 90
        0
 91
        1
280
     0
281
     0
  0
CLASS
  1
DICTIONARYVAR
  2
AcDbDictionaryVar
  3
ObjectDBX Classes
 90
        0
 91
        3
280
     0
281
     0
  0
ENDSEC
  0
SECTION
  2
TABLES
  0
TABLE
  2
VPORT
  5
8
330
0
100
AcDbSymbolTable
 70
     3
  0
VPORT
  5
18ED
330
8
100
AcDbSymbolTableRecord
100
AcDbViewportTableRecord
  2
*Active
 70
     0
 10
0.0
 20
0.0
 11
1.0
 21
1.0
 12
105.0
 22
148.5
 13
0.0
 23
0.0
 14
1.0
 24
1.0
 15
10.0
 25
10.0
 16
0.0
 26
0.0
 36
1.0
 17
0.0
 27
0.0
 37
0.0
 40
297.0
 41
1.334231805929919
 42
50.0
 43
0.0
 44
0.0
 50
0.0
 51
0.0
 71
     0
 72
  1500
 73
     1
 74
     0
 75
     0
 76
     0
 77
     0
 78
     0
281
     0
 65
     1
110
0.0
120
0.0
130
0.0
111
1.0
121
0.0
131
0.0
112
0.0
122
1.0
132
0.0
 79
     0
146
0.0
  0
ENDTAB
  0
TABLE
  2
LTYPE
  5
5
330
0
100
AcDbSymbolTable
 70
     2
  0
LTYPE
  5
13
330
5
100
AcDbSymbolTableRecord
100
AcDbLinetypeTableRecord
  2
ByBlock
 70
     0
  3

 72
    65
 73
     0
 40
0.0
  0
LTYPE
  5
14
330
5
100
AcDbSymbolTableRecord
100
AcDbLinetypeTableRecord
  2
ByLayer
 70
     0
  3

 72
    65
 73
     0
 40
0.0
  0
LTYPE
  5
15
330
5
100
AcDbSymbolTableRecord
100
AcDbLinetypeTableRecord
  2
Continuous
 70
     0
  3
Solid line
 72
    65
 73
     0
 40
0.0
  0
LTYPE
  5
35
330
5
100
AcDbSymbolTableRecord
100
AcDbLinetypeTableRecord
  2
STRICHPUNKT
 70
     0
  3
__ . __ . __ . __ . __ . __ . __ . __ . __ . __
 72
    65
 73
     4
 40
1.0
 49
0.5
 74
     0
 49
-0.25
 74
     0
 49
0.0
 74
     0
 49
-0.25
 74
     0
  0
ENDTAB
  0
TABLE
  2
LAYER
  5
2
330
0
100
AcDbSymbolTable
 70
     9
  0
LAYER
  5
10
330
2
100
AcDbSymbolTableRecord
100
AcDbLayerTableRecord
  2
0
 70
     0
 62
     7
  6
Continuous
370
    -3
390
F
  0
LAYER
  5
38
330
2
100
AcDbSymbolTableRecord
100
AcDbLayerTableRecord
  2
VOLL
 70
     0
 62
     1
  6
Continuous
370
    -3
390
F
  0
LAYER
  5
39
330
2
100
AcDbSymbolTableRecord
100
AcDbLayerTableRecord
  2
HILF
 70
     0
 62
     2
  6
Continuous
370
    -3
390
F
  0
LAYER
  5
3A
330
2
100
AcDbSymbolTableRecord
100
AcDbLayerTableRecord
  2
MITTEL
 70
     0
 62
     2
  6
STRICHPUNKT
370
    -3
390
F
  0
LAYER
  5
3B
330
2
100
AcDbSymbolTableRecord
100
AcDbLayerTableRecord
  2
BEM
 70
     0
 62
     7
  6
Continuous
370
    -3
390
F
  0
LAYER
  5
3C
330
2
100
AcDbSymbolTableRecord
100
AcDbLayerTableRecord
  2
STEMPEL
 70
     0
 62
     3
  6
Continuous
370
    -3
390
F
  0
LAYER
  5
3D
330
2
100
AcDbSymbolTableRecord
100
AcDbLayerTableRecord
  2
TEXT
 70
     0
 62
     7
  6
Continuous
370
    -3
390
F
  0
LAYER
  5
3E
330
2
100
AcDbSymbolTableRecord
100
AcDbLayerTableRecord
  2
DEFPOINTS
 70
     0
 62
     7
  6
Continuous
290
     0
370
    -3
390
F
  0
LAYER
  5
3F
330
2
100
AcDbSymbolTableRecord
100
AcDbLayerTableRecord
  2
SCHRAFF
 70
     0
 62
     7
  6
Continuous
370
    -3
390
F
  0
ENDTAB
  0
TABLE
  2
STYLE
  5
3
330
0
100
AcDbSymbolTable
 70
     2
  0
STYLE
  5
11
330
3
100
AcDbSymbolTableRecord
100
AcDbTextStyleTableRecord
  2
STANDARD
 70
     0
 40
0.0
 41
0.8
 50
0.0
 71
     0
 42
3.5
  3
simplex.shx
  4

  0
STYLE
  5
34
330
3
100
AcDbSymbolTableRecord
100
AcDbTextStyleTableRecord
  2
GREEKS
 70
     0
 40
0.0
 41
0.8
 50
0.0
 71
     0
 42
2.5
  3
SIMPLEX.shx
  4

  0
ENDTAB
  0
TABLE
  2
VIEW
  5
6
330
0
100
AcDbSymbolTable
 70
     0
  0
ENDTAB
  0
TABLE
  2
UCS
  5
7
330
0
100
AcDbSymbolTable
 70
     0
  0
ENDTAB
  0
TABLE
  2
APPID
  5
9
330
0
100
AcDbSymbolTable
 70
     1
  0
APPID
  5
12
330
9
100
AcDbSymbolTableRecord
100
AcDbRegAppTableRecord
  2
ACAD
 70
     0
  0
ENDTAB
  0
TABLE
  2
DIMSTYLE
  5
A
330
0
100
AcDbSymbolTable
 70
     1
100
AcDbDimStyleTable
 71
     1
340
1CB
  0
DIMSTYLE
105
1CB
102
{ACAD_REACTORS
330
D41
330
1DB
330
E1B
330
1424
330
140A
330
17FE
102
}
330
A
100
AcDbSymbolTableRecord
100
AcDbDimStyleTableRecord
  2
Standard
 70
     0
340
11
  0
ENDTAB
  0
TABLE
  2
BLOCK_RECORD
  5
1
330
0
100
AcDbSymbolTable
 70
     9
  0
BLOCK_RECORD
  5
1E
330
1
100
AcDbSymbolTableRecord
100
AcDbBlockTableRecord
  2
*Model_Space
340
21
  0
BLOCK_RECORD
  5
1A
330
1
100
AcDbSymbolTableRecord
100
AcDbBlockTableRecord
  2
*Paper_Space
340
1D
  0
BLOCK_RECORD
  5
22
330
1
100
AcDbSymbolTableRecord
100
AcDbBlockTableRecord
  2
LOGO
340
0
102
{BLKREFS
331
135
102
}
  0
BLOCK_RECORD
  5
1DC
330
1
100
AcDbSymbolTableRecord
100
AcDbBlockTableRecord
  2
*D1
340
0
  0
BLOCK_RECORD
  5
D42
330
1
100
AcDbSymbolTableRecord
100
AcDbBlockTableRecord
  2
*D3
340
0
  0
BLOCK_RECORD
  5
E1C
330
1
100
AcDbSymbolTableRecord
100
AcDbBlockTableRecord
  2
*D4
340
0
  0
BLOCK_RECORD
  5
140B
330
1
100
AcDbSymbolTableRecord
100
AcDbBlockTableRecord
  2
*D5
340
0
  0
BLOCK_RECORD
  5
1425
330
1
100
AcDbSymbolTableRecord
100
AcDbBlockTableRecord
  2
*D6
340
0
  0
BLOCK_RECORD
  5
17FF
330
1
100
AcDbSymbolTableRecord
100
AcDbBlockTableRecord
  2
*D8
340
0
  0
ENDTAB
  0
ENDSEC
  0
SECTION
  2
BLOCKS
  0
BLOCK
  5
43
330
1E
100
AcDbEntity
  8
0
100
AcDbBlockBegin
  2
*Model_Space
 70
     0
 10
0.0
 20
0.0
 30
0.0
  3
*Model_Space
  1

  0
ENDBLK
  5
44
330
1E
100
AcDbEntity
  8
0
100
AcDbBlockEnd
  0
BLOCK
  5
41
330
1A
100
AcDbEntity
 67
     1
  8
0
100
AcDbBlockBegin
  2
*Paper_Space
 70
     0
 10
0.0
 20
0.0
 30
0.0
  3
*Paper_Space
  1

  0
ENDBLK
  5
42
330
1A
100
AcDbEntity
 67
     1
  8
0
100
AcDbBlockEnd
  0
BLOCK
  5
45
330
22
100
AcDbEntity
  8
0
100
AcDbBlockBegin
  2
LOGO
 70
     0
 10
0.0
 20
0.0
 30
0.0
  3
LOGO
  1

  0
ARC
  5
46
330
22
100
AcDbEntity
  8
0
100
AcDbCircle
 10
11.59973089678112
 20
-9.271599258481501
 30
0.0
 40
4.5
100
AcDbArc
 50
270.0
 51
231.0575587310159
  0
LINE
  5
47
330
22
100
AcDbEntity
  8
0
100
AcDbLine
 10
3.599730896781125
 20
-4.771599258481529
 30
0.0
 11
3.599730896781153
 21
-11.77159925848133
 31
0.0
  0
LINE
  5
48
330
22
100
AcDbEntity
  8
0
100
AcDbLine
 10
2.599730896781125
 20
-4.771599258481529
 30
0.0
 11
2.599730896781153
 21
-11.77159925848133
 31
0.0
  0
CIRCLE
  5
49
330
22
100
AcDbEntity
  8
0
100
AcDbCircle
 10
11.59973089678112
 20
-9.271599258481501
 30
0.0
 40
3.5
  0
ARC
  5
4A
330
22
100
AcDbEntity
  8
0
100
AcDbCircle
 10
31.59973089678115
 20
-9.271599258481472
 30
0.0
 40
4.5
100
AcDbArc
 50
270.0
 51
231.0575587310182
  0
LINE
  5
4B
330
22
100
AcDbEntity
  8
0
100
AcDbLine
 10
17.59973089678112
 20
-4.771599258481472
 30
0.0
 11
17.59973089678115
 21
-13.77159925848147
 31
0.0
  0
ARC
  5
4C
330
22
100
AcDbEntity
  8
0
100
AcDbCircle
 10
22.59973089678116
 20
-7.271599258481472
 30
0.0
 40
2.5
100
AcDbArc
 50
293.1161887722295
 51
90.0
  0
CIRCLE
  5
4D
330
22
100
AcDbEntity
  8
0
100
AcDbCircle
 10
31.59973089678115
 20
-9.271599258481472
 30
0.0
 40
3.5
  0
ARC
  5
4E
330
22
100
AcDbEntity
  8
0
100
AcDbCircle
 10
4.599730896781153
 20
-11.77159925848133
 30
0.0
 40
1.0
100
AcDbArc
 50
180.0
 51
270.0
  0
ARC
  5
4F
330
22
100
AcDbEntity
  8
0
100
AcDbCircle
 10
4.599730896781153
 20
-11.77159925848133
 30
0.0
 40
2.0
100
AcDbArc
 50
179.9999999999992
 51
270.0
  0
LINE
  5
50
330
22
100
AcDbEntity
  8
0
100
AcDbLine
 10
11.59973089678115
 20
-13.77159925848144
 30
0.0
 11
4.599730896781153
 21
-13.77159925848147
 31
0.0
  0
LINE
  5
51
330
22
100
AcDbEntity
  8
0
100
AcDbLine
 10
8.771303772034769
 20
-12.77159925848136
 30
0.0
 11
4.599730896781153
 21
-12.77159925848133
 31
0.0
  0
LINE
  5
52
330
22
100
AcDbEntity
  8
0
100
AcDbLine
 10
31.59973089678115
 20
-13.77159925848147
 30
0.0
 11
23.6715276665056
 21
-13.77159925848144
 31
0.0
  0
LINE
  5
53
330
22
100
AcDbEntity
  8
0
100
AcDbLine
 10
23.56565672307022
 20
-9.51278021337896
 30
0.0
 11
24.4388546544846
 21
-12.77159925848144
 31
0.0
  0
LINE
  5
54
330
22
100
AcDbEntity
  8
0
100
AcDbLine
 10
22.59973089678116
 20
-9.771599258481472
 30
0.0
 11
18.59973089678112
 21
-9.771599258481472
 31
0.0
  0
LINE
  5
55
330
22
100
AcDbEntity
  8
0
100
AcDbLine
 10
18.59973089678115
 20
-13.77159925848144
 30
0.0
 11
17.59973089678115
 21
-13.77159925848144
 31
0.0
  0
LINE
  5
56
330
22
100
AcDbEntity
  8
0
100
AcDbLine
 10
18.59973089678115
 20
-9.771599258481472
 30
0.0
 11
18.59973089678115
 21
-13.77159925848144
 31
0.0
  0
LINE
  5
57
330
22
100
AcDbEntity
  8
0
100
AcDbLine
 10
22.59973089678116
 20
-9.771599258481472
 30
0.0
 11
23.67152766650562
 21
-13.77159925848147
 31
0.0
  0
ARC
  5
58
330
22
100
AcDbEntity
  8
0
100
AcDbCircle
 10
22.59973089678116
 20
-7.271599258481472
 30
0.0
 40
2.5
100
AcDbArc
 50
270.0
 51
270.0000000000007
  0
LINE
  5
59
330
22
100
AcDbEntity
  8
0
100
AcDbLine
 10
28.77130377203494
 20
-12.77159925848147
 30
0.0
 11
24.43885465448463
 21
-12.77159925848144
 31
0.0
  0
LINE
  5
5A
330
22
100
AcDbEntity
  8
0
100
AcDbLine
 10
3.599730896781125
 20
-4.771599258481472
 30
0.0
 11
2.599730896781125
 21
-4.771599258481472
 31
0.0
  0
LINE
  5
5B
330
22
100
AcDbEntity
  8
0
100
AcDbLine
 10
22.59973089678116
 20
-8.771599258481472
 30
0.0
 11
18.59973089678115
 21
-8.771599258481472
 31
0.0
  0
LINE
  5
5C
330
22
100
AcDbEntity
  8
0
100
AcDbLine
 10
22.59973089678116
 20
-5.771599258481472
 30
0.0
 11
18.59973089678115
 21
-5.771599258481472
 31
0.0
  0
LINE
  5
5D
330
22
100
AcDbEntity
  8
0
100
AcDbLine
 10
22.59973089678116
 20
-4.771599258481472
 30
0.0
 11
17.59973089678115
 21
-4.771599258481472
 31
0.0
  0
LINE
  5
5E
330
22
100
AcDbEntity
  8
0
100
AcDbLine
 10
18.59973089678115
 20
-5.771599258481472
 30
0.0
 11
18.59973089678115
 21
-8.771599258481472
 31
0.0
  0
ARC
  5
5F
330
22
100
AcDbEntity
  8
0
100
AcDbCircle
 10
22.59973089678116
 20
-7.271599258481472
 30
0.0
 40
1.5
100
AcDbArc
 50
270.0
 51
90.0
  0
ENDBLK
  5
60
330
22
100
AcDbEntity
  8
0
100
AcDbBlockEnd
  0
BLOCK
  5
1E6
330
1DC
100
AcDbEntity
  8
0
100
AcDbBlockBegin
  2
*D1
 70
     1
 10
0.0
 20
0.0
 30
0.0
  3
*D1
  1

  0
LINE
  5
1885
330
1DC
100
AcDbEntity
  8
BEM
 62
     0
370
    -2
100
AcDbLine
 10
45.09722931425335
 20
73.62669101596114
 30
0.0
 11
28.98690240273933
 21
73.62669101596115
 31
0.0
  0
LINE
  5
1886
330
1DC
100
AcDbEntity
  8
BEM
 62
     0
370
    -2
100
AcDbLine
 10
41.86914810804341
 20
278.6299839202913
 30
0.0
 11
28.98690240273937
 21
278.6299839202913
 31
0.0
  0
LINE
  5
1887
330
1DC
100
AcDbEntity
  8
BEM
 62
     0
370
    -2
100
AcDbLine
 10
29.98690240273933
 20
77.12669101596116
 30
0.0
 11
29.98690240273937
 21
275.1299839202912
 31
0.0
  0
SOLID
  5
1888
330
1DC
100
AcDbEntity
  8
BEM
 62
     0
100
AcDbTrace
 10
29.403569069406
 20
77.12669101596116
 30
0.0
 11
30.57023573607266
 21
77.12669101596116
 31
0.0
 12
29.98690240273933
 22
73.62669101596115
 32
0.0
 13
29.98690240273933
 23
73.62669101596115
 33
0.0
  0
SOLID
  5
1889
330
1DC
100
AcDbEntity
  8
BEM
 62
     0
100
AcDbTrace
 10
29.40356906940604
 20
275.1299839202912
 30
0.0
 11
30.57023573607271
 21
275.1299839202912
 31
0.0
 12
29.98690240273937
 22
278.6299839202913
 32
0.0
 13
29.98690240273937
 23
278.6299839202913
 33
0.0
  0
MTEXT
  5
188A
330
1DC
100
AcDbEntity
  8
BEM
 62
     1
100
AcDbMText
 10
26.73690240273932
 20
176.1283374681262
 30
0.0
 40
3.5
 41
0.0
 71
     5
 72
     1
  1
\A1;205
 11
0.0000000000000001
 21
1.0
 31
0.0
 73
     1
 44
1.0
  0
POINT
  5
188B
330
1DC
100
AcDbEntity
  8
DEFPOINTS
 62
     0
100
AcDbPoint
 10
46.09722931425335
 20
73.62669101596114
 30
0.0
  0
POINT
  5
188C
330
1DC
100
AcDbEntity
  8
DEFPOINTS
 62
     0
100
AcDbPoint
 10
42.86914810804342
 20
278.6299839202913
 30
0.0
  0
POINT
  5
188D
330
1DC
100
AcDbEntity
  8
DEFPOINTS
 62
     0
100
AcDbPoint
 10
29.98690240273937
 20
278.6299839202913
 30
0.0
  0
ENDBLK
  5
1E7
330
1DC
100
AcDbEntity
  8
0
100
AcDbBlockEnd
  0
BLOCK
  5
D4C
330
D42
100
AcDbEntity
  8
0
100
AcDbBlockBegin
  2
*D3
 70
     1
 10
0.0
 20
0.0
 30
0.0
  3
*D3
  1

  0
LINE
  5
1857
330
D42
100
AcDbEntity
  8
BEM
 62
     0
370
    -2
100
AcDbLine
 10
45.65978599662378
 20
77.62669101596134
 30
0.0
 11
45.65978599662378
 21
61.42041859786082
 31
0.0
  0
LINE
  5
1858
330
D42
100
AcDbEntity
  8
BEM
 62
     0
370
    -2
100
AcDbLine
 10
118.6597859966238
 20
77.62669101596168
 30
0.0
 11
118.6597859966238
 21
61.42041859786082
 31
0.0
  0
LINE
  5
1859
330
D42
100
AcDbEntity
  8
BEM
 62
     0
370
    -2
100
AcDbLine
 10
49.15978599662378
 20
62.42041859786081
 30
0.0
 11
115.1597859966237
 21
62.42041859786081
 31
0.0
  0
SOLID
  5
185A
330
D42
100
AcDbEntity
  8
BEM
 62
     0
100
AcDbTrace
 10
49.15978599662378
 20
63.00375193119415
 30
0.0
 11
49.15978599662378
 21
61.83708526452748
 31
0.0
 12
45.65978599662378
 22
62.42041859786081
 32
0.0
 13
45.65978599662378
 23
62.42041859786081
 33
0.0
  0
SOLID
  5
185B
330
D42
100
AcDbEntity
  8
BEM
 62
     0
100
AcDbTrace
 10
115.1597859966237
 20
63.00375193119415
 30
0.0
 11
115.1597859966237
 21
61.83708526452748
 31
0.0
 12
118.6597859966238
 22
62.42041859786081
 32
0.0
 13
118.6597859966238
 23
62.42041859786081
 33
0.0
  0
MTEXT
  5
185C
330
D42
100
AcDbEntity
  8
BEM
 62
     1
100
AcDbMText
 10
82.15978599662378
 20
65.67041859786082
 30
0.0
 40
3.5
 41
0.0
 71
     5
 72
     1
  1
\A1;%%c73
 73
     1
 44
1.0
  0
POINT
  5
185D
330
D42
100
AcDbEntity
  8
DEFPOINTS
 62
     0
100
AcDbPoint
 10
45.65978599662378
 20
78.62669101596134
 30
0.0
  0
POINT
  5
185E
330
D42
100
AcDbEntity
  8
DEFPOINTS
 62
     0
100
AcDbPoint
 10
118.6597859966238
 20
78.62669101596168
 30
0.0
  0
POINT
  5
185F
330
D42
100
AcDbEntity
  8
DEFPOINTS
 62
     0
100
AcDbPoint
 10
118.6597859966238
 20
62.42041859786081
 30
0.0
  0
ENDBLK
  5
D4D
330
D42
100
AcDbEntity
  8
0
100
AcDbBlockEnd
  0
BLOCK
  5
E26
330
E1C
100
AcDbEntity
  8
0
100
AcDbBlockBegin
  2
*D4
 70
     1
 10
0.0
 20
0.0
 30
0.0
  3
*D4
  1

  0
LINE
  5
183C
330
E1C
100
AcDbEntity
  8
BEM
 62
     0
370
    -2
100
AcDbLine
 10
45.09722931425335
 20
73.62669101596111
 30
0.0
 11
37.58114682080508
 21
73.62669101596111
 31
0.0
  0
LINE
  5
183D
330
E1C
100
AcDbEntity
  8
BEM
 62
     0
370
    -2
100
AcDbLine
 10
81.15978599662389
 20
173.6266910159612
 30
0.0
 11
37.5811468208051
 21
173.6266910159612
 31
0.0
  0
LINE
  5
183E
330
E1C
100
AcDbEntity
  8
BEM
 62
     0
370
    -2
100
AcDbLine
 10
38.58114682080508
 20
77.12669101596111
 30
0.0
 11
38.5811468208051
 21
170.1266910159612
 31
0.0
  0
SOLID
  5
183F
330
E1C
100
AcDbEntity
  8
BEM
 62
     0
100
AcDbTrace
 10
37.99781348747174
 20
77.12669101596111
 30
0.0
 11
39.16448015413841
 21
77.12669101596111
 31
0.0
 12
38.58114682080508
 22
73.62669101596111
 32
0.0
 13
38.58114682080508
 23
73.62669101596111
 33
0.0
  0
SOLID
  5
1840
330
E1C
100
AcDbEntity
  8
BEM
 62
     0
100
AcDbTrace
 10
37.99781348747176
 20
170.1266910159612
 30
0.0
 11
39.16448015413843
 21
170.1266910159612
 31
0.0
 12
38.5811468208051
 22
173.6266910159612
 32
0.0
 13
38.5811468208051
 23
173.6266910159612
 33
0.0
  0
MTEXT
  5
1841
330
E1C
100
AcDbEntity
  8
BEM
 62
     1
100
AcDbMText
 10
35.33114682080507
 20
123.6266910159611
 30
0.0
 40
3.5
 41
0.0
 71
     5
 72
     1
  1
\A1;100
 11
0.0000000000000001
 21
1.0
 31
0.0
 73
     1
 44
1.0
  0
POINT
  5
1842
330
E1C
100
AcDbEntity
  8
DEFPOINTS
 62
     0
100
AcDbPoint
 10
46.09722931425335
 20
73.62669101596111
 30
0.0
  0
POINT
  5
1843
330
E1C
100
AcDbEntity
  8
DEFPOINTS
 62
     0
100
AcDbPoint
 10
82.1597859966239
 20
173.6266910159612
 30
0.0
  0
POINT
  5
1844
330
E1C
100
AcDbEntity
  8
DEFPOINTS
 62
     0
100
AcDbPoint
 10
38.5811468208051
 20
173.6266910159612
 30
0.0
  0
ENDBLK
  5
E27
330
E1C
100
AcDbEntity
  8
0
100
AcDbBlockEnd
  0
BLOCK
  5
1415
330
140B
100
AcDbEntity
  8
0
100
AcDbBlockBegin
  2
*D5
 70
     1
 10
0.0
 20
0.0
 30
0.0
  3
*D5
  1

  0
LINE
  5
18E3
330
140B
100
AcDbEntity
  8
BEM
 62
     0
370
    -2
100
AcDbLine
 10
82.21212195286689
 20
172.6280614812066
 30
0.0
 11
84.4579265768508
 21
129.7755564770708
 31
0.0
  0
LINE
  5
18E4
330
140B
100
AcDbEntity
  8
BEM
 62
     0
370
    -2
100
AcDbLine
 10
182.5950910413994
 20
148.8318455033669
 30
0.0
 11
183.3222505175523
 21
134.9568161451262
 31
0.0
  0
LINE
  5
18E5
330
140B
100
AcDbEntity
  8
BEM
 62
     0
370
    -2
100
AcDbLine
 10
87.90079399224884
 20
130.9573618586758
 30
0.0
 11
179.7747111896683
 21
135.7722698330303
 31
0.0
  0
SOLID
  5
18E6
330
140B
100
AcDbEntity
  8
BEM
 62
     0
100
AcDbTrace
 10
87.87026468444043
 20
131.5398957539493
 30
0.0
 11
87.93132330005724
 21
130.3748279634023
 31
0.0
 12
84.40559062060783
 22
130.7741860118254
 32
0.0
 13
84.40559062060783
 23
130.7741860118254
 33
0.0
  0
SOLID
  5
18E7
330
140B
100
AcDbEntity
  8
BEM
 62
     0
100
AcDbTrace
 10
179.7441818818599
 20
136.3548037283038
 30
0.0
 11
179.8052404974767
 21
135.1897359377568
 31
0.0
 12
183.2699145613094
 22
135.9554456798808
 32
0.0
 13
183.2699145613094
 23
135.9554456798808
 33
0.0
  0
MTEXT
  5
18E8
330
140B
100
AcDbEntity
  8
BEM
 62
     1
100
AcDbMText
 10
133.7300027407295
 20
136.6136290399777
 30
0.0
 40
3.5
 41
0.0
 71
     5
 72
     1
  1
\A1;99
 11
0.9986295347545716
 21
0.0523359562429845
 31
0.0
 73
     1
 44
1.0
  0
POINT
  5
18E9
330
140B
100
AcDbEntity
  8
DEFPOINTS
 62
     0
100
AcDbPoint
 10
82.1597859966239
 20
173.6266910159612
 30
0.0
  0
POINT
  5
18EA
330
140B
100
AcDbEntity
  8
DEFPOINTS
 62
     0
100
AcDbPoint
 10
182.5427550851564
 20
149.8304750381215
 30
0.0
  0
POINT
  5
18EB
330
140B
100
AcDbEntity
  8
DEFPOINTS
 62
     0
100
AcDbPoint
 10
183.2699145613094
 20
135.9554456798808
 30
0.0
  0
ENDBLK
  5
1416
330
140B
100
AcDbEntity
  8
0
100
AcDbBlockEnd
  0
BLOCK
  5
142F
330
1425
100
AcDbEntity
  8
0
100
AcDbBlockBegin
  2
*D6
 70
     1
 10
0.0
 20
0.0
 30
0.0
  3
*D6
  1

  0
LINE
  5
182A
330
1425
100
AcDbEntity
  8
BEM
 62
     0
370
    -2
100
AcDbLine
 10
117.6611564618696
 20
202.0236061724944
 30
0.0
 11
89.88672398491445
 21
200.5680098455308
 31
0.0
  0
LINE
  5
182B
330
1425
100
AcDbEntity
  8
BEM
 62
     0
370
    -2
100
AcDbLine
 10
117.6611564618693
 20
148.9508718346045
 30
0.0
 11
92.66052966578966
 21
147.6406445035382
 31
0.0
  0
LINE
  5
182C
330
1425
100
AcDbEntity
  8
BEM
 62
     0
370
    -2
100
AcDbLine
 10
91.06852936651927
 20
197.1251424301327
 30
0.0
 11
93.47598335369397
 21
151.1881838314222
 31
0.0
  0
SOLID
  5
182D
330
1425
100
AcDbEntity
  8
BEM
 62
     0
100
AcDbTrace
 10
91.65106326179277
 20
197.1556717379411
 30
0.0
 11
90.48599547124577
 21
197.0946131223243
 31
0.0
 12
90.88535351966902
 22
200.6203458017738
 32
0.0
 13
90.88535351966902
 23
200.6203458017738
 33
0.0
  0
SOLID
  5
182E
330
1425
100
AcDbEntity
  8
BEM
 62
     0
100
AcDbTrace
 10
94.05851724896747
 20
151.2187131392306
 30
0.0
 11
92.89344945842048
 21
151.1576545236138
 31
0.0
 12
93.65915920054423
 22
147.6929804597812
 32
0.0
 13
93.65915920054423
 23
147.6929804597812
 33
0.0
  0
MTEXT
  5
182F
330
1425
100
AcDbEntity
  8
BEM
 62
     1
100
AcDbMText
 10
95.51780234805894
 20
174.3267549885669
 30
0.0
 40
3.5
 41
0.0
 71
     5
 72
     1
  1
\A1;%%c53
 11
0.0523359562429282
 21
-0.9986295347545746
 31
0.0
 73
     1
 44
1.0
  0
POINT
  5
1830
330
1425
100
AcDbEntity
  8
DEFPOINTS
 62
     0
100
AcDbPoint
 10
118.6597859966241
 20
202.0759421287373
 30
0.0
  0
POINT
  5
1831
330
1425
100
AcDbEntity
  8
DEFPOINTS
 62
     0
100
AcDbPoint
 10
118.6597859966239
 20
149.0032077908474
 30
0.0
  0
POINT
  5
1832
330
1425
100
AcDbEntity
  8
DEFPOINTS
 62
     0
100
AcDbPoint
 10
93.65915920054423
 20
147.6929804597812
 30
0.0
  0
ENDBLK
  5
1430
330
1425
100
AcDbEntity
  8
0
100
AcDbBlockEnd
  0
BLOCK
  5
180B
330
17FF
100
AcDbEntity
  8
0
100
AcDbBlockBegin
  2
*D8
 70
     1
 10
0.0
 20
0.0
 30
0.0
  3
*D8
  1

  0
LINE
  5
180D
330
17FF
100
AcDbEntity
  8
SCHRAFF
 62
     0
370
    -2
100
AcDbLine
 10
187.015887145854
 20
179.1219664214704
 30
0.0
 11
198.5588480853217
 21
179.7269073706587
 31
0.0
  0
LINE
  5
180E
330
17FF
100
AcDbEntity
  8
SCHRAFF
 62
     0
370
    -2
100
AcDbLine
 10
82.15978599662383
 20
284.6299839202913
 30
0.0
 11
82.15978599662401
 21
290.1854928916783
 31
0.0
  0
ARC
  5
180F
330
17FF
100
AcDbEntity
  8
SCHRAFF
 62
     0
370
    -2
100
AcDbCircle
 10
82.15978599662383
 20
173.6266910159612
 30
0.0
 40
115.5588018757171
100
AcDbArc
 50
4.735418598879417
 51
88.26458140112057
  0
SOLID
  5
1810
330
17FF
100
AcDbEntity
  8
SCHRAFF
 62
     0
100
AcDbTrace
 10
197.9061377936574
 20
183.2059475845565
 30
0.0
 11
196.7421282658771
 21
183.1272524109566
 31
0.0
 12
197.5602185505671
 22
179.6745714144158
 32
0.0
 13
197.5602185505671
 23
179.6745714144158
 33
0.0
  0
SOLID
  5
1811
330
17FF
100
AcDbEntity
  8
SCHRAFF
 62
     0
100
AcDbTrace
 10
85.6505507511977
 20
288.5492231328469
 30
0.0
 11
85.668218524085
 21
289.715756013186
 31
0.0
 12
82.15978599662395
 22
289.1854928916783
 32
0.0
 13
82.15978599662395
 23
289.1854928916783
 33
0.0
  0
MTEXT
  5
1812
330
17FF
100
AcDbEntity
  8
SCHRAFF
 62
     1
100
AcDbMText
 10
163.9423684004664
 20
259.807550947283
 30
0.0
 40
3.5
 41
0.0
 71
     5
 72
     1
  1
\A1;87°
 11
0.7253743710122881
 21
-0.6883545756937536
 31
0.0
 73
     1
 44
1.0
  0
POINT
  5
1813
330
17FF
100
AcDbEntity
  8
DEFPOINTS
 62
     0
100
AcDbPoint
 10
180.1592079214433
 20
234.8635262816119
 30
0.0
  0
POINT
  5
1814
330
17FF
100
AcDbEntity
  8
DEFPOINTS
 62
     0
100
AcDbPoint
 10
82.15978599662381
 20
283.6299839202912
 30
0.0
  0
POINT
  5
1815
330
17FF
100
AcDbEntity
  8
DEFPOINTS
 62
     0
100
AcDbPoint
 10
186.0172576110994
 20
179.0696304652275
 30
0.0
  0
POINT
  5
1816
330
17FF
100
AcDbEntity
  8
DEFPOINTS
 62
     0
100
AcDbPoint
 10
98.33977155002877
 20
174.4746481276469
 30
0.0
  0
POINT
  5
1817
330
17FF
100
AcDbEntity
  8
DEFPOINTS
 62
     0
100
AcDbPoint
 10
82.1597859966239
 20
68.62669101596139
 30
0.0
  0
ENDBLK
  5
180C
330
17FF
100
AcDbEntity
  8
0
100
AcDbBlockEnd
  0
ENDSEC
  0
SECTION
  2
ENTITIES
  0
LINE
  5
12A
330
1E
100
AcDbEntity
  8
STEMPEL
100
AcDbLine
 10
121.4504238852041
 20
278.6299839202913
 30
0.0
 11
42.86914810804342
 21
278.6299839202913
 31
0.0
  0
TEXT
  5
134
330
1E
100
AcDbEntity
  8
TEXT
100
AcDbText
 10
102.2108024290628
 20
31.54481959861755
 30
0.0
 40
2.0
  1
Koeh
 41
0.8
  7
GREEKS
 72
     1
 11
104.8393738576343
 21
31.54481959861755
 31
0.0
100
AcDbText
  0
INSERT
  5
135
330
1E
100
AcDbEntity
  8
STEMPEL
100
AcDbBlockReference
  2
LOGO
 10
75.4977742728897
 20
22.51052638224161
 30
0.0
  0
LINE
  5
136
330
1E
100
AcDbEntity
  8
HILF
100
AcDbLine
 10
210.0
 20
0.0
 30
0.0
 11
0.0
 21
0.0
 31
0.0
  0
LINE
  5
137
330
1E
100
AcDbEntity
  8
HILF
100
AcDbLine
 10
210.0
 20
297.0000000000001
 30
0.0
 11
0.0
 21
297.0
 31
0.0
  0
LINE
  5
138
330
1E
100
AcDbEntity
  8
STEMPEL
100
AcDbLine
 10
205.0
 20
292.0
 30
0.0
 11
19.99999999999994
 21
292.0
 31
0.0
  0
LINE
  5
139
330
1E
100
AcDbEntity
  8
STEMPEL
100
AcDbLine
 10
205.0
 20
5.0
 30
0.0
 11
19.99999999999994
 21
5.0
 31
0.0
  0
LINE
  5
13A
330
1E
100
AcDbEntity
  8
STEMPEL
100
AcDbLine
 10
24.99999999999995
 20
5.0
 30
0.0
 11
205.0
 21
5.0
 31
0.0
  0
TEXT
  5
13B
330
1E
100
AcDbEntity
  8
TEXT
100
AcDbText
 10
101.2313292113147
 20
36.65480545957612
 30
0.0
 40
2.0
  1
Name
 41
0.8
  7
GREEKS
100
AcDbText
  0
TEXT
  5
13C
330
1E
100
AcDbEntity
  8
TEXT
100
AcDbText
 10
98.27491395507747
 20
51.32531138882947
 30
0.0
 40
2.5
  1
Zul. Abw.
 41
0.8
  7
GREEKS
 72
     4
 11
104.9891996693631
 21
52.57531138882947
 31
0.0
100
AcDbText
  0
LINE
  5
13D
330
1E
100
AcDbEntity
  8
HILF
100
AcDbLine
 10
73.00000000000006
 20
24.99999999999999
 30
0.0
 11
115.0
 21
24.99999999999999
 31
0.0
  0
LINE
  5
13E
330
1E
100
AcDbEntity
  8
HILF
100
AcDbLine
 10
73.00000000000006
 20
29.99999999999999
 30
0.0
 11
115.0
 21
29.99999999999999
 31
0.0
  0
LINE
  5
13F
330
1E
100
AcDbEntity
  8
HILF
100
AcDbLine
 10
73.00000000000006
 20
34.99999999999997
 30
0.0
 11
115.0
 21
34.99999999999997
 31
0.0
  0
LINE
  5
140
330
1E
100
AcDbEntity
  8
STEMPEL
100
AcDbLine
 10
205.0
 20
40.0
 30
0.0
 11
73.00000000000006
 21
39.99999999999997
 31
0.0
  0
LINE
  5
141
330
1E
100
AcDbEntity
  8
STEMPEL
100
AcDbLine
 10
205.0
 20
20.0
 30
0.0
 11
73.00000000000006
 21
19.99999999999998
 31
0.0
  0
LINE
  5
142
330
1E
100
AcDbEntity
  8
STEMPEL
100
AcDbLine
 10
205.0
 20
55.00000000000003
 30
0.0
 11
19.99999999999998
 21
55.0
 31
0.0
  0
LINE
  5
143
330
1E
100
AcDbEntity
  8
MITTEL
100
AcDbLine
 10
82.15978599662378
 20
283.6299839202912
 30
0.0
 11
82.1597859966239
 21
68.62669101596139
 31
0.0
  0
LINE
  5
144
330
1E
100
AcDbEntity
  8
HILF
100
AcDbLine
 10
0.0
 20
0.0
 30
0.0
 11
-0.0000000000000568
 21
297.0
 31
0.0
  0
LINE
  5
145
330
1E
100
AcDbEntity
  8
STEMPEL
100
AcDbLine
 10
20.0
 20
5.0
 30
0.0
 11
19.99999999999994
 21
292.0
 31
0.0
  0
LINE
  5
148
330
1E
100
AcDbEntity
  8
HILF
100
AcDbLine
 10
20.00000000000004
 20
19.99999999999998
 30
0.0
 11
73.00000000000006
 21
19.99999999999998
 31
0.0
  0
LINE
  5
149
330
1E
100
AcDbEntity
  8
HILF
100
AcDbLine
 10
20.00000000000004
 20
24.99999999999999
 30
0.0
 11
73.00000000000006
 21
24.99999999999999
 31
0.0
  0
LINE
  5
14A
330
1E
100
AcDbEntity
  8
HILF
100
AcDbLine
 10
20.00000000000004
 20
29.99999999999999
 30
0.0
 11
73.00000000000006
 21
29.99999999999999
 31
0.0
  0
LINE
  5
14B
330
1E
100
AcDbEntity
  8
HILF
100
AcDbLine
 10
20.00000000000004
 20
34.99999999999997
 30
0.0
 11
73.00000000000006
 21
34.99999999999997
 31
0.0
  0
LINE
  5
14C
330
1E
100
AcDbEntity
  8
HILF
100
AcDbLine
 10
20.00000000000004
 20
39.99999999999997
 30
0.0
 11
73.00000000000006
 21
39.99999999999997
 31
0.0
  0
LINE
  5
14D
330
1E
100
AcDbEntity
  8
HILF
100
AcDbLine
 10
20.00000000000004
 20
45.00000000000002
 30
0.0
 11
73.00000000000006
 21
45.00000000000002
 31
0.0
  0
LINE
  5
14E
330
1E
100
AcDbEntity
  8
HILF
100
AcDbLine
 10
20.00000000000004
 20
50.00000000000003
 30
0.0
 11
73.00000000000006
 21
50.00000000000003
 31
0.0
  0
LINE
  5
14F
330
1E
100
AcDbEntity
  8
STEMPEL
100
AcDbLine
 10
72.99999999999994
 20
14.99999999999998
 30
0.0
 11
19.99999999999998
 21
14.99999999999998
 31
0.0
  0
TEXT
  5
150
330
1E
100
AcDbEntity
  8
TEXT
100
AcDbText
 10
24.13320553522878
 20
6.827329230135958
 30
0.0
 40
2.0
  1
Index
 50
90.0
 41
0.8
  7
GREEKS
100
AcDbText
  0
LINE
  5
151
330
1E
100
AcDbEntity
  8
VOLL
100
AcDbLine
 10
27.00000000000005
 20
55.00000000000003
 30
0.0
 11
26.99999999999999
 21
4.999999999999985
 31
0.0
  0
LINE
  5
152
330
1E
100
AcDbEntity
  8
HILF
100
AcDbLine
 10
15.54383567856928
 20
148.5
 30
0.0
 11
0.0000000000000568
 21
148.5
 31
0.0
  0
LINE
  5
154
330
1E
100
AcDbEntity
  8
VOLL
100
AcDbLine
 10
62.00000000000006
 20
54.99999999999997
 30
0.0
 11
62.0
 21
4.999999999999985
 31
0.0
  0
LINE
  5
155
330
1E
100
AcDbEntity
  8
VOLL
100
AcDbLine
 10
52.00000000000006
 20
54.99999999999997
 30
0.0
 11
52.0
 21
4.999999999999985
 31
0.0
  0
LINE
  5
157
330
1E
100
AcDbEntity
  8
STEMPEL
100
AcDbLine
 10
73.00000000000006
 20
54.99999999999997
 30
0.0
 11
73.0
 21
4.999999999999985
 31
0.0
  0
TEXT
  5
159
330
1E
100
AcDbEntity
  8
TEXT
100
AcDbText
 10
86.16558365768254
 20
36.65940250614963
 30
0.0
 40
2.0
  1
Tag
 41
0.8
  7
GREEKS
100
AcDbText
  0
TEXT
  5
15A
330
1E
100
AcDbEntity
  8
TEXT
100
AcDbText
 10
73.79180635838077
 20
31.81495184808982
 30
0.0
 40
2.0
  1
Gez.
 41
0.8
  7
GREEKS
100
AcDbText
  0
LINE
  5
15B
330
1E
100
AcDbEntity
  8
VOLL
100
AcDbLine
 10
82.00000000000006
 20
39.99999999999997
 30
0.0
 11
82.00000000000006
 21
19.99999999999998
 31
0.0
  0
TEXT
  5
15C
330
1E
100
AcDbEntity
  8
TEXT
100
AcDbText
 10
73.80033886936519
 20
21.76473194824904
 30
0.0
 40
2.0
  1
Norm.
 41
0.8
  7
GREEKS
100
AcDbText
  0
TEXT
  5
15D
330
1E
100
AcDbEntity
  8
TEXT
100
AcDbText
 10
73.77575432858361
 20
26.84463145714189
 30
0.0
 40
2.0
  1
Gepr.
 41
0.8
  7
GREEKS
100
AcDbText
  0
TEXT
  5
15E
330
1E
100
AcDbEntity
  8
TEXT
 62
     1
100
AcDbText
 10
80.25031532409434
 20
44.07450714456979
 30
0.0
 40
3.5
  1
1:1
 41
0.8
  7
GREEKS
100
AcDbText
  0
TEXT
  5
15F
330
1E
100
AcDbEntity
  8
TEXT
100
AcDbText
 10
76.75817860751886
 20
51.23104475435443
 30
0.0
 40
2.5
  1
Maßstab
 41
0.8
  7
GREEKS
100
AcDbText
  0
TEXT
  5
160
330
1E
100
AcDbEntity
  8
TEXT
100
AcDbText
 10
74.31105491105199
 20
36.57012735575833
 30
0.0
 40
2.0
  1
2011
 41
0.8
  7
GREEKS
100
AcDbText
  0
LINE
  5
161
330
1E
100
AcDbEntity
  8
VOLL
100
AcDbLine
 10
95.00000000000005
 20
54.99999999999992
 30
0.0
 11
95.0
 21
19.99999999999998
 31
0.0
  0
LINE
  5
186
330
1E
100
AcDbEntity
  8
HILF
100
AcDbLine
 10
210.0
 20
-0.0000000000000568
 30
0.0
 11
210.0
 21
297.0
 31
0.0
  0
LINE
  5
187
330
1E
100
AcDbEntity
  8
STEMPEL
100
AcDbLine
 10
205.0
 20
5.0
 30
0.0
 11
205.0
 21
292.0
 31
0.0
  0
TEXT
  5
188
330
1E
100
AcDbEntity
  8
TEXT
100
AcDbText
 10
168.6200430748503
 20
26.03708088939301
 30
0.0
 40
2.5
  1
ersetzt durch:
 41
0.8
  7
GREEKS
100
AcDbText
  0
TEXT
  5
189
330
1E
100
AcDbEntity
  8
TEXT
100
AcDbText
 10
168.3619308148496
 20
36.59059118549985
 30
0.0
 40
2.5
  1
Ersatz für:
 41
0.8
  7
GREEKS
100
AcDbText
  0
TEXT
  5
18A
330
1E
100
AcDbEntity
  8
TEXT
100
AcDbText
 10
168.089377478817
 20
51.15660172685682
 30
0.0
 40
2.5
  1
Zeichnungs Nr.
 41
0.8
  7
GREEKS
100
AcDbText
  0
LINE
  5
18B
330
1E
100
AcDbEntity
  8
HILF
100
AcDbLine
 10
116.7454849644942
 20
7.446991290141568
 30
0.0
 11
202.4294419663364
 21
7.446991290141568
 31
0.0
  0
LINE
  5
18C
330
1E
100
AcDbEntity
  8
HILF
100
AcDbLine
 10
168.3619308148496
 20
41.88991818477913
 30
0.0
 11
202.4294419663364
 21
41.88991818477913
 31
0.0
  0
LINE
  5
18D
330
1E
100
AcDbEntity
  8
VOLL
100
AcDbLine
 10
166.0
 20
30.0
 30
0.0
 11
205.0
 21
30.0
 31
0.0
  0
TEXT
  5
18E
330
1E
100
AcDbEntity
  8
TEXT
 62
     1
100
AcDbText
 10
117.4641932160007
 20
43.70874394626889
 30
0.0
 40
3.5
  1
Red.-Abzweig DN70/50
 41
0.7
  7
GREEKS
100
AcDbText
  0
LINE
  5
18F
330
1E
100
AcDbEntity
  8
HILF
100
AcDbLine
 10
117.3868400548473
 20
24.99999999999999
 30
0.0
 11
162.4176958278155
 21
24.99999999999999
 31
0.0
  0
LINE
  5
190
330
1E
100
AcDbEntity
  8
HILF
100
AcDbLine
 10
117.3868400548473
 20
29.99999999999999
 30
0.0
 11
162.4176958278155
 21
29.99999999999999
 31
0.0
  0
LINE
  5
191
330
1E
100
AcDbEntity
  8
HILF
100
AcDbLine
 10
117.3868400548473
 20
34.99999999999997
 30
0.0
 11
162.4176958278155
 21
34.99999999999997
 31
0.0
  0
LINE
  5
192
330
1E
100
AcDbEntity
  8
HILF
100
AcDbLine
 10
117.3868400548473
 20
42.01879123782069
 30
0.0
 11
162.4176958278155
 21
42.01879123782069
 31
0.0
  0
LINE
  5
193
330
1E
100
AcDbEntity
  8
STEMPEL
100
AcDbLine
 10
115.0
 20
55.00000000000003
 30
0.0
 11
115.0
 21
4.999999999999985
 31
0.0
  0
TEXT
  5
194
330
1E
100
AcDbEntity
  8
TEXT
100
AcDbText
 10
117.5648195562657
 20
35.75167208792644
 30
0.0
 40
2.5
  1
dünnwandig 87° 
 41
0.8
  7
GREEKS
100
AcDbText
  0
TEXT
  5
195
330
1E
100
AcDbEntity
  8
TEXT
100
AcDbText
 10
117.4918750788913
 20
21.31487076511316
 30
0.0
 40
2.0
  1
4230CB0W.DWG
 41
0.8
  7
GREEKS
100
AcDbText
  0
TEXT
  5
196
330
1E
100
AcDbEntity
  8
TEXT
100
AcDbText
 10
117.371119195568
 20
15.42280285096528
 30
0.0
 40
2.5
  1
Bauvorhaben
 41
0.8
  7
GREEKS
100
AcDbText
  0
TEXT
  5
197
330
1E
100
AcDbEntity
  8
TEXT
100
AcDbText
 10
117.4389701904505
 20
51.27446640058898
 30
0.0
 40
2.5
  1
Benennung
 41
0.8
  7
GREEKS
100
AcDbText
  0
LINE
  5
198
330
1E
100
AcDbEntity
  8
STEMPEL
100
AcDbLine
 10
166.0
 20
54.99999999999989
 30
0.0
 11
166.0
 21
20.0
 31
0.0
  0
TEXT
  5
19A
330
1E
100
AcDbEntity
  8
TEXT
 62
     1
100
AcDbText
 10
174.0483103970164
 20
44.07450714456979
 30
0.0
 40
3.5
  1
4230CB0W
 41
0.8
  7
GREEKS
 72
     1
 11
184.8483103970164
 21
44.07450714456979
 31
0.0
100
AcDbText
  0
LINE
  5
1D4
330
1E
100
AcDbEntity
  8
STEMPEL
100
AcDbLine
 10
118.2223426789942
 20
73.62669101596134
 30
0.0
 11
46.09722931425335
 21
73.62669101596111
 31
0.0
  0
LINE
  5
1D7
330
1E
100
AcDbEntity
  8
STEMPEL
100
AcDbLine
 10
45.65978599662378
 20
78.62669101596111
 30
0.0
 11
46.09722931425335
 21
73.62669101596111
 31
0.0
  0
LINE
  5
1D8
330
1E
100
AcDbEntity
  8
STEMPEL
100
AcDbLine
 10
118.6597859966238
 20
78.62669101596179
 30
0.0
 11
118.2223426789942
 21
73.62669101596134
 31
0.0
  0
DIMENSION
  5
1DB
330
1E
100
AcDbEntity
  8
BEM
100
AcDbDimension
  2
*D1
 10
29.98690240273937
 20
278.6299839202913
 30
0.0
 11
26.73690240273932
 21
176.1283374681262
 31
0.0
 70
    32
 71
     5
 42
205.0032929043301
  3
Standard
100
AcDbAlignedDimension
 13
46.09722931425335
 23
73.62669101596114
 33
0.0
 14
42.86914810804342
 24
278.6299839202913
 34
0.0
 50
90.0
100
AcDbRotatedDimension
1001
ACAD
1000
DSTYLE
1002
{
1070
    41
1040
3.5
1070
    42
1040
1.0
1070
    43
1040
7.0
1070
    44
1040
1.0
1070
    73
1070
     0
1070
    74
1070
     0
1070
    77
1070
     1
1070
    78
1070
     8
1070
    79
1070
     2
1070
   140
1040
3.5
1070
   141
1040
1.5
1070
   146
1040
0.5142857142857144
1070
   147
1040
1.5
1070
   172
1070
     1
1070
   178
1070
     1
1070
   179
1070
     2
1070
   271
1070
     2
1070
   272
1070
     2
1070
   284
1070
     8
1070
   285
1070
     8
1070
   286
1070
     8
1002
}
  0
TEXT
  5
212
330
1E
100
AcDbEntity
  8
TEXT
100
AcDbText
 10
117.5648195562657
 20
25.75167208792646
 30
0.0
 40
2.5
  1
EDV-Art.Nr. 4.230.CB0C
 41
0.8
  7
GREEKS
100
AcDbText
  0
TEXT
  5
255
330
1E
100
AcDbEntity
  8
TEXT
 62
     1
100
AcDbText
 10
148.5286824677853
 20
66.1124331841006
 30
0.0
 40
3.5
  1
Werkstoff: 1.4301
 41
0.8
  7
GREEKS
100
AcDbText
  0
TEXT
  5
25D
330
1E
100
AcDbEntity
  8
TEXT
 62
     1
100
AcDbText
 10
59.39526599772557
 20
259.3034793818604
 30
0.0
 40
3.5
  1
DN70
 41
0.8
  7
GREEKS
100
AcDbText
  0
LINE
  5
B5C
330
1E
100
AcDbEntity
  8
HILF
  6
Continuous
100
AcDbLine
 10
44.58139741739922
 20
226.2751782300592
 30
0.0
 11
119.7381745758484
 21
226.2751782300592
 31
0.0
  0
LINE
  5
B5D
330
1E
100
AcDbEntity
  8
HILF
  6
Continuous
100
AcDbLine
 10
44.02807437029411
 20
248.1319781839555
 30
0.0
 11
120.2914976229534
 21
248.1319781839555
 31
0.0
  0
LINE
  5
B61
330
1E
100
AcDbEntity
  8
HILF
  6
Continuous
100
AcDbLine
 10
46.4862304021384
 20
221.7534563063468
 30
0.0
 11
117.8333415911091
 21
221.7534563063467
 31
0.0
  0
ARC
  5
B7A
330
1E
100
AcDbEntity
  8
STEMPEL
100
AcDbCircle
 10
99.15979947238657
 20
268.1061745678418
 30
0.0
 40
24.65
100
AcDbArc
 50
359.9385097298969
 51
25.27284846783625
  0
LINE
  5
B7B
330
1E
100
AcDbEntity
  8
STEMPEL
100
AcDbLine
 10
123.8097859966237
 20
268.1312876225276
 30
0.0
 11
123.8097859966237
 21
259.068263968482
 31
0.0
  0
ARC
  5
B7C
330
1E
100
AcDbEntity
  8
STEMPEL
100
AcDbCircle
 10
99.15978599662379
 20
259.0022050025666
 30
0.0
 40
24.65009324312573
100
AcDbArc
 50
338.8168456069657
 51
0.1617474312555988
  0
ARC
  5
B7D
330
1E
100
AcDbEntity
  8
STEMPEL
100
AcDbCircle
 10
133.6597859966238
 20
245.6322050025666
 30
0.0
 40
12.35
100
AcDbArc
 50
158.8168456069657
 51
180.0
  0
LINE
  5
B7E
330
1E
100
AcDbEntity
  8
STEMPEL
100
AcDbLine
 10
121.3097859966237
 20
245.6322050025666
 30
0.0
 11
121.3097859966237
 21
228.8415148498643
 31
0.0
  0
ARC
  5
B85
330
1E
100
AcDbEntity
  8
STEMPEL
100
AcDbCircle
 10
109.6597859966236
 20
228.8415148498643
 30
0.0
 40
11.65
100
AcDbArc
 50
329.8986894531991
 51
0.0
  0
ARC
  5
B86
330
1E
100
AcDbEntity
  8
STEMPEL
100
AcDbCircle
 10
126.6597859966237
 20
218.9864400150394
 30
0.0
 40
7.999999999999973
100
AcDbArc
 50
149.8986894531976
 51
180.0
  0
LINE
  5
B99
330
1E
100
AcDbEntity
  8
STEMPEL
100
AcDbLine
 10
40.5097859966238
 20
268.1312876225276
 30
0.0
 11
40.5097859966238
 21
259.068263968482
 31
0.0
  0
LINE
  5
B9B
330
1E
100
AcDbEntity
  8
STEMPEL
100
AcDbLine
 10
43.0097859966238
 20
245.6322050025666
 30
0.0
 11
43.0097859966238
 21
228.8415148498643
 31
0.0
  0
ARC
  5
B9F
330
1E
100
AcDbEntity
  8
STEMPEL
100
AcDbCircle
 10
65.15978599662378
 20
259.0022050025666
 30
0.0
 40
24.65009324312573
100
AcDbArc
 50
179.8382525687444
 51
201.1831543930343
  0
ARC
  5
BA1
330
1E
100
AcDbEntity
  8
STEMPEL
100
AcDbCircle
 10
30.65978599662378
 20
245.6322050025666
 30
0.0
 40
12.35
100
AcDbArc
 50
0.0
 51
21.1831543930343
  0
ARC
  5
BA3
330
1E
100
AcDbEntity
  8
STEMPEL
100
AcDbCircle
 10
65.15977252086099
 20
268.1061745678418
 30
0.0
 40
24.65
100
AcDbArc
 50
154.7271515321637
 51
180.0614902701031
  0
LINE
  5
CE5
330
1E
100
AcDbEntity
  8
HILF
100
AcDbLine
 10
117.4097859966238
 20
78.62669101596139
 30
0.0
 11
46.90978599662378
 21
78.62669101596139
 31
0.0
  0
DIMENSION
  5
D41
330
1E
100
AcDbEntity
  8
BEM
100
AcDbDimension
  2
*D3
 10
118.6597859966238
 20
62.42041859786081
 30
0.0
 11
82.15978599662378
 21
65.67041859786082
 31
0.0
 70
    32
  1
%%c<>
 71
     5
 42
73.0
  3
Standard
100
AcDbAlignedDimension
 13
45.65978599662378
 23
78.62669101596134
 33
0.0
 14
118.6597859966238
 24
78.62669101596168
 34
0.0
100
AcDbRotatedDimension
1001
ACAD
1000
DSTYLE
1002
{
1070
    41
1040
3.5
1070
    42
1040
1.0
1070
    43
1040
7.0
1070
    44
1040
1.0
1070
    73
1070
     0
1070
    74
1070
     0
1070
    77
1070
     1
1070
    78
1070
     8
1070
    79
1070
     2
1070
   140
1040
3.5
1070
   141
1040
1.5
1070
   146
1040
0.5142857142857144
1070
   147
1040
1.5
1070
   172
1070
     1
1070
   178
1070
     1
1070
   179
1070
     2
1070
   271
1070
     2
1070
   272
1070
     2
1070
   284
1070
     8
1070
   285
1070
     8
1070
   286
1070
     8
1002
}
  0
LINE
  5
D69
330
1E
100
AcDbEntity
  8
STEMPEL
100
AcDbLine
 10
45.65978599662377
 20
218.9864400150394
 30
0.0
 11
45.65978599662378
 21
78.62669101596134
 31
0.0
  0
LINE
  5
E0F
102
{ACAD_REACTORS
330
16C7
102
}
330
1E
100
AcDbEntity
  8
STEMPEL
100
AcDbLine
 10
118.6597859966239
 20
218.9864400150394
 30
0.0
 11
118.6597859966239
 21
202.0759421287372
 31
0.0
  0
DIMENSION
  5
E1B
330
1E
100
AcDbEntity
  8
BEM
100
AcDbDimension
  2
*D4
 10
38.5811468208051
 20
173.6266910159612
 30
0.0
 11
35.33114682080507
 21
123.6266910159611
 31
0.0
 70
    32
 71
     5
 42
100.0
  3
Standard
100
AcDbAlignedDimension
 13
46.09722931425335
 23
73.62669101596111
 33
0.0
 14
82.1597859966239
 24
173.6266910159612
 34
0.0
 50
90.0
100
AcDbRotatedDimension
1001
ACAD
1000
DSTYLE
1002
{
1070
    41
1040
3.5
1070
    42
1040
1.0
1070
    43
1040
7.0
1070
    44
1040
1.0
1070
    73
1070
     0
1070
    74
1070
     0
1070
    77
1070
     1
1070
    78
1070
     8
1070
    79
1070
     2
1070
   140
1040
3.5
1070
   141
1040
1.5
1070
   146
1040
0.5142857142857144
1070
   147
1040
1.5
1070
   172
1070
     1
1070
   178
1070
     1
1070
   179
1070
     2
1070
   271
1070
     2
1070
   272
1070
     2
1070
   284
1070
     8
1070
   285
1070
     8
1070
   286
1070
     8
1002
}
  0
LINE
  5
123F
330
1E
100
AcDbEntity
  8
HILF
100
AcDbLine
 10
157.0300581355345
 20
205.6544700325826
 30
0.0
 11
159.9677254734351
 21
149.6004380150262
 31
0.0
  0
LINE
  5
1240
330
1E
100
AcDbEntity
  8
HILF
100
AcDbLine
 10
144.2740318466847
 20
204.4915923224562
 30
0.0
 11
147.1600242112729
 21
149.4235775340074
 31
0.0
  0
LINE
  5
1241
330
1E
100
AcDbEntity
  8
HILF
100
AcDbLine
 10
139.8390080269491
 20
202.4662316337394
 30
0.0
 11
142.5375880757119
 21
150.974256860522
 31
0.0
  0
LINE
  5
1242
330
1E
100
AcDbEntity
  8
STEMPEL
100
AcDbLine
 10
182.5427550851561
 20
149.8304750381216
 30
0.0
 11
179.5054647894971
 21
207.7854263299039
 31
0.0
  0
LINE
  5
1257
330
1E
100
AcDbEntity
  8
MITTEL
100
AcDbLine
 10
186.0172576110994
 20
179.0696304652275
 30
0.0
 11
98.33977155002878
 21
174.4746481276469
 31
0.0
  0
ARC
  5
1276
330
1E
100
AcDbEntity
  8
STEMPEL
100
AcDbCircle
 10
147.4075421255722
 20
194.4700598382446
 30
0.0
 40
11.5
100
AcDbArc
 50
93.0
 51
121.7266053481406
  0
ARC
  5
1279
330
1E
100
AcDbEntity
  8
STEMPEL
100
AcDbCircle
 10
154.4956496598677
 20
216.8717234253907
 30
0.0
 40
10.5
100
AcDbArc
 50
273.0
 51
292.4630994446888
  0
LINE
  5
127F
330
1E
100
AcDbEntity
  8
STEMPEL
100
AcDbLine
 10
171.1720187841106
 20
209.2340299567144
 30
0.0
 11
166.5469439151118
 21
208.9916400538123
 31
0.0
  0
LINE
  5
1281
330
1E
100
AcDbEntity
  8
STEMPEL
100
AcDbLine
 10
155.0451772004185
 20
206.3861133104678
 30
0.0
 11
146.8056786287784
 21
205.9542994879223
 31
0.0
  0
ARC
  5
1282
330
1E
100
AcDbEntity
  8
STEMPEL
100
AcDbCircle
 10
167.8687538501926
 20
184.527290700195
 30
0.0
 40
24.5000320571282
100
AcDbArc
 50
92.90536195520298
 51
112.4630994446887
  0
ARC
  5
1283
330
1E
100
AcDbEntity
  8
STEMPEL
100
AcDbCircle
 10
172.1664019527263
 20
190.2600687963774
 30
0.0
 40
19.0
100
AcDbArc
 50
67.27761350781739
 51
93.0
  0
LINE
  5
1287
102
{ACAD_REACTORS
330
16C7
102
}
330
1E
100
AcDbEntity
  8
STEMPEL
100
AcDbLine
 10
137.5718297235602
 20
203.0670803421698
 30
0.0
 11
118.6597859966239
 21
202.0759421287372
 31
0.0
  0
ARC
  5
128A
330
1E
100
AcDbEntity
  8
STEMPEL
100
AcDbCircle
 10
137.1531420736166
 20
211.0561166202062
 30
0.0
 40
8.0
100
AcDbArc
 50
273.0
 51
301.7266053481392
  0
LINE
  5
12B4
330
1E
100
AcDbEntity
  8
STEMPEL
100
AcDbLine
 10
174.4063808799246
 20
147.5187247088818
 30
0.0
 11
169.7813060109258
 21
147.2763348059798
 31
0.0
  0
ARC
  5
12BF
330
1E
100
AcDbEntity
  8
STEMPEL
100
AcDbCircle
 10
149.2288334028269
 20
159.7177520287855
 30
0.0
 40
11.5
100
AcDbArc
 50
244.2733946518608
 51
273.0
  0
LINE
  5
12C0
102
{ACAD_REACTORS
330
16D4
102
}
330
1E
100
AcDbEntity
  8
STEMPEL
100
AcDbLine
 10
140.3456354044363
 20
150.1397150001773
 30
0.0
 11
118.6597859966238
 21
149.0032077908472
 31
0.0
  0
ARC
  5
12C4
330
1E
100
AcDbEntity
  8
STEMPEL
100
AcDbCircle
 10
140.7643230543799
 20
142.1506787221405
 30
0.0
 40
8.0
100
AcDbArc
 50
64.27339465186081
 51
93.0
  0
ARC
  5
12CB
330
1E
100
AcDbEntity
  8
STEMPEL
100
AcDbCircle
 10
158.6197230118116
 20
138.1797160867303
 30
0.0
 40
10.5
100
AcDbArc
 50
73.53690055531126
 51
93.0
  0
LINE
  5
12CC
330
1E
100
AcDbEntity
  8
STEMPEL
100
AcDbLine
 10
158.0701954712606
 20
148.6653262016535
 30
0.0
 11
149.8306968996207
 21
148.2335123791081
 31
0.0
  0
ARC
  5
12CD
330
1E
100
AcDbEntity
  8
STEMPEL
100
AcDbCircle
 10
168.5386540901022
 20
171.7448326553365
 30
0.0
 40
24.5000320571282
100
AcDbArc
 50
253.5369005553113
 51
273.094638044797
  0
ARC
  5
12D1
330
1E
100
AcDbEntity
  8
STEMPEL
100
AcDbCircle
 10
173.4119977113087
 20
166.4926858692185
 30
0.0
 40
19.0
100
AcDbArc
 50
273.0
 51
298.7223864921899
  0
DIMENSION
  5
140A
330
1E
100
AcDbEntity
  8
BEM
100
AcDbDimension
  2
*D5
 10
183.2699145613094
 20
135.9554456798808
 30
0.0
 11
133.9000945985191
 21
133.3680830520254
 31
0.0
 70
   160
 71
     5
 42
98.99999999999895
  3
Standard
100
AcDbAlignedDimension
 13
82.1597859966239
 23
173.6266910159612
 33
0.0
 14
182.5427550851564
 24
149.8304750381215
 34
0.0
 50
3.000000000002331
100
AcDbRotatedDimension
1001
ACAD
1000
DSTYLE
1002
{
1070
    41
1040
3.5
1070
    42
1040
1.0
1070
    43
1040
7.0
1070
    44
1040
1.0
1070
    73
1070
     0
1070
    74
1070
     0
1070
    77
1070
     1
1070
    78
1070
     8
1070
    79
1070
     2
1070
   140
1040
3.5
1070
   141
1040
1.5
1070
   146
1040
0.5142857142857144
1070
   147
1040
1.5
1070
   172
1070
     1
1070
   178
1070
     1
1070
   179
1070
     2
1070
   271
1070
     2
1070
   272
1070
     2
1070
   284
1070
     8
1070
   285
1070
     8
1070
   286
1070
     8
1002
}
  0
DIMENSION
  5
1424
330
1E
100
AcDbEntity
  8
BEM
100
AcDbDimension
  2
*D6
 10
93.65915920054423
 20
147.6929804597812
 30
0.0
 11
95.51780234805894
 21
174.3267549885669
 31
0.0
 70
    32
  1
%%c<>
 71
     5
 42
53.00000000000011
  3
Standard
100
AcDbAlignedDimension
 13
118.6597859966241
 23
202.0759421287372
 33
0.0
 14
118.6597859966239
 24
149.0032077908474
 34
0.0
 50
272.9999999999991
100
AcDbRotatedDimension
1001
ACAD
1000
DSTYLE
1002
{
1070
    41
1040
3.5
1070
    42
1040
1.0
1070
    43
1040
7.0
1070
    44
1040
1.0
1070
    73
1070
     0
1070
    74
1070
     0
1070
    77
1070
     1
1070
    78
1070
     8
1070
    79
1070
     2
1070
   140
1040
3.5
1070
   141
1040
1.5
1070
   146
1040
0.5142857142857144
1070
   147
1040
1.5
1070
   172
1070
     1
1070
   178
1070
     1
1070
   179
1070
     2
1070
   271
1070
     2
1070
   272
1070
     2
1070
   284
1070
     8
1070
   285
1070
     8
1070
   286
1070
     8
1002
}
  0
LINE
  5
15D7
330
1E
100
AcDbEntity
  8
MITTEL
100
AcDbLine
 10
91.18967982570426
 20
174.0999276987049
 30
0.0
 11
82.1597859966239
 21
173.6266910159612
 31
0.0
  0
ELLIPSE
  5
15F4
330
1E
100
AcDbEntity
  8
STEMPEL
100
AcDbEllipse
 10
118.6597859966239
 20
175.0154971669618
 30
0.0
 11
0.0000000000000744
 21
26.01228937611458
 31
0.0
210
0.0
220
0.0
230
1.0
 40
0.3844336749991091
 41
1.570796326794896
 42
3.141592653589793
  0
ELLIPSE
  5
15F5
330
1E
100
AcDbEntity
  8
STEMPEL
100
AcDbEllipse
 10
118.6597859966239
 20
175.0154971669617
 30
0.0
 11
-0.0000000000002289
 21
27.06044496177546
 31
0.0
210
0.0
220
0.0
230
1.0
 40
0.3695430734463394
 41
0.0
 42
1.570796326794896
  0
LINE
  5
15F6
102
{ACAD_REACTORS
330
16D4
102
}
330
1E
100
AcDbEntity
  8
STEMPEL
100
AcDbLine
 10
118.6597859966238
 20
149.0032077908472
 30
0.0
 11
118.6597859966238
 21
78.62669101596168
 31
0.0
  0
ARC
  5
16BF
102
{ACAD_REACTORS
330
16C7
102
}
330
1E
100
AcDbEntity
  8
SCHRAFF
100
AcDbCircle
 10
118.6597859966239
 20
202.0759421287372
 30
0.0
 40
2.0
100
AcDbArc
 50
3.000000000000716
 51
90.0
  0
HATCH
  5
16C7
330
1E
100
AcDbEntity
  8
SCHRAFF
100
AcDbHatch
 10
0.0
 20
0.0
 30
0.0
210
0.0
220
0.0
230
1.0
  2
_USER
 70
     0
 71
     1
 91
        1
 92
        7
 72
     1
 73
     1
 93
        3
 10
118.6597859966239
 20
202.0759421287372
 42
0.0
 10
120.657045066133
 20
202.1806140412231
 42
0.3989595459737157
 10
118.6597859966239
 20
204.0759421287372
 42
0.0
 97
        3
330
E0F
330
1287
330
16BF
 75
     0
 76
     0
 52
0.0
 41
0.1
 77
     0
 78
     1
 53
0.0
 43
-4.754913710840583
 44
0.3533213164367908
 45
0.0
 46
0.1
 79
     0
 47
0.0284030660539567
 98
        1
 10
119.0412038626498
 20
202.8254876945595
  0
ARC
  5
16C8
102
{ACAD_REACTORS
330
16D4
102
}
330
1E
100
AcDbEntity
  8
SCHRAFF
100
AcDbCircle
 10
118.6597859966238
 20
149.0032077908472
 30
0.0
 40
2.0
100
AcDbArc
 50
269.9999999999996
 51
2.999999999999881
  0
HATCH
  5
16D4
330
1E
100
AcDbEntity
  8
SCHRAFF
100
AcDbHatch
 10
0.0
 20
0.0
 30
0.0
210
0.0
220
0.0
230
1.0
  2
_USER
 70
     0
 71
     1
 91
        1
 92
        7
 72
     1
 73
     1
 93
        3
 10
118.6597859966238
 20
147.0032077908472
 42
0.4296339059668397
 10
120.6570450661329
 20
149.1078797033331
 42
0.0
 10
118.6597859966238
 20
149.0032077908472
 42
0.0
 97
        3
330
12C0
330
15F6
330
16C8
 75
     0
 76
     0
 52
0.0
 41
0.1
 77
     0
 78
     1
 53
0.0
 43
-4.754913710840583
 44
0.3533213164367908
 45
0.0
 46
0.1
 79
     0
 47
0.0335710694051886
 98
        1
 10
119.0862202769201
 20
148.0499106803805
  0
ARC
  5
16DF
330
1E
100
AcDbEntity
  8
SCHRAFF
100
AcDbCircle
 10
112.9661775498137
 20
197.7796825848107
 30
0.0
 40
2.812604529325464
100
AcDbArc
 50
4.401688599071141
 51
95.26583148336021
  0
ARC
  5
16E0
330
1E
100
AcDbEntity
  8
SCHRAFF
100
AcDbCircle
 10
110.7199285150977
 20
192.0606512266352
 30
0.0
 40
3.147323319753051
100
AcDbArc
 50
28.08898129724429
 51
107.0477938558877
  0
ARC
  5
16E1
330
1E
100
AcDbEntity
  8
SCHRAFF
100
AcDbCircle
 10
109.6727641864766
 20
187.5285139944188
 30
0.0
 40
2.706681152129643
100
AcDbArc
 50
26.68715310484365
 51
122.104023215915
  0
ARC
  5
16E2
330
1E
100
AcDbEntity
  8
SCHRAFF
100
AcDbCircle
 10
108.8233338582891
 20
181.892102953304
 30
0.0
 40
3.076692664695768
100
AcDbArc
 50
38.81211486974855
 51
120.0324095678369
  0
ARC
  5
16E3
330
1E
100
AcDbEntity
  8
SCHRAFF
100
AcDbCircle
 10
108.6775491000039
 20
177.2784471171403
 30
0.0
 40
2.606369764224301
100
AcDbArc
 50
36.84731821196345
 51
137.0858479454797
  0
ARC
  5
16EF
330
1E
100
AcDbEntity
  8
SCHRAFF
100
AcDbCircle
 10
108.8671521217011
 20
171.7797722831449
 30
0.0
 40
2.739593470571373
100
AcDbArc
 50
48.83901609077466
 51
143.0445968061796
  0
ARC
  5
16F0
330
1E
100
AcDbEntity
  8
SCHRAFF
100
AcDbCircle
 10
109.2509722443311
 20
166.5243961441357
 30
0.0
 40
2.882773495712056
100
AcDbArc
 50
53.78944631768482
 51
141.7297380483293
  0
ARC
  5
16F1
330
1E
100
AcDbEntity
  8
SCHRAFF
100
AcDbCircle
 10
110.2868034875946
 20
160.8237643793945
 30
0.0
 40
3.365506819177578
100
AcDbArc
 50
66.04897876305959
 51
139.0093474852686
  0
ARC
  5
16F2
330
1E
100
AcDbEntity
  8
SCHRAFF
100
AcDbCircle
 10
111.8022187463065
 20
156.4963060262686
 30
0.0
 40
2.761229066328433
100
AcDbArc
 50
67.49025309947848
 51
161.0667508941659
  0
ARC
  5
16F3
330
1E
100
AcDbEntity
  8
SCHRAFF
100
AcDbCircle
 10
114.6907504606452
 20
151.4096069938902
 30
0.0
 40
3.033987347389937
100
AcDbArc
 50
87.83458892801061
 51
171.5624911248458
  0
TEXT
  5
16F9
330
1E
100
AcDbEntity
  8
TEXT
 62
     1
100
AcDbText
 10
164.5437848967544
 20
183.7876632000783
 30
0.0
 40
3.5
  1
DN50
 50
3.0
 41
0.8
  7
GREEKS
100
AcDbText
  0
DIMENSION
  5
17FE
330
1E
100
AcDbEntity
  8
SCHRAFF
100
AcDbDimension
  2
*D8
 10
82.1597859966239
 20
68.62669101596139
 30
0.0
 11
163.9423684004665
 21
259.8075509472831
 31
0.0
 70
    34
 71
     5
 42
1.518436449235065
  3
Standard
100
AcDb2LineAngularDimension
 13
186.0172576110994
 23
179.0696304652275
 33
0.0
 14
98.33977155002878
 24
174.4746481276469
 34
0.0
 15
82.15978599662378
 25
283.6299839202912
 35
0.0
 16
180.1592079214433
 26
234.8635262816119
 36
0.0
1001
ACAD
1000
DSTYLE
1002
{
1070
    41
1040
3.5
1070
    42
1040
1.0
1070
    43
1040
7.0
1070
    44
1040
1.0
1070
    73
1070
     0
1070
    74
1070
     0
1070
    77
1070
     1
1070
    78
1070
     8
1070
    79
1070
     2
1070
   140
1040
3.5
1070
   141
1040
1.5
1070
   146
1040
0.5142857142857144
1070
   147
1040
1.5
1070
   172
1070
     1
1070
   178
1070
     1
1070
   179
1070
     2
1070
   271
1070
     2
1070
   272
1070
     2
1070
   284
1070
     8
1070
   285
1070
     8
1070
   286
1070
     8
1002
}
  0
TEXT
  5
1876
330
1E
100
AcDbEntity
  8
TEXT
100
AcDbText
 10
20.92754975488837
 20
55.83599999999997
 30
0.0
 40
2.5
  1
Erstellt mit AUTOCAD 2004
 41
0.8
  7
GREEKS
100
AcDbText
  0
TEXT
  5
1877
330
1E
100
AcDbEntity
  8
TEXT
100
AcDbText
 10
33.49933939241158
 20
9.336909474920659
 30
0.0
 40
2.0
  1
Änderung
 41
0.8
  7
GREEKS
 72
     1
 11
38.87076796384015
 21
9.336909474920659
 31
0.0
100
AcDbText
  0
TEXT
  5
1878
330
1E
100
AcDbEntity
  8
TEXT
100
AcDbText
 10
55.17481598333814
 20
9.33578134669905
 30
0.0
 40
2.0
  1
Tag
 41
0.8
  7
GREEKS
 72
     1
 11
57.04148265000481
 21
9.33578134669905
 31
0.0
100
AcDbText
  0
TEXT
  5
1879
330
1E
100
AcDbEntity
  8
TEXT
100
AcDbText
 10
64.61958341495059
 20
9.29662108483204
 30
0.0
 40
2.0
  1
Name
 41
0.8
  7
GREEKS
 72
     1
 11
67.78148817685536
 21
9.29662108483204
 31
0.0
100
AcDbText
  0
TEXT
  5
187A
330
1E
100
AcDbEntity
  8
TEXT
100
AcDbText
 10
96.34413576239619
 20
44.50323185339641
 30
0.0
 40
2.0
  1
DIN EN1124-3
 41
0.8
  7
GREEKS
 72
     1
 11
104.8393738576343
 21
44.50323185339641
 31
0.0
100
AcDbText
  0
TEXT
  5
187B
330
1E
100
AcDbEntity
  8
BEM
100
AcDbText
 10
208.2905770718718
 20
6.074024076691515
 30
0.0
 40
2.0
  1
Diese Zeichnung ist urheberrechtlich geschützt und bleibt unser Eigentum. Sie darf weder ganz noch teilweise vervielfältigt und nicht an Dritte weitergegeben werden.
 50
90.0
 41
0.8
  7
GREEKS
100
AcDbText
  0
ARC
  5
188E
330
1E
100
AcDbEntity
  8
STEMPEL
100
AcDbCircle
 10
54.65978599662395
 20
228.8415148498642
 30
0.0
 40
11.65
100
AcDbArc
 50
180.0
 51
210.101310546801
  0
ARC
  5
188F
330
1E
100
AcDbEntity
  8
STEMPEL
100
AcDbCircle
 10
37.65978599662388
 20
218.9864400150394
 30
0.0
 40
7.999999999999973
100
AcDbArc
 50
0.0000000000000706
 51
30.10131054680244
  0
TEXT
  5
189C
330
1E
100
AcDbEntity
  8
TEXT
 62
     1
100
AcDbText
 10
184.8483103970164
 20
31.34918930016591
 30
0.0
 40
3.5
  1

 41
0.8
  7
GREEKS
 72
     1
 11
184.8483103970164
 21
31.34918930016591
 31
0.0
100
AcDbText
  0
TEXT
  5
18C7
330
1E
100
AcDbEntity
  8
TEXT
100
AcDbText
 10
85.35187950649897
 20
31.55382520412866
 30
0.0
 40
2.0
  1
14.04.
 41
0.8
  7
GREEKS
 72
     1
 11
88.70426045887993
 21
31.55382520412866
 31
0.0
100
AcDbText
  0
ENDSEC
  0
SECTION
  2
OBJECTS
  0
DICTIONARY
  5
C
330
0
100
AcDbDictionary
281
     1
  3
ACAD_COLOR
350
186A
  3
ACAD_GROUP
350
D
  3
ACAD_LAYOUT
350
19
  3
ACAD_MATERIAL
350
1869
  3
ACAD_MLINESTYLE
350
16
  3
ACAD_PLOTSETTINGS
350
18
  3
ACAD_PLOTSTYLENAME
350
E
  3
AcDbVariableDictionary
350
246
  0
DICTIONARY
  5
186A
102
{ACAD_REACTORS
330
C
102
}
330
C
100
AcDbDictionary
281
     1
  0
DICTIONARY
  5
D
102
{ACAD_REACTORS
330
C
102
}
330
C
100
AcDbDictionary
281
     1
  0
DICTIONARY
  5
19
102
{ACAD_REACTORS
330
C
102
}
330
C
100
AcDbDictionary
281
     1
  3
Layout1
350
1D
  3
Model
350
21
  0
DICTIONARY
  5
1869
102
{ACAD_REACTORS
330
C
102
}
330
C
100
AcDbDictionary
281
     1
  0
DICTIONARY
  5
16
102
{ACAD_REACTORS
330
C
102
}
330
C
100
AcDbDictionary
281
     1
  3
Standard
350
17
  0
DICTIONARY
  5
18
102
{ACAD_REACTORS
330
C
102
}
330
C
100
AcDbDictionary
281
     1
  0
ACDBDICTIONARYWDFLT
  5
E
102
{ACAD_REACTORS
330
C
102
}
330
C
100
AcDbDictionary
281
     1
  3
Normal
350
F
100
AcDbDictionaryWithDefault
340
F
  0
DICTIONARY
  5
246
102
{ACAD_REACTORS
330
C
102
}
330
C
100
AcDbDictionary
281
     1
  3
DIMASSOC
350
1898
  3
PROJECTNAME
350
1899
  3
SORTENTS
350
247
  0
LAYOUT
  5
1D
102
{ACAD_REACTORS
330
19
102
}
330
19
100
AcDbPlotSettings
  1

  2
Tektronix Phaser 740
  4

  6

 40
0.0
 41
0.0
 42
0.0
 43
0.0
 44
0.0
 45
0.0
 46
0.0
 47
0.0
 48
0.0
 49
0.0
140
0.0
141
0.0
142
1.0
143
1.0
 70
   688
 72
     0
 73
     0
 74
     5
  7
monochrome.ctb
 75
    16
147
1.0
 76
     0
 77
     2
 78
   300
148
0.0
149
0.0
100
AcDbLayout
  1
Layout1
 70
     0
 71
     1
 10
0.0
 20
0.0
 11
12.0
 21
9.0
 12
0.0
 22
0.0
 32
0.0
 14
1.000000000000000E+20
 24
1.000000000000000E+20
 34
1.000000000000000E+20
 15
-1.000000000000000E+20
 25
-1.000000000000000E+20
 35
-1.000000000000000E+20
146
0.0
 13
0.0
 23
0.0
 33
0.0
 16
1.0
 26
0.0
 36
0.0
 17
0.0
 27
1.0
 37
0.0
 76
     0
330
1A
  0
LAYOUT
  5
21
102
{ACAD_REACTORS
330
19
102
}
330
19
100
AcDbPlotSettings
  1

  2
Tektronix Phaser 740
  4
A4
  6

 40
5.873749732971191
 41
6.085414409637451
 42
5.577407836914062
 43
5.662078857421875
 44
209.9733276367187
 45
296.9683227539062
 46
0.0
 47
0.0
 48
0.0
 49
0.0
140
0.0
141
0.0
142
1.0
143
1.0
 70
 11952
 72
     0
 73
     1
 74
     0
  7
monochrome.ctb
 75
     0
147
1.0
 76
     0
 77
     2
 78
   300
148
1150.120678237584
149
45.30495740799864
100
AcDbLayout
  1
Model
 70
     1
 71
     0
 10
0.0
 20
0.0
 11
12.0
 21
9.0
 12
0.0
 22
0.0
 32
0.0
 14
0.0
 24
0.0
 34
0.0
 15
0.0
 25
0.0
 35
0.0
146
0.0
 13
0.0
 23
0.0
 33
0.0
 16
1.0
 26
0.0
 36
0.0
 17
0.0
 27
1.0
 37
0.0
 76
     0
330
1E
  0
MLINESTYLE
  5
17
102
{ACAD_REACTORS
330
16
102
}
330
16
100
AcDbMlineStyle
  2
STANDARD
 70
     0
  3

 62
   256
 51
90.0
 52
90.0
 71
     2
 49
0.5
 62
   256
  6
BYLAYER
 49
-0.5
 62
   256
  6
BYLAYER
  0
ACDBPLACEHOLDER
  5
F
102
{ACAD_REACTORS
330
E
102
}
330
E
  0
DICTIONARYVAR
  5
1898
102
{ACAD_REACTORS
330
246
102
}
330
246
100
DictionaryVariables
280
     0
  1
1
  0
DICTIONARYVAR
  5
1899
102
{ACAD_REACTORS
330
246
102
}
330
246
100
DictionaryVariables
280
     0
  1

  0
DICTIONARYVAR
  5
247
102
{ACAD_REACTORS
330
246
102
}
330
246
100
DictionaryVariables
280
     0
  1
96
  0
ENDSEC
  0
EOF
