  0
SECTION
  2
HEADER
  9
$ACADVER
  1
AC1018
  9
$ACADMAINTVER
 70
     2
  9
$DWGCODEPAGE
  3
ANSI_1252
  9
$INSBASE
 10
0.0
 20
0.0
 30
0.0
  9
$EXTMIN
 10
-0.0128164049388033
 20
-0.0181260584133725
 30
-0.0015258207003583
  9
$EXTMAX
 10
420.012818360716
 20
594.0181288244416
 30
0.0000000349246037
  9
$LIMMIN
 10
0.0
 20
0.0
  9
$LIMMAX
 10
419.9999999999999
 20
594.0
  9
$ORTHOMODE
 70
     0
  9
$REGENMODE
 70
     1
  9
$FILLMODE
 70
     1
  9
$QTEXTMODE
 70
     0
  9
$MIRRTEXT
 70
     1
  9
$LTSCALE
 40
20.0
  9
$ATTMODE
 70
     1
  9
$TEXTSIZE
 40
3.5
  9
$TRACEWID
 40
0.5
  9
$TEXTSTYLE
  7
STANDARD
  9
$CLAYER
  8
SCHRAFF
  9
$CELTYPE
  6
ByLayer
  9
$CECOLOR
 62
   256
  9
$CELTSCALE
 40
1.0
  9
$DISPSILH
 70
     0
  9
$DIMSCALE
 40
2.0
  9
$DIMASZ
 40
3.5
  9
$DIMEXO
 40
1.0
  9
$DIMDLI
 40
7.0
  9
$DIMRND
 40
0.0
  9
$DIMDLE
 40
0.0
  9
$DIMEXE
 40
1.0
  9
$DIMTP
 40
0.0
  9
$DIMTM
 40
0.0
  9
$DIMTXT
 40
3.5
  9
$DIMCEN
 40
1.5
  9
$DIMTSZ
 40
0.0
  9
$DIMTOL
 70
     0
  9
$DIMLIM
 70
     0
  9
$DIMTIH
 70
     0
  9
$DIMTOH
 70
     0
  9
$DIMSE1
 70
     0
  9
$DIMSE2
 70
     0
  9
$DIMTAD
 70
     1
  9
$DIMZIN
 70
     8
  9
$DIMBLK
  1

  9
$DIMASO
 70
     1
  9
$DIMSHO
 70
     0
  9
$DIMPOST
  1

  9
$DIMAPOST
  1

  9
$DIMALT
 70
     0
  9
$DIMALTD
 70
     2
  9
$DIMALTF
 40
25.4
  9
$DIMLFAC
 40
1.0
  9
$DIMTOFL
 70
     1
  9
$DIMTVP
 40
0.0
  9
$DIMTIX
 70
     0
  9
$DIMSOXD
 70
     0
  9
$DIMSAH
 70
     0
  9
$DIMBLK1
  1

  9
$DIMBLK2
  1

  9
$DIMSTYLE
  2
Standard
  9
$DIMCLRD
 70
     0
  9
$DIMCLRE
 70
     0
  9
$DIMCLRT
 70
     1
  9
$DIMTFAC
 40
0.5142857142857144
  9
$DIMGAP
 40
1.5
  9
$DIMJUST
 70
     0
  9
$DIMSD1
 70
     0
  9
$DIMSD2
 70
     0
  9
$DIMTOLJ
 70
     1
  9
$DIMTZIN
 70
     8
  9
$DIMALTZ
 70
     8
  9
$DIMALTTZ
 70
     8
  9
$DIMUPT
 70
     0
  9
$DIMDEC
 70
     2
  9
$DIMTDEC
 70
     2
  9
$DIMALTU
 70
     2
  9
$DIMALTTD
 70
     2
  9
$DIMTXSTY
  7
STANDARD
  9
$DIMAUNIT
 70
     0
  9
$DIMADEC
 70
     2
  9
$DIMALTRND
 40
0.0
  9
$DIMAZIN
 70
     2
  9
$DIMDSEP
 70
    46
  9
$DIMATFIT
 70
     3
  9
$DIMFRAC
 70
     0
  9
$DIMLDRBLK
  1

  9
$DIMLUNIT
 70
     2
  9
$DIMLWD
 70
    -2
  9
$DIMLWE
 70
    -2
  9
$DIMTMOVE
 70
     0
  9
$LUNITS
 70
     2
  9
$LUPREC
 70
     2
  9
$SKETCHINC
 40
1.0
  9
$FILLETRAD
 40
0.0
  9
$AUNITS
 70
     1
  9
$AUPREC
 70
     3
  9
$MENU
  1
ACAD
  9
$ELEVATION
 40
0.0
  9
$PELEVATION
 40
0.0
  9
$THICKNESS
 40
0.0
  9
$LIMCHECK
 70
     0
  9
$CHAMFERA
 40
0.0
  9
$CHAMFERB
 40
0.0
  9
$CHAMFERC
 40
0.0
  9
$CHAMFERD
 40
0.0
  9
$SKPOLY
 70
     0
  9
$TDCREATE
 40
2452040.637099653
  9
$TDUCREATE
 40
2452040.553766320
  9
$TDUPDATE
 40
2455666.413823762
  9
$TDUUPDATE
 40
2455666.330490428
  9
$TDINDWG
 40
0.4544837153
  9
$TDUSRTIMER
 40
0.4544837153
  9
$USRTIMER
 70
     1
  9
$ANGBASE
 50
0.0
  9
$ANGDIR
 70
     0
  9
$PDMODE
 70
     0
  9
$PDSIZE
 40
0.0
  9
$PLINEWID
 40
0.0
  9
$SPLFRAME
 70
     0
  9
$SPLINETYPE
 70
     6
  9
$SPLINESEGS
 70
     8
  9
$HANDSEED
  5
1D9D
  9
$SURFTAB1
 70
     6
  9
$SURFTAB2
 70
     6
  9
$SURFTYPE
 70
     6
  9
$SURFU
 70
     6
  9
$SURFV
 70
     6
  9
$UCSBASE
  2

  9
$UCSNAME
  2

  9
$UCSORG
 10
0.0
 20
0.0
 30
0.0
  9
$UCSXDIR
 10
1.0
 20
0.0
 30
0.0
  9
$UCSYDIR
 10
0.0
 20
1.0
 30
0.0
  9
$UCSORTHOREF
  2

  9
$UCSORTHOVIEW
 70
     0
  9
$UCSORGTOP
 10
0.0
 20
0.0
 30
0.0
  9
$UCSORGBOTTOM
 10
0.0
 20
0.0
 30
0.0
  9
$UCSORGLEFT
 10
0.0
 20
0.0
 30
0.0
  9
$UCSORGRIGHT
 10
0.0
 20
0.0
 30
0.0
  9
$UCSORGFRONT
 10
0.0
 20
0.0
 30
0.0
  9
$UCSORGBACK
 10
0.0
 20
0.0
 30
0.0
  9
$PUCSBASE
  2

  9
$PUCSNAME
  2

  9
$PUCSORG
 10
0.0
 20
0.0
 30
0.0
  9
$PUCSXDIR
 10
1.0
 20
0.0
 30
0.0
  9
$PUCSYDIR
 10
0.0
 20
1.0
 30
0.0
  9
$PUCSORTHOREF
  2

  9
$PUCSORTHOVIEW
 70
     0
  9
$PUCSORGTOP
 10
0.0
 20
0.0
 30
0.0
  9
$PUCSORGBOTTOM
 10
0.0
 20
0.0
 30
0.0
  9
$PUCSORGLEFT
 10
0.0
 20
0.0
 30
0.0
  9
$PUCSORGRIGHT
 10
0.0
 20
0.0
 30
0.0
  9
$PUCSORGFRONT
 10
0.0
 20
0.0
 30
0.0
  9
$PUCSORGBACK
 10
0.0
 20
0.0
 30
0.0
  9
$USERI1
 70
     0
  9
$USERI2
 70
     0
  9
$USERI3
 70
     0
  9
$USERI4
 70
     0
  9
$USERI5
 70
     0
  9
$USERR1
 40
0.0
  9
$USERR2
 40
0.0
  9
$USERR3
 40
0.0
  9
$USERR4
 40
0.0
  9
$USERR5
 40
0.0
  9
$WORLDVIEW
 70
     1
  9
$SHADEDGE
 70
     3
  9
$SHADEDIF
 70
    70
  9
$TILEMODE
 70
     1
  9
$MAXACTVP
 70
    16
  9
$PINSBASE
 10
0.0
 20
0.0
 30
0.0
  9
$PLIMCHECK
 70
     0
  9
$PEXTMIN
 10
1.000000000000000E+20
 20
1.000000000000000E+20
 30
1.000000000000000E+20
  9
$PEXTMAX
 10
-1.000000000000000E+20
 20
-1.000000000000000E+20
 30
-1.000000000000000E+20
  9
$PLIMMIN
 10
0.0
 20
0.0
  9
$PLIMMAX
 10
12.0
 20
9.0
  9
$UNITMODE
 70
     0
  9
$VISRETAIN
 70
     0
  9
$PLINEGEN
 70
     0
  9
$PSLTSCALE
 70
     0
  9
$TREEDEPTH
 70
  3020
  9
$CMLSTYLE
  2
Standard
  9
$CMLJUST
 70
     0
  9
$CMLSCALE
 40
1.0
  9
$PROXYGRAPHICS
 70
     1
  9
$MEASUREMENT
 70
     0
  9
$CELWEIGHT
370
    -1
  9
$ENDCAPS
280
     0
  9
$JOINSTYLE
280
     0
  9
$LWDISPLAY
290
     0
  9
$INSUNITS
 70
     0
  9
$HYPERLINKBASE
  1

  9
$STYLESHEET
  1
monochrome 1.ctb
  9
$XEDIT
290
     1
  9
$CEPSNTYPE
380
     0
  9
$PSTYLEMODE
290
     1
  9
$FINGERPRINTGUID
  2
{7AADB5C8-6110-11D8-B72B-000102183313}
  9
$VERSIONGUID
  2
{AF2CD1A3-77D3-4115-913C-F3B3ED39737D}
  9
$EXTNAMES
290
     1
  9
$PSVPSCALE
 40
0.0
  9
$OLESTARTUP
290
     0
  9
$SORTENTS
280
    96
  9
$INDEXCTL
280
     0
  9
$HIDETEXT
280
     0
  9
$XCLIPFRAME
290
     0
  9
$HALOGAP
280
     0
  9
$OBSCOLOR
 70
   257
  9
$OBSLTYPE
280
     0
  9
$INTERSECTIONDISPLAY
280
     0
  9
$INTERSECTIONCOLOR
 70
   257
  9
$DIMASSOC
280
     1
  9
$PROJECTNAME
  1

  0
ENDSEC
  0
SECTION
  2
CLASSES
  0
CLASS
  1
ACDBDICTIONARYWDFLT
  2
AcDbDictionaryWithDefault
  3
ObjectDBX Classes
 90
        0
 91
        1
280
     0
281
     0
  0
CLASS
  1
DICTIONARYVAR
  2
AcDbDictionaryVar
  3
ObjectDBX Classes
 90
        0
 91
        3
280
     0
281
     0
  0
ENDSEC
  0
SECTION
  2
TABLES
  0
TABLE
  2
VPORT
  5
8
330
0
100
AcDbSymbolTable
 70
     3
  0
VPORT
  5
1D9C
330
8
100
AcDbSymbolTableRecord
100
AcDbViewportTableRecord
  2
*Active
 70
     0
 10
0.0
 20
0.0
 11
1.0
 21
1.0
 12
210.0
 22
297.0
 13
0.0
 23
0.0
 14
1.0
 24
1.0
 15
10.0
 25
10.0
 16
0.0
 26
0.0
 36
1.0
 17
0.0
 27
0.0
 37
0.0
 40
594.0
 41
1.334231805929919
 42
50.0
 43
0.0
 44
0.0
 50
0.0
 51
0.0
 71
     0
 72
  1500
 73
     1
 74
     0
 75
     0
 76
     0
 77
     0
 78
     0
281
     0
 65
     1
110
0.0
120
0.0
130
0.0
111
1.0
121
0.0
131
0.0
112
0.0
122
1.0
132
0.0
 79
     0
146
0.0
  0
ENDTAB
  0
TABLE
  2
LTYPE
  5
5
330
0
100
AcDbSymbolTable
 70
     2
  0
LTYPE
  5
13
330
5
100
AcDbSymbolTableRecord
100
AcDbLinetypeTableRecord
  2
ByBlock
 70
     0
  3

 72
    65
 73
     0
 40
0.0
  0
LTYPE
  5
14
330
5
100
AcDbSymbolTableRecord
100
AcDbLinetypeTableRecord
  2
ByLayer
 70
     0
  3

 72
    65
 73
     0
 40
0.0
  0
LTYPE
  5
15
330
5
100
AcDbSymbolTableRecord
100
AcDbLinetypeTableRecord
  2
Continuous
 70
     0
  3
Solid line
 72
    65
 73
     0
 40
0.0
  0
LTYPE
  5
35
330
5
100
AcDbSymbolTableRecord
100
AcDbLinetypeTableRecord
  2
STRICHPUNKT
 70
     0
  3
__ . __ . __ . __ . __ . __ . __ . __ . __ . __
 72
    65
 73
     4
 40
1.0
 49
0.5
 74
     0
 49
-0.25
 74
     0
 49
0.0
 74
     0
 49
-0.25
 74
     0
  0
ENDTAB
  0
TABLE
  2
LAYER
  5
2
330
0
100
AcDbSymbolTable
 70
     9
  0
LAYER
  5
10
330
2
100
AcDbSymbolTableRecord
100
AcDbLayerTableRecord
  2
0
 70
     0
 62
     7
  6
Continuous
370
    -3
390
F
  0
LAYER
  5
38
330
2
100
AcDbSymbolTableRecord
100
AcDbLayerTableRecord
  2
VOLL
 70
     0
 62
     1
  6
Continuous
370
    -3
390
F
  0
LAYER
  5
39
330
2
100
AcDbSymbolTableRecord
100
AcDbLayerTableRecord
  2
HILF
 70
     0
 62
     2
  6
Continuous
370
    -3
390
F
  0
LAYER
  5
3A
330
2
100
AcDbSymbolTableRecord
100
AcDbLayerTableRecord
  2
MITTEL
 70
     0
 62
     2
  6
STRICHPUNKT
370
    -3
390
F
  0
LAYER
  5
3B
330
2
100
AcDbSymbolTableRecord
100
AcDbLayerTableRecord
  2
BEM
 70
     0
 62
     7
  6
Continuous
370
    -3
390
F
  0
LAYER
  5
3C
330
2
100
AcDbSymbolTableRecord
100
AcDbLayerTableRecord
  2
STEMPEL
 70
     0
 62
     3
  6
Continuous
370
    -3
390
F
  0
LAYER
  5
3D
330
2
100
AcDbSymbolTableRecord
100
AcDbLayerTableRecord
  2
TEXT
 70
     0
 62
     7
  6
Continuous
370
    -3
390
F
  0
LAYER
  5
3E
330
2
100
AcDbSymbolTableRecord
100
AcDbLayerTableRecord
  2
DEFPOINTS
 70
     0
 62
     7
  6
Continuous
290
     0
370
    -3
390
F
  0
LAYER
  5
3F
330
2
100
AcDbSymbolTableRecord
100
AcDbLayerTableRecord
  2
SCHRAFF
 70
     0
 62
     7
  6
Continuous
370
    -3
390
F
  0
ENDTAB
  0
TABLE
  2
STYLE
  5
3
330
0
100
AcDbSymbolTable
 70
     2
  0
STYLE
  5
11
330
3
100
AcDbSymbolTableRecord
100
AcDbTextStyleTableRecord
  2
STANDARD
 70
     0
 40
0.0
 41
0.8
 50
0.0
 71
     0
 42
3.5
  3
simplex.shx
  4

  0
STYLE
  5
34
330
3
100
AcDbSymbolTableRecord
100
AcDbTextStyleTableRecord
  2
GREEKS
 70
     0
 40
0.0
 41
0.8
 50
0.0
 71
     0
 42
2.5
  3
SIMPLEX.shx
  4

  0
ENDTAB
  0
TABLE
  2
VIEW
  5
6
330
0
100
AcDbSymbolTable
 70
     0
  0
ENDTAB
  0
TABLE
  2
UCS
  5
7
330
0
100
AcDbSymbolTable
 70
     0
  0
ENDTAB
  0
TABLE
  2
APPID
  5
9
330
0
100
AcDbSymbolTable
 70
     2
  0
APPID
  5
12
330
9
100
AcDbSymbolTableRecord
100
AcDbRegAppTableRecord
  2
ACAD
 70
     0
  0
APPID
  5
1555
330
9
100
AcDbSymbolTableRecord
100
AcDbRegAppTableRecord
  2
AVE_RENDER
 70
     0
  0
ENDTAB
  0
TABLE
  2
DIMSTYLE
  5
A
330
0
100
AcDbSymbolTable
 70
     1
100
AcDbDimStyleTable
 71
     1
340
1CB
  0
DIMSTYLE
105
1CB
102
{ACAD_REACTORS
330
170F
330
1AB8
330
1AD2
330
1AE8
330
1C97
102
}
330
A
100
AcDbSymbolTableRecord
100
AcDbDimStyleTableRecord
  2
Standard
 70
     0
340
11
  0
ENDTAB
  0
TABLE
  2
BLOCK_RECORD
  5
1
330
0
100
AcDbSymbolTable
 70
     7
  0
BLOCK_RECORD
  5
1E
330
1
100
AcDbSymbolTableRecord
100
AcDbBlockTableRecord
  2
*Model_Space
340
21
  0
BLOCK_RECORD
  5
1A
330
1
100
AcDbSymbolTableRecord
100
AcDbBlockTableRecord
  2
*Paper_Space
340
1D
  0
BLOCK_RECORD
  5
22
330
1
100
AcDbSymbolTableRecord
100
AcDbBlockTableRecord
  2
LOGO
340
0
102
{BLKREFS
331
135
102
}
  0
BLOCK_RECORD
  5
1710
330
1
100
AcDbSymbolTableRecord
100
AcDbBlockTableRecord
  2
*D1
340
0
  0
BLOCK_RECORD
  5
1AB9
330
1
100
AcDbSymbolTableRecord
100
AcDbBlockTableRecord
  2
*D2
340
0
  0
BLOCK_RECORD
  5
1AD3
330
1
100
AcDbSymbolTableRecord
100
AcDbBlockTableRecord
  2
*D3
340
0
  0
BLOCK_RECORD
  5
1AE9
330
1
100
AcDbSymbolTableRecord
100
AcDbBlockTableRecord
  2
*D4
340
0
  0
BLOCK_RECORD
  5
1C98
330
1
100
AcDbSymbolTableRecord
100
AcDbBlockTableRecord
  2
*D6
340
0
  0
ENDTAB
  0
ENDSEC
  0
SECTION
  2
BLOCKS
  0
BLOCK
  5
43
330
1E
100
AcDbEntity
  8
0
100
AcDbBlockBegin
  2
*Model_Space
 70
     0
 10
0.0
 20
0.0
 30
0.0
  3
*Model_Space
  1

  0
ENDBLK
  5
44
330
1E
100
AcDbEntity
  8
0
100
AcDbBlockEnd
  0
BLOCK
  5
41
330
1A
100
AcDbEntity
 67
     1
  8
0
100
AcDbBlockBegin
  2
*Paper_Space
 70
     0
 10
0.0
 20
0.0
 30
0.0
  3
*Paper_Space
  1

  0
ENDBLK
  5
42
330
1A
100
AcDbEntity
 67
     1
  8
0
100
AcDbBlockEnd
  0
BLOCK
  5
45
330
22
100
AcDbEntity
  8
0
100
AcDbBlockBegin
  2
LOGO
 70
     0
 10
0.0
 20
0.0
 30
0.0
  3
LOGO
  1

  0
ARC
  5
46
330
22
100
AcDbEntity
  8
0
100
AcDbCircle
 10
11.59973089678112
 20
-9.271599258481501
 30
0.0
 40
4.5
100
AcDbArc
 50
270.0
 51
231.0575587310159
  0
LINE
  5
47
330
22
100
AcDbEntity
  8
0
100
AcDbLine
 10
3.599730896781125
 20
-4.771599258481529
 30
0.0
 11
3.599730896781153
 21
-11.77159925848133
 31
0.0
  0
LINE
  5
48
330
22
100
AcDbEntity
  8
0
100
AcDbLine
 10
2.599730896781125
 20
-4.771599258481529
 30
0.0
 11
2.599730896781153
 21
-11.77159925848133
 31
0.0
  0
CIRCLE
  5
49
330
22
100
AcDbEntity
  8
0
100
AcDbCircle
 10
11.59973089678112
 20
-9.271599258481501
 30
0.0
 40
3.5
  0
ARC
  5
4A
330
22
100
AcDbEntity
  8
0
100
AcDbCircle
 10
31.59973089678115
 20
-9.271599258481472
 30
0.0
 40
4.5
100
AcDbArc
 50
270.0
 51
231.0575587310182
  0
LINE
  5
4B
330
22
100
AcDbEntity
  8
0
100
AcDbLine
 10
17.59973089678112
 20
-4.771599258481472
 30
0.0
 11
17.59973089678115
 21
-13.77159925848147
 31
0.0
  0
ARC
  5
4C
330
22
100
AcDbEntity
  8
0
100
AcDbCircle
 10
22.59973089678116
 20
-7.271599258481472
 30
0.0
 40
2.5
100
AcDbArc
 50
293.1161887722295
 51
90.0
  0
CIRCLE
  5
4D
330
22
100
AcDbEntity
  8
0
100
AcDbCircle
 10
31.59973089678115
 20
-9.271599258481472
 30
0.0
 40
3.5
  0
ARC
  5
4E
330
22
100
AcDbEntity
  8
0
100
AcDbCircle
 10
4.599730896781153
 20
-11.77159925848133
 30
0.0
 40
1.0
100
AcDbArc
 50
180.0
 51
270.0
  0
ARC
  5
4F
330
22
100
AcDbEntity
  8
0
100
AcDbCircle
 10
4.599730896781153
 20
-11.77159925848133
 30
0.0
 40
2.0
100
AcDbArc
 50
179.9999999999992
 51
270.0
  0
LINE
  5
50
330
22
100
AcDbEntity
  8
0
100
AcDbLine
 10
11.59973089678115
 20
-13.77159925848144
 30
0.0
 11
4.599730896781153
 21
-13.77159925848147
 31
0.0
  0
LINE
  5
51
330
22
100
AcDbEntity
  8
0
100
AcDbLine
 10
8.771303772034769
 20
-12.77159925848136
 30
0.0
 11
4.599730896781153
 21
-12.77159925848133
 31
0.0
  0
LINE
  5
52
330
22
100
AcDbEntity
  8
0
100
AcDbLine
 10
31.59973089678115
 20
-13.77159925848147
 30
0.0
 11
23.6715276665056
 21
-13.77159925848144
 31
0.0
  0
LINE
  5
53
330
22
100
AcDbEntity
  8
0
100
AcDbLine
 10
23.56565672307022
 20
-9.51278021337896
 30
0.0
 11
24.4388546544846
 21
-12.77159925848144
 31
0.0
  0
LINE
  5
54
330
22
100
AcDbEntity
  8
0
100
AcDbLine
 10
22.59973089678116
 20
-9.771599258481472
 30
0.0
 11
18.59973089678112
 21
-9.771599258481472
 31
0.0
  0
LINE
  5
55
330
22
100
AcDbEntity
  8
0
100
AcDbLine
 10
18.59973089678115
 20
-13.77159925848144
 30
0.0
 11
17.59973089678115
 21
-13.77159925848144
 31
0.0
  0
LINE
  5
56
330
22
100
AcDbEntity
  8
0
100
AcDbLine
 10
18.59973089678115
 20
-9.771599258481472
 30
0.0
 11
18.59973089678115
 21
-13.77159925848144
 31
0.0
  0
LINE
  5
57
330
22
100
AcDbEntity
  8
0
100
AcDbLine
 10
22.59973089678116
 20
-9.771599258481472
 30
0.0
 11
23.67152766650562
 21
-13.77159925848147
 31
0.0
  0
ARC
  5
58
330
22
100
AcDbEntity
  8
0
100
AcDbCircle
 10
22.59973089678116
 20
-7.271599258481472
 30
0.0
 40
2.5
100
AcDbArc
 50
270.0
 51
270.0000000000007
  0
LINE
  5
59
330
22
100
AcDbEntity
  8
0
100
AcDbLine
 10
28.77130377203494
 20
-12.77159925848147
 30
0.0
 11
24.43885465448463
 21
-12.77159925848144
 31
0.0
  0
LINE
  5
5A
330
22
100
AcDbEntity
  8
0
100
AcDbLine
 10
3.599730896781125
 20
-4.771599258481472
 30
0.0
 11
2.599730896781125
 21
-4.771599258481472
 31
0.0
  0
LINE
  5
5B
330
22
100
AcDbEntity
  8
0
100
AcDbLine
 10
22.59973089678116
 20
-8.771599258481472
 30
0.0
 11
18.59973089678115
 21
-8.771599258481472
 31
0.0
  0
LINE
  5
5C
330
22
100
AcDbEntity
  8
0
100
AcDbLine
 10
22.59973089678116
 20
-5.771599258481472
 30
0.0
 11
18.59973089678115
 21
-5.771599258481472
 31
0.0
  0
LINE
  5
5D
330
22
100
AcDbEntity
  8
0
100
AcDbLine
 10
22.59973089678116
 20
-4.771599258481472
 30
0.0
 11
17.59973089678115
 21
-4.771599258481472
 31
0.0
  0
LINE
  5
5E
330
22
100
AcDbEntity
  8
0
100
AcDbLine
 10
18.59973089678115
 20
-5.771599258481472
 30
0.0
 11
18.59973089678115
 21
-8.771599258481472
 31
0.0
  0
ARC
  5
5F
330
22
100
AcDbEntity
  8
0
100
AcDbCircle
 10
22.59973089678116
 20
-7.271599258481472
 30
0.0
 40
1.5
100
AcDbArc
 50
270.0
 51
90.0
  0
ENDBLK
  5
60
330
22
100
AcDbEntity
  8
0
100
AcDbBlockEnd
  0
BLOCK
  5
171A
330
1710
100
AcDbEntity
  8
0
100
AcDbBlockBegin
  2
*D1
 70
     1
 10
0.0
 20
0.0
 30
0.0
  3
*D1
  1

  0
LINE
  5
1C83
330
1710
100
AcDbEntity
  8
BEM
 62
     0
370
    -2
100
AcDbLine
 10
133.2014018254324
 20
200.1306522741827
 30
0.0
 11
103.6767863415932
 21
200.1306522741827
 31
0.0
  0
LINE
  5
1C84
330
1710
100
AcDbEntity
  8
BEM
 62
     0
370
    -2
100
AcDbLine
 10
183.3014925172251
 20
310.1306522741824
 30
0.0
 11
103.6767863415932
 21
310.1306522741825
 31
0.0
  0
LINE
  5
1C85
330
1710
100
AcDbEntity
  8
BEM
 62
     0
370
    -2
100
AcDbLine
 10
105.6767863415932
 20
207.1306522741827
 30
0.0
 11
105.6767863415932
 21
303.1306522741825
 31
0.0
  0
SOLID
  5
1C86
330
1710
100
AcDbEntity
  8
BEM
 62
     0
100
AcDbTrace
 10
104.5101196749265
 20
207.1306522741827
 30
0.0
 11
106.8434530082599
 21
207.1306522741827
 31
0.0
 12
105.6767863415932
 22
200.1306522741827
 32
0.0
 13
105.6767863415932
 23
200.1306522741827
 33
0.0
  0
SOLID
  5
1C87
330
1710
100
AcDbEntity
  8
BEM
 62
     0
100
AcDbTrace
 10
104.5101196749265
 20
303.1306522741825
 30
0.0
 11
106.8434530082599
 21
303.1306522741825
 31
0.0
 12
105.6767863415932
 22
310.1306522741825
 32
0.0
 13
105.6767863415932
 23
310.1306522741825
 33
0.0
  0
MTEXT
  5
1C88
330
1710
100
AcDbEntity
  8
BEM
 62
     1
100
AcDbMText
 10
99.17678634159317
 20
255.1306522741826
 30
0.0
 40
7.0
 41
0.0
 71
     5
 72
     1
  1
\A1;110
 11
0.0000000000000001
 21
1.0
 31
0.0
 73
     1
 44
1.0
  0
POINT
  5
1C89
330
1710
100
AcDbEntity
  8
DEFPOINTS
 62
     0
100
AcDbPoint
 10
135.2014018254324
 20
200.1306522741827
 30
0.0
  0
POINT
  5
1C8A
330
1710
100
AcDbEntity
  8
DEFPOINTS
 62
     0
100
AcDbPoint
 10
185.3014925172251
 20
310.1306522741824
 30
0.0
  0
POINT
  5
1C8B
330
1710
100
AcDbEntity
  8
DEFPOINTS
 62
     0
100
AcDbPoint
 10
105.6767863415932
 20
310.1306522741825
 30
0.0
  0
ENDBLK
  5
171B
330
1710
100
AcDbEntity
  8
0
100
AcDbBlockEnd
  0
BLOCK
  5
1AC3
330
1AB9
100
AcDbEntity
  8
0
100
AcDbBlockBegin
  2
*D2
 70
     1
 10
0.0
 20
0.0
 30
0.0
  3
*D2
  1

  0
LINE
  5
1C68
330
1AB9
100
AcDbEntity
  8
BEM
 62
     0
370
    -2
100
AcDbLine
 10
128.6417095985019
 20
535.1339451785129
 30
0.0
 11
86.95827667121555
 21
535.1339451785129
 31
0.0
  0
LINE
  5
1C69
330
1AB9
100
AcDbEntity
  8
BEM
 62
     0
370
    -2
100
AcDbLine
 10
133.2014018254324
 20
200.1306522741827
 30
0.0
 11
86.95827667121548
 21
200.1306522741827
 31
0.0
  0
LINE
  5
1C6A
330
1AB9
100
AcDbEntity
  8
BEM
 62
     0
370
    -2
100
AcDbLine
 10
88.95827667121556
 20
528.1339451785129
 30
0.0
 11
88.95827667121549
 21
207.1306522741827
 31
0.0
  0
SOLID
  5
1C6B
330
1AB9
100
AcDbEntity
  8
BEM
 62
     0
100
AcDbTrace
 10
87.79161000454889
 20
528.1339451785129
 30
0.0
 11
90.12494333788223
 21
528.1339451785129
 31
0.0
 12
88.95827667121556
 22
535.1339451785129
 32
0.0
 13
88.95827667121556
 23
535.1339451785129
 33
0.0
  0
SOLID
  5
1C6C
330
1AB9
100
AcDbEntity
  8
BEM
 62
     0
100
AcDbTrace
 10
87.79161000454882
 20
207.1306522741827
 30
0.0
 11
90.12494333788216
 21
207.1306522741827
 31
0.0
 12
88.95827667121549
 22
200.1306522741827
 32
0.0
 13
88.95827667121549
 23
200.1306522741827
 33
0.0
  0
MTEXT
  5
1C6D
330
1AB9
100
AcDbEntity
  8
BEM
 62
     1
100
AcDbMText
 10
82.45827667121547
 20
367.6322987263478
 30
0.0
 40
7.0
 41
0.0
 71
     5
 72
     1
  1
\A1;335
 11
0.0000000000000001
 21
1.0
 31
0.0
 73
     1
 44
1.0
  0
POINT
  5
1C6E
330
1AB9
100
AcDbEntity
  8
DEFPOINTS
 62
     0
100
AcDbPoint
 10
130.6417095985019
 20
535.1339451785129
 30
0.0
  0
POINT
  5
1C6F
330
1AB9
100
AcDbEntity
  8
DEFPOINTS
 62
     0
100
AcDbPoint
 10
135.2014018254324
 20
200.1306522741827
 30
0.0
  0
POINT
  5
1C70
330
1AB9
100
AcDbEntity
  8
DEFPOINTS
 62
     0
100
AcDbPoint
 10
88.95827667121549
 20
200.1306522741827
 30
0.0
  0
ENDBLK
  5
1AC4
330
1AB9
100
AcDbEntity
  8
0
100
AcDbBlockEnd
  0
BLOCK
  5
1ADD
330
1AD3
100
AcDbEntity
  8
0
100
AcDbBlockBegin
  2
*D3
 70
     1
 10
0.0
 20
0.0
 30
0.0
  3
*D3
  1

  0
LINE
  5
1C8C
330
1AD3
100
AcDbEntity
  8
BEM
 62
     0
370
    -2
100
AcDbLine
 10
186.7157060795982
 20
308.7164387118094
 30
0.0
 11
243.8794761140649
 21
251.5526686773421
 31
0.0
  0
LINE
  5
1C8D
330
1AD3
100
AcDbEntity
  8
BEM
 62
     0
370
    -2
100
AcDbLine
 10
384.4650350065854
 20
429.1651613187686
 30
0.0
 11
402.9785018810391
 21
410.6516944443147
 31
0.0
  0
LINE
  5
1C8E
330
1AD3
100
AcDbEntity
  8
BEM
 62
     0
370
    -2
100
AcDbLine
 10
247.4150100199977
 20
257.916629708021
 30
0.0
 11
396.6145408503602
 21
407.116160538382
 31
0.0
  0
SOLID
  5
1C8F
330
1AD3
100
AcDbEntity
  8
BEM
 62
     0
100
AcDbTrace
 10
246.5900521086133
 20
258.7415876194053
 30
0.0
 11
248.2399679313819
 21
257.0916717966367
 31
0.0
 12
242.4652625516918
 22
252.9668822397152
 32
0.0
 13
242.4652625516918
 23
252.9668822397152
 33
0.0
  0
SOLID
  5
1C90
330
1AD3
100
AcDbEntity
  8
BEM
 62
     0
100
AcDbTrace
 10
395.7895829389759
 20
407.9411184497663
 30
0.0
 11
397.4394987617444
 21
406.2912026269977
 31
0.0
 12
401.564288318666
 22
412.0659080066878
 32
0.0
 13
401.564288318666
 23
412.0659080066878
 33
0.0
  0
MTEXT
  5
1C91
330
1AD3
100
AcDbEntity
  8
BEM
 62
     1
100
AcDbMText
 10
317.4185813574664
 20
337.1125892009141
 30
0.0
 40
7.0
 41
0.0
 71
     5
 72
     1
  1
\A1;225
 11
0.7071067811865511
 21
0.7071067811865439
 31
0.0
 73
     1
 44
1.0
  0
POINT
  5
1C92
330
1AD3
100
AcDbEntity
  8
DEFPOINTS
 62
     0
100
AcDbPoint
 10
185.3014925172251
 20
310.1306522741825
 30
0.0
  0
POINT
  5
1C93
330
1AD3
100
AcDbEntity
  8
DEFPOINTS
 62
     0
100
AcDbPoint
 10
383.0508214442123
 20
430.5793748811417
 30
0.0
  0
POINT
  5
1C94
330
1AD3
100
AcDbEntity
  8
DEFPOINTS
 62
     0
100
AcDbPoint
 10
401.564288318666
 20
412.0659080066879
 30
0.0
  0
ENDBLK
  5
1ADE
330
1AD3
100
AcDbEntity
  8
0
100
AcDbBlockEnd
  0
BLOCK
  5
1AF3
330
1AE9
100
AcDbEntity
  8
0
100
AcDbBlockBegin
  2
*D4
 70
     1
 10
0.0
 20
0.0
 30
0.0
  3
*D4
  1

  0
LINE
  5
1C56
330
1AE9
100
AcDbEntity
  8
BEM
 62
     0
370
    -2
100
AcDbLine
 10
134.501492517225
 20
206.1306522741827
 30
0.0
 11
134.501492517225
 21
177.0407630211054
 31
0.0
  0
LINE
  5
1C57
330
1AE9
100
AcDbEntity
  8
BEM
 62
     0
370
    -2
100
AcDbLine
 10
236.101492517225
 20
206.1306522741821
 30
0.0
 11
236.101492517225
 21
177.0407630211054
 31
0.0
  0
LINE
  5
1C58
330
1AE9
100
AcDbEntity
  8
BEM
 62
     0
370
    -2
100
AcDbLine
 10
141.501492517225
 20
179.0407630211054
 30
0.0
 11
229.101492517225
 21
179.0407630211054
 31
0.0
  0
SOLID
  5
1C59
330
1AE9
100
AcDbEntity
  8
BEM
 62
     0
100
AcDbTrace
 10
141.501492517225
 20
180.2074296877721
 30
0.0
 11
141.501492517225
 21
177.8740963544388
 31
0.0
 12
134.501492517225
 22
179.0407630211054
 32
0.0
 13
134.501492517225
 23
179.0407630211054
 33
0.0
  0
SOLID
  5
1C5A
330
1AE9
100
AcDbEntity
  8
BEM
 62
     0
100
AcDbTrace
 10
229.101492517225
 20
180.2074296877721
 30
0.0
 11
229.101492517225
 21
177.8740963544388
 31
0.0
 12
236.101492517225
 22
179.0407630211054
 32
0.0
 13
236.101492517225
 23
179.0407630211054
 33
0.0
  0
MTEXT
  5
1C5B
330
1AE9
100
AcDbEntity
  8
BEM
 62
     1
100
AcDbMText
 10
185.301492517225
 20
185.5407630211054
 30
0.0
 40
7.0
 41
0.0
 71
     5
 72
     1
  1
\A1;%%c101.6
 73
     1
 44
1.0
  0
POINT
  5
1C5C
330
1AE9
100
AcDbEntity
  8
DEFPOINTS
 62
     0
100
AcDbPoint
 10
134.501492517225
 20
208.1306522741827
 30
0.0
  0
POINT
  5
1C5D
330
1AE9
100
AcDbEntity
  8
DEFPOINTS
 62
     0
100
AcDbPoint
 10
236.101492517225
 20
208.1306522741821
 30
0.0
  0
POINT
  5
1C5E
330
1AE9
100
AcDbEntity
  8
DEFPOINTS
 62
     0
100
AcDbPoint
 10
236.101492517225
 20
179.0407630211054
 30
0.0
  0
ENDBLK
  5
1AF4
330
1AE9
100
AcDbEntity
  8
0
100
AcDbBlockEnd
  0
BLOCK
  5
1CA4
330
1C98
100
AcDbEntity
  8
0
100
AcDbBlockBegin
  2
*D6
 70
     1
 10
0.0
 20
0.0
 30
0.0
  3
*D6
  1

  0
LINE
  5
1CCA
330
1C98
100
AcDbEntity
  8
BEM
 62
     0
370
    -2
100
AcDbLine
 10
350.1156326172342
 20
476.0271845744839
 30
0.0
 11
362.9111586601693
 21
488.8227106174192
 31
0.0
  0
LINE
  5
1CCB
330
1C98
100
AcDbEntity
  8
BEM
 62
     0
370
    -2
100
AcDbLine
 10
186.0668593819553
 20
543.981704243535
 30
0.0
 11
186.0668593819555
 21
562.074017806822
 31
0.0
  0
ARC
  5
1CCC
330
1C98
100
AcDbEntity
  8
BEM
 62
     0
370
    -2
100
AcDbCircle
 10
186.0668593819553
 20
311.9784113392049
 30
0.0
 40
248.095606467617
100
AcDbArc
 50
46.61664999650024
 51
88.38335000349976
  0
SOLID
  5
1CCD
330
1C98
100
AcDbEntity
  8
BEM
 62
     0
100
AcDbTrace
 10
357.2910995682077
 20
493.1244374407001
 30
0.0
 11
355.6646240663517
 21
491.451409680528
 31
0.0
 12
361.4969450977962
 22
487.408497055046
 32
0.0
 13
361.4969450977962
 23
487.408497055046
 33
0.0
  0
SOLID
  5
1CCE
330
1C98
100
AcDbEntity
  8
BEM
 62
     0
100
AcDbTrace
 10
193.0497040665698
 20
558.8087149886534
 30
0.0
 11
193.0826214841046
 21
561.1418161197808
 31
0.0
 12
186.0668593819554
 22
560.0740178068218
 32
0.0
 13
186.0668593819554
 23
560.0740178068218
 33
0.0
  0
MTEXT
  5
1CCF
330
1C98
100
AcDbEntity
  8
BEM
 62
     1
100
AcDbMText
 10
283.4963799300545
 20
547.1940812219345
 30
0.0
 40
7.0
 41
0.0
 71
     5
 72
     1
  1
\A1;45°
 11
0.9238795325112871
 21
-0.3826834323650891
 31
0.0
 73
     1
 44
1.0
  0
POINT
  5
1CD0
330
1C98
100
AcDbEntity
  8
DEFPOINTS
 62
     0
100
AcDbPoint
 10
310.1146626157638
 20
526.835509107468
 30
0.0
  0
POINT
  5
1CD1
330
1C98
100
AcDbEntity
  8
DEFPOINTS
 62
     0
100
AcDbPoint
 10
186.0668593819553
 20
541.9817042435349
 30
0.0
  0
POINT
  5
1CD2
330
1C98
100
AcDbEntity
  8
DEFPOINTS
 62
     0
100
AcDbPoint
 10
348.7014190548612
 20
474.6129710121109
 30
0.0
  0
POINT
  5
1CD3
330
1C98
100
AcDbEntity
  8
DEFPOINTS
 62
     0
100
AcDbPoint
 10
186.0668593819553
 20
311.978411339205
 30
0.0
  0
POINT
  5
1CD4
330
1C98
100
AcDbEntity
  8
DEFPOINTS
 62
     0
100
AcDbPoint
 10
186.0668593819552
 20
196.9784113392052
 30
0.0
  0
ENDBLK
  5
1CA5
330
1C98
100
AcDbEntity
  8
0
100
AcDbBlockEnd
  0
ENDSEC
  0
SECTION
  2
ENTITIES
  0
TEXT
  5
134
330
1E
100
AcDbEntity
  8
TEXT
100
AcDbText
 10
204.4216048581257
 20
63.0896391972351
 30
0.0
 40
4.0
  1
Koeh
 41
0.8
  7
GREEKS
 72
     1
 11
209.6787477152686
 21
63.0896391972351
 31
0.0
100
AcDbText
  0
INSERT
  5
135
330
1E
100
AcDbEntity
  8
STEMPEL
100
AcDbBlockReference
  2
LOGO
 10
150.9955485457794
 20
45.02105276448322
 30
0.0
 41
2.0
 42
2.0
 43
2.0
  0
LINE
  5
136
330
1E
100
AcDbEntity
  8
HILF
100
AcDbLine
 10
420.0
 20
0.0
 30
0.0
 11
0.0
 21
0.0
 31
0.0
  0
LINE
  5
137
330
1E
100
AcDbEntity
  8
HILF
100
AcDbLine
 10
419.9999999999999
 20
594.0000000000002
 30
0.0
 11
0.0
 21
594.0
 31
0.0
  0
LINE
  5
138
330
1E
100
AcDbEntity
  8
STEMPEL
100
AcDbLine
 10
410.0
 20
584.0
 30
0.0
 11
39.99999999999989
 21
584.0
 31
0.0
  0
LINE
  5
139
330
1E
100
AcDbEntity
  8
STEMPEL
100
AcDbLine
 10
410.0
 20
10.0
 30
0.0
 11
39.99999999999989
 21
10.0
 31
0.0
  0
LINE
  5
13A
330
1E
100
AcDbEntity
  8
STEMPEL
100
AcDbLine
 10
49.99999999999989
 20
10.0
 30
0.0
 11
410.0
 21
10.0
 31
0.0
  0
TEXT
  5
13B
330
1E
100
AcDbEntity
  8
TEXT
100
AcDbText
 10
202.4626584226295
 20
73.30961091915225
 30
0.0
 40
4.0
  1
Name
 41
0.8
  7
GREEKS
100
AcDbText
  0
TEXT
  5
13C
330
1E
100
AcDbEntity
  8
TEXT
100
AcDbText
 10
196.5498279101549
 20
102.6506227776589
 30
0.0
 40
5.0
  1
Zul. Abw.
 41
0.8
  7
GREEKS
 72
     4
 11
209.9783993387263
 21
105.1506227776589
 31
0.0
100
AcDbText
  0
LINE
  5
13D
330
1E
100
AcDbEntity
  8
HILF
100
AcDbLine
 10
146.0000000000001
 20
49.99999999999997
 30
0.0
 11
230.0
 21
49.99999999999997
 31
0.0
  0
LINE
  5
13E
330
1E
100
AcDbEntity
  8
HILF
100
AcDbLine
 10
146.0000000000001
 20
59.99999999999997
 30
0.0
 11
230.0
 21
59.99999999999997
 31
0.0
  0
LINE
  5
13F
330
1E
100
AcDbEntity
  8
HILF
100
AcDbLine
 10
146.0000000000001
 20
69.99999999999994
 30
0.0
 11
230.0
 21
69.99999999999994
 31
0.0
  0
LINE
  5
140
330
1E
100
AcDbEntity
  8
STEMPEL
100
AcDbLine
 10
410.0
 20
80.0
 30
0.0
 11
146.0000000000001
 21
79.99999999999994
 31
0.0
  0
LINE
  5
141
330
1E
100
AcDbEntity
  8
STEMPEL
100
AcDbLine
 10
410.0
 20
40.0
 30
0.0
 11
146.0000000000001
 21
39.99999999999997
 31
0.0
  0
LINE
  5
142
330
1E
100
AcDbEntity
  8
STEMPEL
100
AcDbLine
 10
410.0
 20
110.0
 30
0.0
 11
39.99999999999997
 21
110.0
 31
0.0
  0
LINE
  5
144
330
1E
100
AcDbEntity
  8
HILF
100
AcDbLine
 10
0.0
 20
0.0
 30
0.0
 11
-0.0000000000001137
 21
594.0
 31
0.0
  0
LINE
  5
145
330
1E
100
AcDbEntity
  8
STEMPEL
100
AcDbLine
 10
40.0
 20
10.0
 30
0.0
 11
39.99999999999989
 21
584.0
 31
0.0
  0
TEXT
  5
146
330
1E
100
AcDbEntity
  8
TEXT
100
AcDbText
 10
41.85509950977674
 20
111.6719999999999
 30
0.0
 40
5.0
  1
Erstellt mit AUTOCAD 2004
 41
0.8
  7
GREEKS
100
AcDbText
  0
TEXT
  5
147
330
1E
100
AcDbEntity
  8
TEXT
100
AcDbText
 10
67.93969678957707
 20
18.67381894984132
 30
0.0
 40
4.0
  1
Änderung
 41
0.8
  7
GREEKS
 72
     1
 11
78.68255393243422
 21
18.67381894984132
 31
0.0
100
AcDbText
  0
LINE
  5
148
330
1E
100
AcDbEntity
  8
HILF
100
AcDbLine
 10
40.00000000000008
 20
39.99999999999997
 30
0.0
 11
146.0000000000001
 21
39.99999999999997
 31
0.0
  0
LINE
  5
149
330
1E
100
AcDbEntity
  8
HILF
100
AcDbLine
 10
40.00000000000008
 20
49.99999999999997
 30
0.0
 11
146.0000000000001
 21
49.99999999999997
 31
0.0
  0
LINE
  5
14A
330
1E
100
AcDbEntity
  8
HILF
100
AcDbLine
 10
40.00000000000008
 20
59.99999999999997
 30
0.0
 11
146.0000000000001
 21
59.99999999999997
 31
0.0
  0
LINE
  5
14B
330
1E
100
AcDbEntity
  8
HILF
100
AcDbLine
 10
40.00000000000008
 20
69.99999999999994
 30
0.0
 11
146.0000000000001
 21
69.99999999999994
 31
0.0
  0
LINE
  5
14C
330
1E
100
AcDbEntity
  8
HILF
100
AcDbLine
 10
40.00000000000008
 20
79.99999999999994
 30
0.0
 11
146.0000000000001
 21
79.99999999999994
 31
0.0
  0
LINE
  5
14D
330
1E
100
AcDbEntity
  8
HILF
100
AcDbLine
 10
40.00000000000008
 20
90.00000000000005
 30
0.0
 11
146.0000000000001
 21
90.00000000000005
 31
0.0
  0
LINE
  5
14E
330
1E
100
AcDbEntity
  8
HILF
100
AcDbLine
 10
40.00000000000008
 20
100.0
 30
0.0
 11
146.0000000000001
 21
100.0
 31
0.0
  0
LINE
  5
14F
330
1E
100
AcDbEntity
  8
STEMPEL
100
AcDbLine
 10
145.9999999999999
 20
29.99999999999997
 30
0.0
 11
39.99999999999997
 21
29.99999999999997
 31
0.0
  0
TEXT
  5
150
330
1E
100
AcDbEntity
  8
TEXT
100
AcDbText
 10
48.26641107045756
 20
13.65465846027192
 30
0.0
 40
4.0
  1
Index
 50
90.0
 41
0.8
  7
GREEKS
100
AcDbText
  0
LINE
  5
151
330
1E
100
AcDbEntity
  8
VOLL
100
AcDbLine
 10
54.00000000000009
 20
110.0
 30
0.0
 11
53.99999999999997
 21
9.999999999999971
 31
0.0
  0
LINE
  5
152
330
1E
100
AcDbEntity
  8
HILF
100
AcDbLine
 10
31.08767135713856
 20
297.0
 30
0.0
 11
0.0000000000001137
 21
297.0
 31
0.0
  0
TEXT
  5
153
330
1E
100
AcDbEntity
  8
TEXT
100
AcDbText
 10
110.2820548933125
 20
18.6715626933981
 30
0.0
 40
4.0
  1
Tag
 41
0.8
  7
GREEKS
 72
     1
 11
114.0153882266458
 21
18.6715626933981
 31
0.0
100
AcDbText
  0
LINE
  5
154
330
1E
100
AcDbEntity
  8
VOLL
100
AcDbLine
 10
124.0000000000001
 20
109.9999999999999
 30
0.0
 11
124.0
 21
9.999999999999971
 31
0.0
  0
LINE
  5
155
330
1E
100
AcDbEntity
  8
VOLL
100
AcDbLine
 10
104.0000000000001
 20
109.9999999999999
 30
0.0
 11
104.0
 21
9.999999999999971
 31
0.0
  0
TEXT
  5
156
330
1E
100
AcDbEntity
  8
TEXT
100
AcDbText
 10
128.9001864118674
 20
18.59324216966408
 30
0.0
 40
4.0
  1
Name
 41
0.8
  7
GREEKS
 72
     1
 11
135.2239959356769
 21
18.59324216966408
 31
0.0
100
AcDbText
  0
LINE
  5
157
330
1E
100
AcDbEntity
  8
STEMPEL
100
AcDbLine
 10
146.0000000000001
 20
109.9999999999999
 30
0.0
 11
146.0
 21
9.999999999999971
 31
0.0
  0
TEXT
  5
158
330
1E
100
AcDbEntity
  8
TEXT
100
AcDbText
 10
170.7037590129979
 20
63.10765040825732
 30
0.0
 40
4.0
  1
14.04.
 41
0.8
  7
GREEKS
 72
     1
 11
177.4085209177598
 21
63.10765040825732
 31
0.0
100
AcDbText
  0
TEXT
  5
159
330
1E
100
AcDbEntity
  8
TEXT
100
AcDbText
 10
172.331167315365
 20
73.31880501229926
 30
0.0
 40
4.0
  1
Tag
 41
0.8
  7
GREEKS
100
AcDbText
  0
TEXT
  5
15A
330
1E
100
AcDbEntity
  8
TEXT
100
AcDbText
 10
147.5836127167615
 20
63.62990369617964
 30
0.0
 40
4.0
  1
Gez.
 41
0.8
  7
GREEKS
100
AcDbText
  0
LINE
  5
15B
330
1E
100
AcDbEntity
  8
VOLL
100
AcDbLine
 10
164.0000000000001
 20
79.99999999999994
 30
0.0
 11
164.0000000000001
 21
39.99999999999997
 31
0.0
  0
TEXT
  5
15C
330
1E
100
AcDbEntity
  8
TEXT
100
AcDbText
 10
147.6006777387303
 20
43.52946389649807
 30
0.0
 40
4.0
  1
Norm.
 41
0.8
  7
GREEKS
100
AcDbText
  0
TEXT
  5
15D
330
1E
100
AcDbEntity
  8
TEXT
100
AcDbText
 10
147.5515086571672
 20
53.68926291428377
 30
0.0
 40
4.0
  1
Gepr.
 41
0.8
  7
GREEKS
100
AcDbText
  0
TEXT
  5
15E
330
1E
100
AcDbEntity
  8
TEXT
 62
     1
100
AcDbText
 10
160.5006306481887
 20
88.14901428913959
 30
0.0
 40
7.0
  1
1:2
 41
0.8
  7
GREEKS
100
AcDbText
  0
TEXT
  5
15F
330
1E
100
AcDbEntity
  8
TEXT
100
AcDbText
 10
153.5163572150377
 20
102.4620895087088
 30
0.0
 40
5.0
  1
Maßstab
 41
0.8
  7
GREEKS
100
AcDbText
  0
TEXT
  5
160
330
1E
100
AcDbEntity
  8
TEXT
100
AcDbText
 10
148.622109822104
 20
73.14025471151666
 30
0.0
 40
4.0
  1
2011
 41
0.8
  7
GREEKS
100
AcDbText
  0
LINE
  5
161
330
1E
100
AcDbEntity
  8
VOLL
100
AcDbLine
 10
190.0000000000001
 20
109.9999999999998
 30
0.0
 11
190.0
 21
39.99999999999997
 31
0.0
  0
LINE
  5
186
330
1E
100
AcDbEntity
  8
HILF
100
AcDbLine
 10
420.0
 20
-0.0000000000001137
 30
0.0
 11
419.9999999999999
 21
594.0
 31
0.0
  0
LINE
  5
187
330
1E
100
AcDbEntity
  8
STEMPEL
100
AcDbLine
 10
410.0
 20
10.0
 30
0.0
 11
410.0
 21
584.0
 31
0.0
  0
TEXT
  5
188
330
1E
100
AcDbEntity
  8
TEXT
100
AcDbText
 10
337.2400861497006
 20
52.07416177878602
 30
0.0
 40
5.0
  1
ersetzt durch:
 41
0.8
  7
GREEKS
100
AcDbText
  0
TEXT
  5
189
330
1E
100
AcDbEntity
  8
TEXT
100
AcDbText
 10
336.7238616296993
 20
73.1811823709997
 30
0.0
 40
5.0
  1
Ersatz für:
 41
0.8
  7
GREEKS
100
AcDbText
  0
TEXT
  5
18A
330
1E
100
AcDbEntity
  8
TEXT
100
AcDbText
 10
336.178754957634
 20
102.3132034537136
 30
0.0
 40
5.0
  1
Zeichnungs Nr.
 41
0.8
  7
GREEKS
100
AcDbText
  0
LINE
  5
18B
330
1E
100
AcDbEntity
  8
HILF
100
AcDbLine
 10
233.4909699289885
 20
14.89398258028314
 30
0.0
 11
404.8588839326728
 21
14.89398258028314
 31
0.0
  0
LINE
  5
18C
330
1E
100
AcDbEntity
  8
HILF
100
AcDbLine
 10
336.7238616296993
 20
83.77983636955827
 30
0.0
 11
404.8588839326728
 21
83.77983636955827
 31
0.0
  0
LINE
  5
18D
330
1E
100
AcDbEntity
  8
VOLL
100
AcDbLine
 10
332.0
 20
60.0
 30
0.0
 11
410.0
 21
60.0
 31
0.0
  0
TEXT
  5
18E
330
1E
100
AcDbEntity
  8
TEXT
 62
     1
100
AcDbText
 10
234.9283864320014
 20
87.41748789253779
 30
0.0
 40
7.0
  1
Abzweig DN100/100
 41
0.8
  7
GREEKS
100
AcDbText
  0
LINE
  5
18F
330
1E
100
AcDbEntity
  8
HILF
100
AcDbLine
 10
234.7736801096947
 20
49.99999999999997
 30
0.0
 11
324.835391655631
 21
49.99999999999997
 31
0.0
  0
LINE
  5
190
330
1E
100
AcDbEntity
  8
HILF
100
AcDbLine
 10
234.7736801096947
 20
59.99999999999997
 30
0.0
 11
324.835391655631
 21
59.99999999999997
 31
0.0
  0
LINE
  5
191
330
1E
100
AcDbEntity
  8
HILF
100
AcDbLine
 10
234.7736801096947
 20
69.99999999999994
 30
0.0
 11
324.835391655631
 21
69.99999999999994
 31
0.0
  0
LINE
  5
192
330
1E
100
AcDbEntity
  8
HILF
100
AcDbLine
 10
234.7736801096947
 20
84.03758247564139
 30
0.0
 11
324.8353916556311
 21
84.03758247564139
 31
0.0
  0
LINE
  5
193
330
1E
100
AcDbEntity
  8
STEMPEL
100
AcDbLine
 10
230.0
 20
110.0
 30
0.0
 11
230.0
 21
9.999999999999971
 31
0.0
  0
TEXT
  5
194
330
1E
100
AcDbEntity
  8
TEXT
100
AcDbText
 10
235.1296391125315
 20
71.50334417585288
 30
0.0
 40
5.0
  1
dünnwandig 45° 
 41
0.8
  7
GREEKS
100
AcDbText
  0
TEXT
  5
195
330
1E
100
AcDbEntity
  8
TEXT
100
AcDbText
 10
234.9837501577827
 20
42.62974153022632
 30
0.0
 40
4.0
  1
4220DD0W.DWG
 41
0.8
  7
GREEKS
100
AcDbText
  0
TEXT
  5
196
330
1E
100
AcDbEntity
  8
TEXT
100
AcDbText
 10
234.742238391136
 20
30.84560570193057
 30
0.0
 40
5.0
  1
Bauvorhaben
 41
0.8
  7
GREEKS
100
AcDbText
  0
TEXT
  5
197
330
1E
100
AcDbEntity
  8
TEXT
100
AcDbText
 10
234.877940380901
 20
102.5489328011779
 30
0.0
 40
5.0
  1
Benennung
 41
0.8
  7
GREEKS
100
AcDbText
  0
LINE
  5
198
330
1E
100
AcDbEntity
  8
STEMPEL
100
AcDbLine
 10
332.0
 20
109.9999999999997
 30
0.0
 11
332.0
 21
40.0
 31
0.0
  0
TEXT
  5
19A
330
1E
100
AcDbEntity
  8
TEXT
 62
     1
100
AcDbText
 10
348.5944140836232
 20
88.14901428913959
 30
0.0
 40
7.0
  1
4220DD0W
 41
0.8
  7
GREEKS
 72
     1
 11
370.1944140836232
 21
88.14901428913959
 31
0.0
100
AcDbText
  0
TEXT
  5
212
330
1E
100
AcDbEntity
  8
TEXT
100
AcDbText
 10
235.1296391125315
 20
51.50334417585291
 30
0.0
 40
5.0
  1
EDV-Art.Nr. 4.220.DD0C
 41
0.8
  7
GREEKS
100
AcDbText
  0
TEXT
  5
255
330
1E
100
AcDbEntity
  8
TEXT
 62
     1
100
AcDbText
 10
297.0573649355706
 20
132.2248663682012
 30
0.0
 40
7.0
  1
Werkstoff: 1.4301
 41
0.8
  7
GREEKS
100
AcDbText
  0
LINE
  5
15D2
330
1E
100
AcDbEntity
  8
MITTEL
100
AcDbLine
 10
185.3014925172251
 20
540.1339451785124
 30
0.0
 11
185.301492517225
 21
195.1306522741826
 31
0.0
  0
LINE
  5
1606
330
1E
100
AcDbEntity
  8
STEMPEL
100
AcDbLine
 10
235.4015832090176
 20
200.1306522741821
 30
0.0
 11
135.2014018254324
 21
200.1306522741827
 31
0.0
  0
TEXT
  5
160F
330
1E
100
AcDbEntity
  8
TEXT
 62
     1
100
AcDbText
 10
175.4028766537478
 20
500.2711407426596
 30
0.0
 40
7.0
  1
DN100
 50
89.99999999999998
 41
0.8
  7
GREEKS
100
AcDbText
  0
TEXT
  5
16FA
330
1E
100
AcDbEntity
  8
TEXT
 62
     1
100
AcDbText
 10
308.5735965583936
 20
455.5357658380168
 30
0.0
 40
7.0
  1
DN100
 50
44.99999999999999
 41
0.8
  7
GREEKS
100
AcDbText
  0
LINE
  5
1702
330
1E
100
AcDbEntity
  8
MITTEL
100
AcDbLine
 10
347.9360521901309
 20
472.7652119470883
 30
0.0
 11
185.3014925172251
 21
310.1306522741824
 31
0.0
  0
DIMENSION
  5
170F
330
1E
100
AcDbEntity
  8
BEM
100
AcDbDimension
  2
*D1
 10
105.6767863415932
 20
310.1306522741825
 30
0.0
 11
99.17678634159317
 21
255.1306522741826
 31
0.0
 70
    32
 71
     5
 42
109.9999999999997
  3
Standard
100
AcDbAlignedDimension
 13
135.2014018254324
 23
200.1306522741827
 33
0.0
 14
185.3014925172251
 24
310.1306522741824
 34
0.0
 50
90.0
100
AcDbRotatedDimension
1001
ACAD
1000
DSTYLE
1002
{
1070
    40
1040
2.0
1070
    41
1040
3.5
1070
    42
1040
1.0
1070
    43
1040
7.0
1070
    44
1040
1.0
1070
    73
1070
     0
1070
    74
1070
     0
1070
    77
1070
     1
1070
    78
1070
     8
1070
    79
1070
     2
1070
   140
1040
3.5
1070
   141
1040
1.5
1070
   146
1040
0.5142857142857144
1070
   147
1040
1.5
1070
   172
1070
     1
1070
   178
1070
     1
1070
   179
1070
     2
1070
   271
1070
     2
1070
   272
1070
     2
1070
   284
1070
     8
1070
   285
1070
     8
1070
   286
1070
     8
1002
}
  0
TEXT
  5
1905
330
1E
100
AcDbEntity
  8
VOLL
100
AcDbText
 10
525.3664702311624
 20
212.4618221180262
 30
0.0
 40
1.8
  1

  7
GREEKS
100
AcDbText
  0
LINE
  5
1911
330
1E
100
AcDbEntity
  8
STEMPEL
100
AcDbLine
 10
383.050821444212
 20
430.5793748811415
 30
0.0
 11
305.7502151241846
 21
507.8799812011694
 31
0.0
  0
LINE
  5
1914
102
{ACAD_REACTORS
330
1CC8
102
}
330
1E
100
AcDbEntity
  8
STEMPEL
100
AcDbLine
 10
255.7695434360215
 20
452.4407521615321
 30
0.0
 11
236.1014925172252
 21
432.7727012427358
 31
0.0
  0
LINE
  5
1933
102
{ACAD_REACTORS
330
1D08
102
}
330
1E
100
AcDbEntity
  8
STEMPEL
100
AcDbLine
 10
327.6115924045748
 20
380.5987031929788
 30
0.0
 11
236.1014925172249
 21
289.0886033056291
 31
0.0
  0
LINE
  5
1A80
330
1E
100
AcDbEntity
  8
STEMPEL
100
AcDbLine
 10
239.9612754359484
 20
535.1339451785125
 30
0.0
 11
130.6417095985019
 21
535.1339451785129
 31
0.0
  0
LINE
  5
1A83
330
1E
100
AcDbEntity
  8
STEMPEL
100
AcDbLine
 10
134.5014925172251
 20
460.5908185018724
 30
0.0
 11
134.501492517225
 21
208.1306522741827
 31
0.0
  0
LINE
  5
1A8A
102
{ACAD_REACTORS
330
1CC8
102
}
330
1E
100
AcDbEntity
  8
STEMPEL
100
AcDbLine
 10
236.1014925172252
 20
460.5908185018726
 30
0.0
 11
236.1014925172252
 21
432.7727012427358
 31
0.0
  0
LINE
  5
1AA1
330
1E
100
AcDbEntity
  8
HILF
100
AcDbLine
 10
234.8467177202956
 20
208.1306522741821
 30
0.0
 11
135.7562673141542
 21
208.1306522741827
 31
0.0
  0
LINE
  5
1AA2
330
1E
100
AcDbEntity
  8
STEMPEL
100
AcDbLine
 10
134.501492517225
 20
208.1306522741827
 30
0.0
 11
135.2014018254324
 21
200.1306522741827
 31
0.0
  0
LINE
  5
1AA5
330
1E
100
AcDbEntity
  8
STEMPEL
100
AcDbLine
 10
236.1014925172249
 20
208.1306522741833
 30
0.0
 11
235.4015832090176
 21
200.1306522741821
 31
0.0
  0
DIMENSION
  5
1AB8
330
1E
100
AcDbEntity
  8
BEM
100
AcDbDimension
  2
*D2
 10
88.95827667121549
 20
200.1306522741827
 30
0.0
 11
82.45827667121547
 21
367.6322987263478
 31
0.0
 70
    32
 71
     5
 42
335.0032929043302
  3
Standard
100
AcDbAlignedDimension
 13
130.6417095985019
 23
535.1339451785129
 33
0.0
 14
135.2014018254324
 24
200.1306522741827
 34
0.0
 50
90.0
100
AcDbRotatedDimension
1001
ACAD
1000
DSTYLE
1002
{
1070
    40
1040
2.0
1070
    41
1040
3.5
1070
    42
1040
1.0
1070
    43
1040
7.0
1070
    44
1040
1.0
1070
    73
1070
     0
1070
    74
1070
     0
1070
    77
1070
     1
1070
    78
1070
     8
1070
    79
1070
     2
1070
   140
1040
3.5
1070
   141
1040
1.5
1070
   146
1040
0.5142857142857144
1070
   147
1040
1.5
1070
   172
1070
     1
1070
   178
1070
     1
1070
   179
1070
     2
1070
   271
1070
     2
1070
   272
1070
     2
1070
   284
1070
     8
1070
   285
1070
     8
1070
   286
1070
     8
1002
}
  0
LINE
  5
1ACE
102
{ACAD_REACTORS
330
1D08
102
}
330
1E
100
AcDbEntity
  8
STEMPEL
100
AcDbLine
 10
236.1014925172249
 20
289.0886033056291
 30
0.0
 11
236.101492517225
 21
208.1306522741821
 31
0.0
  0
DIMENSION
  5
1AD2
330
1E
100
AcDbEntity
  8
BEM
100
AcDbDimension
  2
*D3
 10
401.564288318666
 20
412.0659080066879
 30
0.0
 11
317.4185813574664
 21
337.1125892009141
 31
0.0
 70
    32
 71
     5
 42
225.0000000000003
 51
356.9999999999999
  3
Standard
100
AcDbAlignedDimension
 13
185.3014925172251
 23
310.1306522741824
 33
0.0
 14
383.0508214442123
 24
430.5793748811416
 34
0.0
 50
44.99999999999971
100
AcDbRotatedDimension
1001
ACAD
1000
DSTYLE
1002
{
1070
    40
1040
2.0
1070
    41
1040
3.5
1070
    42
1040
1.0
1070
    43
1040
7.0
1070
    44
1040
1.0
1070
    73
1070
     0
1070
    74
1070
     0
1070
    77
1070
     1
1070
    78
1070
     8
1070
    79
1070
     2
1070
   140
1040
3.5
1070
   141
1040
1.5
1070
   146
1040
0.5142857142857144
1070
   147
1040
1.5
1070
   172
1070
     1
1070
   178
1070
     1
1070
   179
1070
     2
1070
   271
1070
     2
1070
   272
1070
     2
1070
   284
1070
     8
1070
   285
1070
     8
1070
   286
1070
     8
1002
}
  0
DIMENSION
  5
1AE8
330
1E
100
AcDbEntity
  8
BEM
100
AcDbDimension
  2
*D4
 10
236.101492517225
 20
179.0407630211054
 30
0.0
 11
185.301492517225
 21
185.5407630211054
 31
0.0
 70
    32
  1
%%c<>
 71
     5
 42
101.5999999999999
  3
Standard
100
AcDbAlignedDimension
 13
134.501492517225
 23
208.1306522741827
 33
0.0
 14
236.101492517225
 24
208.1306522741821
 34
0.0
100
AcDbRotatedDimension
1001
ACAD
1000
DSTYLE
1002
{
1070
    40
1040
2.0
1070
    41
1040
3.5
1070
    42
1040
1.0
1070
    43
1040
7.0
1070
    44
1040
1.0
1070
    73
1070
     0
1070
    74
1070
     0
1070
    77
1070
     1
1070
    78
1070
     8
1070
    79
1070
     2
1070
   140
1040
3.5
1070
   141
1040
1.5
1070
   146
1040
0.5142857142857144
1070
   147
1040
1.5
1070
   172
1070
     1
1070
   178
1070
     1
1070
   179
1070
     2
1070
   271
1070
     2
1070
   272
1070
     2
1070
   284
1070
     8
1070
   285
1070
     8
1070
   286
1070
     8
1002
}
  0
TEXT
  5
1BF4
330
1E
100
AcDbEntity
  8
TEXT
 62
     1
100
AcDbText
 10
370.1944140836232
 20
63.57571472249742
 30
0.0
 40
7.0
  1

 41
0.8
  7
GREEKS
 72
     1
 11
370.1944140836232
 21
63.57571472249742
 31
0.0
100
AcDbText
  0
TEXT
  5
1BF5
330
1E
100
AcDbEntity
  8
BEM
100
AcDbText
 10
416.5811541437437
 20
12.14804815338303
 30
0.0
 40
4.0
  1
Diese Zeichnung ist urheberrechtlich geschützt und bleibt unser Eigentum. Sie darf weder ganz noch teilweise vervielfältigt und nicht an Dritte weitergegeben werden.
 50
90.0
 41
0.8
  7
GREEKS
100
AcDbText
  0
LINE
  5
1C95
330
1E
100
AcDbEntity
  8
STEMPEL
100
AcDbLine
 10
236.1014925172252
 20
432.7727012427358
 30
0.0
 11
185.3014925172251
 21
310.1306522741824
 31
0.0
  0
LINE
  5
1C96
330
1E
100
AcDbEntity
  8
STEMPEL
100
AcDbLine
 10
185.3014925172251
 20
310.1306522741824
 30
0.0
 11
236.1014925172249
 21
289.0886033056291
 31
0.0
  0
DIMENSION
  5
1C97
330
1E
100
AcDbEntity
  8
BEM
100
AcDbDimension
  2
*D6
 10
186.0668593819552
 20
196.9784113392052
 30
0.0
 11
283.4963799300545
 21
547.1940812219344
 31
0.0
 70
    34
 71
     5
 42
0.785398163397447
  3
Standard
100
AcDb2LineAngularDimension
 13
348.7014190548612
 23
474.6129710121109
 33
0.0
 14
186.0668593819553
 24
311.978411339205
 34
0.0
 15
186.0668593819553
 25
541.9817042435349
 35
0.0
 16
310.1146626157638
 26
526.835509107468
 36
0.0
1001
ACAD
1000
DSTYLE
1002
{
1070
    40
1040
2.0
1070
    41
1040
3.5
1070
    42
1040
1.0
1070
    43
1040
7.0
1070
    44
1040
1.0
1070
    73
1070
     0
1070
    74
1070
     0
1070
    77
1070
     1
1070
    78
1070
     8
1070
    79
1070
     2
1070
   140
1040
3.5
1070
   141
1040
1.5
1070
   146
1040
0.5142857142857144
1070
   147
1040
1.5
1070
   172
1070
     1
1070
   178
1070
     1
1070
   179
1070
     2
1070
   271
1070
     2
1070
   272
1070
     2
1070
   284
1070
     8
1070
   285
1070
     8
1070
   286
1070
     8
1002
}
  0
ARC
  5
1CAA
330
1E
100
AcDbEntity
  8
SCHRAFF
100
AcDbCircle
 10
236.8668593819554
 20
434.6204603077583
 30
0.0
 40
5.0
100
AcDbArc
 50
210.6301023541556
 51
284.3698976458437
  0
ARC
  5
1CAB
330
1E
100
AcDbEntity
  8
SCHRAFF
100
AcDbCircle
 10
234.9534422201299
 20
430.0010626452019
 30
0.0
 40
5.0
100
AcDbArc
 50
210.6301023541556
 51
284.3698976458437
  0
ARC
  5
1CAC
330
1E
100
AcDbEntity
  8
SCHRAFF
100
AcDbCircle
 10
233.0400250583045
 20
425.3816649826455
 30
0.0
 40
5.0
100
AcDbArc
 50
210.6301023541556
 51
284.3698976458437
  0
ARC
  5
1CAD
330
1E
100
AcDbEntity
  8
SCHRAFF
100
AcDbCircle
 10
231.126607896479
 20
420.7622673200891
 30
0.0
 40
5.0
100
AcDbArc
 50
210.6301023541556
 51
284.3698976458437
  0
ARC
  5
1CAE
330
1E
100
AcDbEntity
  8
SCHRAFF
100
AcDbCircle
 10
229.2131907346536
 20
416.1428696575327
 30
0.0
 40
5.0
100
AcDbArc
 50
210.6301023541556
 51
284.3698976458437
  0
ARC
  5
1CAF
330
1E
100
AcDbEntity
  8
SCHRAFF
100
AcDbCircle
 10
227.2997735728282
 20
411.5234719949762
 30
0.0
 40
5.0
100
AcDbArc
 50
210.6301023541556
 51
284.3698976458437
  0
ARC
  5
1CB0
330
1E
100
AcDbEntity
  8
SCHRAFF
100
AcDbCircle
 10
225.3863564110027
 20
406.9040743324198
 30
0.0
 40
5.0
100
AcDbArc
 50
210.6301023541556
 51
284.3698976458437
  0
ARC
  5
1CB1
330
1E
100
AcDbEntity
  8
SCHRAFF
100
AcDbCircle
 10
223.4729392491773
 20
402.2846766698633
 30
0.0
 40
5.0
100
AcDbArc
 50
210.6301023541556
 51
284.3698976458437
  0
ARC
  5
1CB2
330
1E
100
AcDbEntity
  8
SCHRAFF
100
AcDbCircle
 10
221.5595220873518
 20
397.665279007307
 30
0.0
 40
5.0
100
AcDbArc
 50
210.6301023541556
 51
284.3698976458437
  0
ARC
  5
1CB3
330
1E
100
AcDbEntity
  8
SCHRAFF
100
AcDbCircle
 10
219.6461049255264
 20
393.0458813447506
 30
0.0
 40
5.0
100
AcDbArc
 50
210.6301023541556
 51
284.3698976458437
  0
ARC
  5
1CB4
330
1E
100
AcDbEntity
  8
SCHRAFF
100
AcDbCircle
 10
217.732687763701
 20
388.4264836821941
 30
0.0
 40
5.0
100
AcDbArc
 50
210.6301023541556
 51
284.3698976458437
  0
ARC
  5
1CB5
330
1E
100
AcDbEntity
  8
SCHRAFF
100
AcDbCircle
 10
215.8192706018755
 20
383.8070860196377
 30
0.0
 40
5.0
100
AcDbArc
 50
210.6301023541556
 51
284.3698976458437
  0
ARC
  5
1CB6
330
1E
100
AcDbEntity
  8
SCHRAFF
100
AcDbCircle
 10
213.9058534400501
 20
379.1876883570813
 30
0.0
 40
5.0
100
AcDbArc
 50
210.6301023541556
 51
284.3698976458437
  0
ARC
  5
1CB7
330
1E
100
AcDbEntity
  8
SCHRAFF
100
AcDbCircle
 10
211.9924362782246
 20
374.5682906945249
 30
0.0
 40
5.0
100
AcDbArc
 50
210.6301023541556
 51
284.3698976458437
  0
ARC
  5
1CB8
330
1E
100
AcDbEntity
  8
SCHRAFF
100
AcDbCircle
 10
210.0790191163991
 20
369.9488930319684
 30
0.0
 40
5.0
100
AcDbArc
 50
210.6301023541556
 51
284.3698976458437
  0
ARC
  5
1CB9
330
1E
100
AcDbEntity
  8
SCHRAFF
100
AcDbCircle
 10
208.1656019545737
 20
365.329495369412
 30
0.0
 40
5.0
100
AcDbArc
 50
210.6301023541556
 51
284.3698976458437
  0
ARC
  5
1CBA
330
1E
100
AcDbEntity
  8
SCHRAFF
100
AcDbCircle
 10
206.2521847927482
 20
360.7100977068556
 30
0.0
 40
5.0
100
AcDbArc
 50
210.6301023541556
 51
284.3698976458437
  0
ARC
  5
1CBB
330
1E
100
AcDbEntity
  8
SCHRAFF
100
AcDbCircle
 10
204.3387676309228
 20
356.0907000442992
 30
0.0
 40
5.0
100
AcDbArc
 50
210.6301023541556
 51
284.3698976458437
  0
ARC
  5
1CBC
330
1E
100
AcDbEntity
  8
SCHRAFF
100
AcDbCircle
 10
202.4253504690974
 20
351.4713023817428
 30
0.0
 40
5.0
100
AcDbArc
 50
210.6301023541556
 51
284.3698976458437
  0
ARC
  5
1CBD
330
1E
100
AcDbEntity
  8
SCHRAFF
100
AcDbCircle
 10
200.5119333072719
 20
346.8519047191863
 30
0.0
 40
5.0
100
AcDbArc
 50
210.6301023541556
 51
284.3698976458437
  0
ARC
  5
1CBE
330
1E
100
AcDbEntity
  8
SCHRAFF
100
AcDbCircle
 10
198.5985161454465
 20
342.2325070566299
 30
0.0
 40
5.0
100
AcDbArc
 50
210.6301023541556
 51
284.3698976458437
  0
ARC
  5
1CBF
330
1E
100
AcDbEntity
  8
SCHRAFF
100
AcDbCircle
 10
196.685098983621
 20
337.6131093940735
 30
0.0
 40
5.0
100
AcDbArc
 50
210.6301023541556
 51
284.3698976458437
  0
ARC
  5
1CC0
330
1E
100
AcDbEntity
  8
SCHRAFF
100
AcDbCircle
 10
194.7716818217955
 20
332.9937117315171
 30
0.0
 40
5.0
100
AcDbArc
 50
210.6301023541556
 51
284.3698976458437
  0
ARC
  5
1CC1
330
1E
100
AcDbEntity
  8
SCHRAFF
100
AcDbCircle
 10
192.8582646599701
 20
328.3743140689606
 30
0.0
 40
5.0
100
AcDbArc
 50
210.6301023541556
 51
284.3698976458437
  0
ARC
  5
1CC2
330
1E
100
AcDbEntity
  8
SCHRAFF
100
AcDbCircle
 10
190.9448474981447
 20
323.7549164064042
 30
0.0
 40
5.0
100
AcDbArc
 50
210.6301023541556
 51
284.3698976458437
  0
ARC
  5
1CC3
330
1E
100
AcDbEntity
  8
SCHRAFF
100
AcDbCircle
 10
189.0314303363192
 20
319.1355187438478
 30
0.0
 40
5.0
100
AcDbArc
 50
210.6301023541556
 51
284.3698976458437
  0
ARC
  5
1CC4
102
{ACAD_REACTORS
330
1CC8
102
}
330
1E
100
AcDbEntity
  8
SCHRAFF
100
AcDbCircle
 10
237.538167797725
 20
436.2411421896447
 30
0.0
 40
4.600991712816544
100
AcDbArc
 50
26.80491689687721
 51
108.1950831031207
  0
HATCH
  5
1CC8
330
1E
100
AcDbEntity
  8
SCHRAFF
100
AcDbHatch
 10
0.0
 20
0.0
 30
0.0
210
0.0
220
0.0
230
1.0
  2
_USER
 70
     0
 71
     1
 91
        1
 92
        7
 72
     1
 73
     1
 93
        3
 10
236.1014925172252
 20
440.6120790319941
 42
0.0
 10
236.1014925172252
 20
432.7727012427358
 42
0.0
 10
241.6447697122929
 20
438.3159784378035
 42
0.3708548179353996
 97
        3
330
1A8A
330
1914
330
1CC4
 75
     0
 76
     0
 52
0.0
 41
0.1
 77
     0
 78
     1
 53
0.0
 43
0.0
 44
0.0
 45
0.0
 46
0.1
 79
     0
 47
0.0542122965484166
 98
        1
 10
238.6641015219293
 20
438.6791398319062
  0
ARC
  5
1CD5
330
1E
100
AcDbEntity
  8
SCHRAFF
100
AcDbCircle
 10
236.1014925172249
 20
289.0886033056291
 30
0.0
 40
5.0
100
AcDbArc
 50
120.6301023541551
 51
194.369897645843
  0
ARC
  5
1CD6
330
1E
100
AcDbEntity
  8
SCHRAFF
100
AcDbCircle
 10
231.4820948546685
 20
291.0020204674546
 30
0.0
 40
5.0
100
AcDbArc
 50
120.6301023541551
 51
194.369897645843
  0
ARC
  5
1CD7
330
1E
100
AcDbEntity
  8
SCHRAFF
100
AcDbCircle
 10
226.8626971921121
 20
292.91543762928
 30
0.0
 40
5.0
100
AcDbArc
 50
120.6301023541551
 51
194.369897645843
  0
ARC
  5
1CD8
330
1E
100
AcDbEntity
  8
SCHRAFF
100
AcDbCircle
 10
222.2432995295556
 20
294.8288547911054
 30
0.0
 40
5.0
100
AcDbArc
 50
120.6301023541551
 51
194.369897645843
  0
ARC
  5
1CD9
330
1E
100
AcDbEntity
  8
SCHRAFF
100
AcDbCircle
 10
217.6239018669992
 20
296.7422719529309
 30
0.0
 40
5.0
100
AcDbArc
 50
120.6301023541551
 51
194.369897645843
  0
ARC
  5
1CDA
330
1E
100
AcDbEntity
  8
SCHRAFF
100
AcDbCircle
 10
213.0045042044428
 20
298.6556891147564
 30
0.0
 40
5.0
100
AcDbArc
 50
120.6301023541551
 51
194.369897645843
  0
ARC
  5
1CDB
330
1E
100
AcDbEntity
  8
SCHRAFF
100
AcDbCircle
 10
208.3851065418864
 20
300.5691062765819
 30
0.0
 40
5.0
100
AcDbArc
 50
120.6301023541551
 51
194.369897645843
  0
ARC
  5
1CDC
330
1E
100
AcDbEntity
  8
SCHRAFF
100
AcDbCircle
 10
203.7657088793299
 20
302.4825234384073
 30
0.0
 40
5.0
100
AcDbArc
 50
120.6301023541551
 51
194.369897645843
  0
ARC
  5
1CDD
330
1E
100
AcDbEntity
  8
SCHRAFF
100
AcDbCircle
 10
199.1463112167735
 20
304.3959406002327
 30
0.0
 40
5.0
100
AcDbArc
 50
120.6301023541551
 51
194.369897645843
  0
ARC
  5
1CDE
330
1E
100
AcDbEntity
  8
SCHRAFF
100
AcDbCircle
 10
194.5269135542171
 20
306.3093577620583
 30
0.0
 40
5.0
100
AcDbArc
 50
120.6301023541551
 51
194.369897645843
  0
ARC
  5
1CDF
102
{ACAD_REACTORS
330
1D08
102
}
330
1E
100
AcDbEntity
  8
SCHRAFF
100
AcDbCircle
 10
234.1694234473464
 20
289.8888925178143
 30
0.0
 40
4.484960467907217
100
AcDbArc
 50
295.5176061756196
 51
19.4823938243802
  0
TEXT
  5
1CE1
330
1E
100
AcDbEntity
  8
TEXT
100
AcDbText
 10
192.6882715247924
 20
88.84690308144627
 30
0.0
 40
4.0
  1
DIN EN1124-3
 41
0.8
  7
GREEKS
 72
     1
 11
209.6787477152686
 21
88.84690308144627
 31
0.0
100
AcDbText
  0
HATCH
  5
1D08
330
1E
100
AcDbEntity
  8
SCHRAFF
100
AcDbHatch
 10
0.0
 20
0.0
 30
0.0
210
0.0
220
0.0
230
1.0
  2
_USER
 70
     0
 71
     1
 91
        1
 92
        7
 72
     1
 73
     1
 93
        3
 10
236.1014925172249
 20
285.8414267047519
 42
0.3836877630417487
 10
238.3975931114155
 20
291.3847038998197
 42
0.0
 10
236.1014925172249
 20
289.0886033056291
 42
0.0
 97
        3
330
1933
330
1ACE
330
1CDF
 75
     0
 76
     0
 52
0.0
 41
0.1
 77
     0
 78
     1
 53
0.0
 43
0.0
 44
0.0
 45
0.0
 46
0.1
 79
     0
 47
0.1432495536468226
 98
        1
 10
236.9219751865171
 20
288.4981416776438
  0
LINE
  5
1D54
330
1E
100
AcDbEntity
  8
HILF
100
AcDbLine
 10
350.4057558737105
 20
400.2533840800419
 30
0.0
 11
275.4242243230844
 21
475.234915630668
 31
0.0
  0
LINE
  5
1D55
330
1E
100
AcDbEntity
  8
HILF
100
AcDbLine
 10
333.9116688485037
 20
384.9941905913114
 30
0.0
 11
260.1650308343541
 21
458.7408286054611
 31
0.0
  0
LINE
  5
1D56
330
1E
100
AcDbEntity
  8
HILF
100
AcDbLine
 10
328.444605697386
 20
382.775785273624
 30
0.0
 11
257.9466255166665
 21
453.2737654543433
 31
0.0
  0
ARC
  5
1D59
330
1E
100
AcDbEntity
  8
STEMPEL
100
AcDbCircle
 10
311.9469256028815
 20
484.4350824118121
 30
0.0
 40
24.2
100
AcDbArc
 50
104.7363480579001
 51
135.0
  0
LINE
  5
1D5A
330
1E
100
AcDbEntity
  8
STEMPEL
100
AcDbLine
 10
272.697627554934
 20
473.7528983238012
 30
0.0
 11
261.5784498594178
 21
462.6337206282851
 31
0.0
  0
ARC
  5
1D5C
330
1E
100
AcDbEntity
  8
STEMPEL
100
AcDbCircle
 10
271.6193661522669
 20
452.5928043354361
 30
0.0
 40
14.2
100
AcDbArc
 50
135.0
 51
165.6429317629395
  0
ARC
  5
1D5D
330
1E
100
AcDbEntity
  8
STEMPEL
100
AcDbCircle
 10
250.1126891865292
 20
458.0976064110244
 30
0.0
 40
8.0
100
AcDbArc
 50
315.0
 51
345.8595810906223
  0
LINE
  5
1D5E
330
1E
100
AcDbEntity
  8
STEMPEL
100
AcDbLine
 10
294.834941498167
 20
501.5470665165265
 30
0.0
 11
281.7013599963871
 21
488.4134850147466
 31
0.0
  0
ARC
  5
1D5F
330
1E
100
AcDbEntity
  8
STEMPEL
100
AcDbCircle
 10
298.8133441011015
 20
471.3015009100323
 30
0.0
 40
24.2
100
AcDbArc
 50
135.0
 51
161.8880476177246
  0
ARC
  5
1D60
330
1E
100
AcDbEntity
  8
STEMPEL
100
AcDbCircle
 10
263.6466607557462
 20
482.803865122989
 30
0.0
 40
12.8
100
AcDbArc
 50
315.0
 51
341.8880476177246
  0
ARC
  5
1D62
330
1E
100
AcDbEntity
  8
STEMPEL
100
AcDbCircle
 10
359.6059226548549
 20
436.7760853598389
 30
0.0
 40
24.2
100
AcDbArc
 50
315.0
 51
345.2636519420999
  0
ARC
  5
1D63
330
1E
100
AcDbEntity
  8
STEMPEL
100
AcDbCircle
 10
346.4723411530747
 20
423.6425038580589
 30
0.0
 40
24.2
100
AcDbArc
 50
288.1119523822754
 51
315.0
  0
LINE
  5
1D64
330
1E
100
AcDbEntity
  8
STEMPEL
100
AcDbLine
 10
348.9237385668439
 20
397.5267873118914
 30
0.0
 11
337.8045608713279
 21
386.4076096163754
 31
0.0
  0
ARC
  5
1D66
330
1E
100
AcDbEntity
  8
STEMPEL
100
AcDbCircle
 10
327.7636445784787
 20
396.4485259092243
 30
0.0
 40
14.2
100
AcDbArc
 50
284.3570682370605
 51
315.0
  0
ARC
  5
1D67
330
1E
100
AcDbEntity
  8
STEMPEL
100
AcDbCircle
 10
333.2684466540671
 20
374.9418489434865
 30
0.0
 40
8.0
100
AcDbArc
 50
104.1404189093777
 51
135.0
  0
ARC
  5
1D68
330
1E
100
AcDbEntity
  8
STEMPEL
100
AcDbCircle
 10
357.9747053660317
 20
388.4758205127037
 30
0.0
 40
12.8
100
AcDbArc
 50
108.1119523822754
 51
135.0
  0
LINE
  5
1D69
330
1E
100
AcDbEntity
  8
STEMPEL
100
AcDbLine
 10
376.7179067595692
 20
419.6641012551244
 30
0.0
 11
363.5843252577893
 21
406.5305197533445
 31
0.0
  0
LINE
  5
1D6A
330
1E
100
AcDbEntity
  8
STEMPEL
100
AcDbLine
 10
131.4014925172253
 20
487.6307446478311
 30
0.0
 11
131.4014925172252
 21
471.9058527483959
 31
0.0
  0
ARC
  5
1D6B
330
1E
100
AcDbEntity
  8
STEMPEL
100
AcDbCircle
 10
145.6014925172252
 20
471.9058527483959
 30
0.0
 40
14.2
100
AcDbArc
 50
180.0
 51
210.6429317629395
  0
ARC
  5
1D6C
330
1E
100
AcDbEntity
  8
STEMPEL
100
AcDbCircle
 10
126.5014925172253
 20
460.5908185018725
 30
0.0
 40
8.0
100
AcDbArc
 50
0.0
 51
30.85958109062227
  0
ARC
  5
1D6D
330
1E
100
AcDbEntity
  8
STEMPEL
100
AcDbCircle
 10
151.6014925172252
 20
522.9376342608623
 30
0.0
 40
24.2
100
AcDbArc
 50
149.7363480579001
 51
180.0
  0
ARC
  5
1D6E
330
1E
100
AcDbEntity
  8
STEMPEL
100
AcDbCircle
 10
118.6014925172252
 20
487.6307446478312
 30
0.0
 40
12.8
100
AcDbArc
 50
0.0
 51
26.88804761772463
  0
LINE
  5
1D6F
330
1E
100
AcDbEntity
  8
STEMPEL
100
AcDbLine
 10
127.4014925172253
 20
522.9376342608623
 30
0.0
 11
127.4014925172253
 21
504.3639451785127
 31
0.0
  0
ARC
  5
1D70
330
1E
100
AcDbEntity
  8
STEMPEL
100
AcDbCircle
 10
151.6014925172252
 20
504.3639451785127
 30
0.0
 40
24.2
100
AcDbArc
 50
180.0
 51
206.8880476177246
  0
LINE
  5
1D71
330
1E
100
AcDbEntity
  8
STEMPEL
100
AcDbLine
 10
239.2014925172252
 20
487.6307446478313
 30
0.0
 11
239.2014925172252
 21
471.905852748396
 31
0.0
  0
ARC
  5
1D72
330
1E
100
AcDbEntity
  8
STEMPEL
100
AcDbCircle
 10
225.0014925172252
 20
471.9058527483959
 30
0.0
 40
14.2
100
AcDbArc
 50
329.3570682370604
 51
0.0
  0
ARC
  5
1D73
330
1E
100
AcDbEntity
  8
STEMPEL
100
AcDbCircle
 10
244.1014925172252
 20
460.5908185018726
 30
0.0
 40
8.0
100
AcDbArc
 50
149.1404189093777
 51
180.0
  0
ARC
  5
1D74
330
1E
100
AcDbEntity
  8
STEMPEL
100
AcDbCircle
 10
219.0014925172252
 20
522.9376342608624
 30
0.0
 40
24.2
100
AcDbArc
 50
0.0
 51
30.26365194209988
  0
LINE
  5
1D75
330
1E
100
AcDbEntity
  8
STEMPEL
100
AcDbLine
 10
243.2014925172251
 20
522.9376342608624
 30
0.0
 11
243.2014925172252
 21
504.3639451785128
 31
0.0
  0
ARC
  5
1D76
330
1E
100
AcDbEntity
  8
STEMPEL
100
AcDbCircle
 10
219.0014925172252
 20
504.3639451785128
 30
0.0
 40
24.2
100
AcDbArc
 50
333.1119523822754
 51
0.0
  0
ARC
  5
1D77
330
1E
100
AcDbEntity
  8
STEMPEL
100
AcDbCircle
 10
252.0014925172252
 20
487.6307446478313
 30
0.0
 40
12.8
100
AcDbArc
 50
153.1119523822753
 51
180.0
  0
LINE
  5
1D78
330
1E
100
AcDbEntity
  8
HILF
100
AcDbLine
 10
235.1510923629668
 20
462.7192773524617
 30
0.0
 11
135.4518926714836
 21
462.7192773524617
 31
0.0
  0
LINE
  5
1D79
330
1E
100
AcDbEntity
  8
HILF
100
AcDbLine
 10
237.44824034674
 20
468.1537242233493
 30
0.0
 11
133.1547446877104
 21
468.1537242233493
 31
0.0
  0
LINE
  5
1D7A
330
1E
100
AcDbEntity
  8
HILF
100
AcDbLine
 10
238.321441940426
 20
490.6066841996731
 30
0.0
 11
132.2815430940243
 21
490.6066841996731
 31
0.0
  0
ENDSEC
  0
SECTION
  2
OBJECTS
  0
DICTIONARY
  5
C
330
0
100
AcDbDictionary
281
     1
  3
ACAD_COLOR
350
1790
  3
ACAD_GROUP
350
D
  3
ACAD_LAYOUT
350
19
  3
ACAD_MATERIAL
350
178F
  3
ACAD_MLINESTYLE
350
16
  3
ACAD_PLOTSETTINGS
350
18
  3
ACAD_PLOTSTYLENAME
350
E
  3
AcDbVariableDictionary
350
246
  0
DICTIONARY
  5
1790
102
{ACAD_REACTORS
330
C
102
}
330
C
100
AcDbDictionary
281
     1
  0
DICTIONARY
  5
D
102
{ACAD_REACTORS
330
C
102
}
330
C
100
AcDbDictionary
281
     1
  0
DICTIONARY
  5
19
102
{ACAD_REACTORS
330
C
102
}
330
C
100
AcDbDictionary
281
     1
  3
Layout1
350
1D
  3
Model
350
21
  0
DICTIONARY
  5
178F
102
{ACAD_REACTORS
330
C
102
}
330
C
100
AcDbDictionary
281
     1
  0
DICTIONARY
  5
16
102
{ACAD_REACTORS
330
C
102
}
330
C
100
AcDbDictionary
281
     1
  3
Standard
350
17
  0
DICTIONARY
  5
18
102
{ACAD_REACTORS
330
C
102
}
330
C
100
AcDbDictionary
281
     1
  0
ACDBDICTIONARYWDFLT
  5
E
102
{ACAD_REACTORS
330
C
102
}
330
C
100
AcDbDictionary
281
     1
  3
Normal
350
F
100
AcDbDictionaryWithDefault
340
F
  0
DICTIONARY
  5
246
102
{ACAD_REACTORS
330
C
102
}
330
C
100
AcDbDictionary
281
     1
  3
DIMASSOC
350
1CFE
  3
PROJECTNAME
350
1CFF
  3
SORTENTS
350
247
  0
LAYOUT
  5
1D
102
{ACAD_REACTORS
330
19
102
}
330
19
100
AcDbPlotSettings
  1

  2
Tektronix Phaser 740
  4

  6

 40
0.0
 41
0.0
 42
0.0
 43
0.0
 44
0.0
 45
0.0
 46
0.0
 47
0.0
 48
0.0
 49
0.0
140
0.0
141
0.0
142
1.0
143
1.0
 70
   688
 72
     0
 73
     0
 74
     5
  7
monochrome.ctb
 75
    16
147
1.0
 76
     0
 77
     2
 78
   300
148
0.0
149
0.0
100
AcDbLayout
  1
Layout1
 70
     0
 71
     1
 10
0.0
 20
0.0
 11
12.0
 21
9.0
 12
0.0
 22
0.0
 32
0.0
 14
1.000000000000000E+20
 24
1.000000000000000E+20
 34
1.000000000000000E+20
 15
-1.000000000000000E+20
 25
-1.000000000000000E+20
 35
-1.000000000000000E+20
146
0.0
 13
0.0
 23
0.0
 33
0.0
 16
1.0
 26
0.0
 36
0.0
 17
0.0
 27
1.0
 37
0.0
 76
     0
330
1A
  0
LAYOUT
  5
21
102
{ACAD_REACTORS
330
19
102
}
330
19
100
AcDbPlotSettings
  1

  2
Tektronix Phaser 740
  4
A4
  6

 40
5.873749732971191
 41
6.085414409637451
 42
5.577407836914062
 43
5.662078857421875
 44
209.9733276367187
 45
296.9683227539062
 46
0.0
 47
0.0
 48
0.0
 49
0.0
140
0.0
141
0.0
142
1.0
143
1.0
 70
 11952
 72
     0
 73
     1
 74
     0
  7
monochrome.ctb
 75
     0
147
1.0
 76
     0
 77
     2
 78
   300
148
1150.120678237584
149
45.30495740799864
100
AcDbLayout
  1
Model
 70
     1
 71
     0
 10
0.0
 20
0.0
 11
12.0
 21
9.0
 12
0.0
 22
0.0
 32
0.0
 14
0.0
 24
0.0
 34
0.0
 15
0.0
 25
0.0
 35
0.0
146
0.0
 13
0.0
 23
0.0
 33
0.0
 16
1.0
 26
0.0
 36
0.0
 17
0.0
 27
1.0
 37
0.0
 76
     0
330
1E
  0
MLINESTYLE
  5
17
102
{ACAD_REACTORS
330
16
102
}
330
16
100
AcDbMlineStyle
  2
STANDARD
 70
     0
  3

 62
   256
 51
90.0
 52
90.0
 71
     2
 49
0.5
 62
   256
  6
BYLAYER
 49
-0.5
 62
   256
  6
BYLAYER
  0
ACDBPLACEHOLDER
  5
F
102
{ACAD_REACTORS
330
E
102
}
330
E
  0
DICTIONARYVAR
  5
1CFE
102
{ACAD_REACTORS
330
246
102
}
330
246
100
DictionaryVariables
280
     0
  1
1
  0
DICTIONARYVAR
  5
1CFF
102
{ACAD_REACTORS
330
246
102
}
330
246
100
DictionaryVariables
280
     0
  1

  0
DICTIONARYVAR
  5
247
102
{ACAD_REACTORS
330
246
102
}
330
246
100
DictionaryVariables
280
     0
  1
96
  0
ENDSEC
  0
EOF
