  0
SECTION
  2
HEADER
  9
$ACADVER
  1
AC1018
  9
$ACADMAINTVER
 70
     2
  9
$DWGCODEPAGE
  3
ANSI_1252
  9
$INSBASE
 10
0.0
 20
0.0
 30
0.0
  9
$EXTMIN
 10
-0.032032210177249
 20
-0.0453026972511452
 30
-0.0000000000000053
  9
$EXTMAX
 10
420.0000048900107
 20
594.000006915872
 30
0.0000000000000099
  9
$LIMMIN
 10
0.0
 20
0.0
  9
$LIMMAX
 10
419.9999999999999
 20
594.0
  9
$ORTHOMODE
 70
     0
  9
$REGENMODE
 70
     1
  9
$FILLMODE
 70
     1
  9
$QTEXTMODE
 70
     0
  9
$MIRRTEXT
 70
     1
  9
$LTSCALE
 40
20.0
  9
$ATTMODE
 70
     1
  9
$TEXTSIZE
 40
3.5
  9
$TRACEWID
 40
0.5
  9
$TEXTSTYLE
  7
STANDARD
  9
$CLAYER
  8
SCHRAFF
  9
$CELTYPE
  6
ByLayer
  9
$CECOLOR
 62
   256
  9
$CELTSCALE
 40
1.0
  9
$DISPSILH
 70
     0
  9
$DIMSCALE
 40
2.0
  9
$DIMASZ
 40
3.5
  9
$DIMEXO
 40
1.0
  9
$DIMDLI
 40
7.0
  9
$DIMRND
 40
0.0
  9
$DIMDLE
 40
0.0
  9
$DIMEXE
 40
1.0
  9
$DIMTP
 40
0.0
  9
$DIMTM
 40
0.0
  9
$DIMTXT
 40
3.5
  9
$DIMCEN
 40
1.5
  9
$DIMTSZ
 40
0.0
  9
$DIMTOL
 70
     0
  9
$DIMLIM
 70
     0
  9
$DIMTIH
 70
     0
  9
$DIMTOH
 70
     0
  9
$DIMSE1
 70
     0
  9
$DIMSE2
 70
     0
  9
$DIMTAD
 70
     1
  9
$DIMZIN
 70
     8
  9
$DIMBLK
  1

  9
$DIMASO
 70
     1
  9
$DIMSHO
 70
     0
  9
$DIMPOST
  1

  9
$DIMAPOST
  1

  9
$DIMALT
 70
     0
  9
$DIMALTD
 70
     2
  9
$DIMALTF
 40
25.4
  9
$DIMLFAC
 40
1.0
  9
$DIMTOFL
 70
     1
  9
$DIMTVP
 40
0.0
  9
$DIMTIX
 70
     0
  9
$DIMSOXD
 70
     0
  9
$DIMSAH
 70
     0
  9
$DIMBLK1
  1

  9
$DIMBLK2
  1

  9
$DIMSTYLE
  2
Standard
  9
$DIMCLRD
 70
     0
  9
$DIMCLRE
 70
     0
  9
$DIMCLRT
 70
     1
  9
$DIMTFAC
 40
0.5142857142857144
  9
$DIMGAP
 40
1.5
  9
$DIMJUST
 70
     0
  9
$DIMSD1
 70
     0
  9
$DIMSD2
 70
     0
  9
$DIMTOLJ
 70
     1
  9
$DIMTZIN
 70
     8
  9
$DIMALTZ
 70
     8
  9
$DIMALTTZ
 70
     8
  9
$DIMUPT
 70
     0
  9
$DIMDEC
 70
     2
  9
$DIMTDEC
 70
     2
  9
$DIMALTU
 70
     2
  9
$DIMALTTD
 70
     2
  9
$DIMTXSTY
  7
STANDARD
  9
$DIMAUNIT
 70
     0
  9
$DIMADEC
 70
     2
  9
$DIMALTRND
 40
0.0
  9
$DIMAZIN
 70
     2
  9
$DIMDSEP
 70
    46
  9
$DIMATFIT
 70
     3
  9
$DIMFRAC
 70
     0
  9
$DIMLDRBLK
  1

  9
$DIMLUNIT
 70
     2
  9
$DIMLWD
 70
    -2
  9
$DIMLWE
 70
    -2
  9
$DIMTMOVE
 70
     0
  9
$LUNITS
 70
     2
  9
$LUPREC
 70
     2
  9
$SKETCHINC
 40
1.0
  9
$FILLETRAD
 40
0.0
  9
$AUNITS
 70
     1
  9
$AUPREC
 70
     3
  9
$MENU
  1
ACAD
  9
$ELEVATION
 40
0.0
  9
$PELEVATION
 40
0.0
  9
$THICKNESS
 40
0.0
  9
$LIMCHECK
 70
     0
  9
$CHAMFERA
 40
0.0
  9
$CHAMFERB
 40
0.0
  9
$CHAMFERC
 40
0.0
  9
$CHAMFERD
 40
0.0
  9
$SKPOLY
 70
     0
  9
$TDCREATE
 40
2452040.637099653
  9
$TDUCREATE
 40
2452040.553766320
  9
$TDUPDATE
 40
2455666.400281632
  9
$TDUUPDATE
 40
2455666.316948299
  9
$TDINDWG
 40
0.4065661227
  9
$TDUSRTIMER
 40
0.4065661227
  9
$USRTIMER
 70
     1
  9
$ANGBASE
 50
0.0
  9
$ANGDIR
 70
     0
  9
$PDMODE
 70
     0
  9
$PDSIZE
 40
0.0
  9
$PLINEWID
 40
0.0
  9
$SPLFRAME
 70
     0
  9
$SPLINETYPE
 70
     6
  9
$SPLINESEGS
 70
     8
  9
$HANDSEED
  5
1281
  9
$SURFTAB1
 70
     6
  9
$SURFTAB2
 70
     6
  9
$SURFTYPE
 70
     6
  9
$SURFU
 70
     6
  9
$SURFV
 70
     6
  9
$UCSBASE
  2

  9
$UCSNAME
  2

  9
$UCSORG
 10
0.0
 20
0.0
 30
0.0
  9
$UCSXDIR
 10
1.0
 20
0.0
 30
0.0
  9
$UCSYDIR
 10
0.0
 20
1.0
 30
0.0
  9
$UCSORTHOREF
  2

  9
$UCSORTHOVIEW
 70
     0
  9
$UCSORGTOP
 10
0.0
 20
0.0
 30
0.0
  9
$UCSORGBOTTOM
 10
0.0
 20
0.0
 30
0.0
  9
$UCSORGLEFT
 10
0.0
 20
0.0
 30
0.0
  9
$UCSORGRIGHT
 10
0.0
 20
0.0
 30
0.0
  9
$UCSORGFRONT
 10
0.0
 20
0.0
 30
0.0
  9
$UCSORGBACK
 10
0.0
 20
0.0
 30
0.0
  9
$PUCSBASE
  2

  9
$PUCSNAME
  2

  9
$PUCSORG
 10
0.0
 20
0.0
 30
0.0
  9
$PUCSXDIR
 10
1.0
 20
0.0
 30
0.0
  9
$PUCSYDIR
 10
0.0
 20
1.0
 30
0.0
  9
$PUCSORTHOREF
  2

  9
$PUCSORTHOVIEW
 70
     0
  9
$PUCSORGTOP
 10
0.0
 20
0.0
 30
0.0
  9
$PUCSORGBOTTOM
 10
0.0
 20
0.0
 30
0.0
  9
$PUCSORGLEFT
 10
0.0
 20
0.0
 30
0.0
  9
$PUCSORGRIGHT
 10
0.0
 20
0.0
 30
0.0
  9
$PUCSORGFRONT
 10
0.0
 20
0.0
 30
0.0
  9
$PUCSORGBACK
 10
0.0
 20
0.0
 30
0.0
  9
$USERI1
 70
     0
  9
$USERI2
 70
     0
  9
$USERI3
 70
     0
  9
$USERI4
 70
     0
  9
$USERI5
 70
     0
  9
$USERR1
 40
0.0
  9
$USERR2
 40
0.0
  9
$USERR3
 40
0.0
  9
$USERR4
 40
0.0
  9
$USERR5
 40
0.0
  9
$WORLDVIEW
 70
     1
  9
$SHADEDGE
 70
     3
  9
$SHADEDIF
 70
    70
  9
$TILEMODE
 70
     1
  9
$MAXACTVP
 70
    16
  9
$PINSBASE
 10
0.0
 20
0.0
 30
0.0
  9
$PLIMCHECK
 70
     0
  9
$PEXTMIN
 10
1.000000000000000E+20
 20
1.000000000000000E+20
 30
1.000000000000000E+20
  9
$PEXTMAX
 10
-1.000000000000000E+20
 20
-1.000000000000000E+20
 30
-1.000000000000000E+20
  9
$PLIMMIN
 10
0.0
 20
0.0
  9
$PLIMMAX
 10
12.0
 20
9.0
  9
$UNITMODE
 70
     0
  9
$VISRETAIN
 70
     0
  9
$PLINEGEN
 70
     0
  9
$PSLTSCALE
 70
     0
  9
$TREEDEPTH
 70
  3020
  9
$CMLSTYLE
  2
Standard
  9
$CMLJUST
 70
     0
  9
$CMLSCALE
 40
1.0
  9
$PROXYGRAPHICS
 70
     1
  9
$MEASUREMENT
 70
     0
  9
$CELWEIGHT
370
    -1
  9
$ENDCAPS
280
     0
  9
$JOINSTYLE
280
     0
  9
$LWDISPLAY
290
     0
  9
$INSUNITS
 70
     0
  9
$HYPERLINKBASE
  1

  9
$STYLESHEET
  1
monochrome 1.ctb
  9
$XEDIT
290
     1
  9
$CEPSNTYPE
380
     0
  9
$PSTYLEMODE
290
     1
  9
$FINGERPRINTGUID
  2
{7AADB5C8-6110-11D8-B72B-000102183313}
  9
$VERSIONGUID
  2
{7C298D8C-1032-4F68-9F87-E3C8B5B9D172}
  9
$EXTNAMES
290
     1
  9
$PSVPSCALE
 40
0.0
  9
$OLESTARTUP
290
     0
  9
$SORTENTS
280
    96
  9
$INDEXCTL
280
     0
  9
$HIDETEXT
280
     0
  9
$XCLIPFRAME
290
     0
  9
$HALOGAP
280
     0
  9
$OBSCOLOR
 70
   257
  9
$OBSLTYPE
280
     0
  9
$INTERSECTIONDISPLAY
280
     0
  9
$INTERSECTIONCOLOR
 70
   257
  9
$DIMASSOC
280
     1
  9
$PROJECTNAME
  1

  0
ENDSEC
  0
SECTION
  2
CLASSES
  0
CLASS
  1
ACDBDICTIONARYWDFLT
  2
AcDbDictionaryWithDefault
  3
ObjectDBX Classes
 90
        0
 91
        1
280
     0
281
     0
  0
CLASS
  1
DICTIONARYVAR
  2
AcDbDictionaryVar
  3
ObjectDBX Classes
 90
        0
 91
        3
280
     0
281
     0
  0
ENDSEC
  0
SECTION
  2
TABLES
  0
TABLE
  2
VPORT
  5
8
330
0
100
AcDbSymbolTable
 70
     3
  0
VPORT
  5
1280
330
8
100
AcDbSymbolTableRecord
100
AcDbViewportTableRecord
  2
*Active
 70
     0
 10
0.0
 20
0.0
 11
1.0
 21
1.0
 12
210.0
 22
297.0
 13
0.0
 23
0.0
 14
1.0
 24
1.0
 15
10.0
 25
10.0
 16
0.0
 26
0.0
 36
1.0
 17
0.0
 27
0.0
 37
0.0
 40
594.0
 41
1.334231805929919
 42
50.0
 43
0.0
 44
0.0
 50
0.0
 51
0.0
 71
     0
 72
  1500
 73
     1
 74
     0
 75
     0
 76
     0
 77
     0
 78
     0
281
     0
 65
     1
110
0.0
120
0.0
130
0.0
111
1.0
121
0.0
131
0.0
112
0.0
122
1.0
132
0.0
 79
     0
146
0.0
  0
ENDTAB
  0
TABLE
  2
LTYPE
  5
5
330
0
100
AcDbSymbolTable
 70
     2
  0
LTYPE
  5
13
330
5
100
AcDbSymbolTableRecord
100
AcDbLinetypeTableRecord
  2
ByBlock
 70
     0
  3

 72
    65
 73
     0
 40
0.0
  0
LTYPE
  5
14
330
5
100
AcDbSymbolTableRecord
100
AcDbLinetypeTableRecord
  2
ByLayer
 70
     0
  3

 72
    65
 73
     0
 40
0.0
  0
LTYPE
  5
15
330
5
100
AcDbSymbolTableRecord
100
AcDbLinetypeTableRecord
  2
Continuous
 70
     0
  3
Solid line
 72
    65
 73
     0
 40
0.0
  0
LTYPE
  5
35
330
5
100
AcDbSymbolTableRecord
100
AcDbLinetypeTableRecord
  2
STRICHPUNKT
 70
     0
  3
__ . __ . __ . __ . __ . __ . __ . __ . __ . __
 72
    65
 73
     4
 40
1.0
 49
0.5
 74
     0
 49
-0.25
 74
     0
 49
0.0
 74
     0
 49
-0.25
 74
     0
  0
ENDTAB
  0
TABLE
  2
LAYER
  5
2
330
0
100
AcDbSymbolTable
 70
     9
  0
LAYER
  5
10
330
2
100
AcDbSymbolTableRecord
100
AcDbLayerTableRecord
  2
0
 70
     0
 62
     7
  6
Continuous
370
    -3
390
F
  0
LAYER
  5
38
330
2
100
AcDbSymbolTableRecord
100
AcDbLayerTableRecord
  2
VOLL
 70
     0
 62
     1
  6
Continuous
370
    -3
390
F
  0
LAYER
  5
39
330
2
100
AcDbSymbolTableRecord
100
AcDbLayerTableRecord
  2
HILF
 70
     0
 62
     2
  6
Continuous
370
    -3
390
F
  0
LAYER
  5
3A
330
2
100
AcDbSymbolTableRecord
100
AcDbLayerTableRecord
  2
MITTEL
 70
     0
 62
     2
  6
STRICHPUNKT
370
    -3
390
F
  0
LAYER
  5
3B
330
2
100
AcDbSymbolTableRecord
100
AcDbLayerTableRecord
  2
BEM
 70
     0
 62
     7
  6
Continuous
370
    -3
390
F
  0
LAYER
  5
3C
330
2
100
AcDbSymbolTableRecord
100
AcDbLayerTableRecord
  2
STEMPEL
 70
     0
 62
     3
  6
Continuous
370
    -3
390
F
  0
LAYER
  5
3D
330
2
100
AcDbSymbolTableRecord
100
AcDbLayerTableRecord
  2
TEXT
 70
     0
 62
     7
  6
Continuous
370
    -3
390
F
  0
LAYER
  5
3E
330
2
100
AcDbSymbolTableRecord
100
AcDbLayerTableRecord
  2
DEFPOINTS
 70
     0
 62
     7
  6
Continuous
290
     0
370
    -3
390
F
  0
LAYER
  5
3F
330
2
100
AcDbSymbolTableRecord
100
AcDbLayerTableRecord
  2
SCHRAFF
 70
     0
 62
     7
  6
Continuous
370
    -3
390
F
  0
ENDTAB
  0
TABLE
  2
STYLE
  5
3
330
0
100
AcDbSymbolTable
 70
     2
  0
STYLE
  5
11
330
3
100
AcDbSymbolTableRecord
100
AcDbTextStyleTableRecord
  2
STANDARD
 70
     0
 40
0.0
 41
0.8
 50
0.0
 71
     0
 42
3.5
  3
simplex.shx
  4

  0
STYLE
  5
34
330
3
100
AcDbSymbolTableRecord
100
AcDbTextStyleTableRecord
  2
GREEKS
 70
     0
 40
0.0
 41
0.8
 50
0.0
 71
     0
 42
2.5
  3
SIMPLEX.shx
  4

  0
ENDTAB
  0
TABLE
  2
VIEW
  5
6
330
0
100
AcDbSymbolTable
 70
     0
  0
ENDTAB
  0
TABLE
  2
UCS
  5
7
330
0
100
AcDbSymbolTable
 70
     0
  0
ENDTAB
  0
TABLE
  2
APPID
  5
9
330
0
100
AcDbSymbolTable
 70
     1
  0
APPID
  5
12
330
9
100
AcDbSymbolTableRecord
100
AcDbRegAppTableRecord
  2
ACAD
 70
     0
  0
ENDTAB
  0
TABLE
  2
DIMSTYLE
  5
A
330
0
100
AcDbSymbolTable
 70
     1
100
AcDbDimStyleTable
 71
     1
340
1CB
  0
DIMSTYLE
105
1CB
102
{ACAD_REACTORS
330
1DB
330
D41
330
E1B
330
10AC
330
120F
102
}
330
A
100
AcDbSymbolTableRecord
100
AcDbDimStyleTableRecord
  2
Standard
 70
     0
340
11
  0
ENDTAB
  0
TABLE
  2
BLOCK_RECORD
  5
1
330
0
100
AcDbSymbolTable
 70
     7
  0
BLOCK_RECORD
  5
1E
330
1
100
AcDbSymbolTableRecord
100
AcDbBlockTableRecord
  2
*Model_Space
340
21
  0
BLOCK_RECORD
  5
1A
330
1
100
AcDbSymbolTableRecord
100
AcDbBlockTableRecord
  2
*Paper_Space
340
1D
  0
BLOCK_RECORD
  5
22
330
1
100
AcDbSymbolTableRecord
100
AcDbBlockTableRecord
  2
LOGO
340
0
102
{BLKREFS
331
135
102
}
  0
BLOCK_RECORD
  5
1DC
330
1
100
AcDbSymbolTableRecord
100
AcDbBlockTableRecord
  2
*D1
340
0
  0
BLOCK_RECORD
  5
D42
330
1
100
AcDbSymbolTableRecord
100
AcDbBlockTableRecord
  2
*D3
340
0
  0
BLOCK_RECORD
  5
E1C
330
1
100
AcDbSymbolTableRecord
100
AcDbBlockTableRecord
  2
*D4
340
0
  0
BLOCK_RECORD
  5
10AD
330
1
100
AcDbSymbolTableRecord
100
AcDbBlockTableRecord
  2
*D5
340
0
  0
BLOCK_RECORD
  5
1210
330
1
100
AcDbSymbolTableRecord
100
AcDbBlockTableRecord
  2
*D6
340
0
  0
ENDTAB
  0
ENDSEC
  0
SECTION
  2
BLOCKS
  0
BLOCK
  5
43
330
1E
100
AcDbEntity
  8
0
100
AcDbBlockBegin
  2
*Model_Space
 70
     0
 10
0.0
 20
0.0
 30
0.0
  3
*Model_Space
  1

  0
ENDBLK
  5
44
330
1E
100
AcDbEntity
  8
0
100
AcDbBlockEnd
  0
BLOCK
  5
41
330
1A
100
AcDbEntity
 67
     1
  8
0
100
AcDbBlockBegin
  2
*Paper_Space
 70
     0
 10
0.0
 20
0.0
 30
0.0
  3
*Paper_Space
  1

  0
ENDBLK
  5
42
330
1A
100
AcDbEntity
 67
     1
  8
0
100
AcDbBlockEnd
  0
BLOCK
  5
45
330
22
100
AcDbEntity
  8
0
100
AcDbBlockBegin
  2
LOGO
 70
     0
 10
0.0
 20
0.0
 30
0.0
  3
LOGO
  1

  0
ARC
  5
46
330
22
100
AcDbEntity
  8
0
100
AcDbCircle
 10
11.59973089678112
 20
-9.271599258481501
 30
0.0
 40
4.5
100
AcDbArc
 50
270.0
 51
231.0575587310159
  0
LINE
  5
47
330
22
100
AcDbEntity
  8
0
100
AcDbLine
 10
3.599730896781125
 20
-4.771599258481529
 30
0.0
 11
3.599730896781153
 21
-11.77159925848133
 31
0.0
  0
LINE
  5
48
330
22
100
AcDbEntity
  8
0
100
AcDbLine
 10
2.599730896781125
 20
-4.771599258481529
 30
0.0
 11
2.599730896781153
 21
-11.77159925848133
 31
0.0
  0
CIRCLE
  5
49
330
22
100
AcDbEntity
  8
0
100
AcDbCircle
 10
11.59973089678112
 20
-9.271599258481501
 30
0.0
 40
3.5
  0
ARC
  5
4A
330
22
100
AcDbEntity
  8
0
100
AcDbCircle
 10
31.59973089678115
 20
-9.271599258481472
 30
0.0
 40
4.5
100
AcDbArc
 50
270.0
 51
231.0575587310182
  0
LINE
  5
4B
330
22
100
AcDbEntity
  8
0
100
AcDbLine
 10
17.59973089678112
 20
-4.771599258481472
 30
0.0
 11
17.59973089678115
 21
-13.77159925848147
 31
0.0
  0
ARC
  5
4C
330
22
100
AcDbEntity
  8
0
100
AcDbCircle
 10
22.59973089678116
 20
-7.271599258481472
 30
0.0
 40
2.5
100
AcDbArc
 50
293.1161887722295
 51
90.0
  0
CIRCLE
  5
4D
330
22
100
AcDbEntity
  8
0
100
AcDbCircle
 10
31.59973089678115
 20
-9.271599258481472
 30
0.0
 40
3.5
  0
ARC
  5
4E
330
22
100
AcDbEntity
  8
0
100
AcDbCircle
 10
4.599730896781153
 20
-11.77159925848133
 30
0.0
 40
1.0
100
AcDbArc
 50
180.0
 51
270.0
  0
ARC
  5
4F
330
22
100
AcDbEntity
  8
0
100
AcDbCircle
 10
4.599730896781153
 20
-11.77159925848133
 30
0.0
 40
2.0
100
AcDbArc
 50
179.9999999999992
 51
270.0
  0
LINE
  5
50
330
22
100
AcDbEntity
  8
0
100
AcDbLine
 10
11.59973089678115
 20
-13.77159925848144
 30
0.0
 11
4.599730896781153
 21
-13.77159925848147
 31
0.0
  0
LINE
  5
51
330
22
100
AcDbEntity
  8
0
100
AcDbLine
 10
8.771303772034769
 20
-12.77159925848136
 30
0.0
 11
4.599730896781153
 21
-12.77159925848133
 31
0.0
  0
LINE
  5
52
330
22
100
AcDbEntity
  8
0
100
AcDbLine
 10
31.59973089678115
 20
-13.77159925848147
 30
0.0
 11
23.6715276665056
 21
-13.77159925848144
 31
0.0
  0
LINE
  5
53
330
22
100
AcDbEntity
  8
0
100
AcDbLine
 10
23.56565672307022
 20
-9.51278021337896
 30
0.0
 11
24.4388546544846
 21
-12.77159925848144
 31
0.0
  0
LINE
  5
54
330
22
100
AcDbEntity
  8
0
100
AcDbLine
 10
22.59973089678116
 20
-9.771599258481472
 30
0.0
 11
18.59973089678112
 21
-9.771599258481472
 31
0.0
  0
LINE
  5
55
330
22
100
AcDbEntity
  8
0
100
AcDbLine
 10
18.59973089678115
 20
-13.77159925848144
 30
0.0
 11
17.59973089678115
 21
-13.77159925848144
 31
0.0
  0
LINE
  5
56
330
22
100
AcDbEntity
  8
0
100
AcDbLine
 10
18.59973089678115
 20
-9.771599258481472
 30
0.0
 11
18.59973089678115
 21
-13.77159925848144
 31
0.0
  0
LINE
  5
57
330
22
100
AcDbEntity
  8
0
100
AcDbLine
 10
22.59973089678116
 20
-9.771599258481472
 30
0.0
 11
23.67152766650562
 21
-13.77159925848147
 31
0.0
  0
ARC
  5
58
330
22
100
AcDbEntity
  8
0
100
AcDbCircle
 10
22.59973089678116
 20
-7.271599258481472
 30
0.0
 40
2.5
100
AcDbArc
 50
270.0
 51
270.0000000000007
  0
LINE
  5
59
330
22
100
AcDbEntity
  8
0
100
AcDbLine
 10
28.77130377203494
 20
-12.77159925848147
 30
0.0
 11
24.43885465448463
 21
-12.77159925848144
 31
0.0
  0
LINE
  5
5A
330
22
100
AcDbEntity
  8
0
100
AcDbLine
 10
3.599730896781125
 20
-4.771599258481472
 30
0.0
 11
2.599730896781125
 21
-4.771599258481472
 31
0.0
  0
LINE
  5
5B
330
22
100
AcDbEntity
  8
0
100
AcDbLine
 10
22.59973089678116
 20
-8.771599258481472
 30
0.0
 11
18.59973089678115
 21
-8.771599258481472
 31
0.0
  0
LINE
  5
5C
330
22
100
AcDbEntity
  8
0
100
AcDbLine
 10
22.59973089678116
 20
-5.771599258481472
 30
0.0
 11
18.59973089678115
 21
-5.771599258481472
 31
0.0
  0
LINE
  5
5D
330
22
100
AcDbEntity
  8
0
100
AcDbLine
 10
22.59973089678116
 20
-4.771599258481472
 30
0.0
 11
17.59973089678115
 21
-4.771599258481472
 31
0.0
  0
LINE
  5
5E
330
22
100
AcDbEntity
  8
0
100
AcDbLine
 10
18.59973089678115
 20
-5.771599258481472
 30
0.0
 11
18.59973089678115
 21
-8.771599258481472
 31
0.0
  0
ARC
  5
5F
330
22
100
AcDbEntity
  8
0
100
AcDbCircle
 10
22.59973089678116
 20
-7.271599258481472
 30
0.0
 40
1.5
100
AcDbArc
 50
270.0
 51
90.0
  0
ENDBLK
  5
60
330
22
100
AcDbEntity
  8
0
100
AcDbBlockEnd
  0
BLOCK
  5
1E6
330
1DC
100
AcDbEntity
  8
0
100
AcDbBlockBegin
  2
*D1
 70
     1
 10
0.0
 20
0.0
 30
0.0
  3
*D1
  1

  0
LINE
  5
11B0
330
1DC
100
AcDbEntity
  8
BEM
 62
     0
370
    -2
100
AcDbLine
 10
164.0501468179841
 20
232.9398643287417
 30
0.0
 11
126.5410283364979
 21
232.9398643287417
 31
0.0
  0
LINE
  5
11B1
330
1DC
100
AcDbEntity
  8
BEM
 62
     0
370
    -2
100
AcDbLine
 10
160.8220656117743
 20
462.9431572330718
 30
0.0
 11
126.541028336498
 21
462.9431572330719
 31
0.0
  0
LINE
  5
11B2
330
1DC
100
AcDbEntity
  8
BEM
 62
     0
370
    -2
100
AcDbLine
 10
128.5410283364979
 20
239.9398643287417
 30
0.0
 11
128.541028336498
 21
455.9431572330717
 31
0.0
  0
SOLID
  5
11B3
330
1DC
100
AcDbEntity
  8
BEM
 62
     0
100
AcDbTrace
 10
127.3743616698313
 20
239.9398643287417
 30
0.0
 11
129.7076950031646
 21
239.9398643287417
 31
0.0
 12
128.5410283364979
 22
232.9398643287417
 32
0.0
 13
128.5410283364979
 23
232.9398643287417
 33
0.0
  0
SOLID
  5
11B4
330
1DC
100
AcDbEntity
  8
BEM
 62
     0
100
AcDbTrace
 10
127.3743616698313
 20
455.9431572330718
 30
0.0
 11
129.7076950031647
 21
455.9431572330717
 31
0.0
 12
128.541028336498
 22
462.9431572330718
 32
0.0
 13
128.541028336498
 23
462.9431572330718
 33
0.0
  0
MTEXT
  5
11B5
330
1DC
100
AcDbEntity
  8
BEM
 62
     1
100
AcDbMText
 10
122.0410283364979
 20
347.9415107809068
 30
0.0
 40
7.0
 41
0.0
 71
     5
 72
     1
  1
\A1;230
 11
0.0000000000000001
 21
1.0
 31
0.0
 73
     1
 44
1.0
  0
POINT
  5
11B6
330
1DC
100
AcDbEntity
  8
DEFPOINTS
 62
     0
100
AcDbPoint
 10
166.0501468179841
 20
232.9398643287417
 30
0.0
  0
POINT
  5
11B7
330
1DC
100
AcDbEntity
  8
DEFPOINTS
 62
     0
100
AcDbPoint
 10
162.8220656117743
 20
462.9431572330718
 30
0.0
  0
POINT
  5
11B8
330
1DC
100
AcDbEntity
  8
DEFPOINTS
 62
     0
100
AcDbPoint
 10
128.541028336498
 20
462.9431572330718
 30
0.0
  0
ENDBLK
  5
1E7
330
1DC
100
AcDbEntity
  8
0
100
AcDbBlockEnd
  0
BLOCK
  5
D4C
330
D42
100
AcDbEntity
  8
0
100
AcDbBlockBegin
  2
*D3
 70
     1
 10
0.0
 20
0.0
 30
0.0
  3
*D3
  1

  0
LINE
  5
11A7
330
D42
100
AcDbEntity
  8
BEM
 62
     0
370
    -2
100
AcDbLine
 10
165.6127035003545
 20
235.9398643287419
 30
0.0
 11
165.6127035003545
 21
210.0242363893328
 31
0.0
  0
LINE
  5
11A8
330
D42
100
AcDbEntity
  8
BEM
 62
     0
370
    -2
100
AcDbLine
 10
238.6127035003545
 20
235.9398643287422
 30
0.0
 11
238.6127035003545
 21
210.0242363893328
 31
0.0
  0
LINE
  5
11A9
330
D42
100
AcDbEntity
  8
BEM
 62
     0
370
    -2
100
AcDbLine
 10
172.6127035003545
 20
212.0242363893328
 30
0.0
 11
231.6127035003545
 21
212.0242363893328
 31
0.0
  0
SOLID
  5
11AA
330
D42
100
AcDbEntity
  8
BEM
 62
     0
100
AcDbTrace
 10
172.6127035003545
 20
213.1909030559994
 30
0.0
 11
172.6127035003545
 21
210.8575697226661
 31
0.0
 12
165.6127035003545
 22
212.0242363893328
 32
0.0
 13
165.6127035003545
 23
212.0242363893328
 33
0.0
  0
SOLID
  5
11AB
330
D42
100
AcDbEntity
  8
BEM
 62
     0
100
AcDbTrace
 10
231.6127035003545
 20
213.1909030559994
 30
0.0
 11
231.6127035003545
 21
210.8575697226661
 31
0.0
 12
238.6127035003545
 22
212.0242363893328
 32
0.0
 13
238.6127035003545
 23
212.0242363893328
 33
0.0
  0
MTEXT
  5
11AC
330
D42
100
AcDbEntity
  8
BEM
 62
     1
100
AcDbMText
 10
202.1127035003545
 20
218.5242363893328
 30
0.0
 40
7.0
 41
0.0
 71
     5
 72
     1
  1
\A1;%%c73
 73
     1
 44
1.0
  0
POINT
  5
11AD
330
D42
100
AcDbEntity
  8
DEFPOINTS
 62
     0
100
AcDbPoint
 10
165.6127035003545
 20
237.9398643287419
 30
0.0
  0
POINT
  5
11AE
330
D42
100
AcDbEntity
  8
DEFPOINTS
 62
     0
100
AcDbPoint
 10
238.6127035003545
 20
237.9398643287423
 30
0.0
  0
POINT
  5
11AF
330
D42
100
AcDbEntity
  8
DEFPOINTS
 62
     0
100
AcDbPoint
 10
238.6127035003545
 20
212.0242363893328
 30
0.0
  0
ENDBLK
  5
D4D
330
D42
100
AcDbEntity
  8
0
100
AcDbBlockEnd
  0
BLOCK
  5
E26
330
E1C
100
AcDbEntity
  8
0
100
AcDbBlockBegin
  2
*D4
 70
     1
 10
0.0
 20
0.0
 30
0.0
  3
*D4
  1

  0
LINE
  5
11D4
330
E1C
100
AcDbEntity
  8
BEM
 62
     0
370
    -2
100
AcDbLine
 10
164.0501468179841
 20
232.9398643287417
 30
0.0
 11
141.6737904398751
 21
232.9398643287417
 31
0.0
  0
LINE
  5
11D5
330
E1C
100
AcDbEntity
  8
BEM
 62
     0
370
    -2
100
AcDbLine
 10
200.1127035003546
 20
327.9398643287418
 30
0.0
 11
141.6737904398751
 21
327.9398643287418
 31
0.0
  0
LINE
  5
11D6
330
E1C
100
AcDbEntity
  8
BEM
 62
     0
370
    -2
100
AcDbLine
 10
143.6737904398751
 20
239.9398643287417
 30
0.0
 11
143.6737904398751
 21
320.9398643287418
 31
0.0
  0
SOLID
  5
11D7
330
E1C
100
AcDbEntity
  8
BEM
 62
     0
100
AcDbTrace
 10
142.5071237732084
 20
239.9398643287417
 30
0.0
 11
144.8404571065417
 21
239.9398643287417
 31
0.0
 12
143.6737904398751
 22
232.9398643287417
 32
0.0
 13
143.6737904398751
 23
232.9398643287417
 33
0.0
  0
SOLID
  5
11D8
330
E1C
100
AcDbEntity
  8
BEM
 62
     0
100
AcDbTrace
 10
142.5071237732084
 20
320.9398643287418
 30
0.0
 11
144.8404571065418
 21
320.9398643287418
 31
0.0
 12
143.6737904398751
 22
327.9398643287418
 32
0.0
 13
143.6737904398751
 23
327.9398643287418
 33
0.0
  0
MTEXT
  5
11D9
330
E1C
100
AcDbEntity
  8
BEM
 62
     1
100
AcDbMText
 10
137.173790439875
 20
280.4398643287417
 30
0.0
 40
7.0
 41
0.0
 71
     5
 72
     1
  1
\A1;95
 11
0.0000000000000001
 21
1.0
 31
0.0
 73
     1
 44
1.0
  0
POINT
  5
11DA
330
E1C
100
AcDbEntity
  8
DEFPOINTS
 62
     0
100
AcDbPoint
 10
166.0501468179841
 20
232.9398643287417
 30
0.0
  0
POINT
  5
11DB
330
E1C
100
AcDbEntity
  8
DEFPOINTS
 62
     0
100
AcDbPoint
 10
202.1127035003546
 20
327.9398643287418
 30
0.0
  0
POINT
  5
11DC
330
E1C
100
AcDbEntity
  8
DEFPOINTS
 62
     0
100
AcDbPoint
 10
143.6737904398751
 20
327.9398643287418
 30
0.0
  0
ENDBLK
  5
E27
330
E1C
100
AcDbEntity
  8
0
100
AcDbBlockEnd
  0
BLOCK
  5
10B7
330
10AD
100
AcDbEntity
  8
0
100
AcDbBlockBegin
  2
*D5
 70
     1
 10
0.0
 20
0.0
 30
0.0
  3
*D5
  1

  0
LINE
  5
1276
330
10AD
100
AcDbEntity
  8
BEM
 62
     0
370
    -2
100
AcDbLine
 10
202.796743787006
 20
326.0604790871699
 30
0.0
 11
222.8194385169193
 21
271.0485774401004
 31
0.0
  0
LINE
  5
1277
330
10AD
100
AcDbEntity
  8
BEM
 62
     0
370
    -2
100
AcDbLine
 10
338.3949740911833
 20
333.6019752296366
 30
0.0
 11
344.9794792190872
 21
315.5111960724374
 31
0.0
  0
LINE
  5
1278
330
10AD
100
AcDbEntity
  8
BEM
 62
     0
370
    -2
100
AcDbLine
 10
228.7132465757693
 20
275.3221036849518
 30
0.0
 11
337.7175905869345
 21
314.9964403107296
 31
0.0
  0
SOLID
  5
1279
330
10AD
100
AcDbEntity
  8
BEM
 62
     0
100
AcDbTrace
 10
228.3142230752226
 20
276.4184117425354
 30
0.0
 11
229.1122700763159
 21
274.2257956273683
 31
0.0
 12
222.1353982302679
 22
272.9279626816722
 32
0.0
 13
222.1353982302679
 23
272.9279626816722
 33
0.0
  0
SOLID
  5
127A
330
10AD
100
AcDbEntity
  8
BEM
 62
     0
100
AcDbTrace
 10
337.3185670863879
 20
316.0927483683131
 30
0.0
 11
338.1166140874811
 21
313.900132253146
 31
0.0
 12
344.2954389324358
 22
317.3905813140093
 32
0.0
 13
344.2954389324358
 23
317.3905813140093
 33
0.0
  0
MTEXT
  5
127B
330
10AD
100
AcDbEntity
  8
BEM
 62
     1
100
AcDbMText
 10
286.2866026044162
 20
303.1942470872834
 30
0.0
 40
7.0
 41
0.0
 71
     5
 72
     1
  1
\A1;130
 11
0.9396926207859078
 21
0.3420201433256703
 31
0.0
 73
     1
 44
1.0
  0
POINT
  5
127C
330
10AD
100
AcDbEntity
  8
DEFPOINTS
 62
     0
100
AcDbPoint
 10
202.1127035003547
 20
327.9398643287418
 30
0.0
  0
POINT
  5
127D
330
10AD
100
AcDbEntity
  8
DEFPOINTS
 62
     0
100
AcDbPoint
 10
337.7109338045318
 20
335.4813604712084
 30
0.0
  0
POINT
  5
127E
330
10AD
100
AcDbEntity
  8
DEFPOINTS
 62
     0
100
AcDbPoint
 10
344.2954389324357
 20
317.3905813140093
 30
0.0
  0
ENDBLK
  5
10B8
330
10AD
100
AcDbEntity
  8
0
100
AcDbBlockEnd
  0
BLOCK
  5
121C
330
1210
100
AcDbEntity
  8
0
100
AcDbBlockBegin
  2
*D6
 70
     1
 10
0.0
 20
0.0
 30
0.0
  3
*D6
  1

  0
LINE
  5
1211
330
1210
100
AcDbEntity
  8
BEM
 62
     0
370
    -2
100
AcDbLine
 10
330.850592548024
 20
374.7966239643583
 30
0.0
 11
347.2740975115931
 21
380.7742909134206
 31
0.0
  0
LINE
  5
1212
330
1210
100
AcDbEntity
  8
BEM
 62
     0
370
    -2
100
AcDbLine
 10
202.1127035003547
 20
469.9431572330716
 30
0.0
 11
202.1127035003547
 21
482.4173932571197
 31
0.0
  0
ARC
  5
1213
330
1210
100
AcDbEntity
  8
BEM
 62
     0
370
    -2
100
AcDbCircle
 10
202.1127035003546
 20
327.9398643287418
 30
0.0
 40
152.4775289283779
100
AcDbArc
 50
22.63058883578748
 51
87.36941116421242
  0
SOLID
  5
1214
330
1210
100
AcDbEntity
  8
BEM
 62
     0
100
AcDbTrace
 10
343.9370727547667
 20
387.0354934702326
 30
0.0
 11
341.763352887441
 21
386.1873269872602
 31
0.0
 12
345.3947122700213
 22
380.0902506267693
 32
0.0
 13
345.3947122700213
 23
380.0902506267693
 33
0.0
  0
SOLID
  5
1215
330
1210
100
AcDbEntity
  8
BEM
 62
     0
100
AcDbTrace
 10
209.0840792211734
 20
479.09035457257
 30
0.0
 11
209.1376390258479
 21
481.4230731136219
 31
0.0
 12
202.1127035003547
 22
480.4173932571196
 32
0.0
 13
202.1127035003547
 23
480.4173932571196
 33
0.0
  0
MTEXT
  5
1216
330
1210
100
AcDbEntity
  8
BEM
 62
     1
100
AcDbMText
 10
293.2984680029891
 20
458.1666321464348
 30
0.0
 40
7.0
 41
0.0
 71
     5
 72
     1
  1
\A1;70°
 11
0.8191520442889917
 21
-0.5735764363510463
 31
0.0
 73
     1
 44
1.0
  0
POINT
  5
1217
330
1210
100
AcDbEntity
  8
DEFPOINTS
 62
     0
100
AcDbPoint
 10
313.0208389750489
 20
432.576293518729
 30
0.0
  0
POINT
  5
1218
330
1210
100
AcDbEntity
  8
DEFPOINTS
 62
     0
100
AcDbPoint
 10
202.1127035003547
 20
467.9431572330717
 30
0.0
  0
POINT
  5
1219
330
1210
100
AcDbEntity
  8
DEFPOINTS
 62
     0
100
AcDbPoint
 10
328.9712073064521
 20
374.1125836777069
 30
0.0
  0
POINT
  5
121A
330
1210
100
AcDbEntity
  8
DEFPOINTS
 62
     0
100
AcDbPoint
 10
202.1127035003546
 20
327.9398643287418
 30
0.0
  0
POINT
  5
121B
330
1210
100
AcDbEntity
  8
DEFPOINTS
 62
     0
100
AcDbPoint
 10
202.1127035003545
 20
227.939864328742
 30
0.0
  0
ENDBLK
  5
121D
330
1210
100
AcDbEntity
  8
0
100
AcDbBlockEnd
  0
ENDSEC
  0
SECTION
  2
ENTITIES
  0
LINE
  5
12A
330
1E
100
AcDbEntity
  8
STEMPEL
100
AcDbLine
 10
241.403341388935
 20
462.9431572330717
 30
0.0
 11
162.8220656117743
 21
462.9431572330718
 31
0.0
  0
TEXT
  5
134
330
1E
100
AcDbEntity
  8
TEXT
100
AcDbText
 10
204.4216048581257
 20
63.0896391972351
 30
0.0
 40
4.0
  1
Koeh
 41
0.8
  7
GREEKS
 72
     1
 11
209.6787477152686
 21
63.0896391972351
 31
0.0
100
AcDbText
  0
INSERT
  5
135
330
1E
100
AcDbEntity
  8
STEMPEL
100
AcDbBlockReference
  2
LOGO
 10
150.9955485457794
 20
45.02105276448322
 30
0.0
 41
2.0
 42
2.0
 43
2.0
  0
LINE
  5
136
330
1E
100
AcDbEntity
  8
HILF
100
AcDbLine
 10
420.0
 20
0.0
 30
0.0
 11
0.0
 21
0.0
 31
0.0
  0
LINE
  5
137
330
1E
100
AcDbEntity
  8
HILF
100
AcDbLine
 10
419.9999999999999
 20
594.0000000000002
 30
0.0
 11
0.0
 21
594.0
 31
0.0
  0
LINE
  5
138
330
1E
100
AcDbEntity
  8
STEMPEL
100
AcDbLine
 10
410.0
 20
584.0
 30
0.0
 11
39.99999999999989
 21
584.0
 31
0.0
  0
LINE
  5
139
330
1E
100
AcDbEntity
  8
STEMPEL
100
AcDbLine
 10
410.0
 20
10.0
 30
0.0
 11
39.99999999999989
 21
10.0
 31
0.0
  0
LINE
  5
13A
330
1E
100
AcDbEntity
  8
STEMPEL
100
AcDbLine
 10
49.99999999999989
 20
10.0
 30
0.0
 11
410.0
 21
10.0
 31
0.0
  0
TEXT
  5
13B
330
1E
100
AcDbEntity
  8
TEXT
100
AcDbText
 10
202.4626584226295
 20
73.30961091915225
 30
0.0
 40
4.0
  1
Name
 41
0.8
  7
GREEKS
100
AcDbText
  0
TEXT
  5
13C
330
1E
100
AcDbEntity
  8
TEXT
100
AcDbText
 10
196.5498279101549
 20
102.6506227776589
 30
0.0
 40
5.0
  1
Zul. Abw.
 41
0.8
  7
GREEKS
 72
     4
 11
209.9783993387263
 21
105.1506227776589
 31
0.0
100
AcDbText
  0
LINE
  5
13D
330
1E
100
AcDbEntity
  8
HILF
100
AcDbLine
 10
146.0000000000001
 20
49.99999999999997
 30
0.0
 11
230.0
 21
49.99999999999997
 31
0.0
  0
LINE
  5
13E
330
1E
100
AcDbEntity
  8
HILF
100
AcDbLine
 10
146.0000000000001
 20
59.99999999999997
 30
0.0
 11
230.0
 21
59.99999999999997
 31
0.0
  0
LINE
  5
13F
330
1E
100
AcDbEntity
  8
HILF
100
AcDbLine
 10
146.0000000000001
 20
69.99999999999994
 30
0.0
 11
230.0
 21
69.99999999999994
 31
0.0
  0
LINE
  5
140
330
1E
100
AcDbEntity
  8
STEMPEL
100
AcDbLine
 10
410.0
 20
80.0
 30
0.0
 11
146.0000000000001
 21
79.99999999999994
 31
0.0
  0
LINE
  5
141
330
1E
100
AcDbEntity
  8
STEMPEL
100
AcDbLine
 10
410.0
 20
40.0
 30
0.0
 11
146.0000000000001
 21
39.99999999999997
 31
0.0
  0
LINE
  5
142
330
1E
100
AcDbEntity
  8
STEMPEL
100
AcDbLine
 10
410.0
 20
110.0
 30
0.0
 11
39.99999999999997
 21
110.0
 31
0.0
  0
LINE
  5
143
330
1E
100
AcDbEntity
  8
MITTEL
100
AcDbLine
 10
202.1127035003547
 20
467.9431572330718
 30
0.0
 11
202.1127035003545
 21
227.939864328742
 31
0.0
  0
LINE
  5
144
330
1E
100
AcDbEntity
  8
HILF
100
AcDbLine
 10
0.0
 20
0.0
 30
0.0
 11
-0.0000000000001137
 21
594.0
 31
0.0
  0
LINE
  5
145
330
1E
100
AcDbEntity
  8
STEMPEL
100
AcDbLine
 10
40.0
 20
10.0
 30
0.0
 11
39.99999999999989
 21
584.0
 31
0.0
  0
LINE
  5
148
330
1E
100
AcDbEntity
  8
HILF
100
AcDbLine
 10
40.00000000000008
 20
39.99999999999997
 30
0.0
 11
146.0000000000001
 21
39.99999999999997
 31
0.0
  0
LINE
  5
149
330
1E
100
AcDbEntity
  8
HILF
100
AcDbLine
 10
40.00000000000008
 20
49.99999999999997
 30
0.0
 11
146.0000000000001
 21
49.99999999999997
 31
0.0
  0
LINE
  5
14A
330
1E
100
AcDbEntity
  8
HILF
100
AcDbLine
 10
40.00000000000008
 20
59.99999999999997
 30
0.0
 11
146.0000000000001
 21
59.99999999999997
 31
0.0
  0
LINE
  5
14B
330
1E
100
AcDbEntity
  8
HILF
100
AcDbLine
 10
40.00000000000008
 20
69.99999999999994
 30
0.0
 11
146.0000000000001
 21
69.99999999999994
 31
0.0
  0
LINE
  5
14C
330
1E
100
AcDbEntity
  8
HILF
100
AcDbLine
 10
40.00000000000008
 20
79.99999999999994
 30
0.0
 11
146.0000000000001
 21
79.99999999999994
 31
0.0
  0
LINE
  5
14D
330
1E
100
AcDbEntity
  8
HILF
100
AcDbLine
 10
40.00000000000008
 20
90.00000000000005
 30
0.0
 11
146.0000000000001
 21
90.00000000000005
 31
0.0
  0
LINE
  5
14E
330
1E
100
AcDbEntity
  8
HILF
100
AcDbLine
 10
40.00000000000008
 20
100.0
 30
0.0
 11
146.0000000000001
 21
100.0
 31
0.0
  0
LINE
  5
14F
330
1E
100
AcDbEntity
  8
STEMPEL
100
AcDbLine
 10
145.9999999999999
 20
29.99999999999997
 30
0.0
 11
39.99999999999997
 21
29.99999999999997
 31
0.0
  0
TEXT
  5
150
330
1E
100
AcDbEntity
  8
TEXT
100
AcDbText
 10
48.26641107045756
 20
13.65465846027192
 30
0.0
 40
4.0
  1
Index
 50
90.0
 41
0.8
  7
GREEKS
100
AcDbText
  0
LINE
  5
151
330
1E
100
AcDbEntity
  8
VOLL
100
AcDbLine
 10
54.00000000000009
 20
110.0
 30
0.0
 11
53.99999999999997
 21
9.999999999999971
 31
0.0
  0
LINE
  5
152
330
1E
100
AcDbEntity
  8
HILF
100
AcDbLine
 10
31.08767135713856
 20
297.0
 30
0.0
 11
0.0000000000001137
 21
297.0
 31
0.0
  0
LINE
  5
154
330
1E
100
AcDbEntity
  8
VOLL
100
AcDbLine
 10
124.0000000000001
 20
109.9999999999999
 30
0.0
 11
124.0
 21
9.999999999999971
 31
0.0
  0
LINE
  5
155
330
1E
100
AcDbEntity
  8
VOLL
100
AcDbLine
 10
104.0000000000001
 20
109.9999999999999
 30
0.0
 11
104.0
 21
9.999999999999971
 31
0.0
  0
LINE
  5
157
330
1E
100
AcDbEntity
  8
STEMPEL
100
AcDbLine
 10
146.0000000000001
 20
109.9999999999999
 30
0.0
 11
146.0
 21
9.999999999999971
 31
0.0
  0
TEXT
  5
158
330
1E
100
AcDbEntity
  8
TEXT
100
AcDbText
 10
170.7037590129979
 20
63.10765040825732
 30
0.0
 40
4.0
  1
14.04.
 41
0.8
  7
GREEKS
 72
     1
 11
177.4085209177598
 21
63.10765040825732
 31
0.0
100
AcDbText
  0
TEXT
  5
159
330
1E
100
AcDbEntity
  8
TEXT
100
AcDbText
 10
172.331167315365
 20
73.31880501229926
 30
0.0
 40
4.0
  1
Tag
 41
0.8
  7
GREEKS
100
AcDbText
  0
TEXT
  5
15A
330
1E
100
AcDbEntity
  8
TEXT
100
AcDbText
 10
147.5836127167615
 20
63.62990369617964
 30
0.0
 40
4.0
  1
Gez.
 41
0.8
  7
GREEKS
100
AcDbText
  0
LINE
  5
15B
330
1E
100
AcDbEntity
  8
VOLL
100
AcDbLine
 10
164.0000000000001
 20
79.99999999999994
 30
0.0
 11
164.0000000000001
 21
39.99999999999997
 31
0.0
  0
TEXT
  5
15C
330
1E
100
AcDbEntity
  8
TEXT
100
AcDbText
 10
147.6006777387303
 20
43.52946389649807
 30
0.0
 40
4.0
  1
Norm.
 41
0.8
  7
GREEKS
100
AcDbText
  0
TEXT
  5
15D
330
1E
100
AcDbEntity
  8
TEXT
100
AcDbText
 10
147.5515086571672
 20
53.68926291428377
 30
0.0
 40
4.0
  1
Gepr.
 41
0.8
  7
GREEKS
100
AcDbText
  0
TEXT
  5
15E
330
1E
100
AcDbEntity
  8
TEXT
 62
     1
100
AcDbText
 10
160.5006306481887
 20
88.14901428913959
 30
0.0
 40
7.0
  1
1:2
 41
0.8
  7
GREEKS
100
AcDbText
  0
TEXT
  5
15F
330
1E
100
AcDbEntity
  8
TEXT
100
AcDbText
 10
153.5163572150377
 20
102.4620895087088
 30
0.0
 40
5.0
  1
Maßstab
 41
0.8
  7
GREEKS
100
AcDbText
  0
TEXT
  5
160
330
1E
100
AcDbEntity
  8
TEXT
100
AcDbText
 10
148.622109822104
 20
73.14025471151666
 30
0.0
 40
4.0
  1
2011
 41
0.8
  7
GREEKS
100
AcDbText
  0
LINE
  5
161
330
1E
100
AcDbEntity
  8
VOLL
100
AcDbLine
 10
190.0000000000001
 20
109.9999999999998
 30
0.0
 11
190.0
 21
39.99999999999997
 31
0.0
  0
LINE
  5
186
330
1E
100
AcDbEntity
  8
HILF
100
AcDbLine
 10
420.0
 20
-0.0000000000001137
 30
0.0
 11
419.9999999999999
 21
594.0
 31
0.0
  0
LINE
  5
187
330
1E
100
AcDbEntity
  8
STEMPEL
100
AcDbLine
 10
410.0
 20
10.0
 30
0.0
 11
410.0
 21
584.0
 31
0.0
  0
TEXT
  5
188
330
1E
100
AcDbEntity
  8
TEXT
100
AcDbText
 10
337.2400861497006
 20
52.07416177878602
 30
0.0
 40
5.0
  1
ersetzt durch:
 41
0.8
  7
GREEKS
100
AcDbText
  0
TEXT
  5
189
330
1E
100
AcDbEntity
  8
TEXT
100
AcDbText
 10
336.7238616296993
 20
73.1811823709997
 30
0.0
 40
5.0
  1
Ersatz für:
 41
0.8
  7
GREEKS
100
AcDbText
  0
TEXT
  5
18A
330
1E
100
AcDbEntity
  8
TEXT
100
AcDbText
 10
336.178754957634
 20
102.3132034537136
 30
0.0
 40
5.0
  1
Zeichnungs Nr.
 41
0.8
  7
GREEKS
100
AcDbText
  0
LINE
  5
18B
330
1E
100
AcDbEntity
  8
HILF
100
AcDbLine
 10
233.4909699289885
 20
14.89398258028314
 30
0.0
 11
404.8588839326728
 21
14.89398258028314
 31
0.0
  0
LINE
  5
18C
330
1E
100
AcDbEntity
  8
HILF
100
AcDbLine
 10
336.7238616296993
 20
83.77983636955827
 30
0.0
 11
404.8588839326728
 21
83.77983636955827
 31
0.0
  0
LINE
  5
18D
330
1E
100
AcDbEntity
  8
VOLL
100
AcDbLine
 10
332.0
 20
60.0
 30
0.0
 11
410.0
 21
60.0
 31
0.0
  0
TEXT
  5
18E
330
1E
100
AcDbEntity
  8
TEXT
 62
     1
100
AcDbText
 10
234.9283864320014
 20
87.41748789253779
 30
0.0
 40
7.0
  1
Abzweig DN70/70
 41
0.8
  7
GREEKS
100
AcDbText
  0
LINE
  5
18F
330
1E
100
AcDbEntity
  8
HILF
100
AcDbLine
 10
234.7736801096947
 20
49.99999999999997
 30
0.0
 11
324.835391655631
 21
49.99999999999997
 31
0.0
  0
LINE
  5
190
330
1E
100
AcDbEntity
  8
HILF
100
AcDbLine
 10
234.7736801096947
 20
59.99999999999997
 30
0.0
 11
324.835391655631
 21
59.99999999999997
 31
0.0
  0
LINE
  5
191
330
1E
100
AcDbEntity
  8
HILF
100
AcDbLine
 10
234.7736801096947
 20
69.99999999999994
 30
0.0
 11
324.835391655631
 21
69.99999999999994
 31
0.0
  0
LINE
  5
192
330
1E
100
AcDbEntity
  8
HILF
100
AcDbLine
 10
234.7736801096947
 20
84.03758247564139
 30
0.0
 11
324.8353916556311
 21
84.03758247564139
 31
0.0
  0
LINE
  5
193
330
1E
100
AcDbEntity
  8
STEMPEL
100
AcDbLine
 10
230.0
 20
110.0
 30
0.0
 11
230.0
 21
9.999999999999971
 31
0.0
  0
TEXT
  5
194
330
1E
100
AcDbEntity
  8
TEXT
100
AcDbText
 10
235.1296391125315
 20
71.50334417585288
 30
0.0
 40
5.0
  1
dünnwandig 70°
 41
0.8
  7
GREEKS
100
AcDbText
  0
TEXT
  5
195
330
1E
100
AcDbEntity
  8
TEXT
100
AcDbText
 10
234.9837501577827
 20
42.62974153022632
 30
0.0
 40
4.0
  1
4210CC0W.DWG
 41
0.8
  7
GREEKS
100
AcDbText
  0
TEXT
  5
196
330
1E
100
AcDbEntity
  8
TEXT
100
AcDbText
 10
234.742238391136
 20
30.84560570193057
 30
0.0
 40
5.0
  1
Bauvorhaben
 41
0.8
  7
GREEKS
100
AcDbText
  0
TEXT
  5
197
330
1E
100
AcDbEntity
  8
TEXT
100
AcDbText
 10
234.877940380901
 20
102.5489328011779
 30
0.0
 40
5.0
  1
Benennung
 41
0.8
  7
GREEKS
100
AcDbText
  0
LINE
  5
198
330
1E
100
AcDbEntity
  8
STEMPEL
100
AcDbLine
 10
332.0
 20
109.9999999999997
 30
0.0
 11
332.0
 21
40.0
 31
0.0
  0
TEXT
  5
19A
330
1E
100
AcDbEntity
  8
TEXT
 62
     1
100
AcDbText
 10
348.7002632941927
 20
88.14901428913959
 30
0.0
 40
7.0
  1
4210CC0W
 41
0.8
  7
GREEKS
 72
     1
 11
369.7669299608593
 21
88.14901428913959
 31
0.0
100
AcDbText
  0
LINE
  5
1D4
330
1E
100
AcDbEntity
  8
STEMPEL
100
AcDbLine
 10
238.1752601827249
 20
232.9398643287419
 30
0.0
 11
166.0501468179841
 21
232.9398643287417
 31
0.0
  0
LINE
  5
1D7
330
1E
100
AcDbEntity
  8
STEMPEL
100
AcDbLine
 10
165.6127035003545
 20
237.9398643287417
 30
0.0
 11
166.0501468179841
 21
232.9398643287417
 31
0.0
  0
LINE
  5
1D8
330
1E
100
AcDbEntity
  8
STEMPEL
100
AcDbLine
 10
238.6127035003545
 20
237.9398643287423
 30
0.0
 11
238.1752601827249
 21
232.9398643287419
 31
0.0
  0
DIMENSION
  5
1DB
330
1E
100
AcDbEntity
  8
BEM
100
AcDbDimension
  2
*D1
 10
128.541028336498
 20
462.9431572330718
 30
0.0
 11
122.0410283364979
 21
347.9415107809068
 31
0.0
 70
    32
 71
     5
 42
230.0032929043301
  3
Standard
100
AcDbAlignedDimension
 13
166.0501468179841
 23
232.9398643287417
 33
0.0
 14
162.8220656117743
 24
462.9431572330718
 34
0.0
 50
90.0
100
AcDbRotatedDimension
1001
ACAD
1000
DSTYLE
1002
{
1070
    40
1040
2.0
1070
    41
1040
3.5
1070
    42
1040
1.0
1070
    43
1040
7.0
1070
    44
1040
1.0
1070
    73
1070
     0
1070
    74
1070
     0
1070
    77
1070
     1
1070
    78
1070
     8
1070
    79
1070
     2
1070
   140
1040
3.5
1070
   141
1040
1.5
1070
   146
1040
0.5142857142857144
1070
   147
1040
1.5
1070
   172
1070
     1
1070
   178
1070
     1
1070
   179
1070
     2
1070
   271
1070
     2
1070
   272
1070
     2
1070
   284
1070
     8
1070
   285
1070
     8
1070
   286
1070
     8
1002
}
  0
TEXT
  5
212
330
1E
100
AcDbEntity
  8
TEXT
100
AcDbText
 10
235.1296391125315
 20
51.50334417585291
 30
0.0
 40
5.0
  1
EDV-Art.Nr. 4.210.CC0C
 41
0.8
  7
GREEKS
100
AcDbText
  0
TEXT
  5
255
330
1E
100
AcDbEntity
  8
TEXT
 62
     1
100
AcDbText
 10
297.0573649355706
 20
132.2248663682012
 30
0.0
 40
7.0
  1
Werkstoff: 1.4404
 41
0.8
  7
GREEKS
100
AcDbText
  0
TEXT
  5
25D
330
1E
100
AcDbEntity
  8
TEXT
 62
     1
100
AcDbText
 10
173.2958159887221
 20
442.4639056443324
 30
0.0
 40
7.0
  1
DN70
 41
0.8
  7
GREEKS
100
AcDbText
  0
LINE
  5
B5C
330
1E
100
AcDbEntity
  8
HILF
  6
Continuous
100
AcDbLine
 10
164.53431492113
 20
410.5883515428398
 30
0.0
 11
239.6910920795793
 21
410.5883515428398
 31
0.0
  0
LINE
  5
B5D
330
1E
100
AcDbEntity
  8
HILF
  6
Continuous
100
AcDbLine
 10
163.9809918740249
 20
432.4451514967361
 30
0.0
 11
240.2444151266842
 21
432.4451514967361
 31
0.0
  0
LINE
  5
B61
330
1E
100
AcDbEntity
  8
HILF
  6
Continuous
100
AcDbLine
 10
166.4391479058692
 20
406.0666296191273
 30
0.0
 11
237.78625909484
 21
406.0666296191272
 31
0.0
  0
ARC
  5
B7A
330
1E
100
AcDbEntity
  8
STEMPEL
100
AcDbCircle
 10
219.1127169761174
 20
452.4193478806223
 30
0.0
 40
24.65
100
AcDbArc
 50
359.9385097298969
 51
25.27284846783623
  0
LINE
  5
B7B
330
1E
100
AcDbEntity
  8
STEMPEL
100
AcDbLine
 10
243.7627035003546
 20
452.444460935308
 30
0.0
 11
243.7627035003546
 21
443.3814372812626
 31
0.0
  0
ARC
  5
B7C
330
1E
100
AcDbEntity
  8
STEMPEL
100
AcDbCircle
 10
219.1127035003546
 20
443.3153783153471
 30
0.0
 40
24.65009324312573
100
AcDbArc
 50
338.8168456069657
 51
0.1617474312556233
  0
ARC
  5
B7D
330
1E
100
AcDbEntity
  8
STEMPEL
100
AcDbCircle
 10
253.6127035003545
 20
429.9453783153471
 30
0.0
 40
12.35
100
AcDbArc
 50
158.8168456069656
 51
179.9999999999999
  0
LINE
  5
B7E
330
1E
100
AcDbEntity
  8
STEMPEL
100
AcDbLine
 10
241.2627035003546
 20
429.9453783153471
 30
0.0
 11
241.2627035003545
 21
413.1546881626447
 31
0.0
  0
ARC
  5
B85
330
1E
100
AcDbEntity
  8
STEMPEL
100
AcDbCircle
 10
229.6127035003545
 20
413.1546881626448
 30
0.0
 40
11.65
100
AcDbArc
 50
329.8986894531991
 51
0.0
  0
ARC
  5
B86
330
1E
100
AcDbEntity
  8
STEMPEL
100
AcDbCircle
 10
246.6127035003546
 20
403.2996133278199
 30
0.0
 40
8.0
100
AcDbArc
 50
149.8986894531976
 51
179.9999999999999
  0
ARC
  5
B96
330
1E
100
AcDbEntity
  8
STEMPEL
100
AcDbCircle
 10
157.6127035003545
 20
403.2996133278199
 30
0.0
 40
8.0
100
AcDbArc
 50
0.0
 51
30.1013105468023
  0
LINE
  5
B99
330
1E
100
AcDbEntity
  8
STEMPEL
100
AcDbLine
 10
160.4627035003546
 20
452.4444609353081
 30
0.0
 11
160.4627035003546
 21
443.3814372812626
 31
0.0
  0
LINE
  5
B9B
330
1E
100
AcDbEntity
  8
STEMPEL
100
AcDbLine
 10
162.9627035003546
 20
429.9453783153471
 30
0.0
 11
162.9627035003546
 21
413.1546881626448
 31
0.0
  0
ARC
  5
B9E
330
1E
100
AcDbEntity
  8
STEMPEL
100
AcDbCircle
 10
174.6127035003547
 20
413.1546881626449
 30
0.0
 40
11.65
100
AcDbArc
 50
179.9999999999999
 51
210.1013105468009
  0
ARC
  5
B9F
330
1E
100
AcDbEntity
  8
STEMPEL
100
AcDbCircle
 10
185.1127035003546
 20
443.3153783153472
 30
0.0
 40
24.65009324312573
100
AcDbArc
 50
179.8382525687443
 51
201.1831543930343
  0
ARC
  5
BA1
330
1E
100
AcDbEntity
  8
STEMPEL
100
AcDbCircle
 10
150.6127035003546
 20
429.9453783153471
 30
0.0
 40
12.35
100
AcDbArc
 50
0.0
 51
21.18315439303428
  0
ARC
  5
BA3
330
1E
100
AcDbEntity
  8
STEMPEL
100
AcDbCircle
 10
185.1126900245918
 20
452.4193478806223
 30
0.0
 40
24.65
100
AcDbArc
 50
154.7271515321637
 51
180.061490270103
  0
LINE
  5
CE5
330
1E
100
AcDbEntity
  8
HILF
100
AcDbLine
 10
237.3627035003545
 20
237.9398643287419
 30
0.0
 11
166.8627035003545
 21
237.939864328742
 31
0.0
  0
DIMENSION
  5
D41
330
1E
100
AcDbEntity
  8
BEM
100
AcDbDimension
  2
*D3
 10
238.6127035003545
 20
212.0242363893328
 30
0.0
 11
202.1127035003545
 21
218.5242363893328
 31
0.0
 70
    32
  1
%%c<>
 71
     5
 42
73.0
  3
Standard
100
AcDbAlignedDimension
 13
165.6127035003545
 23
237.9398643287419
 33
0.0
 14
238.6127035003545
 24
237.9398643287423
 34
0.0
100
AcDbRotatedDimension
1001
ACAD
1000
DSTYLE
1002
{
1070
    40
1040
2.0
1070
    41
1040
3.5
1070
    42
1040
1.0
1070
    43
1040
7.0
1070
    44
1040
1.0
1070
    73
1070
     0
1070
    74
1070
     0
1070
    77
1070
     1
1070
    78
1070
     8
1070
    79
1070
     2
1070
   140
1040
3.5
1070
   141
1040
1.5
1070
   146
1040
0.5142857142857144
1070
   147
1040
1.5
1070
   172
1070
     1
1070
   178
1070
     1
1070
   179
1070
     2
1070
   271
1070
     2
1070
   272
1070
     2
1070
   284
1070
     8
1070
   285
1070
     8
1070
   286
1070
     8
1002
}
  0
LINE
  5
D68
102
{ACAD_REACTORS
330
1239
102
}
330
1E
100
AcDbEntity
  8
STEMPEL
100
AcDbLine
 10
238.6127035003546
 20
403.2996133278199
 30
0.0
 11
238.6127035003546
 21
380.0672665748288
 31
0.0
  0
LINE
  5
D69
330
1E
100
AcDbEntity
  8
STEMPEL
100
AcDbLine
 10
165.6127035003545
 20
403.2996133278199
 30
0.0
 11
165.6127035003545
 21
237.9398643287419
 31
0.0
  0
ARC
  5
DDA
330
1E
100
AcDbEntity
  8
STEMPEL
100
AcDbCircle
 10
311.6430076276561
 20
349.7146126491135
 30
0.0
 40
24.65009324312573
100
AcDbArc
 50
268.8168456069657
 51
290.1617474312556
  0
ARC
  5
DDB
330
1E
100
AcDbEntity
  8
STEMPEL
100
AcDbCircle
 10
320.1979452569869
 20
352.8283409615864
 30
0.0
 40
24.65
100
AcDbArc
 50
289.9385097298969
 51
315.2728484678363
  0
LINE
  5
DDC
330
1E
100
AcDbEntity
  8
HILF
  6
Continuous
100
AcDbLine
 10
258.625216310411
 20
386.4717417840248
 30
0.0
 11
283.0273655051353
 21
319.4273878853573
 31
0.0
  0
LINE
  5
DDD
330
1E
100
AcDbEntity
  8
HILF
  6
Continuous
100
AcDbLine
 10
282.5721797877114
 20
397.8036387011883
 30
0.0
 11
308.6558067390921
 21
326.1394626347919
 31
0.0
  0
LINE
  5
DDE
330
1E
100
AcDbEntity
  8
HILF
  6
Continuous
100
AcDbLine
 10
262.2227537849176
 20
389.8082192640408
 30
0.0
 11
287.9278854805456
 21
319.1839503661951
 31
0.0
  0
TEXT
  5
DDF
330
1E
100
AcDbEntity
  8
TEXT
 62
     1
100
AcDbText
 10
298.6254502859534
 20
367.485720722091
 30
0.0
 40
7.0
  1
DN70
 50
19.99999999999999
 41
0.8
  7
GREEKS
100
AcDbText
  0
LINE
  5
DE0
330
1E
100
AcDbEntity
  8
STEMPEL
100
AcDbLine
 10
337.7109338045318
 20
335.4813604712086
 30
0.0
 11
310.8345546005135
 21
409.3236054509488
 31
0.0
  0
ARC
  5
DE1
330
1E
100
AcDbEntity
  8
STEMPEL
100
AcDbCircle
 10
300.0143227545833
 20
381.6641617558344
 30
0.0
 40
24.65009324312573
100
AcDbArc
 50
109.8382525687443
 51
131.1831543930343
  0
ARC
  5
DE2
330
1E
100
AcDbEntity
  8
STEMPEL
100
AcDbCircle
 10
268.0813332753592
 20
381.2153707052579
 30
0.0
 40
11.65
100
AcDbArc
 50
109.9999999999999
 51
140.1013105468009
  0
ARC
  5
DE3
330
1E
100
AcDbEntity
  8
STEMPEL
100
AcDbCircle
 10
253.0062497392451
 20
393.8195111511265
 30
0.0
 40
8.0
100
AcDbArc
 50
290.0
 51
320.1013105468023
  0
LINE
  5
DE4
330
1E
100
AcDbEntity
  8
STEMPEL
100
AcDbLine
 10
279.8748862400121
 20
397.9055439899781
 30
0.0
 11
264.0967986056151
 21
392.1627897374139
 31
0.0
  0
ARC
  5
DE5
330
1E
100
AcDbEntity
  8
STEMPEL
100
AcDbCircle
 10
275.6509374699402
 20
409.5107478566839
 30
0.0
 40
12.35
100
AcDbArc
 50
290.0
 51
311.1831543930343
  0
ARC
  5
DE6
330
1E
100
AcDbEntity
  8
STEMPEL
100
AcDbCircle
 10
308.5692511659497
 20
384.7779153944572
 30
0.0
 40
24.65
100
AcDbArc
 50
84.72715153216372
 51
110.0614902701031
  0
LINE
  5
DE7
330
1E
100
AcDbEntity
  8
STEMPEL
100
AcDbLine
 10
300.1620577941279
 20
407.9499150043179
 30
0.0
 11
291.6456013444131
 21
404.8501783551974
 31
0.0
  0
ARC
  5
DE8
330
1E
100
AcDbEntity
  8
STEMPEL
100
AcDbCircle
 10
286.8924411582709
 20
329.5322765620332
 30
0.0
 40
11.65
100
AcDbArc
 50
259.8986894531991
 51
290.0
  0
ARC
  5
DE9
330
1E
100
AcDbEntity
  8
STEMPEL
100
AcDbCircle
 10
283.4460424952295
 20
310.1868679011807
 30
0.0
 40
8.0
100
AcDbArc
 50
79.89868945319765
 51
109.9999999999999
  0
LINE
  5
DEA
330
1E
100
AcDbEntity
  8
STEMPEL
100
AcDbLine
 10
306.6550634624119
 20
324.3276117824415
 30
0.0
 11
290.876975828015
 21
318.5848575298773
 31
0.0
  0
ARC
  5
DEB
330
1E
100
AcDbEntity
  8
STEMPEL
100
AcDbCircle
 10
310.879012232484
 20
312.7224079157354
 30
0.0
 40
12.35
100
AcDbArc
 50
88.81684560696568
 51
109.9999999999999
  0
LINE
  5
DEC
330
1E
100
AcDbEntity
  8
STEMPEL
100
AcDbLine
 10
328.6523357331559
 20
329.6735196928518
 30
0.0
 11
320.1358792834412
 21
326.5737830437312
 31
0.0
  0
LINE
  5
DED
102
{ACAD_REACTORS
330
1254
102
}
330
1E
100
AcDbEntity
  8
STEMPEL
100
AcDbLine
 10
280.7098813486241
 20
317.704408867468
 30
0.0
 11
238.6127035003546
 21
302.3822891840875
 31
0.0
  0
LINE
  5
DEE
330
1E
100
AcDbEntity
  8
MITTEL
100
AcDbLine
 10
328.9712073064521
 20
374.1125836777069
 30
0.0
 11
202.1127035003546
 21
327.9398643287418
 31
0.0
  0
LINE
  5
DEF
102
{ACAD_REACTORS
330
1239
102
}
330
1E
100
AcDbEntity
  8
STEMPEL
100
AcDbLine
 10
255.7424108858504
 20
386.3019701848392
 30
0.0
 11
238.6127035003546
 21
380.0672665748288
 31
0.0
  0
LINE
  5
E0F
102
{ACAD_REACTORS
330
1254
102
}
330
1E
100
AcDbEntity
  8
STEMPEL
100
AcDbLine
 10
238.6127035003546
 20
302.3822891840875
 30
0.0
 11
238.6127035003545
 21
237.9398643287423
 31
0.0
  0
LINE
  5
E10
330
1E
100
AcDbEntity
  8
STEMPEL
100
AcDbLine
 10
238.6127035003546
 20
380.0672665748288
 30
0.0
 11
202.1127035003546
 21
327.9398643287418
 31
0.0
  0
LINE
  5
E11
330
1E
100
AcDbEntity
  8
STEMPEL
100
AcDbLine
 10
202.1127035003546
 20
327.9398643287418
 30
0.0
 11
238.6127035003546
 21
302.3822891840875
 31
0.0
  0
DIMENSION
  5
E1B
330
1E
100
AcDbEntity
  8
BEM
100
AcDbDimension
  2
*D4
 10
143.6737904398751
 20
327.9398643287418
 30
0.0
 11
137.173790439875
 21
280.4398643287417
 31
0.0
 70
    32
 71
     5
 42
95.00000000000008
  3
Standard
100
AcDbAlignedDimension
 13
166.0501468179841
 23
232.9398643287417
 33
0.0
 14
202.1127035003546
 24
327.9398643287418
 34
0.0
 50
90.0
100
AcDbRotatedDimension
1001
ACAD
1000
DSTYLE
1002
{
1070
    40
1040
2.0
1070
    41
1040
3.5
1070
    42
1040
1.0
1070
    43
1040
7.0
1070
    44
1040
1.0
1070
    73
1070
     0
1070
    74
1070
     0
1070
    77
1070
     1
1070
    78
1070
     8
1070
    79
1070
     2
1070
   140
1040
3.5
1070
   141
1040
1.5
1070
   146
1040
0.5142857142857144
1070
   147
1040
1.5
1070
   172
1070
     1
1070
   178
1070
     1
1070
   179
1070
     2
1070
   271
1070
     2
1070
   272
1070
     2
1070
   284
1070
     8
1070
   285
1070
     8
1070
   286
1070
     8
1002
}
  0
DIMENSION
  5
10AC
330
1E
100
AcDbEntity
  8
BEM
100
AcDbDimension
  2
*D5
 10
344.2954389324357
 20
317.3905813140093
 30
0.0
 11
288.5097335360331
 21
297.0862450521751
 31
0.0
 70
   160
 71
     5
 42
129.9999999999999
 51
357.0000000000001
  3
Standard
100
AcDbAlignedDimension
 13
202.1127035003546
 23
327.9398643287418
 33
0.0
 14
337.7109338045319
 24
335.4813604712084
 34
0.0
 50
20.00000000000009
100
AcDbRotatedDimension
1001
ACAD
1000
DSTYLE
1002
{
1070
    40
1040
2.0
1070
    41
1040
3.5
1070
    42
1040
1.0
1070
    43
1040
7.0
1070
    44
1040
1.0
1070
    73
1070
     0
1070
    74
1070
     0
1070
    77
1070
     1
1070
    78
1070
     8
1070
    79
1070
     2
1070
   140
1040
3.5
1070
   141
1040
1.5
1070
   146
1040
0.5142857142857144
1070
   147
1040
1.5
1070
   172
1070
     1
1070
   178
1070
     1
1070
   179
1070
     2
1070
   271
1070
     2
1070
   272
1070
     2
1070
   284
1070
     8
1070
   285
1070
     8
1070
   286
1070
     8
1002
}
  0
TEXT
  5
1109
330
1E
100
AcDbEntity
  8
TEXT
100
AcDbText
 10
41.85509950977674
 20
111.6719999999999
 30
0.0
 40
5.0
  1
Erstellt mit AUTOCAD 2004
 41
0.8
  7
GREEKS
100
AcDbText
  0
TEXT
  5
110A
330
1E
100
AcDbEntity
  8
TEXT
100
AcDbText
 10
66.99867878482315
 20
18.67381894984132
 30
0.0
 40
4.0
  1
Änderung
 41
0.8
  7
GREEKS
 72
     1
 11
77.7415359276803
 21
18.67381894984132
 31
0.0
100
AcDbText
  0
TEXT
  5
110B
330
1E
100
AcDbEntity
  8
TEXT
100
AcDbText
 10
110.3496319666763
 20
18.6715626933981
 30
0.0
 40
4.0
  1
Tag
 41
0.8
  7
GREEKS
 72
     1
 11
114.0829653000096
 21
18.6715626933981
 31
0.0
100
AcDbText
  0
TEXT
  5
110C
330
1E
100
AcDbEntity
  8
TEXT
100
AcDbText
 10
129.2391668299012
 20
18.59324216966408
 30
0.0
 40
4.0
  1
Name
 41
0.8
  7
GREEKS
 72
     1
 11
135.5629763537107
 21
18.59324216966408
 31
0.0
100
AcDbText
  0
TEXT
  5
110D
330
1E
100
AcDbEntity
  8
TEXT
100
AcDbText
 10
192.6882715247924
 20
89.00646370679282
 30
0.0
 40
4.0
  1
DIN EN1124-3
 41
0.8
  7
GREEKS
 72
     1
 11
209.6787477152686
 21
89.00646370679282
 31
0.0
100
AcDbText
  0
TEXT
  5
110E
330
1E
100
AcDbEntity
  8
BEM
100
AcDbText
 10
416.5811541437437
 20
12.14804815338303
 30
0.0
 40
4.0
  1
Diese Zeichnung ist urheberrechtlich geschützt und bleibt unser Eigentum. Sie darf weder ganz noch teilweise vervielfältigt und nicht an Dritte weitergegeben werden.
 50
90.0
 41
0.8
  7
GREEKS
100
AcDbText
  0
TEXT
  5
112D
330
1E
100
AcDbEntity
  8
TEXT
 62
     1
100
AcDbText
 10
369.7669299608593
 20
62.47115126063772
 30
0.0
 40
7.0
  1

 41
0.8
  7
GREEKS
 72
     1
 11
369.7669299608593
 21
62.47115126063772
 31
0.0
100
AcDbText
  0
DIMENSION
  5
120F
330
1E
100
AcDbEntity
  8
BEM
100
AcDbDimension
  2
*D6
 10
202.1127035003545
 20
227.939864328742
 30
0.0
 11
293.2984680029891
 21
458.1666321464348
 31
0.0
 70
    34
 71
     5
 42
1.22173047639603
  3
Standard
100
AcDb2LineAngularDimension
 13
328.9712073064521
 23
374.1125836777069
 33
0.0
 14
202.1127035003546
 24
327.9398643287418
 34
0.0
 15
202.1127035003547
 25
467.9431572330718
 35
0.0
 16
313.0208389750489
 26
432.576293518729
 36
0.0
1001
ACAD
1000
DSTYLE
1002
{
1070
    40
1040
2.0
1070
    41
1040
3.5
1070
    42
1040
1.0
1070
    43
1040
7.0
1070
    44
1040
1.0
1070
    73
1070
     0
1070
    74
1070
     0
1070
    77
1070
     1
1070
    78
1070
     8
1070
    79
1070
     2
1070
   140
1040
3.5
1070
   141
1040
1.5
1070
   146
1040
0.5142857142857144
1070
   147
1040
1.5
1070
   172
1070
     1
1070
   178
1070
     1
1070
   179
1070
     2
1070
   271
1070
     2
1070
   272
1070
     2
1070
   284
1070
     8
1070
   285
1070
     8
1070
   286
1070
     8
1002
}
  0
ARC
  5
1228
330
1E
100
AcDbEntity
  8
SCHRAFF
100
AcDbCircle
 10
238.6127035003546
 20
380.0672665748288
 30
0.0
 40
5.0
100
AcDbArc
 50
211.4218215217981
 51
258.5781784782017
  0
ARC
  5
1229
330
1E
100
AcDbEntity
  8
SCHRAFF
100
AcDbCircle
 10
235.7448213185993
 20
375.9715063533839
 30
0.0
 40
5.0
100
AcDbArc
 50
211.4218215217981
 51
258.5781784782017
  0
ARC
  5
122A
330
1E
100
AcDbEntity
  8
SCHRAFF
100
AcDbCircle
 10
232.8769391368441
 20
371.875746131939
 30
0.0
 40
5.0
100
AcDbArc
 50
211.4218215217981
 51
258.5781784782017
  0
ARC
  5
122B
330
1E
100
AcDbEntity
  8
SCHRAFF
100
AcDbCircle
 10
230.0090569550889
 20
367.779985910494
 30
0.0
 40
5.0
100
AcDbArc
 50
211.4218215217981
 51
258.5781784782017
  0
ARC
  5
122C
330
1E
100
AcDbEntity
  8
SCHRAFF
100
AcDbCircle
 10
227.1411747733337
 20
363.6842256890491
 30
0.0
 40
5.0
100
AcDbArc
 50
211.4218215217981
 51
258.5781784782017
  0
ARC
  5
122D
330
1E
100
AcDbEntity
  8
SCHRAFF
100
AcDbCircle
 10
224.2732925915785
 20
359.5884654676041
 30
0.0
 40
5.0
100
AcDbArc
 50
211.4218215217981
 51
258.5781784782017
  0
ARC
  5
122E
330
1E
100
AcDbEntity
  8
SCHRAFF
100
AcDbCircle
 10
221.4054104098233
 20
355.4927052461592
 30
0.0
 40
5.0
100
AcDbArc
 50
211.4218215217981
 51
258.5781784782017
  0
ARC
  5
122F
330
1E
100
AcDbEntity
  8
SCHRAFF
100
AcDbCircle
 10
218.537528228068
 20
351.3969450247142
 30
0.0
 40
5.0
100
AcDbArc
 50
211.4218215217981
 51
258.5781784782017
  0
ARC
  5
1230
330
1E
100
AcDbEntity
  8
SCHRAFF
100
AcDbCircle
 10
215.6696460463128
 20
347.3011848032693
 30
0.0
 40
5.0
100
AcDbArc
 50
211.4218215217981
 51
258.5781784782017
  0
ARC
  5
1231
330
1E
100
AcDbEntity
  8
SCHRAFF
100
AcDbCircle
 10
212.8017638645576
 20
343.2054245818243
 30
0.0
 40
5.0
100
AcDbArc
 50
211.4218215217981
 51
258.5781784782017
  0
ARC
  5
1232
330
1E
100
AcDbEntity
  8
SCHRAFF
100
AcDbCircle
 10
209.9338816828024
 20
339.1096643603794
 30
0.0
 40
5.0
100
AcDbArc
 50
211.4218215217981
 51
258.5781784782017
  0
ARC
  5
1233
330
1E
100
AcDbEntity
  8
SCHRAFF
100
AcDbCircle
 10
207.0659995010471
 20
335.0139041389344
 30
0.0
 40
5.0
100
AcDbArc
 50
211.4218215217981
 51
258.5781784782017
  0
ARC
  5
1234
102
{ACAD_REACTORS
330
1239
102
}
330
1E
100
AcDbEntity
  8
SCHRAFF
100
AcDbCircle
 10
238.3242457229156
 20
379.65530617495
 30
0.0
 40
3.909510242146121
100
AcDbArc
 50
24.23133461173867
 51
85.76866538826209
  0
HATCH
  5
1239
330
1E
100
AcDbEntity
  8
SCHRAFF
100
AcDbHatch
 10
0.0
 20
0.0
 30
0.0
210
0.0
220
0.0
230
1.0
  2
_USER
 70
     0
 71
     1
 91
        1
 92
        7
 72
     1
 73
     1
 93
        3
 10
238.6127035003546
 20
383.5541601660711
 42
0.0
 10
238.6127035003546
 20
380.0672665748289
 42
0.0
 10
241.8893116775106
 20
381.2598544206669
 42
0.2751517204569063
 97
        3
330
D68
330
DEF
330
1234
 75
     0
 76
     0
 52
0.0
 41
0.1
 77
     0
 78
     1
 53
0.0
 43
0.0
 44
0.0
 45
0.0
 46
0.1
 79
     0
 47
0.0497409439856943
 98
        1
 10
239.8341705693306
 20
382.3336338824122
  0
ARC
  5
123E
330
1E
100
AcDbEntity
  8
SCHRAFF
100
AcDbCircle
 10
217.3782637534372
 20
317.2508039645388
 30
0.0
 40
5.0
100
AcDbArc
 50
121.4218215217984
 51
168.578178478202
  0
ARC
  5
123F
330
1E
100
AcDbEntity
  8
SCHRAFF
100
AcDbCircle
 10
209.1867433105474
 20
322.9865683280492
 30
0.0
 40
5.0
100
AcDbArc
 50
121.4218215217984
 51
168.578178478202
  0
ARC
  5
1240
330
1E
100
AcDbEntity
  8
SCHRAFF
100
AcDbCircle
 10
213.2825035319923
 20
320.1186861462941
 30
0.0
 40
5.0
100
AcDbArc
 50
121.4218215217984
 51
168.578178478202
  0
ARC
  5
1241
330
1E
100
AcDbEntity
  8
SCHRAFF
100
AcDbCircle
 10
221.4740239748822
 20
314.3829217827836
 30
0.0
 40
5.0
100
AcDbArc
 50
121.4218215217984
 51
168.578178478202
  0
ARC
  5
1242
330
1E
100
AcDbEntity
  8
SCHRAFF
100
AcDbCircle
 10
241.952825082107
 20
300.0435108740076
 30
0.0
 40
5.0
100
AcDbArc
 50
121.4218215217984
 51
168.578178478202
  0
ARC
  5
1243
330
1E
100
AcDbEntity
  8
SCHRAFF
100
AcDbCircle
 10
229.6655444177722
 20
308.6471574192732
 30
0.0
 40
5.0
100
AcDbArc
 50
121.4218215217984
 51
168.578178478202
  0
ARC
  5
1244
330
1E
100
AcDbEntity
  8
SCHRAFF
100
AcDbCircle
 10
225.5697841963272
 20
311.5150396010284
 30
0.0
 40
5.0
100
AcDbArc
 50
121.4218215217984
 51
168.578178478202
  0
ARC
  5
1245
330
1E
100
AcDbEntity
  8
SCHRAFF
100
AcDbCircle
 10
233.7613046392171
 20
305.779275237518
 30
0.0
 40
5.0
100
AcDbArc
 50
121.4218215217984
 51
168.578178478202
  0
ARC
  5
1246
330
1E
100
AcDbEntity
  8
SCHRAFF
100
AcDbCircle
 10
237.8570648606621
 20
302.9113930557628
 30
0.0
 40
5.0
100
AcDbArc
 50
121.4218215217984
 51
168.578178478202
  0
ARC
  5
124C
102
{ACAD_REACTORS
330
1254
102
}
330
1E
100
AcDbEntity
  8
SCHRAFF
100
AcDbCircle
 10
237.5747880965687
 20
303.1090453738423
 30
0.0
 40
3.333980696665316
100
AcDbArc
 50
288.1384457951252
 51
1.861554204874593
  0
HATCH
  5
1254
330
1E
100
AcDbEntity
  8
SCHRAFF
100
AcDbHatch
 10
0.0
 20
0.0
 30
0.0
210
0.0
220
0.0
230
1.0
  2
_USER
 70
     0
 71
     1
 91
        1
 92
        7
 72
     1
 73
     1
 93
        3
 10
240.9070092457587
 20
303.2173481837205
 42
0.0
 10
238.6127035003546
 20
302.3822891840875
 42
0.0
 10
238.6127035003546
 20
299.9407400065646
 42
0.3332524350100074
 97
        3
330
DED
330
E0F
330
124C
 75
     0
 76
     0
 52
0.0
 41
0.1
 77
     0
 78
     1
 53
0.0
 43
0.0
 44
0.0
 45
0.0
 46
0.1
 79
     0
 47
0.0833002482937246
 98
        1
 10
240.2034527396654
 20
301.7117491806757
  0
ENDSEC
  0
SECTION
  2
OBJECTS
  0
DICTIONARY
  5
C
330
0
100
AcDbDictionary
281
     1
  3
ACAD_COLOR
350
10C9
  3
ACAD_GROUP
350
D
  3
ACAD_LAYOUT
350
19
  3
ACAD_MATERIAL
350
10C8
  3
ACAD_MLINESTYLE
350
16
  3
ACAD_PLOTSETTINGS
350
18
  3
ACAD_PLOTSTYLENAME
350
E
  3
AcDbVariableDictionary
350
246
  0
DICTIONARY
  5
10C9
102
{ACAD_REACTORS
330
C
102
}
330
C
100
AcDbDictionary
281
     1
  0
DICTIONARY
  5
D
102
{ACAD_REACTORS
330
C
102
}
330
C
100
AcDbDictionary
281
     1
  0
DICTIONARY
  5
19
102
{ACAD_REACTORS
330
C
102
}
330
C
100
AcDbDictionary
281
     1
  3
Layout1
350
1D
  3
Model
350
21
  0
DICTIONARY
  5
10C8
102
{ACAD_REACTORS
330
C
102
}
330
C
100
AcDbDictionary
281
     1
  0
DICTIONARY
  5
16
102
{ACAD_REACTORS
330
C
102
}
330
C
100
AcDbDictionary
281
     1
  3
Standard
350
17
  0
DICTIONARY
  5
18
102
{ACAD_REACTORS
330
C
102
}
330
C
100
AcDbDictionary
281
     1
  0
ACDBDICTIONARYWDFLT
  5
E
102
{ACAD_REACTORS
330
C
102
}
330
C
100
AcDbDictionary
281
     1
  3
Normal
350
F
100
AcDbDictionaryWithDefault
340
F
  0
DICTIONARY
  5
246
102
{ACAD_REACTORS
330
C
102
}
330
C
100
AcDbDictionary
281
     1
  3
DIMASSOC
350
10FB
  3
PROJECTNAME
350
10FC
  3
SORTENTS
350
247
  0
LAYOUT
  5
1D
102
{ACAD_REACTORS
330
19
102
}
330
19
100
AcDbPlotSettings
  1

  2
Tektronix Phaser 740
  4

  6

 40
0.0
 41
0.0
 42
0.0
 43
0.0
 44
0.0
 45
0.0
 46
0.0
 47
0.0
 48
0.0
 49
0.0
140
0.0
141
0.0
142
1.0
143
1.0
 70
   688
 72
     0
 73
     0
 74
     5
  7
monochrome.ctb
 75
    16
147
1.0
 76
     0
 77
     2
 78
   300
148
0.0
149
0.0
100
AcDbLayout
  1
Layout1
 70
     0
 71
     1
 10
0.0
 20
0.0
 11
12.0
 21
9.0
 12
0.0
 22
0.0
 32
0.0
 14
1.000000000000000E+20
 24
1.000000000000000E+20
 34
1.000000000000000E+20
 15
-1.000000000000000E+20
 25
-1.000000000000000E+20
 35
-1.000000000000000E+20
146
0.0
 13
0.0
 23
0.0
 33
0.0
 16
1.0
 26
0.0
 36
0.0
 17
0.0
 27
1.0
 37
0.0
 76
     0
330
1A
  0
LAYOUT
  5
21
102
{ACAD_REACTORS
330
19
102
}
330
19
100
AcDbPlotSettings
  1

  2
Tektronix Phaser 740
  4
A4
  6

 40
5.873749732971191
 41
6.085414409637451
 42
5.577407836914062
 43
5.662078857421875
 44
209.9733276367187
 45
296.9683227539062
 46
0.0
 47
0.0
 48
0.0
 49
0.0
140
0.0
141
0.0
142
1.0
143
1.0
 70
 11952
 72
     0
 73
     1
 74
     0
  7
monochrome.ctb
 75
     0
147
1.0
 76
     0
 77
     2
 78
   300
148
1150.120678237584
149
45.30495740799864
100
AcDbLayout
  1
Model
 70
     1
 71
     0
 10
0.0
 20
0.0
 11
12.0
 21
9.0
 12
0.0
 22
0.0
 32
0.0
 14
0.0
 24
0.0
 34
0.0
 15
0.0
 25
0.0
 35
0.0
146
0.0
 13
0.0
 23
0.0
 33
0.0
 16
1.0
 26
0.0
 36
0.0
 17
0.0
 27
1.0
 37
0.0
 76
     0
330
1E
  0
MLINESTYLE
  5
17
102
{ACAD_REACTORS
330
16
102
}
330
16
100
AcDbMlineStyle
  2
STANDARD
 70
     0
  3

 62
   256
 51
90.0
 52
90.0
 71
     2
 49
0.5
 62
   256
  6
BYLAYER
 49
-0.5
 62
   256
  6
BYLAYER
  0
ACDBPLACEHOLDER
  5
F
102
{ACAD_REACTORS
330
E
102
}
330
E
  0
DICTIONARYVAR
  5
10FB
102
{ACAD_REACTORS
330
246
102
}
330
246
100
DictionaryVariables
280
     0
  1
1
  0
DICTIONARYVAR
  5
10FC
102
{ACAD_REACTORS
330
246
102
}
330
246
100
DictionaryVariables
280
     0
  1

  0
DICTIONARYVAR
  5
247
102
{ACAD_REACTORS
330
246
102
}
330
246
100
DictionaryVariables
280
     0
  1
96
  0
ENDSEC
  0
EOF
