  0
SECTION
  2
HEADER
  9
$ACADVER
  1
AC1018
  9
$ACADMAINTVER
 70
     2
  9
$DWGCODEPAGE
  3
ANSI_1252
  9
$INSBASE
 10
0.0
 20
0.0
 30
0.0
  9
$EXTMIN
 10
-0.0063978361731643
 20
-0.0090483683025013
 30
-0.0000000000000098
  9
$EXTMAX
 10
420.0064129945077
 20
594.0090698065175
 30
0.0000000000000055
  9
$LIMMIN
 10
0.0
 20
0.0
  9
$LIMMAX
 10
419.9999999999999
 20
594.0
  9
$ORTHOMODE
 70
     1
  9
$REGENMODE
 70
     1
  9
$FILLMODE
 70
     1
  9
$QTEXTMODE
 70
     0
  9
$MIRRTEXT
 70
     1
  9
$LTSCALE
 40
20.0
  9
$ATTMODE
 70
     1
  9
$TEXTSIZE
 40
3.5
  9
$TRACEWID
 40
0.5
  9
$TEXTSTYLE
  7
STANDARD
  9
$CLAYER
  8
SCHRAFF
  9
$CELTYPE
  6
ByLayer
  9
$CECOLOR
 62
   256
  9
$CELTSCALE
 40
1.0
  9
$DISPSILH
 70
     0
  9
$DIMSCALE
 40
2.0
  9
$DIMASZ
 40
3.5
  9
$DIMEXO
 40
1.0
  9
$DIMDLI
 40
7.0
  9
$DIMRND
 40
0.0
  9
$DIMDLE
 40
0.0
  9
$DIMEXE
 40
1.0
  9
$DIMTP
 40
0.0
  9
$DIMTM
 40
0.0
  9
$DIMTXT
 40
3.5
  9
$DIMCEN
 40
1.5
  9
$DIMTSZ
 40
0.0
  9
$DIMTOL
 70
     0
  9
$DIMLIM
 70
     0
  9
$DIMTIH
 70
     0
  9
$DIMTOH
 70
     0
  9
$DIMSE1
 70
     0
  9
$DIMSE2
 70
     0
  9
$DIMTAD
 70
     1
  9
$DIMZIN
 70
     8
  9
$DIMBLK
  1

  9
$DIMASO
 70
     1
  9
$DIMSHO
 70
     0
  9
$DIMPOST
  1

  9
$DIMAPOST
  1

  9
$DIMALT
 70
     0
  9
$DIMALTD
 70
     2
  9
$DIMALTF
 40
25.4
  9
$DIMLFAC
 40
1.0
  9
$DIMTOFL
 70
     1
  9
$DIMTVP
 40
0.0
  9
$DIMTIX
 70
     0
  9
$DIMSOXD
 70
     0
  9
$DIMSAH
 70
     0
  9
$DIMBLK1
  1

  9
$DIMBLK2
  1

  9
$DIMSTYLE
  2
Standard
  9
$DIMCLRD
 70
     0
  9
$DIMCLRE
 70
     0
  9
$DIMCLRT
 70
     1
  9
$DIMTFAC
 40
0.5142857142857144
  9
$DIMGAP
 40
1.5
  9
$DIMJUST
 70
     0
  9
$DIMSD1
 70
     0
  9
$DIMSD2
 70
     0
  9
$DIMTOLJ
 70
     1
  9
$DIMTZIN
 70
     8
  9
$DIMALTZ
 70
     8
  9
$DIMALTTZ
 70
     8
  9
$DIMUPT
 70
     0
  9
$DIMDEC
 70
     2
  9
$DIMTDEC
 70
     2
  9
$DIMALTU
 70
     2
  9
$DIMALTTD
 70
     2
  9
$DIMTXSTY
  7
STANDARD
  9
$DIMAUNIT
 70
     0
  9
$DIMADEC
 70
     2
  9
$DIMALTRND
 40
0.0
  9
$DIMAZIN
 70
     2
  9
$DIMDSEP
 70
    46
  9
$DIMATFIT
 70
     3
  9
$DIMFRAC
 70
     0
  9
$DIMLDRBLK
  1

  9
$DIMLUNIT
 70
     2
  9
$DIMLWD
 70
    -2
  9
$DIMLWE
 70
    -2
  9
$DIMTMOVE
 70
     0
  9
$LUNITS
 70
     2
  9
$LUPREC
 70
     2
  9
$SKETCHINC
 40
1.0
  9
$FILLETRAD
 40
0.0
  9
$AUNITS
 70
     1
  9
$AUPREC
 70
     3
  9
$MENU
  1
ACAD
  9
$ELEVATION
 40
0.0
  9
$PELEVATION
 40
0.0
  9
$THICKNESS
 40
0.0
  9
$LIMCHECK
 70
     0
  9
$CHAMFERA
 40
0.0
  9
$CHAMFERB
 40
0.0
  9
$CHAMFERC
 40
0.0
  9
$CHAMFERD
 40
0.0
  9
$SKPOLY
 70
     0
  9
$TDCREATE
 40
2452040.637099653
  9
$TDUCREATE
 40
2452040.553766320
  9
$TDUPDATE
 40
2455666.370203136
  9
$TDUUPDATE
 40
2455666.286869803
  9
$TDINDWG
 40
0.4152017130
  9
$TDUSRTIMER
 40
0.4152017130
  9
$USRTIMER
 70
     1
  9
$ANGBASE
 50
0.0
  9
$ANGDIR
 70
     0
  9
$PDMODE
 70
     0
  9
$PDSIZE
 40
0.0
  9
$PLINEWID
 40
0.0
  9
$SPLFRAME
 70
     0
  9
$SPLINETYPE
 70
     6
  9
$SPLINESEGS
 70
     8
  9
$HANDSEED
  5
1F5A
  9
$SURFTAB1
 70
     6
  9
$SURFTAB2
 70
     6
  9
$SURFTYPE
 70
     6
  9
$SURFU
 70
     6
  9
$SURFV
 70
     6
  9
$UCSBASE
  2

  9
$UCSNAME
  2

  9
$UCSORG
 10
0.0
 20
0.0
 30
0.0
  9
$UCSXDIR
 10
1.0
 20
0.0
 30
0.0
  9
$UCSYDIR
 10
0.0
 20
1.0
 30
0.0
  9
$UCSORTHOREF
  2

  9
$UCSORTHOVIEW
 70
     0
  9
$UCSORGTOP
 10
0.0
 20
0.0
 30
0.0
  9
$UCSORGBOTTOM
 10
0.0
 20
0.0
 30
0.0
  9
$UCSORGLEFT
 10
0.0
 20
0.0
 30
0.0
  9
$UCSORGRIGHT
 10
0.0
 20
0.0
 30
0.0
  9
$UCSORGFRONT
 10
0.0
 20
0.0
 30
0.0
  9
$UCSORGBACK
 10
0.0
 20
0.0
 30
0.0
  9
$PUCSBASE
  2

  9
$PUCSNAME
  2

  9
$PUCSORG
 10
0.0
 20
0.0
 30
0.0
  9
$PUCSXDIR
 10
1.0
 20
0.0
 30
0.0
  9
$PUCSYDIR
 10
0.0
 20
1.0
 30
0.0
  9
$PUCSORTHOREF
  2

  9
$PUCSORTHOVIEW
 70
     0
  9
$PUCSORGTOP
 10
0.0
 20
0.0
 30
0.0
  9
$PUCSORGBOTTOM
 10
0.0
 20
0.0
 30
0.0
  9
$PUCSORGLEFT
 10
0.0
 20
0.0
 30
0.0
  9
$PUCSORGRIGHT
 10
0.0
 20
0.0
 30
0.0
  9
$PUCSORGFRONT
 10
0.0
 20
0.0
 30
0.0
  9
$PUCSORGBACK
 10
0.0
 20
0.0
 30
0.0
  9
$USERI1
 70
     0
  9
$USERI2
 70
     0
  9
$USERI3
 70
     0
  9
$USERI4
 70
     0
  9
$USERI5
 70
     0
  9
$USERR1
 40
0.0
  9
$USERR2
 40
0.0
  9
$USERR3
 40
0.0
  9
$USERR4
 40
0.0
  9
$USERR5
 40
0.0
  9
$WORLDVIEW
 70
     1
  9
$SHADEDGE
 70
     3
  9
$SHADEDIF
 70
    70
  9
$TILEMODE
 70
     1
  9
$MAXACTVP
 70
    16
  9
$PINSBASE
 10
0.0
 20
0.0
 30
0.0
  9
$PLIMCHECK
 70
     0
  9
$PEXTMIN
 10
1.000000000000000E+20
 20
1.000000000000000E+20
 30
1.000000000000000E+20
  9
$PEXTMAX
 10
-1.000000000000000E+20
 20
-1.000000000000000E+20
 30
-1.000000000000000E+20
  9
$PLIMMIN
 10
0.0
 20
0.0
  9
$PLIMMAX
 10
12.0
 20
9.0
  9
$UNITMODE
 70
     0
  9
$VISRETAIN
 70
     0
  9
$PLINEGEN
 70
     0
  9
$PSLTSCALE
 70
     0
  9
$TREEDEPTH
 70
  3020
  9
$CMLSTYLE
  2
Standard
  9
$CMLJUST
 70
     0
  9
$CMLSCALE
 40
1.0
  9
$PROXYGRAPHICS
 70
     1
  9
$MEASUREMENT
 70
     0
  9
$CELWEIGHT
370
    -1
  9
$ENDCAPS
280
     0
  9
$JOINSTYLE
280
     0
  9
$LWDISPLAY
290
     0
  9
$INSUNITS
 70
     0
  9
$HYPERLINKBASE
  1

  9
$STYLESHEET
  1
monochrome 1.ctb
  9
$XEDIT
290
     1
  9
$CEPSNTYPE
380
     0
  9
$PSTYLEMODE
290
     1
  9
$FINGERPRINTGUID
  2
{7AADB5C8-6110-11D8-B72B-000102183313}
  9
$VERSIONGUID
  2
{8A0F408B-D833-4836-AA33-E100410331C4}
  9
$EXTNAMES
290
     1
  9
$PSVPSCALE
 40
0.0
  9
$OLESTARTUP
290
     0
  9
$SORTENTS
280
    96
  9
$INDEXCTL
280
     0
  9
$HIDETEXT
280
     0
  9
$XCLIPFRAME
290
     0
  9
$HALOGAP
280
     0
  9
$OBSCOLOR
 70
   257
  9
$OBSLTYPE
280
     0
  9
$INTERSECTIONDISPLAY
280
     0
  9
$INTERSECTIONCOLOR
 70
   257
  9
$DIMASSOC
280
     1
  9
$PROJECTNAME
  1

  0
ENDSEC
  0
SECTION
  2
CLASSES
  0
CLASS
  1
ACDBDICTIONARYWDFLT
  2
AcDbDictionaryWithDefault
  3
ObjectDBX Classes
 90
        0
 91
        1
280
     0
281
     0
  0
CLASS
  1
DICTIONARYVAR
  2
AcDbDictionaryVar
  3
ObjectDBX Classes
 90
        0
 91
        3
280
     0
281
     0
  0
ENDSEC
  0
SECTION
  2
TABLES
  0
TABLE
  2
VPORT
  5
8
330
0
100
AcDbSymbolTable
 70
     3
  0
VPORT
  5
1F59
330
8
100
AcDbSymbolTableRecord
100
AcDbViewportTableRecord
  2
*Active
 70
     0
 10
0.0
 20
0.0
 11
1.0
 21
1.0
 12
210.0
 22
297.0
 13
0.0
 23
0.0
 14
1.0
 24
1.0
 15
10.0
 25
10.0
 16
0.0
 26
0.0
 36
1.0
 17
0.0
 27
0.0
 37
0.0
 40
594.0
 41
1.334231805929919
 42
50.0
 43
0.0
 44
0.0
 50
0.0
 51
0.0
 71
     0
 72
  1500
 73
     1
 74
     0
 75
     0
 76
     0
 77
     0
 78
     0
281
     0
 65
     1
110
0.0
120
0.0
130
0.0
111
1.0
121
0.0
131
0.0
112
0.0
122
1.0
132
0.0
 79
     0
146
0.0
  0
ENDTAB
  0
TABLE
  2
LTYPE
  5
5
330
0
100
AcDbSymbolTable
 70
     2
  0
LTYPE
  5
13
330
5
100
AcDbSymbolTableRecord
100
AcDbLinetypeTableRecord
  2
ByBlock
 70
     0
  3

 72
    65
 73
     0
 40
0.0
  0
LTYPE
  5
14
330
5
100
AcDbSymbolTableRecord
100
AcDbLinetypeTableRecord
  2
ByLayer
 70
     0
  3

 72
    65
 73
     0
 40
0.0
  0
LTYPE
  5
15
330
5
100
AcDbSymbolTableRecord
100
AcDbLinetypeTableRecord
  2
Continuous
 70
     0
  3
Solid line
 72
    65
 73
     0
 40
0.0
  0
LTYPE
  5
35
330
5
100
AcDbSymbolTableRecord
100
AcDbLinetypeTableRecord
  2
STRICHPUNKT
 70
     0
  3
__ . __ . __ . __ . __ . __ . __ . __ . __ . __
 72
    65
 73
     4
 40
1.0
 49
0.5
 74
     0
 49
-0.25
 74
     0
 49
0.0
 74
     0
 49
-0.25
 74
     0
  0
ENDTAB
  0
TABLE
  2
LAYER
  5
2
330
0
100
AcDbSymbolTable
 70
     9
  0
LAYER
  5
10
330
2
100
AcDbSymbolTableRecord
100
AcDbLayerTableRecord
  2
0
 70
     0
 62
     7
  6
Continuous
370
    -3
390
F
  0
LAYER
  5
38
330
2
100
AcDbSymbolTableRecord
100
AcDbLayerTableRecord
  2
VOLL
 70
     0
 62
     1
  6
Continuous
370
    -3
390
F
  0
LAYER
  5
39
330
2
100
AcDbSymbolTableRecord
100
AcDbLayerTableRecord
  2
HILF
 70
     0
 62
     2
  6
Continuous
370
    -3
390
F
  0
LAYER
  5
3A
330
2
100
AcDbSymbolTableRecord
100
AcDbLayerTableRecord
  2
MITTEL
 70
     0
 62
     2
  6
STRICHPUNKT
370
    -3
390
F
  0
LAYER
  5
3B
330
2
100
AcDbSymbolTableRecord
100
AcDbLayerTableRecord
  2
BEM
 70
     0
 62
     7
  6
Continuous
370
    -3
390
F
  0
LAYER
  5
3C
330
2
100
AcDbSymbolTableRecord
100
AcDbLayerTableRecord
  2
STEMPEL
 70
     0
 62
     3
  6
Continuous
370
    -3
390
F
  0
LAYER
  5
3D
330
2
100
AcDbSymbolTableRecord
100
AcDbLayerTableRecord
  2
TEXT
 70
     0
 62
     7
  6
Continuous
370
    -3
390
F
  0
LAYER
  5
3E
330
2
100
AcDbSymbolTableRecord
100
AcDbLayerTableRecord
  2
DEFPOINTS
 70
     0
 62
     7
  6
Continuous
290
     0
370
    -3
390
F
  0
LAYER
  5
3F
330
2
100
AcDbSymbolTableRecord
100
AcDbLayerTableRecord
  2
SCHRAFF
 70
     0
 62
     7
  6
Continuous
370
    -3
390
F
  0
ENDTAB
  0
TABLE
  2
STYLE
  5
3
330
0
100
AcDbSymbolTable
 70
     2
  0
STYLE
  5
11
330
3
100
AcDbSymbolTableRecord
100
AcDbTextStyleTableRecord
  2
STANDARD
 70
     0
 40
0.0
 41
0.8
 50
0.0
 71
     0
 42
3.5
  3
simplex.shx
  4

  0
STYLE
  5
34
330
3
100
AcDbSymbolTableRecord
100
AcDbTextStyleTableRecord
  2
GREEKS
 70
     0
 40
0.0
 41
0.8
 50
0.0
 71
     0
 42
2.5
  3
SIMPLEX.shx
  4

  0
ENDTAB
  0
TABLE
  2
VIEW
  5
6
330
0
100
AcDbSymbolTable
 70
     0
  0
ENDTAB
  0
TABLE
  2
UCS
  5
7
330
0
100
AcDbSymbolTable
 70
     0
  0
ENDTAB
  0
TABLE
  2
APPID
  5
9
330
0
100
AcDbSymbolTable
 70
     2
  0
APPID
  5
12
330
9
100
AcDbSymbolTableRecord
100
AcDbRegAppTableRecord
  2
ACAD
 70
     0
  0
APPID
  5
1555
330
9
100
AcDbSymbolTableRecord
100
AcDbRegAppTableRecord
  2
AVE_RENDER
 70
     0
  0
ENDTAB
  0
TABLE
  2
DIMSTYLE
  5
A
330
0
100
AcDbSymbolTable
 70
     1
100
AcDbDimStyleTable
 71
     1
340
1CB
  0
DIMSTYLE
105
1CB
102
{ACAD_REACTORS
330
1BBC
330
1BC0
330
1E23
330
1E78
330
1EE5
102
}
330
A
100
AcDbSymbolTableRecord
100
AcDbDimStyleTableRecord
  2
Standard
 70
     0
340
11
  0
ENDTAB
  0
TABLE
  2
BLOCK_RECORD
  5
1
330
0
100
AcDbSymbolTable
 70
     7
  0
BLOCK_RECORD
  5
1E
330
1
100
AcDbSymbolTableRecord
100
AcDbBlockTableRecord
  2
*Model_Space
340
21
  0
BLOCK_RECORD
  5
1A
330
1
100
AcDbSymbolTableRecord
100
AcDbBlockTableRecord
  2
*Paper_Space
340
1D
  0
BLOCK_RECORD
  5
22
330
1
100
AcDbSymbolTableRecord
100
AcDbBlockTableRecord
  2
LOGO
340
0
102
{BLKREFS
331
135
102
}
  0
BLOCK_RECORD
  5
1BCA
330
1
100
AcDbSymbolTableRecord
100
AcDbBlockTableRecord
  2
*D1
340
0
  0
BLOCK_RECORD
  5
1BD6
330
1
100
AcDbSymbolTableRecord
100
AcDbBlockTableRecord
  2
*D2
340
0
  0
BLOCK_RECORD
  5
1E24
330
1
100
AcDbSymbolTableRecord
100
AcDbBlockTableRecord
  2
*D4
340
0
  0
BLOCK_RECORD
  5
1E79
330
1
100
AcDbSymbolTableRecord
100
AcDbBlockTableRecord
  2
*D5
340
0
  0
BLOCK_RECORD
  5
1EE6
330
1
100
AcDbSymbolTableRecord
100
AcDbBlockTableRecord
  2
*D6
340
0
  0
ENDTAB
  0
ENDSEC
  0
SECTION
  2
BLOCKS
  0
BLOCK
  5
43
330
1E
100
AcDbEntity
  8
0
100
AcDbBlockBegin
  2
*Model_Space
 70
     0
 10
0.0
 20
0.0
 30
0.0
  3
*Model_Space
  1

  0
ENDBLK
  5
44
330
1E
100
AcDbEntity
  8
0
100
AcDbBlockEnd
  0
BLOCK
  5
41
330
1A
100
AcDbEntity
 67
     1
  8
0
100
AcDbBlockBegin
  2
*Paper_Space
 70
     0
 10
0.0
 20
0.0
 30
0.0
  3
*Paper_Space
  1

  0
ENDBLK
  5
42
330
1A
100
AcDbEntity
 67
     1
  8
0
100
AcDbBlockEnd
  0
BLOCK
  5
45
330
22
100
AcDbEntity
  8
0
100
AcDbBlockBegin
  2
LOGO
 70
     0
 10
0.0
 20
0.0
 30
0.0
  3
LOGO
  1

  0
ARC
  5
46
330
22
100
AcDbEntity
  8
0
100
AcDbCircle
 10
11.59973089678112
 20
-9.271599258481501
 30
0.0
 40
4.5
100
AcDbArc
 50
270.0
 51
231.0575587310159
  0
LINE
  5
47
330
22
100
AcDbEntity
  8
0
100
AcDbLine
 10
3.599730896781125
 20
-4.771599258481529
 30
0.0
 11
3.599730896781153
 21
-11.77159925848133
 31
0.0
  0
LINE
  5
48
330
22
100
AcDbEntity
  8
0
100
AcDbLine
 10
2.599730896781125
 20
-4.771599258481529
 30
0.0
 11
2.599730896781153
 21
-11.77159925848133
 31
0.0
  0
CIRCLE
  5
49
330
22
100
AcDbEntity
  8
0
100
AcDbCircle
 10
11.59973089678112
 20
-9.271599258481501
 30
0.0
 40
3.5
  0
ARC
  5
4A
330
22
100
AcDbEntity
  8
0
100
AcDbCircle
 10
31.59973089678115
 20
-9.271599258481472
 30
0.0
 40
4.5
100
AcDbArc
 50
270.0
 51
231.0575587310182
  0
LINE
  5
4B
330
22
100
AcDbEntity
  8
0
100
AcDbLine
 10
17.59973089678112
 20
-4.771599258481472
 30
0.0
 11
17.59973089678115
 21
-13.77159925848147
 31
0.0
  0
ARC
  5
4C
330
22
100
AcDbEntity
  8
0
100
AcDbCircle
 10
22.59973089678116
 20
-7.271599258481472
 30
0.0
 40
2.5
100
AcDbArc
 50
293.1161887722295
 51
90.0
  0
CIRCLE
  5
4D
330
22
100
AcDbEntity
  8
0
100
AcDbCircle
 10
31.59973089678115
 20
-9.271599258481472
 30
0.0
 40
3.5
  0
ARC
  5
4E
330
22
100
AcDbEntity
  8
0
100
AcDbCircle
 10
4.599730896781153
 20
-11.77159925848133
 30
0.0
 40
1.0
100
AcDbArc
 50
180.0
 51
270.0
  0
ARC
  5
4F
330
22
100
AcDbEntity
  8
0
100
AcDbCircle
 10
4.599730896781153
 20
-11.77159925848133
 30
0.0
 40
2.0
100
AcDbArc
 50
179.9999999999992
 51
270.0
  0
LINE
  5
50
330
22
100
AcDbEntity
  8
0
100
AcDbLine
 10
11.59973089678115
 20
-13.77159925848144
 30
0.0
 11
4.599730896781153
 21
-13.77159925848147
 31
0.0
  0
LINE
  5
51
330
22
100
AcDbEntity
  8
0
100
AcDbLine
 10
8.771303772034769
 20
-12.77159925848136
 30
0.0
 11
4.599730896781153
 21
-12.77159925848133
 31
0.0
  0
LINE
  5
52
330
22
100
AcDbEntity
  8
0
100
AcDbLine
 10
31.59973089678115
 20
-13.77159925848147
 30
0.0
 11
23.6715276665056
 21
-13.77159925848144
 31
0.0
  0
LINE
  5
53
330
22
100
AcDbEntity
  8
0
100
AcDbLine
 10
23.56565672307022
 20
-9.51278021337896
 30
0.0
 11
24.4388546544846
 21
-12.77159925848144
 31
0.0
  0
LINE
  5
54
330
22
100
AcDbEntity
  8
0
100
AcDbLine
 10
22.59973089678116
 20
-9.771599258481472
 30
0.0
 11
18.59973089678112
 21
-9.771599258481472
 31
0.0
  0
LINE
  5
55
330
22
100
AcDbEntity
  8
0
100
AcDbLine
 10
18.59973089678115
 20
-13.77159925848144
 30
0.0
 11
17.59973089678115
 21
-13.77159925848144
 31
0.0
  0
LINE
  5
56
330
22
100
AcDbEntity
  8
0
100
AcDbLine
 10
18.59973089678115
 20
-9.771599258481472
 30
0.0
 11
18.59973089678115
 21
-13.77159925848144
 31
0.0
  0
LINE
  5
57
330
22
100
AcDbEntity
  8
0
100
AcDbLine
 10
22.59973089678116
 20
-9.771599258481472
 30
0.0
 11
23.67152766650562
 21
-13.77159925848147
 31
0.0
  0
ARC
  5
58
330
22
100
AcDbEntity
  8
0
100
AcDbCircle
 10
22.59973089678116
 20
-7.271599258481472
 30
0.0
 40
2.5
100
AcDbArc
 50
270.0
 51
270.0000000000007
  0
LINE
  5
59
330
22
100
AcDbEntity
  8
0
100
AcDbLine
 10
28.77130377203494
 20
-12.77159925848147
 30
0.0
 11
24.43885465448463
 21
-12.77159925848144
 31
0.0
  0
LINE
  5
5A
330
22
100
AcDbEntity
  8
0
100
AcDbLine
 10
3.599730896781125
 20
-4.771599258481472
 30
0.0
 11
2.599730896781125
 21
-4.771599258481472
 31
0.0
  0
LINE
  5
5B
330
22
100
AcDbEntity
  8
0
100
AcDbLine
 10
22.59973089678116
 20
-8.771599258481472
 30
0.0
 11
18.59973089678115
 21
-8.771599258481472
 31
0.0
  0
LINE
  5
5C
330
22
100
AcDbEntity
  8
0
100
AcDbLine
 10
22.59973089678116
 20
-5.771599258481472
 30
0.0
 11
18.59973089678115
 21
-5.771599258481472
 31
0.0
  0
LINE
  5
5D
330
22
100
AcDbEntity
  8
0
100
AcDbLine
 10
22.59973089678116
 20
-4.771599258481472
 30
0.0
 11
17.59973089678115
 21
-4.771599258481472
 31
0.0
  0
LINE
  5
5E
330
22
100
AcDbEntity
  8
0
100
AcDbLine
 10
18.59973089678115
 20
-5.771599258481472
 30
0.0
 11
18.59973089678115
 21
-8.771599258481472
 31
0.0
  0
ARC
  5
5F
330
22
100
AcDbEntity
  8
0
100
AcDbCircle
 10
22.59973089678116
 20
-7.271599258481472
 30
0.0
 40
1.5
100
AcDbArc
 50
270.0
 51
90.0
  0
ENDBLK
  5
60
330
22
100
AcDbEntity
  8
0
100
AcDbBlockEnd
  0
BLOCK
  5
1BD4
330
1BCA
100
AcDbEntity
  8
0
100
AcDbBlockBegin
  2
*D1
 70
     1
 10
0.0
 20
0.0
 30
0.0
  3
*D1
  1

  0
LINE
  5
1D63
330
1BCA
100
AcDbEntity
  8
BEM
 62
     0
370
    -2
100
AcDbLine
 10
92.10563849092443
 20
167.2514543890136
 30
0.0
 11
92.10563849092443
 21
136.1890218770975
 31
0.0
  0
LINE
  5
1D64
330
1BCA
100
AcDbEntity
  8
BEM
 62
     0
370
    -2
100
AcDbLine
 10
251.1056384909246
 20
167.2514543890126
 30
0.0
 11
251.1056384909246
 21
136.1890218770975
 31
0.0
  0
LINE
  5
1D65
330
1BCA
100
AcDbEntity
  8
BEM
 62
     0
370
    -2
100
AcDbLine
 10
99.10563849092444
 20
138.1890218770975
 30
0.0
 11
244.1056384909246
 21
138.1890218770975
 31
0.0
  0
SOLID
  5
1D66
330
1BCA
100
AcDbEntity
  8
BEM
 62
     0
100
AcDbTrace
 10
99.10563849092444
 20
139.3556885437641
 30
0.0
 11
99.10563849092444
 21
137.0223552104308
 31
0.0
 12
92.10563849092443
 22
138.1890218770975
 32
0.0
 13
92.10563849092443
 23
138.1890218770975
 33
0.0
  0
SOLID
  5
1D67
330
1BCA
100
AcDbEntity
  8
BEM
 62
     0
100
AcDbTrace
 10
244.1056384909246
 20
139.3556885437641
 30
0.0
 11
244.1056384909246
 21
137.0223552104308
 31
0.0
 12
251.1056384909246
 22
138.1890218770975
 32
0.0
 13
251.1056384909246
 23
138.1890218770975
 33
0.0
  0
MTEXT
  5
1D68
330
1BCA
100
AcDbEntity
  8
BEM
 62
     1
100
AcDbMText
 10
171.6056384909245
 20
144.6890218770975
 30
0.0
 40
7.0
 41
0.0
 71
     5
 72
     1
  1
\A1;%%c159
 73
     1
 44
1.0
  0
POINT
  5
1D69
330
1BCA
100
AcDbEntity
  8
DEFPOINTS
 62
     0
100
AcDbPoint
 10
92.10563849092443
 20
169.2514543890136
 30
0.0
  0
POINT
  5
1D6A
330
1BCA
100
AcDbEntity
  8
DEFPOINTS
 62
     0
100
AcDbPoint
 10
251.1056384909246
 20
169.2514543890126
 30
0.0
  0
POINT
  5
1D6B
330
1BCA
100
AcDbEntity
  8
DEFPOINTS
 62
     0
100
AcDbPoint
 10
251.1056384909246
 20
138.1890218770975
 30
0.0
  0
ENDBLK
  5
1BD5
330
1BCA
100
AcDbEntity
  8
0
100
AcDbBlockEnd
  0
BLOCK
  5
1BE0
330
1BD6
100
AcDbEntity
  8
0
100
AcDbBlockBegin
  2
*D2
 70
     1
 10
0.0
 20
0.0
 30
0.0
  3
*D2
  1

  0
LINE
  5
1F04
330
1BD6
100
AcDbEntity
  8
BEM
 62
     0
370
    -2
100
AcDbLine
 10
90.98052512618357
 20
159.251454389013
 30
0.0
 11
54.18277206545058
 21
159.251454389013
 31
0.0
  0
LINE
  5
1F05
330
1BD6
100
AcDbEntity
  8
BEM
 62
     0
370
    -2
100
AcDbLine
 10
83.95057161248052
 20
559.251454389013
 30
0.0
 11
54.18277206545067
 21
559.251454389013
 31
0.0
  0
LINE
  5
1F06
330
1BD6
100
AcDbEntity
  8
BEM
 62
     0
370
    -2
100
AcDbLine
 10
56.18277206545058
 20
166.251454389013
 30
0.0
 11
56.18277206545066
 21
552.251454389013
 31
0.0
  0
SOLID
  5
1F07
330
1BD6
100
AcDbEntity
  8
BEM
 62
     0
100
AcDbTrace
 10
55.01610539878392
 20
166.251454389013
 30
0.0
 11
57.34943873211724
 21
166.251454389013
 31
0.0
 12
56.18277206545058
 22
159.251454389013
 32
0.0
 13
56.18277206545058
 23
159.251454389013
 33
0.0
  0
SOLID
  5
1F08
330
1BD6
100
AcDbEntity
  8
BEM
 62
     0
100
AcDbTrace
 10
55.016105398784
 20
552.251454389013
 30
0.0
 11
57.34943873211733
 21
552.251454389013
 31
0.0
 12
56.18277206545066
 22
559.251454389013
 32
0.0
 13
56.18277206545066
 23
559.251454389013
 33
0.0
  0
MTEXT
  5
1F09
330
1BD6
100
AcDbEntity
  8
BEM
 62
     1
100
AcDbMText
 10
49.68277206545057
 20
359.251454389013
 30
0.0
 40
7.0
 41
0.0
 71
     5
 72
     1
  1
\A1;400
 11
0.0000000000000001
 21
1.0
 31
0.0
 73
     1
 44
1.0
  0
POINT
  5
1F0A
330
1BD6
100
AcDbEntity
  8
DEFPOINTS
 62
     0
100
AcDbPoint
 10
92.98052512618358
 20
159.251454389013
 30
0.0
  0
POINT
  5
1F0B
330
1BD6
100
AcDbEntity
  8
DEFPOINTS
 62
     0
100
AcDbPoint
 10
85.95057161248053
 20
559.251454389013
 30
0.0
  0
POINT
  5
1F0C
330
1BD6
100
AcDbEntity
  8
DEFPOINTS
 62
     0
100
AcDbPoint
 10
56.18277206545066
 20
559.251454389013
 30
0.0
  0
ENDBLK
  5
1BE1
330
1BD6
100
AcDbEntity
  8
0
100
AcDbBlockEnd
  0
BLOCK
  5
1E2E
330
1E24
100
AcDbEntity
  8
0
100
AcDbBlockBegin
  2
*D4
 70
     1
 10
0.0
 20
0.0
 30
0.0
  3
*D4
  1

  0
ARC
  5
1E6F
330
1E24
100
AcDbEntity
  8
BEM
 62
     0
370
    -2
100
AcDbCircle
 10
171.6056384909242
 20
349.2558568360582
 30
0.0
 40
61.32763745792883
100
AcDbArc
 50
9.543354844537471
 51
83.45664515546255
  0
SOLID
  5
1E70
330
1E24
100
AcDbEntity
  8
BEM
 62
     0
100
AcDbTrace
 10
233.2442120860158
 20
359.5510530542244
 30
0.0
 11
230.9248435703946
 21
359.2961528125818
 31
0.0
 12
232.8492285531329
 22
352.4654973865394
 32
0.0
 13
232.8492285531329
 23
352.4654973865394
 33
0.0
  0
SOLID
  5
1E71
330
1E24
100
AcDbEntity
  8
BEM
 62
     0
100
AcDbTrace
 10
178.5276472693529
 20
409.0192354974743
 30
0.0
 11
178.6608118099284
 21
411.3487658470465
 31
0.0
 12
171.6056384909242
 22
410.5834942939869
 32
0.0
 13
171.6056384909242
 23
410.5834942939869
 33
0.0
  0
MTEXT
  5
1E72
330
1E24
100
AcDbEntity
  8
BEM
 62
     1
100
AcDbMText
 10
207.3809027176682
 20
406.8815357702875
 30
0.0
 40
7.0
 41
0.0
 71
     5
 72
     1
  1
\A1;87°
 11
0.8495899473127394
 21
-0.5274437613861185
 31
0.0
 73
     1
 44
1.0
  0
POINT
  5
1E73
330
1E24
100
AcDbEntity
  8
DEFPOINTS
 62
     0
100
AcDbPoint
 10
223.6144246788922
 20
381.7545533549245
 30
0.0
  0
POINT
  5
1E74
330
1E24
100
AcDbEntity
  8
DEFPOINTS
 62
     0
100
AcDbPoint
 10
171.6056384909242
 20
564.371454389013
 30
0.0
  0
POINT
  5
1E75
330
1E24
100
AcDbEntity
  8
DEFPOINTS
 62
     0
100
AcDbPoint
 10
391.1949298093577
 20
360.7640439483939
 30
0.0
  0
POINT
  5
1E76
330
1E24
100
AcDbEntity
  8
DEFPOINTS
 62
     0
100
AcDbPoint
 10
171.4964321633514
 20
349.2501335749464
 30
0.0
  0
POINT
  5
1E77
330
1E24
100
AcDbEntity
  8
DEFPOINTS
 62
     0
100
AcDbPoint
 10
171.6056384909242
 20
154.3714543890133
 30
0.0
  0
ENDBLK
  5
1E2F
330
1E24
100
AcDbEntity
  8
0
100
AcDbBlockEnd
  0
BLOCK
  5
1E83
330
1E79
100
AcDbEntity
  8
0
100
AcDbBlockBegin
  2
*D5
 70
     1
 10
0.0
 20
0.0
 30
0.0
  3
*D5
  1

  0
LINE
  5
1E85
330
1E79
100
AcDbEntity
  8
BEM
 62
     0
370
    -2
100
AcDbLine
 10
90.98052512618357
 20
159.251454389013
 30
0.0
 11
70.92435043028395
 21
159.251454389013
 31
0.0
  0
LINE
  5
1E86
330
1E79
100
AcDbEntity
  8
BEM
 62
     0
370
    -2
100
AcDbLine
 10
169.4964321633514
 20
349.2501335749464
 30
0.0
 11
70.92435043028399
 21
349.2501335749464
 31
0.0
  0
LINE
  5
1E87
330
1E79
100
AcDbEntity
  8
BEM
 62
     0
370
    -2
100
AcDbLine
 10
72.92435043028397
 20
166.251454389013
 30
0.0
 11
72.92435043028399
 21
342.2501335749465
 31
0.0
  0
SOLID
  5
1E88
330
1E79
100
AcDbEntity
  8
BEM
 62
     0
100
AcDbTrace
 10
71.75768376361729
 20
166.251454389013
 30
0.0
 11
74.09101709695064
 21
166.251454389013
 31
0.0
 12
72.92435043028395
 22
159.251454389013
 32
0.0
 13
72.92435043028395
 23
159.251454389013
 33
0.0
  0
SOLID
  5
1E89
330
1E79
100
AcDbEntity
  8
BEM
 62
     0
100
AcDbTrace
 10
71.75768376361732
 20
342.2501335749465
 30
0.0
 11
74.09101709695066
 21
342.2501335749465
 31
0.0
 12
72.92435043028399
 22
349.2501335749464
 32
0.0
 13
72.92435043028399
 23
349.2501335749464
 33
0.0
  0
MTEXT
  5
1E8A
330
1E79
100
AcDbEntity
  8
BEM
 62
     1
100
AcDbMText
 10
66.42435043028394
 20
254.2507939819798
 30
0.0
 40
7.0
 41
0.0
 71
     5
 72
     1
  1
\A1;190
 11
0.0000000000000001
 21
1.0
 31
0.0
 73
     1
 44
1.0
  0
POINT
  5
1E8B
330
1E79
100
AcDbEntity
  8
DEFPOINTS
 62
     0
100
AcDbPoint
 10
92.98052512618358
 20
159.251454389013
 30
0.0
  0
POINT
  5
1E8C
330
1E79
100
AcDbEntity
  8
DEFPOINTS
 62
     0
100
AcDbPoint
 10
171.4964321633514
 20
349.2501335749464
 30
0.0
  0
POINT
  5
1E8D
330
1E79
100
AcDbEntity
  8
DEFPOINTS
 62
     0
100
AcDbPoint
 10
72.92435043028399
 20
349.2501335749464
 30
0.0
  0
ENDBLK
  5
1E84
330
1E79
100
AcDbEntity
  8
0
100
AcDbBlockEnd
  0
BLOCK
  5
1EF0
330
1EE6
100
AcDbEntity
  8
0
100
AcDbBlockBegin
  2
*D6
 70
     1
 10
0.0
 20
0.0
 30
0.0
  3
*D6
  1

  0
LINE
  5
1EFB
330
1EE6
100
AcDbEntity
  8
SCHRAFF
 62
     0
370
    -2
100
AcDbLine
 10
171.4856649453112
 20
349.4555843341193
 30
0.0
 11
177.1215705485782
 21
241.916099159049
 31
0.0
  0
LINE
  5
1EFC
330
1EE6
100
AcDbEntity
  8
SCHRAFF
 62
     0
370
    -2
100
AcDbLine
 10
390.7892938802076
 20
272.9674255114781
 30
0.0
 11
391.8269205208119
 21
253.1683297512821
 31
0.0
  0
LINE
  5
1EFD
330
1EE6
100
AcDbEntity
  8
SCHRAFF
 62
     0
370
    -2
100
AcDbLine
 10
184.0073053793743
 20
244.2797099222588
 30
0.0
 11
384.7318418650439
 21
254.7992371270906
 31
0.0
  0
SOLID
  5
1EFE
330
1EE6
100
AcDbEntity
  8
SCHRAFF
 62
     0
100
AcDbTrace
 10
183.9462467637575
 20
245.4447777128058
 30
0.0
 11
184.0683639949911
 21
243.1146421317118
 31
0.0
 12
177.0168986360923
 22
243.9133582285581
 32
0.0
 13
177.0168986360923
 23
243.9133582285581
 33
0.0
  0
SOLID
  5
1EFF
330
1EE6
100
AcDbEntity
  8
SCHRAFF
 62
     0
100
AcDbTrace
 10
384.6707832494272
 20
255.9643049176376
 30
0.0
 11
384.7929004806607
 21
253.6341693365436
 31
0.0
 12
391.7222486083259
 22
255.1655888207912
 32
0.0
 13
391.7222486083259
 23
255.1655888207912
 33
0.0
  0
MTEXT
  5
1F00
330
1EE6
100
AcDbEntity
  8
SCHRAFF
 62
     1
100
AcDbMText
 10
284.0293899066301
 20
256.0305655005794
 30
0.0
 40
7.0
 41
0.0
 71
     5
 72
     1
  1
\A1;215
 11
0.9986295347545739
 21
0.0523359562429444
 31
0.0
 73
     1
 44
1.0
  0
POINT
  5
1F01
330
1EE6
100
AcDbEntity
  8
DEFPOINTS
 62
     0
100
AcDbPoint
 10
171.3809930328253
 20
351.4528434036285
 30
0.0
  0
POINT
  5
1F02
330
1EE6
100
AcDbEntity
  8
DEFPOINTS
 62
     0
100
AcDbPoint
 10
390.6846219677218
 20
274.9646845809873
 30
0.0
  0
POINT
  5
1F03
330
1EE6
100
AcDbEntity
  8
DEFPOINTS
 62
     0
100
AcDbPoint
 10
391.7222486083259
 20
255.1655888207912
 30
0.0
  0
ENDBLK
  5
1EF1
330
1EE6
100
AcDbEntity
  8
0
100
AcDbBlockEnd
  0
ENDSEC
  0
SECTION
  2
ENTITIES
  0
TEXT
  5
134
330
1E
100
AcDbEntity
  8
TEXT
100
AcDbText
 10
204.4216048581257
 20
63.0896391972351
 30
0.0
 40
4.0
  1
Koeh
 41
0.8
  7
GREEKS
 72
     1
 11
209.6787477152686
 21
63.0896391972351
 31
0.0
100
AcDbText
  0
INSERT
  5
135
330
1E
100
AcDbEntity
  8
STEMPEL
100
AcDbBlockReference
  2
LOGO
 10
150.9955485457794
 20
45.02105276448322
 30
0.0
 41
2.0
 42
2.0
 43
2.0
  0
LINE
  5
136
330
1E
100
AcDbEntity
  8
HILF
100
AcDbLine
 10
420.0
 20
0.0
 30
0.0
 11
0.0
 21
0.0
 31
0.0
  0
LINE
  5
137
330
1E
100
AcDbEntity
  8
HILF
100
AcDbLine
 10
419.9999999999999
 20
594.0000000000002
 30
0.0
 11
0.0
 21
594.0
 31
0.0
  0
LINE
  5
138
330
1E
100
AcDbEntity
  8
STEMPEL
100
AcDbLine
 10
410.0
 20
584.0
 30
0.0
 11
39.99999999999989
 21
584.0
 31
0.0
  0
LINE
  5
139
330
1E
100
AcDbEntity
  8
STEMPEL
100
AcDbLine
 10
410.0
 20
10.0
 30
0.0
 11
39.99999999999989
 21
10.0
 31
0.0
  0
LINE
  5
13A
330
1E
100
AcDbEntity
  8
STEMPEL
100
AcDbLine
 10
49.99999999999989
 20
10.0
 30
0.0
 11
410.0
 21
10.0
 31
0.0
  0
TEXT
  5
13B
330
1E
100
AcDbEntity
  8
TEXT
100
AcDbText
 10
202.4626584226295
 20
73.30961091915225
 30
0.0
 40
4.0
  1
Name
 41
0.8
  7
GREEKS
100
AcDbText
  0
TEXT
  5
13C
330
1E
100
AcDbEntity
  8
TEXT
100
AcDbText
 10
196.5498279101549
 20
102.6506227776589
 30
0.0
 40
5.0
  1
Zul. Abw.
 41
0.8
  7
GREEKS
 72
     4
 11
209.9783993387263
 21
105.1506227776589
 31
0.0
100
AcDbText
  0
LINE
  5
13D
330
1E
100
AcDbEntity
  8
HILF
100
AcDbLine
 10
146.0000000000001
 20
49.99999999999997
 30
0.0
 11
230.0
 21
49.99999999999997
 31
0.0
  0
LINE
  5
13E
330
1E
100
AcDbEntity
  8
HILF
100
AcDbLine
 10
146.0000000000001
 20
59.99999999999997
 30
0.0
 11
230.0
 21
59.99999999999997
 31
0.0
  0
LINE
  5
13F
330
1E
100
AcDbEntity
  8
HILF
100
AcDbLine
 10
146.0000000000001
 20
69.99999999999994
 30
0.0
 11
230.0
 21
69.99999999999994
 31
0.0
  0
LINE
  5
140
330
1E
100
AcDbEntity
  8
STEMPEL
100
AcDbLine
 10
410.0
 20
80.0
 30
0.0
 11
146.0000000000001
 21
79.99999999999994
 31
0.0
  0
LINE
  5
141
330
1E
100
AcDbEntity
  8
STEMPEL
100
AcDbLine
 10
410.0
 20
40.0
 30
0.0
 11
146.0000000000001
 21
39.99999999999997
 31
0.0
  0
LINE
  5
142
330
1E
100
AcDbEntity
  8
STEMPEL
100
AcDbLine
 10
410.0
 20
110.0
 30
0.0
 11
39.99999999999997
 21
110.0
 31
0.0
  0
LINE
  5
144
330
1E
100
AcDbEntity
  8
HILF
100
AcDbLine
 10
0.0
 20
0.0
 30
0.0
 11
-0.0000000000001137
 21
594.0
 31
0.0
  0
LINE
  5
145
330
1E
100
AcDbEntity
  8
STEMPEL
100
AcDbLine
 10
40.0
 20
10.0
 30
0.0
 11
39.99999999999989
 21
584.0
 31
0.0
  0
LINE
  5
148
330
1E
100
AcDbEntity
  8
HILF
100
AcDbLine
 10
40.00000000000008
 20
39.99999999999997
 30
0.0
 11
146.0000000000001
 21
39.99999999999997
 31
0.0
  0
LINE
  5
149
330
1E
100
AcDbEntity
  8
HILF
100
AcDbLine
 10
40.00000000000008
 20
49.99999999999997
 30
0.0
 11
146.0000000000001
 21
49.99999999999997
 31
0.0
  0
LINE
  5
14A
330
1E
100
AcDbEntity
  8
HILF
100
AcDbLine
 10
40.00000000000008
 20
59.99999999999997
 30
0.0
 11
146.0000000000001
 21
59.99999999999997
 31
0.0
  0
LINE
  5
14B
330
1E
100
AcDbEntity
  8
HILF
100
AcDbLine
 10
40.00000000000008
 20
69.99999999999994
 30
0.0
 11
146.0000000000001
 21
69.99999999999994
 31
0.0
  0
LINE
  5
14C
330
1E
100
AcDbEntity
  8
HILF
100
AcDbLine
 10
40.00000000000008
 20
79.99999999999994
 30
0.0
 11
146.0000000000001
 21
79.99999999999994
 31
0.0
  0
LINE
  5
14D
330
1E
100
AcDbEntity
  8
HILF
100
AcDbLine
 10
40.00000000000008
 20
90.00000000000005
 30
0.0
 11
146.0000000000001
 21
90.00000000000005
 31
0.0
  0
LINE
  5
14E
330
1E
100
AcDbEntity
  8
HILF
100
AcDbLine
 10
40.00000000000008
 20
100.0
 30
0.0
 11
146.0000000000001
 21
100.0
 31
0.0
  0
LINE
  5
14F
330
1E
100
AcDbEntity
  8
STEMPEL
100
AcDbLine
 10
145.9999999999999
 20
29.99999999999997
 30
0.0
 11
39.99999999999997
 21
29.99999999999997
 31
0.0
  0
TEXT
  5
150
330
1E
100
AcDbEntity
  8
TEXT
100
AcDbText
 10
48.26641107045756
 20
13.65465846027192
 30
0.0
 40
4.0
  1
Index
 50
90.0
 41
0.8
  7
GREEKS
100
AcDbText
  0
LINE
  5
151
330
1E
100
AcDbEntity
  8
VOLL
100
AcDbLine
 10
54.00000000000009
 20
110.0
 30
0.0
 11
53.99999999999997
 21
9.999999999999971
 31
0.0
  0
LINE
  5
152
330
1E
100
AcDbEntity
  8
HILF
100
AcDbLine
 10
31.08767135713856
 20
297.0
 30
0.0
 11
0.0000000000001137
 21
297.0
 31
0.0
  0
LINE
  5
154
330
1E
100
AcDbEntity
  8
VOLL
100
AcDbLine
 10
124.0000000000001
 20
109.9999999999999
 30
0.0
 11
124.0
 21
9.999999999999971
 31
0.0
  0
LINE
  5
155
330
1E
100
AcDbEntity
  8
VOLL
100
AcDbLine
 10
104.0000000000001
 20
109.9999999999999
 30
0.0
 11
104.0
 21
9.999999999999971
 31
0.0
  0
LINE
  5
157
330
1E
100
AcDbEntity
  8
STEMPEL
100
AcDbLine
 10
146.0000000000001
 20
109.9999999999999
 30
0.0
 11
146.0
 21
9.999999999999971
 31
0.0
  0
TEXT
  5
158
330
1E
100
AcDbEntity
  8
TEXT
100
AcDbText
 10
170.7037590129979
 20
63.10765040825732
 30
0.0
 40
4.0
  1
14.04.
 41
0.8
  7
GREEKS
 72
     1
 11
177.4085209177598
 21
63.10765040825732
 31
0.0
100
AcDbText
  0
TEXT
  5
159
330
1E
100
AcDbEntity
  8
TEXT
100
AcDbText
 10
172.331167315365
 20
73.31880501229926
 30
0.0
 40
4.0
  1
Tag
 41
0.8
  7
GREEKS
100
AcDbText
  0
TEXT
  5
15A
330
1E
100
AcDbEntity
  8
TEXT
100
AcDbText
 10
147.5836127167615
 20
63.62990369617964
 30
0.0
 40
4.0
  1
Gez.
 41
0.8
  7
GREEKS
100
AcDbText
  0
LINE
  5
15B
330
1E
100
AcDbEntity
  8
VOLL
100
AcDbLine
 10
164.0000000000001
 20
79.99999999999994
 30
0.0
 11
164.0000000000001
 21
39.99999999999997
 31
0.0
  0
TEXT
  5
15C
330
1E
100
AcDbEntity
  8
TEXT
100
AcDbText
 10
147.6006777387303
 20
43.52946389649807
 30
0.0
 40
4.0
  1
Norm.
 41
0.8
  7
GREEKS
100
AcDbText
  0
TEXT
  5
15D
330
1E
100
AcDbEntity
  8
TEXT
100
AcDbText
 10
147.5515086571672
 20
53.68926291428377
 30
0.0
 40
4.0
  1
Gepr.
 41
0.8
  7
GREEKS
100
AcDbText
  0
TEXT
  5
15E
330
1E
100
AcDbEntity
  8
TEXT
 62
     1
100
AcDbText
 10
160.5006306481887
 20
88.14901428913959
 30
0.0
 40
7.0
  1
1:2
 41
0.8
  7
GREEKS
100
AcDbText
  0
TEXT
  5
160
330
1E
100
AcDbEntity
  8
TEXT
100
AcDbText
 10
148.622109822104
 20
73.14025471151666
 30
0.0
 40
4.0
  1
2011
 41
0.8
  7
GREEKS
100
AcDbText
  0
LINE
  5
161
330
1E
100
AcDbEntity
  8
VOLL
100
AcDbLine
 10
190.0000000000001
 20
109.9999999999998
 30
0.0
 11
190.0
 21
39.99999999999997
 31
0.0
  0
LINE
  5
186
330
1E
100
AcDbEntity
  8
HILF
100
AcDbLine
 10
420.0
 20
-0.0000000000001137
 30
0.0
 11
419.9999999999999
 21
594.0
 31
0.0
  0
LINE
  5
187
330
1E
100
AcDbEntity
  8
STEMPEL
100
AcDbLine
 10
410.0
 20
10.0
 30
0.0
 11
410.0
 21
584.0
 31
0.0
  0
TEXT
  5
188
330
1E
100
AcDbEntity
  8
TEXT
100
AcDbText
 10
337.2400861497006
 20
52.07416177878602
 30
0.0
 40
5.0
  1
ersetzt durch:
 41
0.8
  7
GREEKS
100
AcDbText
  0
TEXT
  5
18A
330
1E
100
AcDbEntity
  8
TEXT
100
AcDbText
 10
336.178754957634
 20
102.3132034537136
 30
0.0
 40
5.0
  1
Zeichnungs Nr.
 41
0.8
  7
GREEKS
100
AcDbText
  0
LINE
  5
18B
330
1E
100
AcDbEntity
  8
HILF
100
AcDbLine
 10
233.4909699289885
 20
14.89398258028314
 30
0.0
 11
404.8588839326728
 21
14.89398258028314
 31
0.0
  0
LINE
  5
18C
330
1E
100
AcDbEntity
  8
HILF
100
AcDbLine
 10
336.7238616296993
 20
83.77983636955827
 30
0.0
 11
404.8588839326728
 21
83.77983636955827
 31
0.0
  0
LINE
  5
18D
330
1E
100
AcDbEntity
  8
VOLL
100
AcDbLine
 10
332.0
 20
60.0
 30
0.0
 11
410.0
 21
60.0
 31
0.0
  0
TEXT
  5
18E
330
1E
100
AcDbEntity
  8
TEXT
 62
     1
100
AcDbText
 10
234.9283864320014
 20
87.41748789253779
 30
0.0
 40
7.0
  1
Abzweig DN150/150
 41
0.8
  7
GREEKS
100
AcDbText
  0
LINE
  5
18F
330
1E
100
AcDbEntity
  8
HILF
100
AcDbLine
 10
234.7736801096947
 20
49.99999999999997
 30
0.0
 11
324.835391655631
 21
49.99999999999997
 31
0.0
  0
LINE
  5
190
330
1E
100
AcDbEntity
  8
HILF
100
AcDbLine
 10
234.7736801096947
 20
59.99999999999997
 30
0.0
 11
324.835391655631
 21
59.99999999999997
 31
0.0
  0
LINE
  5
191
330
1E
100
AcDbEntity
  8
HILF
100
AcDbLine
 10
234.7736801096947
 20
69.99999999999994
 30
0.0
 11
324.835391655631
 21
69.99999999999994
 31
0.0
  0
LINE
  5
192
330
1E
100
AcDbEntity
  8
HILF
100
AcDbLine
 10
234.7736801096947
 20
84.03758247564139
 30
0.0
 11
324.8353916556311
 21
84.03758247564139
 31
0.0
  0
LINE
  5
193
330
1E
100
AcDbEntity
  8
STEMPEL
100
AcDbLine
 10
230.0
 20
110.0
 30
0.0
 11
230.0
 21
9.999999999999971
 31
0.0
  0
TEXT
  5
194
330
1E
100
AcDbEntity
  8
TEXT
100
AcDbText
 10
235.1296391125315
 20
71.50334417585288
 30
0.0
 40
5.0
  1
dünnwandig 87° 
 41
0.8
  7
GREEKS
100
AcDbText
  0
TEXT
  5
195
330
1E
100
AcDbEntity
  8
TEXT
100
AcDbText
 10
234.9837501577827
 20
42.62974153022632
 30
0.0
 40
4.0
  1
4200FF0W.DWG
 41
0.8
  7
GREEKS
100
AcDbText
  0
TEXT
  5
196
330
1E
100
AcDbEntity
  8
TEXT
100
AcDbText
 10
234.742238391136
 20
30.84560570193057
 30
0.0
 40
5.0
  1
Bauvorhaben
 41
0.8
  7
GREEKS
100
AcDbText
  0
TEXT
  5
197
330
1E
100
AcDbEntity
  8
TEXT
100
AcDbText
 10
234.877940380901
 20
102.5489328011779
 30
0.0
 40
5.0
  1
Benennung
 41
0.8
  7
GREEKS
100
AcDbText
  0
LINE
  5
198
330
1E
100
AcDbEntity
  8
STEMPEL
100
AcDbLine
 10
332.0
 20
109.9999999999997
 30
0.0
 11
332.0
 21
40.0
 31
0.0
  0
TEXT
  5
19A
330
1E
100
AcDbEntity
  8
TEXT
 62
     1
100
AcDbText
 10
349.5412282194728
 20
88.14901428913959
 30
0.0
 40
7.0
  1
4200FF0W
 41
0.8
  7
GREEKS
 72
     1
 11
370.3412282194728
 21
88.14901428913959
 31
0.0
100
AcDbText
  0
TEXT
  5
212
330
1E
100
AcDbEntity
  8
TEXT
100
AcDbText
 10
235.1296391125315
 20
51.50334417585291
 30
0.0
 40
5.0
  1
EDV-Art.Nr. 4.200.FF0C
 41
0.8
  7
GREEKS
100
AcDbText
  0
TEXT
  5
255
330
1E
100
AcDbEntity
  8
TEXT
 62
     1
100
AcDbText
 10
297.0573649355706
 20
132.2248663682012
 30
0.0
 40
7.0
  1
Werkstoff: 1.4301
 41
0.8
  7
GREEKS
100
AcDbText
  0
LINE
  5
1BA5
330
1E
100
AcDbEntity
  8
STEMPEL
100
AcDbLine
 10
251.1056384909241
 20
473.5725460432128
 30
0.0
 11
251.1056384909241
 21
432.9113767958943
 31
0.0
  0
LINE
  5
1BA6
330
1E
100
AcDbEntity
  8
STEMPEL
100
AcDbLine
 10
257.2607053693679
 20
559.2514543890131
 30
0.0
 11
85.95057161248053
 21
559.251454389013
 31
0.0
  0
LINE
  5
1BA7
330
1E
100
AcDbEntity
  8
STEMPEL
100
AcDbLine
 10
257.2607053693679
 20
559.2514543890131
 30
0.0
 11
257.9201032501702
 21
557.837371070263
 31
0.0
  0
ARC
  5
1BA8
330
1E
100
AcDbEntity
  8
STEMPEL
100
AcDbCircle
 10
227.1056384909241
 20
543.4683501710792
 30
0.0
 40
34.0
100
AcDbArc
 50
0.0
 51
24.99999999999344
  0
LINE
  5
1BA9
330
1E
100
AcDbEntity
  8
STEMPEL
100
AcDbLine
 10
261.1056384909241
 20
543.4683501710792
 30
0.0
 11
261.1056384909241
 21
527.1888488598592
 31
0.0
  0
ARC
  5
1BAA
330
1E
100
AcDbEntity
  8
STEMPEL
100
AcDbCircle
 10
227.1076108111659
 20
527.2487559082951
 30
0.0
 40
34.0
100
AcDbArc
 50
332.2594896725489
 51
0.0
  0
ARC
  5
1BAB
330
1E
100
AcDbEntity
  8
STEMPEL
100
AcDbCircle
 10
274.1056384909241
 20
502.7514543890129
 30
0.0
 40
19.0
100
AcDbArc
 50
152.845657151619
 51
180.0
  0
LINE
  5
1BAC
330
1E
100
AcDbEntity
  8
STEMPEL
100
AcDbLine
 10
255.1056384909241
 20
502.7514543890129
 30
0.0
 11
255.1056384909241
 21
487.7146816669436
 31
0.0
  0
ARC
  5
1BAD
330
1E
100
AcDbEntity
  8
STEMPEL
100
AcDbCircle
 10
261.1056384909241
 20
473.5725460432128
 30
0.0
 40
10.0
100
AcDbArc
 50
148.4136619034718
 51
180.0
  0
ARC
  5
1BAE
330
1E
100
AcDbEntity
  8
STEMPEL
100
AcDbCircle
 10
238.1056384909241
 20
487.7146816669436
 30
0.0
 40
17.0
100
AcDbArc
 50
328.413661903472
 51
0.0
  0
LINE
  5
1BAF
330
1E
100
AcDbEntity
  8
STEMPEL
100
AcDbLine
 10
82.10563849092432
 20
543.4683501710792
 30
0.0
 11
82.10563849092432
 21
527.1888488598592
 31
0.0
  0
LINE
  5
1BB0
330
1E
100
AcDbEntity
  8
STEMPEL
100
AcDbLine
 10
88.10563849092432
 20
502.7514543890129
 30
0.0
 11
88.10563849092432
 21
487.7146816669436
 31
0.0
  0
ARC
  5
1BB1
330
1E
100
AcDbEntity
  8
STEMPEL
100
AcDbCircle
 10
82.10563849092432
 20
473.5725460432128
 30
0.0
 40
10.0
100
AcDbArc
 50
0.0
 51
31.586338096528
  0
LINE
  5
1BB2
330
1E
100
AcDbEntity
  8
STEMPEL
100
AcDbLine
 10
92.10563849092432
 20
473.5725460432128
 30
0.0
 11
92.10563849092443
 21
169.2514543890135
 31
0.0
  0
ARC
  5
1BB3
330
1E
100
AcDbEntity
  8
STEMPEL
100
AcDbCircle
 10
105.1056384909243
 20
487.7146816669436
 30
0.0
 40
17.0
100
AcDbArc
 50
180.0
 51
211.586338096528
  0
ARC
  5
1BB4
330
1E
100
AcDbEntity
  8
STEMPEL
100
AcDbCircle
 10
116.1036661706824
 20
527.2487559082951
 30
0.0
 40
34.0
100
AcDbArc
 50
180.0
 51
207.320240635787
  0
ARC
  5
1BB5
330
1E
100
AcDbEntity
  8
STEMPEL
100
AcDbCircle
 10
69.10563849092432
 20
502.7514543890129
 30
0.0
 40
19.0
100
AcDbArc
 50
0.0
 51
27.90640811485536
  0
LINE
  5
1BB6
330
1E
100
AcDbEntity
  8
STEMPEL
100
AcDbLine
 10
85.95057161248053
 20
559.2514543890131
 30
0.0
 11
85.29117373167821
 21
557.837371070263
 31
0.0
  0
ARC
  5
1BB7
330
1E
100
AcDbEntity
  8
STEMPEL
100
AcDbCircle
 10
116.1056384909243
 20
543.4683501710792
 30
0.0
 40
34.0
100
AcDbArc
 50
155.0000000000065
 51
180.0
  0
LINE
  5
1BB8
330
1E
100
AcDbEntity
  8
HILF
100
AcDbLine
 10
250.0397583314562
 20
476.7024496034357
 30
0.0
 11
93.17151865039216
 21
476.7024496034358
 31
0.0
  0
LINE
  5
1BB9
330
1E
100
AcDbEntity
  8
HILF
100
AcDbLine
 10
253.0205204449894
 20
483.496115998817
 30
0.0
 11
90.190756536859
 21
483.4961159988171
 31
0.0
  0
LINE
  5
1BBA
330
1E
100
AcDbEntity
  8
HILF
100
AcDbLine
 10
254.2095794609718
 20
507.6907696327133
 30
0.0
 11
89.00169752087675
 21
507.6907696327133
 31
0.0
  0
LINE
  5
1BBB
330
1E
100
AcDbEntity
  8
STEMPEL
100
AcDbLine
 10
250.2307518556651
 20
159.2514543890131
 30
0.0
 11
92.98052512618358
 21
159.251454389013
 31
0.0
  0
DIMENSION
  5
1BBC
330
1E
100
AcDbEntity
  8
BEM
100
AcDbDimension
  2
*D1
 10
251.1056384909246
 20
138.1890218770975
 30
0.0
 11
171.6056384909245
 21
144.6890218770975
 31
0.0
 70
    32
  1
%%c<>
 71
     5
 42
159.0000000000001
  3
Standard
100
AcDbAlignedDimension
 13
92.10563849092443
 23
169.2514543890136
 33
0.0
 14
251.1056384909246
 24
169.2514543890126
 34
0.0
100
AcDbRotatedDimension
1001
ACAD
1000
DSTYLE
1002
{
1070
    40
1040
2.0
1070
    41
1040
3.5
1070
    42
1040
1.0
1070
    43
1040
7.0
1070
    44
1040
1.0
1070
    73
1070
     0
1070
    74
1070
     0
1070
    77
1070
     1
1070
    78
1070
     8
1070
    79
1070
     2
1070
   140
1040
3.5
1070
   141
1040
1.5
1070
   146
1040
0.5142857142857144
1070
   147
1040
1.5
1070
   172
1070
     1
1070
   178
1070
     1
1070
   179
1070
     2
1070
   271
1070
     2
1070
   272
1070
     2
1070
   284
1070
     8
1070
   285
1070
     8
1070
   286
1070
     8
1002
}
  0
LINE
  5
1BBD
330
1E
100
AcDbEntity
  8
HILF
100
AcDbLine
 10
249.605638490924
 20
169.2514543890125
 30
0.0
 11
93.60563849092443
 21
169.2514543890139
 31
0.0
  0
LINE
  5
1BBE
330
1E
100
AcDbEntity
  8
STEMPEL
100
AcDbLine
 10
92.10563849092443
 20
169.2514543890136
 30
0.0
 11
92.98052512618358
 21
159.2514543890136
 31
0.0
  0
LINE
  5
1BBF
330
1E
100
AcDbEntity
  8
STEMPEL
100
AcDbLine
 10
251.1056384909242
 20
169.2514543890131
 30
0.0
 11
250.230751855665
 21
159.2514543890125
 31
0.0
  0
DIMENSION
  5
1BC0
330
1E
100
AcDbEntity
  8
BEM
100
AcDbDimension
  2
*D2
 10
56.18277206545066
 20
559.251454389013
 30
0.0
 11
49.68277206545057
 21
359.251454389013
 31
0.0
 70
    32
 71
     5
 42
400.0
  3
Standard
100
AcDbAlignedDimension
 13
92.98052512618358
 23
159.251454389013
 33
0.0
 14
85.95057161248053
 24
559.251454389013
 34
0.0
 50
90.0
100
AcDbRotatedDimension
1001
ACAD
1000
DSTYLE
1002
{
1070
    40
1040
2.0
1070
    41
1040
3.5
1070
    42
1040
1.0
1070
    43
1040
7.0
1070
    44
1040
1.0
1070
    73
1070
     0
1070
    74
1070
     0
1070
    77
1070
     1
1070
    78
1070
     8
1070
    79
1070
     2
1070
   140
1040
3.5
1070
   141
1040
1.5
1070
   146
1040
0.5142857142857144
1070
   147
1040
1.5
1070
   172
1070
     1
1070
   178
1070
     1
1070
   179
1070
     2
1070
   271
1070
     2
1070
   272
1070
     2
1070
   284
1070
     8
1070
   285
1070
     8
1070
   286
1070
     8
1002
}
  0
LINE
  5
1BC1
330
1E
100
AcDbEntity
  8
MITTEL
100
AcDbLine
 10
171.6056384909242
 20
564.251454389013
 30
0.0
 11
171.6056384909242
 21
154.2514543890133
 31
0.0
  0
TEXT
  5
1BC2
330
1E
100
AcDbEntity
  8
TEXT
 62
     1
100
AcDbText
 10
134.3180893018007
 20
530.179946684286
 30
0.0
 40
7.0
  1
DN150
 41
0.8
  7
GREEKS
100
AcDbText
  0
LINE
  5
1C57
330
1E
100
AcDbEntity
  8
STEMPEL
100
AcDbLine
 10
304.8010022772527
 20
276.6272285560618
 30
0.0
 11
251.1056384909242
 21
273.8131737822253
 31
0.0
  0
LINE
  5
1C58
330
1E
100
AcDbEntity
  8
STEMPEL
100
AcDbLine
 10
296.4795852346246
 20
435.4093245820387
 30
0.0
 11
251.1056384909241
 21
433.0313767958943
 31
0.0
  0
LINE
  5
1C59
330
1E
100
AcDbEntity
  8
MITTEL
100
AcDbLine
 10
391.1949298093578
 20
360.764043948394
 30
0.0
 11
171.4964321633514
 21
349.2501335749464
 31
0.0
  0
LINE
  5
1C5B
330
1E
100
AcDbEntity
  8
STEMPEL
100
AcDbLine
 10
390.6846219677217
 20
274.9646845809873
 30
0.0
 11
381.7189423034482
 21
446.0400437533714
 31
0.0
  0
LINE
  5
1C5C
330
1E
100
AcDbEntity
  8
HILF
100
AcDbLine
 10
307.8708325560386
 20
277.8554544595878
 30
0.0
 11
299.6609832281829
 21
434.5087116700578
 31
0.0
  0
LINE
  5
1C5D
330
1E
100
AcDbEntity
  8
HILF
100
AcDbLine
 10
314.8111895032806
 20
275.234330404134
 30
0.0
 11
306.2893381043359
 21
437.8409417799073
 31
0.0
  0
LINE
  5
1C5E
330
1E
100
AcDbEntity
  8
HILF
100
AcDbLine
 10
339.0349157458772
 20
275.3131512861045
 30
0.0
 11
330.388603265671
 21
440.2946215657301
 31
0.0
  0
TEXT
  5
1C5F
330
1E
100
AcDbEntity
  8
TEXT
 62
     1
100
AcDbText
 10
348.11230688634
 20
377.4695000092388
 30
0.0
 40
7.0
  1
DN150
 50
2.999999999999989
 41
0.8
  7
GREEKS
100
AcDbText
  0
ARC
  5
1C60
330
1E
100
AcDbEntity
  8
STEMPEL
100
AcDbCircle
 10
295.9562256721948
 20
445.3956199295844
 30
0.0
 40
10.0
100
AcDbArc
 50
273.0
 51
304.586338096528
  0
ARC
  5
1C61
330
1E
100
AcDbEntity
  8
STEMPEL
100
AcDbCircle
 10
351.3381934461452
 20
414.2533811359606
 30
0.0
 40
34.0
100
AcDbArc
 50
93.0
 51
120.320240635787
  0
LINE
  5
1C62
330
1E
100
AcDbEntity
  8
STEMPEL
100
AcDbLine
 10
325.4091610756656
 20
440.9309487914598
 30
0.0
 11
310.3929957280153
 21
440.1439849122424
 31
0.0
  0
ARC
  5
1C63
330
1E
100
AcDbEntity
  8
STEMPEL
100
AcDbCircle
 10
311.2827069841452
 20
423.1672828214147
 30
0.0
 40
17.0
100
AcDbArc
 50
93.0
 51
124.586338096528
  0
ARC
  5
1C64
330
1E
100
AcDbEntity
  8
STEMPEL
100
AcDbCircle
 10
324.4147779070494
 20
459.9049099517967
 30
0.0
 40
19.0
100
AcDbArc
 50
273.0
 51
300.9064081148554
  0
LINE
  5
1C65
330
1E
100
AcDbEntity
  8
STEMPEL
100
AcDbLine
 10
365.7562400297032
 20
449.0536836759861
 30
0.0
 11
349.4990492092433
 21
448.201680407705
 31
0.0
  0
ARC
  5
1C66
330
1E
100
AcDbEntity
  8
STEMPEL
100
AcDbCircle
 10
367.5356625419631
 20
415.1002794943304
 30
0.0
 40
34.0
100
AcDbArc
 50
68.00000000000655
 51
93.0
  0
LINE
  5
1C67
330
1E
100
AcDbEntity
  8
STEMPEL
100
AcDbLine
 10
381.7189423034485
 20
446.0400437533714
 30
0.0
 11
380.2722867181043
 21
446.6245305496013
 31
0.0
  0
ARC
  5
1C68
330
1E
100
AcDbEntity
  8
STEMPEL
100
AcDbCircle
 10
318.2433891644568
 20
290.3495546990567
 30
0.0
 40
17.0
100
AcDbArc
 50
241.413661903472
 51
273.0
  0
ARC
  5
1C69
330
1E
100
AcDbEntity
  8
STEMPEL
100
AcDbCircle
 10
335.1436489368528
 20
255.1858553271093
 30
0.0
 40
19.0
100
AcDbArc
 50
65.84565715161902
 51
93.0
  0
LINE
  5
1C6A
330
1E
100
AcDbEntity
  8
STEMPEL
100
AcDbLine
 10
334.1492657682371
 20
274.1598164874462
 30
0.0
 11
319.133100420587
 21
273.3728526082289
 31
0.0
  0
ARC
  5
1C6B
330
1E
100
AcDbEntity
  8
STEMPEL
100
AcDbCircle
 10
305.3243618396818
 20
266.6409332085161
 30
0.0
 40
10.0
100
AcDbArc
 50
61.41366190347183
 51
93.0
  0
ARC
  5
1C6C
330
1E
100
AcDbEntity
  8
STEMPEL
100
AcDbCircle
 10
357.1476910356437
 20
303.4015635437121
 30
0.0
 40
34.0
100
AcDbArc
 50
245.2594896725488
 51
273.0
  0
LINE
  5
1C6D
330
1E
100
AcDbEntity
  8
STEMPEL
100
AcDbLine
 10
375.1243761971902
 20
270.2989969549175
 30
0.0
 11
358.8671853767302
 21
269.4469936866365
 31
0.0
  0
ARC
  5
1C6E
330
1E
100
AcDbEntity
  8
STEMPEL
100
AcDbCircle
 10
373.3449536849298
 20
304.252401136573
 30
0.0
 40
34.0
100
AcDbArc
 50
273.0
 51
297.9999999999935
  0
LINE
  5
1C6F
330
1E
100
AcDbEntity
  8
STEMPEL
100
AcDbLine
 10
390.6846219677217
 20
274.9646845809873
 30
0.0
 11
389.3069868196505
 21
274.2321829793695
 31
0.0
  0
LINE
  5
1CD0
330
1E
100
AcDbEntity
  8
STEMPEL
100
AcDbLine
 10
251.1056384909242
 20
273.6931737822253
 30
0.0
 11
251.1056384909241
 21
169.2514543890122
 31
0.0
  0
ARC
  5
1D28
330
1E
100
AcDbEntity
  8
SCHRAFF
100
AcDbCircle
 10
250.0017490572211
 20
432.0605755996659
 30
0.0
 40
5.453849412323744
100
AcDbArc
 50
11.39515401569103
 51
78.25546396166792
  0
HATCH
  5
1D2C
330
1E
100
AcDbEntity
  8
SCHRAFF
100
AcDbHatch
 10
0.0
 20
0.0
 30
0.0
210
0.0
220
0.0
230
1.0
  2
_USER
 70
     0
 71
     0
 91
        1
 92
        7
 72
     1
 73
     1
 93
        3
 10
255.3237724571389
 20
433.252439829782
 42
0.2944695574881423
 10
251.1118712938775
 20
437.400248064526
 42
0.0
 10
251.1118712938775
 20
433.0317034432558
 42
0.0
 97
        0
 75
     0
 76
     0
 52
0.0
 41
0.1
 77
     0
 78
     1
 53
0.0
 43
471.9329905409994
 44
-14.08291751289823
 45
0.0
 46
0.1
 79
     0
 47
0.19015608942974
 98
        1
 10
252.4439837819385
 20
433.8283395997694
  0
ARC
  5
1D47
330
1E
100
AcDbEntity
  8
SCHRAFF
100
AcDbCircle
 10
248.5773680450951
 20
276.10305665395
 30
0.0
 40
7.014821672317335
100
AcDbArc
 50
291.1804769763506
 51
341.8195230236496
  0
HATCH
  5
1D4C
330
1E
100
AcDbEntity
  8
SCHRAFF
100
AcDbHatch
 10
0.0
 20
0.0
 30
0.0
210
0.0
220
0.0
230
1.0
  2
_USER
 70
     0
 71
     0
 91
        1
 92
        7
 72
     1
 73
     1
 93
        3
 10
255.24199874804
 20
273.9143536846604
 42
0.0
 10
251.1118712938775
 20
273.6979028766318
 42
0.0
 10
251.1118712938775
 20
269.5621074585867
 42
0.2246218881314918
 97
        0
 75
     0
 76
     0
 52
0.0
 41
0.1
 77
     0
 78
     1
 53
0.0
 43
471.9329905409994
 44
-14.08291751289823
 45
0.0
 46
0.1
 79
     0
 47
0.1324216900698353
 98
        1
 10
251.5599302992376
 20
272.0948324470731
  0
DIMENSION
  5
1E23
330
1E
100
AcDbEntity
  8
BEM
100
AcDbDimension
  2
*D4
 10
171.6056384909242
 20
154.3714543890133
 30
0.0
 11
203.9525182686584
 21
401.3592011127546
 31
0.0
 70
   162
 71
     5
 42
1.518436449235067
  3
Standard
100
AcDb2LineAngularDimension
 13
391.1949298093578
 23
360.764043948394
 33
0.0
 14
171.4964321633514
 24
349.2501335749464
 34
0.0
 15
171.6056384909242
 25
564.371454389013
 35
0.0
 16
223.6144246788922
 26
381.7545533549245
 36
0.0
1001
ACAD
1000
DSTYLE
1002
{
1070
    40
1040
2.0
1070
    41
1040
3.5
1070
    42
1040
1.0
1070
    43
1040
7.0
1070
    44
1040
1.0
1070
    73
1070
     0
1070
    74
1070
     0
1070
    77
1070
     1
1070
    78
1070
     8
1070
    79
1070
     2
1070
   140
1040
3.5
1070
   141
1040
1.5
1070
   146
1040
0.5142857142857144
1070
   147
1040
1.5
1070
   172
1070
     1
1070
   178
1070
     1
1070
   179
1070
     2
1070
   271
1070
     2
1070
   272
1070
     2
1070
   284
1070
     8
1070
   285
1070
     8
1070
   286
1070
     8
1002
}
  0
DIMENSION
  5
1E78
330
1E
100
AcDbEntity
  8
BEM
100
AcDbDimension
  2
*D5
 10
72.92435043028399
 20
349.2501335749464
 30
0.0
 11
66.42435043028394
 21
254.2507939819798
 31
0.0
 70
    32
 71
     5
 42
189.9986791859334
  3
Standard
100
AcDbAlignedDimension
 13
92.98052512618358
 23
159.251454389013
 33
0.0
 14
171.4964321633514
 24
349.2501335749464
 34
0.0
 50
90.0
100
AcDbRotatedDimension
1001
ACAD
1000
DSTYLE
1002
{
1070
    40
1040
2.0
1070
    41
1040
3.5
1070
    42
1040
1.0
1070
    43
1040
7.0
1070
    44
1040
1.0
1070
    73
1070
     0
1070
    74
1070
     0
1070
    77
1070
     1
1070
    78
1070
     8
1070
    79
1070
     2
1070
   140
1040
3.5
1070
   141
1040
1.5
1070
   146
1040
0.5142857142857144
1070
   147
1040
1.5
1070
   172
1070
     1
1070
   178
1070
     1
1070
   179
1070
     2
1070
   271
1070
     2
1070
   272
1070
     2
1070
   284
1070
     8
1070
   285
1070
     8
1070
   286
1070
     8
1002
}
  0
LINE
  5
1E8E
330
1E
100
AcDbEntity
  8
STEMPEL
100
AcDbLine
 10
254.2164736753822
 20
436.180550689129
 30
0.0
 11
171.4964321633514
 21
349.2501335749464
 31
0.0
  0
LINE
  5
1E8F
330
1E
100
AcDbEntity
  8
STEMPEL
100
AcDbLine
 10
171.4964321633514
 20
349.2501335749464
 30
0.0
 11
251.1056384909242
 21
273.6931737822253
 31
0.0
  0
ARC
  5
1E92
330
1E
100
AcDbEntity
  8
SCHRAFF
100
AcDbCircle
 10
178.3884595618327
 20
356.4929589599557
 30
0.0
 40
5.0
100
AcDbArc
 50
189.5517739727951
 51
263.2915692644823
  0
ARC
  5
1E93
330
1E
100
AcDbEntity
  8
SCHRAFF
100
AcDbCircle
 10
181.835187476085
 20
360.1151222203727
 30
0.0
 40
5.0
100
AcDbArc
 50
189.5517739727951
 51
263.2915692644826
  0
ARC
  5
1E94
330
1E
100
AcDbEntity
  8
SCHRAFF
100
AcDbCircle
 10
185.2819153903372
 20
363.7372854807896
 30
0.0
 40
5.0
100
AcDbArc
 50
189.5517739727951
 51
263.2915692644823
  0
ARC
  5
1E95
330
1E
100
AcDbEntity
  8
SCHRAFF
100
AcDbCircle
 10
188.7286433045895
 20
367.3594487412066
 30
0.0
 40
5.0
100
AcDbArc
 50
189.5517739727951
 51
263.2915692644823
  0
ARC
  5
1E97
330
1E
100
AcDbEntity
  8
SCHRAFF
100
AcDbCircle
 10
178.8588979648198
 20
342.2624300391538
 30
0.0
 40
5.0
100
AcDbArc
 50
99.62607192204536
 51
173.3658672137336
  0
ARC
  5
1E98
330
1E
100
AcDbEntity
  8
SCHRAFF
100
AcDbCircle
 10
182.4855277017675
 20
338.8204020394005
 30
0.0
 40
5.0
100
AcDbArc
 50
99.62607192204631
 51
173.3658672137343
  0
ARC
  5
1E99
330
1E
100
AcDbEntity
  8
SCHRAFF
100
AcDbCircle
 10
186.1121574387152
 20
335.378374039647
 30
0.0
 40
5.0
100
AcDbArc
 50
99.62607192204536
 51
173.3658672137336
  0
ARC
  5
1E9A
330
1E
100
AcDbEntity
  8
SCHRAFF
100
AcDbCircle
 10
189.738787175663
 20
331.9363460398937
 30
0.0
 40
5.0
100
AcDbArc
 50
99.62607192204536
 51
173.3658672137336
  0
ARC
  5
1E9B
330
1E
100
AcDbEntity
  8
SCHRAFF
100
AcDbCircle
 10
193.3654169126107
 20
328.4943180401403
 30
0.0
 40
5.0
100
AcDbArc
 50
99.62607192204536
 51
173.3658672137336
  0
ARC
  5
1E9C
330
1E
100
AcDbEntity
  8
SCHRAFF
100
AcDbCircle
 10
196.9920466495585
 20
325.052290040387
 30
0.0
 40
5.0
100
AcDbArc
 50
99.62607192204631
 51
173.3658672137343
  0
ARC
  5
1E9D
330
1E
100
AcDbEntity
  8
SCHRAFF
100
AcDbCircle
 10
200.6186763865062
 20
321.6102620406336
 30
0.0
 40
5.0
100
AcDbArc
 50
99.62607192204536
 51
173.3658672137336
  0
ARC
  5
1E9E
330
1E
100
AcDbEntity
  8
SCHRAFF
100
AcDbCircle
 10
204.245306123454
 20
318.1682340408802
 30
0.0
 40
5.0
100
AcDbArc
 50
99.62607192204536
 51
173.3658672137336
  0
ARC
  5
1E9F
330
1E
100
AcDbEntity
  8
SCHRAFF
100
AcDbCircle
 10
207.8719358604018
 20
314.7262060411269
 30
0.0
 40
5.0
100
AcDbArc
 50
99.62607192204536
 51
173.3658672137336
  0
ARC
  5
1EA0
330
1E
100
AcDbEntity
  8
SCHRAFF
100
AcDbCircle
 10
211.4985655973495
 20
311.2841780413735
 30
0.0
 40
5.0
100
AcDbArc
 50
99.62607192204536
 51
173.3658672137336
  0
ARC
  5
1EA1
330
1E
100
AcDbEntity
  8
SCHRAFF
100
AcDbCircle
 10
192.1753712188417
 20
370.9816120016236
 30
0.0
 40
5.0
100
AcDbArc
 50
189.5517739727951
 51
263.2915692644823
  0
ARC
  5
1EA2
330
1E
100
AcDbEntity
  8
SCHRAFF
100
AcDbCircle
 10
195.622099133094
 20
374.6037752620405
 30
0.0
 40
5.0
100
AcDbArc
 50
189.5517739727951
 51
263.2915692644823
  0
ARC
  5
1EA3
330
1E
100
AcDbEntity
  8
SCHRAFF
100
AcDbCircle
 10
199.0688270473462
 20
378.2259385224575
 30
0.0
 40
5.0
100
AcDbArc
 50
189.5517739727951
 51
263.2915692644823
  0
ARC
  5
1EA4
330
1E
100
AcDbEntity
  8
SCHRAFF
100
AcDbCircle
 10
202.5155549615985
 20
381.8481017828744
 30
0.0
 40
5.0
100
AcDbArc
 50
189.5517739727944
 51
263.291569264482
  0
ARC
  5
1EA5
330
1E
100
AcDbEntity
  8
SCHRAFF
100
AcDbCircle
 10
205.9622828758508
 20
385.4702650432914
 30
0.0
 40
5.0
100
AcDbArc
 50
189.5517739727944
 51
263.291569264482
  0
ARC
  5
1EA6
330
1E
100
AcDbEntity
  8
SCHRAFF
100
AcDbCircle
 10
209.409010790103
 20
389.0924283037084
 30
0.0
 40
5.0
100
AcDbArc
 50
189.5517739727951
 51
263.2915692644823
  0
ARC
  5
1EA8
330
1E
100
AcDbEntity
  8
SCHRAFF
100
AcDbCircle
 10
212.8557387043553
 20
392.7145915641254
 30
0.0
 40
5.0
100
AcDbArc
 50
189.5517739727951
 51
263.2915692644823
  0
ARC
  5
1EA9
330
1E
100
AcDbEntity
  8
SCHRAFF
100
AcDbCircle
 10
216.3024666186075
 20
396.3367548245424
 30
0.0
 40
5.0
100
AcDbArc
 50
189.5517739727951
 51
263.291569264483
  0
ARC
  5
1EAA
330
1E
100
AcDbEntity
  8
SCHRAFF
100
AcDbCircle
 10
219.7491945328597
 20
399.9589180849593
 30
0.0
 40
5.0
100
AcDbArc
 50
189.5517739727944
 51
263.2915692644823
  0
ARC
  5
1EAB
330
1E
100
AcDbEntity
  8
SCHRAFF
100
AcDbCircle
 10
223.195922447112
 20
403.5810813453762
 30
0.0
 40
5.0
100
AcDbArc
 50
189.5517739727951
 51
263.291569264482
  0
ARC
  5
1EAC
330
1E
100
AcDbEntity
  8
SCHRAFF
100
AcDbCircle
 10
226.6426503613642
 20
407.2032446057932
 30
0.0
 40
5.0
100
AcDbArc
 50
189.5517739727944
 51
263.2915692644823
  0
ARC
  5
1EAD
330
1E
100
AcDbEntity
  8
SCHRAFF
100
AcDbCircle
 10
230.0893782756165
 20
410.8254078662102
 30
0.0
 40
5.0
100
AcDbArc
 50
189.5517739727951
 51
263.291569264482
  0
ARC
  5
1EAE
330
1E
100
AcDbEntity
  8
SCHRAFF
100
AcDbCircle
 10
233.5361061898687
 20
414.4475711266272
 30
0.0
 40
5.0
100
AcDbArc
 50
189.5517739727951
 51
263.291569264483
  0
ARC
  5
1EAF
330
1E
100
AcDbEntity
  8
SCHRAFF
100
AcDbCircle
 10
236.982834104121
 20
418.0697343870441
 30
0.0
 40
5.0
100
AcDbArc
 50
189.5517739727958
 51
263.2915692644833
  0
ARC
  5
1EB0
330
1E
100
AcDbEntity
  8
SCHRAFF
100
AcDbCircle
 10
240.4295620183733
 20
421.6918976474611
 30
0.0
 40
5.0
100
AcDbArc
 50
189.5517739727951
 51
263.291569264483
  0
ARC
  5
1EB1
330
1E
100
AcDbEntity
  8
SCHRAFF
100
AcDbCircle
 10
243.8762899326255
 20
425.3140609078781
 30
0.0
 40
5.0
100
AcDbArc
 50
189.5517739727958
 51
263.2915692644823
  0
ARC
  5
1EB2
330
1E
100
AcDbEntity
  8
SCHRAFF
100
AcDbCircle
 10
247.3230178468777
 20
428.936224168295
 30
0.0
 40
5.0
100
AcDbArc
 50
189.5517739727958
 51
263.2915692644833
  0
ARC
  5
1EB3
330
1E
100
AcDbEntity
  8
SCHRAFF
100
AcDbCircle
 10
250.76974576113
 20
432.558387428712
 30
0.0
 40
5.0
100
AcDbArc
 50
189.5517739727958
 51
263.291569264483
  0
ARC
  5
1EB4
330
1E
100
AcDbEntity
  8
SCHRAFF
100
AcDbCircle
 10
254.2164736753822
 20
436.180550689129
 30
0.0
 40
5.0
100
AcDbArc
 50
189.5517739727958
 51
263.2915692644823
  0
ARC
  5
1EB7
330
1E
100
AcDbEntity
  8
SCHRAFF
100
AcDbCircle
 10
240.5116034929316
 20
283.7479540433467
 30
0.0
 40
5.0
100
AcDbArc
 50
99.62607192204695
 51
173.3658672137356
  0
ARC
  5
1EB8
330
1E
100
AcDbEntity
  8
SCHRAFF
100
AcDbCircle
 10
236.8849737559838
 20
287.1899820431
 30
0.0
 40
5.0
100
AcDbArc
 50
99.62607192204695
 51
173.3658672137356
  0
ARC
  5
1EB9
330
1E
100
AcDbEntity
  8
SCHRAFF
100
AcDbCircle
 10
226.0050845451406
 20
297.5160660423601
 30
0.0
 40
5.0
100
AcDbArc
 50
99.62607192204695
 51
173.3658672137356
  0
ARC
  5
1EBA
330
1E
100
AcDbEntity
  8
SCHRAFF
100
AcDbCircle
 10
222.3784548081928
 20
300.9580940421135
 30
0.0
 40
5.0
100
AcDbArc
 50
99.62607192204695
 51
173.3658672137356
  0
ARC
  5
1EBB
330
1E
100
AcDbEntity
  8
SCHRAFF
100
AcDbCircle
 10
233.2583440190361
 20
290.6320100428534
 30
0.0
 40
5.0
100
AcDbArc
 50
99.62607192204631
 51
173.3658672137343
  0
ARC
  5
1EBC
330
1E
100
AcDbEntity
  8
SCHRAFF
100
AcDbCircle
 10
229.6317142820883
 20
294.0740380426067
 30
0.0
 40
5.0
100
AcDbArc
 50
99.62607192204631
 51
173.3658672137343
  0
ARC
  5
1EBD
330
1E
100
AcDbEntity
  8
SCHRAFF
100
AcDbCircle
 10
218.7518250712451
 20
304.4001220418668
 30
0.0
 40
5.0
100
AcDbArc
 50
99.62607192204631
 51
173.3658672137343
  0
ARC
  5
1EBE
330
1E
100
AcDbEntity
  8
SCHRAFF
100
AcDbCircle
 10
215.1251953342972
 20
307.8421500416202
 30
0.0
 40
5.0
100
AcDbArc
 50
99.62607192204536
 51
173.3658672137336
  0
ARC
  5
1EC1
330
1E
100
AcDbEntity
  8
SCHRAFF
100
AcDbCircle
 10
251.3914927037748
 20
273.4218700440866
 30
0.0
 40
5.0
100
AcDbArc
 50
99.62607192204536
 51
173.3658672137336
  0
ARC
  5
1EC2
330
1E
100
AcDbEntity
  8
SCHRAFF
100
AcDbCircle
 10
247.7648629668271
 20
276.8638980438399
 30
0.0
 40
5.0
100
AcDbArc
 50
99.62607192204536
 51
173.3658672137336
  0
ARC
  5
1EC3
330
1E
100
AcDbEntity
  8
SCHRAFF
100
AcDbCircle
 10
244.1382332298793
 20
280.3059260435933
 30
0.0
 40
5.0
100
AcDbArc
 50
99.62607192204695
 51
173.3658672137356
  0
TEXT
  5
1EDD
330
1E
100
AcDbEntity
  8
BEM
100
AcDbText
 10
416.5811541437436
 20
12.14804815338303
 30
0.0
 40
4.0
  1
Diese Zeichnung ist urheberrechtlich geschützt und bleibt unser Eigentum. Sie darf weder ganz noch teilweise vervielfältigt und nicht an Dritte weitergegeben werden.
 50
90.0
 41
0.8
  7
GREEKS
100
AcDbText
  0
TEXT
  5
1EDE
330
1E
100
AcDbEntity
  8
TEXT
100
AcDbText
 10
336.7238616296993
 20
73.1811823709997
 30
0.0
 40
5.0
  1
Ersatz für:
 41
0.8
  7
GREEKS
100
AcDbText
  0
TEXT
  5
1EDF
330
1E
100
AcDbEntity
  8
TEXT
100
AcDbText
 10
192.6882715247924
 20
89.7791437153694
 30
0.0
 40
4.0
  1
DIN EN1124-3
 41
0.8
  7
GREEKS
 72
     1
 11
209.6787477152686
 21
89.7791437153694
 31
0.0
100
AcDbText
  0
TEXT
  5
1EE0
330
1E
100
AcDbEntity
  8
TEXT
100
AcDbText
 10
153.5163572150377
 20
102.4620895087088
 30
0.0
 40
5.0
  1
Maßstab
 41
0.8
  7
GREEKS
100
AcDbText
  0
TEXT
  5
1EE1
330
1E
100
AcDbEntity
  8
TEXT
100
AcDbText
 10
41.85509950977674
 20
111.6719999999999
 30
0.0
 40
5.0
  1
Erstellt mit AUTOCAD 2004
 41
0.8
  7
GREEKS
100
AcDbText
  0
TEXT
  5
1EE2
330
1E
100
AcDbEntity
  8
TEXT
100
AcDbText
 10
128.9002860979178
 20
18.59324216966408
 30
0.0
 40
4.0
  1
Name
 41
0.8
  7
GREEKS
 72
     1
 11
135.2240956217273
 21
18.59324216966408
 31
0.0
100
AcDbText
  0
TEXT
  5
1EE3
330
1E
100
AcDbEntity
  8
TEXT
100
AcDbText
 10
110.462610504336
 20
18.6715626933981
 30
0.0
 40
4.0
  1
Tag
 41
0.8
  7
GREEKS
 72
     1
 11
114.1959438376693
 21
18.6715626933981
 31
0.0
100
AcDbText
  0
TEXT
  5
1EE4
330
1E
100
AcDbEntity
  8
TEXT
100
AcDbText
 10
67.65811831396264
 20
18.34829198486668
 30
0.0
 40
4.0
  1
Änderung
 41
0.8
  7
GREEKS
 72
     1
 11
78.40097545681979
 21
18.34829198486668
 31
0.0
100
AcDbText
  0
DIMENSION
  5
1EE5
330
1E
100
AcDbEntity
  8
SCHRAFF
100
AcDbDimension
  2
*D6
 10
391.7222486083259
 20
255.1655888207912
 30
0.0
 11
284.02938990663
 21
256.0305655005794
 31
0.0
 70
    32
 71
     5
 42
215.0000000000003
 51
357.0
  3
Standard
100
AcDbAlignedDimension
 13
171.3809930328253
 23
351.4528434036285
 33
0.0
 14
390.6846219677218
 24
274.9646845809873
 34
0.0
 50
2.99999999999909
100
AcDbRotatedDimension
1001
ACAD
1000
DSTYLE
1002
{
1070
    40
1040
2.0
1070
    41
1040
3.5
1070
    42
1040
1.0
1070
    43
1040
7.0
1070
    44
1040
1.0
1070
    73
1070
     0
1070
    74
1070
     0
1070
    77
1070
     1
1070
    78
1070
     8
1070
    79
1070
     2
1070
   140
1040
3.5
1070
   141
1040
1.5
1070
   146
1040
0.5142857142857144
1070
   147
1040
1.5
1070
   172
1070
     1
1070
   178
1070
     1
1070
   179
1070
     2
1070
   271
1070
     2
1070
   272
1070
     2
1070
   284
1070
     8
1070
   285
1070
     8
1070
   286
1070
     8
1002
}
  0
TEXT
  5
1F37
330
1E
100
AcDbEntity
  8
TEXT
 62
     1
100
AcDbText
 10
370.3412282194728
 20
63.4183721271138
 30
0.0
 40
7.0
  1

 41
0.8
  7
GREEKS
 72
     1
 11
370.3412282194728
 21
63.4183721271138
 31
0.0
100
AcDbText
  0
ENDSEC
  0
SECTION
  2
OBJECTS
  0
DICTIONARY
  5
C
330
0
100
AcDbDictionary
281
     1
  3
ACAD_COLOR
350
1ECF
  3
ACAD_GROUP
350
D
  3
ACAD_LAYOUT
350
19
  3
ACAD_MATERIAL
350
1ECE
  3
ACAD_MLINESTYLE
350
16
  3
ACAD_PLOTSETTINGS
350
18
  3
ACAD_PLOTSTYLENAME
350
E
  3
AcDbVariableDictionary
350
246
  0
DICTIONARY
  5
1ECF
102
{ACAD_REACTORS
330
C
102
}
330
C
100
AcDbDictionary
281
     1
  0
DICTIONARY
  5
D
102
{ACAD_REACTORS
330
C
102
}
330
C
100
AcDbDictionary
281
     1
  0
DICTIONARY
  5
19
102
{ACAD_REACTORS
330
C
102
}
330
C
100
AcDbDictionary
281
     1
  3
Layout1
350
1D
  3
Model
350
21
  0
DICTIONARY
  5
1ECE
102
{ACAD_REACTORS
330
C
102
}
330
C
100
AcDbDictionary
281
     1
  0
DICTIONARY
  5
16
102
{ACAD_REACTORS
330
C
102
}
330
C
100
AcDbDictionary
281
     1
  3
Standard
350
17
  0
DICTIONARY
  5
18
102
{ACAD_REACTORS
330
C
102
}
330
C
100
AcDbDictionary
281
     1
  0
ACDBDICTIONARYWDFLT
  5
E
102
{ACAD_REACTORS
330
C
102
}
330
C
100
AcDbDictionary
281
     1
  3
Normal
350
F
100
AcDbDictionaryWithDefault
340
F
  0
DICTIONARY
  5
246
102
{ACAD_REACTORS
330
C
102
}
330
C
100
AcDbDictionary
281
     1
  3
DIMASSOC
350
1F33
  3
PROJECTNAME
350
1F34
  3
SORTENTS
350
247
  0
LAYOUT
  5
1D
102
{ACAD_REACTORS
330
19
102
}
330
19
100
AcDbPlotSettings
  1

  2
Tektronix Phaser 740
  4

  6

 40
0.0
 41
0.0
 42
0.0
 43
0.0
 44
0.0
 45
0.0
 46
0.0
 47
0.0
 48
0.0
 49
0.0
140
0.0
141
0.0
142
1.0
143
1.0
 70
   688
 72
     0
 73
     0
 74
     5
  7
monochrome.ctb
 75
    16
147
1.0
 76
     0
 77
     2
 78
   300
148
0.0
149
0.0
100
AcDbLayout
  1
Layout1
 70
     0
 71
     1
 10
0.0
 20
0.0
 11
12.0
 21
9.0
 12
0.0
 22
0.0
 32
0.0
 14
1.000000000000000E+20
 24
1.000000000000000E+20
 34
1.000000000000000E+20
 15
-1.000000000000000E+20
 25
-1.000000000000000E+20
 35
-1.000000000000000E+20
146
0.0
 13
0.0
 23
0.0
 33
0.0
 16
1.0
 26
0.0
 36
0.0
 17
0.0
 27
1.0
 37
0.0
 76
     0
330
1A
  0
LAYOUT
  5
21
102
{ACAD_REACTORS
330
19
102
}
330
19
100
AcDbPlotSettings
  1

  2
Tektronix Phaser 740
  4
A4
  6

 40
5.873749732971191
 41
6.085414409637451
 42
5.577407836914062
 43
5.662078857421875
 44
209.9733276367187
 45
296.9683227539062
 46
0.0
 47
0.0
 48
0.0
 49
0.0
140
0.0
141
0.0
142
1.0
143
1.0
 70
 11952
 72
     0
 73
     1
 74
     0
  7
monochrome.ctb
 75
     0
147
1.0
 76
     0
 77
     2
 78
   300
148
1150.120678237584
149
45.30495740799864
100
AcDbLayout
  1
Model
 70
     1
 71
     0
 10
0.0
 20
0.0
 11
12.0
 21
9.0
 12
0.0
 22
0.0
 32
0.0
 14
0.0
 24
0.0
 34
0.0
 15
0.0
 25
0.0
 35
0.0
146
0.0
 13
0.0
 23
0.0
 33
0.0
 16
1.0
 26
0.0
 36
0.0
 17
0.0
 27
1.0
 37
0.0
 76
     0
330
1E
  0
MLINESTYLE
  5
17
102
{ACAD_REACTORS
330
16
102
}
330
16
100
AcDbMlineStyle
  2
STANDARD
 70
     0
  3

 62
   256
 51
90.0
 52
90.0
 71
     2
 49
0.5
 62
   256
  6
BYLAYER
 49
-0.5
 62
   256
  6
BYLAYER
  0
ACDBPLACEHOLDER
  5
F
102
{ACAD_REACTORS
330
E
102
}
330
E
  0
DICTIONARYVAR
  5
1F33
102
{ACAD_REACTORS
330
246
102
}
330
246
100
DictionaryVariables
280
     0
  1
1
  0
DICTIONARYVAR
  5
1F34
102
{ACAD_REACTORS
330
246
102
}
330
246
100
DictionaryVariables
280
     0
  1

  0
DICTIONARYVAR
  5
247
102
{ACAD_REACTORS
330
246
102
}
330
246
100
DictionaryVariables
280
     0
  1
96
  0
ENDSEC
  0
EOF
