  0
SECTION
  2
HEADER
  9
$ACADVER
  1
AC1018
  9
$ACADMAINTVER
 70
     2
  9
$DWGCODEPAGE
  3
ANSI_1252
  9
$INSBASE
 10
0.0
 20
0.0
 30
0.0
  9
$EXTMIN
 10
-0.0258353765526636
 20
-0.0370048042575491
 30
-0.0000000000000023
  9
$EXTMAX
 10
423.4370375108779
 20
606.5018892407842
 30
0.0000000000000129
  9
$LIMMIN
 10
0.0
 20
0.0
  9
$LIMMAX
 10
419.9999999999999
 20
594.0
  9
$ORTHOMODE
 70
     1
  9
$REGENMODE
 70
     1
  9
$FILLMODE
 70
     1
  9
$QTEXTMODE
 70
     0
  9
$MIRRTEXT
 70
     1
  9
$LTSCALE
 40
20.0
  9
$ATTMODE
 70
     1
  9
$TEXTSIZE
 40
3.5
  9
$TRACEWID
 40
0.5
  9
$TEXTSTYLE
  7
STANDARD
  9
$CLAYER
  8
BEM
  9
$CELTYPE
  6
ByLayer
  9
$CECOLOR
 62
   256
  9
$CELTSCALE
 40
1.0
  9
$DISPSILH
 70
     0
  9
$DIMSCALE
 40
2.0
  9
$DIMASZ
 40
3.5
  9
$DIMEXO
 40
1.0
  9
$DIMDLI
 40
7.0
  9
$DIMRND
 40
0.0
  9
$DIMDLE
 40
0.0
  9
$DIMEXE
 40
1.0
  9
$DIMTP
 40
0.0
  9
$DIMTM
 40
0.0
  9
$DIMTXT
 40
3.5
  9
$DIMCEN
 40
1.5
  9
$DIMTSZ
 40
0.0
  9
$DIMTOL
 70
     0
  9
$DIMLIM
 70
     0
  9
$DIMTIH
 70
     0
  9
$DIMTOH
 70
     0
  9
$DIMSE1
 70
     0
  9
$DIMSE2
 70
     0
  9
$DIMTAD
 70
     1
  9
$DIMZIN
 70
     8
  9
$DIMBLK
  1

  9
$DIMASO
 70
     1
  9
$DIMSHO
 70
     0
  9
$DIMPOST
  1

  9
$DIMAPOST
  1

  9
$DIMALT
 70
     0
  9
$DIMALTD
 70
     2
  9
$DIMALTF
 40
25.4
  9
$DIMLFAC
 40
1.0
  9
$DIMTOFL
 70
     1
  9
$DIMTVP
 40
0.0
  9
$DIMTIX
 70
     0
  9
$DIMSOXD
 70
     0
  9
$DIMSAH
 70
     0
  9
$DIMBLK1
  1

  9
$DIMBLK2
  1

  9
$DIMSTYLE
  2
Standard
  9
$DIMCLRD
 70
     0
  9
$DIMCLRE
 70
     0
  9
$DIMCLRT
 70
     1
  9
$DIMTFAC
 40
0.5142857142857144
  9
$DIMGAP
 40
1.5
  9
$DIMJUST
 70
     0
  9
$DIMSD1
 70
     0
  9
$DIMSD2
 70
     0
  9
$DIMTOLJ
 70
     1
  9
$DIMTZIN
 70
     8
  9
$DIMALTZ
 70
     8
  9
$DIMALTTZ
 70
     8
  9
$DIMUPT
 70
     0
  9
$DIMDEC
 70
     2
  9
$DIMTDEC
 70
     2
  9
$DIMALTU
 70
     2
  9
$DIMALTTD
 70
     2
  9
$DIMTXSTY
  7
STANDARD
  9
$DIMAUNIT
 70
     0
  9
$DIMADEC
 70
     2
  9
$DIMALTRND
 40
0.0
  9
$DIMAZIN
 70
     2
  9
$DIMDSEP
 70
    46
  9
$DIMATFIT
 70
     3
  9
$DIMFRAC
 70
     0
  9
$DIMLDRBLK
  1

  9
$DIMLUNIT
 70
     2
  9
$DIMLWD
 70
    -2
  9
$DIMLWE
 70
    -2
  9
$DIMTMOVE
 70
     0
  9
$LUNITS
 70
     2
  9
$LUPREC
 70
     2
  9
$SKETCHINC
 40
1.0
  9
$FILLETRAD
 40
0.0
  9
$AUNITS
 70
     1
  9
$AUPREC
 70
     3
  9
$MENU
  1
ACAD
  9
$ELEVATION
 40
0.0
  9
$PELEVATION
 40
0.0
  9
$THICKNESS
 40
0.0
  9
$LIMCHECK
 70
     0
  9
$CHAMFERA
 40
0.0
  9
$CHAMFERB
 40
0.0
  9
$CHAMFERC
 40
0.0
  9
$CHAMFERD
 40
0.0
  9
$SKPOLY
 70
     0
  9
$TDCREATE
 40
2452040.637099653
  9
$TDUCREATE
 40
2452040.553766320
  9
$TDUPDATE
 40
2455666.368570185
  9
$TDUUPDATE
 40
2455666.285236852
  9
$TDINDWG
 40
0.4058100231
  9
$TDUSRTIMER
 40
0.4058100231
  9
$USRTIMER
 70
     1
  9
$ANGBASE
 50
0.0
  9
$ANGDIR
 70
     0
  9
$PDMODE
 70
     0
  9
$PDSIZE
 40
0.0
  9
$PLINEWID
 40
0.0
  9
$SPLFRAME
 70
     0
  9
$SPLINETYPE
 70
     6
  9
$SPLINESEGS
 70
     8
  9
$HANDSEED
  5
1B49
  9
$SURFTAB1
 70
     6
  9
$SURFTAB2
 70
     6
  9
$SURFTYPE
 70
     6
  9
$SURFU
 70
     6
  9
$SURFV
 70
     6
  9
$UCSBASE
  2

  9
$UCSNAME
  2

  9
$UCSORG
 10
0.0
 20
0.0
 30
0.0
  9
$UCSXDIR
 10
1.0
 20
0.0
 30
0.0
  9
$UCSYDIR
 10
0.0
 20
1.0
 30
0.0
  9
$UCSORTHOREF
  2

  9
$UCSORTHOVIEW
 70
     0
  9
$UCSORGTOP
 10
0.0
 20
0.0
 30
0.0
  9
$UCSORGBOTTOM
 10
0.0
 20
0.0
 30
0.0
  9
$UCSORGLEFT
 10
0.0
 20
0.0
 30
0.0
  9
$UCSORGRIGHT
 10
0.0
 20
0.0
 30
0.0
  9
$UCSORGFRONT
 10
0.0
 20
0.0
 30
0.0
  9
$UCSORGBACK
 10
0.0
 20
0.0
 30
0.0
  9
$PUCSBASE
  2

  9
$PUCSNAME
  2

  9
$PUCSORG
 10
0.0
 20
0.0
 30
0.0
  9
$PUCSXDIR
 10
1.0
 20
0.0
 30
0.0
  9
$PUCSYDIR
 10
0.0
 20
1.0
 30
0.0
  9
$PUCSORTHOREF
  2

  9
$PUCSORTHOVIEW
 70
     0
  9
$PUCSORGTOP
 10
0.0
 20
0.0
 30
0.0
  9
$PUCSORGBOTTOM
 10
0.0
 20
0.0
 30
0.0
  9
$PUCSORGLEFT
 10
0.0
 20
0.0
 30
0.0
  9
$PUCSORGRIGHT
 10
0.0
 20
0.0
 30
0.0
  9
$PUCSORGFRONT
 10
0.0
 20
0.0
 30
0.0
  9
$PUCSORGBACK
 10
0.0
 20
0.0
 30
0.0
  9
$USERI1
 70
     0
  9
$USERI2
 70
     0
  9
$USERI3
 70
     0
  9
$USERI4
 70
     0
  9
$USERI5
 70
     0
  9
$USERR1
 40
0.0
  9
$USERR2
 40
0.0
  9
$USERR3
 40
0.0
  9
$USERR4
 40
0.0
  9
$USERR5
 40
0.0
  9
$WORLDVIEW
 70
     1
  9
$SHADEDGE
 70
     3
  9
$SHADEDIF
 70
    70
  9
$TILEMODE
 70
     1
  9
$MAXACTVP
 70
    16
  9
$PINSBASE
 10
0.0
 20
0.0
 30
0.0
  9
$PLIMCHECK
 70
     0
  9
$PEXTMIN
 10
1.000000000000000E+20
 20
1.000000000000000E+20
 30
1.000000000000000E+20
  9
$PEXTMAX
 10
-1.000000000000000E+20
 20
-1.000000000000000E+20
 30
-1.000000000000000E+20
  9
$PLIMMIN
 10
0.0
 20
0.0
  9
$PLIMMAX
 10
12.0
 20
9.0
  9
$UNITMODE
 70
     0
  9
$VISRETAIN
 70
     0
  9
$PLINEGEN
 70
     0
  9
$PSLTSCALE
 70
     0
  9
$TREEDEPTH
 70
  3020
  9
$CMLSTYLE
  2
Standard
  9
$CMLJUST
 70
     0
  9
$CMLSCALE
 40
1.0
  9
$PROXYGRAPHICS
 70
     1
  9
$MEASUREMENT
 70
     0
  9
$CELWEIGHT
370
    -1
  9
$ENDCAPS
280
     0
  9
$JOINSTYLE
280
     0
  9
$LWDISPLAY
290
     0
  9
$INSUNITS
 70
     0
  9
$HYPERLINKBASE
  1

  9
$STYLESHEET
  1
monochrome 1.ctb
  9
$XEDIT
290
     1
  9
$CEPSNTYPE
380
     0
  9
$PSTYLEMODE
290
     1
  9
$FINGERPRINTGUID
  2
{7AADB5C8-6110-11D8-B72B-000102183313}
  9
$VERSIONGUID
  2
{619862E4-A2B3-4CC2-A10B-7BE2CC612EED}
  9
$EXTNAMES
290
     1
  9
$PSVPSCALE
 40
0.0
  9
$OLESTARTUP
290
     0
  9
$SORTENTS
280
    96
  9
$INDEXCTL
280
     0
  9
$HIDETEXT
280
     0
  9
$XCLIPFRAME
290
     0
  9
$HALOGAP
280
     0
  9
$OBSCOLOR
 70
   257
  9
$OBSLTYPE
280
     0
  9
$INTERSECTIONDISPLAY
280
     0
  9
$INTERSECTIONCOLOR
 70
   257
  9
$DIMASSOC
280
     1
  9
$PROJECTNAME
  1

  0
ENDSEC
  0
SECTION
  2
CLASSES
  0
CLASS
  1
ACDBDICTIONARYWDFLT
  2
AcDbDictionaryWithDefault
  3
ObjectDBX Classes
 90
        0
 91
        1
280
     0
281
     0
  0
CLASS
  1
DICTIONARYVAR
  2
AcDbDictionaryVar
  3
ObjectDBX Classes
 90
        0
 91
        3
280
     0
281
     0
  0
ENDSEC
  0
SECTION
  2
TABLES
  0
TABLE
  2
VPORT
  5
8
330
0
100
AcDbSymbolTable
 70
     3
  0
VPORT
  5
1B48
330
8
100
AcDbSymbolTableRecord
100
AcDbViewportTableRecord
  2
*Active
 70
     0
 10
0.0
 20
0.0
 11
1.0
 21
1.0
 12
210.0
 22
297.0
 13
0.0
 23
0.0
 14
1.0
 24
1.0
 15
10.0
 25
10.0
 16
0.0
 26
0.0
 36
1.0
 17
0.0
 27
0.0
 37
0.0
 40
594.0
 41
1.334231805929919
 42
50.0
 43
0.0
 44
0.0
 50
0.0
 51
0.0
 71
     0
 72
  1500
 73
     1
 74
     0
 75
     0
 76
     0
 77
     0
 78
     0
281
     0
 65
     1
110
0.0
120
0.0
130
0.0
111
1.0
121
0.0
131
0.0
112
0.0
122
1.0
132
0.0
 79
     0
146
0.0
  0
ENDTAB
  0
TABLE
  2
LTYPE
  5
5
330
0
100
AcDbSymbolTable
 70
     2
  0
LTYPE
  5
13
330
5
100
AcDbSymbolTableRecord
100
AcDbLinetypeTableRecord
  2
ByBlock
 70
     0
  3

 72
    65
 73
     0
 40
0.0
  0
LTYPE
  5
14
330
5
100
AcDbSymbolTableRecord
100
AcDbLinetypeTableRecord
  2
ByLayer
 70
     0
  3

 72
    65
 73
     0
 40
0.0
  0
LTYPE
  5
15
330
5
100
AcDbSymbolTableRecord
100
AcDbLinetypeTableRecord
  2
Continuous
 70
     0
  3
Solid line
 72
    65
 73
     0
 40
0.0
  0
LTYPE
  5
35
330
5
100
AcDbSymbolTableRecord
100
AcDbLinetypeTableRecord
  2
STRICHPUNKT
 70
     0
  3
__ . __ . __ . __ . __ . __ . __ . __ . __ . __
 72
    65
 73
     4
 40
1.0
 49
0.5
 74
     0
 49
-0.25
 74
     0
 49
0.0
 74
     0
 49
-0.25
 74
     0
  0
ENDTAB
  0
TABLE
  2
LAYER
  5
2
330
0
100
AcDbSymbolTable
 70
     9
  0
LAYER
  5
10
330
2
100
AcDbSymbolTableRecord
100
AcDbLayerTableRecord
  2
0
 70
     0
 62
     7
  6
Continuous
370
    -3
390
F
  0
LAYER
  5
38
330
2
100
AcDbSymbolTableRecord
100
AcDbLayerTableRecord
  2
VOLL
 70
     0
 62
     1
  6
Continuous
370
    -3
390
F
  0
LAYER
  5
39
330
2
100
AcDbSymbolTableRecord
100
AcDbLayerTableRecord
  2
HILF
 70
     0
 62
     2
  6
Continuous
370
    -3
390
F
  0
LAYER
  5
3A
330
2
100
AcDbSymbolTableRecord
100
AcDbLayerTableRecord
  2
MITTEL
 70
     0
 62
     2
  6
STRICHPUNKT
370
    -3
390
F
  0
LAYER
  5
3B
330
2
100
AcDbSymbolTableRecord
100
AcDbLayerTableRecord
  2
BEM
 70
     0
 62
     7
  6
Continuous
370
    -3
390
F
  0
LAYER
  5
3C
330
2
100
AcDbSymbolTableRecord
100
AcDbLayerTableRecord
  2
STEMPEL
 70
     0
 62
     3
  6
Continuous
370
    -3
390
F
  0
LAYER
  5
3D
330
2
100
AcDbSymbolTableRecord
100
AcDbLayerTableRecord
  2
TEXT
 70
     0
 62
     7
  6
Continuous
370
    -3
390
F
  0
LAYER
  5
3E
330
2
100
AcDbSymbolTableRecord
100
AcDbLayerTableRecord
  2
DEFPOINTS
 70
     0
 62
     7
  6
Continuous
290
     0
370
    -3
390
F
  0
LAYER
  5
3F
330
2
100
AcDbSymbolTableRecord
100
AcDbLayerTableRecord
  2
SCHRAFF
 70
     0
 62
     7
  6
Continuous
370
    -3
390
F
  0
ENDTAB
  0
TABLE
  2
STYLE
  5
3
330
0
100
AcDbSymbolTable
 70
     2
  0
STYLE
  5
11
330
3
100
AcDbSymbolTableRecord
100
AcDbTextStyleTableRecord
  2
STANDARD
 70
     0
 40
0.0
 41
0.8
 50
0.0
 71
     0
 42
3.5
  3
simplex.shx
  4

  0
STYLE
  5
34
330
3
100
AcDbSymbolTableRecord
100
AcDbTextStyleTableRecord
  2
GREEKS
 70
     0
 40
0.0
 41
0.8
 50
0.0
 71
     0
 42
2.5
  3
SIMPLEX.shx
  4

  0
ENDTAB
  0
TABLE
  2
VIEW
  5
6
330
0
100
AcDbSymbolTable
 70
     0
  0
ENDTAB
  0
TABLE
  2
UCS
  5
7
330
0
100
AcDbSymbolTable
 70
     0
  0
ENDTAB
  0
TABLE
  2
APPID
  5
9
330
0
100
AcDbSymbolTable
 70
     2
  0
APPID
  5
12
330
9
100
AcDbSymbolTableRecord
100
AcDbRegAppTableRecord
  2
ACAD
 70
     0
  0
APPID
  5
1555
330
9
100
AcDbSymbolTableRecord
100
AcDbRegAppTableRecord
  2
AVE_RENDER
 70
     0
  0
ENDTAB
  0
TABLE
  2
DIMSTYLE
  5
A
330
0
100
AcDbSymbolTable
 70
     1
100
AcDbDimStyleTable
 71
     1
340
1CB
  0
DIMSTYLE
105
1CB
102
{ACAD_REACTORS
330
1859
330
185A
330
19C5
330
19F8
330
1AA9
102
}
330
A
100
AcDbSymbolTableRecord
100
AcDbDimStyleTableRecord
  2
Standard
 70
     0
340
11
  0
ENDTAB
  0
TABLE
  2
BLOCK_RECORD
  5
1
330
0
100
AcDbSymbolTable
 70
     7
  0
BLOCK_RECORD
  5
1E
330
1
100
AcDbSymbolTableRecord
100
AcDbBlockTableRecord
  2
*Model_Space
340
21
  0
BLOCK_RECORD
  5
1A
330
1
100
AcDbSymbolTableRecord
100
AcDbBlockTableRecord
  2
*Paper_Space
340
1D
  0
BLOCK_RECORD
  5
22
330
1
100
AcDbSymbolTableRecord
100
AcDbBlockTableRecord
  2
LOGO
340
0
102
{BLKREFS
331
135
102
}
  0
BLOCK_RECORD
  5
187A
330
1
100
AcDbSymbolTableRecord
100
AcDbBlockTableRecord
  2
*D1
340
0
  0
BLOCK_RECORD
  5
1886
330
1
100
AcDbSymbolTableRecord
100
AcDbBlockTableRecord
  2
*D2
340
0
  0
BLOCK_RECORD
  5
19C6
330
1
100
AcDbSymbolTableRecord
100
AcDbBlockTableRecord
  2
*D4
340
0
  0
BLOCK_RECORD
  5
19F9
330
1
100
AcDbSymbolTableRecord
100
AcDbBlockTableRecord
  2
*D5
340
0
  0
BLOCK_RECORD
  5
1AAA
330
1
100
AcDbSymbolTableRecord
100
AcDbBlockTableRecord
  2
*D6
340
0
  0
ENDTAB
  0
ENDSEC
  0
SECTION
  2
BLOCKS
  0
BLOCK
  5
43
330
1E
100
AcDbEntity
  8
0
100
AcDbBlockBegin
  2
*Model_Space
 70
     0
 10
0.0
 20
0.0
 30
0.0
  3
*Model_Space
  1

  0
ENDBLK
  5
44
330
1E
100
AcDbEntity
  8
0
100
AcDbBlockEnd
  0
BLOCK
  5
41
330
1A
100
AcDbEntity
 67
     1
  8
0
100
AcDbBlockBegin
  2
*Paper_Space
 70
     0
 10
0.0
 20
0.0
 30
0.0
  3
*Paper_Space
  1

  0
ENDBLK
  5
42
330
1A
100
AcDbEntity
 67
     1
  8
0
100
AcDbBlockEnd
  0
BLOCK
  5
45
330
22
100
AcDbEntity
  8
0
100
AcDbBlockBegin
  2
LOGO
 70
     0
 10
0.0
 20
0.0
 30
0.0
  3
LOGO
  1

  0
ARC
  5
46
330
22
100
AcDbEntity
  8
0
100
AcDbCircle
 10
11.59973089678112
 20
-9.271599258481501
 30
0.0
 40
4.5
100
AcDbArc
 50
270.0
 51
231.0575587310159
  0
LINE
  5
47
330
22
100
AcDbEntity
  8
0
100
AcDbLine
 10
3.599730896781125
 20
-4.771599258481529
 30
0.0
 11
3.599730896781153
 21
-11.77159925848133
 31
0.0
  0
LINE
  5
48
330
22
100
AcDbEntity
  8
0
100
AcDbLine
 10
2.599730896781125
 20
-4.771599258481529
 30
0.0
 11
2.599730896781153
 21
-11.77159925848133
 31
0.0
  0
CIRCLE
  5
49
330
22
100
AcDbEntity
  8
0
100
AcDbCircle
 10
11.59973089678112
 20
-9.271599258481501
 30
0.0
 40
3.5
  0
ARC
  5
4A
330
22
100
AcDbEntity
  8
0
100
AcDbCircle
 10
31.59973089678115
 20
-9.271599258481472
 30
0.0
 40
4.5
100
AcDbArc
 50
270.0
 51
231.0575587310182
  0
LINE
  5
4B
330
22
100
AcDbEntity
  8
0
100
AcDbLine
 10
17.59973089678112
 20
-4.771599258481472
 30
0.0
 11
17.59973089678115
 21
-13.77159925848147
 31
0.0
  0
ARC
  5
4C
330
22
100
AcDbEntity
  8
0
100
AcDbCircle
 10
22.59973089678116
 20
-7.271599258481472
 30
0.0
 40
2.5
100
AcDbArc
 50
293.1161887722295
 51
90.0
  0
CIRCLE
  5
4D
330
22
100
AcDbEntity
  8
0
100
AcDbCircle
 10
31.59973089678115
 20
-9.271599258481472
 30
0.0
 40
3.5
  0
ARC
  5
4E
330
22
100
AcDbEntity
  8
0
100
AcDbCircle
 10
4.599730896781153
 20
-11.77159925848133
 30
0.0
 40
1.0
100
AcDbArc
 50
180.0
 51
270.0
  0
ARC
  5
4F
330
22
100
AcDbEntity
  8
0
100
AcDbCircle
 10
4.599730896781153
 20
-11.77159925848133
 30
0.0
 40
2.0
100
AcDbArc
 50
179.9999999999992
 51
270.0
  0
LINE
  5
50
330
22
100
AcDbEntity
  8
0
100
AcDbLine
 10
11.59973089678115
 20
-13.77159925848144
 30
0.0
 11
4.599730896781153
 21
-13.77159925848147
 31
0.0
  0
LINE
  5
51
330
22
100
AcDbEntity
  8
0
100
AcDbLine
 10
8.771303772034769
 20
-12.77159925848136
 30
0.0
 11
4.599730896781153
 21
-12.77159925848133
 31
0.0
  0
LINE
  5
52
330
22
100
AcDbEntity
  8
0
100
AcDbLine
 10
31.59973089678115
 20
-13.77159925848147
 30
0.0
 11
23.6715276665056
 21
-13.77159925848144
 31
0.0
  0
LINE
  5
53
330
22
100
AcDbEntity
  8
0
100
AcDbLine
 10
23.56565672307022
 20
-9.51278021337896
 30
0.0
 11
24.4388546544846
 21
-12.77159925848144
 31
0.0
  0
LINE
  5
54
330
22
100
AcDbEntity
  8
0
100
AcDbLine
 10
22.59973089678116
 20
-9.771599258481472
 30
0.0
 11
18.59973089678112
 21
-9.771599258481472
 31
0.0
  0
LINE
  5
55
330
22
100
AcDbEntity
  8
0
100
AcDbLine
 10
18.59973089678115
 20
-13.77159925848144
 30
0.0
 11
17.59973089678115
 21
-13.77159925848144
 31
0.0
  0
LINE
  5
56
330
22
100
AcDbEntity
  8
0
100
AcDbLine
 10
18.59973089678115
 20
-9.771599258481472
 30
0.0
 11
18.59973089678115
 21
-13.77159925848144
 31
0.0
  0
LINE
  5
57
330
22
100
AcDbEntity
  8
0
100
AcDbLine
 10
22.59973089678116
 20
-9.771599258481472
 30
0.0
 11
23.67152766650562
 21
-13.77159925848147
 31
0.0
  0
ARC
  5
58
330
22
100
AcDbEntity
  8
0
100
AcDbCircle
 10
22.59973089678116
 20
-7.271599258481472
 30
0.0
 40
2.5
100
AcDbArc
 50
270.0
 51
270.0000000000007
  0
LINE
  5
59
330
22
100
AcDbEntity
  8
0
100
AcDbLine
 10
28.77130377203494
 20
-12.77159925848147
 30
0.0
 11
24.43885465448463
 21
-12.77159925848144
 31
0.0
  0
LINE
  5
5A
330
22
100
AcDbEntity
  8
0
100
AcDbLine
 10
3.599730896781125
 20
-4.771599258481472
 30
0.0
 11
2.599730896781125
 21
-4.771599258481472
 31
0.0
  0
LINE
  5
5B
330
22
100
AcDbEntity
  8
0
100
AcDbLine
 10
22.59973089678116
 20
-8.771599258481472
 30
0.0
 11
18.59973089678115
 21
-8.771599258481472
 31
0.0
  0
LINE
  5
5C
330
22
100
AcDbEntity
  8
0
100
AcDbLine
 10
22.59973089678116
 20
-5.771599258481472
 30
0.0
 11
18.59973089678115
 21
-5.771599258481472
 31
0.0
  0
LINE
  5
5D
330
22
100
AcDbEntity
  8
0
100
AcDbLine
 10
22.59973089678116
 20
-4.771599258481472
 30
0.0
 11
17.59973089678115
 21
-4.771599258481472
 31
0.0
  0
LINE
  5
5E
330
22
100
AcDbEntity
  8
0
100
AcDbLine
 10
18.59973089678115
 20
-5.771599258481472
 30
0.0
 11
18.59973089678115
 21
-8.771599258481472
 31
0.0
  0
ARC
  5
5F
330
22
100
AcDbEntity
  8
0
100
AcDbCircle
 10
22.59973089678116
 20
-7.271599258481472
 30
0.0
 40
1.5
100
AcDbArc
 50
270.0
 51
90.0
  0
ENDBLK
  5
60
330
22
100
AcDbEntity
  8
0
100
AcDbBlockEnd
  0
BLOCK
  5
1884
330
187A
100
AcDbEntity
  8
0
100
AcDbBlockBegin
  2
*D1
 70
     1
 10
0.0
 20
0.0
 30
0.0
  3
*D1
  1

  0
LINE
  5
1AFB
330
187A
100
AcDbEntity
  8
BEM
 62
     0
370
    -2
100
AcDbLine
 10
97.1320348179284
 20
175.0711662463892
 30
0.0
 11
64.07765600885198
 21
175.0711662463892
 31
0.0
  0
LINE
  5
1AFC
330
187A
100
AcDbEntity
  8
BEM
 62
     0
370
    -2
100
AcDbLine
 10
91.1020813042254
 20
535.0744591507193
 30
0.0
 11
64.07765600885205
 21
535.0744591507193
 31
0.0
  0
LINE
  5
1AFD
330
187A
100
AcDbEntity
  8
BEM
 62
     0
370
    -2
100
AcDbLine
 10
66.07765600885199
 20
182.0711662463892
 30
0.0
 11
66.07765600885206
 21
528.0744591507193
 31
0.0
  0
SOLID
  5
1AFE
330
187A
100
AcDbEntity
  8
BEM
 62
     0
100
AcDbTrace
 10
64.91098934218531
 20
182.0711662463892
 30
0.0
 11
67.24432267551866
 21
182.0711662463892
 31
0.0
 12
66.07765600885199
 22
175.0711662463892
 32
0.0
 13
66.07765600885199
 23
175.0711662463892
 33
0.0
  0
SOLID
  5
1AFF
330
187A
100
AcDbEntity
  8
BEM
 62
     0
100
AcDbTrace
 10
64.91098934218539
 20
528.0744591507193
 30
0.0
 11
67.24432267551873
 21
528.0744591507193
 31
0.0
 12
66.07765600885206
 22
535.0744591507193
 32
0.0
 13
66.07765600885206
 23
535.0744591507193
 33
0.0
  0
MTEXT
  5
1B00
330
187A
100
AcDbEntity
  8
BEM
 62
     1
100
AcDbMText
 10
59.57765600885196
 20
355.0728126985543
 30
0.0
 40
7.0
 41
0.0
 71
     5
 72
     1
  1
\A1;360
 11
0.0000000000000001
 21
1.0
 31
0.0
 73
     1
 44
1.0
  0
POINT
  5
1B01
330
187A
100
AcDbEntity
  8
DEFPOINTS
 62
     0
100
AcDbPoint
 10
99.13203481792841
 20
175.0711662463892
 30
0.0
  0
POINT
  5
1B02
330
187A
100
AcDbEntity
  8
DEFPOINTS
 62
     0
100
AcDbPoint
 10
93.10208130422541
 20
535.0744591507193
 30
0.0
  0
POINT
  5
1B03
330
187A
100
AcDbEntity
  8
DEFPOINTS
 62
     0
100
AcDbPoint
 10
66.07765600885206
 20
535.0744591507193
 30
0.0
  0
ENDBLK
  5
1885
330
187A
100
AcDbEntity
  8
0
100
AcDbBlockEnd
  0
BLOCK
  5
1890
330
1886
100
AcDbEntity
  8
0
100
AcDbBlockBegin
  2
*D2
 70
     1
 10
0.0
 20
0.0
 30
0.0
  3
*D2
  1

  0
LINE
  5
19D4
330
1886
100
AcDbEntity
  8
BEM
 62
     0
370
    -2
100
AcDbLine
 10
98.2571481826692
 20
183.0711662463892
 30
0.0
 11
98.2571481826692
 21
146.9472232637207
 31
0.0
  0
LINE
  5
19D5
330
1886
100
AcDbEntity
  8
BEM
 62
     0
370
    -2
100
AcDbLine
 10
231.2571481826696
 20
183.0711662463895
 30
0.0
 11
231.2571481826696
 21
146.9472232637207
 31
0.0
  0
LINE
  5
19D6
330
1886
100
AcDbEntity
  8
BEM
 62
     0
370
    -2
100
AcDbLine
 10
105.2571481826692
 20
148.9472232637207
 30
0.0
 11
224.2571481826697
 21
148.9472232637207
 31
0.0
  0
SOLID
  5
19D7
330
1886
100
AcDbEntity
  8
BEM
 62
     0
100
AcDbTrace
 10
105.2571481826692
 20
150.1138899303874
 30
0.0
 11
105.2571481826692
 21
147.7805565970541
 31
0.0
 12
98.2571481826692
 22
148.9472232637207
 32
0.0
 13
98.2571481826692
 23
148.9472232637207
 33
0.0
  0
SOLID
  5
19D8
330
1886
100
AcDbEntity
  8
BEM
 62
     0
100
AcDbTrace
 10
224.2571481826697
 20
150.1138899303874
 30
0.0
 11
224.2571481826697
 21
147.7805565970541
 31
0.0
 12
231.2571481826696
 22
148.9472232637207
 32
0.0
 13
231.2571481826696
 23
148.9472232637207
 33
0.0
  0
MTEXT
  5
19D9
330
1886
100
AcDbEntity
  8
BEM
 62
     1
100
AcDbMText
 10
164.7571481826694
 20
155.4472232637207
 30
0.0
 40
7.0
 41
0.0
 71
     5
 72
     1
  1
\A1;%%c133
 73
     1
 44
1.0
  0
POINT
  5
19DA
330
1886
100
AcDbEntity
  8
DEFPOINTS
 62
     0
100
AcDbPoint
 10
98.2571481826692
 20
185.0711662463892
 30
0.0
  0
POINT
  5
19DB
330
1886
100
AcDbEntity
  8
DEFPOINTS
 62
     0
100
AcDbPoint
 10
231.2571481826696
 20
185.0711662463895
 30
0.0
  0
POINT
  5
19DC
330
1886
100
AcDbEntity
  8
DEFPOINTS
 62
     0
100
AcDbPoint
 10
231.2571481826696
 20
148.9472232637207
 30
0.0
  0
ENDBLK
  5
1891
330
1886
100
AcDbEntity
  8
0
100
AcDbBlockEnd
  0
BLOCK
  5
19D0
330
19C6
100
AcDbEntity
  8
0
100
AcDbBlockBegin
  2
*D4
 70
     1
 10
0.0
 20
0.0
 30
0.0
  3
*D4
  1

  0
LINE
  5
1A9F
330
19C6
100
AcDbEntity
  8
BEM
 62
     0
370
    -2
100
AcDbLine
 10
162.7571481826691
 20
345.0711662463894
 30
0.0
 11
80.13860318809273
 21
345.0711662463894
 31
0.0
  0
LINE
  5
1AA0
330
19C6
100
AcDbEntity
  8
BEM
 62
     0
370
    -2
100
AcDbLine
 10
97.1320348179284
 20
175.0711662463892
 30
0.0
 11
80.13860318809269
 21
175.0711662463892
 31
0.0
  0
LINE
  5
1AA1
330
19C6
100
AcDbEntity
  8
BEM
 62
     0
370
    -2
100
AcDbLine
 10
82.13860318809272
 20
338.0711662463895
 30
0.0
 11
82.1386031880927
 21
182.0711662463892
 31
0.0
  0
SOLID
  5
1AA2
330
19C6
100
AcDbEntity
  8
BEM
 62
     0
100
AcDbTrace
 10
80.97193652142605
 20
338.0711662463895
 30
0.0
 11
83.30526985475939
 21
338.0711662463895
 31
0.0
 12
82.13860318809272
 22
345.0711662463894
 32
0.0
 13
82.13860318809272
 23
345.0711662463894
 33
0.0
  0
SOLID
  5
1AA3
330
19C6
100
AcDbEntity
  8
BEM
 62
     0
100
AcDbTrace
 10
80.97193652142603
 20
182.0711662463892
 30
0.0
 11
83.30526985475938
 21
182.0711662463892
 31
0.0
 12
82.1386031880927
 22
175.0711662463892
 32
0.0
 13
82.1386031880927
 23
175.0711662463892
 33
0.0
  0
MTEXT
  5
1AA4
330
19C6
100
AcDbEntity
  8
BEM
 62
     1
100
AcDbMText
 10
75.63860318809267
 20
260.0711662463893
 30
0.0
 40
7.0
 41
0.0
 71
     5
 72
     1
  1
\A1;170
 11
0.0000000000000001
 21
1.0
 31
0.0
 73
     1
 44
1.0
  0
POINT
  5
1AA5
330
19C6
100
AcDbEntity
  8
DEFPOINTS
 62
     0
100
AcDbPoint
 10
164.7571481826691
 20
345.0711662463894
 30
0.0
  0
POINT
  5
1AA6
330
19C6
100
AcDbEntity
  8
DEFPOINTS
 62
     0
100
AcDbPoint
 10
99.13203481792841
 20
175.0711662463892
 30
0.0
  0
POINT
  5
1AA7
330
19C6
100
AcDbEntity
  8
DEFPOINTS
 62
     0
100
AcDbPoint
 10
82.1386031880927
 20
175.0711662463892
 30
0.0
  0
ENDBLK
  5
19D1
330
19C6
100
AcDbEntity
  8
0
100
AcDbBlockEnd
  0
BLOCK
  5
1A05
330
19F9
100
AcDbEntity
  8
0
100
AcDbBlockBegin
  2
*D5
 70
     1
 10
0.0
 20
0.0
 30
0.0
  3
*D5
  1

  0
LINE
  5
1A53
330
19F9
100
AcDbEntity
  8
SCHRAFF
 62
     0
370
    -2
100
AcDbLine
 10
366.4803142030931
 20
355.6430294074642
 30
0.0
 11
387.3819142929501
 21
356.7384358516359
 31
0.0
  0
LINE
  5
1A54
330
19F9
100
AcDbEntity
  8
SCHRAFF
 62
     0
370
    -2
100
AcDbLine
 10
164.7571481826691
 20
542.0744591507193
 30
0.0
 11
164.7571481826695
 21
568.0014505634799
 31
0.0
  0
ARC
  5
1A55
330
19F9
100
AcDbEntity
  8
SCHRAFF
 62
     0
370
    -2
100
AcDbCircle
 10
164.7571481826691
 20
345.0711662463894
 30
0.0
 40
220.9302843170906
100
AcDbArc
 50
4.815447058246934
 51
88.18455294175308
  0
SOLID
  5
1A56
330
19F9
100
AcDbEntity
  8
SCHRAFF
 62
     0
100
AcDbTrace
 10
386.0715610559333
 20
363.696997723218
 30
0.0
 11
383.7436524863712
 21
363.5379815724551
 31
0.0
 12
385.384655223441
 22
356.6337639391501
 32
0.0
 13
385.384655223441
 23
356.6337639391501
 33
0.0
  0
SOLID
  5
1A57
330
19F9
100
AcDbEntity
  8
SCHRAFF
 62
     0
100
AcDbTrace
 10
171.737787273103
 20
564.7240355955773
 30
0.0
 11
171.7747521767236
 21
567.0570761096585
 31
0.0
 12
164.7571481826694
 22
566.0014505634799
 32
0.0
 13
164.7571481826694
 23
566.0014505634799
 33
0.0
  0
MTEXT
  5
1A58
330
19F9
100
AcDbEntity
  8
SCHRAFF
 62
     1
100
AcDbMText
 10
321.3098250436698
 20
510.0432656820446
 30
0.0
 40
7.0
 41
0.0
 71
     5
 72
     1
  1
\A1;87°
 11
0.7253743710122878
 21
-0.6883545756937539
 31
0.0
 73
     1
 44
1.0
  0
POINT
  5
1A59
330
19F9
100
AcDbEntity
  8
DEFPOINTS
 62
     0
100
AcDbPoint
 10
352.1166551810757
 20
462.1463799585348
 30
0.0
  0
POINT
  5
1A5A
330
19F9
100
AcDbEntity
  8
DEFPOINTS
 62
     0
100
AcDbPoint
 10
164.7571481826691
 20
540.0744591507193
 30
0.0
  0
POINT
  5
1A5B
330
19F9
100
AcDbEntity
  8
DEFPOINTS
 62
     0
100
AcDbPoint
 10
364.4830551335839
 20
355.5383574949782
 30
0.0
  0
POINT
  5
1A5C
330
19F9
100
AcDbEntity
  8
DEFPOINTS
 62
     0
100
AcDbPoint
 10
164.7571481826691
 20
345.0711662463894
 30
0.0
  0
POINT
  5
1A5D
330
19F9
100
AcDbEntity
  8
DEFPOINTS
 62
     0
100
AcDbPoint
 10
164.7571481826691
 20
170.0711662463895
 30
0.0
  0
ENDBLK
  5
1A06
330
19F9
100
AcDbEntity
  8
0
100
AcDbBlockEnd
  0
BLOCK
  5
1AB4
330
1AAA
100
AcDbEntity
  8
0
100
AcDbBlockBegin
  2
*D6
 70
     1
 10
0.0
 20
0.0
 30
0.0
  3
*D6
  1

  0
LINE
  5
1AE9
330
1AAA
100
AcDbEntity
  8
BEM
 62
     0
370
    -2
100
AcDbLine
 10
164.861820095155
 20
343.0739071768803
 30
0.0
 11
169.8165330344249
 21
248.5323523342169
 31
0.0
  0
LINE
  5
1AEA
330
1AAA
100
AcDbEntity
  8
BEM
 62
     0
370
    -2
100
AcDbLine
 10
363.3447158170325
 20
281.7225525446261
 30
0.0
 11
364.5492923115669
 21
258.737863801591
 31
0.0
  0
LINE
  5
1AEB
330
1AAA
100
AcDbEntity
  8
BEM
 62
     0
370
    -2
100
AcDbLine
 10
176.702267865221
 20
250.8959630974266
 30
0.0
 11
357.454213655799
 21
260.3687711773996
 31
0.0
  0
SOLID
  5
1AEC
330
1AAA
100
AcDbEntity
  8
BEM
 62
     0
100
AcDbTrace
 10
176.6412092496043
 20
252.0610308879736
 30
0.0
 11
176.7633264808378
 21
249.7308953068797
 31
0.0
 12
169.711861121939
 22
250.529611403726
 32
0.0
 13
169.711861121939
 23
250.529611403726
 33
0.0
  0
SOLID
  5
1AED
330
1AAA
100
AcDbEntity
  8
BEM
 62
     0
100
AcDbTrace
 10
357.3931550401823
 20
261.5338389679466
 30
0.0
 11
357.5152722714158
 21
259.2037033868526
 31
0.0
 12
364.444620399081
 22
260.7351228711002
 32
0.0
 13
364.444620399081
 23
260.7351228711002
 33
0.0
  0
MTEXT
  5
1AEE
330
1AAA
100
AcDbEntity
  8
BEM
 62
     1
100
AcDbMText
 10
266.7380570449309
 20
262.1234591133178
 30
0.0
 40
7.0
 41
0.0
 71
     5
 72
     1
  1
\A1;195
 11
0.9986295347545739
 21
0.0523359562429444
 31
0.0
 73
     1
 44
1.0
  0
POINT
  5
1AEF
330
1AAA
100
AcDbEntity
  8
DEFPOINTS
 62
     0
100
AcDbPoint
 10
164.7571481826691
 20
345.0711662463894
 30
0.0
  0
POINT
  5
1AF0
330
1AAA
100
AcDbEntity
  8
DEFPOINTS
 62
     0
100
AcDbPoint
 10
363.2400439045466
 20
283.7198116141352
 30
0.0
  0
POINT
  5
1AF1
330
1AAA
100
AcDbEntity
  8
DEFPOINTS
 62
     0
100
AcDbPoint
 10
364.444620399081
 20
260.7351228711002
 30
0.0
  0
ENDBLK
  5
1AB5
330
1AAA
100
AcDbEntity
  8
0
100
AcDbBlockEnd
  0
ENDSEC
  0
SECTION
  2
ENTITIES
  0
TEXT
  5
134
330
1E
100
AcDbEntity
  8
TEXT
100
AcDbText
 10
204.4216048581257
 20
63.0896391972351
 30
0.0
 40
4.0
  1
Koeh
 41
0.8
  7
GREEKS
 72
     1
 11
209.6787477152686
 21
63.0896391972351
 31
0.0
100
AcDbText
  0
INSERT
  5
135
330
1E
100
AcDbEntity
  8
STEMPEL
100
AcDbBlockReference
  2
LOGO
 10
150.9955485457794
 20
45.02105276448322
 30
0.0
 41
2.0
 42
2.0
 43
2.0
  0
LINE
  5
136
330
1E
100
AcDbEntity
  8
HILF
100
AcDbLine
 10
420.0
 20
0.0
 30
0.0
 11
0.0
 21
0.0
 31
0.0
  0
LINE
  5
137
330
1E
100
AcDbEntity
  8
HILF
100
AcDbLine
 10
419.9999999999999
 20
594.0000000000002
 30
0.0
 11
0.0
 21
594.0
 31
0.0
  0
LINE
  5
138
330
1E
100
AcDbEntity
  8
STEMPEL
100
AcDbLine
 10
410.0
 20
584.0
 30
0.0
 11
39.99999999999989
 21
584.0
 31
0.0
  0
LINE
  5
139
330
1E
100
AcDbEntity
  8
STEMPEL
100
AcDbLine
 10
410.0
 20
10.0
 30
0.0
 11
39.99999999999989
 21
10.0
 31
0.0
  0
LINE
  5
13A
330
1E
100
AcDbEntity
  8
STEMPEL
100
AcDbLine
 10
49.99999999999989
 20
10.0
 30
0.0
 11
410.0
 21
10.0
 31
0.0
  0
TEXT
  5
13B
330
1E
100
AcDbEntity
  8
TEXT
100
AcDbText
 10
202.4626584226295
 20
73.30961091915225
 30
0.0
 40
4.0
  1
Name
 41
0.8
  7
GREEKS
100
AcDbText
  0
TEXT
  5
13C
330
1E
100
AcDbEntity
  8
TEXT
100
AcDbText
 10
196.5498279101549
 20
102.6506227776589
 30
0.0
 40
5.0
  1
Zul. Abw.
 41
0.8
  7
GREEKS
 72
     4
 11
209.9783993387263
 21
105.1506227776589
 31
0.0
100
AcDbText
  0
LINE
  5
13D
330
1E
100
AcDbEntity
  8
HILF
100
AcDbLine
 10
146.0000000000001
 20
49.99999999999997
 30
0.0
 11
230.0
 21
49.99999999999997
 31
0.0
  0
LINE
  5
13E
330
1E
100
AcDbEntity
  8
HILF
100
AcDbLine
 10
146.0000000000001
 20
59.99999999999997
 30
0.0
 11
230.0
 21
59.99999999999997
 31
0.0
  0
LINE
  5
13F
330
1E
100
AcDbEntity
  8
HILF
100
AcDbLine
 10
146.0000000000001
 20
69.99999999999994
 30
0.0
 11
230.0
 21
69.99999999999994
 31
0.0
  0
LINE
  5
140
330
1E
100
AcDbEntity
  8
STEMPEL
100
AcDbLine
 10
410.0
 20
80.0
 30
0.0
 11
146.0000000000001
 21
79.99999999999994
 31
0.0
  0
LINE
  5
141
330
1E
100
AcDbEntity
  8
STEMPEL
100
AcDbLine
 10
410.0
 20
40.0
 30
0.0
 11
146.0000000000001
 21
39.99999999999997
 31
0.0
  0
LINE
  5
142
330
1E
100
AcDbEntity
  8
STEMPEL
100
AcDbLine
 10
410.0
 20
110.0
 30
0.0
 11
39.99999999999997
 21
110.0
 31
0.0
  0
LINE
  5
144
330
1E
100
AcDbEntity
  8
HILF
100
AcDbLine
 10
0.0
 20
0.0
 30
0.0
 11
-0.0000000000001137
 21
594.0
 31
0.0
  0
LINE
  5
145
330
1E
100
AcDbEntity
  8
STEMPEL
100
AcDbLine
 10
40.0
 20
10.0
 30
0.0
 11
39.99999999999989
 21
584.0
 31
0.0
  0
TEXT
  5
146
330
1E
100
AcDbEntity
  8
TEXT
100
AcDbText
 10
41.85509950977674
 20
111.6719999999999
 30
0.0
 40
5.0
  1
Erstellt mit AUTOCAD 2004
 41
0.8
  7
GREEKS
100
AcDbText
  0
TEXT
  5
147
330
1E
100
AcDbEntity
  8
TEXT
100
AcDbText
 10
67.65811831396264
 20
18.34829198486668
 30
0.0
 40
4.0
  1
Änderung
 41
0.8
  7
GREEKS
 72
     1
 11
78.40097545681979
 21
18.34829198486668
 31
0.0
100
AcDbText
  0
LINE
  5
148
330
1E
100
AcDbEntity
  8
HILF
100
AcDbLine
 10
40.00000000000008
 20
39.99999999999997
 30
0.0
 11
146.0000000000001
 21
39.99999999999997
 31
0.0
  0
LINE
  5
149
330
1E
100
AcDbEntity
  8
HILF
100
AcDbLine
 10
40.00000000000008
 20
49.99999999999997
 30
0.0
 11
146.0000000000001
 21
49.99999999999997
 31
0.0
  0
LINE
  5
14A
330
1E
100
AcDbEntity
  8
HILF
100
AcDbLine
 10
40.00000000000008
 20
59.99999999999997
 30
0.0
 11
146.0000000000001
 21
59.99999999999997
 31
0.0
  0
LINE
  5
14B
330
1E
100
AcDbEntity
  8
HILF
100
AcDbLine
 10
40.00000000000008
 20
69.99999999999994
 30
0.0
 11
146.0000000000001
 21
69.99999999999994
 31
0.0
  0
LINE
  5
14C
330
1E
100
AcDbEntity
  8
HILF
100
AcDbLine
 10
40.00000000000008
 20
79.99999999999994
 30
0.0
 11
146.0000000000001
 21
79.99999999999994
 31
0.0
  0
LINE
  5
14D
330
1E
100
AcDbEntity
  8
HILF
100
AcDbLine
 10
40.00000000000008
 20
90.00000000000005
 30
0.0
 11
146.0000000000001
 21
90.00000000000005
 31
0.0
  0
LINE
  5
14E
330
1E
100
AcDbEntity
  8
HILF
100
AcDbLine
 10
40.00000000000008
 20
100.0
 30
0.0
 11
146.0000000000001
 21
100.0
 31
0.0
  0
LINE
  5
14F
330
1E
100
AcDbEntity
  8
STEMPEL
100
AcDbLine
 10
145.9999999999999
 20
29.99999999999997
 30
0.0
 11
39.99999999999997
 21
29.99999999999997
 31
0.0
  0
TEXT
  5
150
330
1E
100
AcDbEntity
  8
TEXT
100
AcDbText
 10
48.26641107045756
 20
13.65465846027192
 30
0.0
 40
4.0
  1
Index
 50
90.0
 41
0.8
  7
GREEKS
100
AcDbText
  0
LINE
  5
151
330
1E
100
AcDbEntity
  8
VOLL
100
AcDbLine
 10
54.00000000000009
 20
110.0
 30
0.0
 11
53.99999999999997
 21
9.999999999999971
 31
0.0
  0
LINE
  5
152
330
1E
100
AcDbEntity
  8
HILF
100
AcDbLine
 10
31.08767135713856
 20
297.0
 30
0.0
 11
0.0000000000001137
 21
297.0
 31
0.0
  0
TEXT
  5
153
330
1E
100
AcDbEntity
  8
TEXT
100
AcDbText
 10
110.462610504336
 20
18.6715626933981
 30
0.0
 40
4.0
  1
Tag
 41
0.8
  7
GREEKS
 72
     1
 11
114.1959438376693
 21
18.6715626933981
 31
0.0
100
AcDbText
  0
LINE
  5
154
330
1E
100
AcDbEntity
  8
VOLL
100
AcDbLine
 10
124.0000000000001
 20
109.9999999999999
 30
0.0
 11
124.0
 21
9.999999999999971
 31
0.0
  0
LINE
  5
155
330
1E
100
AcDbEntity
  8
VOLL
100
AcDbLine
 10
104.0000000000001
 20
109.9999999999999
 30
0.0
 11
104.0
 21
9.999999999999971
 31
0.0
  0
TEXT
  5
156
330
1E
100
AcDbEntity
  8
TEXT
100
AcDbText
 10
128.9002860979178
 20
18.59324216966408
 30
0.0
 40
4.0
  1
Name
 41
0.8
  7
GREEKS
 72
     1
 11
135.2240956217273
 21
18.59324216966408
 31
0.0
100
AcDbText
  0
LINE
  5
157
330
1E
100
AcDbEntity
  8
STEMPEL
100
AcDbLine
 10
146.0000000000001
 20
109.9999999999999
 30
0.0
 11
146.0
 21
9.999999999999971
 31
0.0
  0
TEXT
  5
158
330
1E
100
AcDbEntity
  8
TEXT
100
AcDbText
 10
170.7037590129979
 20
63.10765040825732
 30
0.0
 40
4.0
  1
14.04.
 41
0.8
  7
GREEKS
 72
     1
 11
177.4085209177598
 21
63.10765040825732
 31
0.0
100
AcDbText
  0
TEXT
  5
159
330
1E
100
AcDbEntity
  8
TEXT
100
AcDbText
 10
172.331167315365
 20
73.31880501229926
 30
0.0
 40
4.0
  1
Tag
 41
0.8
  7
GREEKS
100
AcDbText
  0
TEXT
  5
15A
330
1E
100
AcDbEntity
  8
TEXT
100
AcDbText
 10
147.5836127167615
 20
63.62990369617964
 30
0.0
 40
4.0
  1
Gez.
 41
0.8
  7
GREEKS
100
AcDbText
  0
LINE
  5
15B
330
1E
100
AcDbEntity
  8
VOLL
100
AcDbLine
 10
164.0000000000001
 20
79.99999999999994
 30
0.0
 11
164.0000000000001
 21
39.99999999999997
 31
0.0
  0
TEXT
  5
15C
330
1E
100
AcDbEntity
  8
TEXT
100
AcDbText
 10
147.6006777387303
 20
43.52946389649807
 30
0.0
 40
4.0
  1
Norm.
 41
0.8
  7
GREEKS
100
AcDbText
  0
TEXT
  5
15D
330
1E
100
AcDbEntity
  8
TEXT
100
AcDbText
 10
147.5515086571672
 20
53.68926291428377
 30
0.0
 40
4.0
  1
Gepr.
 41
0.8
  7
GREEKS
100
AcDbText
  0
TEXT
  5
15E
330
1E
100
AcDbEntity
  8
TEXT
 62
     1
100
AcDbText
 10
160.5006306481887
 20
88.14901428913959
 30
0.0
 40
7.0
  1
1:2
 41
0.8
  7
GREEKS
100
AcDbText
  0
TEXT
  5
15F
330
1E
100
AcDbEntity
  8
TEXT
100
AcDbText
 10
153.5163572150377
 20
102.4620895087088
 30
0.0
 40
5.0
  1
Maßstab
 41
0.8
  7
GREEKS
100
AcDbText
  0
TEXT
  5
160
330
1E
100
AcDbEntity
  8
TEXT
100
AcDbText
 10
148.622109822104
 20
73.14025471151666
 30
0.0
 40
4.0
  1
2011
 41
0.8
  7
GREEKS
100
AcDbText
  0
LINE
  5
161
330
1E
100
AcDbEntity
  8
VOLL
100
AcDbLine
 10
190.0000000000001
 20
109.9999999999998
 30
0.0
 11
190.0
 21
39.99999999999997
 31
0.0
  0
LINE
  5
186
330
1E
100
AcDbEntity
  8
HILF
100
AcDbLine
 10
420.0
 20
-0.0000000000001137
 30
0.0
 11
419.9999999999999
 21
594.0
 31
0.0
  0
LINE
  5
187
330
1E
100
AcDbEntity
  8
STEMPEL
100
AcDbLine
 10
410.0
 20
10.0
 30
0.0
 11
410.0
 21
584.0
 31
0.0
  0
TEXT
  5
188
330
1E
100
AcDbEntity
  8
TEXT
100
AcDbText
 10
337.2400861497006
 20
52.07416177878602
 30
0.0
 40
5.0
  1
ersetzt durch:
 41
0.8
  7
GREEKS
100
AcDbText
  0
TEXT
  5
189
330
1E
100
AcDbEntity
  8
TEXT
100
AcDbText
 10
336.7238616296993
 20
73.1811823709997
 30
0.0
 40
5.0
  1
Ersatz für:
 41
0.8
  7
GREEKS
100
AcDbText
  0
TEXT
  5
18A
330
1E
100
AcDbEntity
  8
TEXT
100
AcDbText
 10
336.178754957634
 20
102.3132034537136
 30
0.0
 40
5.0
  1
Zeichnungs Nr.
 41
0.8
  7
GREEKS
100
AcDbText
  0
LINE
  5
18B
330
1E
100
AcDbEntity
  8
HILF
100
AcDbLine
 10
233.4909699289885
 20
14.89398258028314
 30
0.0
 11
404.8588839326728
 21
14.89398258028314
 31
0.0
  0
LINE
  5
18C
330
1E
100
AcDbEntity
  8
HILF
100
AcDbLine
 10
336.7238616296993
 20
83.77983636955827
 30
0.0
 11
404.8588839326728
 21
83.77983636955827
 31
0.0
  0
LINE
  5
18D
330
1E
100
AcDbEntity
  8
VOLL
100
AcDbLine
 10
332.0
 20
60.0
 30
0.0
 11
410.0
 21
60.0
 31
0.0
  0
TEXT
  5
18E
330
1E
100
AcDbEntity
  8
TEXT
 62
     1
100
AcDbText
 10
234.9283864320014
 20
87.41748789253779
 30
0.0
 40
7.0
  1
Abzweig DN125/125
 41
0.8
  7
GREEKS
100
AcDbText
  0
LINE
  5
18F
330
1E
100
AcDbEntity
  8
HILF
100
AcDbLine
 10
234.7736801096947
 20
49.99999999999997
 30
0.0
 11
324.835391655631
 21
49.99999999999997
 31
0.0
  0
LINE
  5
190
330
1E
100
AcDbEntity
  8
HILF
100
AcDbLine
 10
234.7736801096947
 20
59.99999999999997
 30
0.0
 11
324.835391655631
 21
59.99999999999997
 31
0.0
  0
LINE
  5
191
330
1E
100
AcDbEntity
  8
HILF
100
AcDbLine
 10
234.7736801096947
 20
69.99999999999994
 30
0.0
 11
324.835391655631
 21
69.99999999999994
 31
0.0
  0
LINE
  5
192
330
1E
100
AcDbEntity
  8
HILF
100
AcDbLine
 10
234.7736801096947
 20
84.03758247564139
 30
0.0
 11
324.8353916556311
 21
84.03758247564139
 31
0.0
  0
LINE
  5
193
330
1E
100
AcDbEntity
  8
STEMPEL
100
AcDbLine
 10
230.0
 20
110.0
 30
0.0
 11
230.0
 21
9.999999999999971
 31
0.0
  0
TEXT
  5
194
330
1E
100
AcDbEntity
  8
TEXT
100
AcDbText
 10
235.1296391125315
 20
71.50334417585288
 30
0.0
 40
5.0
  1
dünnwandig 87° 
 41
0.8
  7
GREEKS
100
AcDbText
  0
TEXT
  5
195
330
1E
100
AcDbEntity
  8
TEXT
100
AcDbText
 10
234.9837501577827
 20
42.62974153022632
 30
0.0
 40
4.0
  1
4200EE0W.DWG
 41
0.8
  7
GREEKS
100
AcDbText
  0
TEXT
  5
196
330
1E
100
AcDbEntity
  8
TEXT
100
AcDbText
 10
234.742238391136
 20
30.84560570193057
 30
0.0
 40
5.0
  1
Bauvorhaben
 41
0.8
  7
GREEKS
100
AcDbText
  0
TEXT
  5
197
330
1E
100
AcDbEntity
  8
TEXT
100
AcDbText
 10
234.877940380901
 20
102.5489328011779
 30
0.0
 40
5.0
  1
Benennung
 41
0.8
  7
GREEKS
100
AcDbText
  0
LINE
  5
198
330
1E
100
AcDbEntity
  8
STEMPEL
100
AcDbLine
 10
332.0
 20
109.9999999999997
 30
0.0
 11
332.0
 21
40.0
 31
0.0
  0
TEXT
  5
19A
330
1E
100
AcDbEntity
  8
TEXT
 62
     1
100
AcDbText
 10
349.8340358619958
 20
88.14901428913959
 30
0.0
 40
7.0
  1
4200EE0W
 41
0.8
  7
GREEKS
 72
     1
 11
370.9007025286624
 21
88.14901428913959
 31
0.0
100
AcDbText
  0
TEXT
  5
212
330
1E
100
AcDbEntity
  8
TEXT
100
AcDbText
 10
235.1296391125315
 20
51.50334417585291
 30
0.0
 40
5.0
  1
EDV-Art.Nr. 4.200.EE0C
 41
0.8
  7
GREEKS
100
AcDbText
  0
TEXT
  5
255
330
1E
100
AcDbEntity
  8
TEXT
 62
     1
100
AcDbText
 10
297.0573649355706
 20
132.2248663682012
 30
0.0
 40
7.0
  1
Werkstoff: 1.4301
 41
0.8
  7
GREEKS
100
AcDbText
  0
LINE
  5
1811
330
1E
100
AcDbEntity
  8
STEMPEL
100
AcDbLine
 10
236.4122150611131
 20
535.0744591507193
 30
0.0
 11
93.10208130422541
 21
535.0744591507193
 31
0.0
  0
LINE
  5
1821
330
1E
100
AcDbEntity
  8
MITTEL
100
AcDbLine
 10
164.7571481826691
 20
540.0744591507193
 30
0.0
 11
164.7571481826691
 21
170.0711662463895
 31
0.0
  0
LINE
  5
1855
330
1E
100
AcDbEntity
  8
STEMPEL
100
AcDbLine
 10
230.38226154741
 20
175.0711662463895
 30
0.0
 11
99.13203481792841
 21
175.0711662463892
 31
0.0
  0
LINE
  5
1856
330
1E
100
AcDbEntity
  8
HILF
100
AcDbLine
 10
229.7571481826692
 20
185.0711662463895
 30
0.0
 11
99.75714818266908
 21
185.0711662463895
 31
0.0
  0
LINE
  5
1857
330
1E
100
AcDbEntity
  8
STEMPEL
100
AcDbLine
 10
98.2571481826692
 20
185.0711662463892
 30
0.0
 11
99.13203481792834
 21
175.0711662463892
 31
0.0
  0
LINE
  5
1858
330
1E
100
AcDbEntity
  8
STEMPEL
100
AcDbLine
 10
231.2571481826692
 20
185.07116624639
 30
0.0
 11
230.38226154741
 21
175.0711662463895
 31
0.0
  0
DIMENSION
  5
1859
330
1E
100
AcDbEntity
  8
BEM
100
AcDbDimension
  2
*D1
 10
66.07765600885206
 20
535.0744591507193
 30
0.0
 11
59.57765600885196
 21
355.0728126985543
 31
0.0
 70
    32
 71
     5
 42
360.0032929043301
  3
Standard
100
AcDbAlignedDimension
 13
99.13203481792841
 23
175.0711662463892
 33
0.0
 14
93.10208130422541
 24
535.0744591507193
 34
0.0
 50
90.0
100
AcDbRotatedDimension
1001
ACAD
1000
DSTYLE
1002
{
1070
    40
1040
2.0
1070
    41
1040
3.5
1070
    42
1040
1.0
1070
    43
1040
7.0
1070
    44
1040
1.0
1070
    73
1070
     0
1070
    74
1070
     0
1070
    77
1070
     1
1070
    78
1070
     8
1070
    79
1070
     2
1070
   140
1040
3.5
1070
   141
1040
1.5
1070
   146
1040
0.5142857142857144
1070
   147
1040
1.5
1070
   172
1070
     1
1070
   178
1070
     1
1070
   179
1070
     2
1070
   271
1070
     2
1070
   272
1070
     2
1070
   284
1070
     8
1070
   285
1070
     8
1070
   286
1070
     8
1002
}
  0
DIMENSION
  5
185A
330
1E
100
AcDbEntity
  8
BEM
100
AcDbDimension
  2
*D2
 10
231.2571481826696
 20
148.9472232637207
 30
0.0
 11
164.7571481826694
 21
155.4472232637207
 31
0.0
 70
    32
  1
%%c<>
 71
     5
 42
133.0000000000004
  3
Standard
100
AcDbAlignedDimension
 13
98.2571481826692
 23
185.0711662463892
 33
0.0
 14
231.2571481826696
 24
185.0711662463895
 34
0.0
100
AcDbRotatedDimension
1001
ACAD
1000
DSTYLE
1002
{
1070
    40
1040
2.0
1070
    41
1040
3.5
1070
    42
1040
1.0
1070
    43
1040
7.0
1070
    44
1040
1.0
1070
    73
1070
     0
1070
    74
1070
     0
1070
    77
1070
     1
1070
    78
1070
     8
1070
    79
1070
     2
1070
   140
1040
3.5
1070
   141
1040
1.5
1070
   146
1040
0.5142857142857144
1070
   147
1040
1.5
1070
   172
1070
     1
1070
   178
1070
     1
1070
   179
1070
     2
1070
   271
1070
     2
1070
   272
1070
     2
1070
   284
1070
     8
1070
   285
1070
     8
1070
   286
1070
     8
1002
}
  0
TEXT
  5
1861
330
1E
100
AcDbEntity
  8
TEXT
 62
     1
100
AcDbText
 10
131.9559589102653
 20
509.6183630086193
 30
0.0
 40
7.0
  1
DN125
 41
0.8
  7
GREEKS
100
AcDbText
  0
LINE
  5
1862
330
1E
100
AcDbEntity
  8
STEMPEL
100
AcDbLine
 10
236.4122150611129
 20
535.0744591507193
 30
0.0
 11
237.040074006732
 21
533.7280112967354
 31
0.0
  0
ARC
  5
1863
330
1E
100
AcDbEntity
  8
STEMPEL
100
AcDbCircle
 10
210.7571481826691
 20
521.472081706255
 30
0.0
 40
29.0
100
AcDbArc
 50
0.0
 51
24.99999999999253
  0
LINE
  5
1864
330
1E
100
AcDbEntity
  8
STEMPEL
100
AcDbLine
 10
239.7571481826691
 20
521.472081706255
 30
0.0
 11
239.7571481826691
 21
502.3654591507193
 31
0.0
  0
ARC
  5
1865
330
1E
100
AcDbEntity
  8
STEMPEL
100
AcDbCircle
 10
210.7571481826691
 20
502.3654591507193
 30
0.0
 40
29.0
100
AcDbArc
 50
334.8288522569417
 51
0.0
  0
ARC
  5
1866
330
1E
100
AcDbEntity
  8
STEMPEL
100
AcDbCircle
 10
254.2571481826692
 20
482.0744591507193
 30
0.0
 40
19.0
100
AcDbArc
 50
154.772855634092
 51
180.0
  0
LINE
  5
1867
330
1E
100
AcDbEntity
  8
STEMPEL
100
AcDbLine
 10
235.2571481826692
 20
482.0744591507193
 30
0.0
 11
235.2571481826692
 21
468.5376864286499
 31
0.0
  0
ARC
  5
1868
330
1E
100
AcDbEntity
  8
STEMPEL
100
AcDbCircle
 10
218.2571481826693
 20
468.5376864286499
 30
0.0
 40
17.0
100
AcDbArc
 50
328.4136619034717
 51
0.0
  0
ARC
  5
1869
330
1E
100
AcDbEntity
  8
STEMPEL
100
AcDbCircle
 10
241.2571481826692
 20
454.395550804919
 30
0.0
 40
10.0
100
AcDbArc
 50
148.4136619034719
 51
180.0
  0
ARC
  5
186A
330
1E
100
AcDbEntity
  8
STEMPEL
100
AcDbCircle
 10
118.7571481826691
 20
502.3654591507193
 30
0.0
 40
29.0
100
AcDbArc
 50
180.0
 51
205.1711477430582
  0
ARC
  5
186B
330
1E
100
AcDbEntity
  8
STEMPEL
100
AcDbCircle
 10
75.25714818266914
 20
482.0744591507193
 30
0.0
 40
19.0
100
AcDbArc
 50
0.0
 51
25.22714436590798
  0
LINE
  5
186C
330
1E
100
AcDbEntity
  8
STEMPEL
100
AcDbLine
 10
94.25714818266914
 20
482.0744591507193
 30
0.0
 11
94.25714818266914
 21
468.5376864286499
 31
0.0
  0
ARC
  5
186D
330
1E
100
AcDbEntity
  8
STEMPEL
100
AcDbCircle
 10
111.2571481826691
 20
468.5376864286499
 30
0.0
 40
17.0
100
AcDbArc
 50
180.0
 51
211.5863380965282
  0
ARC
  5
186E
330
1E
100
AcDbEntity
  8
STEMPEL
100
AcDbCircle
 10
88.25714818266915
 20
454.395550804919
 30
0.0
 40
10.0
100
AcDbArc
 50
0.0
 51
31.58633809652809
  0
LINE
  5
186F
330
1E
100
AcDbEntity
  8
STEMPEL
100
AcDbLine
 10
93.10208130422546
 20
535.0744591507193
 30
0.0
 11
92.47422235860648
 21
533.7280112967354
 31
0.0
  0
POINT
  5
1870
330
1E
100
AcDbEntity
  8
STEMPEL
100
AcDbPoint
 10
94.75714818266913
 20
535.0744591507193
 30
0.0
  0
ARC
  5
1871
330
1E
100
AcDbEntity
  8
STEMPEL
100
AcDbCircle
 10
118.7571481826691
 20
521.472081706255
 30
0.0
 40
29.0
100
AcDbArc
 50
155.0000000000074
 51
180.0
  0
LINE
  5
1872
330
1E
100
AcDbEntity
  8
STEMPEL
100
AcDbLine
 10
89.75714818266936
 20
521.472081706255
 30
0.0
 11
89.75714818266936
 21
502.3654591507193
 31
0.0
  0
LINE
  5
1873
330
1E
100
AcDbEntity
  8
HILF
100
AcDbLine
 10
233.1720301367346
 20
464.3191207605234
 30
0.0
 11
96.34226622860381
 21
464.3191207605234
 31
0.0
  0
LINE
  5
1874
330
1E
100
AcDbEntity
  8
HILF
100
AcDbLine
 10
230.1912680232013
 20
457.525454365142
 30
0.0
 11
99.32302834213698
 21
457.5254543651419
 31
0.0
  0
LINE
  5
1875
330
1E
100
AcDbEntity
  8
HILF
100
AcDbLine
 10
234.2519144332921
 20
486.5511345502527
 30
0.0
 11
95.26238193204614
 21
486.5511345502527
 31
0.0
  0
LINE
  5
1876
330
1E
100
AcDbEntity
  8
STEMPEL
100
AcDbLine
 10
98.25714818266915
 20
454.395550804919
 30
0.0
 11
98.25714818266915
 21
185.0711662463893
 31
0.0
  0
LINE
  5
1877
102
{ACAD_REACTORS
330
1A52
102
}
330
1E
100
AcDbEntity
  8
STEMPEL
100
AcDbLine
 10
231.2571481826691
 20
454.395550804919
 30
0.0
 11
231.2571481826691
 21
415.1475445775733
 31
0.0
  0
LINE
  5
19AB
330
1E
100
AcDbEntity
  8
HILF
100
AcDbLine
 10
314.6701574349081
 20
283.3376370319738
 30
0.0
 11
307.3960073436956
 21
422.1366892094486
 31
0.0
  0
LINE
  5
19AC
330
1E
100
AcDbEntity
  8
HILF
100
AcDbLine
 10
285.4717381228793
 20
285.873631739196
 30
0.0
 11
278.62262365734
 21
416.5625210460472
 31
0.0
  0
LINE
  5
19AD
330
1E
100
AcDbEntity
  8
HILF
100
AcDbLine
 10
292.4120950701213
 20
283.252507683742
 30
0.0
 11
285.250978533493
 21
419.8947511558968
 31
0.0
  0
LINE
  5
19AE
330
1E
100
AcDbEntity
  8
STEMPEL
100
AcDbLine
 10
363.2400439045465
 20
283.7198116141351
 30
0.0
 11
355.7397710150756
 21
426.8335438133916
 31
0.0
  0
LINE
  5
19AF
330
1E
100
AcDbEntity
  8
STEMPEL
100
AcDbLine
 10
302.8728572026911
 20
422.9062542330849
 30
0.0
 11
289.3546361571726
 21
422.1977942882319
 31
0.0
  0
ARC
  5
19B0
330
1E
100
AcDbEntity
  8
STEMPEL
100
AcDbCircle
 10
274.9178661013522
 20
427.4494293055739
 30
0.0
 40
10.0
100
AcDbArc
 50
273.0
 51
304.586338096528
  0
ARC
  5
19B1
330
1E
100
AcDbEntity
  8
STEMPEL
100
AcDbCircle
 10
290.2443474133024
 20
405.2210921974041
 30
0.0
 40
17.0
100
AcDbArc
 50
93.0
 51
124.5863380965281
  0
ARC
  5
19B2
330
1E
100
AcDbEntity
  8
STEMPEL
100
AcDbCircle
 10
343.4987176137139
 20
400.5017428817403
 30
0.0
 40
29.0
100
AcDbArc
 50
68.00000000000746
 51
93.0
  0
ARC
  5
19B3
330
1E
100
AcDbEntity
  8
STEMPEL
100
AcDbCircle
 10
324.418280020348
 20
399.5017795197234
 30
0.0
 40
29.0
100
AcDbArc
 50
93.0
 51
118.1711477430582
  0
LINE
  5
19B4
330
1E
100
AcDbEntity
  8
STEMPEL
100
AcDbLine
 10
341.9809748826687
 20
429.4619993896227
 30
0.0
 11
322.9005372893028
 21
428.4620360276059
 31
0.0
  0
ARC
  5
19B5
330
1E
100
AcDbEntity
  8
STEMPEL
100
AcDbCircle
 10
301.878474034075
 20
441.8802153934217
 30
0.0
 40
19.0
100
AcDbArc
 50
273.0
 51
298.227144365908
  0
POINT
  5
19B6
330
1E
100
AcDbEntity
  8
STEMPEL
100
AcDbPoint
 10
355.8263905228049
 20
425.1807451465835
 30
0.0
  0
LINE
  5
19B7
330
1E
100
AcDbEntity
  8
STEMPEL
100
AcDbLine
 10
355.7397710150756
 20
426.8335438133915
 30
0.0
 11
354.3623088227757
 21
427.3900746641769
 31
0.0
  0
TEXT
  5
19B8
330
1E
100
AcDbEntity
  8
TEXT
 62
     1
100
AcDbText
 10
321.1965245801633
 20
363.7827860299766
 30
0.0
 40
7.0
  1
DN125
 50
2.999999999999989
 41
0.8
  7
GREEKS
100
AcDbText
  0
LINE
  5
19B9
330
1E
100
AcDbEntity
  8
STEMPEL
100
AcDbLine
 10
310.2522270329462
 20
282.09948983269
 30
0.0
 11
296.7340059874276
 21
281.3910298878371
 31
0.0
  0
ARC
  5
19BA
330
1E
100
AcDbEntity
  8
STEMPEL
100
AcDbCircle
 10
282.9252674065226
 20
274.6591104881242
 30
0.0
 40
10.0
100
AcDbArc
 50
61.41366190347193
 51
93.0
  0
ARC
  5
19BB
330
1E
100
AcDbEntity
  8
STEMPEL
100
AcDbCircle
 10
295.8442947312974
 20
298.3677319786647
 30
0.0
 40
17.0
100
AcDbArc
 50
241.4136619034718
 51
273.0
  0
ARC
  5
19BC
330
1E
100
AcDbEntity
  8
STEMPEL
100
AcDbCircle
 10
348.3136255880648
 20
308.6278256843195
 30
0.0
 40
29.0
100
AcDbArc
 50
273.0
 51
297.9999999999925
  0
ARC
  5
19BD
330
1E
100
AcDbEntity
  8
STEMPEL
100
AcDbCircle
 10
329.2331879946988
 20
307.6278623223026
 30
0.0
 40
29.0
100
AcDbArc
 50
247.8288522569417
 51
273.0
  0
ARC
  5
19BE
330
1E
100
AcDbEntity
  8
STEMPEL
100
AcDbCircle
 10
311.2466102015619
 20
263.125528672353
 30
0.0
 40
19.0
100
AcDbArc
 50
67.77285563409204
 51
93.0
  0
LINE
  5
19BF
330
1E
100
AcDbEntity
  8
STEMPEL
100
AcDbLine
 10
349.8313683191103
 20
279.6675691764369
 30
0.0
 11
330.7509307257444
 21
278.66760581442
 31
0.0
  0
LINE
  5
19C0
330
1E
100
AcDbEntity
  8
STEMPEL
100
AcDbLine
 10
363.2400439045465
 20
283.7198116141353
 30
0.0
 11
361.9283009088559
 21
283.0223454914106
 31
0.0
  0
LINE
  5
19C1
102
{ACAD_REACTORS
330
1A52
102
}
330
1E
100
AcDbEntity
  8
STEMPEL
100
AcDbLine
 10
275.4412256637818
 20
417.4631339580283
 30
0.0
 11
231.2571481826691
 21
415.1475445775733
 31
0.0
  0
LINE
  5
19C2
330
1E
100
AcDbEntity
  8
MITTEL
100
AcDbLine
 10
364.4830551335839
 20
355.5383574949782
 30
0.0
 11
164.7571481826691
 21
345.0711662463894
 31
0.0
  0
LINE
  5
19C3
102
{ACAD_REACTORS
330
1A95
102
}
330
1E
100
AcDbEntity
  8
STEMPEL
100
AcDbLine
 10
282.4019078440933
 20
284.64540583567
 30
0.0
 11
231.2571481826692
 21
281.9650225598498
 31
0.0
  0
DIMENSION
  5
19C5
330
1E
100
AcDbEntity
  8
BEM
100
AcDbDimension
  2
*D4
 10
82.1386031880927
 20
175.0711662463892
 30
0.0
 11
75.63860318809267
 21
260.0711662463893
 31
0.0
 70
    32
 71
     5
 42
170.0000000000002
  3
Standard
100
AcDbAlignedDimension
 13
164.7571481826691
 23
345.0711662463894
 33
0.0
 14
99.13203481792841
 24
175.0711662463892
 34
0.0
 50
90.0
100
AcDbRotatedDimension
1001
ACAD
1000
DSTYLE
1002
{
1070
    40
1040
2.0
1070
    41
1040
3.5
1070
    42
1040
1.0
1070
    43
1040
7.0
1070
    44
1040
1.0
1070
    73
1070
     0
1070
    74
1070
     0
1070
    77
1070
     1
1070
    78
1070
     8
1070
    79
1070
     2
1070
   140
1040
3.5
1070
   141
1040
1.5
1070
   146
1040
0.5142857142857144
1070
   147
1040
1.5
1070
   172
1070
     1
1070
   178
1070
     1
1070
   179
1070
     2
1070
   271
1070
     2
1070
   272
1070
     2
1070
   284
1070
     8
1070
   285
1070
     8
1070
   286
1070
     8
1002
}
  0
LINE
  5
19D2
102
{ACAD_REACTORS
330
1A95
102
}
330
1E
100
AcDbEntity
  8
STEMPEL
100
AcDbLine
 10
231.2571481826692
 20
281.9650225598498
 30
0.0
 11
231.2571481826692
 21
185.0711662463897
 31
0.0
  0
DIMENSION
  5
19F8
330
1E
100
AcDbEntity
  8
SCHRAFF
100
AcDbDimension
  2
*D5
 10
164.7571481826691
 20
170.0711662463895
 30
0.0
 11
321.3098250436698
 21
510.0432656820445
 31
0.0
 70
    34
 71
     5
 42
1.518436449235063
  3
Standard
100
AcDb2LineAngularDimension
 13
364.4830551335839
 23
355.5383574949782
 33
0.0
 14
164.7571481826691
 24
345.0711662463894
 34
0.0
 15
164.7571481826691
 25
540.0744591507193
 35
0.0
 16
352.1166551810757
 26
462.1463799585348
 36
0.0
1001
ACAD
1000
DSTYLE
1002
{
1070
    40
1040
2.0
1070
    41
1040
3.5
1070
    42
1040
1.0
1070
    43
1040
7.0
1070
    44
1040
1.0
1070
    73
1070
     0
1070
    74
1070
     0
1070
    77
1070
     1
1070
    78
1070
     8
1070
    79
1070
     2
1070
   140
1040
3.5
1070
   141
1040
1.5
1070
   146
1040
0.5142857142857144
1070
   147
1040
1.5
1070
   172
1070
     1
1070
   178
1070
     1
1070
   179
1070
     2
1070
   271
1070
     2
1070
   272
1070
     2
1070
   284
1070
     8
1070
   285
1070
     8
1070
   286
1070
     8
1002
}
  0
LINE
  5
1A07
330
1E
100
AcDbEntity
  8
STEMPEL
100
AcDbLine
 10
231.2571481826691
 20
415.1475445775733
 30
0.0
 11
164.7571481826691
 21
345.0711662463894
 31
0.0
  0
LINE
  5
1A08
330
1E
100
AcDbEntity
  8
STEMPEL
100
AcDbLine
 10
164.7571481826691
 20
345.0711662463894
 30
0.0
 11
231.2571481826692
 21
281.9650225598498
 31
0.0
  0
ARC
  5
1A3C
330
1E
100
AcDbEntity
  8
SCHRAFF
100
AcDbCircle
 10
200.9752818617997
 20
383.2371156922262
 30
0.0
 40
5.615519614478622
100
AcDbArc
 50
194.2080400911383
 51
258.791959908862
  0
ARC
  5
1A3D
330
1E
100
AcDbEntity
  8
SCHRAFF
100
AcDbCircle
 10
197.5335089833309
 20
379.6102438371648
 30
0.0
 40
5.615519614478622
100
AcDbArc
 50
194.2080400911383
 51
258.791959908862
  0
ARC
  5
1A3E
330
1E
100
AcDbEntity
  8
SCHRAFF
100
AcDbCircle
 10
194.0917361048621
 20
375.9833719821034
 30
0.0
 40
5.615519614478622
100
AcDbArc
 50
194.2080400911383
 51
258.791959908862
  0
ARC
  5
1A3F
330
1E
100
AcDbEntity
  8
SCHRAFF
100
AcDbCircle
 10
190.6499632263934
 20
372.356500127042
 30
0.0
 40
5.615519614478622
100
AcDbArc
 50
194.2080400911383
 51
258.791959908862
  0
ARC
  5
1A40
330
1E
100
AcDbEntity
  8
SCHRAFF
100
AcDbCircle
 10
187.2081903479246
 20
368.7296282719805
 30
0.0
 40
5.615519614478622
100
AcDbArc
 50
194.2080400911383
 51
258.791959908862
  0
ARC
  5
1A41
330
1E
100
AcDbEntity
  8
SCHRAFF
100
AcDbCircle
 10
183.7664174694559
 20
365.1027564169191
 30
0.0
 40
5.615519614478622
100
AcDbArc
 50
194.2080400911383
 51
258.791959908862
  0
ARC
  5
1A42
330
1E
100
AcDbEntity
  8
SCHRAFF
100
AcDbCircle
 10
180.3246445909872
 20
361.4758845618577
 30
0.0
 40
5.615519614478622
100
AcDbArc
 50
194.2080400911383
 51
258.791959908862
  0
ARC
  5
1A43
330
1E
100
AcDbEntity
  8
SCHRAFF
100
AcDbCircle
 10
176.8828717125184
 20
357.8490127067963
 30
0.0
 40
5.615519614478622
100
AcDbArc
 50
194.2080400911383
 51
258.791959908862
  0
ARC
  5
1A44
330
1E
100
AcDbEntity
  8
SCHRAFF
100
AcDbCircle
 10
173.4410988340497
 20
354.2221408517349
 30
0.0
 40
5.615519614478622
100
AcDbArc
 50
194.2080400911383
 51
258.791959908862
  0
ARC
  5
1A45
330
1E
100
AcDbEntity
  8
SCHRAFF
100
AcDbCircle
 10
207.8588276187371
 20
390.490859402349
 30
0.0
 40
5.615519614478622
100
AcDbArc
 50
194.2080400911383
 51
258.791959908862
  0
ARC
  5
1A46
330
1E
100
AcDbEntity
  8
SCHRAFF
100
AcDbCircle
 10
204.4170547402684
 20
386.8639875472877
 30
0.0
 40
5.615519614478622
100
AcDbArc
 50
194.2080400911383
 51
258.791959908862
  0
ARC
  5
1A47
330
1E
100
AcDbEntity
  8
SCHRAFF
100
AcDbCircle
 10
225.0676920110809
 20
408.6252186776561
 30
0.0
 40
5.615519614478622
100
AcDbArc
 50
194.2080400911383
 51
258.791959908862
  0
ARC
  5
1A48
330
1E
100
AcDbEntity
  8
SCHRAFF
100
AcDbCircle
 10
214.7423733756746
 20
397.7446031124718
 30
0.0
 40
5.615519614478622
100
AcDbArc
 50
194.2080400911383
 51
258.791959908862
  0
ARC
  5
1A49
330
1E
100
AcDbEntity
  8
SCHRAFF
100
AcDbCircle
 10
218.1841462541434
 20
401.3714749675332
 30
0.0
 40
5.615519614478622
100
AcDbArc
 50
194.2080400911383
 51
258.791959908862
  0
ARC
  5
1A4A
330
1E
100
AcDbEntity
  8
SCHRAFF
100
AcDbCircle
 10
211.3006004972059
 20
394.1177312574105
 30
0.0
 40
5.615519614478622
100
AcDbArc
 50
194.2080400911383
 51
258.791959908862
  0
ARC
  5
1A4B
330
1E
100
AcDbEntity
  8
SCHRAFF
100
AcDbCircle
 10
221.6259191326121
 20
404.9983468225947
 30
0.0
 40
5.615519614478622
100
AcDbArc
 50
194.2080400911383
 51
258.791959908862
  0
ARC
  5
1A4C
330
1E
100
AcDbEntity
  8
SCHRAFF
100
AcDbCircle
 10
228.5094648895496
 20
412.2520905327175
 30
0.0
 40
5.615519614478622
100
AcDbArc
 50
194.2080400911383
 51
258.791959908862
  0
ARC
  5
1A4D
330
1E
100
AcDbEntity
  8
SCHRAFF
100
AcDbCircle
 10
231.9512377680184
 20
415.8789623877789
 30
0.0
 40
5.615519614478622
100
AcDbArc
 50
194.2080400911383
 51
258.791959908862
  0
ARC
  5
1A4E
102
{ACAD_REACTORS
330
1A52
102
}
330
1E
100
AcDbEntity
  8
SCHRAFF
100
AcDbCircle
 10
228.4787030447816
 20
412.2196743120839
 30
0.0
 40
7.797874990630712
100
AcDbArc
 50
23.8736291690009
 51
69.12637083099969
  0
HATCH
  5
1A52
330
1E
100
AcDbEntity
  8
SCHRAFF
100
AcDbHatch
 10
0.0
 20
0.0
 30
0.0
210
0.0
220
0.0
230
1.0
  2
_USER
 70
     0
 71
     1
 91
        1
 92
        7
 72
     1
 73
     1
 93
        3
 10
235.6093944087429
 20
415.3756361371748
 42
0.2000590461912882
 10
231.2571481826691
 20
419.5057635913374
 42
0.0
 10
231.2571481826691
 20
415.1475445775733
 42
0.0
 97
        3
330
1877
330
19C1
330
1A4E
 75
     0
 76
     0
 52
0.0
 41
0.1
 77
     0
 78
     1
 53
0.0
 43
0.0
 44
0.0
 45
0.0
 46
0.1
 79
     0
 47
0.0363927349532719
 98
        1
 10
232.6781077391741
 20
416.2072380102465
  0
ARC
  5
1A7F
330
1E
100
AcDbEntity
  8
SCHRAFF
100
AcDbCircle
 10
175.1575547138384
 20
335.2015489688796
 30
0.0
 40
5.352655712586298
100
AcDbArc
 50
102.4117304855398
 51
170.5882695144566
  0
ARC
  5
1A80
330
1E
100
AcDbEntity
  8
SCHRAFF
100
AcDbCircle
 10
171.5306828587769
 20
338.6433218473483
 30
0.0
 40
5.352655712586298
100
AcDbArc
 50
102.4117304855398
 51
170.5882695144566
  0
ARC
  5
1A81
330
1E
100
AcDbEntity
  8
SCHRAFF
100
AcDbCircle
 10
178.7844265688997
 20
331.7597760904108
 30
0.0
 40
5.352655712586298
100
AcDbArc
 50
102.4117304855398
 51
170.5882695144566
  0
ARC
  5
1A82
330
1E
100
AcDbEntity
  8
SCHRAFF
100
AcDbCircle
 10
182.4112984239612
 20
328.3180032119421
 30
0.0
 40
5.352655712586298
100
AcDbArc
 50
102.4117304855398
 51
170.5882695144566
  0
ARC
  5
1A83
330
1E
100
AcDbEntity
  8
SCHRAFF
100
AcDbCircle
 10
186.0381702790226
 20
324.8762303334733
 30
0.0
 40
5.352655712586298
100
AcDbArc
 50
102.4117304855398
 51
170.5882695144566
  0
ARC
  5
1A84
330
1E
100
AcDbEntity
  8
SCHRAFF
100
AcDbCircle
 10
189.665042134084
 20
321.4344574550046
 30
0.0
 40
5.352655712586298
100
AcDbArc
 50
102.4117304855398
 51
170.5882695144566
  0
ARC
  5
1A85
330
1E
100
AcDbEntity
  8
SCHRAFF
100
AcDbCircle
 10
193.2919139891454
 20
317.9926845765359
 30
0.0
 40
5.352655712586298
100
AcDbArc
 50
102.4117304855398
 51
170.5882695144566
  0
ARC
  5
1A86
330
1E
100
AcDbEntity
  8
SCHRAFF
100
AcDbCircle
 10
200.5456576992683
 20
311.1091388195983
 30
0.0
 40
5.352655712586298
100
AcDbArc
 50
102.4117304855398
 51
170.5882695144566
  0
ARC
  5
1A87
330
1E
100
AcDbEntity
  8
SCHRAFF
100
AcDbCircle
 10
196.9187858442068
 20
314.5509116980671
 30
0.0
 40
5.352655712586298
100
AcDbArc
 50
102.4117304855398
 51
170.5882695144566
  0
ARC
  5
1A88
330
1E
100
AcDbEntity
  8
SCHRAFF
100
AcDbCircle
 10
207.7994014093911
 20
304.2255930626609
 30
0.0
 40
5.352655712586298
100
AcDbArc
 50
102.4117304855398
 51
170.5882695144566
  0
ARC
  5
1A89
330
1E
100
AcDbEntity
  8
SCHRAFF
100
AcDbCircle
 10
204.1725295543297
 20
307.6673659411296
 30
0.0
 40
5.352655712586298
100
AcDbArc
 50
102.4117304855398
 51
170.5882695144566
  0
ARC
  5
1A8A
330
1E
100
AcDbEntity
  8
SCHRAFF
100
AcDbCircle
 10
218.6800169745754
 20
293.9002744272546
 30
0.0
 40
5.352655712586298
100
AcDbArc
 50
102.4117304855398
 51
170.5882695144566
  0
ARC
  5
1A8B
330
1E
100
AcDbEntity
  8
SCHRAFF
100
AcDbCircle
 10
222.3068888296367
 20
290.4585015487858
 30
0.0
 40
5.352655712586298
100
AcDbArc
 50
102.4117304855398
 51
170.5882695144566
  0
ARC
  5
1A8C
330
1E
100
AcDbEntity
  8
SCHRAFF
100
AcDbCircle
 10
229.5606325397596
 20
283.5749557918484
 30
0.0
 40
5.352655712586298
100
AcDbArc
 50
102.4117304855398
 51
170.5882695144566
  0
ARC
  5
1A8D
330
1E
100
AcDbEntity
  8
SCHRAFF
100
AcDbCircle
 10
225.9337606846982
 20
287.0167286703171
 30
0.0
 40
5.352655712586298
100
AcDbArc
 50
102.4117304855398
 51
170.5882695144566
  0
ARC
  5
1A8E
330
1E
100
AcDbEntity
  8
SCHRAFF
100
AcDbCircle
 10
233.187504394821
 20
280.1331829133796
 30
0.0
 40
5.352655712586298
100
AcDbArc
 50
102.4117304855398
 51
170.5882695144566
  0
ARC
  5
1A8F
330
1E
100
AcDbEntity
  8
SCHRAFF
100
AcDbCircle
 10
215.0531451195139
 20
297.3420473057233
 30
0.0
 40
5.352655712586298
100
AcDbArc
 50
102.4117304855398
 51
170.5882695144566
  0
ARC
  5
1A90
330
1E
100
AcDbEntity
  8
SCHRAFF
100
AcDbCircle
 10
211.4262732644526
 20
300.7838201841921
 30
0.0
 40
5.352655712586298
100
AcDbArc
 50
102.4117304855398
 51
170.5882695144566
  0
ARC
  5
1A91
102
{ACAD_REACTORS
330
1A95
102
}
330
1E
100
AcDbEntity
  8
SCHRAFF
100
AcDbCircle
 10
229.4977378404001
 20
283.6346406329748
 30
0.0
 40
6.066164402317463
100
AcDbArc
 50
286.8601535791095
 51
346.1398464208914
  0
HATCH
  5
1A95
330
1E
100
AcDbEntity
  8
SCHRAFF
100
AcDbHatch
 10
0.0
 20
0.0
 30
0.0
210
0.0
220
0.0
230
1.0
  2
_USER
 70
     0
 71
     1
 91
        1
 92
        7
 72
     1
 73
     1
 93
        3
 10
235.3872756368317
 20
282.1814733678784
 42
0.0
 10
231.2571481826692
 20
281.9650225598498
 42
0.0
 10
231.2571481826692
 20
277.8292271418046
 42
0.2645834305001156
 97
        3
330
19C3
330
19D2
330
1A91
 75
     0
 76
     0
 52
0.0
 41
0.1
 77
     0
 78
     1
 53
0.0
 43
0.0
 44
0.0
 45
0.0
 46
0.1
 79
     0
 47
0.1230967674927395
 98
        1
 10
231.9690697009562
 20
279.6280322638802
  0
DIMENSION
  5
1AA9
330
1E
100
AcDbEntity
  8
BEM
100
AcDbDimension
  2
*D6
 10
364.444620399081
 20
260.7351228711002
 30
0.0
 11
266.7380570449309
 21
262.1234591133178
 31
0.0
 70
    32
 71
     5
 42
195.0
 51
357.0
  3
Standard
100
AcDbAlignedDimension
 13
164.7571481826691
 23
345.0711662463894
 33
0.0
 14
363.2400439045466
 24
283.7198116141353
 34
0.0
 50
2.99999999999909
100
AcDbRotatedDimension
1001
ACAD
1000
DSTYLE
1002
{
1070
    40
1040
2.0
1070
    41
1040
3.5
1070
    42
1040
1.0
1070
    43
1040
7.0
1070
    44
1040
1.0
1070
    73
1070
     0
1070
    74
1070
     0
1070
    77
1070
     1
1070
    78
1070
     8
1070
    79
1070
     2
1070
   140
1040
3.5
1070
   141
1040
1.5
1070
   146
1040
0.5142857142857144
1070
   147
1040
1.5
1070
   172
1070
     1
1070
   178
1070
     1
1070
   179
1070
     2
1070
   271
1070
     2
1070
   272
1070
     2
1070
   284
1070
     8
1070
   285
1070
     8
1070
   286
1070
     8
1002
}
  0
TEXT
  5
1ADF
330
1E
100
AcDbEntity
  8
BEM
100
AcDbText
 10
416.5811541437437
 20
12.14804815338303
 30
0.0
 40
4.0
  1
Diese Zeichnung ist urheberrechtlich geschützt und bleibt unser Eigentum. Sie darf weder ganz noch teilweise vervielfältigt und nicht an Dritte weitergegeben werden.
 50
90.0
 41
0.8
  7
GREEKS
100
AcDbText
  0
TEXT
  5
1B04
330
1E
100
AcDbEntity
  8
TEXT
100
AcDbText
 10
192.6882715247924
 20
89.7791437153694
 30
0.0
 40
4.0
  1
DIN EN1124-3
 41
0.8
  7
GREEKS
 72
     1
 11
209.6787477152686
 21
89.7791437153694
 31
0.0
100
AcDbText
  0
TEXT
  5
1B26
330
1E
100
AcDbEntity
  8
TEXT
 62
     1
100
AcDbText
 10
370.9007025286624
 20
63.11760541895683
 30
0.0
 40
7.0
  1

 41
0.8
  7
GREEKS
 72
     1
 11
370.9007025286624
 21
63.11760541895683
 31
0.0
100
AcDbText
  0
ENDSEC
  0
SECTION
  2
OBJECTS
  0
DICTIONARY
  5
C
330
0
100
AcDbDictionary
281
     1
  3
ACAD_COLOR
350
1ADD
  3
ACAD_GROUP
350
D
  3
ACAD_LAYOUT
350
19
  3
ACAD_MATERIAL
350
1ADC
  3
ACAD_MLINESTYLE
350
16
  3
ACAD_PLOTSETTINGS
350
18
  3
ACAD_PLOTSTYLENAME
350
E
  3
AcDbVariableDictionary
350
246
  0
DICTIONARY
  5
1ADD
102
{ACAD_REACTORS
330
C
102
}
330
C
100
AcDbDictionary
281
     1
  0
DICTIONARY
  5
D
102
{ACAD_REACTORS
330
C
102
}
330
C
100
AcDbDictionary
281
     1
  0
DICTIONARY
  5
19
102
{ACAD_REACTORS
330
C
102
}
330
C
100
AcDbDictionary
281
     1
  3
Layout1
350
1D
  3
Model
350
21
  0
DICTIONARY
  5
1ADC
102
{ACAD_REACTORS
330
C
102
}
330
C
100
AcDbDictionary
281
     1
  0
DICTIONARY
  5
16
102
{ACAD_REACTORS
330
C
102
}
330
C
100
AcDbDictionary
281
     1
  3
Standard
350
17
  0
DICTIONARY
  5
18
102
{ACAD_REACTORS
330
C
102
}
330
C
100
AcDbDictionary
281
     1
  0
ACDBDICTIONARYWDFLT
  5
E
102
{ACAD_REACTORS
330
C
102
}
330
C
100
AcDbDictionary
281
     1
  3
Normal
350
F
100
AcDbDictionaryWithDefault
340
F
  0
DICTIONARY
  5
246
102
{ACAD_REACTORS
330
C
102
}
330
C
100
AcDbDictionary
281
     1
  3
DIMASSOC
350
1B18
  3
PROJECTNAME
350
1B19
  3
SORTENTS
350
247
  0
LAYOUT
  5
1D
102
{ACAD_REACTORS
330
19
102
}
330
19
100
AcDbPlotSettings
  1

  2
Tektronix Phaser 740
  4

  6

 40
0.0
 41
0.0
 42
0.0
 43
0.0
 44
0.0
 45
0.0
 46
0.0
 47
0.0
 48
0.0
 49
0.0
140
0.0
141
0.0
142
1.0
143
1.0
 70
   688
 72
     0
 73
     0
 74
     5
  7
monochrome.ctb
 75
    16
147
1.0
 76
     0
 77
     2
 78
   300
148
0.0
149
0.0
100
AcDbLayout
  1
Layout1
 70
     0
 71
     1
 10
0.0
 20
0.0
 11
12.0
 21
9.0
 12
0.0
 22
0.0
 32
0.0
 14
1.000000000000000E+20
 24
1.000000000000000E+20
 34
1.000000000000000E+20
 15
-1.000000000000000E+20
 25
-1.000000000000000E+20
 35
-1.000000000000000E+20
146
0.0
 13
0.0
 23
0.0
 33
0.0
 16
1.0
 26
0.0
 36
0.0
 17
0.0
 27
1.0
 37
0.0
 76
     0
330
1A
  0
LAYOUT
  5
21
102
{ACAD_REACTORS
330
19
102
}
330
19
100
AcDbPlotSettings
  1

  2
Tektronix Phaser 740
  4
A4
  6

 40
5.873749732971191
 41
6.085414409637451
 42
5.577407836914062
 43
5.662078857421875
 44
209.9733276367187
 45
296.9683227539062
 46
0.0
 47
0.0
 48
0.0
 49
0.0
140
0.0
141
0.0
142
1.0
143
1.0
 70
 11952
 72
     0
 73
     1
 74
     0
  7
monochrome.ctb
 75
     0
147
1.0
 76
     0
 77
     2
 78
   300
148
1150.120678237584
149
45.30495740799864
100
AcDbLayout
  1
Model
 70
     1
 71
     0
 10
0.0
 20
0.0
 11
12.0
 21
9.0
 12
0.0
 22
0.0
 32
0.0
 14
0.0
 24
0.0
 34
0.0
 15
0.0
 25
0.0
 35
0.0
146
0.0
 13
0.0
 23
0.0
 33
0.0
 16
1.0
 26
0.0
 36
0.0
 17
0.0
 27
1.0
 37
0.0
 76
     0
330
1E
  0
MLINESTYLE
  5
17
102
{ACAD_REACTORS
330
16
102
}
330
16
100
AcDbMlineStyle
  2
STANDARD
 70
     0
  3

 62
   256
 51
90.0
 52
90.0
 71
     2
 49
0.5
 62
   256
  6
BYLAYER
 49
-0.5
 62
   256
  6
BYLAYER
  0
ACDBPLACEHOLDER
  5
F
102
{ACAD_REACTORS
330
E
102
}
330
E
  0
DICTIONARYVAR
  5
1B18
102
{ACAD_REACTORS
330
246
102
}
330
246
100
DictionaryVariables
280
     0
  1
1
  0
DICTIONARYVAR
  5
1B19
102
{ACAD_REACTORS
330
246
102
}
330
246
100
DictionaryVariables
280
     0
  1

  0
DICTIONARYVAR
  5
247
102
{ACAD_REACTORS
330
246
102
}
330
246
100
DictionaryVariables
280
     0
  1
96
  0
ENDSEC
  0
EOF
