  0
SECTION
  2
HEADER
  9
$ACADVER
  1
AC1018
  9
$ACADMAINTVER
 70
     2
  9
$DWGCODEPAGE
  3
ANSI_1252
  9
$INSBASE
 10
0.0
 20
0.0
 30
0.0
  9
$EXTMIN
 10
-0.0192146320376878
 20
-0.0271749795965661
 30
-0.0000000000000023
  9
$EXTMAX
 10
420.0192317462092
 20
594.027199183924
 30
0.0000000000000129
  9
$LIMMIN
 10
0.0
 20
0.0
  9
$LIMMAX
 10
419.9999999999999
 20
594.0
  9
$ORTHOMODE
 70
     1
  9
$REGENMODE
 70
     1
  9
$FILLMODE
 70
     1
  9
$QTEXTMODE
 70
     0
  9
$MIRRTEXT
 70
     1
  9
$LTSCALE
 40
20.0
  9
$ATTMODE
 70
     1
  9
$TEXTSIZE
 40
3.5
  9
$TRACEWID
 40
0.5
  9
$TEXTSTYLE
  7
STANDARD
  9
$CLAYER
  8
SCHRAFF
  9
$CELTYPE
  6
ByLayer
  9
$CECOLOR
 62
   256
  9
$CELTSCALE
 40
1.0
  9
$DISPSILH
 70
     0
  9
$DIMSCALE
 40
2.0
  9
$DIMASZ
 40
3.5
  9
$DIMEXO
 40
1.0
  9
$DIMDLI
 40
7.0
  9
$DIMRND
 40
0.0
  9
$DIMDLE
 40
0.0
  9
$DIMEXE
 40
1.0
  9
$DIMTP
 40
0.0
  9
$DIMTM
 40
0.0
  9
$DIMTXT
 40
3.5
  9
$DIMCEN
 40
1.5
  9
$DIMTSZ
 40
0.0
  9
$DIMTOL
 70
     0
  9
$DIMLIM
 70
     0
  9
$DIMTIH
 70
     0
  9
$DIMTOH
 70
     0
  9
$DIMSE1
 70
     0
  9
$DIMSE2
 70
     0
  9
$DIMTAD
 70
     1
  9
$DIMZIN
 70
     8
  9
$DIMBLK
  1

  9
$DIMASO
 70
     1
  9
$DIMSHO
 70
     0
  9
$DIMPOST
  1

  9
$DIMAPOST
  1

  9
$DIMALT
 70
     0
  9
$DIMALTD
 70
     2
  9
$DIMALTF
 40
25.4
  9
$DIMLFAC
 40
1.0
  9
$DIMTOFL
 70
     1
  9
$DIMTVP
 40
0.0
  9
$DIMTIX
 70
     0
  9
$DIMSOXD
 70
     0
  9
$DIMSAH
 70
     0
  9
$DIMBLK1
  1

  9
$DIMBLK2
  1

  9
$DIMSTYLE
  2
Standard
  9
$DIMCLRD
 70
     0
  9
$DIMCLRE
 70
     0
  9
$DIMCLRT
 70
     1
  9
$DIMTFAC
 40
0.5142857142857144
  9
$DIMGAP
 40
1.5
  9
$DIMJUST
 70
     0
  9
$DIMSD1
 70
     0
  9
$DIMSD2
 70
     0
  9
$DIMTOLJ
 70
     1
  9
$DIMTZIN
 70
     8
  9
$DIMALTZ
 70
     8
  9
$DIMALTTZ
 70
     8
  9
$DIMUPT
 70
     0
  9
$DIMDEC
 70
     2
  9
$DIMTDEC
 70
     2
  9
$DIMALTU
 70
     2
  9
$DIMALTTD
 70
     2
  9
$DIMTXSTY
  7
STANDARD
  9
$DIMAUNIT
 70
     0
  9
$DIMADEC
 70
     2
  9
$DIMALTRND
 40
0.0
  9
$DIMAZIN
 70
     2
  9
$DIMDSEP
 70
    46
  9
$DIMATFIT
 70
     3
  9
$DIMFRAC
 70
     0
  9
$DIMLDRBLK
  1

  9
$DIMLUNIT
 70
     2
  9
$DIMLWD
 70
    -2
  9
$DIMLWE
 70
    -2
  9
$DIMTMOVE
 70
     0
  9
$LUNITS
 70
     2
  9
$LUPREC
 70
     2
  9
$SKETCHINC
 40
1.0
  9
$FILLETRAD
 40
0.0
  9
$AUNITS
 70
     1
  9
$AUPREC
 70
     3
  9
$MENU
  1
ACAD
  9
$ELEVATION
 40
0.0
  9
$PELEVATION
 40
0.0
  9
$THICKNESS
 40
0.0
  9
$LIMCHECK
 70
     0
  9
$CHAMFERA
 40
0.0
  9
$CHAMFERB
 40
0.0
  9
$CHAMFERC
 40
0.0
  9
$CHAMFERD
 40
0.0
  9
$SKPOLY
 70
     0
  9
$TDCREATE
 40
2452040.637099653
  9
$TDUCREATE
 40
2452040.553766320
  9
$TDUPDATE
 40
2455666.367306540
  9
$TDUUPDATE
 40
2455666.283973206
  9
$TDINDWG
 40
0.4583442824
  9
$TDUSRTIMER
 40
0.4583442824
  9
$USRTIMER
 70
     1
  9
$ANGBASE
 50
0.0
  9
$ANGDIR
 70
     0
  9
$PDMODE
 70
     0
  9
$PDSIZE
 40
0.0
  9
$PLINEWID
 40
0.0
  9
$SPLFRAME
 70
     0
  9
$SPLINETYPE
 70
     6
  9
$SPLINESEGS
 70
     8
  9
$HANDSEED
  5
1C9E
  9
$SURFTAB1
 70
     6
  9
$SURFTAB2
 70
     6
  9
$SURFTYPE
 70
     6
  9
$SURFU
 70
     6
  9
$SURFV
 70
     6
  9
$UCSBASE
  2

  9
$UCSNAME
  2

  9
$UCSORG
 10
0.0
 20
0.0
 30
0.0
  9
$UCSXDIR
 10
1.0
 20
0.0
 30
0.0
  9
$UCSYDIR
 10
0.0
 20
1.0
 30
0.0
  9
$UCSORTHOREF
  2

  9
$UCSORTHOVIEW
 70
     0
  9
$UCSORGTOP
 10
0.0
 20
0.0
 30
0.0
  9
$UCSORGBOTTOM
 10
0.0
 20
0.0
 30
0.0
  9
$UCSORGLEFT
 10
0.0
 20
0.0
 30
0.0
  9
$UCSORGRIGHT
 10
0.0
 20
0.0
 30
0.0
  9
$UCSORGFRONT
 10
0.0
 20
0.0
 30
0.0
  9
$UCSORGBACK
 10
0.0
 20
0.0
 30
0.0
  9
$PUCSBASE
  2

  9
$PUCSNAME
  2

  9
$PUCSORG
 10
0.0
 20
0.0
 30
0.0
  9
$PUCSXDIR
 10
1.0
 20
0.0
 30
0.0
  9
$PUCSYDIR
 10
0.0
 20
1.0
 30
0.0
  9
$PUCSORTHOREF
  2

  9
$PUCSORTHOVIEW
 70
     0
  9
$PUCSORGTOP
 10
0.0
 20
0.0
 30
0.0
  9
$PUCSORGBOTTOM
 10
0.0
 20
0.0
 30
0.0
  9
$PUCSORGLEFT
 10
0.0
 20
0.0
 30
0.0
  9
$PUCSORGRIGHT
 10
0.0
 20
0.0
 30
0.0
  9
$PUCSORGFRONT
 10
0.0
 20
0.0
 30
0.0
  9
$PUCSORGBACK
 10
0.0
 20
0.0
 30
0.0
  9
$USERI1
 70
     0
  9
$USERI2
 70
     0
  9
$USERI3
 70
     0
  9
$USERI4
 70
     0
  9
$USERI5
 70
     0
  9
$USERR1
 40
0.0
  9
$USERR2
 40
0.0
  9
$USERR3
 40
0.0
  9
$USERR4
 40
0.0
  9
$USERR5
 40
0.0
  9
$WORLDVIEW
 70
     1
  9
$SHADEDGE
 70
     3
  9
$SHADEDIF
 70
    70
  9
$TILEMODE
 70
     1
  9
$MAXACTVP
 70
    16
  9
$PINSBASE
 10
0.0
 20
0.0
 30
0.0
  9
$PLIMCHECK
 70
     0
  9
$PEXTMIN
 10
1.000000000000000E+20
 20
1.000000000000000E+20
 30
1.000000000000000E+20
  9
$PEXTMAX
 10
-1.000000000000000E+20
 20
-1.000000000000000E+20
 30
-1.000000000000000E+20
  9
$PLIMMIN
 10
0.0
 20
0.0
  9
$PLIMMAX
 10
12.0
 20
9.0
  9
$UNITMODE
 70
     0
  9
$VISRETAIN
 70
     0
  9
$PLINEGEN
 70
     0
  9
$PSLTSCALE
 70
     0
  9
$TREEDEPTH
 70
  3020
  9
$CMLSTYLE
  2
Standard
  9
$CMLJUST
 70
     0
  9
$CMLSCALE
 40
1.0
  9
$PROXYGRAPHICS
 70
     1
  9
$MEASUREMENT
 70
     0
  9
$CELWEIGHT
370
    -1
  9
$ENDCAPS
280
     0
  9
$JOINSTYLE
280
     0
  9
$LWDISPLAY
290
     0
  9
$INSUNITS
 70
     0
  9
$HYPERLINKBASE
  1

  9
$STYLESHEET
  1
monochrome 1.ctb
  9
$XEDIT
290
     1
  9
$CEPSNTYPE
380
     0
  9
$PSTYLEMODE
290
     1
  9
$FINGERPRINTGUID
  2
{7AADB5C8-6110-11D8-B72B-000102183313}
  9
$VERSIONGUID
  2
{A14A9528-11DB-4786-A1A1-EC39EEDE3797}
  9
$EXTNAMES
290
     1
  9
$PSVPSCALE
 40
0.0
  9
$OLESTARTUP
290
     0
  9
$SORTENTS
280
    96
  9
$INDEXCTL
280
     0
  9
$HIDETEXT
280
     0
  9
$XCLIPFRAME
290
     0
  9
$HALOGAP
280
     0
  9
$OBSCOLOR
 70
   257
  9
$OBSLTYPE
280
     0
  9
$INTERSECTIONDISPLAY
280
     0
  9
$INTERSECTIONCOLOR
 70
   257
  9
$DIMASSOC
280
     1
  9
$PROJECTNAME
  1

  0
ENDSEC
  0
SECTION
  2
CLASSES
  0
CLASS
  1
ACDBDICTIONARYWDFLT
  2
AcDbDictionaryWithDefault
  3
ObjectDBX Classes
 90
        0
 91
        1
280
     0
281
     0
  0
CLASS
  1
DICTIONARYVAR
  2
AcDbDictionaryVar
  3
ObjectDBX Classes
 90
        0
 91
        3
280
     0
281
     0
  0
ENDSEC
  0
SECTION
  2
TABLES
  0
TABLE
  2
VPORT
  5
8
330
0
100
AcDbSymbolTable
 70
     3
  0
VPORT
  5
1C9D
330
8
100
AcDbSymbolTableRecord
100
AcDbViewportTableRecord
  2
*Active
 70
     0
 10
0.0
 20
0.0
 11
1.0
 21
1.0
 12
210.0
 22
297.0
 13
0.0
 23
0.0
 14
1.0
 24
1.0
 15
10.0
 25
10.0
 16
0.0
 26
0.0
 36
1.0
 17
0.0
 27
0.0
 37
0.0
 40
594.0
 41
1.334231805929919
 42
50.0
 43
0.0
 44
0.0
 50
0.0
 51
0.0
 71
     0
 72
  1500
 73
     1
 74
     0
 75
     0
 76
     0
 77
     0
 78
     0
281
     0
 65
     1
110
0.0
120
0.0
130
0.0
111
1.0
121
0.0
131
0.0
112
0.0
122
1.0
132
0.0
 79
     0
146
0.0
  0
ENDTAB
  0
TABLE
  2
LTYPE
  5
5
330
0
100
AcDbSymbolTable
 70
     2
  0
LTYPE
  5
13
330
5
100
AcDbSymbolTableRecord
100
AcDbLinetypeTableRecord
  2
ByBlock
 70
     0
  3

 72
    65
 73
     0
 40
0.0
  0
LTYPE
  5
14
330
5
100
AcDbSymbolTableRecord
100
AcDbLinetypeTableRecord
  2
ByLayer
 70
     0
  3

 72
    65
 73
     0
 40
0.0
  0
LTYPE
  5
15
330
5
100
AcDbSymbolTableRecord
100
AcDbLinetypeTableRecord
  2
Continuous
 70
     0
  3
Solid line
 72
    65
 73
     0
 40
0.0
  0
LTYPE
  5
35
330
5
100
AcDbSymbolTableRecord
100
AcDbLinetypeTableRecord
  2
STRICHPUNKT
 70
     0
  3
__ . __ . __ . __ . __ . __ . __ . __ . __ . __
 72
    65
 73
     4
 40
1.0
 49
0.5
 74
     0
 49
-0.25
 74
     0
 49
0.0
 74
     0
 49
-0.25
 74
     0
  0
ENDTAB
  0
TABLE
  2
LAYER
  5
2
330
0
100
AcDbSymbolTable
 70
     9
  0
LAYER
  5
10
330
2
100
AcDbSymbolTableRecord
100
AcDbLayerTableRecord
  2
0
 70
     0
 62
     7
  6
Continuous
370
    -3
390
F
  0
LAYER
  5
38
330
2
100
AcDbSymbolTableRecord
100
AcDbLayerTableRecord
  2
VOLL
 70
     0
 62
     1
  6
Continuous
370
    -3
390
F
  0
LAYER
  5
39
330
2
100
AcDbSymbolTableRecord
100
AcDbLayerTableRecord
  2
HILF
 70
     0
 62
     2
  6
Continuous
370
    -3
390
F
  0
LAYER
  5
3A
330
2
100
AcDbSymbolTableRecord
100
AcDbLayerTableRecord
  2
MITTEL
 70
     0
 62
     2
  6
STRICHPUNKT
370
    -3
390
F
  0
LAYER
  5
3B
330
2
100
AcDbSymbolTableRecord
100
AcDbLayerTableRecord
  2
BEM
 70
     0
 62
     7
  6
Continuous
370
    -3
390
F
  0
LAYER
  5
3C
330
2
100
AcDbSymbolTableRecord
100
AcDbLayerTableRecord
  2
STEMPEL
 70
     0
 62
     3
  6
Continuous
370
    -3
390
F
  0
LAYER
  5
3D
330
2
100
AcDbSymbolTableRecord
100
AcDbLayerTableRecord
  2
TEXT
 70
     0
 62
     7
  6
Continuous
370
    -3
390
F
  0
LAYER
  5
3E
330
2
100
AcDbSymbolTableRecord
100
AcDbLayerTableRecord
  2
DEFPOINTS
 70
     0
 62
     7
  6
Continuous
290
     0
370
    -3
390
F
  0
LAYER
  5
3F
330
2
100
AcDbSymbolTableRecord
100
AcDbLayerTableRecord
  2
SCHRAFF
 70
     0
 62
     7
  6
Continuous
370
    -3
390
F
  0
ENDTAB
  0
TABLE
  2
STYLE
  5
3
330
0
100
AcDbSymbolTable
 70
     2
  0
STYLE
  5
11
330
3
100
AcDbSymbolTableRecord
100
AcDbTextStyleTableRecord
  2
STANDARD
 70
     0
 40
0.0
 41
0.8
 50
0.0
 71
     0
 42
3.5
  3
simplex.shx
  4

  0
STYLE
  5
34
330
3
100
AcDbSymbolTableRecord
100
AcDbTextStyleTableRecord
  2
GREEKS
 70
     0
 40
0.0
 41
0.8
 50
0.0
 71
     0
 42
2.5
  3
SIMPLEX.shx
  4

  0
ENDTAB
  0
TABLE
  2
VIEW
  5
6
330
0
100
AcDbSymbolTable
 70
     0
  0
ENDTAB
  0
TABLE
  2
UCS
  5
7
330
0
100
AcDbSymbolTable
 70
     0
  0
ENDTAB
  0
TABLE
  2
APPID
  5
9
330
0
100
AcDbSymbolTable
 70
     2
  0
APPID
  5
12
330
9
100
AcDbSymbolTableRecord
100
AcDbRegAppTableRecord
  2
ACAD
 70
     0
  0
APPID
  5
1555
330
9
100
AcDbSymbolTableRecord
100
AcDbRegAppTableRecord
  2
AVE_RENDER
 70
     0
  0
ENDTAB
  0
TABLE
  2
DIMSTYLE
  5
A
330
0
100
AcDbSymbolTable
 70
     1
100
AcDbDimStyleTable
 71
     1
340
1CB
  0
DIMSTYLE
105
1CB
102
{ACAD_REACTORS
330
170F
330
174E
330
1AB8
330
1AD2
330
1AE8
102
}
330
A
100
AcDbSymbolTableRecord
100
AcDbDimStyleTableRecord
  2
Standard
 70
     0
340
11
  0
ENDTAB
  0
TABLE
  2
BLOCK_RECORD
  5
1
330
0
100
AcDbSymbolTable
 70
     7
  0
BLOCK_RECORD
  5
1E
330
1
100
AcDbSymbolTableRecord
100
AcDbBlockTableRecord
  2
*Model_Space
340
21
  0
BLOCK_RECORD
  5
1A
330
1
100
AcDbSymbolTableRecord
100
AcDbBlockTableRecord
  2
*Paper_Space
340
1D
  0
BLOCK_RECORD
  5
22
330
1
100
AcDbSymbolTableRecord
100
AcDbBlockTableRecord
  2
LOGO
340
0
102
{BLKREFS
331
135
102
}
  0
BLOCK_RECORD
  5
1710
330
1
100
AcDbSymbolTableRecord
100
AcDbBlockTableRecord
  2
*D1
340
0
  0
BLOCK_RECORD
  5
174F
330
1
100
AcDbSymbolTableRecord
100
AcDbBlockTableRecord
  2
*D2
340
0
  0
BLOCK_RECORD
  5
1AB9
330
1
100
AcDbSymbolTableRecord
100
AcDbBlockTableRecord
  2
*D3
340
0
  0
BLOCK_RECORD
  5
1AD3
330
1
100
AcDbSymbolTableRecord
100
AcDbBlockTableRecord
  2
*D4
340
0
  0
BLOCK_RECORD
  5
1AE9
330
1
100
AcDbSymbolTableRecord
100
AcDbBlockTableRecord
  2
*D5
340
0
  0
ENDTAB
  0
ENDSEC
  0
SECTION
  2
BLOCKS
  0
BLOCK
  5
43
330
1E
100
AcDbEntity
  8
0
100
AcDbBlockBegin
  2
*Model_Space
 70
     0
 10
0.0
 20
0.0
 30
0.0
  3
*Model_Space
  1

  0
ENDBLK
  5
44
330
1E
100
AcDbEntity
  8
0
100
AcDbBlockEnd
  0
BLOCK
  5
41
330
1A
100
AcDbEntity
 67
     1
  8
0
100
AcDbBlockBegin
  2
*Paper_Space
 70
     0
 10
0.0
 20
0.0
 30
0.0
  3
*Paper_Space
  1

  0
ENDBLK
  5
42
330
1A
100
AcDbEntity
 67
     1
  8
0
100
AcDbBlockEnd
  0
BLOCK
  5
45
330
22
100
AcDbEntity
  8
0
100
AcDbBlockBegin
  2
LOGO
 70
     0
 10
0.0
 20
0.0
 30
0.0
  3
LOGO
  1

  0
ARC
  5
46
330
22
100
AcDbEntity
  8
0
100
AcDbCircle
 10
11.59973089678112
 20
-9.271599258481501
 30
0.0
 40
4.5
100
AcDbArc
 50
270.0
 51
231.0575587310159
  0
LINE
  5
47
330
22
100
AcDbEntity
  8
0
100
AcDbLine
 10
3.599730896781125
 20
-4.771599258481529
 30
0.0
 11
3.599730896781153
 21
-11.77159925848133
 31
0.0
  0
LINE
  5
48
330
22
100
AcDbEntity
  8
0
100
AcDbLine
 10
2.599730896781125
 20
-4.771599258481529
 30
0.0
 11
2.599730896781153
 21
-11.77159925848133
 31
0.0
  0
CIRCLE
  5
49
330
22
100
AcDbEntity
  8
0
100
AcDbCircle
 10
11.59973089678112
 20
-9.271599258481501
 30
0.0
 40
3.5
  0
ARC
  5
4A
330
22
100
AcDbEntity
  8
0
100
AcDbCircle
 10
31.59973089678115
 20
-9.271599258481472
 30
0.0
 40
4.5
100
AcDbArc
 50
270.0
 51
231.0575587310182
  0
LINE
  5
4B
330
22
100
AcDbEntity
  8
0
100
AcDbLine
 10
17.59973089678112
 20
-4.771599258481472
 30
0.0
 11
17.59973089678115
 21
-13.77159925848147
 31
0.0
  0
ARC
  5
4C
330
22
100
AcDbEntity
  8
0
100
AcDbCircle
 10
22.59973089678116
 20
-7.271599258481472
 30
0.0
 40
2.5
100
AcDbArc
 50
293.1161887722295
 51
90.0
  0
CIRCLE
  5
4D
330
22
100
AcDbEntity
  8
0
100
AcDbCircle
 10
31.59973089678115
 20
-9.271599258481472
 30
0.0
 40
3.5
  0
ARC
  5
4E
330
22
100
AcDbEntity
  8
0
100
AcDbCircle
 10
4.599730896781153
 20
-11.77159925848133
 30
0.0
 40
1.0
100
AcDbArc
 50
180.0
 51
270.0
  0
ARC
  5
4F
330
22
100
AcDbEntity
  8
0
100
AcDbCircle
 10
4.599730896781153
 20
-11.77159925848133
 30
0.0
 40
2.0
100
AcDbArc
 50
179.9999999999992
 51
270.0
  0
LINE
  5
50
330
22
100
AcDbEntity
  8
0
100
AcDbLine
 10
11.59973089678115
 20
-13.77159925848144
 30
0.0
 11
4.599730896781153
 21
-13.77159925848147
 31
0.0
  0
LINE
  5
51
330
22
100
AcDbEntity
  8
0
100
AcDbLine
 10
8.771303772034769
 20
-12.77159925848136
 30
0.0
 11
4.599730896781153
 21
-12.77159925848133
 31
0.0
  0
LINE
  5
52
330
22
100
AcDbEntity
  8
0
100
AcDbLine
 10
31.59973089678115
 20
-13.77159925848147
 30
0.0
 11
23.6715276665056
 21
-13.77159925848144
 31
0.0
  0
LINE
  5
53
330
22
100
AcDbEntity
  8
0
100
AcDbLine
 10
23.56565672307022
 20
-9.51278021337896
 30
0.0
 11
24.4388546544846
 21
-12.77159925848144
 31
0.0
  0
LINE
  5
54
330
22
100
AcDbEntity
  8
0
100
AcDbLine
 10
22.59973089678116
 20
-9.771599258481472
 30
0.0
 11
18.59973089678112
 21
-9.771599258481472
 31
0.0
  0
LINE
  5
55
330
22
100
AcDbEntity
  8
0
100
AcDbLine
 10
18.59973089678115
 20
-13.77159925848144
 30
0.0
 11
17.59973089678115
 21
-13.77159925848144
 31
0.0
  0
LINE
  5
56
330
22
100
AcDbEntity
  8
0
100
AcDbLine
 10
18.59973089678115
 20
-9.771599258481472
 30
0.0
 11
18.59973089678115
 21
-13.77159925848144
 31
0.0
  0
LINE
  5
57
330
22
100
AcDbEntity
  8
0
100
AcDbLine
 10
22.59973089678116
 20
-9.771599258481472
 30
0.0
 11
23.67152766650562
 21
-13.77159925848147
 31
0.0
  0
ARC
  5
58
330
22
100
AcDbEntity
  8
0
100
AcDbCircle
 10
22.59973089678116
 20
-7.271599258481472
 30
0.0
 40
2.5
100
AcDbArc
 50
270.0
 51
270.0000000000007
  0
LINE
  5
59
330
22
100
AcDbEntity
  8
0
100
AcDbLine
 10
28.77130377203494
 20
-12.77159925848147
 30
0.0
 11
24.43885465448463
 21
-12.77159925848144
 31
0.0
  0
LINE
  5
5A
330
22
100
AcDbEntity
  8
0
100
AcDbLine
 10
3.599730896781125
 20
-4.771599258481472
 30
0.0
 11
2.599730896781125
 21
-4.771599258481472
 31
0.0
  0
LINE
  5
5B
330
22
100
AcDbEntity
  8
0
100
AcDbLine
 10
22.59973089678116
 20
-8.771599258481472
 30
0.0
 11
18.59973089678115
 21
-8.771599258481472
 31
0.0
  0
LINE
  5
5C
330
22
100
AcDbEntity
  8
0
100
AcDbLine
 10
22.59973089678116
 20
-5.771599258481472
 30
0.0
 11
18.59973089678115
 21
-5.771599258481472
 31
0.0
  0
LINE
  5
5D
330
22
100
AcDbEntity
  8
0
100
AcDbLine
 10
22.59973089678116
 20
-4.771599258481472
 30
0.0
 11
17.59973089678115
 21
-4.771599258481472
 31
0.0
  0
LINE
  5
5E
330
22
100
AcDbEntity
  8
0
100
AcDbLine
 10
18.59973089678115
 20
-5.771599258481472
 30
0.0
 11
18.59973089678115
 21
-8.771599258481472
 31
0.0
  0
ARC
  5
5F
330
22
100
AcDbEntity
  8
0
100
AcDbCircle
 10
22.59973089678116
 20
-7.271599258481472
 30
0.0
 40
1.5
100
AcDbArc
 50
270.0
 51
90.0
  0
ENDBLK
  5
60
330
22
100
AcDbEntity
  8
0
100
AcDbBlockEnd
  0
BLOCK
  5
171A
330
1710
100
AcDbEntity
  8
0
100
AcDbBlockBegin
  2
*D1
 70
     1
 10
0.0
 20
0.0
 30
0.0
  3
*D1
  1

  0
LINE
  5
1BE2
330
1710
100
AcDbEntity
  8
BEM
 62
     0
370
    -2
100
AcDbLine
 10
133.2014018254325
 20
200.1306522741827
 30
0.0
 11
103.6767863415932
 21
200.1306522741827
 31
0.0
  0
LINE
  5
1BE3
330
1710
100
AcDbEntity
  8
BEM
 62
     0
370
    -2
100
AcDbLine
 10
183.3014925172251
 20
340.1306522741824
 30
0.0
 11
103.6767863415932
 21
340.1306522741825
 31
0.0
  0
LINE
  5
1BE4
330
1710
100
AcDbEntity
  8
BEM
 62
     0
370
    -2
100
AcDbLine
 10
105.6767863415932
 20
207.1306522741827
 30
0.0
 11
105.6767863415932
 21
333.1306522741825
 31
0.0
  0
SOLID
  5
1BE5
330
1710
100
AcDbEntity
  8
BEM
 62
     0
100
AcDbTrace
 10
104.5101196749265
 20
207.1306522741827
 30
0.0
 11
106.8434530082599
 21
207.1306522741827
 31
0.0
 12
105.6767863415932
 22
200.1306522741827
 32
0.0
 13
105.6767863415932
 23
200.1306522741827
 33
0.0
  0
SOLID
  5
1BE6
330
1710
100
AcDbEntity
  8
BEM
 62
     0
100
AcDbTrace
 10
104.5101196749266
 20
333.1306522741825
 30
0.0
 11
106.8434530082599
 21
333.1306522741825
 31
0.0
 12
105.6767863415932
 22
340.1306522741825
 32
0.0
 13
105.6767863415932
 23
340.1306522741825
 33
0.0
  0
MTEXT
  5
1BE7
330
1710
100
AcDbEntity
  8
BEM
 62
     1
100
AcDbMText
 10
99.17678634159319
 20
270.1306522741826
 30
0.0
 40
7.0
 41
0.0
 71
     5
 72
     1
  1
\A1;140
 11
0.0000000000000001
 21
1.0
 31
0.0
 73
     1
 44
1.0
  0
POINT
  5
1BE8
330
1710
100
AcDbEntity
  8
DEFPOINTS
 62
     0
100
AcDbPoint
 10
135.2014018254325
 20
200.1306522741827
 30
0.0
  0
POINT
  5
1BE9
330
1710
100
AcDbEntity
  8
DEFPOINTS
 62
     0
100
AcDbPoint
 10
185.3014925172251
 20
340.1306522741824
 30
0.0
  0
POINT
  5
1BEA
330
1710
100
AcDbEntity
  8
DEFPOINTS
 62
     0
100
AcDbPoint
 10
105.6767863415932
 20
340.1306522741825
 30
0.0
  0
ENDBLK
  5
171B
330
1710
100
AcDbEntity
  8
0
100
AcDbBlockEnd
  0
BLOCK
  5
175B
330
174F
100
AcDbEntity
  8
0
100
AcDbBlockBegin
  2
*D2
 70
     1
 10
0.0
 20
0.0
 30
0.0
  3
*D2
  1

  0
LINE
  5
1BCE
330
174F
100
AcDbEntity
  8
BEM
 62
     0
370
    -2
100
AcDbLine
 10
352.0726248212389
 20
348.8707569667543
 30
0.0
 11
374.6386410865687
 21
350.0533917664851
 31
0.0
  0
LINE
  5
1BCF
330
174F
100
AcDbEntity
  8
BEM
 62
     0
370
    -2
100
AcDbLine
 10
185.3014925172251
 20
507.1339451785125
 30
0.0
 11
185.3014925172253
 21
529.7276369216229
 31
0.0
  0
ARC
  5
1BD0
330
174F
100
AcDbEntity
  8
BEM
 62
     0
370
    -2
100
AcDbCircle
 10
185.3014925172251
 20
340.1306522741825
 30
0.0
 40
187.5969846474404
100
AcDbArc
 50
5.138060634126905
 51
87.86193936587308
  0
SOLID
  5
1BD1
330
174F
100
AcDbEntity
  8
BEM
 62
     0
100
AcDbTrace
 10
373.3083997874325
 20
357.0138595132782
 30
0.0
 11
370.9809481265651
 21
356.8482901599247
 31
0.0
 12
372.6413820170595
 22
349.9487198539992
 32
0.0
 13
372.6413820170595
 23
349.9487198539992
 33
0.0
  0
SOLID
  5
1BD2
330
174F
100
AcDbEntity
  8
BEM
 62
     0
100
AcDbTrace
 10
192.2785075972753
 20
526.4305742076937
 30
0.0
 11
192.3220406353037
 21
528.7635014073818
 31
0.0
 12
185.3014925172253
 22
527.7276369216228
 32
0.0
 13
185.3014925172253
 23
527.7276369216228
 33
0.0
  0
MTEXT
  5
1BD3
330
174F
100
AcDbEntity
  8
BEM
 62
     1
100
AcDbMText
 10
318.9090400276512
 20
480.9236304282012
 30
0.0
 40
7.0
 41
0.0
 71
     5
 72
     1
  1
\A1;87°
 11
0.7253743710122881
 21
-0.6883545756937536
 31
0.0
 73
     1
 44
1.0
  0
POINT
  5
1BD4
330
174F
100
AcDbEntity
  8
DEFPOINTS
 62
     0
100
AcDbPoint
 10
344.3927581921733
 20
439.5419083509219
 30
0.0
  0
POINT
  5
1BD5
330
174F
100
AcDbEntity
  8
DEFPOINTS
 62
     0
100
AcDbPoint
 10
185.301492517225
 20
505.1339451785124
 30
0.0
  0
POINT
  5
1BD6
330
174F
100
AcDbEntity
  8
DEFPOINTS
 62
     0
100
AcDbPoint
 10
350.0753657517297
 20
348.7660850542683
 30
0.0
  0
POINT
  5
1BD7
330
174F
100
AcDbEntity
  8
DEFPOINTS
 62
     0
100
AcDbPoint
 10
185.301492517225
 20
340.1306522741825
 30
0.0
  0
POINT
  5
1BD8
330
174F
100
AcDbEntity
  8
DEFPOINTS
 62
     0
100
AcDbPoint
 10
185.3014925172251
 20
195.1306522741827
 30
0.0
  0
ENDBLK
  5
175C
330
174F
100
AcDbEntity
  8
0
100
AcDbBlockEnd
  0
BLOCK
  5
1AC3
330
1AB9
100
AcDbEntity
  8
0
100
AcDbBlockBegin
  2
*D3
 70
     1
 10
0.0
 20
0.0
 30
0.0
  3
*D3
  1

  0
LINE
  5
1BD9
330
1AB9
100
AcDbEntity
  8
BEM
 62
     0
370
    -2
100
AcDbLine
 10
128.6417095985019
 20
500.1339451785126
 30
0.0
 11
86.95827667121564
 21
500.1339451785127
 31
0.0
  0
LINE
  5
1BDA
330
1AB9
100
AcDbEntity
  8
BEM
 62
     0
370
    -2
100
AcDbLine
 10
133.2014018254325
 20
200.1306522741827
 30
0.0
 11
86.95827667121557
 21
200.1306522741827
 31
0.0
  0
LINE
  5
1BDB
330
1AB9
100
AcDbEntity
  8
BEM
 62
     0
370
    -2
100
AcDbLine
 10
88.95827667121563
 20
493.1339451785127
 30
0.0
 11
88.95827667121556
 21
207.1306522741827
 31
0.0
  0
SOLID
  5
1BDC
330
1AB9
100
AcDbEntity
  8
BEM
 62
     0
100
AcDbTrace
 10
87.79161000454896
 20
493.1339451785127
 30
0.0
 11
90.12494333788231
 21
493.1339451785127
 31
0.0
 12
88.95827667121563
 22
500.1339451785127
 32
0.0
 13
88.95827667121563
 23
500.1339451785127
 33
0.0
  0
SOLID
  5
1BDD
330
1AB9
100
AcDbEntity
  8
BEM
 62
     0
100
AcDbTrace
 10
87.79161000454889
 20
207.1306522741827
 30
0.0
 11
90.12494333788223
 21
207.1306522741827
 31
0.0
 12
88.95827667121556
 22
200.1306522741827
 32
0.0
 13
88.95827667121556
 23
200.1306522741827
 33
0.0
  0
MTEXT
  5
1BDE
330
1AB9
100
AcDbEntity
  8
BEM
 62
     1
100
AcDbMText
 10
82.45827667121556
 20
350.1322987263477
 30
0.0
 40
7.0
 41
0.0
 71
     5
 72
     1
  1
\A1;300
 11
0.0000000000000001
 21
1.0
 31
0.0
 73
     1
 44
1.0
  0
POINT
  5
1BDF
330
1AB9
100
AcDbEntity
  8
DEFPOINTS
 62
     0
100
AcDbPoint
 10
130.6417095985019
 20
500.1339451785126
 30
0.0
  0
POINT
  5
1BE0
330
1AB9
100
AcDbEntity
  8
DEFPOINTS
 62
     0
100
AcDbPoint
 10
135.2014018254325
 20
200.1306522741827
 30
0.0
  0
POINT
  5
1BE1
330
1AB9
100
AcDbEntity
  8
DEFPOINTS
 62
     0
100
AcDbPoint
 10
88.95827667121556
 20
200.1306522741827
 30
0.0
  0
ENDBLK
  5
1AC4
330
1AB9
100
AcDbEntity
  8
0
100
AcDbBlockEnd
  0
BLOCK
  5
1ADD
330
1AD3
100
AcDbEntity
  8
0
100
AcDbBlockBegin
  2
*D4
 70
     1
 10
0.0
 20
0.0
 30
0.0
  3
*D4
  1

  0
LINE
  5
1BC5
330
1AD3
100
AcDbEntity
  8
BEM
 62
     0
370
    -2
100
AcDbLine
 10
185.4061644297109
 20
338.1333932046733
 30
0.0
 11
189.6370962306838
 21
257.4024051938571
 31
0.0
  0
LINE
  5
1BC6
330
1AD3
100
AcDbEntity
  8
BEM
 62
     0
370
    -2
100
AcDbLine
 10
348.047561997526
 20
291.9222726176337
 30
0.0
 11
349.4178217914156
 21
265.7761581927283
 31
0.0
  0
LINE
  5
1BC7
330
1AD3
100
AcDbEntity
  8
BEM
 62
     0
370
    -2
100
AcDbLine
 10
196.5228310614799
 20
259.7660159570668
 30
0.0
 11
342.3227431356476
 21
267.4070655685369
 31
0.0
  0
SOLID
  5
1BC8
330
1AD3
100
AcDbEntity
  8
BEM
 62
     0
100
AcDbTrace
 10
196.4617724458631
 20
260.9310837476138
 30
0.0
 11
196.5838896770967
 21
258.6009481665199
 31
0.0
 12
189.5324243181979
 22
259.3996642633662
 32
0.0
 13
189.5324243181979
 23
259.3996642633662
 33
0.0
  0
SOLID
  5
1BC9
330
1AD3
100
AcDbEntity
  8
BEM
 62
     0
100
AcDbTrace
 10
342.2616845200309
 20
268.5721333590838
 30
0.0
 11
342.3838017512644
 21
266.2419977779899
 31
0.0
 12
349.3131498789296
 22
267.7734172622375
 32
0.0
 13
349.3131498789296
 23
267.7734172622375
 33
0.0
  0
MTEXT
  5
1BCA
330
1AD3
100
AcDbEntity
  8
BEM
 62
     1
100
AcDbMText
 10
269.0826033829846
 20
270.0776327387065
 30
0.0
 40
7.0
 41
0.0
 71
     5
 72
     1
  1
\A1;160
 11
0.9986295347545738
 21
0.0523359562429453
 31
0.0
 73
     1
 44
1.0
  0
POINT
  5
1BCB
330
1AD3
100
AcDbEntity
  8
DEFPOINTS
 62
     0
100
AcDbPoint
 10
185.3014925172251
 20
340.1306522741825
 30
0.0
  0
POINT
  5
1BCC
330
1AD3
100
AcDbEntity
  8
DEFPOINTS
 62
     0
100
AcDbPoint
 10
347.9428900850401
 20
293.9195316871428
 30
0.0
  0
POINT
  5
1BCD
330
1AD3
100
AcDbEntity
  8
DEFPOINTS
 62
     0
100
AcDbPoint
 10
349.3131498789296
 20
267.7734172622375
 30
0.0
  0
ENDBLK
  5
1ADE
330
1AD3
100
AcDbEntity
  8
0
100
AcDbBlockEnd
  0
BLOCK
  5
1AF3
330
1AE9
100
AcDbEntity
  8
0
100
AcDbBlockBegin
  2
*D5
 70
     1
 10
0.0
 20
0.0
 30
0.0
  3
*D5
  1

  0
LINE
  5
1BBC
330
1AE9
100
AcDbEntity
  8
BEM
 62
     0
370
    -2
100
AcDbLine
 10
134.5014925172251
 20
206.1306522741827
 30
0.0
 11
134.5014925172251
 21
177.0407630211054
 31
0.0
  0
LINE
  5
1BBD
330
1AE9
100
AcDbEntity
  8
BEM
 62
     0
370
    -2
100
AcDbLine
 10
236.1014925172251
 20
206.1306522741822
 30
0.0
 11
236.1014925172251
 21
177.0407630211054
 31
0.0
  0
LINE
  5
1BBE
330
1AE9
100
AcDbEntity
  8
BEM
 62
     0
370
    -2
100
AcDbLine
 10
141.5014925172251
 20
179.0407630211054
 30
0.0
 11
229.1014925172251
 21
179.0407630211054
 31
0.0
  0
SOLID
  5
1BBF
330
1AE9
100
AcDbEntity
  8
BEM
 62
     0
100
AcDbTrace
 10
141.5014925172251
 20
180.2074296877721
 30
0.0
 11
141.5014925172251
 21
177.8740963544388
 31
0.0
 12
134.5014925172251
 22
179.0407630211054
 32
0.0
 13
134.5014925172251
 23
179.0407630211054
 33
0.0
  0
SOLID
  5
1BC0
330
1AE9
100
AcDbEntity
  8
BEM
 62
     0
100
AcDbTrace
 10
229.1014925172251
 20
180.2074296877721
 30
0.0
 11
229.1014925172251
 21
177.8740963544388
 31
0.0
 12
236.1014925172251
 22
179.0407630211054
 32
0.0
 13
236.1014925172251
 23
179.0407630211054
 33
0.0
  0
MTEXT
  5
1BC1
330
1AE9
100
AcDbEntity
  8
BEM
 62
     1
100
AcDbMText
 10
185.3014925172251
 20
185.5407630211054
 30
0.0
 40
7.0
 41
0.0
 71
     5
 72
     1
  1
\A1;%%c101.6
 73
     1
 44
1.0
  0
POINT
  5
1BC2
330
1AE9
100
AcDbEntity
  8
DEFPOINTS
 62
     0
100
AcDbPoint
 10
134.5014925172251
 20
208.1306522741827
 30
0.0
  0
POINT
  5
1BC3
330
1AE9
100
AcDbEntity
  8
DEFPOINTS
 62
     0
100
AcDbPoint
 10
236.1014925172251
 20
208.1306522741822
 30
0.0
  0
POINT
  5
1BC4
330
1AE9
100
AcDbEntity
  8
DEFPOINTS
 62
     0
100
AcDbPoint
 10
236.1014925172251
 20
179.0407630211054
 30
0.0
  0
ENDBLK
  5
1AF4
330
1AE9
100
AcDbEntity
  8
0
100
AcDbBlockEnd
  0
ENDSEC
  0
SECTION
  2
ENTITIES
  0
TEXT
  5
134
330
1E
100
AcDbEntity
  8
TEXT
100
AcDbText
 10
204.4216048581257
 20
63.0896391972351
 30
0.0
 40
4.0
  1
Koeh
 41
0.8
  7
GREEKS
 72
     1
 11
209.6787477152686
 21
63.0896391972351
 31
0.0
100
AcDbText
  0
INSERT
  5
135
330
1E
100
AcDbEntity
  8
STEMPEL
100
AcDbBlockReference
  2
LOGO
 10
150.9955485457794
 20
45.02105276448322
 30
0.0
 41
2.0
 42
2.0
 43
2.0
  0
LINE
  5
136
330
1E
100
AcDbEntity
  8
HILF
100
AcDbLine
 10
420.0
 20
0.0
 30
0.0
 11
0.0
 21
0.0
 31
0.0
  0
LINE
  5
137
330
1E
100
AcDbEntity
  8
HILF
100
AcDbLine
 10
419.9999999999999
 20
594.0000000000002
 30
0.0
 11
0.0
 21
594.0
 31
0.0
  0
LINE
  5
138
330
1E
100
AcDbEntity
  8
STEMPEL
100
AcDbLine
 10
410.0
 20
584.0
 30
0.0
 11
39.99999999999989
 21
584.0
 31
0.0
  0
LINE
  5
139
330
1E
100
AcDbEntity
  8
STEMPEL
100
AcDbLine
 10
410.0
 20
10.0
 30
0.0
 11
39.99999999999989
 21
10.0
 31
0.0
  0
LINE
  5
13A
330
1E
100
AcDbEntity
  8
STEMPEL
100
AcDbLine
 10
49.99999999999989
 20
10.0
 30
0.0
 11
410.0
 21
10.0
 31
0.0
  0
TEXT
  5
13B
330
1E
100
AcDbEntity
  8
TEXT
100
AcDbText
 10
202.4626584226295
 20
73.30961091915225
 30
0.0
 40
4.0
  1
Name
 41
0.8
  7
GREEKS
100
AcDbText
  0
TEXT
  5
13C
330
1E
100
AcDbEntity
  8
TEXT
100
AcDbText
 10
196.5498279101549
 20
102.6506227776589
 30
0.0
 40
5.0
  1
Zul. Abw.
 41
0.8
  7
GREEKS
 72
     4
 11
209.9783993387263
 21
105.1506227776589
 31
0.0
100
AcDbText
  0
LINE
  5
13D
330
1E
100
AcDbEntity
  8
HILF
100
AcDbLine
 10
146.0000000000001
 20
49.99999999999997
 30
0.0
 11
230.0
 21
49.99999999999997
 31
0.0
  0
LINE
  5
13E
330
1E
100
AcDbEntity
  8
HILF
100
AcDbLine
 10
146.0000000000001
 20
59.99999999999997
 30
0.0
 11
230.0
 21
59.99999999999997
 31
0.0
  0
LINE
  5
13F
330
1E
100
AcDbEntity
  8
HILF
100
AcDbLine
 10
146.0000000000001
 20
69.99999999999994
 30
0.0
 11
230.0
 21
69.99999999999994
 31
0.0
  0
LINE
  5
140
330
1E
100
AcDbEntity
  8
STEMPEL
100
AcDbLine
 10
410.0
 20
80.0
 30
0.0
 11
146.0000000000001
 21
79.99999999999994
 31
0.0
  0
LINE
  5
141
330
1E
100
AcDbEntity
  8
STEMPEL
100
AcDbLine
 10
410.0
 20
40.0
 30
0.0
 11
146.0000000000001
 21
39.99999999999997
 31
0.0
  0
LINE
  5
142
330
1E
100
AcDbEntity
  8
STEMPEL
100
AcDbLine
 10
410.0
 20
110.0
 30
0.0
 11
39.99999999999997
 21
110.0
 31
0.0
  0
LINE
  5
144
330
1E
100
AcDbEntity
  8
HILF
100
AcDbLine
 10
0.0
 20
0.0
 30
0.0
 11
-0.0000000000001137
 21
594.0
 31
0.0
  0
LINE
  5
145
330
1E
100
AcDbEntity
  8
STEMPEL
100
AcDbLine
 10
40.0
 20
10.0
 30
0.0
 11
39.99999999999989
 21
584.0
 31
0.0
  0
TEXT
  5
146
330
1E
100
AcDbEntity
  8
TEXT
100
AcDbText
 10
41.85509950977674
 20
111.6719999999999
 30
0.0
 40
5.0
  1
Erstellt mit AUTOCAD 2004
 41
0.8
  7
GREEKS
100
AcDbText
  0
TEXT
  5
147
330
1E
100
AcDbEntity
  8
TEXT
100
AcDbText
 10
67.93969678957707
 20
18.67381894984132
 30
0.0
 40
4.0
  1
Änderung
 41
0.8
  7
GREEKS
 72
     1
 11
78.68255393243422
 21
18.67381894984132
 31
0.0
100
AcDbText
  0
LINE
  5
148
330
1E
100
AcDbEntity
  8
HILF
100
AcDbLine
 10
40.00000000000008
 20
39.99999999999997
 30
0.0
 11
146.0000000000001
 21
39.99999999999997
 31
0.0
  0
LINE
  5
149
330
1E
100
AcDbEntity
  8
HILF
100
AcDbLine
 10
40.00000000000008
 20
49.99999999999997
 30
0.0
 11
146.0000000000001
 21
49.99999999999997
 31
0.0
  0
LINE
  5
14A
330
1E
100
AcDbEntity
  8
HILF
100
AcDbLine
 10
40.00000000000008
 20
59.99999999999997
 30
0.0
 11
146.0000000000001
 21
59.99999999999997
 31
0.0
  0
LINE
  5
14B
330
1E
100
AcDbEntity
  8
HILF
100
AcDbLine
 10
40.00000000000008
 20
69.99999999999994
 30
0.0
 11
146.0000000000001
 21
69.99999999999994
 31
0.0
  0
LINE
  5
14C
330
1E
100
AcDbEntity
  8
HILF
100
AcDbLine
 10
40.00000000000008
 20
79.99999999999994
 30
0.0
 11
146.0000000000001
 21
79.99999999999994
 31
0.0
  0
LINE
  5
14D
330
1E
100
AcDbEntity
  8
HILF
100
AcDbLine
 10
40.00000000000008
 20
90.00000000000005
 30
0.0
 11
146.0000000000001
 21
90.00000000000005
 31
0.0
  0
LINE
  5
14E
330
1E
100
AcDbEntity
  8
HILF
100
AcDbLine
 10
40.00000000000008
 20
100.0
 30
0.0
 11
146.0000000000001
 21
100.0
 31
0.0
  0
LINE
  5
14F
330
1E
100
AcDbEntity
  8
STEMPEL
100
AcDbLine
 10
145.9999999999999
 20
29.99999999999997
 30
0.0
 11
39.99999999999997
 21
29.99999999999997
 31
0.0
  0
TEXT
  5
150
330
1E
100
AcDbEntity
  8
TEXT
100
AcDbText
 10
48.26641107045756
 20
13.65465846027192
 30
0.0
 40
4.0
  1
Index
 50
90.0
 41
0.8
  7
GREEKS
100
AcDbText
  0
LINE
  5
151
330
1E
100
AcDbEntity
  8
VOLL
100
AcDbLine
 10
54.00000000000009
 20
110.0
 30
0.0
 11
53.99999999999997
 21
9.999999999999971
 31
0.0
  0
LINE
  5
152
330
1E
100
AcDbEntity
  8
HILF
100
AcDbLine
 10
31.08767135713856
 20
297.0
 30
0.0
 11
0.0000000000001137
 21
297.0
 31
0.0
  0
TEXT
  5
153
330
1E
100
AcDbEntity
  8
TEXT
100
AcDbText
 10
110.2820548933125
 20
18.6715626933981
 30
0.0
 40
4.0
  1
Tag
 41
0.8
  7
GREEKS
 72
     1
 11
114.0153882266458
 21
18.6715626933981
 31
0.0
100
AcDbText
  0
LINE
  5
154
330
1E
100
AcDbEntity
  8
VOLL
100
AcDbLine
 10
124.0000000000001
 20
109.9999999999999
 30
0.0
 11
124.0
 21
9.999999999999971
 31
0.0
  0
LINE
  5
155
330
1E
100
AcDbEntity
  8
VOLL
100
AcDbLine
 10
104.0000000000001
 20
109.9999999999999
 30
0.0
 11
104.0
 21
9.999999999999971
 31
0.0
  0
TEXT
  5
156
330
1E
100
AcDbEntity
  8
TEXT
100
AcDbText
 10
128.9001864118674
 20
18.59324216966408
 30
0.0
 40
4.0
  1
Name
 41
0.8
  7
GREEKS
 72
     1
 11
135.2239959356769
 21
18.59324216966408
 31
0.0
100
AcDbText
  0
LINE
  5
157
330
1E
100
AcDbEntity
  8
STEMPEL
100
AcDbLine
 10
146.0000000000001
 20
109.9999999999999
 30
0.0
 11
146.0
 21
9.999999999999971
 31
0.0
  0
TEXT
  5
158
330
1E
100
AcDbEntity
  8
TEXT
100
AcDbText
 10
170.7037590129979
 20
63.10765040825732
 30
0.0
 40
4.0
  1
14.04.
 41
0.8
  7
GREEKS
 72
     1
 11
177.4085209177598
 21
63.10765040825732
 31
0.0
100
AcDbText
  0
TEXT
  5
159
330
1E
100
AcDbEntity
  8
TEXT
100
AcDbText
 10
172.331167315365
 20
73.31880501229926
 30
0.0
 40
4.0
  1
Tag
 41
0.8
  7
GREEKS
100
AcDbText
  0
TEXT
  5
15A
330
1E
100
AcDbEntity
  8
TEXT
100
AcDbText
 10
147.5836127167615
 20
63.62990369617964
 30
0.0
 40
4.0
  1
Gez.
 41
0.8
  7
GREEKS
100
AcDbText
  0
LINE
  5
15B
330
1E
100
AcDbEntity
  8
VOLL
100
AcDbLine
 10
164.0000000000001
 20
79.99999999999994
 30
0.0
 11
164.0000000000001
 21
39.99999999999997
 31
0.0
  0
TEXT
  5
15C
330
1E
100
AcDbEntity
  8
TEXT
100
AcDbText
 10
147.6006777387303
 20
43.52946389649807
 30
0.0
 40
4.0
  1
Norm.
 41
0.8
  7
GREEKS
100
AcDbText
  0
TEXT
  5
15D
330
1E
100
AcDbEntity
  8
TEXT
100
AcDbText
 10
147.5515086571672
 20
53.68926291428377
 30
0.0
 40
4.0
  1
Gepr.
 41
0.8
  7
GREEKS
100
AcDbText
  0
TEXT
  5
15E
330
1E
100
AcDbEntity
  8
TEXT
 62
     1
100
AcDbText
 10
160.5006306481887
 20
88.14901428913959
 30
0.0
 40
7.0
  1
1:2
 41
0.8
  7
GREEKS
100
AcDbText
  0
TEXT
  5
15F
330
1E
100
AcDbEntity
  8
TEXT
100
AcDbText
 10
153.5163572150377
 20
102.4620895087088
 30
0.0
 40
5.0
  1
Maßstab
 41
0.8
  7
GREEKS
100
AcDbText
  0
TEXT
  5
160
330
1E
100
AcDbEntity
  8
TEXT
100
AcDbText
 10
148.622109822104
 20
73.14025471151666
 30
0.0
 40
4.0
  1
2011
 41
0.8
  7
GREEKS
100
AcDbText
  0
LINE
  5
161
330
1E
100
AcDbEntity
  8
VOLL
100
AcDbLine
 10
190.0000000000001
 20
109.9999999999998
 30
0.0
 11
190.0
 21
39.99999999999997
 31
0.0
  0
LINE
  5
186
330
1E
100
AcDbEntity
  8
HILF
100
AcDbLine
 10
420.0
 20
-0.0000000000001137
 30
0.0
 11
419.9999999999999
 21
594.0
 31
0.0
  0
LINE
  5
187
330
1E
100
AcDbEntity
  8
STEMPEL
100
AcDbLine
 10
410.0
 20
10.0
 30
0.0
 11
410.0
 21
584.0
 31
0.0
  0
TEXT
  5
188
330
1E
100
AcDbEntity
  8
TEXT
100
AcDbText
 10
337.2400861497006
 20
52.07416177878602
 30
0.0
 40
5.0
  1
ersetzt durch:
 41
0.8
  7
GREEKS
100
AcDbText
  0
TEXT
  5
189
330
1E
100
AcDbEntity
  8
TEXT
100
AcDbText
 10
336.7238616296993
 20
73.1811823709997
 30
0.0
 40
5.0
  1
Ersatz für:
 41
0.8
  7
GREEKS
100
AcDbText
  0
TEXT
  5
18A
330
1E
100
AcDbEntity
  8
TEXT
100
AcDbText
 10
336.178754957634
 20
102.3132034537136
 30
0.0
 40
5.0
  1
Zeichnungs Nr.
 41
0.8
  7
GREEKS
100
AcDbText
  0
LINE
  5
18B
330
1E
100
AcDbEntity
  8
HILF
100
AcDbLine
 10
233.4909699289885
 20
14.89398258028314
 30
0.0
 11
404.8588839326728
 21
14.89398258028314
 31
0.0
  0
LINE
  5
18C
330
1E
100
AcDbEntity
  8
HILF
100
AcDbLine
 10
336.7238616296993
 20
83.77983636955827
 30
0.0
 11
404.8588839326728
 21
83.77983636955827
 31
0.0
  0
LINE
  5
18D
330
1E
100
AcDbEntity
  8
VOLL
100
AcDbLine
 10
332.0
 20
60.0
 30
0.0
 11
410.0
 21
60.0
 31
0.0
  0
TEXT
  5
18E
330
1E
100
AcDbEntity
  8
TEXT
 62
     1
100
AcDbText
 10
234.9283864320014
 20
87.41748789253779
 30
0.0
 40
7.0
  1
Abzweig DN100/100
 41
0.8
  7
GREEKS
100
AcDbText
  0
LINE
  5
18F
330
1E
100
AcDbEntity
  8
HILF
100
AcDbLine
 10
234.7736801096947
 20
49.99999999999997
 30
0.0
 11
324.835391655631
 21
49.99999999999997
 31
0.0
  0
LINE
  5
190
330
1E
100
AcDbEntity
  8
HILF
100
AcDbLine
 10
234.7736801096947
 20
59.99999999999997
 30
0.0
 11
324.835391655631
 21
59.99999999999997
 31
0.0
  0
LINE
  5
191
330
1E
100
AcDbEntity
  8
HILF
100
AcDbLine
 10
234.7736801096947
 20
69.99999999999994
 30
0.0
 11
324.835391655631
 21
69.99999999999994
 31
0.0
  0
LINE
  5
192
330
1E
100
AcDbEntity
  8
HILF
100
AcDbLine
 10
234.7736801096947
 20
84.03758247564139
 30
0.0
 11
324.8353916556311
 21
84.03758247564139
 31
0.0
  0
LINE
  5
193
330
1E
100
AcDbEntity
  8
STEMPEL
100
AcDbLine
 10
230.0
 20
110.0
 30
0.0
 11
230.0
 21
9.999999999999971
 31
0.0
  0
TEXT
  5
194
330
1E
100
AcDbEntity
  8
TEXT
100
AcDbText
 10
235.1296391125315
 20
71.50334417585288
 30
0.0
 40
5.0
  1
dünnwandig 87° 
 41
0.8
  7
GREEKS
100
AcDbText
  0
TEXT
  5
195
330
1E
100
AcDbEntity
  8
TEXT
100
AcDbText
 10
234.9837501577827
 20
42.62974153022632
 30
0.0
 40
4.0
  1
4200DD0W.DWG
 41
0.8
  7
GREEKS
100
AcDbText
  0
TEXT
  5
196
330
1E
100
AcDbEntity
  8
TEXT
100
AcDbText
 10
234.742238391136
 20
30.84560570193057
 30
0.0
 40
5.0
  1
Bauvorhaben
 41
0.8
  7
GREEKS
100
AcDbText
  0
TEXT
  5
197
330
1E
100
AcDbEntity
  8
TEXT
100
AcDbText
 10
234.877940380901
 20
102.5489328011779
 30
0.0
 40
5.0
  1
Benennung
 41
0.8
  7
GREEKS
100
AcDbText
  0
LINE
  5
198
330
1E
100
AcDbEntity
  8
STEMPEL
100
AcDbLine
 10
332.0
 20
109.9999999999997
 30
0.0
 11
332.0
 21
40.0
 31
0.0
  0
TEXT
  5
19A
330
1E
100
AcDbEntity
  8
TEXT
 62
     1
100
AcDbText
 10
348.5982192151282
 20
88.14901428913959
 30
0.0
 40
7.0
  1
4200DD0W
 41
0.8
  7
GREEKS
 72
     1
 11
370.1982192151282
 21
88.14901428913959
 31
0.0
100
AcDbText
  0
TEXT
  5
212
330
1E
100
AcDbEntity
  8
TEXT
100
AcDbText
 10
235.1296391125315
 20
51.50334417585291
 30
0.0
 40
5.0
  1
EDV-Art.Nr. 4.200.DD0C
 41
0.8
  7
GREEKS
100
AcDbText
  0
TEXT
  5
255
330
1E
100
AcDbEntity
  8
TEXT
 62
     1
100
AcDbText
 10
297.0573649355706
 20
132.2248663682012
 30
0.0
 40
7.0
  1
Werkstoff: 1.4301
 41
0.8
  7
GREEKS
100
AcDbText
  0
LINE
  5
15D2
330
1E
100
AcDbEntity
  8
MITTEL
100
AcDbLine
 10
185.301492517225
 20
505.1339451785124
 30
0.0
 11
185.3014925172251
 21
195.1306522741826
 31
0.0
  0
LINE
  5
1606
330
1E
100
AcDbEntity
  8
STEMPEL
100
AcDbLine
 10
235.4015832090176
 20
200.1306522741822
 30
0.0
 11
135.2014018254325
 21
200.1306522741827
 31
0.0
  0
TEXT
  5
160F
330
1E
100
AcDbEntity
  8
TEXT
 62
     1
100
AcDbText
 10
175.4028766537478
 20
465.2711407426596
 30
0.0
 40
7.0
  1
DN100
 50
90.0
 41
0.8
  7
GREEKS
100
AcDbText
  0
TEXT
  5
16FA
330
1E
100
AcDbEntity
  8
TEXT
 62
     1
100
AcDbText
 10
309.2946108087302
 20
362.3007351371082
 30
0.0
 40
7.0
  1
DN100
 50
2.999999999999989
 41
0.8
  7
GREEKS
100
AcDbText
  0
LINE
  5
1702
330
1E
100
AcDbEntity
  8
MITTEL
100
AcDbLine
 10
350.0753657517297
 20
348.7660850542683
 30
0.0
 11
185.3014925172251
 21
340.1306522741824
 31
0.0
  0
DIMENSION
  5
170F
330
1E
100
AcDbEntity
  8
BEM
100
AcDbDimension
  2
*D1
 10
105.6767863415932
 20
340.1306522741825
 30
0.0
 11
99.17678634159319
 21
270.1306522741826
 31
0.0
 70
    32
 71
     5
 42
139.9999999999997
  3
Standard
100
AcDbAlignedDimension
 13
135.2014018254325
 23
200.1306522741827
 33
0.0
 14
185.3014925172251
 24
340.1306522741824
 34
0.0
 50
90.0
100
AcDbRotatedDimension
1001
ACAD
1000
DSTYLE
1002
{
1070
    40
1040
2.0
1070
    41
1040
3.5
1070
    42
1040
1.0
1070
    43
1040
7.0
1070
    44
1040
1.0
1070
    73
1070
     0
1070
    74
1070
     0
1070
    77
1070
     1
1070
    78
1070
     8
1070
    79
1070
     2
1070
   140
1040
3.5
1070
   141
1040
1.5
1070
   146
1040
0.5142857142857144
1070
   147
1040
1.5
1070
   172
1070
     1
1070
   178
1070
     1
1070
   179
1070
     2
1070
   271
1070
     2
1070
   272
1070
     2
1070
   284
1070
     8
1070
   285
1070
     8
1070
   286
1070
     8
1002
}
  0
DIMENSION
  5
174E
330
1E
100
AcDbEntity
  8
BEM
100
AcDbDimension
  2
*D2
 10
185.3014925172251
 20
195.1306522741826
 30
0.0
 11
318.9090400276512
 21
480.9236304282012
 31
0.0
 70
    34
 71
     5
 42
1.518436449235065
  3
Standard
100
AcDb2LineAngularDimension
 13
350.0753657517297
 23
348.7660850542683
 33
0.0
 14
185.3014925172251
 24
340.1306522741824
 34
0.0
 15
185.301492517225
 25
505.1339451785124
 35
0.0
 16
344.3927581921733
 26
439.5419083509219
 36
0.0
1001
ACAD
1000
DSTYLE
1002
{
1070
    40
1040
2.0
1070
    41
1040
3.5
1070
    42
1040
1.0
1070
    43
1040
7.0
1070
    44
1040
1.0
1070
    73
1070
     0
1070
    74
1070
     0
1070
    77
1070
     1
1070
    78
1070
     8
1070
    79
1070
     2
1070
   140
1040
3.5
1070
   141
1040
1.5
1070
   146
1040
0.5142857142857144
1070
   147
1040
1.5
1070
   172
1070
     1
1070
   178
1070
     1
1070
   179
1070
     2
1070
   271
1070
     2
1070
   272
1070
     2
1070
   284
1070
     8
1070
   285
1070
     8
1070
   286
1070
     8
1002
}
  0
TEXT
  5
1905
330
1E
100
AcDbEntity
  8
VOLL
100
AcDbText
 10
525.3664702311624
 20
212.4618221180262
 30
0.0
 40
1.8
  1

  7
GREEKS
100
AcDbText
  0
LINE
  5
1911
330
1E
100
AcDbEntity
  8
STEMPEL
100
AcDbLine
 10
347.9428900850398
 20
293.9195316871429
 30
0.0
 11
342.221546070874
 21
403.089278858964
 31
0.0
  0
LINE
  5
1914
102
{ACAD_REACTORS
330
1BA1
102
}
330
1E
100
AcDbEntity
  8
STEMPEL
100
AcDbLine
 10
267.9825835885708
 20
395.333499822625
 30
0.0
 11
236.1014925172251
 21
393.6626826384554
 31
0.0
  0
LINE
  5
1933
102
{ACAD_REACTORS
330
1BB3
102
}
330
1E
100
AcDbEntity
  8
STEMPEL
100
AcDbLine
 10
273.2999167428539
 20
293.8727390915602
 30
0.0
 11
236.1014925172251
 21
291.9232522850665
 31
0.0
  0
LINE
  5
1A80
330
1E
100
AcDbEntity
  8
STEMPEL
100
AcDbLine
 10
239.9612754359483
 20
500.1339451785124
 30
0.0
 11
130.6417095985019
 21
500.1339451785126
 31
0.0
  0
LINE
  5
1A83
330
1E
100
AcDbEntity
  8
STEMPEL
100
AcDbLine
 10
134.5014925172251
 20
425.5908185018723
 30
0.0
 11
134.5014925172251
 21
208.1306522741827
 31
0.0
  0
LINE
  5
1A8A
102
{ACAD_REACTORS
330
1BA1
102
}
330
1E
100
AcDbEntity
  8
STEMPEL
100
AcDbLine
 10
236.1014925172251
 20
425.5908185018724
 30
0.0
 11
236.101492517225
 21
393.6626826384554
 31
0.0
  0
LINE
  5
1AA1
330
1E
100
AcDbEntity
  8
HILF
100
AcDbLine
 10
234.8467177202957
 20
208.1306522741822
 30
0.0
 11
135.7562673141543
 21
208.1306522741827
 31
0.0
  0
LINE
  5
1AA2
330
1E
100
AcDbEntity
  8
STEMPEL
100
AcDbLine
 10
134.5014925172251
 20
208.1306522741827
 30
0.0
 11
135.2014018254325
 21
200.1306522741827
 31
0.0
  0
LINE
  5
1AA5
330
1E
100
AcDbEntity
  8
STEMPEL
100
AcDbLine
 10
236.101492517225
 20
208.1306522741834
 30
0.0
 11
235.4015832090176
 21
200.1306522741822
 31
0.0
  0
DIMENSION
  5
1AB8
330
1E
100
AcDbEntity
  8
BEM
100
AcDbDimension
  2
*D3
 10
88.95827667121556
 20
200.1306522741827
 30
0.0
 11
82.45827667121556
 21
350.1322987263477
 31
0.0
 70
    32
 71
     5
 42
300.00329290433
  3
Standard
100
AcDbAlignedDimension
 13
130.6417095985019
 23
500.1339451785126
 33
0.0
 14
135.2014018254325
 24
200.1306522741827
 34
0.0
 50
90.0
100
AcDbRotatedDimension
1001
ACAD
1000
DSTYLE
1002
{
1070
    40
1040
2.0
1070
    41
1040
3.5
1070
    42
1040
1.0
1070
    43
1040
7.0
1070
    44
1040
1.0
1070
    73
1070
     0
1070
    74
1070
     0
1070
    77
1070
     1
1070
    78
1070
     8
1070
    79
1070
     2
1070
   140
1040
3.5
1070
   141
1040
1.5
1070
   146
1040
0.5142857142857144
1070
   147
1040
1.5
1070
   172
1070
     1
1070
   178
1070
     1
1070
   179
1070
     2
1070
   271
1070
     2
1070
   272
1070
     2
1070
   284
1070
     8
1070
   285
1070
     8
1070
   286
1070
     8
1002
}
  0
LINE
  5
1ACE
102
{ACAD_REACTORS
330
1BB3
102
}
330
1E
100
AcDbEntity
  8
STEMPEL
100
AcDbLine
 10
236.101492517225
 20
291.9232522850666
 30
0.0
 11
236.1014925172251
 21
208.1306522741822
 31
0.0
  0
LINE
  5
1ACF
330
1E
100
AcDbEntity
  8
STEMPEL
100
AcDbLine
 10
236.101492517225
 20
393.6626826384554
 30
0.0
 11
185.3014925172251
 21
340.1306522741824
 31
0.0
  0
LINE
  5
1AD0
330
1E
100
AcDbEntity
  8
STEMPEL
100
AcDbLine
 10
185.3014925172251
 20
340.1306522741824
 30
0.0
 11
236.101492517225
 21
291.9232522850665
 31
0.0
  0
DIMENSION
  5
1AD2
330
1E
100
AcDbEntity
  8
BEM
100
AcDbDimension
  2
*D4
 10
349.3131498789296
 20
267.7734172622375
 30
0.0
 11
269.0826033829846
 21
270.0776327387065
 31
0.0
 70
    32
 71
     5
 42
159.9999999999999
 51
356.9999999999999
  3
Standard
100
AcDbAlignedDimension
 13
185.3014925172251
 23
340.1306522741824
 33
0.0
 14
347.9428900850401
 24
293.9195316871428
 34
0.0
 50
3.000000000000069
100
AcDbRotatedDimension
1001
ACAD
1000
DSTYLE
1002
{
1070
    40
1040
2.0
1070
    41
1040
3.5
1070
    42
1040
1.0
1070
    43
1040
7.0
1070
    44
1040
1.0
1070
    73
1070
     0
1070
    74
1070
     0
1070
    77
1070
     1
1070
    78
1070
     8
1070
    79
1070
     2
1070
   140
1040
3.5
1070
   141
1040
1.5
1070
   146
1040
0.5142857142857144
1070
   147
1040
1.5
1070
   172
1070
     1
1070
   178
1070
     1
1070
   179
1070
     2
1070
   271
1070
     2
1070
   272
1070
     2
1070
   284
1070
     8
1070
   285
1070
     8
1070
   286
1070
     8
1002
}
  0
DIMENSION
  5
1AE8
330
1E
100
AcDbEntity
  8
BEM
100
AcDbDimension
  2
*D5
 10
236.1014925172251
 20
179.0407630211054
 30
0.0
 11
185.3014925172251
 21
185.5407630211054
 31
0.0
 70
    32
  1
%%c<>
 71
     5
 42
101.5999999999999
  3
Standard
100
AcDbAlignedDimension
 13
134.5014925172251
 23
208.1306522741827
 33
0.0
 14
236.1014925172251
 24
208.1306522741822
 34
0.0
100
AcDbRotatedDimension
1001
ACAD
1000
DSTYLE
1002
{
1070
    40
1040
2.0
1070
    41
1040
3.5
1070
    42
1040
1.0
1070
    43
1040
7.0
1070
    44
1040
1.0
1070
    73
1070
     0
1070
    74
1070
     0
1070
    77
1070
     1
1070
    78
1070
     8
1070
    79
1070
     2
1070
   140
1040
3.5
1070
   141
1040
1.5
1070
   146
1040
0.5142857142857144
1070
   147
1040
1.5
1070
   172
1070
     1
1070
   178
1070
     1
1070
   179
1070
     2
1070
   271
1070
     2
1070
   272
1070
     2
1070
   284
1070
     8
1070
   285
1070
     8
1070
   286
1070
     8
1002
}
  0
ARC
  5
1B8C
330
1E
100
AcDbEntity
  8
SCHRAFF
100
AcDbCircle
 10
236.101492517225
 20
393.6626826384554
 30
0.0
 40
5.0
100
AcDbArc
 50
189.6301023541567
 51
263.3698976458441
  0
ARC
  5
1B8D
330
1E
100
AcDbEntity
  8
SCHRAFF
100
AcDbCircle
 10
232.6597196387563
 20
390.0358107833939
 30
0.0
 40
5.0
100
AcDbArc
 50
189.6301023541567
 51
263.3698976458441
  0
ARC
  5
1B8E
330
1E
100
AcDbEntity
  8
SCHRAFF
100
AcDbCircle
 10
229.2179467602875
 20
386.4089389283325
 30
0.0
 40
5.0
100
AcDbArc
 50
189.6301023541567
 51
263.3698976458441
  0
ARC
  5
1B8F
330
1E
100
AcDbEntity
  8
SCHRAFF
100
AcDbCircle
 10
225.7761738818187
 20
382.7820670732711
 30
0.0
 40
5.0
100
AcDbArc
 50
189.6301023541567
 51
263.3698976458441
  0
ARC
  5
1B90
330
1E
100
AcDbEntity
  8
SCHRAFF
100
AcDbCircle
 10
222.33440100335
 20
379.1551952182096
 30
0.0
 40
5.0
100
AcDbArc
 50
189.6301023541567
 51
263.3698976458441
  0
ARC
  5
1B91
330
1E
100
AcDbEntity
  8
SCHRAFF
100
AcDbCircle
 10
218.8926281248812
 20
375.5283233631482
 30
0.0
 40
5.0
100
AcDbArc
 50
189.6301023541567
 51
263.3698976458441
  0
ARC
  5
1B92
330
1E
100
AcDbEntity
  8
SCHRAFF
100
AcDbCircle
 10
215.4508552464124
 20
371.9014515080867
 30
0.0
 40
5.0
100
AcDbArc
 50
189.6301023541567
 51
263.3698976458441
  0
ARC
  5
1B93
330
1E
100
AcDbEntity
  8
SCHRAFF
100
AcDbCircle
 10
212.0090823679437
 20
368.2745796530253
 30
0.0
 40
5.0
100
AcDbArc
 50
189.6301023541567
 51
263.3698976458441
  0
ARC
  5
1B94
330
1E
100
AcDbEntity
  8
SCHRAFF
100
AcDbCircle
 10
208.567309489475
 20
364.6477077979639
 30
0.0
 40
5.0
100
AcDbArc
 50
189.6301023541567
 51
263.3698976458441
  0
ARC
  5
1B95
330
1E
100
AcDbEntity
  8
SCHRAFF
100
AcDbCircle
 10
205.1255366110062
 20
361.0208359429024
 30
0.0
 40
5.0
100
AcDbArc
 50
189.6301023541567
 51
263.3698976458441
  0
ARC
  5
1B96
330
1E
100
AcDbEntity
  8
SCHRAFF
100
AcDbCircle
 10
201.6837637325374
 20
357.393964087841
 30
0.0
 40
5.0
100
AcDbArc
 50
189.6301023541567
 51
263.3698976458441
  0
ARC
  5
1B97
330
1E
100
AcDbEntity
  8
SCHRAFF
100
AcDbCircle
 10
198.2419908540686
 20
353.7670922327795
 30
0.0
 40
5.0
100
AcDbArc
 50
189.6301023541567
 51
263.3698976458441
  0
ARC
  5
1B98
330
1E
100
AcDbEntity
  8
SCHRAFF
100
AcDbCircle
 10
194.8002179755999
 20
350.1402203777181
 30
0.0
 40
5.0
100
AcDbArc
 50
189.6301023541567
 51
263.3698976458441
  0
ARC
  5
1B99
330
1E
100
AcDbEntity
  8
SCHRAFF
100
AcDbCircle
 10
191.3584450971311
 20
346.5133485226567
 30
0.0
 40
5.0
100
AcDbArc
 50
189.6301023541567
 51
263.3698976458441
  0
ARC
  5
1B9A
102
{ACAD_REACTORS
330
1BA1
102
}
330
1E
100
AcDbEntity
  8
SCHRAFF
100
AcDbCircle
 10
235.0953283404536
 20
392.6024068262038
 30
0.0
 40
5.511120805260468
100
AcDbArc
 50
13.51947881420433
 51
79.4805211857965
  0
HATCH
  5
1BA1
330
1E
100
AcDbEntity
  8
SCHRAFF
100
AcDbHatch
 10
0.0
 20
0.0
 30
0.0
210
0.0
220
0.0
230
1.0
  2
_USER
 70
     0
 71
     1
 91
        1
 92
        7
 72
     1
 73
     1
 93
        3
 10
240.4537387432987
 20
393.8907741980569
 42
0.2960286046754532
 10
236.101492517225
 20
398.0209016522193
 42
0.0
 10
236.101492517225
 20
393.6626826384554
 42
0.0
 97
        3
330
1A8A
330
1914
330
1B9A
 75
     0
 76
     0
 52
0.0
 41
0.1
 77
     0
 78
     1
 53
0.0
 43
10.78589495746564
 44
3.592667698366085
 45
0.0
 46
0.1
 79
     0
 47
0.1397451285883482
 98
        1
 10
238.2876770947541
 20
395.0854945820861
  0
ARC
  5
1BA2
330
1E
100
AcDbEntity
  8
SCHRAFF
100
AcDbCircle
 10
236.101492517225
 20
291.9232522850665
 30
0.0
 40
5.0
100
AcDbArc
 50
99.63010235415639
 51
173.369897645844
  0
ARC
  5
1BA3
330
1E
100
AcDbEntity
  8
SCHRAFF
100
AcDbCircle
 10
232.4746206621636
 20
295.3650251635353
 30
0.0
 40
5.0
100
AcDbArc
 50
99.63010235415639
 51
173.369897645844
  0
ARC
  5
1BA4
330
1E
100
AcDbEntity
  8
SCHRAFF
100
AcDbCircle
 10
228.8477488071022
 20
298.8067980420041
 30
0.0
 40
5.0
100
AcDbArc
 50
99.63010235415639
 51
173.369897645844
  0
ARC
  5
1BA5
330
1E
100
AcDbEntity
  8
SCHRAFF
100
AcDbCircle
 10
225.2208769520407
 20
302.2485709204729
 30
0.0
 40
5.0
100
AcDbArc
 50
99.63010235415639
 51
173.369897645844
  0
ARC
  5
1BA6
330
1E
100
AcDbEntity
  8
SCHRAFF
100
AcDbCircle
 10
221.5940050969792
 20
305.6903437989416
 30
0.0
 40
5.0
100
AcDbArc
 50
99.63010235415639
 51
173.369897645844
  0
ARC
  5
1BA7
330
1E
100
AcDbEntity
  8
SCHRAFF
100
AcDbCircle
 10
217.9671332419179
 20
309.1321166774104
 30
0.0
 40
5.0
100
AcDbArc
 50
99.63010235415639
 51
173.369897645844
  0
ARC
  5
1BA8
330
1E
100
AcDbEntity
  8
SCHRAFF
100
AcDbCircle
 10
214.3402613868565
 20
312.5738895558792
 30
0.0
 40
5.0
100
AcDbArc
 50
99.63010235415639
 51
173.369897645844
  0
ARC
  5
1BA9
330
1E
100
AcDbEntity
  8
SCHRAFF
100
AcDbCircle
 10
210.713389531795
 20
316.0156624343479
 30
0.0
 40
5.0
100
AcDbArc
 50
99.63010235415639
 51
173.369897645844
  0
ARC
  5
1BAA
330
1E
100
AcDbEntity
  8
SCHRAFF
100
AcDbCircle
 10
207.0865176767336
 20
319.4574353128167
 30
0.0
 40
5.0
100
AcDbArc
 50
99.63010235415639
 51
173.369897645844
  0
ARC
  5
1BAB
330
1E
100
AcDbEntity
  8
SCHRAFF
100
AcDbCircle
 10
203.4596458216721
 20
322.8992081912855
 30
0.0
 40
5.0
100
AcDbArc
 50
99.63010235415639
 51
173.369897645844
  0
ARC
  5
1BAC
330
1E
100
AcDbEntity
  8
SCHRAFF
100
AcDbCircle
 10
199.8327739666107
 20
326.3409810697542
 30
0.0
 40
5.0
100
AcDbArc
 50
99.63010235415639
 51
173.369897645844
  0
ARC
  5
1BAD
330
1E
100
AcDbEntity
  8
SCHRAFF
100
AcDbCircle
 10
196.2059021115493
 20
329.782753948223
 30
0.0
 40
5.0
100
AcDbArc
 50
99.63010235415639
 51
173.369897645844
  0
ARC
  5
1BAE
330
1E
100
AcDbEntity
  8
SCHRAFF
100
AcDbCircle
 10
192.5790302564878
 20
333.2245268266918
 30
0.0
 40
5.0
100
AcDbArc
 50
99.63010235415639
 51
173.369897645844
  0
ARC
  5
1BAF
102
{ACAD_REACTORS
330
1BB3
102
}
330
1E
100
AcDbEntity
  8
SCHRAFF
100
AcDbCircle
 10
235.5159505565278
 20
292.478910858093
 30
0.0
 40
4.727853629087721
100
AcDbArc
 50
277.1143164775384
 51
355.8856835224616
  0
HATCH
  5
1BB3
330
1E
100
AcDbEntity
  8
SCHRAFF
100
AcDbHatch
 10
0.0
 20
0.0
 30
0.0
210
0.0
220
0.0
230
1.0
  2
_USER
 70
     0
 71
     1
 91
        1
 92
        7
 72
     1
 73
     1
 93
        3
 10
240.2316199713876
 20
292.1397030930951
 42
0.0
 10
236.101492517225
 20
291.9232522850665
 42
0.0
 10
236.101492517225
 20
287.7874568670214
 42
0.3579108920783041
 97
        3
330
1933
330
1ACE
330
1BAF
 75
     0
 76
     0
 52
0.0
 41
0.1
 77
     0
 78
     1
 53
0.0
 43
10.78589495746564
 44
3.592667698366085
 45
0.0
 46
0.1
 79
     0
 47
0.0541742822229053
 98
        1
 10
238.7249633049019
 20
290.8893387805342
  0
TEXT
  5
1BF4
330
1E
100
AcDbEntity
  8
TEXT
 62
     1
100
AcDbText
 10
370.1982192151282
 20
63.57571472249742
 30
0.0
 40
7.0
  1

 41
0.8
  7
GREEKS
 72
     1
 11
370.1982192151282
 21
63.57571472249742
 31
0.0
100
AcDbText
  0
TEXT
  5
1BF5
330
1E
100
AcDbEntity
  8
BEM
100
AcDbText
 10
416.5811541437437
 20
12.14804815338303
 30
0.0
 40
4.0
  1
Diese Zeichnung ist urheberrechtlich geschützt und bleibt unser Eigentum. Sie darf weder ganz noch teilweise vervielfältigt und nicht an Dritte weitergegeben werden.
 50
90.0
 41
0.8
  7
GREEKS
100
AcDbText
  0
TEXT
  5
1C10
330
1E
100
AcDbEntity
  8
TEXT
100
AcDbText
 10
192.6882715247924
 20
88.73450771838452
 30
0.0
 40
4.0
  1
DIN EN1124-3
 41
0.8
  7
GREEKS
 72
     1
 11
209.6787477152686
 21
88.73450771838452
 31
0.0
100
AcDbText
  0
LINE
  5
1C4C
330
1E
100
AcDbEntity
  8
HILF
100
AcDbLine
 10
303.3908299157785
 20
293.2267410656448
 30
0.0
 11
297.8411304097471
 21
399.121315916049
 31
0.0
  0
LINE
  5
1C4D
330
1E
100
AcDbEntity
  8
HILF
100
AcDbLine
 10
280.9229411003609
 20
292.9236488360489
 30
0.0
 11
275.4646412751262
 21
397.0742138839538
 31
0.0
  0
LINE
  5
1C4E
330
1E
100
AcDbEntity
  8
HILF
100
AcDbLine
 10
275.3757185136755
 20
294.9332316847074
 30
0.0
 11
270.1578655611655
 21
394.4957970880166
 31
0.0
  0
ARC
  5
1C51
330
1E
100
AcDbEntity
  8
STEMPEL
100
AcDbCircle
 10
331.1389000551543
 20
381.519914999771
 30
0.0
 40
24.2
100
AcDbArc
 50
62.73634805790013
 51
93.0
  0
LINE
  5
1C52
330
1E
100
AcDbEntity
  8
STEMPEL
100
AcDbLine
 10
294.8232109911545
 20
399.8444117719515
 30
0.0
 11
279.1198695095553
 21
399.0214345175776
 31
0.0
  0
ARC
  5
1C54
330
1E
100
AcDbEntity
  8
STEMPEL
100
AcDbCircle
 10
279.8630400882053
 20
384.8408951240626
 30
0.0
 40
14.2
100
AcDbArc
 50
93.0
 51
123.6429317629395
  0
ARC
  5
1C55
330
1E
100
AcDbEntity
  8
STEMPEL
100
AcDbCircle
 10
267.5638959386273
 20
403.3225361006613
 30
0.0
 40
8.0
100
AcDbArc
 50
272.9999999999999
 51
303.8595810906223
  0
LINE
  5
1C56
330
1E
100
AcDbEntity
  8
STEMPEL
100
AcDbLine
 10
329.872369914075
 20
405.6867497408318
 30
0.0
 11
311.3241354270921
 21
404.7146779617479
 31
0.0
  0
ARC
  5
1C57
330
1E
100
AcDbEntity
  8
STEMPEL
100
AcDbCircle
 10
312.5906655681714
 20
380.5478432206872
 30
0.0
 40
24.2
100
AcDbArc
 50
93.0
 51
119.8880476177246
  0
ARC
  5
1C58
330
1E
100
AcDbEntity
  8
STEMPEL
100
AcDbCircle
 10
294.1533107512448
 20
412.6268698168099
 30
0.0
 40
12.8
100
AcDbArc
 50
273.0
 51
299.8880476177246
  0
ARC
  5
1C5A
330
1E
100
AcDbEntity
  8
STEMPEL
100
AcDbCircle
 10
334.6663435059287
 20
314.2122843573128
 30
0.0
 40
24.2
100
AcDbArc
 50
273.0
 51
303.2636519420998
  0
ARC
  5
1C5B
330
1E
100
AcDbEntity
  8
STEMPEL
100
AcDbCircle
 10
316.1181090189458
 20
313.2402125782289
 30
0.0
 40
24.2
100
AcDbArc
 50
246.1119523822754
 51
273.0
  0
LINE
  5
1C5C
330
1E
100
AcDbEntity
  8
STEMPEL
100
AcDbLine
 10
300.4650270741439
 20
292.1921479254085
 30
0.0
 11
284.7616855925449
 21
291.3691706710346
 31
0.0
  0
ARC
  5
1C5E
330
1E
100
AcDbEntity
  8
STEMPEL
100
AcDbCircle
 10
284.0185150138951
 20
305.5497100645494
 30
0.0
 40
14.2
100
AcDbArc
 50
242.3570682370605
 51
273.0
  0
ARC
  5
1C5F
330
1E
100
AcDbEntity
  8
STEMPEL
100
AcDbCircle
 10
273.7186043927975
 20
285.8837028135236
 30
0.0
 40
8.0
100
AcDbArc
 50
62.14041890937775
 51
92.99999999999991
  0
ARC
  5
1C60
330
1E
100
AcDbEntity
  8
STEMPEL
100
AcDbCircle
 10
301.1349273140536
 20
279.4096898805498
 30
0.0
 40
12.8
100
AcDbArc
 50
66.11195238227537
 51
93.0
  0
LINE
  5
1C61
330
1E
100
AcDbEntity
  8
STEMPEL
100
AcDbLine
 10
335.932873647008
 20
290.0454496162522
 30
0.0
 11
317.3846391600251
 21
289.0733778371684
 31
0.0
  0
LINE
  5
1C62
330
1E
100
AcDbEntity
  8
STEMPEL
100
AcDbLine
 10
243.201492517225
 20
487.9376342608622
 30
0.0
 11
243.2014925172251
 21
469.3639451785126
 31
0.0
  0
ARC
  5
1C63
330
1E
100
AcDbEntity
  8
STEMPEL
100
AcDbCircle
 10
219.0014925172251
 20
469.3639451785125
 30
0.0
 40
24.2
100
AcDbArc
 50
333.1119523822754
 51
0.0
  0
ARC
  5
1C64
330
1E
100
AcDbEntity
  8
STEMPEL
100
AcDbCircle
 10
244.1014925172251
 20
425.5908185018723
 30
0.0
 40
8.0
100
AcDbArc
 50
149.357068237063
 51
180.0
  0
LINE
  5
1C65
330
1E
100
AcDbEntity
  8
STEMPEL
100
AcDbLine
 10
239.2014925172251
 20
452.6307446478311
 30
0.0
 11
239.2014925172251
 21
436.9058527483958
 31
0.0
  0
ARC
  5
1C66
330
1E
100
AcDbEntity
  8
STEMPEL
100
AcDbCircle
 10
225.0014925172251
 20
436.9058527483957
 30
0.0
 40
14.2
100
AcDbArc
 50
329.3570682370628
 51
0.0
  0
ARC
  5
1C67
330
1E
100
AcDbEntity
  8
STEMPEL
100
AcDbCircle
 10
252.0014925172251
 20
452.6307446478311
 30
0.0
 40
12.8
100
AcDbArc
 50
153.1119523822753
 51
180.0
  0
ARC
  5
1C68
330
1E
100
AcDbEntity
  8
STEMPEL
100
AcDbCircle
 10
219.0014925172251
 20
487.9376342608622
 30
0.0
 40
24.2
100
AcDbArc
 50
0.0
 51
30.26365194209988
  0
LINE
  5
1C69
330
1E
100
AcDbEntity
  8
STEMPEL
100
AcDbLine
 10
127.4014925172251
 20
487.9376342608621
 30
0.0
 11
127.4014925172251
 21
469.3639451785125
 31
0.0
  0
ARC
  5
1C6A
330
1E
100
AcDbEntity
  8
STEMPEL
100
AcDbCircle
 10
126.5014925172252
 20
425.5908185018723
 30
0.0
 40
8.0
100
AcDbArc
 50
0.0
 51
30.64293176293729
  0
ARC
  5
1C6B
330
1E
100
AcDbEntity
  8
STEMPEL
100
AcDbCircle
 10
151.6014925172251
 20
469.3639451785125
 30
0.0
 40
24.2
100
AcDbArc
 50
180.0
 51
206.8880476177246
  0
LINE
  5
1C6C
330
1E
100
AcDbEntity
  8
STEMPEL
100
AcDbLine
 10
131.4014925172251
 20
452.630744647831
 30
0.0
 11
131.4014925172251
 21
436.9058527483956
 31
0.0
  0
ARC
  5
1C6D
330
1E
100
AcDbEntity
  8
STEMPEL
100
AcDbCircle
 10
145.6014925172251
 20
436.9058527483956
 30
0.0
 40
14.2
100
AcDbArc
 50
180.0
 51
210.6429317629373
  0
ARC
  5
1C6E
330
1E
100
AcDbEntity
  8
STEMPEL
100
AcDbCircle
 10
118.6014925172251
 20
452.6307446478311
 30
0.0
 40
12.8
100
AcDbArc
 50
0.0
 51
26.88804761772463
  0
ARC
  5
1C6F
330
1E
100
AcDbEntity
  8
STEMPEL
100
AcDbCircle
 10
151.6014925172251
 20
487.9376342608621
 30
0.0
 40
24.2
100
AcDbArc
 50
149.7363480579001
 51
180.0
  0
LINE
  5
1C70
330
1E
100
AcDbEntity
  8
HILF
100
AcDbLine
 10
235.1510923629667
 20
427.7192773524616
 30
0.0
 11
135.4518926714835
 21
427.7192773524616
 31
0.0
  0
LINE
  5
1C71
330
1E
100
AcDbEntity
  8
HILF
100
AcDbLine
 10
237.4482403467399
 20
433.1537242233491
 30
0.0
 11
133.1547446877103
 21
433.1537242233491
 31
0.0
  0
LINE
  5
1C72
330
1E
100
AcDbEntity
  8
HILF
100
AcDbLine
 10
238.3214419404259
 20
455.6066841996728
 30
0.0
 11
132.2815430940242
 21
455.6066841996729
 31
0.0
  0
ENDSEC
  0
SECTION
  2
OBJECTS
  0
DICTIONARY
  5
C
330
0
100
AcDbDictionary
281
     1
  3
ACAD_COLOR
350
1790
  3
ACAD_GROUP
350
D
  3
ACAD_LAYOUT
350
19
  3
ACAD_MATERIAL
350
178F
  3
ACAD_MLINESTYLE
350
16
  3
ACAD_PLOTSETTINGS
350
18
  3
ACAD_PLOTSTYLENAME
350
E
  3
AcDbVariableDictionary
350
246
  0
DICTIONARY
  5
1790
102
{ACAD_REACTORS
330
C
102
}
330
C
100
AcDbDictionary
281
     1
  0
DICTIONARY
  5
D
102
{ACAD_REACTORS
330
C
102
}
330
C
100
AcDbDictionary
281
     1
  0
DICTIONARY
  5
19
102
{ACAD_REACTORS
330
C
102
}
330
C
100
AcDbDictionary
281
     1
  3
Layout1
350
1D
  3
Model
350
21
  0
DICTIONARY
  5
178F
102
{ACAD_REACTORS
330
C
102
}
330
C
100
AcDbDictionary
281
     1
  0
DICTIONARY
  5
16
102
{ACAD_REACTORS
330
C
102
}
330
C
100
AcDbDictionary
281
     1
  3
Standard
350
17
  0
DICTIONARY
  5
18
102
{ACAD_REACTORS
330
C
102
}
330
C
100
AcDbDictionary
281
     1
  0
ACDBDICTIONARYWDFLT
  5
E
102
{ACAD_REACTORS
330
C
102
}
330
C
100
AcDbDictionary
281
     1
  3
Normal
350
F
100
AcDbDictionaryWithDefault
340
F
  0
DICTIONARY
  5
246
102
{ACAD_REACTORS
330
C
102
}
330
C
100
AcDbDictionary
281
     1
  3
DIMASSOC
350
1C0C
  3
PROJECTNAME
350
1C0D
  3
SORTENTS
350
247
  0
LAYOUT
  5
1D
102
{ACAD_REACTORS
330
19
102
}
330
19
100
AcDbPlotSettings
  1

  2
Tektronix Phaser 740
  4

  6

 40
0.0
 41
0.0
 42
0.0
 43
0.0
 44
0.0
 45
0.0
 46
0.0
 47
0.0
 48
0.0
 49
0.0
140
0.0
141
0.0
142
1.0
143
1.0
 70
   688
 72
     0
 73
     0
 74
     5
  7
monochrome.ctb
 75
    16
147
1.0
 76
     0
 77
     2
 78
   300
148
0.0
149
0.0
100
AcDbLayout
  1
Layout1
 70
     0
 71
     1
 10
0.0
 20
0.0
 11
12.0
 21
9.0
 12
0.0
 22
0.0
 32
0.0
 14
1.000000000000000E+20
 24
1.000000000000000E+20
 34
1.000000000000000E+20
 15
-1.000000000000000E+20
 25
-1.000000000000000E+20
 35
-1.000000000000000E+20
146
0.0
 13
0.0
 23
0.0
 33
0.0
 16
1.0
 26
0.0
 36
0.0
 17
0.0
 27
1.0
 37
0.0
 76
     0
330
1A
  0
LAYOUT
  5
21
102
{ACAD_REACTORS
330
19
102
}
330
19
100
AcDbPlotSettings
  1

  2
Tektronix Phaser 740
  4
A4
  6

 40
5.873749732971191
 41
6.085414409637451
 42
5.577407836914062
 43
5.662078857421875
 44
209.9733276367187
 45
296.9683227539062
 46
0.0
 47
0.0
 48
0.0
 49
0.0
140
0.0
141
0.0
142
1.0
143
1.0
 70
 11952
 72
     0
 73
     1
 74
     0
  7
monochrome.ctb
 75
     0
147
1.0
 76
     0
 77
     2
 78
   300
148
1150.120678237584
149
45.30495740799864
100
AcDbLayout
  1
Model
 70
     1
 71
     0
 10
0.0
 20
0.0
 11
12.0
 21
9.0
 12
0.0
 22
0.0
 32
0.0
 14
0.0
 24
0.0
 34
0.0
 15
0.0
 25
0.0
 35
0.0
146
0.0
 13
0.0
 23
0.0
 33
0.0
 16
1.0
 26
0.0
 36
0.0
 17
0.0
 27
1.0
 37
0.0
 76
     0
330
1E
  0
MLINESTYLE
  5
17
102
{ACAD_REACTORS
330
16
102
}
330
16
100
AcDbMlineStyle
  2
STANDARD
 70
     0
  3

 62
   256
 51
90.0
 52
90.0
 71
     2
 49
0.5
 62
   256
  6
BYLAYER
 49
-0.5
 62
   256
  6
BYLAYER
  0
ACDBPLACEHOLDER
  5
F
102
{ACAD_REACTORS
330
E
102
}
330
E
  0
DICTIONARYVAR
  5
1C0C
102
{ACAD_REACTORS
330
246
102
}
330
246
100
DictionaryVariables
280
     0
  1
1
  0
DICTIONARYVAR
  5
1C0D
102
{ACAD_REACTORS
330
246
102
}
330
246
100
DictionaryVariables
280
     0
  1

  0
DICTIONARYVAR
  5
247
102
{ACAD_REACTORS
330
246
102
}
330
246
100
DictionaryVariables
280
     0
  1
96
  0
ENDSEC
  0
EOF
