  0
SECTION
  2
HEADER
  9
$ACADVER
  1
AC1018
  9
$ACADMAINTVER
 70
     2
  9
$DWGCODEPAGE
  3
ANSI_1252
  9
$INSBASE
 10
0.0
 20
0.0
 30
0.0
  9
$EXTMIN
 10
-0.0128036914306904
 20
-0.018108077881152
 30
-0.0000000000000095
  9
$EXTMAX
 10
420.0128242284961
 20
594.0181371231585
 30
0.0000000000000057
  9
$LIMMIN
 10
0.0
 20
0.0
  9
$LIMMAX
 10
419.9999999999999
 20
594.0
  9
$ORTHOMODE
 70
     1
  9
$REGENMODE
 70
     1
  9
$FILLMODE
 70
     1
  9
$QTEXTMODE
 70
     0
  9
$MIRRTEXT
 70
     1
  9
$LTSCALE
 40
20.0
  9
$ATTMODE
 70
     1
  9
$TEXTSIZE
 40
3.5
  9
$TRACEWID
 40
0.5
  9
$TEXTSTYLE
  7
STANDARD
  9
$CLAYER
  8
BEM
  9
$CELTYPE
  6
ByLayer
  9
$CECOLOR
 62
   256
  9
$CELTSCALE
 40
1.0
  9
$DISPSILH
 70
     0
  9
$DIMSCALE
 40
2.0
  9
$DIMASZ
 40
3.5
  9
$DIMEXO
 40
1.0
  9
$DIMDLI
 40
7.0
  9
$DIMRND
 40
0.0
  9
$DIMDLE
 40
0.0
  9
$DIMEXE
 40
1.0
  9
$DIMTP
 40
0.0
  9
$DIMTM
 40
0.0
  9
$DIMTXT
 40
3.5
  9
$DIMCEN
 40
1.5
  9
$DIMTSZ
 40
0.0
  9
$DIMTOL
 70
     0
  9
$DIMLIM
 70
     0
  9
$DIMTIH
 70
     0
  9
$DIMTOH
 70
     0
  9
$DIMSE1
 70
     0
  9
$DIMSE2
 70
     0
  9
$DIMTAD
 70
     1
  9
$DIMZIN
 70
     8
  9
$DIMBLK
  1

  9
$DIMASO
 70
     1
  9
$DIMSHO
 70
     0
  9
$DIMPOST
  1

  9
$DIMAPOST
  1

  9
$DIMALT
 70
     0
  9
$DIMALTD
 70
     2
  9
$DIMALTF
 40
25.4
  9
$DIMLFAC
 40
1.0
  9
$DIMTOFL
 70
     1
  9
$DIMTVP
 40
0.0
  9
$DIMTIX
 70
     0
  9
$DIMSOXD
 70
     0
  9
$DIMSAH
 70
     0
  9
$DIMBLK1
  1

  9
$DIMBLK2
  1

  9
$DIMSTYLE
  2
Standard
  9
$DIMCLRD
 70
     0
  9
$DIMCLRE
 70
     0
  9
$DIMCLRT
 70
     1
  9
$DIMTFAC
 40
0.5142857142857144
  9
$DIMGAP
 40
1.5
  9
$DIMJUST
 70
     0
  9
$DIMSD1
 70
     0
  9
$DIMSD2
 70
     0
  9
$DIMTOLJ
 70
     1
  9
$DIMTZIN
 70
     8
  9
$DIMALTZ
 70
     8
  9
$DIMALTTZ
 70
     8
  9
$DIMUPT
 70
     0
  9
$DIMDEC
 70
     2
  9
$DIMTDEC
 70
     2
  9
$DIMALTU
 70
     2
  9
$DIMALTTD
 70
     2
  9
$DIMTXSTY
  7
STANDARD
  9
$DIMAUNIT
 70
     0
  9
$DIMADEC
 70
     2
  9
$DIMALTRND
 40
0.0
  9
$DIMAZIN
 70
     2
  9
$DIMDSEP
 70
    46
  9
$DIMATFIT
 70
     3
  9
$DIMFRAC
 70
     0
  9
$DIMLDRBLK
  1

  9
$DIMLUNIT
 70
     2
  9
$DIMLWD
 70
    -2
  9
$DIMLWE
 70
    -2
  9
$DIMTMOVE
 70
     0
  9
$LUNITS
 70
     2
  9
$LUPREC
 70
     2
  9
$SKETCHINC
 40
1.0
  9
$FILLETRAD
 40
0.0
  9
$AUNITS
 70
     1
  9
$AUPREC
 70
     3
  9
$MENU
  1
ACAD
  9
$ELEVATION
 40
0.0
  9
$PELEVATION
 40
0.0
  9
$THICKNESS
 40
0.0
  9
$LIMCHECK
 70
     0
  9
$CHAMFERA
 40
0.0
  9
$CHAMFERB
 40
0.0
  9
$CHAMFERC
 40
0.0
  9
$CHAMFERD
 40
0.0
  9
$SKPOLY
 70
     0
  9
$TDCREATE
 40
2452040.637099653
  9
$TDUCREATE
 40
2452040.553766320
  9
$TDUPDATE
 40
2455667.325074074
  9
$TDUUPDATE
 40
2455667.241740741
  9
$TDINDWG
 40
0.2146781713
  9
$TDUSRTIMER
 40
0.2146781713
  9
$USRTIMER
 70
     1
  9
$ANGBASE
 50
0.0
  9
$ANGDIR
 70
     0
  9
$PDMODE
 70
     0
  9
$PDSIZE
 40
0.0
  9
$PLINEWID
 40
0.0
  9
$SPLFRAME
 70
     0
  9
$SPLINETYPE
 70
     6
  9
$SPLINESEGS
 70
     8
  9
$HANDSEED
  5
1242
  9
$SURFTAB1
 70
     6
  9
$SURFTAB2
 70
     6
  9
$SURFTYPE
 70
     6
  9
$SURFU
 70
     6
  9
$SURFV
 70
     6
  9
$UCSBASE
  2

  9
$UCSNAME
  2

  9
$UCSORG
 10
0.0
 20
0.0
 30
0.0
  9
$UCSXDIR
 10
1.0
 20
0.0
 30
0.0
  9
$UCSYDIR
 10
0.0
 20
1.0
 30
0.0
  9
$UCSORTHOREF
  2

  9
$UCSORTHOVIEW
 70
     0
  9
$UCSORGTOP
 10
0.0
 20
0.0
 30
0.0
  9
$UCSORGBOTTOM
 10
0.0
 20
0.0
 30
0.0
  9
$UCSORGLEFT
 10
0.0
 20
0.0
 30
0.0
  9
$UCSORGRIGHT
 10
0.0
 20
0.0
 30
0.0
  9
$UCSORGFRONT
 10
0.0
 20
0.0
 30
0.0
  9
$UCSORGBACK
 10
0.0
 20
0.0
 30
0.0
  9
$PUCSBASE
  2

  9
$PUCSNAME
  2

  9
$PUCSORG
 10
0.0
 20
0.0
 30
0.0
  9
$PUCSXDIR
 10
1.0
 20
0.0
 30
0.0
  9
$PUCSYDIR
 10
0.0
 20
1.0
 30
0.0
  9
$PUCSORTHOREF
  2

  9
$PUCSORTHOVIEW
 70
     0
  9
$PUCSORGTOP
 10
0.0
 20
0.0
 30
0.0
  9
$PUCSORGBOTTOM
 10
0.0
 20
0.0
 30
0.0
  9
$PUCSORGLEFT
 10
0.0
 20
0.0
 30
0.0
  9
$PUCSORGRIGHT
 10
0.0
 20
0.0
 30
0.0
  9
$PUCSORGFRONT
 10
0.0
 20
0.0
 30
0.0
  9
$PUCSORGBACK
 10
0.0
 20
0.0
 30
0.0
  9
$USERI1
 70
     0
  9
$USERI2
 70
     0
  9
$USERI3
 70
     0
  9
$USERI4
 70
     0
  9
$USERI5
 70
     0
  9
$USERR1
 40
0.0
  9
$USERR2
 40
0.0
  9
$USERR3
 40
0.0
  9
$USERR4
 40
0.0
  9
$USERR5
 40
0.0
  9
$WORLDVIEW
 70
     1
  9
$SHADEDGE
 70
     3
  9
$SHADEDIF
 70
    70
  9
$TILEMODE
 70
     1
  9
$MAXACTVP
 70
    16
  9
$PINSBASE
 10
0.0
 20
0.0
 30
0.0
  9
$PLIMCHECK
 70
     0
  9
$PEXTMIN
 10
1.000000000000000E+20
 20
1.000000000000000E+20
 30
1.000000000000000E+20
  9
$PEXTMAX
 10
-1.000000000000000E+20
 20
-1.000000000000000E+20
 30
-1.000000000000000E+20
  9
$PLIMMIN
 10
0.0
 20
0.0
  9
$PLIMMAX
 10
12.0
 20
9.0
  9
$UNITMODE
 70
     0
  9
$VISRETAIN
 70
     0
  9
$PLINEGEN
 70
     0
  9
$PSLTSCALE
 70
     0
  9
$TREEDEPTH
 70
  3020
  9
$CMLSTYLE
  2
Standard
  9
$CMLJUST
 70
     0
  9
$CMLSCALE
 40
1.0
  9
$PROXYGRAPHICS
 70
     1
  9
$MEASUREMENT
 70
     0
  9
$CELWEIGHT
370
    -1
  9
$ENDCAPS
280
     0
  9
$JOINSTYLE
280
     0
  9
$LWDISPLAY
290
     0
  9
$INSUNITS
 70
     0
  9
$HYPERLINKBASE
  1

  9
$STYLESHEET
  1
monochrome 1.ctb
  9
$XEDIT
290
     1
  9
$CEPSNTYPE
380
     0
  9
$PSTYLEMODE
290
     1
  9
$FINGERPRINTGUID
  2
{7AADB5C8-6110-11D8-B72B-000102183313}
  9
$VERSIONGUID
  2
{690FA7E0-A224-48EA-9F5F-ED0772C23583}
  9
$EXTNAMES
290
     1
  9
$PSVPSCALE
 40
0.0
  9
$OLESTARTUP
290
     0
  9
$SORTENTS
280
    96
  9
$INDEXCTL
280
     0
  9
$HIDETEXT
280
     0
  9
$XCLIPFRAME
290
     0
  9
$HALOGAP
280
     0
  9
$OBSCOLOR
 70
   257
  9
$OBSLTYPE
280
     0
  9
$INTERSECTIONDISPLAY
280
     0
  9
$INTERSECTIONCOLOR
 70
   257
  9
$DIMASSOC
280
     1
  9
$PROJECTNAME
  1

  0
ENDSEC
  0
SECTION
  2
CLASSES
  0
CLASS
  1
ACDBDICTIONARYWDFLT
  2
AcDbDictionaryWithDefault
  3
ObjectDBX Classes
 90
        0
 91
        1
280
     0
281
     0
  0
CLASS
  1
DICTIONARYVAR
  2
AcDbDictionaryVar
  3
ObjectDBX Classes
 90
        0
 91
        3
280
     0
281
     0
  0
ENDSEC
  0
SECTION
  2
TABLES
  0
TABLE
  2
VPORT
  5
8
330
0
100
AcDbSymbolTable
 70
     3
  0
VPORT
  5
1241
330
8
100
AcDbSymbolTableRecord
100
AcDbViewportTableRecord
  2
*Active
 70
     0
 10
0.0
 20
0.0
 11
1.0
 21
1.0
 12
210.0
 22
297.0
 13
0.0
 23
0.0
 14
1.0
 24
1.0
 15
10.0
 25
10.0
 16
0.0
 26
0.0
 36
1.0
 17
0.0
 27
0.0
 37
0.0
 40
594.0
 41
1.334231805929919
 42
50.0
 43
0.0
 44
0.0
 50
0.0
 51
0.0
 71
     0
 72
  1500
 73
     1
 74
     0
 75
     0
 76
     0
 77
     0
 78
     0
281
     0
 65
     1
110
0.0
120
0.0
130
0.0
111
1.0
121
0.0
131
0.0
112
0.0
122
1.0
132
0.0
 79
     0
146
0.0
  0
ENDTAB
  0
TABLE
  2
LTYPE
  5
5
330
0
100
AcDbSymbolTable
 70
     2
  0
LTYPE
  5
13
330
5
100
AcDbSymbolTableRecord
100
AcDbLinetypeTableRecord
  2
ByBlock
 70
     0
  3

 72
    65
 73
     0
 40
0.0
  0
LTYPE
  5
14
330
5
100
AcDbSymbolTableRecord
100
AcDbLinetypeTableRecord
  2
ByLayer
 70
     0
  3

 72
    65
 73
     0
 40
0.0
  0
LTYPE
  5
15
330
5
100
AcDbSymbolTableRecord
100
AcDbLinetypeTableRecord
  2
Continuous
 70
     0
  3
Solid line
 72
    65
 73
     0
 40
0.0
  0
LTYPE
  5
35
330
5
100
AcDbSymbolTableRecord
100
AcDbLinetypeTableRecord
  2
STRICHPUNKT
 70
     0
  3
__ . __ . __ . __ . __ . __ . __ . __ . __ . __
 72
    65
 73
     4
 40
1.0
 49
0.5
 74
     0
 49
-0.25
 74
     0
 49
0.0
 74
     0
 49
-0.25
 74
     0
  0
ENDTAB
  0
TABLE
  2
LAYER
  5
2
330
0
100
AcDbSymbolTable
 70
     9
  0
LAYER
  5
10
330
2
100
AcDbSymbolTableRecord
100
AcDbLayerTableRecord
  2
0
 70
     0
 62
     7
  6
Continuous
370
    -3
390
F
  0
LAYER
  5
38
330
2
100
AcDbSymbolTableRecord
100
AcDbLayerTableRecord
  2
VOLL
 70
     0
 62
     1
  6
Continuous
370
    -3
390
F
  0
LAYER
  5
39
330
2
100
AcDbSymbolTableRecord
100
AcDbLayerTableRecord
  2
HILF
 70
     0
 62
     2
  6
Continuous
370
    -3
390
F
  0
LAYER
  5
3A
330
2
100
AcDbSymbolTableRecord
100
AcDbLayerTableRecord
  2
MITTEL
 70
     0
 62
     2
  6
STRICHPUNKT
370
    -3
390
F
  0
LAYER
  5
3B
330
2
100
AcDbSymbolTableRecord
100
AcDbLayerTableRecord
  2
BEM
 70
     0
 62
     7
  6
Continuous
370
    -3
390
F
  0
LAYER
  5
3C
330
2
100
AcDbSymbolTableRecord
100
AcDbLayerTableRecord
  2
STEMPEL
 70
     0
 62
     3
  6
Continuous
370
    -3
390
F
  0
LAYER
  5
3D
330
2
100
AcDbSymbolTableRecord
100
AcDbLayerTableRecord
  2
TEXT
 70
     0
 62
     7
  6
Continuous
370
    -3
390
F
  0
LAYER
  5
3E
330
2
100
AcDbSymbolTableRecord
100
AcDbLayerTableRecord
  2
DEFPOINTS
 70
     0
 62
     7
  6
Continuous
290
     0
370
    -3
390
F
  0
ENDTAB
  0
TABLE
  2
STYLE
  5
3
330
0
100
AcDbSymbolTable
 70
     2
  0
STYLE
  5
11
330
3
100
AcDbSymbolTableRecord
100
AcDbTextStyleTableRecord
  2
STANDARD
 70
     0
 40
0.0
 41
0.8
 50
0.0
 71
     0
 42
3.5
  3
simplex.shx
  4

  0
STYLE
  5
34
330
3
100
AcDbSymbolTableRecord
100
AcDbTextStyleTableRecord
  2
GREEKS
 70
     0
 40
0.0
 41
0.8
 50
0.0
 71
     0
 42
2.5
  3
SIMPLEX.shx
  4

  0
ENDTAB
  0
TABLE
  2
VIEW
  5
6
330
0
100
AcDbSymbolTable
 70
     0
  0
ENDTAB
  0
TABLE
  2
UCS
  5
7
330
0
100
AcDbSymbolTable
 70
     0
  0
ENDTAB
  0
TABLE
  2
APPID
  5
9
330
0
100
AcDbSymbolTable
 70
     1
  0
APPID
  5
12
330
9
100
AcDbSymbolTableRecord
100
AcDbRegAppTableRecord
  2
ACAD
 70
     0
  0
ENDTAB
  0
TABLE
  2
DIMSTYLE
  5
A
330
0
100
AcDbSymbolTable
 70
     1
100
AcDbDimStyleTable
 71
     1
340
1CB
  0
DIMSTYLE
105
1CB
102
{ACAD_REACTORS
330
1085
330
107C
102
}
330
A
100
AcDbSymbolTableRecord
100
AcDbDimStyleTableRecord
  2
Standard
 70
     0
340
11
  0
ENDTAB
  0
TABLE
  2
BLOCK_RECORD
  5
1
330
0
100
AcDbSymbolTable
 70
     4
  0
BLOCK_RECORD
  5
1E
330
1
100
AcDbSymbolTableRecord
100
AcDbBlockTableRecord
  2
*Model_Space
340
21
  0
BLOCK_RECORD
  5
1A
330
1
100
AcDbSymbolTableRecord
100
AcDbBlockTableRecord
  2
*Paper_Space
340
1D
  0
BLOCK_RECORD
  5
22
330
1
100
AcDbSymbolTableRecord
100
AcDbBlockTableRecord
  2
LOGO
340
0
102
{BLKREFS
331
135
102
}
  0
BLOCK_RECORD
  5
1087
330
1
100
AcDbSymbolTableRecord
100
AcDbBlockTableRecord
  2
*D1
340
0
  0
BLOCK_RECORD
  5
1093
330
1
100
AcDbSymbolTableRecord
100
AcDbBlockTableRecord
  2
*D2
340
0
  0
ENDTAB
  0
ENDSEC
  0
SECTION
  2
BLOCKS
  0
BLOCK
  5
43
330
1E
100
AcDbEntity
  8
0
100
AcDbBlockBegin
  2
*Model_Space
 70
     0
 10
0.0
 20
0.0
 30
0.0
  3
*Model_Space
  1

  0
ENDBLK
  5
44
330
1E
100
AcDbEntity
  8
0
100
AcDbBlockEnd
  0
BLOCK
  5
41
330
1A
100
AcDbEntity
 67
     1
  8
0
100
AcDbBlockBegin
  2
*Paper_Space
 70
     0
 10
0.0
 20
0.0
 30
0.0
  3
*Paper_Space
  1

  0
ENDBLK
  5
42
330
1A
100
AcDbEntity
 67
     1
  8
0
100
AcDbBlockEnd
  0
BLOCK
  5
45
330
22
100
AcDbEntity
  8
0
100
AcDbBlockBegin
  2
LOGO
 70
     0
 10
0.0
 20
0.0
 30
0.0
  3
LOGO
  1

  0
ARC
  5
46
330
22
100
AcDbEntity
  8
0
100
AcDbCircle
 10
11.59973089678112
 20
-9.271599258481501
 30
0.0
 40
4.5
100
AcDbArc
 50
270.0
 51
231.0575587310159
  0
LINE
  5
47
330
22
100
AcDbEntity
  8
0
100
AcDbLine
 10
3.599730896781125
 20
-4.771599258481529
 30
0.0
 11
3.599730896781153
 21
-11.77159925848133
 31
0.0
  0
LINE
  5
48
330
22
100
AcDbEntity
  8
0
100
AcDbLine
 10
2.599730896781125
 20
-4.771599258481529
 30
0.0
 11
2.599730896781153
 21
-11.77159925848133
 31
0.0
  0
CIRCLE
  5
49
330
22
100
AcDbEntity
  8
0
100
AcDbCircle
 10
11.59973089678112
 20
-9.271599258481501
 30
0.0
 40
3.5
  0
ARC
  5
4A
330
22
100
AcDbEntity
  8
0
100
AcDbCircle
 10
31.59973089678115
 20
-9.271599258481472
 30
0.0
 40
4.5
100
AcDbArc
 50
270.0
 51
231.0575587310182
  0
LINE
  5
4B
330
22
100
AcDbEntity
  8
0
100
AcDbLine
 10
17.59973089678112
 20
-4.771599258481472
 30
0.0
 11
17.59973089678115
 21
-13.77159925848147
 31
0.0
  0
ARC
  5
4C
330
22
100
AcDbEntity
  8
0
100
AcDbCircle
 10
22.59973089678116
 20
-7.271599258481472
 30
0.0
 40
2.5
100
AcDbArc
 50
293.1161887722295
 51
90.0
  0
CIRCLE
  5
4D
330
22
100
AcDbEntity
  8
0
100
AcDbCircle
 10
31.59973089678115
 20
-9.271599258481472
 30
0.0
 40
3.5
  0
ARC
  5
4E
330
22
100
AcDbEntity
  8
0
100
AcDbCircle
 10
4.599730896781153
 20
-11.77159925848133
 30
0.0
 40
1.0
100
AcDbArc
 50
180.0
 51
270.0
  0
ARC
  5
4F
330
22
100
AcDbEntity
  8
0
100
AcDbCircle
 10
4.599730896781153
 20
-11.77159925848133
 30
0.0
 40
2.0
100
AcDbArc
 50
179.9999999999992
 51
270.0
  0
LINE
  5
50
330
22
100
AcDbEntity
  8
0
100
AcDbLine
 10
11.59973089678115
 20
-13.77159925848144
 30
0.0
 11
4.599730896781153
 21
-13.77159925848147
 31
0.0
  0
LINE
  5
51
330
22
100
AcDbEntity
  8
0
100
AcDbLine
 10
8.771303772034769
 20
-12.77159925848136
 30
0.0
 11
4.599730896781153
 21
-12.77159925848133
 31
0.0
  0
LINE
  5
52
330
22
100
AcDbEntity
  8
0
100
AcDbLine
 10
31.59973089678115
 20
-13.77159925848147
 30
0.0
 11
23.6715276665056
 21
-13.77159925848144
 31
0.0
  0
LINE
  5
53
330
22
100
AcDbEntity
  8
0
100
AcDbLine
 10
23.56565672307022
 20
-9.51278021337896
 30
0.0
 11
24.4388546544846
 21
-12.77159925848144
 31
0.0
  0
LINE
  5
54
330
22
100
AcDbEntity
  8
0
100
AcDbLine
 10
22.59973089678116
 20
-9.771599258481472
 30
0.0
 11
18.59973089678112
 21
-9.771599258481472
 31
0.0
  0
LINE
  5
55
330
22
100
AcDbEntity
  8
0
100
AcDbLine
 10
18.59973089678115
 20
-13.77159925848144
 30
0.0
 11
17.59973089678115
 21
-13.77159925848144
 31
0.0
  0
LINE
  5
56
330
22
100
AcDbEntity
  8
0
100
AcDbLine
 10
18.59973089678115
 20
-9.771599258481472
 30
0.0
 11
18.59973089678115
 21
-13.77159925848144
 31
0.0
  0
LINE
  5
57
330
22
100
AcDbEntity
  8
0
100
AcDbLine
 10
22.59973089678116
 20
-9.771599258481472
 30
0.0
 11
23.67152766650562
 21
-13.77159925848147
 31
0.0
  0
ARC
  5
58
330
22
100
AcDbEntity
  8
0
100
AcDbCircle
 10
22.59973089678116
 20
-7.271599258481472
 30
0.0
 40
2.5
100
AcDbArc
 50
270.0
 51
270.0000000000007
  0
LINE
  5
59
330
22
100
AcDbEntity
  8
0
100
AcDbLine
 10
28.77130377203494
 20
-12.77159925848147
 30
0.0
 11
24.43885465448463
 21
-12.77159925848144
 31
0.0
  0
LINE
  5
5A
330
22
100
AcDbEntity
  8
0
100
AcDbLine
 10
3.599730896781125
 20
-4.771599258481472
 30
0.0
 11
2.599730896781125
 21
-4.771599258481472
 31
0.0
  0
LINE
  5
5B
330
22
100
AcDbEntity
  8
0
100
AcDbLine
 10
22.59973089678116
 20
-8.771599258481472
 30
0.0
 11
18.59973089678115
 21
-8.771599258481472
 31
0.0
  0
LINE
  5
5C
330
22
100
AcDbEntity
  8
0
100
AcDbLine
 10
22.59973089678116
 20
-5.771599258481472
 30
0.0
 11
18.59973089678115
 21
-5.771599258481472
 31
0.0
  0
LINE
  5
5D
330
22
100
AcDbEntity
  8
0
100
AcDbLine
 10
22.59973089678116
 20
-4.771599258481472
 30
0.0
 11
17.59973089678115
 21
-4.771599258481472
 31
0.0
  0
LINE
  5
5E
330
22
100
AcDbEntity
  8
0
100
AcDbLine
 10
18.59973089678115
 20
-5.771599258481472
 30
0.0
 11
18.59973089678115
 21
-8.771599258481472
 31
0.0
  0
ARC
  5
5F
330
22
100
AcDbEntity
  8
0
100
AcDbCircle
 10
22.59973089678116
 20
-7.271599258481472
 30
0.0
 40
1.5
100
AcDbArc
 50
270.0
 51
90.0
  0
ENDBLK
  5
60
330
22
100
AcDbEntity
  8
0
100
AcDbBlockEnd
  0
BLOCK
  5
1091
330
1087
100
AcDbEntity
  8
0
100
AcDbBlockBegin
  2
*D1
 70
     1
 10
0.0
 20
0.0
 30
0.0
  3
*D1
  1

  0
LINE
  5
1204
330
1087
100
AcDbEntity
  8
BEM
 62
     0
370
    -2
100
AcDbLine
 10
147.6725332242826
 20
209.9269684004572
 30
0.0
 11
122.7621036042761
 21
209.9269684004572
 31
0.0
  0
LINE
  5
1205
330
1087
100
AcDbEntity
  8
BEM
 62
     0
370
    -2
100
AcDbLine
 10
140.6425797105795
 20
539.9269684004572
 30
0.0
 11
122.7621036042761
 21
539.9269684004572
 31
0.0
  0
LINE
  5
1206
330
1087
100
AcDbEntity
  8
BEM
 62
     0
370
    -2
100
AcDbLine
 10
124.7621036042761
 20
216.9269684004572
 30
0.0
 11
124.7621036042761
 21
532.9269684004572
 31
0.0
  0
SOLID
  5
1207
330
1087
100
AcDbEntity
  8
BEM
 62
     0
100
AcDbTrace
 10
123.5954369376094
 20
216.9269684004572
 30
0.0
 11
125.9287702709427
 21
216.9269684004572
 31
0.0
 12
124.7621036042761
 22
209.9269684004572
 32
0.0
 13
124.7621036042761
 23
209.9269684004572
 33
0.0
  0
SOLID
  5
1208
330
1087
100
AcDbEntity
  8
BEM
 62
     0
100
AcDbTrace
 10
123.5954369376095
 20
532.9269684004572
 30
0.0
 11
125.9287702709428
 21
532.9269684004572
 31
0.0
 12
124.7621036042761
 22
539.9269684004572
 32
0.0
 13
124.7621036042761
 23
539.9269684004572
 33
0.0
  0
MTEXT
  5
1209
330
1087
100
AcDbEntity
  8
BEM
 62
     1
100
AcDbMText
 10
118.262103604276
 20
374.9269684004572
 30
0.0
 40
7.0
 41
0.0
 71
     5
 72
     1
  1
\A1;580
 11
0.0000000000000001
 21
1.0
 31
0.0
 73
     1
 44
1.0
  0
POINT
  5
120A
330
1087
100
AcDbEntity
  8
DEFPOINTS
 62
     0
100
AcDbPoint
 10
149.6725332242825
 20
209.9269684004572
 30
0.0
  0
POINT
  5
120B
330
1087
100
AcDbEntity
  8
DEFPOINTS
 62
     0
100
AcDbPoint
 10
142.6425797105795
 20
539.9269684004572
 30
0.0
  0
POINT
  5
120C
330
1087
100
AcDbEntity
  8
DEFPOINTS
 62
     0
100
AcDbPoint
 10
124.7621036042761
 20
539.9269684004572
 30
0.0
  0
ENDBLK
  5
1092
330
1087
100
AcDbEntity
  8
0
100
AcDbBlockEnd
  0
BLOCK
  5
109D
330
1093
100
AcDbEntity
  8
0
100
AcDbBlockBegin
  2
*D2
 70
     1
 10
0.0
 20
0.0
 30
0.0
  3
*D2
  1

  0
LINE
  5
1185
330
1093
100
AcDbEntity
  8
BEM
 62
     0
370
    -2
100
AcDbLine
 10
148.7976465890234
 20
217.9269684004578
 30
0.0
 11
148.7976465890234
 21
186.8645358885417
 31
0.0
  0
LINE
  5
1186
330
1093
100
AcDbEntity
  8
BEM
 62
     0
370
    -2
100
AcDbLine
 10
307.7976465890236
 20
217.9269684004568
 30
0.0
 11
307.7976465890236
 21
186.8645358885417
 31
0.0
  0
LINE
  5
1187
330
1093
100
AcDbEntity
  8
BEM
 62
     0
370
    -2
100
AcDbLine
 10
155.7976465890234
 20
188.8645358885417
 30
0.0
 11
300.7976465890236
 21
188.8645358885417
 31
0.0
  0
SOLID
  5
1188
330
1093
100
AcDbEntity
  8
BEM
 62
     0
100
AcDbTrace
 10
155.7976465890234
 20
190.0312025552083
 30
0.0
 11
155.7976465890234
 21
187.697869221875
 31
0.0
 12
148.7976465890234
 22
188.8645358885417
 32
0.0
 13
148.7976465890234
 23
188.8645358885417
 33
0.0
  0
SOLID
  5
1189
330
1093
100
AcDbEntity
  8
BEM
 62
     0
100
AcDbTrace
 10
300.7976465890236
 20
190.0312025552083
 30
0.0
 11
300.7976465890236
 21
187.697869221875
 31
0.0
 12
307.7976465890236
 22
188.8645358885417
 32
0.0
 13
307.7976465890236
 23
188.8645358885417
 33
0.0
  0
MTEXT
  5
118A
330
1093
100
AcDbEntity
  8
BEM
 62
     1
100
AcDbMText
 10
228.2976465890235
 20
195.3645358885417
 30
0.0
 40
7.0
 41
0.0
 71
     5
 72
     1
  1
\A1;%%c159
 73
     1
 44
1.0
  0
POINT
  5
118B
330
1093
100
AcDbEntity
  8
DEFPOINTS
 62
     0
100
AcDbPoint
 10
148.7976465890234
 20
219.9269684004578
 30
0.0
  0
POINT
  5
118C
330
1093
100
AcDbEntity
  8
DEFPOINTS
 62
     0
100
AcDbPoint
 10
307.7976465890236
 20
219.9269684004568
 30
0.0
  0
POINT
  5
118D
330
1093
100
AcDbEntity
  8
DEFPOINTS
 62
     0
100
AcDbPoint
 10
307.7976465890236
 20
188.8645358885417
 30
0.0
  0
ENDBLK
  5
109E
330
1093
100
AcDbEntity
  8
0
100
AcDbBlockEnd
  0
ENDSEC
  0
SECTION
  2
ENTITIES
  0
TEXT
  5
134
330
1E
100
AcDbEntity
  8
TEXT
100
AcDbText
 10
204.4216048581257
 20
63.0896391972351
 30
0.0
 40
4.0
  1
Koeh
 41
0.8
  7
GREEKS
 72
     1
 11
209.6787477152686
 21
63.0896391972351
 31
0.0
100
AcDbText
  0
INSERT
  5
135
330
1E
100
AcDbEntity
  8
STEMPEL
100
AcDbBlockReference
  2
LOGO
 10
150.9955485457794
 20
45.02105276448322
 30
0.0
 41
2.0
 42
2.0
 43
2.0
  0
LINE
  5
136
330
1E
100
AcDbEntity
  8
HILF
100
AcDbLine
 10
420.0
 20
0.0
 30
0.0
 11
0.0
 21
0.0
 31
0.0
  0
LINE
  5
137
330
1E
100
AcDbEntity
  8
HILF
100
AcDbLine
 10
419.9999999999999
 20
594.0000000000002
 30
0.0
 11
0.0
 21
594.0
 31
0.0
  0
LINE
  5
138
330
1E
100
AcDbEntity
  8
STEMPEL
100
AcDbLine
 10
410.0
 20
584.0
 30
0.0
 11
39.99999999999989
 21
584.0
 31
0.0
  0
LINE
  5
139
330
1E
100
AcDbEntity
  8
STEMPEL
100
AcDbLine
 10
410.0
 20
10.0
 30
0.0
 11
39.99999999999989
 21
10.0
 31
0.0
  0
LINE
  5
13A
330
1E
100
AcDbEntity
  8
STEMPEL
100
AcDbLine
 10
49.99999999999989
 20
10.0
 30
0.0
 11
410.0
 21
10.0
 31
0.0
  0
TEXT
  5
13B
330
1E
100
AcDbEntity
  8
TEXT
100
AcDbText
 10
202.4626584226295
 20
73.30961091915225
 30
0.0
 40
4.0
  1
Name
 41
0.8
  7
GREEKS
100
AcDbText
  0
TEXT
  5
13C
330
1E
100
AcDbEntity
  8
TEXT
100
AcDbText
 10
196.5498279101549
 20
102.6506227776589
 30
0.0
 40
5.0
  1
Zul. Abw.
 41
0.8
  7
GREEKS
 72
     4
 11
209.9783993387263
 21
105.1506227776589
 31
0.0
100
AcDbText
  0
LINE
  5
13D
330
1E
100
AcDbEntity
  8
HILF
100
AcDbLine
 10
146.0000000000001
 20
49.99999999999997
 30
0.0
 11
230.0
 21
49.99999999999997
 31
0.0
  0
LINE
  5
13E
330
1E
100
AcDbEntity
  8
HILF
100
AcDbLine
 10
146.0000000000001
 20
59.99999999999997
 30
0.0
 11
230.0
 21
59.99999999999997
 31
0.0
  0
LINE
  5
13F
330
1E
100
AcDbEntity
  8
HILF
100
AcDbLine
 10
146.0000000000001
 20
69.99999999999994
 30
0.0
 11
230.0
 21
69.99999999999994
 31
0.0
  0
LINE
  5
140
330
1E
100
AcDbEntity
  8
STEMPEL
100
AcDbLine
 10
410.0
 20
80.0
 30
0.0
 11
146.0000000000001
 21
79.99999999999994
 31
0.0
  0
LINE
  5
141
330
1E
100
AcDbEntity
  8
STEMPEL
100
AcDbLine
 10
410.0
 20
40.0
 30
0.0
 11
146.0000000000001
 21
39.99999999999997
 31
0.0
  0
LINE
  5
142
330
1E
100
AcDbEntity
  8
STEMPEL
100
AcDbLine
 10
410.0
 20
110.0
 30
0.0
 11
39.99999999999997
 21
110.0
 31
0.0
  0
LINE
  5
144
330
1E
100
AcDbEntity
  8
HILF
100
AcDbLine
 10
0.0
 20
0.0
 30
0.0
 11
-0.0000000000001137
 21
594.0
 31
0.0
  0
LINE
  5
145
330
1E
100
AcDbEntity
  8
STEMPEL
100
AcDbLine
 10
40.0
 20
10.0
 30
0.0
 11
39.99999999999989
 21
584.0
 31
0.0
  0
LINE
  5
148
330
1E
100
AcDbEntity
  8
HILF
100
AcDbLine
 10
40.00000000000008
 20
39.99999999999997
 30
0.0
 11
146.0000000000001
 21
39.99999999999997
 31
0.0
  0
LINE
  5
149
330
1E
100
AcDbEntity
  8
HILF
100
AcDbLine
 10
40.00000000000008
 20
49.99999999999997
 30
0.0
 11
146.0000000000001
 21
49.99999999999997
 31
0.0
  0
LINE
  5
14A
330
1E
100
AcDbEntity
  8
HILF
100
AcDbLine
 10
40.00000000000008
 20
59.99999999999997
 30
0.0
 11
146.0000000000001
 21
59.99999999999997
 31
0.0
  0
LINE
  5
14B
330
1E
100
AcDbEntity
  8
HILF
100
AcDbLine
 10
40.00000000000008
 20
69.99999999999994
 30
0.0
 11
146.0000000000001
 21
69.99999999999994
 31
0.0
  0
LINE
  5
14C
330
1E
100
AcDbEntity
  8
HILF
100
AcDbLine
 10
40.00000000000008
 20
79.99999999999994
 30
0.0
 11
146.0000000000001
 21
79.99999999999994
 31
0.0
  0
LINE
  5
14D
330
1E
100
AcDbEntity
  8
HILF
100
AcDbLine
 10
40.00000000000008
 20
90.00000000000005
 30
0.0
 11
146.0000000000001
 21
90.00000000000005
 31
0.0
  0
LINE
  5
14E
330
1E
100
AcDbEntity
  8
HILF
100
AcDbLine
 10
40.00000000000008
 20
100.0
 30
0.0
 11
146.0000000000001
 21
100.0
 31
0.0
  0
LINE
  5
14F
330
1E
100
AcDbEntity
  8
STEMPEL
100
AcDbLine
 10
145.9999999999999
 20
29.99999999999997
 30
0.0
 11
39.99999999999997
 21
29.99999999999997
 31
0.0
  0
TEXT
  5
150
330
1E
100
AcDbEntity
  8
TEXT
100
AcDbText
 10
48.26641107045756
 20
13.65465846027192
 30
0.0
 40
4.0
  1
Index
 50
90.0
 41
0.8
  7
GREEKS
100
AcDbText
  0
LINE
  5
151
330
1E
100
AcDbEntity
  8
VOLL
100
AcDbLine
 10
54.00000000000009
 20
110.0
 30
0.0
 11
53.99999999999997
 21
9.999999999999971
 31
0.0
  0
LINE
  5
152
330
1E
100
AcDbEntity
  8
HILF
100
AcDbLine
 10
31.08767135713856
 20
297.0
 30
0.0
 11
0.0000000000001137
 21
297.0
 31
0.0
  0
LINE
  5
154
330
1E
100
AcDbEntity
  8
VOLL
100
AcDbLine
 10
124.0000000000001
 20
109.9999999999999
 30
0.0
 11
124.0
 21
9.999999999999971
 31
0.0
  0
LINE
  5
155
330
1E
100
AcDbEntity
  8
VOLL
100
AcDbLine
 10
104.0000000000001
 20
109.9999999999999
 30
0.0
 11
104.0
 21
9.999999999999971
 31
0.0
  0
LINE
  5
157
330
1E
100
AcDbEntity
  8
STEMPEL
100
AcDbLine
 10
146.0000000000001
 20
109.9999999999999
 30
0.0
 11
146.0
 21
9.999999999999971
 31
0.0
  0
TEXT
  5
159
330
1E
100
AcDbEntity
  8
TEXT
100
AcDbText
 10
172.331167315365
 20
73.31880501229926
 30
0.0
 40
4.0
  1
Tag
 41
0.8
  7
GREEKS
100
AcDbText
  0
TEXT
  5
15A
330
1E
100
AcDbEntity
  8
TEXT
100
AcDbText
 10
147.5836127167615
 20
63.62990369617964
 30
0.0
 40
4.0
  1
Gez.
 41
0.8
  7
GREEKS
100
AcDbText
  0
LINE
  5
15B
330
1E
100
AcDbEntity
  8
VOLL
100
AcDbLine
 10
164.0000000000001
 20
79.99999999999994
 30
0.0
 11
164.0000000000001
 21
39.99999999999997
 31
0.0
  0
TEXT
  5
15C
330
1E
100
AcDbEntity
  8
TEXT
100
AcDbText
 10
147.6006777387303
 20
43.52946389649807
 30
0.0
 40
4.0
  1
Norm.
 41
0.8
  7
GREEKS
100
AcDbText
  0
TEXT
  5
15D
330
1E
100
AcDbEntity
  8
TEXT
100
AcDbText
 10
147.5515086571672
 20
53.68926291428377
 30
0.0
 40
4.0
  1
Gepr.
 41
0.8
  7
GREEKS
100
AcDbText
  0
TEXT
  5
15E
330
1E
100
AcDbEntity
  8
TEXT
 62
     1
100
AcDbText
 10
160.5006306481887
 20
88.14901428913959
 30
0.0
 40
7.0
  1
1:2
 41
0.8
  7
GREEKS
100
AcDbText
  0
TEXT
  5
160
330
1E
100
AcDbEntity
  8
TEXT
100
AcDbText
 10
148.622109822104
 20
73.14025471151666
 30
0.0
 40
4.0
  1
2011
 41
0.8
  7
GREEKS
100
AcDbText
  0
LINE
  5
161
330
1E
100
AcDbEntity
  8
VOLL
100
AcDbLine
 10
190.0000000000001
 20
109.9999999999998
 30
0.0
 11
190.0
 21
39.99999999999997
 31
0.0
  0
LINE
  5
186
330
1E
100
AcDbEntity
  8
HILF
100
AcDbLine
 10
420.0
 20
-0.0000000000001137
 30
0.0
 11
419.9999999999999
 21
594.0
 31
0.0
  0
LINE
  5
187
330
1E
100
AcDbEntity
  8
STEMPEL
100
AcDbLine
 10
410.0
 20
10.0
 30
0.0
 11
410.0
 21
584.0
 31
0.0
  0
TEXT
  5
188
330
1E
100
AcDbEntity
  8
TEXT
100
AcDbText
 10
337.2400861497006
 20
52.07416177878602
 30
0.0
 40
5.0
  1
ersetzt durch:
 41
0.8
  7
GREEKS
100
AcDbText
  0
TEXT
  5
18A
330
1E
100
AcDbEntity
  8
TEXT
100
AcDbText
 10
336.178754957634
 20
102.3132034537136
 30
0.0
 40
5.0
  1
Zeichnungs Nr.
 41
0.8
  7
GREEKS
100
AcDbText
  0
LINE
  5
18B
330
1E
100
AcDbEntity
  8
HILF
100
AcDbLine
 10
233.4909699289885
 20
14.89398258028314
 30
0.0
 11
404.8588839326728
 21
14.89398258028314
 31
0.0
  0
LINE
  5
18C
330
1E
100
AcDbEntity
  8
HILF
100
AcDbLine
 10
336.7238616296993
 20
83.77983636955827
 30
0.0
 11
404.8588839326728
 21
83.77983636955827
 31
0.0
  0
LINE
  5
18D
330
1E
100
AcDbEntity
  8
VOLL
100
AcDbLine
 10
332.0
 20
60.0
 30
0.0
 11
410.0
 21
60.0
 31
0.0
  0
TEXT
  5
18E
330
1E
100
AcDbEntity
  8
TEXT
 62
     1
100
AcDbText
 10
234.9283864320014
 20
87.41748789253779
 30
0.0
 40
7.0
  1
Rohr DN150
 41
0.8
  7
GREEKS
100
AcDbText
  0
LINE
  5
18F
330
1E
100
AcDbEntity
  8
HILF
100
AcDbLine
 10
234.7736801096947
 20
49.99999999999997
 30
0.0
 11
324.835391655631
 21
49.99999999999997
 31
0.0
  0
LINE
  5
190
330
1E
100
AcDbEntity
  8
HILF
100
AcDbLine
 10
234.7736801096947
 20
59.99999999999997
 30
0.0
 11
324.835391655631
 21
59.99999999999997
 31
0.0
  0
LINE
  5
191
330
1E
100
AcDbEntity
  8
HILF
100
AcDbLine
 10
234.7736801096947
 20
69.99999999999994
 30
0.0
 11
324.835391655631
 21
69.99999999999994
 31
0.0
  0
LINE
  5
192
330
1E
100
AcDbEntity
  8
HILF
100
AcDbLine
 10
234.7736801096947
 20
84.03758247564139
 30
0.0
 11
324.8353916556311
 21
84.03758247564139
 31
0.0
  0
LINE
  5
193
330
1E
100
AcDbEntity
  8
STEMPEL
100
AcDbLine
 10
230.0
 20
110.0
 30
0.0
 11
230.0
 21
9.999999999999971
 31
0.0
  0
TEXT
  5
194
330
1E
100
AcDbEntity
  8
TEXT
100
AcDbText
 10
235.1296391125315
 20
71.50334417585288
 30
0.0
 40
5.0
  1
500mm lang
 41
0.8
  7
GREEKS
100
AcDbText
  0
TEXT
  5
195
330
1E
100
AcDbEntity
  8
TEXT
100
AcDbText
 10
234.9837501577827
 20
42.62974153022632
 30
0.0
 40
4.0
  1
41301150W.DWG
 41
0.8
  7
GREEKS
100
AcDbText
  0
TEXT
  5
196
330
1E
100
AcDbEntity
  8
TEXT
100
AcDbText
 10
234.742238391136
 20
30.84560570193057
 30
0.0
 40
5.0
  1
Bauvorhaben
 41
0.8
  7
GREEKS
100
AcDbText
  0
TEXT
  5
197
330
1E
100
AcDbEntity
  8
TEXT
100
AcDbText
 10
234.877940380901
 20
102.5489328011779
 30
0.0
 40
5.0
  1
Benennung
 41
0.8
  7
GREEKS
100
AcDbText
  0
LINE
  5
198
330
1E
100
AcDbEntity
  8
STEMPEL
100
AcDbLine
 10
332.0
 20
109.9999999999997
 30
0.0
 11
332.0
 21
40.0
 31
0.0
  0
TEXT
  5
19A
330
1E
100
AcDbEntity
  8
TEXT
 62
     1
100
AcDbText
 10
347.8037516011756
 20
88.14901428913959
 30
0.0
 40
7.0
  1
41301150W
 41
0.8
  7
GREEKS
 72
     1
 11
370.2037516011757
 21
88.14901428913959
 31
0.0
100
AcDbText
  0
TEXT
  5
212
330
1E
100
AcDbEntity
  8
TEXT
100
AcDbText
 10
235.1296391125315
 20
51.50334417585291
 30
0.0
 40
5.0
  1
EDV-Art.Nr. 4.1301150C
 41
0.8
  7
GREEKS
100
AcDbText
  0
LINE
  5
EFF
330
1E
100
AcDbEntity
  8
STEMPEL
100
AcDbLine
 10
307.7976465890231
 20
454.248060054657
 30
0.0
 11
307.7976465890231
 21
367.026407116557
 31
0.0
  0
LINE
  5
F01
330
1E
100
AcDbEntity
  8
STEMPEL
100
AcDbLine
 10
313.9527134674669
 20
539.9269684004573
 30
0.0
 11
142.6425797105795
 21
539.9269684004572
 31
0.0
  0
LINE
  5
F09
330
1E
100
AcDbEntity
  8
STEMPEL
100
AcDbLine
 10
313.9527134674669
 20
539.9269684004573
 30
0.0
 11
314.6121113482692
 21
538.5128850817071
 31
0.0
  0
ARC
  5
F0A
330
1E
100
AcDbEntity
  8
STEMPEL
100
AcDbCircle
 10
283.7976465890231
 20
524.1438641825234
 30
0.0
 40
34.0
100
AcDbArc
 50
0.0
 51
24.99999999999263
  0
LINE
  5
F0B
330
1E
100
AcDbEntity
  8
STEMPEL
100
AcDbLine
 10
317.7976465890231
 20
524.1438641825234
 30
0.0
 11
317.7976465890231
 21
507.8643628713034
 31
0.0
  0
ARC
  5
F0C
330
1E
100
AcDbEntity
  8
STEMPEL
100
AcDbCircle
 10
283.7996189092649
 20
507.9242699197393
 30
0.0
 40
34.0
100
AcDbArc
 50
332.2594896725498
 51
0.0
  0
ARC
  5
F0D
330
1E
100
AcDbEntity
  8
STEMPEL
100
AcDbCircle
 10
330.7976465890231
 20
483.4269684004572
 30
0.0
 40
19.0
100
AcDbArc
 50
152.8456571516186
 51
180.0
  0
LINE
  5
F0E
330
1E
100
AcDbEntity
  8
STEMPEL
100
AcDbLine
 10
311.7976465890231
 20
483.4269684004572
 30
0.0
 11
311.7976465890231
 21
468.3901956783879
 31
0.0
  0
ARC
  5
F11
330
1E
100
AcDbEntity
  8
STEMPEL
100
AcDbCircle
 10
317.7976465890231
 20
454.248060054657
 30
0.0
 40
10.0
100
AcDbArc
 50
148.413661903472
 51
180.0
  0
ARC
  5
F13
330
1E
100
AcDbEntity
  8
STEMPEL
100
AcDbCircle
 10
294.7976465890231
 20
468.3901956783879
 30
0.0
 40
17.0
100
AcDbArc
 50
328.4136619034722
 51
0.0
  0
LINE
  5
F37
330
1E
100
AcDbEntity
  8
STEMPEL
100
AcDbLine
 10
138.7976465890233
 20
524.1438641825234
 30
0.0
 11
138.7976465890233
 21
507.8643628713034
 31
0.0
  0
LINE
  5
F39
330
1E
100
AcDbEntity
  8
STEMPEL
100
AcDbLine
 10
144.7976465890233
 20
483.4269684004572
 30
0.0
 11
144.7976465890233
 21
468.3901956783879
 31
0.0
  0
ARC
  5
F3B
330
1E
100
AcDbEntity
  8
STEMPEL
100
AcDbCircle
 10
138.7976465890233
 20
454.248060054657
 30
0.0
 40
10.0
100
AcDbArc
 50
0.0
 51
31.58633809652779
  0
LINE
  5
F3D
330
1E
100
AcDbEntity
  8
STEMPEL
100
AcDbLine
 10
148.7976465890233
 20
454.248060054657
 30
0.0
 11
148.7976465890233
 21
367.0264071165569
 31
0.0
  0
ARC
  5
F40
330
1E
100
AcDbEntity
  8
STEMPEL
100
AcDbCircle
 10
161.7976465890233
 20
468.3901956783879
 30
0.0
 40
17.0
100
AcDbArc
 50
180.0
 51
211.5863380965277
  0
ARC
  5
F41
330
1E
100
AcDbEntity
  8
STEMPEL
100
AcDbCircle
 10
172.7956742687814
 20
507.9242699197393
 30
0.0
 40
34.0
100
AcDbArc
 50
180.0
 51
207.3202406357857
  0
ARC
  5
F44
330
1E
100
AcDbEntity
  8
STEMPEL
100
AcDbCircle
 10
125.7976465890233
 20
483.4269684004572
 30
0.0
 40
19.0
100
AcDbArc
 50
0.0
 51
27.90640811485477
  0
LINE
  5
F45
330
1E
100
AcDbEntity
  8
STEMPEL
100
AcDbLine
 10
142.6425797105795
 20
539.9269684004573
 30
0.0
 11
141.9831818297772
 21
538.5128850817071
 31
0.0
  0
ARC
  5
F47
330
1E
100
AcDbEntity
  8
STEMPEL
100
AcDbCircle
 10
172.7976465890233
 20
524.1438641825234
 30
0.0
 40
34.0
100
AcDbArc
 50
155.0000000000074
 51
180.0
  0
LINE
  5
F58
330
1E
100
AcDbEntity
  8
HILF
100
AcDbLine
 10
306.7317664295552
 20
457.3779636148799
 30
0.0
 11
149.8635267484911
 21
457.37796361488
 31
0.0
  0
LINE
  5
F59
330
1E
100
AcDbEntity
  8
HILF
100
AcDbLine
 10
309.7125285430884
 20
464.1716300102613
 30
0.0
 11
146.882764634958
 21
464.1716300102613
 31
0.0
  0
LINE
  5
F5A
330
1E
100
AcDbEntity
  8
HILF
100
AcDbLine
 10
310.9015875590708
 20
488.3662836441575
 30
0.0
 11
145.6937056189757
 21
488.3662836441575
 31
0.0
  0
LINE
  5
107B
330
1E
100
AcDbEntity
  8
STEMPEL
100
AcDbLine
 10
306.9227599537641
 20
209.9269684004573
 30
0.0
 11
149.6725332242825
 21
209.9269684004572
 31
0.0
  0
DIMENSION
  5
107C
330
1E
100
AcDbEntity
  8
BEM
100
AcDbDimension
  2
*D2
 10
307.7976465890236
 20
188.8645358885417
 30
0.0
 11
228.2976465890235
 21
195.3645358885417
 31
0.0
 70
    32
  1
%%c<>
 71
     5
 42
159.0000000000002
  3
Standard
100
AcDbAlignedDimension
 13
148.7976465890234
 23
219.9269684004578
 33
0.0
 14
307.7976465890236
 24
219.9269684004568
 34
0.0
100
AcDbRotatedDimension
1001
ACAD
1000
DSTYLE
1002
{
1070
    40
1040
2.0
1070
    41
1040
3.5
1070
    42
1040
1.0
1070
    43
1040
7.0
1070
    44
1040
1.0
1070
    73
1070
     0
1070
    74
1070
     0
1070
    77
1070
     1
1070
    78
1070
     8
1070
    79
1070
     2
1070
   140
1040
3.5
1070
   141
1040
1.5
1070
   146
1040
0.5142857142857144
1070
   147
1040
1.5
1070
   172
1070
     1
1070
   178
1070
     1
1070
   179
1070
     2
1070
   271
1070
     2
1070
   272
1070
     2
1070
   284
1070
     8
1070
   285
1070
     8
1070
   286
1070
     8
1002
}
  0
LINE
  5
107D
330
1E
100
AcDbEntity
  8
HILF
100
AcDbLine
 10
306.297646589023
 20
219.9269684004568
 30
0.0
 11
150.2976465890234
 21
219.9269684004582
 31
0.0
  0
LINE
  5
107F
330
1E
100
AcDbEntity
  8
STEMPEL
100
AcDbLine
 10
148.7976465890234
 20
219.9269684004578
 30
0.0
 11
149.6725332242825
 21
209.9269684004578
 31
0.0
  0
LINE
  5
1084
330
1E
100
AcDbEntity
  8
STEMPEL
100
AcDbLine
 10
307.7976465890231
 20
219.9269684004573
 30
0.0
 11
306.922759953764
 21
209.9269684004568
 31
0.0
  0
DIMENSION
  5
1085
330
1E
100
AcDbEntity
  8
BEM
100
AcDbDimension
  2
*D1
 10
124.7621036042761
 20
539.9269684004572
 30
0.0
 11
118.262103604276
 21
374.9269684004572
 31
0.0
 70
    32
  1
580
 71
     5
 42
330.0
  3
Standard
100
AcDbAlignedDimension
 13
149.6725332242825
 23
209.9269684004572
 33
0.0
 14
142.6425797105795
 24
539.9269684004572
 34
0.0
 50
90.0
100
AcDbRotatedDimension
1001
ACAD
1000
DSTYLE
1002
{
1070
    40
1040
2.0
1070
    41
1040
3.5
1070
    42
1040
1.0
1070
    43
1040
7.0
1070
    44
1040
1.0
1070
    73
1070
     0
1070
    74
1070
     0
1070
    77
1070
     1
1070
    78
1070
     8
1070
    79
1070
     2
1070
   140
1040
3.5
1070
   141
1040
1.5
1070
   146
1040
0.5142857142857144
1070
   147
1040
1.5
1070
   172
1070
     1
1070
   178
1070
     1
1070
   179
1070
     2
1070
   271
1070
     2
1070
   272
1070
     2
1070
   284
1070
     8
1070
   285
1070
     8
1070
   286
1070
     8
1002
}
  0
LINE
  5
1086
330
1E
100
AcDbEntity
  8
MITTEL
100
AcDbLine
 10
228.2976465890232
 20
544.9269684004572
 30
0.0
 11
228.2976465890232
 21
204.9269684004575
 31
0.0
  0
TEXT
  5
10C7
330
1E
100
AcDbEntity
  8
TEXT
 62
     1
100
AcDbText
 10
191.0100973998997
 20
510.8554606957302
 30
0.0
 40
7.0
  1
DN150
 41
0.8
  7
GREEKS
100
AcDbText
  0
TEXT
  5
1179
330
1E
100
AcDbEntity
  8
TEXT
 62
     1
100
AcDbText
 10
297.0573649355706
 20
132.2248663682012
 30
0.0
 40
7.0
  1
Werkstoff: 1.4301
 41
0.8
  7
GREEKS
100
AcDbText
  0
TEXT
  5
11BC
330
1E
100
AcDbEntity
  8
BEM
100
AcDbText
 10
416.5811541437436
 20
12.14804815338303
 30
0.0
 40
4.0
  1
Diese Zeichnung ist urheberrechtlich geschützt und bleibt unser Eigentum. Sie darf weder ganz noch teilweise vervielfältigt und nicht an Dritte weitergegeben werden.
 50
90.0
 41
0.8
  7
GREEKS
100
AcDbText
  0
TEXT
  5
11BD
330
1E
100
AcDbEntity
  8
TEXT
100
AcDbText
 10
336.7238616296993
 20
73.1811823709997
 30
0.0
 40
5.0
  1
Ersatz für:
 41
0.8
  7
GREEKS
100
AcDbText
  0
TEXT
  5
11BE
330
1E
100
AcDbEntity
  8
TEXT
100
AcDbText
 10
235.1296391125315
 20
61.50334417585291
 30
0.0
 40
5.0
  1
dünnwandig
 41
0.8
  7
GREEKS
100
AcDbText
  0
TEXT
  5
11BF
330
1E
100
AcDbEntity
  8
TEXT
100
AcDbText
 10
193.7250163275297
 20
89.50724631152979
 30
0.0
 40
4.0
  1
DIN EN1124-3
 41
0.8
  7
GREEKS
 72
     1
 11
210.7154925180059
 21
89.50724631152979
 31
0.0
100
AcDbText
  0
TEXT
  5
11C0
330
1E
100
AcDbEntity
  8
TEXT
100
AcDbText
 10
153.5163572150377
 20
102.4620895087088
 30
0.0
 40
5.0
  1
Maßstab
 41
0.8
  7
GREEKS
100
AcDbText
  0
TEXT
  5
11C1
330
1E
100
AcDbEntity
  8
TEXT
100
AcDbText
 10
41.85509950977674
 20
111.6719999999999
 30
0.0
 40
5.0
  1
Erstellt mit AUTOCAD 2004
 41
0.8
  7
GREEKS
100
AcDbText
  0
TEXT
  5
11C2
330
1E
100
AcDbEntity
  8
TEXT
100
AcDbText
 10
129.3050679443042
 20
18.59324216966408
 30
0.0
 40
4.0
  1
Name
 41
0.8
  7
GREEKS
 72
     1
 11
135.6288774681137
 21
18.59324216966408
 31
0.0
100
AcDbText
  0
TEXT
  5
11C3
330
1E
100
AcDbEntity
  8
TEXT
100
AcDbText
 10
110.5329027008845
 20
18.6715626933981
 30
0.0
 40
4.0
  1
Tag
 41
0.8
  7
GREEKS
 72
     1
 11
114.2662360342178
 21
18.6715626933981
 31
0.0
100
AcDbText
  0
TEXT
  5
11C4
330
1E
100
AcDbEntity
  8
TEXT
100
AcDbText
 10
67.18675857092764
 20
18.67381894984132
 30
0.0
 40
4.0
  1
Änderung
 41
0.8
  7
GREEKS
 72
     1
 11
77.92961571378478
 21
18.67381894984132
 31
0.0
100
AcDbText
  0
POLYLINE
  5
11D2
330
1E
100
AcDbEntity
  8
HILF
100
AcDb2dPolyline
 66
     1
 10
0.0
 20
0.0
 30
0.0
 70
     4
 75
     6
  0
VERTEX
  5
11D3
330
11D2
100
AcDbEntity
  8
HILF
100
AcDbVertex
100
AcDb2dVertex
 10
148.7976465890233
 20
367.0264071165569
 30
0.0
 70
    16
  0
VERTEX
  5
11D9
330
11D2
100
AcDbEntity
  8
HILF
100
AcDbVertex
100
AcDb2dVertex
 10
148.7976465890233
 20
367.0264071165569
 30
0.0
 70
     8
  0
VERTEX
  5
11DA
330
11D2
100
AcDbEntity
  8
HILF
100
AcDbVertex
100
AcDb2dVertex
 10
162.8110743233983
 20
368.5644930540569
 30
0.0
 70
     8
  0
VERTEX
  5
11DB
330
11D2
100
AcDbEntity
  8
HILF
100
AcDbVertex
100
AcDb2dVertex
 10
175.1941309640233
 20
369.4873446165569
 30
0.0
 70
     8
  0
VERTEX
  5
11DC
330
11D2
100
AcDbEntity
  8
HILF
100
AcDbVertex
100
AcDb2dVertex
 10
186.1797266671482
 20
369.8828524290569
 30
0.0
 70
     8
  0
VERTEX
  5
11DD
330
11D2
100
AcDbEntity
  8
HILF
100
AcDbVertex
100
AcDb2dVertex
 10
196.0007715890233
 20
369.8389071165569
 30
0.0
 70
     8
  0
VERTEX
  5
11DE
330
11D2
100
AcDbEntity
  8
HILF
100
AcDbVertex
100
AcDb2dVertex
 10
204.8901758858982
 20
369.4433993040568
 30
0.0
 70
     8
  0
VERTEX
  5
11DF
330
11D2
100
AcDbEntity
  8
HILF
100
AcDbVertex
100
AcDb2dVertex
 10
213.0808497140232
 20
368.7842196165568
 30
0.0
 70
     8
  0
VERTEX
  5
11E0
330
11D2
100
AcDbEntity
  8
HILF
100
AcDbVertex
100
AcDb2dVertex
 10
220.8057032296482
 20
367.9492586790567
 30
0.0
 70
     8
  0
VERTEX
  5
11E1
330
11D2
100
AcDbEntity
  8
HILF
100
AcDbVertex
100
AcDb2dVertex
 10
228.2976465890232
 20
367.0264071165569
 30
0.0
 70
     8
  0
VERTEX
  5
11E2
330
11D2
100
AcDbEntity
  8
HILF
100
AcDbVertex
100
AcDb2dVertex
 10
235.7895899483982
 20
366.1035555540569
 30
0.0
 70
     8
  0
VERTEX
  5
11E3
330
11D2
100
AcDbEntity
  8
HILF
100
AcDbVertex
100
AcDb2dVertex
 10
243.5144434640232
 20
365.2685946165569
 30
0.0
 70
     8
  0
VERTEX
  5
11E4
330
11D2
100
AcDbEntity
  8
HILF
100
AcDbVertex
100
AcDb2dVertex
 10
251.7051172921482
 20
364.6094149290569
 30
0.0
 70
     8
  0
VERTEX
  5
11E5
330
11D2
100
AcDbEntity
  8
HILF
100
AcDbVertex
100
AcDb2dVertex
 10
260.5945215890232
 20
364.2139071165569
 30
0.0
 70
     8
  0
VERTEX
  5
11E6
330
11D2
100
AcDbEntity
  8
HILF
100
AcDbVertex
100
AcDb2dVertex
 10
270.4155665108981
 20
364.1699618040569
 30
0.0
 70
     8
  0
VERTEX
  5
11E7
330
11D2
100
AcDbEntity
  8
HILF
100
AcDbVertex
100
AcDb2dVertex
 10
281.4011622140231
 20
364.565469616557
 30
0.0
 70
     8
  0
VERTEX
  5
11E8
330
11D2
100
AcDbEntity
  8
HILF
100
AcDbVertex
100
AcDb2dVertex
 10
293.7842188546481
 20
365.488321179057
 30
0.0
 70
     8
  0
VERTEX
  5
11E9
330
11D2
100
AcDbEntity
  8
HILF
100
AcDbVertex
100
AcDb2dVertex
 10
307.7976465890231
 20
367.026407116557
 30
0.0
 70
     8
  0
VERTEX
  5
11D4
330
11D2
100
AcDbEntity
  8
HILF
100
AcDbVertex
100
AcDb2dVertex
 10
188.5476465890233
 20
372.0264071165569
 30
0.0
 70
    16
  0
VERTEX
  5
11D5
330
11D2
100
AcDbEntity
  8
HILF
100
AcDbVertex
100
AcDb2dVertex
 10
228.2976465890232
 20
367.0264071165569
 30
0.0
 70
    16
  0
VERTEX
  5
11D6
330
11D2
100
AcDbEntity
  8
HILF
100
AcDbVertex
100
AcDb2dVertex
 10
268.0476465890231
 20
362.0264071165569
 30
0.0
 70
    16
  0
VERTEX
  5
11D7
330
11D2
100
AcDbEntity
  8
HILF
100
AcDbVertex
100
AcDb2dVertex
 10
307.7976465890231
 20
367.026407116557
 30
0.0
 70
    16
  0
SEQEND
  5
11D8
330
11D2
100
AcDbEntity
  8
HILF
  0
POLYLINE
  5
11EA
330
1E
100
AcDbEntity
  8
HILF
100
AcDb2dPolyline
 66
     1
 10
0.0
 20
0.0
 30
0.0
 70
     4
 75
     6
  0
VERTEX
  5
11EB
330
11EA
100
AcDbEntity
  8
HILF
100
AcDbVertex
100
AcDb2dVertex
 10
148.7976465890233
 20
357.0264071165569
 30
0.0
 70
    16
  0
VERTEX
  5
11EC
330
11EA
100
AcDbEntity
  8
HILF
100
AcDbVertex
100
AcDb2dVertex
 10
148.7976465890233
 20
357.0264071165569
 30
0.0
 70
     8
  0
VERTEX
  5
11ED
330
11EA
100
AcDbEntity
  8
HILF
100
AcDbVertex
100
AcDb2dVertex
 10
162.8110743233983
 20
358.5644930540569
 30
0.0
 70
     8
  0
VERTEX
  5
11EE
330
11EA
100
AcDbEntity
  8
HILF
100
AcDbVertex
100
AcDb2dVertex
 10
175.1941309640233
 20
359.4873446165569
 30
0.0
 70
     8
  0
VERTEX
  5
11EF
330
11EA
100
AcDbEntity
  8
HILF
100
AcDbVertex
100
AcDb2dVertex
 10
186.1797266671482
 20
359.8828524290569
 30
0.0
 70
     8
  0
VERTEX
  5
11F0
330
11EA
100
AcDbEntity
  8
HILF
100
AcDbVertex
100
AcDb2dVertex
 10
196.0007715890233
 20
359.8389071165569
 30
0.0
 70
     8
  0
VERTEX
  5
11F1
330
11EA
100
AcDbEntity
  8
HILF
100
AcDbVertex
100
AcDb2dVertex
 10
204.8901758858982
 20
359.4433993040568
 30
0.0
 70
     8
  0
VERTEX
  5
11F2
330
11EA
100
AcDbEntity
  8
HILF
100
AcDbVertex
100
AcDb2dVertex
 10
213.0808497140232
 20
358.7842196165568
 30
0.0
 70
     8
  0
VERTEX
  5
11F3
330
11EA
100
AcDbEntity
  8
HILF
100
AcDbVertex
100
AcDb2dVertex
 10
220.8057032296482
 20
357.9492586790568
 30
0.0
 70
     8
  0
VERTEX
  5
11F4
330
11EA
100
AcDbEntity
  8
HILF
100
AcDbVertex
100
AcDb2dVertex
 10
228.2976465890232
 20
357.0264071165569
 30
0.0
 70
     8
  0
VERTEX
  5
11F5
330
11EA
100
AcDbEntity
  8
HILF
100
AcDbVertex
100
AcDb2dVertex
 10
235.7895899483982
 20
356.1035555540569
 30
0.0
 70
     8
  0
VERTEX
  5
11F6
330
11EA
100
AcDbEntity
  8
HILF
100
AcDbVertex
100
AcDb2dVertex
 10
243.5144434640232
 20
355.2685946165569
 30
0.0
 70
     8
  0
VERTEX
  5
11F7
330
11EA
100
AcDbEntity
  8
HILF
100
AcDbVertex
100
AcDb2dVertex
 10
251.7051172921482
 20
354.6094149290569
 30
0.0
 70
     8
  0
VERTEX
  5
11F8
330
11EA
100
AcDbEntity
  8
HILF
100
AcDbVertex
100
AcDb2dVertex
 10
260.5945215890232
 20
354.2139071165569
 30
0.0
 70
     8
  0
VERTEX
  5
11F9
330
11EA
100
AcDbEntity
  8
HILF
100
AcDbVertex
100
AcDb2dVertex
 10
270.4155665108981
 20
354.1699618040569
 30
0.0
 70
     8
  0
VERTEX
  5
11FA
330
11EA
100
AcDbEntity
  8
HILF
100
AcDbVertex
100
AcDb2dVertex
 10
281.4011622140231
 20
354.565469616557
 30
0.0
 70
     8
  0
VERTEX
  5
11FB
330
11EA
100
AcDbEntity
  8
HILF
100
AcDbVertex
100
AcDb2dVertex
 10
293.7842188546481
 20
355.488321179057
 30
0.0
 70
     8
  0
VERTEX
  5
11FC
330
11EA
100
AcDbEntity
  8
HILF
100
AcDbVertex
100
AcDb2dVertex
 10
307.7976465890231
 20
357.0264071165571
 30
0.0
 70
     8
  0
VERTEX
  5
11FD
330
11EA
100
AcDbEntity
  8
HILF
100
AcDbVertex
100
AcDb2dVertex
 10
188.5476465890233
 20
362.0264071165569
 30
0.0
 70
    16
  0
VERTEX
  5
11FE
330
11EA
100
AcDbEntity
  8
HILF
100
AcDbVertex
100
AcDb2dVertex
 10
228.2976465890232
 20
357.0264071165569
 30
0.0
 70
    16
  0
VERTEX
  5
11FF
330
11EA
100
AcDbEntity
  8
HILF
100
AcDbVertex
100
AcDb2dVertex
 10
268.0476465890231
 20
352.0264071165569
 30
0.0
 70
    16
  0
VERTEX
  5
1200
330
11EA
100
AcDbEntity
  8
HILF
100
AcDbVertex
100
AcDb2dVertex
 10
307.7976465890231
 20
357.026407116557
 30
0.0
 70
    16
  0
SEQEND
  5
1201
330
11EA
100
AcDbEntity
  8
HILF
  0
LINE
  5
1202
330
1E
100
AcDbEntity
  8
STEMPEL
100
AcDbLine
 10
148.7976465890233
 20
357.026407116557
 30
0.0
 11
148.7976465890234
 21
219.9269684004577
 31
0.0
  0
LINE
  5
1203
330
1E
100
AcDbEntity
  8
STEMPEL
100
AcDbLine
 10
307.7976465890231
 20
357.0264071165571
 30
0.0
 11
307.7976465890231
 21
219.9269684004564
 31
0.0
  0
TEXT
  5
1219
330
1E
100
AcDbEntity
  8
TEXT
 62
     1
100
AcDbText
 10
370.2037516011757
 20
62.54810432822978
 30
0.0
 40
7.0
  1

 41
0.8
  7
GREEKS
 72
     1
 11
370.2037516011757
 21
62.54810432822978
 31
0.0
100
AcDbText
  0
TEXT
  5
1231
330
1E
100
AcDbEntity
  8
TEXT
100
AcDbText
 10
170.7037590129979
 20
63.10765040825732
 30
0.0
 40
4.0
  1
15.04.
 41
0.8
  7
GREEKS
 72
     1
 11
177.4085209177598
 21
63.10765040825732
 31
0.0
100
AcDbText
  0
ENDSEC
  0
SECTION
  2
OBJECTS
  0
DICTIONARY
  5
C
330
0
100
AcDbDictionary
281
     1
  3
ACAD_COLOR
350
1199
  3
ACAD_GROUP
350
D
  3
ACAD_LAYOUT
350
19
  3
ACAD_MATERIAL
350
1198
  3
ACAD_MLINESTYLE
350
16
  3
ACAD_PLOTSETTINGS
350
18
  3
ACAD_PLOTSTYLENAME
350
E
  3
AcDbVariableDictionary
350
246
  0
DICTIONARY
  5
1199
102
{ACAD_REACTORS
330
C
102
}
330
C
100
AcDbDictionary
281
     1
  0
DICTIONARY
  5
D
102
{ACAD_REACTORS
330
C
102
}
330
C
100
AcDbDictionary
281
     1
  0
DICTIONARY
  5
19
102
{ACAD_REACTORS
330
C
102
}
330
C
100
AcDbDictionary
281
     1
  3
Layout1
350
1D
  3
Model
350
21
  0
DICTIONARY
  5
1198
102
{ACAD_REACTORS
330
C
102
}
330
C
100
AcDbDictionary
281
     1
  0
DICTIONARY
  5
16
102
{ACAD_REACTORS
330
C
102
}
330
C
100
AcDbDictionary
281
     1
  3
Standard
350
17
  0
DICTIONARY
  5
18
102
{ACAD_REACTORS
330
C
102
}
330
C
100
AcDbDictionary
281
     1
  0
ACDBDICTIONARYWDFLT
  5
E
102
{ACAD_REACTORS
330
C
102
}
330
C
100
AcDbDictionary
281
     1
  3
Normal
350
F
100
AcDbDictionaryWithDefault
340
F
  0
DICTIONARY
  5
246
102
{ACAD_REACTORS
330
C
102
}
330
C
100
AcDbDictionary
281
     1
  3
DIMASSOC
350
1215
  3
PROJECTNAME
350
1216
  3
SORTENTS
350
247
  0
LAYOUT
  5
1D
102
{ACAD_REACTORS
330
19
102
}
330
19
100
AcDbPlotSettings
  1

  2
Tektronix Phaser 740
  4

  6

 40
0.0
 41
0.0
 42
0.0
 43
0.0
 44
0.0
 45
0.0
 46
0.0
 47
0.0
 48
0.0
 49
0.0
140
0.0
141
0.0
142
1.0
143
1.0
 70
   688
 72
     0
 73
     0
 74
     5
  7
monochrome.ctb
 75
    16
147
1.0
 76
     0
 77
     2
 78
   300
148
0.0
149
0.0
100
AcDbLayout
  1
Layout1
 70
     0
 71
     1
 10
0.0
 20
0.0
 11
12.0
 21
9.0
 12
0.0
 22
0.0
 32
0.0
 14
1.000000000000000E+20
 24
1.000000000000000E+20
 34
1.000000000000000E+20
 15
-1.000000000000000E+20
 25
-1.000000000000000E+20
 35
-1.000000000000000E+20
146
0.0
 13
0.0
 23
0.0
 33
0.0
 16
1.0
 26
0.0
 36
0.0
 17
0.0
 27
1.0
 37
0.0
 76
     0
330
1A
  0
LAYOUT
  5
21
102
{ACAD_REACTORS
330
19
102
}
330
19
100
AcDbPlotSettings
  1

  2
Tektronix Phaser 740
  4
A4
  6

 40
5.873749732971191
 41
6.085414409637451
 42
5.577407836914062
 43
5.662078857421875
 44
209.9733276367187
 45
296.9683227539062
 46
0.0
 47
0.0
 48
0.0
 49
0.0
140
0.0
141
0.0
142
1.0
143
1.0
 70
 11952
 72
     0
 73
     1
 74
     0
  7
monochrome.ctb
 75
     0
147
1.0
 76
     0
 77
     2
 78
   300
148
1150.120678237584
149
45.30495740799864
100
AcDbLayout
  1
Model
 70
     1
 71
     0
 10
0.0
 20
0.0
 11
12.0
 21
9.0
 12
0.0
 22
0.0
 32
0.0
 14
0.0
 24
0.0
 34
0.0
 15
0.0
 25
0.0
 35
0.0
146
0.0
 13
0.0
 23
0.0
 33
0.0
 16
1.0
 26
0.0
 36
0.0
 17
0.0
 27
1.0
 37
0.0
 76
     0
330
1E
  0
MLINESTYLE
  5
17
102
{ACAD_REACTORS
330
16
102
}
330
16
100
AcDbMlineStyle
  2
STANDARD
 70
     0
  3

 62
   256
 51
90.0
 52
90.0
 71
     2
 49
0.5
 62
   256
  6
BYLAYER
 49
-0.5
 62
   256
  6
BYLAYER
  0
ACDBPLACEHOLDER
  5
F
102
{ACAD_REACTORS
330
E
102
}
330
E
  0
DICTIONARYVAR
  5
1215
102
{ACAD_REACTORS
330
246
102
}
330
246
100
DictionaryVariables
280
     0
  1
1
  0
DICTIONARYVAR
  5
1216
102
{ACAD_REACTORS
330
246
102
}
330
246
100
DictionaryVariables
280
     0
  1

  0
DICTIONARYVAR
  5
247
102
{ACAD_REACTORS
330
246
102
}
330
246
100
DictionaryVariables
280
     0
  1
96
  0
ENDSEC
  0
EOF
