  0
SECTION
  2
HEADER
  9
$ACADVER
  1
AC1018
  9
$ACADMAINTVER
 70
     2
  9
$DWGCODEPAGE
  3
ANSI_1252
  9
$INSBASE
 10
0.0
 20
0.0
 30
0.0
  9
$EXTMIN
 10
-0.0000000000001137
 20
-0.0000000000001137
 30
0.0
  9
$EXTMAX
 10
420.0
 20
594.0000000000002
 30
0.0
  9
$LIMMIN
 10
0.0
 20
0.0
  9
$LIMMAX
 10
419.9999999999999
 20
594.0
  9
$ORTHOMODE
 70
     1
  9
$REGENMODE
 70
     1
  9
$FILLMODE
 70
     1
  9
$QTEXTMODE
 70
     0
  9
$MIRRTEXT
 70
     1
  9
$LTSCALE
 40
20.0
  9
$ATTMODE
 70
     1
  9
$TEXTSIZE
 40
3.5
  9
$TRACEWID
 40
0.5
  9
$TEXTSTYLE
  7
STANDARD
  9
$CLAYER
  8
SCHRAFF
  9
$CELTYPE
  6
ByLayer
  9
$CECOLOR
 62
   256
  9
$CELTSCALE
 40
1.0
  9
$DISPSILH
 70
     0
  9
$DIMSCALE
 40
2.0
  9
$DIMASZ
 40
3.5
  9
$DIMEXO
 40
1.0
  9
$DIMDLI
 40
7.0
  9
$DIMRND
 40
0.0
  9
$DIMDLE
 40
0.0
  9
$DIMEXE
 40
1.0
  9
$DIMTP
 40
0.0
  9
$DIMTM
 40
0.0
  9
$DIMTXT
 40
3.5
  9
$DIMCEN
 40
1.5
  9
$DIMTSZ
 40
0.0
  9
$DIMTOL
 70
     0
  9
$DIMLIM
 70
     0
  9
$DIMTIH
 70
     0
  9
$DIMTOH
 70
     0
  9
$DIMSE1
 70
     0
  9
$DIMSE2
 70
     0
  9
$DIMTAD
 70
     1
  9
$DIMZIN
 70
     8
  9
$DIMBLK
  1

  9
$DIMASO
 70
     1
  9
$DIMSHO
 70
     0
  9
$DIMPOST
  1

  9
$DIMAPOST
  1

  9
$DIMALT
 70
     0
  9
$DIMALTD
 70
     2
  9
$DIMALTF
 40
25.4
  9
$DIMLFAC
 40
1.0
  9
$DIMTOFL
 70
     1
  9
$DIMTVP
 40
0.0
  9
$DIMTIX
 70
     0
  9
$DIMSOXD
 70
     0
  9
$DIMSAH
 70
     0
  9
$DIMBLK1
  1

  9
$DIMBLK2
  1

  9
$DIMSTYLE
  2
Standard
  9
$DIMCLRD
 70
     0
  9
$DIMCLRE
 70
     0
  9
$DIMCLRT
 70
     1
  9
$DIMTFAC
 40
0.5142857142857144
  9
$DIMGAP
 40
1.5
  9
$DIMJUST
 70
     0
  9
$DIMSD1
 70
     0
  9
$DIMSD2
 70
     0
  9
$DIMTOLJ
 70
     1
  9
$DIMTZIN
 70
     8
  9
$DIMALTZ
 70
     8
  9
$DIMALTTZ
 70
     8
  9
$DIMUPT
 70
     0
  9
$DIMDEC
 70
     2
  9
$DIMTDEC
 70
     2
  9
$DIMALTU
 70
     2
  9
$DIMALTTD
 70
     2
  9
$DIMTXSTY
  7
STANDARD
  9
$DIMAUNIT
 70
     0
  9
$DIMADEC
 70
     2
  9
$DIMALTRND
 40
0.0
  9
$DIMAZIN
 70
     2
  9
$DIMDSEP
 70
    46
  9
$DIMATFIT
 70
     3
  9
$DIMFRAC
 70
     0
  9
$DIMLDRBLK
  1

  9
$DIMLUNIT
 70
     2
  9
$DIMLWD
 70
    -2
  9
$DIMLWE
 70
    -2
  9
$DIMTMOVE
 70
     0
  9
$LUNITS
 70
     2
  9
$LUPREC
 70
     2
  9
$SKETCHINC
 40
1.0
  9
$FILLETRAD
 40
0.0
  9
$AUNITS
 70
     0
  9
$AUPREC
 70
     0
  9
$MENU
  1
ACAD
  9
$ELEVATION
 40
0.0
  9
$PELEVATION
 40
0.0
  9
$THICKNESS
 40
0.0
  9
$LIMCHECK
 70
     0
  9
$CHAMFERA
 40
0.0
  9
$CHAMFERB
 40
0.0
  9
$CHAMFERC
 40
0.0
  9
$CHAMFERD
 40
0.0
  9
$SKPOLY
 70
     0
  9
$TDCREATE
 40
2455397.823042361
  9
$TDUCREATE
 40
2455397.781375695
  9
$TDUPDATE
 40
2455610.572305324
  9
$TDUUPDATE
 40
2455610.530638657
  9
$TDINDWG
 40
0.1513958102
  9
$TDUSRTIMER
 40
0.1513958102
  9
$USRTIMER
 70
     1
  9
$ANGBASE
 50
0.0
  9
$ANGDIR
 70
     0
  9
$PDMODE
 70
     0
  9
$PDSIZE
 40
0.0
  9
$PLINEWID
 40
0.0
  9
$SPLFRAME
 70
     0
  9
$SPLINETYPE
 70
     6
  9
$SPLINESEGS
 70
     8
  9
$HANDSEED
  5
270A
  9
$SURFTAB1
 70
     6
  9
$SURFTAB2
 70
     6
  9
$SURFTYPE
 70
     6
  9
$SURFU
 70
     6
  9
$SURFV
 70
     6
  9
$UCSBASE
  2

  9
$UCSNAME
  2

  9
$UCSORG
 10
0.0
 20
0.0
 30
0.0
  9
$UCSXDIR
 10
1.0
 20
0.0
 30
0.0
  9
$UCSYDIR
 10
0.0
 20
1.0
 30
0.0
  9
$UCSORTHOREF
  2

  9
$UCSORTHOVIEW
 70
     0
  9
$UCSORGTOP
 10
0.0
 20
0.0
 30
0.0
  9
$UCSORGBOTTOM
 10
0.0
 20
0.0
 30
0.0
  9
$UCSORGLEFT
 10
0.0
 20
0.0
 30
0.0
  9
$UCSORGRIGHT
 10
0.0
 20
0.0
 30
0.0
  9
$UCSORGFRONT
 10
0.0
 20
0.0
 30
0.0
  9
$UCSORGBACK
 10
0.0
 20
0.0
 30
0.0
  9
$PUCSBASE
  2

  9
$PUCSNAME
  2

  9
$PUCSORG
 10
0.0
 20
0.0
 30
0.0
  9
$PUCSXDIR
 10
1.0
 20
0.0
 30
0.0
  9
$PUCSYDIR
 10
0.0
 20
1.0
 30
0.0
  9
$PUCSORTHOREF
  2

  9
$PUCSORTHOVIEW
 70
     0
  9
$PUCSORGTOP
 10
0.0
 20
0.0
 30
0.0
  9
$PUCSORGBOTTOM
 10
0.0
 20
0.0
 30
0.0
  9
$PUCSORGLEFT
 10
0.0
 20
0.0
 30
0.0
  9
$PUCSORGRIGHT
 10
0.0
 20
0.0
 30
0.0
  9
$PUCSORGFRONT
 10
0.0
 20
0.0
 30
0.0
  9
$PUCSORGBACK
 10
0.0
 20
0.0
 30
0.0
  9
$USERI1
 70
     0
  9
$USERI2
 70
     0
  9
$USERI3
 70
     0
  9
$USERI4
 70
     0
  9
$USERI5
 70
     0
  9
$USERR1
 40
0.0
  9
$USERR2
 40
0.0
  9
$USERR3
 40
0.0
  9
$USERR4
 40
0.0
  9
$USERR5
 40
0.0
  9
$WORLDVIEW
 70
     1
  9
$SHADEDGE
 70
     3
  9
$SHADEDIF
 70
    70
  9
$TILEMODE
 70
     1
  9
$MAXACTVP
 70
    16
  9
$PINSBASE
 10
0.0
 20
0.0
 30
0.0
  9
$PLIMCHECK
 70
     0
  9
$PEXTMIN
 10
1.000000000000000E+20
 20
1.000000000000000E+20
 30
1.000000000000000E+20
  9
$PEXTMAX
 10
-1.000000000000000E+20
 20
-1.000000000000000E+20
 30
-1.000000000000000E+20
  9
$PLIMMIN
 10
0.0
 20
0.0
  9
$PLIMMAX
 10
12.0
 20
9.0
  9
$UNITMODE
 70
     0
  9
$VISRETAIN
 70
     0
  9
$PLINEGEN
 70
     0
  9
$PSLTSCALE
 70
     0
  9
$TREEDEPTH
 70
  3020
  9
$CMLSTYLE
  2
Standard
  9
$CMLJUST
 70
     0
  9
$CMLSCALE
 40
1.0
  9
$PROXYGRAPHICS
 70
     1
  9
$MEASUREMENT
 70
     0
  9
$CELWEIGHT
370
    -1
  9
$ENDCAPS
280
     0
  9
$JOINSTYLE
280
     0
  9
$LWDISPLAY
290
     0
  9
$INSUNITS
 70
     0
  9
$HYPERLINKBASE
  1

  9
$STYLESHEET
  1
monochrome 1.ctb
  9
$XEDIT
290
     1
  9
$CEPSNTYPE
380
     0
  9
$PSTYLEMODE
290
     1
  9
$FINGERPRINTGUID
  2
{D68B0D02-A558-11D7-B632-000102183313}
  9
$VERSIONGUID
  2
{0730B86E-1583-4D5B-9EAF-BF9D3E65D88C}
  9
$EXTNAMES
290
     1
  9
$PSVPSCALE
 40
0.0
  9
$OLESTARTUP
290
     0
  9
$SORTENTS
280
   127
  9
$INDEXCTL
280
     0
  9
$HIDETEXT
280
     0
  9
$XCLIPFRAME
290
     0
  9
$HALOGAP
280
     0
  9
$OBSCOLOR
 70
   257
  9
$OBSLTYPE
280
     0
  9
$INTERSECTIONDISPLAY
280
     0
  9
$INTERSECTIONCOLOR
 70
   257
  9
$DIMASSOC
280
     1
  9
$PROJECTNAME
  1

  0
ENDSEC
  0
SECTION
  2
CLASSES
  0
CLASS
  1
ACDBDICTIONARYWDFLT
  2
AcDbDictionaryWithDefault
  3
ObjectDBX Classes
 90
        0
 91
        1
280
     0
281
     0
  0
CLASS
  1
DICTIONARYVAR
  2
AcDbDictionaryVar
  3
ObjectDBX Classes
 90
        0
 91
        2
280
     0
281
     0
  0
ENDSEC
  0
SECTION
  2
TABLES
  0
TABLE
  2
VPORT
  5
8
330
0
100
AcDbSymbolTable
 70
     2
  0
VPORT
  5
2709
330
8
100
AcDbSymbolTableRecord
100
AcDbViewportTableRecord
  2
*Active
 70
     0
 10
0.0
 20
0.0
 11
1.0
 21
1.0
 12
210.0
 22
297.0
 13
0.0
 23
0.0
 14
1.0
 24
1.0
 15
10.0
 25
10.0
 16
0.0
 26
0.0
 36
1.0
 17
0.0
 27
0.0
 37
0.0
 40
594.267301589677
 41
1.336927223719676
 42
50.0
 43
0.0
 44
0.0
 50
0.0
 51
0.0
 71
     0
 72
  1500
 73
     1
 74
     0
 75
     0
 76
     0
 77
     0
 78
     0
281
     0
 65
     1
110
0.0
120
0.0
130
0.0
111
1.0
121
0.0
131
0.0
112
0.0
122
1.0
132
0.0
 79
     0
146
0.0
  0
ENDTAB
  0
TABLE
  2
LTYPE
  5
5
330
0
100
AcDbSymbolTable
 70
     3
  0
LTYPE
  5
13
330
5
100
AcDbSymbolTableRecord
100
AcDbLinetypeTableRecord
  2
ByBlock
 70
     0
  3

 72
    65
 73
     0
 40
0.0
  0
LTYPE
  5
14
330
5
100
AcDbSymbolTableRecord
100
AcDbLinetypeTableRecord
  2
ByLayer
 70
     0
  3

 72
    65
 73
     0
 40
0.0
  0
LTYPE
  5
15
330
5
100
AcDbSymbolTableRecord
100
AcDbLinetypeTableRecord
  2
Continuous
 70
     0
  3
Solid line
 72
    65
 73
     0
 40
0.0
  0
LTYPE
  5
25
330
5
100
AcDbSymbolTableRecord
100
AcDbLinetypeTableRecord
  2
STRICHPUNKT
 70
     0
  3
__ . __ . __ . __ . __ . __ . __ . __ . __ . __
 72
    65
 73
     4
 40
1.0
 49
0.5
 74
     0
 49
-0.25
 74
     0
 49
0.0
 74
     0
 49
-0.25
 74
     0
  0
LTYPE
  5
32
330
5
100
AcDbSymbolTableRecord
100
AcDbLinetypeTableRecord
  2
AUSGEZOGEN
 70
     0
  3
Ausgezogene Linie
 72
    65
 73
     0
 40
0.0
  0
ENDTAB
  0
TABLE
  2
LAYER
  5
2
330
0
100
AcDbSymbolTable
 70
     9
  0
LAYER
  5
10
330
2
100
AcDbSymbolTableRecord
100
AcDbLayerTableRecord
  2
0
 70
     0
 62
     7
  6
Continuous
370
    -3
390
F
  0
LAYER
  5
2A
330
2
100
AcDbSymbolTableRecord
100
AcDbLayerTableRecord
  2
VOLL
 70
     0
 62
     1
  6
Continuous
370
    -3
390
F
  0
LAYER
  5
2B
330
2
100
AcDbSymbolTableRecord
100
AcDbLayerTableRecord
  2
HILF
 70
     0
 62
     2
  6
Continuous
370
    -3
390
F
  0
LAYER
  5
2C
330
2
100
AcDbSymbolTableRecord
100
AcDbLayerTableRecord
  2
MITTEL
 70
     0
 62
     2
  6
STRICHPUNKT
370
    -3
390
F
  0
LAYER
  5
2F
330
2
100
AcDbSymbolTableRecord
100
AcDbLayerTableRecord
  2
BEM
 70
     0
 62
     7
  6
Continuous
370
    -3
390
F
  0
LAYER
  5
30
330
2
100
AcDbSymbolTableRecord
100
AcDbLayerTableRecord
  2
STEMPEL
 70
     0
 62
     3
  6
Continuous
370
    -3
390
F
  0
LAYER
  5
31
330
2
100
AcDbSymbolTableRecord
100
AcDbLayerTableRecord
  2
TEXT
 70
     0
 62
     7
  6
Continuous
370
    -3
390
F
  0
LAYER
  5
561
330
2
100
AcDbSymbolTableRecord
100
AcDbLayerTableRecord
  2
DEFPOINTS
 70
     0
 62
     7
  6
AUSGEZOGEN
290
     0
370
    -3
390
F
  0
LAYER
  5
562
330
2
100
AcDbSymbolTableRecord
100
AcDbLayerTableRecord
  2
SCHRAFF
 70
     0
 62
     7
  6
AUSGEZOGEN
370
    -3
390
F
  0
ENDTAB
  0
TABLE
  2
STYLE
  5
3
330
0
100
AcDbSymbolTable
 70
     2
  0
STYLE
  5
11
330
3
100
AcDbSymbolTableRecord
100
AcDbTextStyleTableRecord
  2
STANDARD
 70
     0
 40
0.0
 41
0.8
 50
0.0
 71
     0
 42
3.5
  3
simplex.shx
  4

  0
STYLE
  5
24
330
3
100
AcDbSymbolTableRecord
100
AcDbTextStyleTableRecord
  2
GREEKS
 70
     0
 40
0.0
 41
0.8
 50
0.0
 71
     0
 42
2.5
  3
SIMPLEX.shx
  4

  0
ENDTAB
  0
TABLE
  2
VIEW
  5
6
330
0
100
AcDbSymbolTable
 70
     0
  0
ENDTAB
  0
TABLE
  2
UCS
  5
7
330
0
100
AcDbSymbolTable
 70
     0
  0
ENDTAB
  0
TABLE
  2
APPID
  5
9
330
0
100
AcDbSymbolTable
 70
     1
  0
APPID
  5
12
330
9
100
AcDbSymbolTableRecord
100
AcDbRegAppTableRecord
  2
ACAD
 70
     0
  0
ENDTAB
  0
TABLE
  2
DIMSTYLE
  5
A
330
0
100
AcDbSymbolTable
 70
     1
100
AcDbDimStyleTable
 71
     1
340
9D
  0
DIMSTYLE
105
9D
102
{ACAD_REACTORS
330
20A7
330
209B
330
1F17
330
2094
330
2399
330
254A
102
}
330
A
100
AcDbSymbolTableRecord
100
AcDbDimStyleTableRecord
  2
Standard
 70
     0
340
11
  0
ENDTAB
  0
TABLE
  2
BLOCK_RECORD
  5
1
330
0
100
AcDbSymbolTable
 70
     7
  0
BLOCK_RECORD
  5
1E
102
{ACAD_XDICTIONARY
360
A0
102
}
330
1
100
AcDbSymbolTableRecord
100
AcDbBlockTableRecord
  2
*Model_Space
340
21
  0
BLOCK_RECORD
  5
1A
102
{ACAD_XDICTIONARY
360
A2
102
}
330
1
100
AcDbSymbolTableRecord
100
AcDbBlockTableRecord
  2
*Paper_Space
340
1D
  0
BLOCK_RECORD
  5
22
330
1
100
AcDbSymbolTableRecord
100
AcDbBlockTableRecord
  2
LOGO
340
0
102
{BLKREFS
331
20C0
102
}
  0
BLOCK_RECORD
  5
20D1
330
1
100
AcDbSymbolTableRecord
100
AcDbBlockTableRecord
  2
*D1
340
0
  0
BLOCK_RECORD
  5
20DD
330
1
100
AcDbSymbolTableRecord
100
AcDbBlockTableRecord
  2
*D2
340
0
  0
BLOCK_RECORD
  5
20E8
330
1
100
AcDbSymbolTableRecord
100
AcDbBlockTableRecord
  2
*D3
340
0
  0
BLOCK_RECORD
  5
20FE
330
1
100
AcDbSymbolTableRecord
100
AcDbBlockTableRecord
  2
*D4
340
0
  0
BLOCK_RECORD
  5
23A0
330
1
100
AcDbSymbolTableRecord
100
AcDbBlockTableRecord
  2
*D5
340
0
  0
BLOCK_RECORD
  5
254B
330
1
100
AcDbSymbolTableRecord
100
AcDbBlockTableRecord
  2
*D6
340
0
  0
ENDTAB
  0
ENDSEC
  0
SECTION
  2
BLOCKS
  0
BLOCK
  5
35
330
1E
100
AcDbEntity
  8
0
100
AcDbBlockBegin
  2
*Model_Space
 70
     0
 10
0.0
 20
0.0
 30
0.0
  3
*Model_Space
  1

  0
ENDBLK
  5
36
330
1E
100
AcDbEntity
  8
0
100
AcDbBlockEnd
  0
BLOCK
  5
33
330
1A
100
AcDbEntity
 67
     1
  8
0
100
AcDbBlockBegin
  2
*Paper_Space
 70
     0
 10
0.0
 20
0.0
 30
0.0
  3
*Paper_Space
  1

  0
ENDBLK
  5
34
330
1A
100
AcDbEntity
 67
     1
  8
0
100
AcDbBlockEnd
  0
BLOCK
  5
37
330
22
100
AcDbEntity
  8
0
100
AcDbBlockBegin
  2
LOGO
 70
     0
 10
0.0
 20
0.0
 30
0.0
  3
LOGO
  1

  0
ARC
  5
38
330
22
100
AcDbEntity
  8
0
100
AcDbCircle
 10
11.59973089678112
 20
-9.271599258481501
 30
0.0
 40
4.5
100
AcDbArc
 50
270.0
 51
231.0575587310159
  0
LINE
  5
39
330
22
100
AcDbEntity
  8
0
100
AcDbLine
 10
3.599730896781125
 20
-4.771599258481529
 30
0.0
 11
3.599730896781153
 21
-11.77159925848133
 31
0.0
  0
LINE
  5
3A
330
22
100
AcDbEntity
  8
0
100
AcDbLine
 10
2.599730896781125
 20
-4.771599258481529
 30
0.0
 11
2.599730896781153
 21
-11.77159925848133
 31
0.0
  0
CIRCLE
  5
3B
330
22
100
AcDbEntity
  8
0
100
AcDbCircle
 10
11.59973089678112
 20
-9.271599258481501
 30
0.0
 40
3.5
  0
ARC
  5
3C
330
22
100
AcDbEntity
  8
0
100
AcDbCircle
 10
31.59973089678115
 20
-9.271599258481472
 30
0.0
 40
4.5
100
AcDbArc
 50
270.0
 51
231.0575587310182
  0
LINE
  5
3D
330
22
100
AcDbEntity
  8
0
100
AcDbLine
 10
17.59973089678112
 20
-4.771599258481472
 30
0.0
 11
17.59973089678115
 21
-13.77159925848147
 31
0.0
  0
ARC
  5
3E
330
22
100
AcDbEntity
  8
0
100
AcDbCircle
 10
22.59973089678116
 20
-7.271599258481472
 30
0.0
 40
2.5
100
AcDbArc
 50
293.1161887722295
 51
90.0
  0
CIRCLE
  5
3F
330
22
100
AcDbEntity
  8
0
100
AcDbCircle
 10
31.59973089678115
 20
-9.271599258481472
 30
0.0
 40
3.5
  0
ARC
  5
40
330
22
100
AcDbEntity
  8
0
100
AcDbCircle
 10
4.599730896781153
 20
-11.77159925848133
 30
0.0
 40
1.0
100
AcDbArc
 50
180.0
 51
270.0
  0
ARC
  5
41
330
22
100
AcDbEntity
  8
0
100
AcDbCircle
 10
4.599730896781153
 20
-11.77159925848133
 30
0.0
 40
2.0
100
AcDbArc
 50
179.9999999999992
 51
270.0
  0
LINE
  5
42
330
22
100
AcDbEntity
  8
0
100
AcDbLine
 10
11.59973089678115
 20
-13.77159925848144
 30
0.0
 11
4.599730896781153
 21
-13.77159925848147
 31
0.0
  0
LINE
  5
43
330
22
100
AcDbEntity
  8
0
100
AcDbLine
 10
8.771303772034769
 20
-12.77159925848136
 30
0.0
 11
4.599730896781153
 21
-12.77159925848133
 31
0.0
  0
LINE
  5
44
330
22
100
AcDbEntity
  8
0
100
AcDbLine
 10
31.59973089678115
 20
-13.77159925848147
 30
0.0
 11
23.6715276665056
 21
-13.77159925848144
 31
0.0
  0
LINE
  5
45
330
22
100
AcDbEntity
  8
0
100
AcDbLine
 10
23.56565672307022
 20
-9.51278021337896
 30
0.0
 11
24.4388546544846
 21
-12.77159925848144
 31
0.0
  0
LINE
  5
46
330
22
100
AcDbEntity
  8
0
100
AcDbLine
 10
22.59973089678116
 20
-9.771599258481472
 30
0.0
 11
18.59973089678112
 21
-9.771599258481472
 31
0.0
  0
LINE
  5
47
330
22
100
AcDbEntity
  8
0
100
AcDbLine
 10
18.59973089678115
 20
-13.77159925848144
 30
0.0
 11
17.59973089678115
 21
-13.77159925848144
 31
0.0
  0
LINE
  5
48
330
22
100
AcDbEntity
  8
0
100
AcDbLine
 10
18.59973089678115
 20
-9.771599258481472
 30
0.0
 11
18.59973089678115
 21
-13.77159925848144
 31
0.0
  0
LINE
  5
49
330
22
100
AcDbEntity
  8
0
100
AcDbLine
 10
22.59973089678116
 20
-9.771599258481472
 30
0.0
 11
23.67152766650562
 21
-13.77159925848147
 31
0.0
  0
ARC
  5
4A
330
22
100
AcDbEntity
  8
0
100
AcDbCircle
 10
22.59973089678116
 20
-7.271599258481472
 30
0.0
 40
2.5
100
AcDbArc
 50
270.0
 51
270.0000000000007
  0
LINE
  5
4B
330
22
100
AcDbEntity
  8
0
100
AcDbLine
 10
28.77130377203494
 20
-12.77159925848147
 30
0.0
 11
24.43885465448463
 21
-12.77159925848144
 31
0.0
  0
LINE
  5
4C
330
22
100
AcDbEntity
  8
0
100
AcDbLine
 10
3.599730896781125
 20
-4.771599258481472
 30
0.0
 11
2.599730896781125
 21
-4.771599258481472
 31
0.0
  0
LINE
  5
4D
330
22
100
AcDbEntity
  8
0
100
AcDbLine
 10
22.59973089678116
 20
-8.771599258481472
 30
0.0
 11
18.59973089678115
 21
-8.771599258481472
 31
0.0
  0
LINE
  5
4E
330
22
100
AcDbEntity
  8
0
100
AcDbLine
 10
22.59973089678116
 20
-5.771599258481472
 30
0.0
 11
18.59973089678115
 21
-5.771599258481472
 31
0.0
  0
LINE
  5
4F
330
22
100
AcDbEntity
  8
0
100
AcDbLine
 10
22.59973089678116
 20
-4.771599258481472
 30
0.0
 11
17.59973089678115
 21
-4.771599258481472
 31
0.0
  0
LINE
  5
50
330
22
100
AcDbEntity
  8
0
100
AcDbLine
 10
18.59973089678115
 20
-5.771599258481472
 30
0.0
 11
18.59973089678115
 21
-8.771599258481472
 31
0.0
  0
ARC
  5
51
330
22
100
AcDbEntity
  8
0
100
AcDbCircle
 10
22.59973089678116
 20
-7.271599258481472
 30
0.0
 40
1.5
100
AcDbArc
 50
270.0
 51
90.0
  0
ENDBLK
  5
52
330
22
100
AcDbEntity
  8
0
100
AcDbBlockEnd
  0
BLOCK
  5
20DB
330
20D1
100
AcDbEntity
  8
0
100
AcDbBlockBegin
  2
*D1
 70
     1
 10
0.0
 20
0.0
 30
0.0
  3
*D1
  1

  0
LINE
  5
2569
330
20D1
100
AcDbEntity
  8
BEM
 62
     0
370
    -2
100
AcDbLine
 10
190.8536297512094
 20
133.6582834699618
 30
0.0
 11
69.51796272000159
 21
133.6582834699618
 31
0.0
  0
LINE
  5
256A
330
20D1
100
AcDbEntity
  8
BEM
 62
     0
370
    -2
100
AcDbLine
 10
104.3287285507801
 20
433.6595780236892
 30
0.0
 11
69.51796272000166
 21
433.6595780236892
 31
0.0
  0
LINE
  5
256B
330
20D1
100
AcDbEntity
  8
BEM
 62
     0
370
    -2
100
AcDbLine
 10
71.51796272000159
 20
140.6582834699618
 30
0.0
 11
71.51796272000166
 21
426.6595780236892
 31
0.0
  0
SOLID
  5
256C
330
20D1
100
AcDbEntity
  8
BEM
 62
     0
100
AcDbTrace
 10
70.35129605333492
 20
140.6582834699618
 30
0.0
 11
72.68462938666826
 21
140.6582834699618
 31
0.0
 12
71.51796272000159
 22
133.6582834699618
 32
0.0
 13
71.51796272000159
 23
133.6582834699618
 33
0.0
  0
SOLID
  5
256D
330
20D1
100
AcDbEntity
  8
BEM
 62
     0
100
AcDbTrace
 10
70.35129605333499
 20
426.6595780236892
 30
0.0
 11
72.68462938666833
 21
426.6595780236892
 31
0.0
 12
71.51796272000166
 22
433.6595780236892
 32
0.0
 13
71.51796272000166
 23
433.6595780236892
 33
0.0
  0
MTEXT
  5
256E
330
20D1
100
AcDbEntity
  8
BEM
 62
     1
100
AcDbMText
 10
65.01796272000158
 20
283.6589307468255
 30
0.0
 40
7.0
 41
0.0
 71
     5
 72
     1
  1
\A1;300
 11
0.0000000000000001
 21
1.0
 31
0.0
 73
     1
 44
1.0
  0
POINT
  5
256F
330
20D1
100
AcDbEntity
  8
DEFPOINTS
 62
     0
100
AcDbPoint
 10
192.8536297512094
 20
133.6582834699617
 30
0.0
  0
POINT
  5
2570
330
20D1
100
AcDbEntity
  8
DEFPOINTS
 62
     0
100
AcDbPoint
 10
106.3287285507801
 20
433.6595780236892
 30
0.0
  0
POINT
  5
2571
330
20D1
100
AcDbEntity
  8
DEFPOINTS
 62
     0
100
AcDbPoint
 10
71.51796272000166
 20
433.6595780236892
 30
0.0
  0
ENDBLK
  5
20DC
330
20D1
100
AcDbEntity
  8
0
100
AcDbBlockEnd
  0
BLOCK
  5
20E6
330
20DD
100
AcDbEntity
  8
0
100
AcDbBlockBegin
  2
*D2
 70
     1
 10
0.0
 20
0.0
 30
0.0
  3
*D2
  1

  0
LINE
  5
26EF
330
20DD
100
AcDbEntity
  8
BEM
 62
     0
370
    -2
100
AcDbLine
 10
146.8287285507803
 20
549.65957802369
 30
0.0
 11
69.51796272000169
 21
549.65957802369
 31
0.0
  0
LINE
  5
26F0
330
20DD
100
AcDbEntity
  8
BEM
 62
     0
370
    -2
100
AcDbLine
 10
109.8287285507808
 20
439.659578023688
 30
0.0
 11
69.51796272000166
 21
439.659578023688
 31
0.0
  0
LINE
  5
26F1
330
20DD
100
AcDbEntity
  8
BEM
 62
     0
370
    -2
100
AcDbLine
 10
71.51796272000168
 20
542.6595780236899
 30
0.0
 11
71.51796272000166
 21
446.659578023688
 31
0.0
  0
SOLID
  5
26F2
330
20DD
100
AcDbEntity
  8
BEM
 62
     0
100
AcDbTrace
 10
70.35129605333501
 20
542.6595780236899
 30
0.0
 11
72.68462938666835
 21
542.6595780236899
 31
0.0
 12
71.51796272000169
 22
549.65957802369
 32
0.0
 13
71.51796272000169
 23
549.65957802369
 33
0.0
  0
SOLID
  5
26F3
330
20DD
100
AcDbEntity
  8
BEM
 62
     0
100
AcDbTrace
 10
70.35129605333499
 20
446.659578023688
 30
0.0
 11
72.68462938666833
 21
446.659578023688
 31
0.0
 12
71.51796272000166
 22
439.659578023688
 32
0.0
 13
71.51796272000166
 23
439.659578023688
 33
0.0
  0
MTEXT
  5
26F4
330
20DD
100
AcDbEntity
  8
BEM
 62
     1
100
AcDbMText
 10
65.01796272000159
 20
494.6595780236889
 30
0.0
 40
7.0
 41
0.0
 71
     5
 72
     1
  1
\A1;110
 11
0.0000000000000001
 21
1.0
 31
0.0
 73
     1
 44
1.0
  0
POINT
  5
26F5
330
20DD
100
AcDbEntity
  8
DEFPOINTS
 62
     0
100
AcDbPoint
 10
148.8287285507803
 20
549.65957802369
 30
0.0
  0
POINT
  5
26F6
330
20DD
100
AcDbEntity
  8
DEFPOINTS
 62
     0
100
AcDbPoint
 10
111.8287285507808
 20
439.659578023688
 30
0.0
  0
POINT
  5
26F7
330
20DD
100
AcDbEntity
  8
DEFPOINTS
 62
     0
100
AcDbPoint
 10
71.51796272000166
 20
439.659578023688
 30
0.0
  0
ENDBLK
  5
20E7
330
20DD
100
AcDbEntity
  8
0
100
AcDbBlockEnd
  0
BLOCK
  5
20F1
330
20E8
100
AcDbEntity
  8
0
100
AcDbBlockBegin
  2
*D3
 70
     1
 10
0.0
 20
0.0
 30
0.0
  3
*D3
  1

  0
LINE
  5
24EE
330
20E8
100
AcDbEntity
  8
BEM
 62
     0
370
    -2
100
AcDbLine
 10
118.8287285507803
 20
531.659520056375
 30
0.0
 11
118.8287285507803
 21
560.4719310204238
 31
0.0
  0
LINE
  5
24EF
330
20E8
100
AcDbEntity
  8
BEM
 62
     0
370
    -2
100
AcDbLine
 10
338.8287285507806
 20
531.659520056375
 30
0.0
 11
338.8287285507806
 21
560.4719310204238
 31
0.0
  0
LINE
  5
24F0
330
20E8
100
AcDbEntity
  8
BEM
 62
     0
370
    -2
100
AcDbLine
 10
125.8287285507803
 20
558.4719310204238
 30
0.0
 11
331.8287285507806
 21
558.4719310204238
 31
0.0
  0
SOLID
  5
24F1
330
20E8
100
AcDbEntity
  8
BEM
 62
     0
100
AcDbTrace
 10
125.8287285507803
 20
559.6385976870904
 30
0.0
 11
125.8287285507803
 21
557.3052643537572
 31
0.0
 12
118.8287285507803
 22
558.4719310204238
 32
0.0
 13
118.8287285507803
 23
558.4719310204238
 33
0.0
  0
SOLID
  5
24F2
330
20E8
100
AcDbEntity
  8
BEM
 62
     0
100
AcDbTrace
 10
331.8287285507806
 20
559.6385976870904
 30
0.0
 11
331.8287285507806
 21
557.3052643537572
 31
0.0
 12
338.8287285507806
 22
558.4719310204238
 32
0.0
 13
338.8287285507806
 23
558.4719310204238
 33
0.0
  0
MTEXT
  5
24F3
330
20E8
100
AcDbEntity
  8
BEM
 62
     1
100
AcDbMText
 10
228.8287285507804
 20
564.9719310204239
 30
0.0
 40
7.0
 41
0.0
 71
     5
 72
     1
  1
\A1;%%c220
 73
     1
 44
1.0
  0
POINT
  5
24F4
330
20E8
100
AcDbEntity
  8
DEFPOINTS
 62
     0
100
AcDbPoint
 10
118.8287285507803
 20
529.659520056375
 30
0.0
  0
POINT
  5
24F5
330
20E8
100
AcDbEntity
  8
DEFPOINTS
 62
     0
100
AcDbPoint
 10
338.8287285507806
 20
529.659520056375
 30
0.0
  0
POINT
  5
24F6
330
20E8
100
AcDbEntity
  8
DEFPOINTS
 62
     0
100
AcDbPoint
 10
338.8287285507806
 20
558.4719310204238
 30
0.0
  0
ENDBLK
  5
20F2
330
20E8
100
AcDbEntity
  8
0
100
AcDbBlockEnd
  0
BLOCK
  5
2108
330
20FE
100
AcDbEntity
  8
0
100
AcDbBlockBegin
  2
*D4
 70
     1
 10
0.0
 20
0.0
 30
0.0
  3
*D4
  1

  0
LINE
  5
24E5
330
20FE
100
AcDbEntity
  8
BEM
 62
     0
370
    -2
100
AcDbLine
 10
192.3287285507806
 20
136.5940866093268
 30
0.0
 11
192.3287285507806
 21
114.8042486389615
 31
0.0
  0
LINE
  5
24E6
330
20FE
100
AcDbEntity
  8
BEM
 62
     0
370
    -2
100
AcDbLine
 10
265.3287285507806
 20
136.5940866093267
 30
0.0
 11
265.3287285507806
 21
114.8042486389615
 31
0.0
  0
LINE
  5
24E7
330
20FE
100
AcDbEntity
  8
BEM
 62
     0
370
    -2
100
AcDbLine
 10
199.3287285507805
 20
116.8042486389615
 30
0.0
 11
258.3287285507806
 21
116.8042486389615
 31
0.0
  0
SOLID
  5
24E8
330
20FE
100
AcDbEntity
  8
BEM
 62
     0
100
AcDbTrace
 10
199.3287285507805
 20
117.9709153056282
 30
0.0
 11
199.3287285507805
 21
115.6375819722949
 31
0.0
 12
192.3287285507806
 22
116.8042486389615
 32
0.0
 13
192.3287285507806
 23
116.8042486389615
 33
0.0
  0
SOLID
  5
24E9
330
20FE
100
AcDbEntity
  8
BEM
 62
     0
100
AcDbTrace
 10
258.3287285507806
 20
117.9709153056282
 30
0.0
 11
258.3287285507806
 21
115.6375819722949
 31
0.0
 12
265.3287285507806
 22
116.8042486389615
 32
0.0
 13
265.3287285507806
 23
116.8042486389615
 33
0.0
  0
MTEXT
  5
24EA
330
20FE
100
AcDbEntity
  8
BEM
 62
     1
100
AcDbMText
 10
228.8287285507806
 20
123.3042486389615
 30
0.0
 40
7.0
 41
0.0
 71
     5
 72
     1
  1
\A1;%%c73
 73
     1
 44
1.0
  0
POINT
  5
24EB
330
20FE
100
AcDbEntity
  8
DEFPOINTS
 62
     0
100
AcDbPoint
 10
192.3287285507806
 20
138.5940866093268
 30
0.0
  0
POINT
  5
24EC
330
20FE
100
AcDbEntity
  8
DEFPOINTS
 62
     0
100
AcDbPoint
 10
265.3287285507806
 20
138.5940866093267
 30
0.0
  0
POINT
  5
24ED
330
20FE
100
AcDbEntity
  8
DEFPOINTS
 62
     0
100
AcDbPoint
 10
265.3287285507806
 20
116.8042486389615
 30
0.0
  0
ENDBLK
  5
2109
330
20FE
100
AcDbEntity
  8
0
100
AcDbBlockEnd
  0
BLOCK
  5
23AA
330
23A0
100
AcDbEntity
  8
0
100
AcDbBlockBegin
  2
*D5
 70
     1
 10
0.0
 20
0.0
 30
0.0
  3
*D5
  1

  0
LINE
  5
24DC
330
23A0
100
AcDbEntity
  8
BEM
 62
     0
370
    -2
100
AcDbLine
 10
98.82872855078023
 20
462.6595780236906
 30
0.0
 11
98.82872855078023
 21
573.9671323347313
 31
0.0
  0
LINE
  5
24DD
330
23A0
100
AcDbEntity
  8
BEM
 62
     0
370
    -2
100
AcDbLine
 10
358.8287285507801
 20
462.6595780236908
 30
0.0
 11
358.8287285507801
 21
573.9671323347313
 31
0.0
  0
LINE
  5
24DE
330
23A0
100
AcDbEntity
  8
BEM
 62
     0
370
    -2
100
AcDbLine
 10
105.8287285507802
 20
571.9671323347313
 30
0.0
 11
351.8287285507801
 21
571.9671323347313
 31
0.0
  0
SOLID
  5
24DF
330
23A0
100
AcDbEntity
  8
BEM
 62
     0
100
AcDbTrace
 10
105.8287285507802
 20
573.133799001398
 30
0.0
 11
105.8287285507802
 21
570.8004656680647
 31
0.0
 12
98.82872855078023
 22
571.9671323347313
 32
0.0
 13
98.82872855078023
 23
571.9671323347313
 33
0.0
  0
SOLID
  5
24E0
330
23A0
100
AcDbEntity
  8
BEM
 62
     0
100
AcDbTrace
 10
351.8287285507801
 20
573.133799001398
 30
0.0
 11
351.8287285507801
 21
570.8004656680647
 31
0.0
 12
358.8287285507801
 22
571.9671323347313
 32
0.0
 13
358.8287285507801
 23
571.9671323347313
 33
0.0
  0
MTEXT
  5
24E1
330
23A0
100
AcDbEntity
  8
BEM
 62
     1
100
AcDbMText
 10
228.8287285507802
 20
578.4671323347313
 30
0.0
 40
7.0
 41
0.0
 71
     5
 72
     1
  1
\A1;%%c260
 73
     1
 44
1.0
  0
POINT
  5
24E2
330
23A0
100
AcDbEntity
  8
DEFPOINTS
 62
     0
100
AcDbPoint
 10
98.82872855078023
 20
460.6595780236906
 30
0.0
  0
POINT
  5
24E3
330
23A0
100
AcDbEntity
  8
DEFPOINTS
 62
     0
100
AcDbPoint
 10
358.8287285507801
 20
460.6595780236908
 30
0.0
  0
POINT
  5
24E4
330
23A0
100
AcDbEntity
  8
DEFPOINTS
 62
     0
100
AcDbPoint
 10
358.8287285507801
 20
571.9671323347313
 30
0.0
  0
ENDBLK
  5
23AB
330
23A0
100
AcDbEntity
  8
0
100
AcDbBlockEnd
  0
BLOCK
  5
2555
330
254B
100
AcDbEntity
  8
0
100
AcDbBlockBegin
  2
*D6
 70
     1
 10
0.0
 20
0.0
 30
0.0
  3
*D6
  1

  0
LINE
  5
26E6
330
254B
100
AcDbEntity
  8
BEM
 62
     0
370
    -2
100
AcDbLine
 10
160.3287285507795
 20
474.6595780236888
 30
0.0
 11
83.23674932986842
 21
474.6595780236888
 31
0.0
  0
LINE
  5
26E7
330
254B
100
AcDbEntity
  8
BEM
 62
     0
370
    -2
100
AcDbLine
 10
109.8287285507808
 20
439.6595780236885
 30
0.0
 11
83.23674932986842
 21
439.6595780236885
 31
0.0
  0
LINE
  5
26E8
330
254B
100
AcDbEntity
  8
BEM
 62
     0
370
    -2
100
AcDbLine
 10
85.23674932986841
 20
467.6595780236889
 30
0.0
 11
85.23674932986841
 21
446.6595780236885
 31
0.0
  0
SOLID
  5
26E9
330
254B
100
AcDbEntity
  8
BEM
 62
     0
100
AcDbTrace
 10
84.07008266320174
 20
467.6595780236889
 30
0.0
 11
86.40341599653508
 21
467.6595780236889
 31
0.0
 12
85.23674932986841
 22
474.6595780236888
 32
0.0
 13
85.23674932986841
 23
474.6595780236888
 33
0.0
  0
SOLID
  5
26EA
330
254B
100
AcDbEntity
  8
BEM
 62
     0
100
AcDbTrace
 10
84.07008266320174
 20
446.6595780236885
 30
0.0
 11
86.40341599653508
 21
446.6595780236885
 31
0.0
 12
85.23674932986841
 22
439.6595780236885
 32
0.0
 13
85.23674932986841
 23
439.6595780236885
 33
0.0
  0
MTEXT
  5
26EB
330
254B
100
AcDbEntity
  8
BEM
 62
     1
100
AcDbMText
 10
78.73674932986834
 20
457.1595780236886
 30
0.0
 40
7.0
 41
0.0
 71
     5
 72
     1
  1
\A1;35
 11
0.0000000000000001
 21
1.0
 31
0.0
 73
     1
 44
1.0
  0
POINT
  5
26EC
330
254B
100
AcDbEntity
  8
DEFPOINTS
 62
     0
100
AcDbPoint
 10
162.3287285507795
 20
474.6595780236888
 30
0.0
  0
POINT
  5
26ED
330
254B
100
AcDbEntity
  8
DEFPOINTS
 62
     0
100
AcDbPoint
 10
111.8287285507808
 20
439.6595780236885
 30
0.0
  0
POINT
  5
26EE
330
254B
100
AcDbEntity
  8
DEFPOINTS
 62
     0
100
AcDbPoint
 10
85.23674932986841
 20
439.6595780236885
 30
0.0
  0
ENDBLK
  5
2556
330
254B
100
AcDbEntity
  8
0
100
AcDbBlockEnd
  0
ENDSEC
  0
SECTION
  2
ENTITIES
  0
LINE
  5
57
330
1E
100
AcDbEntity
  8
STEMPEL
100
AcDbLine
 10
410.0
 20
110.0
 30
0.0
 11
29.99999999999997
 21
110.0
 31
0.0
  0
LINE
  5
5B
330
1E
100
AcDbEntity
  8
STEMPEL
100
AcDbLine
 10
146.0
 20
29.99999999999997
 30
0.0
 11
29.99999999999997
 21
29.99999999999997
 31
0.0
  0
LINE
  5
5E
330
1E
100
AcDbEntity
  8
VOLL
100
AcDbLine
 10
44.00000000000008
 20
110.0
 30
0.0
 11
43.99999999999997
 21
9.999999999999971
 31
0.0
  0
LINE
  5
5F
330
1E
100
AcDbEntity
  8
VOLL
100
AcDbLine
 10
104.0000000000001
 20
109.9999999999999
 30
0.0
 11
104.0
 21
9.999999999999971
 31
0.0
  0
LINE
  5
60
330
1E
100
AcDbEntity
  8
VOLL
100
AcDbLine
 10
124.0000000000001
 20
109.9999999999999
 30
0.0
 11
124.0
 21
9.999999999999971
 31
0.0
  0
LINE
  5
63
330
1E
100
AcDbEntity
  8
HILF
100
AcDbLine
 10
30.00000000000009
 20
100.0
 30
0.0
 11
146.0000000000001
 21
100.0
 31
0.0
  0
LINE
  5
64
330
1E
100
AcDbEntity
  8
HILF
100
AcDbLine
 10
30.00000000000009
 20
90.00000000000005
 30
0.0
 11
146.0000000000001
 21
90.00000000000005
 31
0.0
  0
LINE
  5
65
330
1E
100
AcDbEntity
  8
HILF
100
AcDbLine
 10
30.00000000000009
 20
79.99999999999994
 30
0.0
 11
146.0
 21
79.99999999999994
 31
0.0
  0
LINE
  5
66
330
1E
100
AcDbEntity
  8
HILF
100
AcDbLine
 10
30.00000000000009
 20
69.99999999999994
 30
0.0
 11
146.0
 21
69.99999999999994
 31
0.0
  0
LINE
  5
67
330
1E
100
AcDbEntity
  8
HILF
100
AcDbLine
 10
30.00000000000009
 20
59.99999999999997
 30
0.0
 11
146.0
 21
59.99999999999997
 31
0.0
  0
LINE
  5
68
330
1E
100
AcDbEntity
  8
HILF
100
AcDbLine
 10
30.00000000000009
 20
49.99999999999997
 30
0.0
 11
146.0
 21
49.99999999999996
 31
0.0
  0
LINE
  5
69
330
1E
100
AcDbEntity
  8
HILF
100
AcDbLine
 10
30.00000000000009
 20
39.99999999999997
 30
0.0
 11
146.0
 21
39.99999999999997
 31
0.0
  0
TEXT
  5
74
330
1E
100
AcDbEntity
  8
TEXT
100
AcDbText
 10
64.34071736793199
 20
18.67381894984132
 30
0.0
 40
4.0
  1
Änderung
 41
0.8
  7
GREEKS
 72
     1
 11
75.08357451078913
 21
18.67381894984132
 31
0.0
100
AcDbText
  0
TEXT
  5
7B
330
1E
100
AcDbEntity
  8
TEXT
100
AcDbText
 10
38.26641107045757
 20
13.65465846027192
 30
0.0
 40
4.0
  1
Index
 50
90.0
 41
0.8
  7
GREEKS
100
AcDbText
  0
TEXT
  5
7C
330
1E
100
AcDbEntity
  8
TEXT
100
AcDbText
 10
110.0934676075481
 20
18.6715626933981
 30
0.0
 40
4.0
  1
Tag
 41
0.8
  7
GREEKS
 72
     1
 11
113.8268009408814
 21
18.6715626933981
 31
0.0
100
AcDbText
  0
TEXT
  5
7D
330
1E
100
AcDbEntity
  8
TEXT
100
AcDbText
 10
129.0122744386592
 20
18.59324216966408
 30
0.0
 40
4.0
  1
Name
 41
0.8
  7
GREEKS
 72
     1
 11
135.3360839624688
 21
18.59324216966408
 31
0.0
100
AcDbText
  0
LINE
  5
83
330
1E
100
AcDbEntity
  8
STEMPEL
100
AcDbLine
 10
39.99999999999989
 20
10.0
 30
0.0
 11
410.0
 21
10.0
 31
0.0
  0
LINE
  5
85
330
1E
100
AcDbEntity
  8
STEMPEL
100
AcDbLine
 10
410.0
 20
10.0
 30
0.0
 11
29.99999999999989
 21
10.0
 31
0.0
  0
LINE
  5
86
330
1E
100
AcDbEntity
  8
STEMPEL
100
AcDbLine
 10
410.0
 20
10.0
 30
0.0
 11
410.0
 21
584.0
 31
0.0
  0
LINE
  5
87
330
1E
100
AcDbEntity
  8
STEMPEL
100
AcDbLine
 10
30.0
 20
10.0
 30
0.0
 11
29.99999999999988
 21
583.9999999999998
 31
0.0
  0
LINE
  5
88
330
1E
100
AcDbEntity
  8
STEMPEL
100
AcDbLine
 10
410.0
 20
584.0
 30
0.0
 11
29.99999999999988
 21
583.9999999999998
 31
0.0
  0
LINE
  5
89
330
1E
100
AcDbEntity
  8
HILF
100
AcDbLine
 10
0.0
 20
0.0
 30
0.0
 11
-0.0000000000001137
 21
594.0
 31
0.0
  0
LINE
  5
8A
330
1E
100
AcDbEntity
  8
HILF
100
AcDbLine
 10
419.9999999999999
 20
594.0000000000002
 30
0.0
 11
0.0
 21
594.0
 31
0.0
  0
LINE
  5
8B
330
1E
100
AcDbEntity
  8
HILF
100
AcDbLine
 10
420.0
 20
0.0
 30
0.0
 11
0.0
 21
0.0
 31
0.0
  0
LINE
  5
8C
330
1E
100
AcDbEntity
  8
HILF
100
AcDbLine
 10
31.08767135713856
 20
297.0
 30
0.0
 11
0.0000000000001137
 21
297.0
 31
0.0
  0
LINE
  5
8E
330
1E
100
AcDbEntity
  8
HILF
100
AcDbLine
 10
420.0
 20
-0.0000000000001137
 30
0.0
 11
419.9999999999999
 21
594.0
 31
0.0
  0
TEXT
  5
8F
330
1E
100
AcDbEntity
  8
VOLL
100
AcDbText
 10
78.07675471698113
 20
31.02594776470585
 30
0.0
 40
1.8
  1

  7
GREEKS
100
AcDbText
  0
TEXT
  5
90
330
1E
100
AcDbEntity
  8
TEXT
100
AcDbText
 10
31.85509950977675
 20
111.6719999999999
 30
0.0
 40
5.0
  1
Erstellt mit AUTOCAD 2004
 41
0.8
  7
GREEKS
100
AcDbText
  0
TEXT
  5
118
330
1E
100
AcDbEntity
  8
BEM
100
AcDbText
 10
417.3022923857165
 20
10.16790107998849
 30
0.0
 40
4.0
  1
Diese Zeichnung ist urheberrechtlich geschützt und bleibt unser Eigentum. Sie darf weder ganz noch teilweise verfielfältigt und nicht an Dritte weitergegeben werden.
 50
90.0
 41
0.8
  7
GREEKS
100
AcDbText
  0
HATCH
  5
1EDB
330
1E
100
AcDbEntity
  8
SCHRAFF
100
AcDbHatch
 10
0.0
 20
0.0
 30
0.0
210
0.0
220
0.0
230
1.0
  2
_USER
 70
     0
 71
     0
 91
        2
 92
        7
 72
     1
 73
     1
 93
       10
 10
193.8287285507827
 20
410.9671898682637
 42
0.1989123673796762
 10
191.924922628495
 20
415.5633839459766
 42
0.0
 10
186.3164622655764
 20
421.1718443088944
 42
0.0
 10
185.2558020937966
 20
420.1111841371146
 42
0.0
 10
190.8642624567151
 20
414.5027237741969
 42
-0.1989123673796839
 10
192.3287285507827
 20
410.9671898682639
 42
0.0
 10
192.3287285507805
 20
138.5940866093268
 42
0.0
 10
192.7604421120952
 20
133.6595780236892
 42
0.0
 10
194.2661718684101
 20
133.6595780236892
 42
0.0
 10
193.8287285507804
 20
138.6595780236893
 42
0.0
 97
        0
 92
        7
 72
     1
 73
     1
 93
       10
 10
263.8287285507804
 20
138.6595780236959
 42
0.0
 10
263.3912852331501
 20
133.6595780236892
 42
0.0
 10
264.8970149894651
 20
133.6595780236892
 42
0.0
 10
265.3287285507805
 20
138.5940866093366
 42
0.0
 10
265.3287285507827
 20
410.9671898682642
 42
-0.198912367379581
 10
266.7931946448458
 20
414.5027237741973
 42
0.0
 10
272.3893887225598
 20
420.0989178519106
 42
0.0
 10
271.3287285507803
 20
421.1595780236904
 42
0.0
 10
265.7325344730661
 20
415.5633839459768
 42
0.1989123673796053
 10
263.8287285507828
 20
410.9671898682639
 42
0.0
 97
        0
 75
     0
 76
     0
 52
135.0
 41
2.0
 77
     0
 78
     1
 53
135.0
 43
-5.655787823897298
 44
31.13136811553113
 45
-1.414213562373095
 46
-1.414213562373094
 79
     0
 47
0.6506880114234938
 98
        2
 10
193.431843930241
 20
397.3363482218113
 10
264.4046819081409
 20
293.8769548180014
  0
HATCH
  5
1EDC
330
1E
100
AcDbEntity
  8
SCHRAFF
100
AcDbHatch
 10
0.0
 20
0.0
 30
0.0
210
0.0
220
0.0
230
1.0
  2
_USER
 70
     0
 71
     1
 91
        2
 92
        7
 72
     1
 73
     1
 93
       12
 10
170.5150200517956
 20
431.6595780236889
 42
-0.198912367379648
 10
174.7576607389148
 20
429.9022187108085
 42
0.0
 10
184.9022487032032
 20
419.7576307465213
 42
0.0
 10
186.3164622655764
 20
421.1718443088944
 42
0.0
 10
176.1718743012878
 20
431.3164322731816
 42
0.198912367379649
 10
170.5150200517957
 20
433.6595780236892
 42
0.0
 10
112.5462429720521
 20
433.6595780236893
 42
0.1989123673796822
 10
108.657155675526
 20
432.0486653202148
 42
0.0
 10
106.32872855078
 20
429.7202381954686
 42
0.0
 10
107.7429421131528
 20
428.3060246330953
 42
0.0
 10
110.0713692378991
 20
430.6344517578416
 42
-0.1989123673796754
 10
112.5462429720518
 20
431.6595780236894
 42
0.0
 97
       12
330
1F32
330
1F2D
330
1F30
330
1F2F
330
1F2C
330
1F2E
330
1F25
330
1EEA
330
1EEC
330
1EE8
330
1EED
330
1EEB
 92
        7
 72
     1
 73
     1
 93
       12
 10
345.1112141295082
 20
431.6595780236894
 42
-0.1989123673797018
 10
347.5860878636614
 20
430.6344517578416
 42
0.0
 10
349.9145149884076
 20
428.3060246330954
 42
0.0
 10
351.3287285507805
 20
429.7202381954686
 42
0.0
 10
349.0003014260345
 20
432.0486653202148
 42
0.1989123673796857
 10
345.1112141295082
 20
433.6595780236891
 42
0.0
 10
287.1424370497649
 20
433.6595780236891
 42
0.1989123673796376
 10
281.485582800273
 20
431.3164322731818
 42
0.0
 10
271.3287285507803
 20
421.1595780236904
 42
0.0
 10
272.7429421131533
 20
419.745364461317
 42
0.0
 10
282.899796362646
 20
429.9022187108086
 42
-0.1989123673796307
 10
287.1424370497647
 20
431.659578023689
 42
0.0
 97
       12
330
1F32
330
1EE6
330
1EE2
330
1EE0
330
1EE7
330
1EDF
330
1F24
330
1F28
330
1F29
330
1F26
330
1F27
330
1F2A
 75
     0
 76
     0
 52
45.0
 41
2.0
 77
     0
 78
     1
 53
45.0
 43
-5.655787823897298
 44
31.13136811553113
 45
-1.414213562373094
 46
1.414213562373095
 79
     0
 47
0.6506880114234938
 98
        2
 10
120.5056247604125
 20
432.4735019137469
 10
296.3099027949406
 20
432.4735019137469
  0
ARC
  5
1EDD
330
1E
100
AcDbEntity
  8
STEMPEL
100
AcDbCircle
 10
187.3287285507827
 20
410.9671898682639
 30
0.0
 40
5.0
100
AcDbArc
 50
0.0
 51
45.0000000000023
  0
ARC
  5
1EDE
330
1E
100
AcDbEntity
  8
STEMPEL
100
AcDbCircle
 10
187.3287285507827
 20
410.9671898682638
 30
0.0
 40
6.5
100
AcDbArc
 50
0.0
 51
45.0000000000023
  0
ARC
  5
1EDF
102
{ACAD_REACTORS
330
1EDC
102
}
330
1E
100
AcDbEntity
  8
STEMPEL
100
AcDbCircle
 10
287.1424370497649
 20
425.6595780236891
 30
0.0
 40
6.0
100
AcDbArc
 50
90.0
 51
135.0
  0
LINE
  5
1EE0
102
{ACAD_REACTORS
330
1EDC
102
}
330
1E
100
AcDbEntity
  8
STEMPEL
100
AcDbLine
 10
271.3287285507802
 20
421.1595780236904
 30
0.0
 11
272.7429421131533
 21
419.7453644613171
 31
0.0
  0
LINE
  5
1EE1
330
1E
100
AcDbEntity
  8
STEMPEL
100
AcDbLine
 10
272.3893887225598
 20
420.0989178519106
 30
0.0
 11
266.7931946448458
 21
414.5027237741973
 31
0.0
  0
LINE
  5
1EE2
102
{ACAD_REACTORS
330
1EDC
102
}
330
1E
100
AcDbEntity
  8
STEMPEL
100
AcDbLine
 10
281.4855828002729
 20
431.3164322731816
 30
0.0
 11
265.7325344730661
 21
415.5633839459768
 31
0.0
  0
ARC
  5
1EE3
330
1E
100
AcDbEntity
  8
SCHRAFF
100
AcDbCircle
 10
270.8287285507803
 20
420.6595780236904
 30
0.0
 40
3.5
100
AcDbArc
 50
250.3769335251435
 51
10.15009542095131
  0
ARC
  5
1EE4
330
1E
100
AcDbEntity
  8
STEMPEL
100
AcDbCircle
 10
270.3287285507782
 20
410.9671898682641
 30
0.0
 40
5.0
100
AcDbArc
 50
135.0
 51
180.0
  0
ARC
  5
1EE5
330
1E
100
AcDbEntity
  8
STEMPEL
100
AcDbCircle
 10
270.3287285507782
 20
410.9671898682641
 30
0.0
 40
6.5
100
AcDbArc
 50
135.0
 51
180.0
  0
ARC
  5
1EE6
102
{ACAD_REACTORS
330
1EDC
102
}
330
1E
100
AcDbEntity
  8
STEMPEL
100
AcDbCircle
 10
287.1424370497649
 20
425.6595780236891
 30
0.0
 40
8.0
100
AcDbArc
 50
90.0
 51
135.0
  0
LINE
  5
1EE7
102
{ACAD_REACTORS
330
1EDC
102
}
330
1E
100
AcDbEntity
  8
STEMPEL
100
AcDbLine
 10
282.899796362646
 20
429.9022187108086
 30
0.0
 11
272.7429421131532
 21
419.7453644613171
 31
0.0
  0
LINE
  5
1EE8
102
{ACAD_REACTORS
330
1EDC
102
}
330
1E
100
AcDbEntity
  8
STEMPEL
100
AcDbLine
 10
186.3164622655762
 20
421.1718443088942
 30
0.0
 11
184.9022487032031
 21
419.7576307465211
 31
0.0
  0
LINE
  5
1EE9
330
1E
100
AcDbEntity
  8
STEMPEL
100
AcDbLine
 10
185.2558020937966
 20
420.1111841371147
 30
0.0
 11
190.8642624567151
 21
414.5027237741969
 31
0.0
  0
ARC
  5
1EEA
102
{ACAD_REACTORS
330
1EDC
102
}
330
1E
100
AcDbEntity
  8
STEMPEL
100
AcDbCircle
 10
170.5150200517956
 20
425.6595780236891
 30
0.0
 40
6.0
100
AcDbArc
 50
45.0
 51
90.0
  0
ARC
  5
1EEB
102
{ACAD_REACTORS
330
1EDC
102
}
330
1E
100
AcDbEntity
  8
STEMPEL
100
AcDbCircle
 10
170.5150200517956
 20
425.6595780236891
 30
0.0
 40
8.0
100
AcDbArc
 50
45.0
 51
90.0
  0
LINE
  5
1EEC
102
{ACAD_REACTORS
330
1EDC
102
}
330
1E
100
AcDbEntity
  8
STEMPEL
100
AcDbLine
 10
174.7576607389147
 20
429.9022187108086
 30
0.0
 11
184.9022487032032
 21
419.7576307465211
 31
0.0
  0
LINE
  5
1EED
102
{ACAD_REACTORS
330
1EDC
102
}
330
1E
100
AcDbEntity
  8
STEMPEL
100
AcDbLine
 10
176.1718743012878
 20
431.3164322731816
 30
0.0
 11
191.924922628495
 21
415.5633839459766
 31
0.0
  0
ARC
  5
1EEE
330
1E
100
AcDbEntity
  8
SCHRAFF
100
AcDbCircle
 10
186.8287285507805
 20
420.6595780236904
 30
0.0
 40
3.5
100
AcDbArc
 50
169.8499045790551
 51
289.6230664748534
  0
LINE
  5
1EEF
330
1E
100
AcDbEntity
  8
STEMPEL
100
AcDbLine
 10
186.3164622655764
 20
421.1718443088945
 30
0.0
 11
271.3409948359843
 21
421.1718443088945
 31
0.0
  0
LINE
  5
1EF0
330
1E
100
AcDbEntity
  8
HILF
100
AcDbLine
 10
194.932190311886
 20
413.4546321786372
 30
0.0
 11
262.7252667896745
 21
413.4546321786372
 31
0.0
  0
HATCH
  5
1EF1
330
1E
100
AcDbEntity
  8
SCHRAFF
100
AcDbHatch
 10
0.0
 20
0.0
 30
0.0
210
0.0
220
0.0
230
1.0
  2
_U
 70
     0
 71
     0
 91
        2
 92
        7
 72
     1
 73
     1
 93
        4
 10
185.2558020937966
 20
420.1111841371146
 42
0.0
 10
184.9022487032031
 20
419.7576307465211
 42
0.0
 10
183.3835053872483
 20
421.2763740624756
 42
0.5760313318603869
 10
188.0041363565008
 20
417.3628498744109
 42
0.0
 97
        0
 92
        7
 72
     1
 73
     1
 93
        4
 10
274.2739517143125
 20
421.276374062476
 42
0.0
 10
272.7429421131531
 20
419.7453644613169
 42
0.0
 10
272.3893887225596
 20
420.0989178519104
 42
0.0
 10
269.6533207450598
 20
417.362849874411
 42
0.5760313318604339
 97
        0
 75
     0
 76
     0
 52
0.0
 41
0.1
 77
     0
 78
     1
 53
0.0
 43
5.889977618865543
 44
-22.46946632148149
 45
0.0
 46
0.1
 79
     0
 47
0.1173469678841337
 98
        2
 10
185.4060716206311
 20
418.460753994749
 10
272.1948676180453
 20
418.3434069322348
  0
LINE
  5
1EF2
330
1E
100
AcDbEntity
  8
STEMPEL
100
AcDbLine
 10
236.3287285507804
 20
517.1595780236907
 30
0.0
 11
236.3287285507804
 21
492.1595780236907
 31
0.0
  0
LINE
  5
1EF3
330
1E
100
AcDbEntity
  8
STEMPEL
100
AcDbLine
 10
221.3287285507804
 20
517.1595780236891
 30
0.0
 11
221.3287285507804
 21
492.1595780236891
 31
0.0
  0
ARC
  5
1EF4
330
1E
100
AcDbEntity
  8
STEMPEL
100
AcDbCircle
 10
228.8287285507803
 20
492.1595780236907
 30
0.0
 40
7.5
100
AcDbArc
 50
179.999999999987
 51
359.999999999974
  0
ARC
  5
1EF5
330
1E
100
AcDbEntity
  8
STEMPEL
100
AcDbCircle
 10
228.8287285507804
 20
517.1595780236907
 30
0.0
 40
7.5
100
AcDbArc
 50
0.0000000000260551
 51
16.56282650976215
  0
ELLIPSE
  5
1EF6
330
1E
100
AcDbEntity
  8
STEMPEL
100
AcDbEllipse
 10
174.4578953771011
 20
517.1595780236907
 30
0.0
 11
0.0
 21
7.5
 31
0.0
210
0.0
220
0.0
230
1.0
 40
0.8660254037843856
 41
4.712388980384689
 42
7.853981633974482
  0
ELLIPSE
  5
1EF7
330
1E
100
AcDbEntity
  8
STEMPEL
100
AcDbEllipse
 10
174.4578953771011
 20
492.1595780236907
 30
0.0
 11
0.0
 21
-7.5
 31
0.0
210
0.0
220
0.0
230
-1.0
 40
0.8660254037843856
 41
4.712388980384689
 42
7.853981633974482
  0
ELLIPSE
  5
1EF8
330
1E
100
AcDbEntity
  8
STEMPEL
100
AcDbEllipse
 10
173.9567183816591
 20
492.1595780236907
 30
0.0
 11
0.0
 21
-7.5
 31
0.0
210
0.0
220
0.0
230
-1.0
 40
0.8660254037843856
 41
4.712388980384689
 42
6.24459510668465
  0
LINE
  5
1EF9
330
1E
100
AcDbEntity
  8
STEMPEL
100
AcDbLine
 10
180.953085905484
 20
517.1595780236907
 30
0.0
 11
180.953085905484
 21
492.1595780236907
 31
0.0
  0
LINE
  5
1EFA
330
1E
100
AcDbEntity
  8
STEMPEL
100
AcDbLine
 10
167.9627048487182
 20
517.1595780236907
 30
0.0
 11
167.9627048487182
 21
492.1595780236923
 31
0.0
  0
LINE
  5
1EFB
330
1E
100
AcDbEntity
  8
STEMPEL
100
AcDbLine
 10
180.451908910042
 20
517.1595780236907
 30
0.0
 11
180.451908910042
 21
492.1595780236907
 31
0.0
  0
LINE
  5
1EFC
330
1E
100
AcDbEntity
  8
STEMPEL
100
AcDbLine
 10
138.4056830441171
 20
517.1595780236907
 30
0.0
 11
138.4056830441171
 21
492.1595780236923
 31
0.0
  0
LINE
  5
1EFD
330
1E
100
AcDbEntity
  8
STEMPEL
100
AcDbLine
 10
137.5376190244283
 20
492.1595780236907
 30
0.0
 11
137.5376190244283
 21
517.1595780236923
 31
0.0
  0
LINE
  5
1EFE
330
1E
100
AcDbEntity
  8
STEMPEL
100
AcDbLine
 10
118.8287285507801
 20
524.6595780236905
 30
0.0
 11
119.8287285507801
 21
524.6595780236905
 31
0.0
  0
LINE
  5
1EFF
330
1E
100
AcDbEntity
  8
STEMPEL
100
AcDbLine
 10
118.8287285507799
 20
484.6595780236905
 30
0.0
 11
119.8287285507801
 21
484.6595780236905
 31
0.0
  0
LINE
  5
1F00
330
1E
100
AcDbEntity
  8
STEMPEL
100
AcDbLine
 10
130.9056830441172
 20
517.1595780236907
 30
0.0
 11
130.9056830441172
 21
492.1595780236939
 31
0.0
  0
ELLIPSE
  5
1F01
330
1E
100
AcDbEntity
  8
STEMPEL
100
AcDbEllipse
 10
134.6556830441173
 20
492.1595780236923
 30
0.0
 11
0.0
 21
-7.499999999999999
 31
0.0
210
0.0
220
0.0
230
-1.0
 40
0.4999999999999926
 41
4.712388980384689
 42
7.853981633974482
  0
ELLIPSE
  5
1F02
330
1E
100
AcDbEntity
  8
STEMPEL
100
AcDbEllipse
 10
133.7876190244283
 20
492.1595780236923
 30
0.0
 11
0.0
 21
-7.499999999999999
 31
0.0
210
0.0
220
0.0
230
-1.0
 40
0.4999999999999926
 41
4.712388980384689
 42
6.167183451052224
  0
ELLIPSE
  5
1F03
330
1E
100
AcDbEntity
  8
STEMPEL
100
AcDbEllipse
 10
133.7876190244283
 20
517.1595780236907
 30
0.0
 11
0.0
 21
7.499999999999999
 31
0.0
210
0.0
220
0.0
230
1.0
 40
0.4999999999999926
 41
4.712388980384689
 42
6.167183451052224
  0
ELLIPSE
  5
1F04
330
1E
100
AcDbEntity
  8
STEMPEL
100
AcDbEllipse
 10
134.6556830441173
 20
517.1595780236907
 30
0.0
 11
0.0
 21
7.499999999999999
 31
0.0
210
0.0
220
0.0
230
1.0
 40
0.4999999999999926
 41
4.712388980384689
 42
7.853981633974482
  0
ELLIPSE
  5
1F05
330
1E
100
AcDbEntity
  8
STEMPEL
100
AcDbEllipse
 10
173.9567183816591
 20
517.1595780236907
 30
0.0
 11
0.0
 21
7.5
 31
0.0
210
0.0
220
0.0
230
1.0
 40
0.8660254037843856
 41
4.712388980384689
 42
6.24459510668465
  0
LINE
  5
1F06
330
1E
100
AcDbEntity
  8
STEMPEL
100
AcDbLine
 10
338.8287285507802
 20
524.6595780236905
 30
0.0
 11
337.8287285507802
 21
524.6595780236905
 31
0.0
  0
LINE
  5
1F07
330
1E
100
AcDbEntity
  8
STEMPEL
100
AcDbLine
 10
338.8287285507802
 20
484.6595780236905
 30
0.0
 11
337.8287285507802
 21
484.6595780236905
 31
0.0
  0
ELLIPSE
  5
1F08
330
1E
100
AcDbEntity
  8
STEMPEL
100
AcDbEllipse
 10
323.0017740574435
 20
517.1595780236907
 30
0.0
 11
0.0
 21
7.499999999999999
 31
0.0
210
0.0
220
0.0
230
-1.0
 40
0.4999999999999926
 41
4.712388980384689
 42
7.853981633974482
  0
ELLIPSE
  5
1F09
330
1E
100
AcDbEntity
  8
STEMPEL
100
AcDbEllipse
 10
323.8698380771323
 20
517.1595780236907
 30
0.0
 11
0.0
 21
7.499999999999999
 31
0.0
210
0.0
220
0.0
230
-1.0
 40
0.4999999999999926
 41
4.712388980384689
 42
6.167183451052224
  0
ELLIPSE
  5
1F0A
330
1E
100
AcDbEntity
  8
STEMPEL
100
AcDbEllipse
 10
323.0017740574435
 20
492.1595780236923
 30
0.0
 11
0.0
 21
-7.499999999999999
 31
0.0
210
0.0
220
0.0
230
1.0
 40
0.4999999999999926
 41
4.712388980384689
 42
7.853981633974482
  0
ELLIPSE
  5
1F0B
330
1E
100
AcDbEntity
  8
STEMPEL
100
AcDbEllipse
 10
323.8698380771323
 20
492.1595780236923
 30
0.0
 11
0.0
 21
-7.499999999999999
 31
0.0
210
0.0
220
0.0
230
1.0
 40
0.4999999999999926
 41
4.712388980384689
 42
6.167183451052224
  0
LINE
  5
1F0C
330
1E
100
AcDbEntity
  8
STEMPEL
100
AcDbLine
 10
320.1198380771325
 20
492.1595780236907
 30
0.0
 11
320.1198380771325
 21
517.1595780236923
 31
0.0
  0
LINE
  5
1F0D
330
1E
100
AcDbEntity
  8
STEMPEL
100
AcDbLine
 10
319.2517740574435
 20
517.1595780236907
 30
0.0
 11
319.2517740574435
 21
492.1595780236923
 31
0.0
  0
LINE
  5
1F0E
330
1E
100
AcDbEntity
  8
STEMPEL
100
AcDbLine
 10
326.7517740574434
 20
517.1595780236907
 30
0.0
 11
326.7517740574434
 21
492.1595780236939
 31
0.0
  0
LINE
  5
1F0F
330
1E
100
AcDbEntity
  8
STEMPEL
100
AcDbLine
 10
289.6947522528424
 20
517.1595780236907
 30
0.0
 11
289.6947522528424
 21
492.1595780236923
 31
0.0
  0
LINE
  5
1F10
330
1E
100
AcDbEntity
  8
STEMPEL
100
AcDbLine
 10
277.2055481915186
 20
517.1595780236907
 30
0.0
 11
277.2055481915186
 21
492.1595780236907
 31
0.0
  0
LINE
  5
1F11
330
1E
100
AcDbEntity
  8
STEMPEL
100
AcDbLine
 10
276.7043711960766
 20
517.1595780236907
 30
0.0
 11
276.7043711960766
 21
492.1595780236907
 31
0.0
  0
ELLIPSE
  5
1F12
330
1E
100
AcDbEntity
  8
STEMPEL
100
AcDbEllipse
 10
283.7007387199014
 20
492.1595780236907
 30
0.0
 11
0.0
 21
-7.5
 31
0.0
210
0.0
220
0.0
230
1.0
 40
0.8660254037843856
 41
4.712388980384689
 42
6.24459510668465
  0
ELLIPSE
  5
1F13
330
1E
100
AcDbEntity
  8
STEMPEL
100
AcDbEllipse
 10
283.1995617244595
 20
492.1595780236907
 30
0.0
 11
0.0
 21
-7.5
 31
0.0
210
0.0
220
0.0
230
1.0
 40
0.8660254037843856
 41
4.712388980384689
 42
7.853981633974482
  0
ELLIPSE
  5
1F14
330
1E
100
AcDbEntity
  8
STEMPEL
100
AcDbEllipse
 10
283.1995617244595
 20
517.1595780236907
 30
0.0
 11
0.0
 21
7.5
 31
0.0
210
0.0
220
0.0
230
-1.0
 40
0.8660254037843856
 41
4.712388980384689
 42
7.853981633974482
  0
ELLIPSE
  5
1F15
330
1E
100
AcDbEntity
  8
STEMPEL
100
AcDbEllipse
 10
283.7007387199014
 20
517.1595780236907
 30
0.0
 11
0.0
 21
7.5
 31
0.0
210
0.0
220
0.0
230
-1.0
 40
0.8660254037843856
 41
4.712388980384689
 42
6.24459510668465
  0
HATCH
  5
1F16
330
1E
100
AcDbEntity
  8
SCHRAFF
100
AcDbHatch
 10
0.0
 20
0.0
 30
0.0
210
0.0
220
0.0
230
1.0
  2
_U
 70
     0
 71
     0
 91
        5
 92
        7
 72
     1
 73
     1
 93
       39
 10
308.8287285507805
 20
549.6595780236905
 42
0.0
 10
254.2682431458371
 20
549.6595780236902
 42
-0.2679491924311848
 10
252.9692050401601
 20
550.4095780236903
 42
0.2859076546239628
 10
251.5701669344829
 20
551.1562409783998
 42
0.2859076546237491
 10
250.1711288288069
 20
550.4095780236903
 42
-0.2679491924311245
 10
248.8720907231302
 20
549.6595780236902
 42
0.0
 10
242.4182431458367
 20
549.6595780236902
 42
-0.2679491924311449
 10
241.1192050401599
 20
550.4095780236903
 42
0.2859076546238214
 10
239.7201669344835
 20
551.1562409783998
 42
0.3607372083888889
 10
238.1677981796553
 20
550.0345780236902
 42
-0.3419987131196436
 10
237.6836752613794
 20
549.6595780236902
 42
0.0
 10
237.49492606878
 20
549.6595780236902
 42
-0.341998713119513
 10
237.0108031505044
 20
550.0345780236902
 42
0.3419987131196436
 10
235.5584343956766
 20
551.1595780236903
 42
0.0
 10
228.8287285507804
 20
551.1595780236903
 42
0.0
 10
228.8287285507804
 20
550.1595780236903
 42
0.0
 10
235.5584343956766
 20
550.1595780236903
 42
-0.3419987131195064
 10
236.0425573139523
 20
549.7845780236903
 42
0.3596757619904947
 10
237.5893006650796
 20
548.6625498223616
 42
0.3596757619905158
 10
239.136044016207
 20
549.7845780236903
 42
-0.3419987131196715
 10
239.6201669344829
 20
550.1595780236903
 42
0.0
 10
239.8201669344832
 20
550.1595780236903
 42
-0.267949192431149
 10
240.2531796363755
 20
549.9095780236903
 42
0.2679491924311241
 10
242.4182431458366
 20
548.6595780236903
 42
0.0
 10
248.8720907231306
 20
548.6595780236903
 42
0.2679491924310771
 10
251.0371542325915
 20
549.90957802369
 42
-0.2679491924312612
 10
251.4701669344838
 20
550.1595780236903
 42
0.0
 10
251.670166934483
 20
550.1595780236903
 42
-0.2679491924313018
 10
252.1031796363758
 20
549.9095780236905
 42
0.2679491924311406
 10
254.268243145837
 20
548.6595780236905
 42
0.0
 10
308.8287285507785
 20
548.6595780236905
 42
-0.1340385084113211
 10
311.3692282259571
 20
547.9660686367565
 42
0.0
 10
335.3480821189073
 20
533.9784154705714
 42
-0.2667503951500854
 10
337.8287285507804
 20
529.6595200563749
 42
0.0
 10
337.8287285507804
 20
524.6595780236905
 42
0.0
 10
338.8287285507805
 20
524.6595780236905
 42
0.0
 10
338.8287285507805
 20
529.6595200563747
 42
0.2662608607120724
 10
335.8614231724552
 20
534.8366585837534
 42
0.0
 10
311.8287285507288
 20
548.8557304464266
 42
0.1316524975848892
 97
        0
 92
        7
 72
     1
 73
     1
 93
        8
 10
338.8287285507805
 20
484.6595780236905
 42
0.0
 10
337.8287285507804
 20
484.6595780236905
 42
0.0
 10
337.8287285507804
 20
465.659578023691
 42
0.4142135623731166
 10
343.8287285507804
 20
459.6595780236906
 42
0.0
 10
346.8287285507804
 20
459.6595780236906
 42
0.0
 10
346.8287285507803
 20
460.6595780236909
 42
0.0
 10
343.8287285507802
 20
460.659578023691
 42
-0.4142135623730752
 10
338.8287285507805
 20
465.659578023691
 42
0.0
 97
        0
 92
        7
 72
     0
 73
     1
 93
        4
 10
358.8287285507802
 20
460.6595780236906
 10
354.8287285507803
 20
460.6595780236907
 10
354.8287285507804
 20
459.6595780236906
 10
358.8287285507803
 20
459.6595780236905
 97
        0
 92
        7
 72
     1
 73
     1
 93
        8
 10
119.8287285507804
 20
465.659578023691
 42
0.0
 10
119.8287285507804
 20
484.6595780236905
 42
0.0
 10
118.8287285507803
 20
484.6595780236905
 42
0.0
 10
118.8287285507803
 20
465.659578023691
 42
-0.4142135623730909
 10
113.8287285507804
 20
460.659578023691
 42
0.0
 10
98.82872855078018
 20
460.6595780236906
 42
0.0
 10
98.82872855078005
 20
459.6595780236906
 42
0.0
 10
113.8287285507804
 20
459.6595780236906
 42
0.4142135623731175
 97
        0
 92
        7
 72
     1
 73
     1
 93
       40
 10
205.7321542325909
 20
549.9095780236903
 42
-0.2679491924310875
 10
206.1651669344831
 20
550.1595780236903
 42
0.0
 10
206.3651669344833
 20
550.1595780236903
 42
-0.2679491924312574
 10
206.7981796363758
 20
549.9095780236905
 42
0.267949192431145
 10
208.963243145837
 20
548.6595780236902
 42
0.0
 10
211.0220907231294
 20
548.6595780236902
 42
0.2679491924311416
 10
213.1871542325907
 20
549.9095780236904
 42
-0.2679491924310647
 10
213.6201669344828
 20
550.1595780236903
 42
0.0
 10
213.8201669344832
 20
550.1595780236903
 42
-0.267949192430994
 10
214.2531796363751
 20
549.9095780236903
 42
0.2679491924311175
 10
216.4182431458362
 20
548.6595780236902
 42
0.0
 10
222.8720907231303
 20
548.6595780236902
 42
0.2679491924310871
 10
225.0371542325912
 20
549.90957802369
 42
-0.2679491924312534
 10
225.4701669344836
 20
550.1595780236903
 42
0.0
 10
228.8287285507804
 20
550.1595780236903
 42
0.0
 10
228.8287285507804
 20
551.1595780236903
 42
0.0
 10
225.470166934483
 20
551.1595780236903
 42
0.2679491924310706
 10
224.1711288288067
 20
550.4095780236903
 42
-0.2679491924311357
 10
222.87209072313
 20
549.6595780236902
 42
0.0
 10
216.4182431458361
 20
549.6595780236902
 42
-0.2679491924310962
 10
215.1192050401597
 20
550.4095780236903
 42
0.2859076546238522
 10
213.720166934483
 20
551.1562409783998
 42
0.2859076546238809
 10
212.3211288288063
 20
550.4095780236903
 42
-0.2679491924311237
 10
211.0220907231296
 20
549.6595780236902
 42
0.0
 10
208.9632431458371
 20
549.6595780236902
 42
-0.2679491924311723
 10
207.6642050401602
 20
550.4095780236903
 42
0.2859076546238861
 10
206.2651669344834
 20
551.1562409783998
 42
0.2859076546239122
 10
204.8661288288065
 20
550.4095780236903
 42
-0.267949192431137
 10
203.5670907231298
 20
549.6595780236901
 42
0.0
 10
148.8287285507803
 20
549.6595780236898
 42
0.1316524975836561
 10
145.8287285508566
 20
548.8557304464409
 42
0.0
 10
121.7960339290757
 20
534.8366585837359
 42
0.2662608607105233
 10
118.8287285507803
 20
529.6595200563752
 42
0.0
 10
118.8287285507803
 20
524.6595780236905
 42
0.0
 10
119.8287285507804
 20
524.6595780236905
 42
0.0
 10
119.8287285507804
 20
529.6595200563752
 42
-0.2667503951500889
 10
122.3093749826533
 20
533.9784154705713
 42
0.0
 10
146.2882288755942
 20
547.9660686367508
 42
-0.1340385084119114
 10
148.8287285507803
 20
548.6595780236902
 42
0.0
 10
203.5670907231297
 20
548.6595780236902
 42
0.2679491924311331
 97
        0
 75
     0
 76
     0
 52
45.0
 41
2.0
 77
     0
 78
     1
 53
45.0
 43
-5.655787823897298
 44
31.13136811553113
 45
-1.414213562373094
 46
1.414213562373095
 79
     0
 47
0.2376111440341236
 98
        5
 10
290.9388062125065
 20
549.4544008066084
 10
338.6195205244978
 20
475.7901059282032
 10
357.149396424167
 20
460.4421848966161
 10
105.7017194483003
 20
460.0184445654908
 10
156.1200300457101
 20
549.3602370863416
  0
DIMENSION
  5
1F17
330
1E
100
AcDbEntity
  8
BEM
100
AcDbDimension
  2
*D1
 10
71.51796272000166
 20
433.6595780236892
 30
0.0
 11
65.01796272000158
 21
283.6589307468255
 31
0.0
 70
    32
 71
     5
 42
300.0012945537275
  3
Standard
100
AcDbAlignedDimension
 13
192.8536297512094
 23
133.6582834699617
 33
0.0
 14
106.3287285507801
 24
433.6595780236892
 34
0.0
 50
90.0
100
AcDbRotatedDimension
1001
ACAD
1000
DSTYLE
1002
{
1070
    40
1040
2.0
1070
    41
1040
3.5
1070
    42
1040
1.0
1070
    43
1040
7.0
1070
    44
1040
1.0
1070
    73
1070
     0
1070
    74
1070
     0
1070
    77
1070
     1
1070
    78
1070
     8
1070
    79
1070
     2
1070
   140
1040
3.5
1070
   141
1040
1.5
1070
   146
1040
0.5142857142857144
1070
   147
1040
1.5
1070
   172
1070
     1
1070
   178
1070
     1
1070
   179
1070
     2
1070
   271
1070
     2
1070
   272
1070
     2
1070
   284
1070
     8
1070
   285
1070
     8
1070
   286
1070
     8
1002
}
  0
LINE
  5
1F18
330
1E
100
AcDbEntity
  8
STEMPEL
100
AcDbLine
 10
263.8287285507804
 20
138.6595780236954
 30
0.0
 11
263.3912852331501
 21
133.6595780236892
 31
0.0
  0
LINE
  5
1F19
330
1E
100
AcDbEntity
  8
STEMPEL
100
AcDbLine
 10
265.3287285507805
 20
138.594086609336
 30
0.0
 11
264.8970149894651
 21
133.6595780236892
 31
0.0
  0
LINE
  5
1F1A
330
1E
100
AcDbEntity
  8
STEMPEL
100
AcDbLine
 10
192.3287285507806
 20
138.5940866093268
 30
0.0
 11
192.7604421120951
 21
133.6595780236892
 31
0.0
  0
LINE
  5
1F1B
330
1E
100
AcDbEntity
  8
STEMPEL
100
AcDbLine
 10
193.8287285507804
 20
138.6595780236893
 30
0.0
 11
194.2661718684101
 21
133.6595780236892
 31
0.0
  0
LINE
  5
1F1C
330
1E
100
AcDbEntity
  8
HILF
100
AcDbLine
 10
262.3229987944648
 20
138.6595780236893
 30
0.0
 11
195.3344583070955
 21
138.6595780236893
 31
0.0
  0
LINE
  5
1F1E
330
1E
100
AcDbEntity
  8
STEMPEL
100
AcDbLine
 10
264.8970149894651
 20
133.6595780236892
 30
0.0
 11
192.7604421120951
 21
133.6595780236892
 31
0.0
  0
LINE
  5
1F1F
330
1E
100
AcDbEntity
  8
STEMPEL
  6
Continuous
100
AcDbLine
 10
265.3287285507827
 20
410.9671898682642
 30
0.0
 11
265.3287285507805
 21
138.594086609336
 31
0.0
  0
LINE
  5
1F20
330
1E
100
AcDbEntity
  8
STEMPEL
  6
Continuous
100
AcDbLine
 10
263.8287285507828
 20
410.9671898682642
 30
0.0
 11
263.8287285507804
 21
138.6595780236954
 31
0.0
  0
LINE
  5
1F21
330
1E
100
AcDbEntity
  8
STEMPEL
  6
Continuous
100
AcDbLine
 10
192.3287285507827
 20
410.9671898682639
 30
0.0
 11
192.3287285507806
 21
138.5940866093268
 31
0.0
  0
LINE
  5
1F22
330
1E
100
AcDbEntity
  8
STEMPEL
  6
Continuous
100
AcDbLine
 10
193.8287285507827
 20
410.9671898682637
 30
0.0
 11
193.8287285507804
 21
138.6595780236893
 31
0.0
  0
TEXT
  5
1F23
330
1E
100
AcDbEntity
  8
TEXT
 62
     1
100
AcDbText
 10
225.120438352264
 20
276.357265719903
 30
0.0
 40
7.0
  1
DN70
 50
90.0
 41
0.8
  7
GREEKS
100
AcDbText
  0
LINE
  5
1F24
102
{ACAD_REACTORS
330
1EDC
102
}
330
1E
100
AcDbEntity
  8
STEMPEL
100
AcDbLine
 10
345.1112141295082
 20
431.6595780236894
 30
0.0
 11
287.1424370497647
 21
431.659578023689
 31
0.0
  0
LINE
  5
1F25
102
{ACAD_REACTORS
330
1EDC
102
}
330
1E
100
AcDbEntity
  8
STEMPEL
100
AcDbLine
 10
112.5462429720522
 20
431.6595780236894
 30
0.0
 11
170.5150200517956
 21
431.6595780236889
 31
0.0
  0
LINE
  5
1F26
102
{ACAD_REACTORS
330
1EDC
102
}
330
1E
100
AcDbEntity
  8
STEMPEL
100
AcDbLine
 10
351.3287285507805
 20
429.7202381954686
 30
0.0
 11
349.9145149884076
 21
428.3060246330953
 31
0.0
  0
LINE
  5
1F27
102
{ACAD_REACTORS
330
1EDC
102
}
330
1E
100
AcDbEntity
  8
STEMPEL
100
AcDbLine
 10
351.3287285507805
 20
429.7202381954686
 30
0.0
 11
349.0003014260345
 21
432.0486653202148
 31
0.0
  0
ARC
  5
1F28
102
{ACAD_REACTORS
330
1EDC
102
}
330
1E
100
AcDbEntity
  8
STEMPEL
100
AcDbCircle
 10
345.1112141295082
 20
428.1595780236888
 30
0.0
 40
3.499999999999851
100
AcDbArc
 50
45.0
 51
90.0
  0
LINE
  5
1F29
102
{ACAD_REACTORS
330
1EDC
102
}
330
1E
100
AcDbEntity
  8
STEMPEL
100
AcDbLine
 10
349.9145149884073
 20
428.3060246330956
 30
0.0
 11
347.5860878636614
 21
430.6344517578416
 31
0.0
  0
ARC
  5
1F2A
102
{ACAD_REACTORS
330
1EDC
102
}
330
1E
100
AcDbEntity
  8
STEMPEL
100
AcDbCircle
 10
345.1112141295082
 20
428.1595780236888
 30
0.0
 40
5.499999999999851
100
AcDbArc
 50
45.0
 51
90.0
  0
LINE
  5
1F2B
330
1E
100
AcDbEntity
  8
STEMPEL
100
AcDbLine
 10
281.3036022849325
 20
428.3060246330953
 30
0.0
 11
349.9145149884073
 21
428.3060246330953
 31
0.0
  0
LINE
  5
1F2C
102
{ACAD_REACTORS
330
1EDC
102
}
330
1E
100
AcDbEntity
  8
STEMPEL
100
AcDbLine
 10
107.7429421131531
 20
428.3060246330956
 30
0.0
 11
110.0713692378991
 21
430.6344517578416
 31
0.0
  0
ARC
  5
1F2D
102
{ACAD_REACTORS
330
1EDC
102
}
330
1E
100
AcDbEntity
  8
STEMPEL
100
AcDbCircle
 10
112.5462429720522
 20
428.1595780236888
 30
0.0
 40
5.499999999999851
100
AcDbArc
 50
90.0
 51
135.0
  0
ARC
  5
1F2E
102
{ACAD_REACTORS
330
1EDC
102
}
330
1E
100
AcDbEntity
  8
STEMPEL
100
AcDbCircle
 10
112.5462429720522
 20
428.1595780236888
 30
0.0
 40
3.499999999999851
100
AcDbArc
 50
90.0
 51
135.0
  0
LINE
  5
1F2F
102
{ACAD_REACTORS
330
1EDC
102
}
330
1E
100
AcDbEntity
  8
STEMPEL
100
AcDbLine
 10
106.32872855078
 20
429.7202381954686
 30
0.0
 11
107.7429421131528
 21
428.3060246330953
 31
0.0
  0
LINE
  5
1F30
102
{ACAD_REACTORS
330
1EDC
102
}
330
1E
100
AcDbEntity
  8
STEMPEL
100
AcDbLine
 10
106.32872855078
 20
429.7202381954686
 30
0.0
 11
108.657155675526
 21
432.0486653202148
 31
0.0
  0
LINE
  5
1F31
330
1E
100
AcDbEntity
  8
STEMPEL
100
AcDbLine
 10
176.353854816628
 20
428.3060246330953
 30
0.0
 11
107.7429421131531
 21
428.3060246330953
 31
0.0
  0
LINE
  5
1F32
102
{ACAD_REACTORS
330
1EDC
102
}
330
1E
100
AcDbEntity
  8
STEMPEL
100
AcDbLine
 10
107.5462429720525
 20
433.6595780236893
 30
0.0
 11
345.1112141295082
 21
433.6595780236891
 31
0.0
  0
LINE
  5
1F3D
330
1E
100
AcDbEntity
  8
STEMPEL
100
AcDbLine
 10
305.2287285507802
 20
457.6595780236895
 30
0.0
 11
305.2287285507802
 21
455.65957802369
 31
0.0
  0
LINE
  5
1F3E
330
1E
100
AcDbEntity
  8
STEMPEL
100
AcDbLine
 10
304.2287285507802
 20
458.6595780236897
 30
0.0
 11
296.2287285507802
 21
458.6595780236897
 31
0.0
  0
LINE
  5
1F3F
330
1E
100
AcDbEntity
  8
HILF
100
AcDbLine
 10
296.2287285507802
 20
458.6595780236896
 30
0.0
 11
296.2287285507803
 21
457.2595780236829
 31
0.0
  0
LINE
  5
1F40
330
1E
100
AcDbEntity
  8
HILF
100
AcDbLine
 10
304.2287285507802
 20
458.6595780236897
 30
0.0
 11
304.2287285507802
 21
455.6595780236902
 31
0.0
  0
LINE
  5
1F47
330
1E
100
AcDbEntity
  8
STEMPEL
100
AcDbLine
 10
296.2287285507802
 20
458.6595780236897
 30
0.0
 11
296.1598760917635
 21
458.590725564673
 31
0.0
  0
LINE
  5
1F4C
330
1E
100
AcDbEntity
  8
STEMPEL
100
AcDbLine
 10
296.2080388956074
 20
457.6595780236896
 30
0.0
 11
305.22872855078
 21
457.6595780236896
 31
0.0
  0
LINE
  5
1F4D
330
1E
100
AcDbEntity
  8
STEMPEL
100
AcDbLine
 10
305.2287285507802
 20
457.6595780236896
 30
0.0
 11
304.2287285507802
 21
458.6595780236897
 31
0.0
  0
LINE
  5
1F4E
330
1E
100
AcDbEntity
  8
STEMPEL
100
AcDbLine
 10
305.2287285507803
 20
439.6595780236892
 30
0.0
 11
305.2287285507804
 21
436.6595780236897
 31
0.0
  0
LINE
  5
1F4F
330
1E
100
AcDbEntity
  8
HILF
100
AcDbLine
 10
304.2287285507804
 20
439.6595780236892
 30
0.0
 11
304.2287285507804
 21
436.6595780236897
 31
0.0
  0
LINE
  5
1F50
330
1E
100
AcDbEntity
  8
HILF
100
AcDbLine
 10
296.2287285507805
 20
439.6595780236894
 30
0.0
 11
296.2287285507804
 21
436.6595780236896
 31
0.0
  0
LINE
  5
1F51
330
1E
100
AcDbEntity
  8
STEMPEL
100
AcDbLine
 10
295.2287285507804
 20
439.6595780236892
 30
0.0
 11
295.2287285507804
 21
436.6595780236897
 31
0.0
  0
LWPOLYLINE
  5
1F52
330
1E
100
AcDbEntity
  8
STEMPEL
100
AcDbPolyline
 90
       10
 70
   128
 43
0.0
 10
-304.6392139368924
 20
459.6595780236917
 10
-304.0032095768915
 20
459.7507315056185
 10
-303.3865298875353
 20
460.0214222989763
 10
-302.8079123691303
 20
460.4634256009852
 10
-302.2849380221785
 20
461.063311364978
 10
-301.833497157574
 20
461.8028523655727
 10
-301.4673065775479
 20
462.659578023692
 10
-301.197492797573
 20
463.607457163738
 10
-301.0322539728214
 20
464.6176889576905
 10
-300.9766108013683
 20
465.6595780236922
210
0.0
220
0.0
230
-1.0
  0
LWPOLYLINE
  5
1F54
330
1E
100
AcDbEntity
  8
STEMPEL
100
AcDbPolyline
 90
        8
 70
   128
 43
0.0
 10
134.5568665048431
 20
459.6595780236898
 10
135.810600520406
 20
460.4634256009834
 10
136.4336836944523
 20
461.0633113649762
 10
136.9715402995638
 20
461.8028523655709
 10
137.4078278349628
 20
462.6595780236902
 10
137.729289924658
 20
463.6074571637363
 10
137.9261591057221
 20
464.6176889576888
 10
137.9924536077089
 20
465.6595780236904
  0
LINE
  5
1F55
330
1E
100
AcDbEntity
  8
STEMPEL
100
AcDbLine
 10
136.0143381009143
 20
460.6595780236906
 30
0.0
 11
144.3770773275018
 21
460.6595780236906
 31
0.0
  0
LINE
  5
1F77
330
1E
100
AcDbEntity
  8
STEMPEL
100
AcDbLine
 10
143.8287285507803
 20
445.6595780236899
 30
0.0
 11
143.8287285507803
 21
433.6595780236891
 31
0.0
  0
LINE
  5
1F78
330
1E
100
AcDbEntity
  8
HILF
100
AcDbLine
 10
142.8287285507803
 20
445.65957802369
 30
0.0
 11
142.8287285507803
 21
433.6595780236891
 31
0.0
  0
LINE
  5
1F79
330
1E
100
AcDbEntity
  8
STEMPEL
100
AcDbLine
 10
133.8287285507803
 20
445.6595780236898
 30
0.0
 11
133.8287285507803
 21
433.6595780236892
 31
0.0
  0
LINE
  5
1F7A
330
1E
100
AcDbEntity
  8
HILF
100
AcDbLine
 10
134.8287285507803
 20
445.6595780236899
 30
0.0
 11
134.8287285507803
 21
433.6595780236892
 31
0.0
  0
LINE
  5
1F81
330
1E
100
AcDbEntity
  8
HILF
100
AcDbLine
 10
187.8287285507803
 20
439.6595780236893
 30
0.0
 11
187.8287285507803
 21
436.6595780236893
 31
0.0
  0
LINE
  5
1F82
330
1E
100
AcDbEntity
  8
STEMPEL
100
AcDbLine
 10
188.8287285507803
 20
439.6595780236893
 30
0.0
 11
188.8287285507803
 21
436.6595780236893
 31
0.0
  0
LINE
  5
1F83
330
1E
100
AcDbEntity
  8
HILF
100
AcDbLine
 10
179.8287285507804
 20
439.6595780236894
 30
0.0
 11
179.8287285507803
 21
436.6595780236893
 31
0.0
  0
LINE
  5
1F84
330
1E
100
AcDbEntity
  8
STEMPEL
100
AcDbLine
 10
178.8287285507803
 20
439.6595780236893
 30
0.0
 11
178.8287285507803
 21
436.6595780236893
 31
0.0
  0
LINE
  5
1F85
330
1E
100
AcDbEntity
  8
STEMPEL
100
AcDbLine
 10
143.8287285507803
 20
457.6595780236893
 30
0.0
 11
142.8287285507803
 21
458.6595780236892
 31
0.0
  0
LINE
  5
1F86
330
1E
100
AcDbEntity
  8
STEMPEL
100
AcDbLine
 10
134.8287285507803
 20
458.6595780236892
 30
0.0
 11
133.8287285507803
 21
457.6595780236893
 31
0.0
  0
LINE
  5
1F87
330
1E
100
AcDbEntity
  8
STEMPEL
100
AcDbLine
 10
142.8287285507803
 20
458.6595780236892
 30
0.0
 11
134.8287285507803
 21
458.6595780236892
 31
0.0
  0
LINE
  5
1F88
330
1E
100
AcDbEntity
  8
STEMPEL
100
AcDbLine
 10
133.8287285507803
 20
457.6595780236893
 30
0.0
 11
143.8287285507801
 21
457.6595780236893
 31
0.0
  0
LINE
  5
1F89
330
1E
100
AcDbEntity
  8
MITTEL
100
AcDbLine
 10
138.8287285507803
 20
463.6595780236892
 30
0.0
 11
138.8287285507803
 21
433.6595780236892
 31
0.0
  0
LINE
  5
1F8A
330
1E
100
AcDbEntity
  8
HILF
100
AcDbLine
 10
134.8287285507803
 20
458.6595780236891
 30
0.0
 11
134.8287285507803
 21
455.6595780236898
 31
0.0
  0
LINE
  5
1F8B
330
1E
100
AcDbEntity
  8
STEMPEL
100
AcDbLine
 10
133.8287285507803
 20
457.6595780236893
 30
0.0
 11
133.8287285507803
 21
455.6595780236898
 31
0.0
  0
LINE
  5
1F8C
330
1E
100
AcDbEntity
  8
HILF
100
AcDbLine
 10
142.8287285507803
 20
458.6595780236892
 30
0.0
 11
142.8287285507803
 21
455.6595780236899
 31
0.0
  0
LINE
  5
1F8D
330
1E
100
AcDbEntity
  8
STEMPEL
100
AcDbLine
 10
143.8287285507803
 20
457.6595780236892
 30
0.0
 11
143.8287285507803
 21
455.6595780236898
 31
0.0
  0
LINE
  5
1F8E
330
1E
100
AcDbEntity
  8
MITTEL
100
AcDbLine
 10
183.8287285507801
 20
463.6595780236891
 30
0.0
 11
183.8287285507801
 21
428.6595780236888
 31
0.0
  0
LINE
  5
1F96
330
1E
100
AcDbEntity
  8
STEMPEL
100
AcDbLine
 10
128.1550284548517
 20
460.659578023691
 30
0.0
 11
126.03962103525
 21
460.6595780236911
 31
0.0
  0
ARC
  5
1F98
330
1E
100
AcDbEntity
  8
STEMPEL
100
AcDbCircle
 10
332.8287285507804
 20
529.659520056375
 30
0.0
 40
6.0
100
AcDbArc
 50
0.0
 51
59.74358352518394
  0
ARC
  5
1F99
330
1E
100
AcDbEntity
  8
STEMPEL
100
AcDbCircle
 10
338.3398721550921
 20
539.1794150061524
 30
0.0
 40
5.0
100
AcDbArc
 50
239.7435628364712
 51
239.9329541615156
  0
ARC
  5
1F9A
330
1E
100
AcDbEntity
  8
STEMPEL
100
AcDbCircle
 10
332.8287285507804
 20
529.659520056375
 30
0.0
 40
5.0
100
AcDbArc
 50
0.0
 51
59.74358352518394
  0
ARC
  5
1F9B
330
1E
100
AcDbEntity
  8
STEMPEL
100
AcDbCircle
 10
308.8287285507806
 20
543.6595780236902
 30
0.0
 40
6.0
100
AcDbArc
 50
90.0
 51
90.0
  0
ARC
  5
1F9C
330
1E
100
AcDbEntity
  8
STEMPEL
100
AcDbCircle
 10
308.8287285507806
 20
543.6595780236902
 30
0.0
 40
5.0
100
AcDbArc
 50
59.46264995169811
 51
90.0
  0
ARC
  5
1F9D
330
1E
100
AcDbEntity
  8
STEMPEL
100
AcDbCircle
 10
308.8287285507806
 20
543.6595780236902
 30
0.0
 40
6.0
100
AcDbArc
 50
59.48712567237889
 51
90.0
  0
LINE
  5
1F9E
330
1E
100
AcDbEntity
  8
STEMPEL
100
AcDbLine
 10
335.8614231724884
 20
534.8366585837339
 30
0.0
 11
311.8751202970215
 21
548.8286685944225
 31
0.0
  0
LINE
  5
1F9F
330
1E
100
AcDbEntity
  8
STEMPEL
100
AcDbLine
 10
335.3480821189076
 20
533.9784154705713
 30
0.0
 11
311.3692282259564
 21
547.9660686367568
 31
0.0
  0
ARC
  5
1FA0
330
1E
100
AcDbEntity
  8
STEMPEL
100
AcDbCircle
 10
251.6701669344831
 20
549.6595780236902
 30
0.0
 40
1.5
100
AcDbArc
 50
29.99999999999165
 51
90.0
  0
ARC
  5
1FA1
330
1E
100
AcDbEntity
  8
STEMPEL
100
AcDbCircle
 10
251.6701669344831
 20
549.6595780236902
 30
0.0
 40
0.5
100
AcDbArc
 50
29.99999999999165
 51
90.0
  0
LINE
  5
1FA2
330
1E
100
AcDbEntity
  8
STEMPEL
100
AcDbLine
 10
251.4701669344831
 20
550.1595780236903
 30
0.0
 11
251.6701669344831
 21
550.1595780236903
 31
0.0
  0
ARC
  5
1FA3
330
1E
100
AcDbEntity
  8
STEMPEL
100
AcDbCircle
 10
251.4701669344831
 20
549.6595780236902
 30
0.0
 40
0.5
100
AcDbArc
 50
90.0
 51
149.9999999999922
  0
ARC
  5
1FA4
330
1E
100
AcDbEntity
  8
STEMPEL
100
AcDbCircle
 10
251.4701669344831
 20
549.6595780236902
 30
0.0
 40
1.5
100
AcDbArc
 50
90.0
 51
149.9999999999922
  0
ARC
  5
1FA5
330
1E
100
AcDbEntity
  8
STEMPEL
100
AcDbCircle
 10
254.2682431458372
 20
551.1595780236903
 30
0.0
 40
1.5
100
AcDbArc
 50
209.9999999999917
 51
270.0
  0
ARC
  5
1FA6
330
1E
100
AcDbEntity
  8
STEMPEL
100
AcDbCircle
 10
254.2682431458372
 20
551.1595780236903
 30
0.0
 40
2.5
100
AcDbArc
 50
209.9999999999917
 51
270.0
  0
LINE
  5
1FA7
330
1E
100
AcDbEntity
  8
STEMPEL
100
AcDbLine
 10
242.4182431458367
 20
549.6595780236902
 30
0.0
 11
248.8720907231307
 21
549.6595780236902
 31
0.0
  0
LINE
  5
1FA8
330
1E
100
AcDbEntity
  8
STEMPEL
100
AcDbLine
 10
242.4182431458367
 20
549.6595780236904
 30
0.0
 11
248.8720907231307
 21
549.6595780236904
 31
0.0
  0
ARC
  5
1FA9
330
1E
100
AcDbEntity
  8
STEMPEL
100
AcDbCircle
 10
239.8201669344832
 20
549.6595780236902
 30
0.0
 40
0.5
100
AcDbArc
 50
30.00000000000055
 51
90.0
  0
LINE
  5
1FAA
330
1E
100
AcDbEntity
  8
STEMPEL
100
AcDbLine
 10
239.6201669344832
 20
550.1595780236904
 30
0.0
 11
239.8201669344832
 21
550.1595780236904
 31
0.0
  0
ARC
  5
1FAB
330
1E
100
AcDbEntity
  8
STEMPEL
100
AcDbCircle
 10
239.6201669344832
 20
549.6595780236902
 30
0.0
 40
0.5
100
AcDbArc
 50
90.0
 51
165.5224878140697
  0
LINE
  5
1FAC
330
1E
100
AcDbEntity
  8
STEMPEL
100
AcDbLine
 10
237.49492606878
 20
549.6595780236902
 30
0.0
 11
237.6836752613792
 21
549.6595780236902
 31
0.0
  0
ARC
  5
1FAD
330
1E
100
AcDbEntity
  8
STEMPEL
100
AcDbCircle
 10
237.6836752613792
 20
550.1595780236903
 30
0.0
 40
0.5
100
AcDbArc
 50
270.0
 51
345.5224878140697
  0
ARC
  5
1FAE
330
1E
100
AcDbEntity
  8
STEMPEL
100
AcDbCircle
 10
239.6201669344832
 20
549.6595780236902
 30
0.0
 40
1.5
100
AcDbArc
 50
90.0
 51
165.5224878140697
  0
ARC
  5
1FAF
330
1E
100
AcDbEntity
  8
STEMPEL
100
AcDbCircle
 10
239.8201669344832
 20
549.6595780236902
 30
0.0
 40
1.5
100
AcDbArc
 50
30.00000000000055
 51
90.0
  0
ARC
  5
1FB0
330
1E
100
AcDbEntity
  8
STEMPEL
100
AcDbCircle
 10
235.5584343956767
 20
549.6595780236902
 30
0.0
 40
1.5
100
AcDbArc
 50
14.47751218593027
 51
90.0
  0
ARC
  5
1FB1
330
1E
100
AcDbEntity
  8
STEMPEL
100
AcDbCircle
 10
235.5584343956767
 20
549.6595780236902
 30
0.0
 40
0.5
100
AcDbArc
 50
14.47751218593027
 51
90.0
  0
ARC
  5
1FB2
330
1E
100
AcDbEntity
  8
STEMPEL
100
AcDbCircle
 10
237.49492606878
 20
550.1595780236903
 30
0.0
 40
0.5
100
AcDbArc
 50
194.4775121859303
 51
270.0
  0
ARC
  5
1FB3
330
1E
100
AcDbEntity
  8
STEMPEL
100
AcDbCircle
 10
242.4182431458367
 20
551.1595780236903
 30
0.0
 40
1.5
100
AcDbArc
 50
210.0000000000005
 51
270.0
  0
ARC
  5
1FB4
330
1E
100
AcDbEntity
  8
STEMPEL
100
AcDbCircle
 10
242.4182431458367
 20
551.1595780236903
 30
0.0
 40
2.5
100
AcDbArc
 50
210.0000000000005
 51
270.0
  0
ARC
  5
1FB5
330
1E
100
AcDbEntity
  8
STEMPEL
100
AcDbCircle
 10
237.6836752613792
 20
550.1595780236903
 30
0.0
 40
1.5
100
AcDbArc
 50
270.0
 51
345.5224878140697
  0
ARC
  5
1FB6
330
1E
100
AcDbEntity
  8
STEMPEL
100
AcDbCircle
 10
237.49492606878
 20
550.1595780236903
 30
0.0
 40
1.5
100
AcDbArc
 50
194.4775121859303
 51
270.0
  0
ARC
  5
1FB7
330
1E
100
AcDbEntity
  8
STEMPEL
100
AcDbCircle
 10
248.8720907231307
 20
551.1595780236903
 30
0.0
 40
2.5
100
AcDbArc
 50
270.0
 51
329.9999999999922
  0
ARC
  5
1FB8
330
1E
100
AcDbEntity
  8
STEMPEL
100
AcDbCircle
 10
248.8720907231307
 20
551.1595780236903
 30
0.0
 40
1.5
100
AcDbArc
 50
270.0
 51
329.9999999999922
  0
ARC
  5
1FB9
330
1E
100
AcDbEntity
  8
STEMPEL
100
AcDbCircle
 10
225.4701669344831
 20
549.6595780236902
 30
0.0
 40
0.5
100
AcDbArc
 50
90.0
 51
149.9999999999922
  0
ARC
  5
1FBA
330
1E
100
AcDbEntity
  8
STEMPEL
100
AcDbCircle
 10
222.8720907231304
 20
551.1595780236903
 30
0.0
 40
1.5
100
AcDbArc
 50
270.0
 51
329.9999999999922
  0
ARC
  5
1FBB
330
1E
100
AcDbEntity
  8
STEMPEL
100
AcDbCircle
 10
225.4701669344831
 20
549.6595780236902
 30
0.0
 40
1.5
100
AcDbArc
 50
90.0
 51
149.9999999999922
  0
ARC
  5
1FBC
330
1E
100
AcDbEntity
  8
STEMPEL
100
AcDbCircle
 10
222.8720907231304
 20
551.1595780236903
 30
0.0
 40
2.5
100
AcDbArc
 50
270.0
 51
329.9999999999922
  0
ARC
  5
1FBD
330
1E
100
AcDbEntity
  8
STEMPEL
100
AcDbCircle
 10
213.8201669344832
 20
549.6595780236902
 30
0.0
 40
1.5
100
AcDbArc
 50
30.00000000000055
 51
90.0
  0
ARC
  5
1FBE
330
1E
100
AcDbEntity
  8
STEMPEL
100
AcDbCircle
 10
213.8201669344832
 20
549.6595780236902
 30
0.0
 40
0.5
100
AcDbArc
 50
30.00000000000055
 51
90.0
  0
LINE
  5
1FBF
330
1E
100
AcDbEntity
  8
STEMPEL
100
AcDbLine
 10
213.6201669344832
 20
550.1595780236904
 30
0.0
 11
213.8201669344832
 21
550.1595780236904
 31
0.0
  0
ARC
  5
1FC0
330
1E
100
AcDbEntity
  8
STEMPEL
100
AcDbCircle
 10
213.6201669344832
 20
549.6595780236902
 30
0.0
 40
0.5
100
AcDbArc
 50
90.0
 51
150.0000000000067
  0
ARC
  5
1FC1
330
1E
100
AcDbEntity
  8
STEMPEL
100
AcDbCircle
 10
216.4182431458361
 20
551.1595780236903
 30
0.0
 40
1.5
100
AcDbArc
 50
210.0000000000005
 51
270.0
  0
ARC
  5
1FC2
330
1E
100
AcDbEntity
  8
STEMPEL
100
AcDbCircle
 10
211.0220907231294
 20
551.1595780236903
 30
0.0
 40
1.5
100
AcDbArc
 50
270.0
 51
330.0000000000068
  0
ARC
  5
1FC3
330
1E
100
AcDbEntity
  8
STEMPEL
100
AcDbCircle
 10
213.6201669344832
 20
549.6595780236902
 30
0.0
 40
1.5
100
AcDbArc
 50
90.0
 51
150.0000000000067
  0
ARC
  5
1FC4
330
1E
100
AcDbEntity
  8
STEMPEL
100
AcDbCircle
 10
206.1651669344832
 20
549.6595780236902
 30
0.0
 40
1.5
100
AcDbArc
 50
90.0
 51
149.9999999999994
  0
ARC
  5
1FC5
330
1E
100
AcDbEntity
  8
STEMPEL
100
AcDbCircle
 10
206.3651669344833
 20
549.6595780236902
 30
0.0
 40
1.5
100
AcDbArc
 50
29.99999999999328
 51
90.0
  0
ARC
  5
1FC6
330
1E
100
AcDbEntity
  8
STEMPEL
100
AcDbCircle
 10
206.3651669344833
 20
549.6595780236902
 30
0.0
 40
0.5
100
AcDbArc
 50
30.00000000000055
 51
90.0
  0
LINE
  5
1FC7
330
1E
100
AcDbEntity
  8
STEMPEL
100
AcDbLine
 10
206.1651669344832
 20
550.1595780236903
 30
0.0
 11
206.3651669344833
 21
550.1595780236903
 31
0.0
  0
ARC
  5
1FC8
330
1E
100
AcDbEntity
  8
STEMPEL
100
AcDbCircle
 10
206.1651669344832
 20
549.6595780236902
 30
0.0
 40
0.5
100
AcDbArc
 50
90.0
 51
149.9999999999994
  0
ARC
  5
1FC9
330
1E
100
AcDbEntity
  8
STEMPEL
100
AcDbCircle
 10
203.5670907231298
 20
551.1595780236903
 30
0.0
 40
1.5
100
AcDbArc
 50
270.0
 51
329.9999999999995
  0
ARC
  5
1FCA
330
1E
100
AcDbEntity
  8
STEMPEL
100
AcDbCircle
 10
208.9632431458371
 20
551.1595780236903
 30
0.0
 40
1.5
100
AcDbArc
 50
209.9999999999933
 51
270.0
  0
LINE
  5
1FCB
330
1E
100
AcDbEntity
  8
STEMPEL
100
AcDbLine
 10
208.9632431458371
 20
549.6595780236902
 30
0.0
 11
211.0220907231294
 21
549.6595780236902
 31
0.0
  0
LINE
  5
1FCC
330
1E
100
AcDbEntity
  8
STEMPEL
100
AcDbLine
 10
208.9632431458371
 20
549.6595780236901
 30
0.0
 11
211.0220907231294
 21
549.6595780236901
 31
0.0
  0
ARC
  5
1FCD
330
1E
100
AcDbEntity
  8
STEMPEL
100
AcDbCircle
 10
208.9632431458371
 20
551.1595780236903
 30
0.0
 40
2.5
100
AcDbArc
 50
209.9999999999933
 51
270.0
  0
ARC
  5
1FCE
330
1E
100
AcDbEntity
  8
STEMPEL
100
AcDbCircle
 10
203.5670907231298
 20
551.1595780236903
 30
0.0
 40
2.5
100
AcDbArc
 50
270.0
 51
329.9999999999995
  0
ARC
  5
1FCF
330
1E
100
AcDbEntity
  8
STEMPEL
100
AcDbCircle
 10
216.4182431458361
 20
551.1595780236903
 30
0.0
 40
2.5
100
AcDbArc
 50
210.0000000000005
 51
270.0
  0
ARC
  5
1FD0
330
1E
100
AcDbEntity
  8
STEMPEL
100
AcDbCircle
 10
211.0220907231294
 20
551.1595780236903
 30
0.0
 40
2.5
100
AcDbArc
 50
270.0
 51
330.0000000000068
  0
LINE
  5
1FD1
330
1E
100
AcDbEntity
  8
STEMPEL
100
AcDbLine
 10
216.4182431458361
 20
549.6595780236902
 30
0.0
 11
222.8720907231304
 21
549.6595780236902
 31
0.0
  0
LINE
  5
1FD2
330
1E
100
AcDbEntity
  8
STEMPEL
100
AcDbLine
 10
216.4182431458361
 20
549.6595780236902
 30
0.0
 11
222.8720907231304
 21
549.6595780236902
 31
0.0
  0
LINE
  5
1FD3
330
1E
100
AcDbEntity
  8
STEMPEL
100
AcDbLine
 10
206.1651669344832
 20
551.1595780236903
 30
0.0
 11
251.6701669344831
 21
551.1595780236903
 31
0.0
  0
LINE
  5
1FD4
330
1E
100
AcDbEntity
  8
STEMPEL
100
AcDbLine
 10
225.4701669344831
 20
550.1595780236904
 30
0.0
 11
235.5584343956767
 21
550.1595780236904
 31
0.0
  0
ARC
  5
1FD8
330
1E
100
AcDbEntity
  8
STEMPEL
100
AcDbCircle
 10
148.8287285507803
 20
543.6595780236902
 30
0.0
 40
6.0
100
AcDbArc
 50
90.0
 51
90.0
  0
ARC
  5
1FD9
330
1E
100
AcDbEntity
  8
STEMPEL
100
AcDbCircle
 10
148.8287285507803
 20
543.6595780236902
 30
0.0
 40
6.0
100
AcDbArc
 50
90.0
 51
120.5128743276211
  0
ARC
  5
1FDA
330
1E
100
AcDbEntity
  8
STEMPEL
100
AcDbCircle
 10
148.8287285507803
 20
543.6595780236902
 30
0.0
 40
5.0
100
AcDbArc
 50
90.0
 51
120.5373500483019
  0
LINE
  5
1FDB
330
1E
100
AcDbEntity
  8
STEMPEL
100
AcDbLine
 10
148.8287285507803
 20
549.65957802369
 30
0.0
 11
203.5670907231298
 21
549.6595780236901
 31
0.0
  0
LINE
  5
1FDC
330
1E
100
AcDbEntity
  8
STEMPEL
100
AcDbLine
 10
254.2682431458372
 20
549.6595780236904
 30
0.0
 11
308.8287285507806
 21
549.6595780236906
 31
0.0
  0
LINE
  5
1FDD
330
1E
100
AcDbEntity
  8
STEMPEL
100
AcDbLine
 10
148.8287285507803
 20
548.6595780236899
 30
0.0
 11
308.8287285507806
 21
548.6595780236906
 31
0.0
  0
LWPOLYLINE
  5
1FDF
330
1E
100
AcDbEntity
  8
STEMPEL
100
AcDbPolyline
 90
        7
 70
   128
 43
0.0
 10
337.1369842248641
 20
478.6216320795286
 10
336.9991552152938
 20
477.8695258425901
 10
336.8802909383276
 20
476.9468122318753
 10
336.7839429364264
 20
475.881060981971
 10
336.7129899888883
 20
474.70411564515
 10
336.6695520968803
 20
473.4511421387481
 10
336.6549271399827
 20
472.1595780236888
  0
LWPOLYLINE
  5
1FE0
330
1E
100
AcDbEntity
  8
STEMPEL
100
AcDbPolyline
 90
       18
 70
   128
 43
0.0
 10
337.6190413097452
 20
472.1595780236888
 10
337.6023728862684
 20
473.5376994073133
 10
337.552935239008
 20
474.868890520093
 10
337.4724119077476
 20
476.1078192452698
 10
337.3635450179559
 20
477.2122953510391
 10
337.2300419009936
 20
478.1447072282919
 10
337.0764488453895
 20
478.8733027088531
 10
336.9079962784375
 20
479.3732703474865
 10
336.7304206502685
 20
479.6275843459032
 10
336.5497690859215
 20
479.6275843459032
 10
336.3721934577525
 20
479.3732703474865
 10
336.2037408908005
 20
478.8733027088531
 10
336.0501478351963
 20
478.1447072282919
 10
335.9166447182341
 20
477.2122953510391
 10
335.8077778284424
 20
476.1078192452698
 10
335.727254497182
 20
474.868890520093
 10
335.6778168499216
 20
473.5376994073133
 10
335.6611484264448
 20
472.1595780236888
  0
LWPOLYLINE
  5
1FE1
330
1E
100
AcDbEntity
  8
STEMPEL
100
AcDbPolyline
 90
        9
 70
   128
 43
0.0
 10
329.7559555885246
 20
479.5613362683539
 10
329.2668950452558
 20
479.2349033705964
 10
328.8072820773548
 20
478.6896343573393
 10
328.3913322737306
 20
477.9423941142113
 10
328.031910744439
 20
477.0162943914337
 10
327.7401342095515
 20
475.9399789694635
 10
327.5250271648133
 20
474.7467377218326
 10
327.3932427587059
 20
473.4734769767568
 10
327.348857014041
 20
472.1595780236904
  0
LWPOLYLINE
  5
1FE2
330
1E
100
AcDbEntity
  8
STEMPEL
100
AcDbPolyline
 90
       18
 70
   128
 43
0.0
 10
332.1630541630114
 20
472.1595780236888
 10
332.1141848180951
 20
473.5376994073133
 10
331.9692409702751
 20
474.868890520093
 10
331.7331585084478
 20
476.1078192452698
 10
331.4139769377012
 20
477.2122953510391
 10
331.0225656036108
 20
478.1447072282919
 10
330.5722535497128
 20
478.8733027088531
 10
330.0783756129133
 20
479.3732703474865
 10
329.5577502140084
 20
479.6275843459032
 10
329.0281066265366
 20
479.6275843459032
 10
328.5074812276317
 20
479.3732703474865
 10
328.0136032908322
 20
478.8733027088531
 10
327.5632912369343
 20
478.1447072282919
 10
327.1718799028438
 20
477.2122953510391
 10
326.8526983320972
 20
476.1078192452698
 10
326.61661587027
 20
474.868890520093
 10
326.4716720224499
 20
473.5376994073133
 10
326.4228026775336
 20
472.1595780236888
  0
LINE
  5
1FE3
330
1E
100
AcDbEntity
  8
STEMPEL
100
AcDbLine
 10
358.8287285507802
 20
460.6595780236908
 30
0.0
 11
358.8287285507803
 21
459.6595780236906
 31
0.0
  0
LINE
  5
1FEB
330
1E
100
AcDbEntity
  8
STEMPEL
100
AcDbLine
 10
354.8287285507803
 20
460.6595780236906
 30
0.0
 11
354.8287285507803
 21
459.6595780236906
 31
0.0
  0
LINE
  5
1FF1
330
1E
100
AcDbEntity
  8
STEMPEL
100
AcDbLine
 10
346.8287285507803
 20
460.6595780236911
 30
0.0
 11
346.8287285507803
 21
459.6595780236906
 31
0.0
  0
LINE
  5
1FF5
330
1E
100
AcDbEntity
  8
STEMPEL
100
AcDbLine
 10
356.8287285507803
 20
460.6595780236907
 30
0.0
 11
344.8287285507802
 21
460.6595780236911
 31
0.0
  0
LINE
  5
1FF7
330
1E
100
AcDbEntity
  8
STEMPEL
100
AcDbLine
 10
353.1787285507804
 20
448.6595780236909
 30
0.0
 11
353.8287285507802
 21
449.3095780236907
 31
0.0
  0
LINE
  5
1FF9
330
1E
100
AcDbEntity
  8
STEMPEL
100
AcDbLine
 10
347.8287285507802
 20
449.3095780236907
 30
0.0
 11
348.4787285507803
 21
448.6595780236909
 31
0.0
  0
LINE
  5
1FFA
330
1E
100
AcDbEntity
  8
STEMPEL
100
AcDbLine
 10
347.8287285507802
 20
449.3095780236907
 30
0.0
 11
353.8287285507802
 21
449.3095780236907
 31
0.0
  0
LINE
  5
1FFB
330
1E
100
AcDbEntity
  8
STEMPEL
100
AcDbLine
 10
348.4787285507803
 20
448.6595780236909
 30
0.0
 11
353.1787285507804
 21
448.6595780236909
 31
0.0
  0
LINE
  5
1FFC
330
1E
100
AcDbEntity
  8
STEMPEL
100
AcDbLine
 10
353.8287285507802
 20
460.6595780236908
 30
0.0
 11
353.8287285507802
 21
449.3095780236907
 31
0.0
  0
LINE
  5
1FFD
330
1E
100
AcDbEntity
  8
HILF
100
AcDbLine
 10
353.1787285507804
 20
448.6595780236909
 30
0.0
 11
353.1787285507804
 21
460.6595780236908
 31
0.0
  0
LINE
  5
1FFE
330
1E
100
AcDbEntity
  8
STEMPEL
100
AcDbLine
 10
347.8287285507802
 20
460.6595780236908
 30
0.0
 11
347.8287285507802
 21
449.3095780236907
 31
0.0
  0
LINE
  5
1FFF
330
1E
100
AcDbEntity
  8
HILF
100
AcDbLine
 10
348.4787285507803
 20
448.6595780236909
 30
0.0
 11
348.4787285507803
 21
460.6595780236908
 31
0.0
  0
LWPOLYLINE
  5
2004
330
1E
100
AcDbEntity
  8
STEMPEL
100
AcDbPolyline
 90
        7
 70
   128
 43
0.0
 10
-339.2753863236535
 20
460.6595780236911
 10
-338.5986844485761
 20
461.2691787515501
 10
-337.999135024942
 20
461.9967378354617
 10
-337.4928463517925
 20
462.822707697142
 10
-337.0934210597468
 20
463.7248967223451
 10
-336.811590644484
 20
464.6790654905387
 10
-336.6549271399825
 20
465.659578023691
210
0.0
220
0.0
230
-1.0
  0
LWPOLYLINE
  5
2005
330
1E
100
AcDbEntity
  8
STEMPEL
100
AcDbPolyline
 90
       10
 70
   128
 43
0.0
 10
-341.1671371574755
 20
459.6595780236906
 10
-340.3090641612028
 20
459.7257052382633
 10
-339.4562519615806
 20
459.9782589879935
 10
-338.6354936546636
 20
460.409304704311
 10
-337.8725752882645
 20
461.005300074751
 10
-337.1914657327654
 20
461.7475205064716
 10
-336.6135636428197
 20
462.612647403269
 10
-336.1570251684134
 20
463.5735007739851
 10
-335.8361935368159
 20
464.5998931556973
 10
-335.6611484264448
 20
465.6595780236899
210
0.0
220
0.0
230
-1.0
  0
LINE
  5
2006
330
1E
100
AcDbEntity
  8
STEMPEL
100
AcDbLine
 10
340.2395004934159
 20
460.6595780236906
 30
0.0
 11
339.2753863236532
 21
460.6595780236906
 31
0.0
  0
LWPOLYLINE
  5
2007
330
1E
100
AcDbEntity
  8
STEMPEL
100
AcDbPolyline
 90
       10
 70
   128
 43
0.0
 10
-331.2381672041076
 20
459.6595780236906
 10
-330.401987929266
 20
459.7507315056174
 10
-329.5912155385634
 20
460.0214222989752
 10
-328.8304849408206
 20
460.463425600984
 10
-328.1429105503018
 20
461.0633113649768
 10
-327.5493839669334
 20
461.8028523655715
 10
-327.0679391956122
 20
462.6595780236908
 10
-326.7132046920918
 20
463.6074571637369
 10
-326.4959588847576
 20
464.6176889576894
 10
-326.4228026775336
 20
465.659578023691
210
0.0
220
0.0
230
-1.0
  0
LWPOLYLINE
  5
2008
330
1E
100
AcDbEntity
  8
STEMPEL
100
AcDbPolyline
 90
        7
 70
   128
 43
0.0
 10
-329.5024286467096
 20
460.6595780236906
 10
-328.8823381236453
 20
461.2689159255315
 10
-328.3505179768618
 20
461.9963461988207
 10
-327.9212721771306
 20
462.8223036927644
 10
-327.6061458293332
 20
463.7245732432266
 10
-327.4136146523674
 20
464.6788871774699
 10
-327.348857014041
 20
465.659578023691
210
0.0
220
0.0
230
-1.0
  0
LWPOLYLINE
  5
2009
330
1E
100
AcDbEntity
  8
STEMPEL
100
AcDbPolyline
 90
       10
 70
   128
 43
0.0
 10
-336.9784186895854
 20
459.6595780236906
 10
-336.1422394147437
 20
459.7507315056174
 10
-335.3314670240412
 20
460.0214222989752
 10
-334.5707364262983
 20
460.463425600984
 10
-333.8831620357796
 20
461.0633113649768
 10
-333.2896354524111
 20
461.8028523655715
 10
-332.8081906810899
 20
462.6595780236908
 10
-332.4534561775696
 20
463.6074571637369
 10
-332.2362103702354
 20
464.6176889576894
 10
-332.1630541630114
 20
465.659578023691
210
0.0
220
0.0
230
-1.0
  0
LINE
  5
200A
330
1E
100
AcDbEntity
  8
STEMPEL
100
AcDbLine
 10
334.31662579568
 20
460.6595780236906
 30
0.0
 11
329.5024286467086
 21
460.6595780236906
 31
0.0
  0
ARC
  5
200D
330
1E
100
AcDbEntity
  8
STEMPEL
100
AcDbCircle
 10
343.8287285507805
 20
465.659578023691
 30
0.0
 40
6.0
100
AcDbArc
 50
180.0
 51
269.9999999999968
  0
LWPOLYLINE
  5
200E
330
1E
100
AcDbEntity
  8
STEMPEL
100
AcDbPolyline
 90
       10
 70
   128
 43
0.0
 10
-343.125030040776
 20
459.6595780236917
 10
-342.2669570445033
 20
459.7257052382643
 10
-341.414144844881
 20
459.9782589879946
 10
-340.593386537964
 20
460.4093047043122
 10
-339.830468171565
 20
461.0053000747521
 10
-339.1493586160659
 20
461.7475205064727
 10
-338.5714565261201
 20
462.6126474032702
 10
-338.1149180517139
 20
463.5735007739862
 10
-337.7940864201164
 20
464.5998931556984
 10
-337.6190413097452
 20
465.659578023691
210
0.0
220
0.0
230
-1.0
  0
ARC
  5
200F
330
1E
100
AcDbEntity
  8
STEMPEL
100
AcDbCircle
 10
343.8287285507805
 20
465.659578023691
 30
0.0
 40
5.0
100
AcDbArc
 50
180.0
 51
269.9999999999968
  0
LINE
  5
2010
102
{ACAD_REACTORS
330
25A9
102
}
330
1E
100
AcDbEntity
  8
STEMPEL
100
AcDbLine
 10
351.3287285507803
 20
436.6595780236891
 30
0.0
 11
351.3287285507803
 21
433.6595780236891
 31
0.0
  0
LINE
  5
2013
330
1E
100
AcDbEntity
  8
STEMPEL
100
AcDbLine
 10
353.8287285507802
 20
459.6595780236906
 30
0.0
 11
358.8287285507805
 21
459.6595780236906
 31
0.0
  0
LINE
  5
2014
330
1E
100
AcDbEntity
  8
STEMPEL
100
AcDbLine
 10
358.8287285507801
 20
460.6595780236906
 30
0.0
 11
343.8287285507802
 21
460.659578023691
 31
0.0
  0
LINE
  5
2015
330
1E
100
AcDbEntity
  8
MITTEL
100
AcDbLine
 10
350.8287285507802
 20
472.2595780236908
 30
0.0
 11
350.8287285507802
 21
439.6595780236892
 31
0.0
  0
LINE
  5
2016
330
1E
100
AcDbEntity
  8
STEMPEL
100
AcDbLine
 10
336.6549271399826
 20
472.1595780236888
 30
0.0
 11
336.6549271399826
 21
465.659578023691
 31
0.0
  0
LINE
  5
2017
330
1E
100
AcDbEntity
  8
STEMPEL
100
AcDbLine
 10
335.6611484264448
 20
472.1595780236888
 30
0.0
 11
335.6611484264448
 21
465.6595780236899
 31
0.0
  0
LINE
  5
2018
330
1E
100
AcDbEntity
  8
STEMPEL
100
AcDbLine
 10
332.1630541630114
 20
472.1595780236888
 30
0.0
 11
332.1630541630114
 21
465.6595780236922
 31
0.0
  0
LINE
  5
2019
330
1E
100
AcDbEntity
  8
STEMPEL
100
AcDbLine
 10
337.6190413097452
 20
472.1595780236888
 30
0.0
 11
337.6190413097452
 21
465.659578023691
 31
0.0
  0
LINE
  5
201A
330
1E
100
AcDbEntity
  8
STEMPEL
100
AcDbLine
 10
326.4228026775336
 20
472.1595780236888
 30
0.0
 11
326.4228026775336
 21
465.6595780236922
 31
0.0
  0
LINE
  5
201B
330
1E
100
AcDbEntity
  8
STEMPEL
100
AcDbLine
 10
327.3488570140409
 20
472.1595780236888
 30
0.0
 11
327.3488570140409
 21
465.6595780236922
 31
0.0
  0
LWPOLYLINE
  5
201C
330
1E
100
AcDbEntity
  8
STEMPEL
100
AcDbPolyline
 90
       10
 70
   128
 43
0.0
 10
315.8945136631068
 20
479.659578023692
 10
315.1016863172471
 20
479.5456361712835
 10
314.3329486291014
 20
479.2072726795861
 10
313.6116583043238
 20
478.654768552075
 10
312.9597313844424
 20
477.9049113470839
 10
312.3969763390267
 20
476.9804850963405
 10
311.9404921953638
 20
475.9095780236911
 10
311.604148993167
 20
474.7247290986335
 10
311.398166350437
 20
473.4619393561926
 10
311.3288029455409
 20
472.1595780236904
  0
LWPOLYLINE
  5
201D
330
1E
100
AcDbEntity
  8
STEMPEL
100
AcDbPolyline
 90
       18
 70
   128
 43
0.0
 10
319.6650034938518
 20
472.1595780236888
 10
319.5872635925917
 20
473.5376994073133
 10
319.3566912279099
 20
474.868890520093
 10
318.9811382651447
 20
476.1078192452698
 10
318.473393710017
 20
477.2122953510391
 10
317.850748194379
 20
478.1447072282919
 10
317.1344051644849
 20
478.8733027088531
 10
316.3487588230591
 20
479.3732703474865
 10
315.5205634139797
 20
479.6275843459032
 10
314.678022138592
 20
479.6275843459032
 10
313.8498267295126
 20
479.3732703474865
 10
313.0641803880867
 20
478.8733027088531
 10
312.3478373581926
 20
478.1447072282919
 10
311.7251918425547
 20
477.2122953510391
 10
311.217447287427
 20
476.1078192452698
 10
310.8418943246618
 20
474.868890520093
 10
310.61132195998
 20
473.5376994073133
 10
310.5335820587199
 20
472.1595780236888
  0
LWPOLYLINE
  5
201E
330
1E
100
AcDbEntity
  8
STEMPEL
100
AcDbPolyline
 90
        8
 70
   128
 43
0.0
 10
295.3315579731034
 20
479.6497121015125
 10
294.2151502517323
 20
479.4424049651054
 10
293.14987099999
 20
478.9731502376516
 10
292.1740360169517
 20
478.258826000483
 10
291.3227439840937
 20
477.3251249570867
 10
290.6266140413573
 20
476.2056303219262
 10
290.1106844826659
 20
474.9406079045876
 10
290.0453865893764
 20
474.6595780236889
  0
LWPOLYLINE
  5
201F
330
1E
100
AcDbEntity
  8
STEMPEL
100
AcDbPolyline
 90
       17
 70
   128
 43
0.0
 10
300.9766108013684
 20
472.1595780236888
 10
300.875298189564
 20
473.5376994073133
 10
300.5748104336348
 20
474.868890520093
 10
300.0853802837136
 20
476.1078192452698
 10
299.4236746965492
 20
477.2122953510391
 10
298.6122272622841
 20
478.1447072282919
 10
297.6786708500684
 20
478.8733027088531
 10
296.6547966038423
 20
479.3732703474865
 10
295.5754713330595
 20
479.6275843459032
 10
294.4774501653084
 20
479.6275843459032
 10
293.3981248945256
 20
479.3732703474865
 10
292.3742506482995
 20
478.8733027088531
 10
291.4406942360839
 20
478.1447072282919
 10
290.6292468018187
 20
477.2122953510391
 10
289.9675412146543
 20
476.1078192452698
 10
289.4781110647331
 20
474.868890520093
 10
289.4308632715886
 20
474.6595780236889
  0
LWPOLYLINE
  5
2020
330
1E
100
AcDbEntity
  8
STEMPEL
100
AcDbPolyline
 90
       10
 70
   128
 43
0.0
 10
-324.0287096684578
 20
459.6595780236906
 10
-323.2709600433636
 20
459.7507315056174
 10
-322.536234257188
 20
460.0214222989752
 10
-321.8468565811549
 20
460.463425600984
 10
-321.2237734071085
 20
461.0633113649768
 10
-320.685916801997
 20
461.8028523655715
 10
-320.2496292665981
 20
462.6595780236908
 10
-319.9281671769028
 20
463.6074571637369
 10
-319.7312979958388
 20
464.6176889576894
 10
-319.665003493852
 20
465.659578023691
210
0.0
220
0.0
230
-1.0
  0
LWPOLYLINE
  5
2021
330
1E
100
AcDbEntity
  8
STEMPEL
100
AcDbPolyline
 90
        7
 70
   128
 43
0.0
 10
-313.2803797740591
 20
460.6595780236906
 10
-312.718450800795
 20
461.2689159255315
 10
-312.2365128612078
 20
461.9963461988207
 10
-311.847528281458
 20
462.8223036927644
 10
-311.5619592903516
 20
463.7245732432266
 10
-311.3874866245556
 20
464.6788871774699
 10
-311.3288029455406
 20
465.659578023691
210
0.0
220
0.0
230
-1.0
  0
LINE
  5
2022
330
1E
100
AcDbEntity
  8
STEMPEL
100
AcDbLine
 10
321.6165803223703
 20
460.6595780236906
 30
0.0
 11
313.2803797740584
 21
460.6595780236906
 31
0.0
  0
LWPOLYLINE
  5
2023
330
1E
100
AcDbEntity
  8
STEMPEL
100
AcDbPolyline
 90
       10
 70
   128
 43
0.0
 10
-314.8972882333259
 20
459.6595780236906
 10
-314.1395386082317
 20
459.7507315056174
 10
-313.4048128220562
 20
460.0214222989752
 10
-312.715435146023
 20
460.463425600984
 10
-312.0923519719766
 20
461.0633113649768
 10
-311.5544953668652
 20
461.8028523655715
 10
-311.1182078314663
 20
462.6595780236908
 10
-310.796745741771
 20
463.6074571637369
 10
-310.5998765607069
 20
464.6176889576894
 10
-310.5335820587201
 20
465.659578023691
210
0.0
220
0.0
230
-1.0
  0
LINE
  5
2026
330
1E
100
AcDbEntity
  8
STEMPEL
100
AcDbLine
 10
302.6369086692183
 20
460.6595780236903
 30
0.0
 11
295.3287285507799
 21
460.6595780236905
 31
0.0
  0
LINE
  5
2029
102
{ACAD_REACTORS
330
25A9
102
}
330
1E
100
AcDbEntity
  8
STEMPEL
100
AcDbLine
 10
291.3287285507802
 20
436.6595780236892
 30
0.0
 11
291.3287285507802
 21
433.6595780236891
 31
0.0
  0
LINE
  5
202C
102
{ACAD_REACTORS
330
25A9
102
}
330
1E
100
AcDbEntity
  8
MITTEL
100
AcDbLine
 10
300.2287285507801
 20
463.6595780236897
 30
0.0
 11
300.2287285507802
 21
433.6595780236891
 31
0.0
  0
LINE
  5
2030
330
1E
100
AcDbEntity
  8
STEMPEL
100
AcDbLine
 10
310.53358205872
 20
472.1595780236888
 30
0.0
 11
310.53358205872
 21
465.6595780236922
 31
0.0
  0
LINE
  5
2031
330
1E
100
AcDbEntity
  8
STEMPEL
100
AcDbLine
 10
300.9766108013683
 20
472.1595780236888
 30
0.0
 11
300.9766108013683
 21
465.6595780236922
 31
0.0
  0
LINE
  5
2032
330
1E
100
AcDbEntity
  8
STEMPEL
100
AcDbLine
 10
319.6650034938519
 20
472.1595780236888
 30
0.0
 11
319.6650034938519
 21
465.6595780236922
 31
0.0
  0
LINE
  5
2033
330
1E
100
AcDbEntity
  8
STEMPEL
100
AcDbLine
 10
311.3288029455408
 20
472.1595780236888
 30
0.0
 11
311.3288029455408
 21
465.6595780236922
 31
0.0
  0
LWPOLYLINE
  5
2034
330
1E
100
AcDbEntity
  8
STEMPEL
100
AcDbPolyline
 90
        8
 70
   128
 43
0.0
 10
243.0877809195071
 20
479.6592877834635
 10
241.6464409356293
 20
479.5039863895398
 10
240.2623600321797
 20
479.0695861425255
 10
238.9881354196478
 20
478.3725949222503
 10
237.8721895999179
 20
477.4394994708046
 10
236.9569302364649
 20
476.3057588554612
 10
236.2771385976898
 20
475.0144569693918
 10
236.1710416915823
 20
474.6595780236888
  0
LWPOLYLINE
  5
2035
330
1E
100
AcDbEntity
  8
STEMPEL
100
AcDbPolyline
 90
       16
 70
   128
 43
0.0
 10
250.0151202389264
 20
474.6595780236888
 10
249.9560751963894
 20
474.868890520093
 10
249.344439771797
 20
476.1078192452698
 10
248.5175136459226
 20
477.2122953510391
 10
247.5034567961944
 20
478.1447072282919
 10
246.3368017124026
 20
478.8733027088531
 10
245.0572774341774
 20
479.3732703474865
 10
243.7084566261932
 20
479.6275843459032
 10
242.336271763334
 20
479.6275843459032
 10
240.9874509553499
 20
479.3732703474865
 10
239.7079266771246
 20
478.8733027088531
 10
238.5412715933329
 20
478.1447072282919
 10
237.5272147436046
 20
477.2122953510391
 10
236.7002886177302
 20
476.1078192452698
 10
236.0886531931379
 20
474.868890520093
 10
236.0296081506009
 20
474.6595780236888
  0
LWPOLYLINE
  5
2036
330
1E
100
AcDbEntity
  8
STEMPEL
100
AcDbPolyline
 90
       16
 70
   128
 43
0.0
 10
-207.6423368626346
 20
474.6595780236888
 10
-207.7013819051716
 20
474.868890520093
 10
-208.3130173297639
 20
476.1078192452698
 10
-209.1399434556383
 20
477.2122953510391
 10
-210.1540003053665
 20
478.1447072282919
 10
-211.3206553891583
 20
478.8733027088531
 10
-212.6001796673835
 20
479.3732703474865
 10
-213.9490004753676
 20
479.6275843459032
 10
-215.3211853382269
 20
479.6275843459032
 10
-216.6700061462111
 20
479.3732703474865
 10
-217.9495304244363
 20
478.8733027088531
 10
-219.1161855082281
 20
478.1447072282919
 10
-220.1302423579563
 20
477.2122953510391
 10
-220.9571684838307
 20
476.1078192452698
 10
-221.5688039084231
 20
474.868890520093
 10
-221.62784895096
 20
474.6595780236888
210
0.0
220
0.0
230
-1.0
  0
LWPOLYLINE
  5
2037
330
1E
100
AcDbEntity
  8
STEMPEL
100
AcDbPolyline
 90
        8
 70
   128
 43
0.0
 10
-214.5696761820538
 20
479.6592877834635
 10
-216.0110161659316
 20
479.5039863895398
 10
-217.3950970693812
 20
479.0695861425255
 10
-218.6693216819131
 20
478.3725949222503
 10
-219.785267501643
 20
477.4394994708046
 10
-220.700526865096
 20
476.3057588554612
 10
-221.3803185038711
 20
475.0144569693918
 10
-221.4864154099786
 20
474.6595780236888
210
0.0
220
0.0
230
-1.0
  0
LWPOLYLINE
  5
2048
330
1E
100
AcDbEntity
  8
STEMPEL
100
AcDbPolyline
 90
       16
 70
   128
 43
0.0
 10
-180.6988831560488
 20
474.6595780236888
 10
-180.7539043765135
 20
474.868890520093
 10
-181.3238578576952
 20
476.1078192452698
 10
-182.0944303346513
 20
477.2122953510391
 10
-183.0393808858788
 20
478.1447072282919
 10
-184.126530353699
 20
478.8733027088531
 10
-185.3188571668772
 20
479.3732703474865
 10
-186.575758065829
 20
479.6275843459032
 10
-187.8544307979273
 20
479.6275843459032
 10
-189.1113316968791
 20
479.3732703474865
 10
-190.3036585100573
 20
478.8733027088531
 10
-191.3908079778775
 20
478.1447072282919
 10
-192.335758529105
 20
477.2122953510391
 10
-193.1063310060611
 20
476.1078192452698
 10
-193.6762844872428
 20
474.868890520093
 10
-193.7313057077075
 20
474.6595780236888
210
0.0
220
0.0
230
-1.0
  0
LWPOLYLINE
  5
2049
330
1E
100
AcDbEntity
  8
STEMPEL
100
AcDbPolyline
 90
        8
 70
   128
 43
0.0
 10
-187.0233022990663
 20
479.6567044467289
 10
-188.3475117493961
 20
479.4778715396811
 10
-189.6154911465822
 20
479.0275956223569
 10
-190.7802098346678
 20
478.3225778902178
 10
-191.7984672032744
 20
477.3889681738343
 10
-192.6324950425367
 20
476.2613950148582
 10
-193.2513584047306
 20
474.9816812579064
 10
-193.3399455848358
 20
474.6595780236888
210
0.0
220
0.0
230
-1.0
  0
LWPOLYLINE
  5
204A
330
1E
100
AcDbEntity
  8
STEMPEL
100
AcDbPolyline
 90
        8
 70
   128
 43
0.0
 10
-162.3258991284575
 20
479.6497121015125
 10
-163.4423068498286
 20
479.4424049651054
 10
-164.5075861015709
 20
478.9731502376516
 10
-165.4834210846092
 20
478.258826000483
 10
-166.3347131174671
 20
477.3251249570867
 10
-167.0308430602036
 20
476.2056303219262
 10
-167.546772618895
 20
474.9406079045876
 10
-167.6120705121845
 20
474.6595780236888
210
0.0
220
0.0
230
-1.0
  0
LWPOLYLINE
  5
204B
330
1E
100
AcDbEntity
  8
STEMPEL
100
AcDbPolyline
 90
       17
 70
   128
 43
0.0
 10
-156.6808463001925
 20
472.1595780236888
 10
-156.7821589119968
 20
473.5376994073133
 10
-157.0826466679261
 20
474.868890520093
 10
-157.5720768178473
 20
476.1078192452698
 10
-158.2337824050117
 20
477.2122953510391
 10
-159.0452298392768
 20
478.1447072282919
 10
-159.9787862514925
 20
478.8733027088531
 10
-161.0026604977186
 20
479.3732703474865
 10
-162.0819857685014
 20
479.6275843459032
 10
-163.1800069362524
 20
479.6275843459032
 10
-164.2593322070352
 20
479.3732703474865
 10
-165.2832064532613
 20
478.8733027088531
 10
-166.216762865477
 20
478.1447072282919
 10
-167.0282102997421
 20
477.2122953510391
 10
-167.6899158869066
 20
476.1078192452698
 10
-168.1793460368278
 20
474.868890520093
 10
-168.2265938299723
 20
474.6595780236888
210
0.0
220
0.0
230
-1.0
  0
LWPOLYLINE
  5
2051
330
1E
100
AcDbEntity
  8
STEMPEL
100
AcDbPolyline
 90
       10
 70
   128
 43
0.0
 10
153.0182431646685
 20
459.6595780236906
 10
153.6542475246694
 20
459.7507315056174
 10
154.2709272140255
 20
460.0214222989752
 10
154.8495447324306
 20
460.463425600984
 10
155.3725190793825
 20
461.0633113649768
 10
155.8239599439869
 20
461.8028523655715
 10
156.1901505240129
 20
462.6595780236908
 10
156.4599643039878
 20
463.6074571637369
 10
156.6252031287395
 20
464.6176889576894
 10
156.6808463001926
 20
465.659578023691
  0
LWPOLYLINE
  5
2052
330
1E
100
AcDbEntity
  8
STEMPEL
100
AcDbPolyline
 90
        8
 70
   128
 43
0.0
 10
143.688287939975
 20
459.6595780236905
 10
144.9420219555379
 20
460.463425600984
 10
145.5651051295842
 20
461.0633113649768
 10
146.1029617346957
 20
461.8028523655715
 10
146.5392492700947
 20
462.6595780236908
 10
146.8607113597899
 20
463.6074571637369
 10
147.0575805408539
 20
464.6176889576894
 10
147.1238750428408
 20
465.659578023691
  0
LWPOLYLINE
  5
2053
330
1E
100
AcDbEntity
  8
STEMPEL
100
AcDbPolyline
 90
        7
 70
   128
 43
0.0
 10
144.3770773275018
 20
460.6595780236906
 10
144.9390063007659
 20
461.2689159255315
 10
145.4209442403531
 20
461.9963461988207
 10
145.8099288201029
 20
462.8223036927644
 10
146.0954978112094
 20
463.7245732432266
 10
146.2699704770053
 20
464.6788871774699
 10
146.3286541560202
 20
465.659578023691
  0
LINE
  5
2054
330
1E
100
AcDbEntity
  8
STEMPEL
100
AcDbLine
 10
155.0428232240872
 20
460.6595780236906
 30
0.0
 11
161.6045906197455
 21
460.6595780236907
 31
0.0
  0
LINE
  5
2055
102
{ACAD_REACTORS
330
25A9
102
}
330
1E
100
AcDbEntity
  8
STEMPEL
100
AcDbLine
 10
166.3287285507802
 20
436.6595780236893
 30
0.0
 11
166.3287285507802
 21
433.6595780236891
 31
0.0
  0
LINE
  5
2057
102
{ACAD_REACTORS
330
25A9
102
}
330
1E
100
AcDbEntity
  8
STEMPEL
100
AcDbLine
 10
145.3287285507803
 20
436.6595780236893
 30
0.0
 11
145.3287285507803
 21
433.6595780236892
 31
0.0
  0
LINE
  5
2059
330
1E
100
AcDbEntity
  8
STEMPEL
100
AcDbLine
 10
156.6808463001926
 20
472.1595780236888
 30
0.0
 11
156.6808463001926
 21
465.6595780236922
 31
0.0
  0
LINE
  5
205A
330
1E
100
AcDbEntity
  8
STEMPEL
100
AcDbLine
 10
146.3286541560201
 20
472.1595780236888
 30
0.0
 11
146.3286541560201
 21
465.6595780236922
 31
0.0
  0
LINE
  5
205B
330
1E
100
AcDbEntity
  8
STEMPEL
100
AcDbLine
 10
147.1238750428409
 20
472.1595780236888
 30
0.0
 11
147.1238750428409
 21
465.6595780236922
 31
0.0
  0
LINE
  5
2061
330
1E
100
AcDbEntity
  8
STEMPEL
100
AcDbLine
 10
98.82872855078012
 20
459.6595780236905
 30
0.0
 11
161.5528664818145
 21
459.6595780236906
 31
0.0
  0
LWPOLYLINE
  5
2063
330
1E
100
AcDbEntity
  8
STEMPEL
100
AcDbPolyline
 90
       16
 70
   128
 43
0.0
 10
276.958573945512
 20
474.6595780236889
 10
276.9035527250474
 20
474.868890520093
 10
276.3335992438657
 20
476.1078192452698
 10
275.5630267669096
 20
477.2122953510391
 10
274.6180762156821
 20
478.1447072282919
 10
273.530926747862
 20
478.8733027088531
 10
272.3385999346837
 20
479.3732703474865
 10
271.0816990357319
 20
479.6275843459032
 10
269.8030263036335
 20
479.6275843459032
 10
268.5461254046817
 20
479.3732703474865
 10
267.3537985915034
 20
478.8733027088531
 10
266.2666491236834
 20
478.1447072282919
 10
265.3216985724559
 20
477.2122953510391
 10
264.5511260954998
 20
476.1078192452698
 10
263.9811726143181
 20
474.868890520093
 10
263.9261513938534
 20
474.6595780236889
  0
LWPOLYLINE
  5
2064
330
1E
100
AcDbEntity
  8
STEMPEL
100
AcDbPolyline
 90
        8
 70
   128
 43
0.0
 10
270.6341548024946
 20
479.6567044467289
 10
269.3099453521648
 20
479.4778715396811
 10
268.0419659549787
 20
479.0275956223569
 10
266.8772472668931
 20
478.3225778902178
 10
265.8589898982864
 20
477.3889681738343
 10
265.0249620590242
 20
476.2613950148582
 10
264.4060986968303
 20
474.9816812579064
 10
264.3175115167251
 20
474.6595780236889
  0
LINE
  5
2066
102
{ACAD_REACTORS
330
25A9
102
}
330
1E
100
AcDbEntity
  8
STEMPEL
100
AcDbLine
 10
143.8287285507804
 20
436.6595780236893
 30
0.0
 11
351.3287285507803
 21
436.6595780236892
 31
0.0
  0
LINE
  5
2069
330
1E
100
AcDbEntity
  8
STEMPEL
100
AcDbLine
 10
338.8287285507806
 20
529.659520056375
 30
0.0
 11
338.8287285507806
 21
465.659578023691
 31
0.0
  0
LINE
  5
206A
330
1E
100
AcDbEntity
  8
STEMPEL
100
AcDbLine
 10
337.8287285507805
 20
529.659520056375
 30
0.0
 11
337.8287285507805
 21
465.659578023691
 31
0.0
  0
ARC
  5
206B
330
1E
100
AcDbEntity
  8
STEMPEL
100
AcDbCircle
 10
119.3175849464688
 20
539.1794150061524
 30
0.0
 40
5.0
100
AcDbArc
 50
300.0670458384844
 51
300.2564371635288
  0
ARC
  5
206C
330
1E
100
AcDbEntity
  8
STEMPEL
100
AcDbCircle
 10
124.8287285507804
 20
529.659520056375
 30
0.0
 40
5.0
100
AcDbArc
 50
120.256416474816
 51
180.0
  0
ARC
  5
206D
330
1E
100
AcDbEntity
  8
STEMPEL
100
AcDbCircle
 10
124.8287285507804
 20
529.659520056375
 30
0.0
 40
6.0
100
AcDbArc
 50
120.256416474816
 51
180.0
  0
LWPOLYLINE
  5
206F
330
1E
100
AcDbEntity
  8
STEMPEL
100
AcDbPolyline
 90
        9
 70
   128
 43
0.0
 10
-127.9015015130364
 20
479.5613362683539
 10
-128.3905620563051
 20
479.2349033705964
 10
-128.850175024206
 20
478.6896343573393
 10
-129.2661248278303
 20
477.9423941142113
 10
-129.6255463571219
 20
477.0162943914337
 10
-129.9173228920094
 20
475.9399789694635
 10
-130.1324299367475
 20
474.7467377218326
 10
-130.264214342855
 20
473.4734769767568
 10
-130.3086000875199
 20
472.1595780236904
210
0.0
220
0.0
230
-1.0
  0
LWPOLYLINE
  5
2070
330
1E
100
AcDbEntity
  8
STEMPEL
100
AcDbPolyline
 90
        7
 70
   128
 43
0.0
 10
-120.5204728766968
 20
478.6216320795286
 10
-120.6583018862671
 20
477.8695258425901
 10
-120.7771661632333
 20
476.9468122318753
 10
-120.8735141651345
 20
475.881060981971
 10
-120.9444671126727
 20
474.70411564515
 10
-120.9879050046806
 20
473.4511421387481
 10
-121.0025299615782
 20
472.1595780236888
210
0.0
220
0.0
230
-1.0
  0
LWPOLYLINE
  5
2071
330
1E
100
AcDbEntity
  8
STEMPEL
100
AcDbPolyline
 90
       18
 70
   128
 43
0.0
 10
-120.0384157918157
 20
472.1595780236888
 10
-120.0550842152924
 20
473.5376994073133
 10
-120.1045218625528
 20
474.868890520093
 10
-120.1850451938133
 20
476.1078192452698
 10
-120.293912083605
 20
477.2122953510391
 10
-120.4274152005673
 20
478.1447072282919
 10
-120.5810082561714
 20
478.8733027088531
 10
-120.7494608231234
 20
479.3732703474865
 10
-120.9270364512924
 20
479.6275843459032
 10
-121.1076880156394
 20
479.6275843459032
 10
-121.2852636438084
 20
479.3732703474865
 10
-121.4537162107604
 20
478.8733027088531
 10
-121.6073092663645
 20
478.1447072282919
 10
-121.7408123833268
 20
477.2122953510391
 10
-121.8496792731185
 20
476.1078192452698
 10
-121.9302026043789
 20
474.868890520093
 10
-121.9796402516394
 20
473.5376994073133
 10
-121.9963086751161
 20
472.1595780236888
210
0.0
220
0.0
230
-1.0
  0
LWPOLYLINE
  5
2072
330
1E
100
AcDbEntity
  8
STEMPEL
100
AcDbPolyline
 90
       18
 70
   128
 43
0.0
 10
-125.4944029385495
 20
472.1595780236888
 10
-125.5432722834658
 20
473.5376994073133
 10
-125.6882161312858
 20
474.868890520093
 10
-125.924298593113
 20
476.1078192452698
 10
-126.2434801638598
 20
477.2122953510391
 10
-126.6348914979501
 20
478.1447072282919
 10
-127.0852035518481
 20
478.8733027088531
 10
-127.5790814886475
 20
479.3732703474865
 10
-128.0997068875525
 20
479.6275843459032
 10
-128.6293504750243
 20
479.6275843459032
 10
-129.1499758739292
 20
479.3732703474865
 10
-129.6438538107286
 20
478.8733027088531
 10
-130.0941658646266
 20
478.1447072282919
 10
-130.4855771987169
 20
477.2122953510391
 10
-130.8047587694637
 20
476.1078192452698
 10
-131.0408412312909
 20
474.868890520093
 10
-131.185785079111
 20
473.5376994073133
 10
-131.2346544240272
 20
472.1595780236888
210
0.0
220
0.0
230
-1.0
  0
LWPOLYLINE
  5
2073
330
1E
100
AcDbEntity
  8
STEMPEL
100
AcDbPolyline
 90
        7
 70
   128
 43
0.0
 10
128.1550284548513
 20
460.6595780236906
 10
128.7751189779157
 20
461.2689159255315
 10
129.3069391246991
 20
461.9963461988207
 10
129.7361849244303
 20
462.8223036927644
 10
130.0513112722277
 20
463.7245732432266
 10
130.2438424491935
 20
464.6788871774699
 10
130.3086000875199
 20
465.659578023691
  0
LWPOLYLINE
  5
2074
330
1E
100
AcDbEntity
  8
STEMPEL
100
AcDbPolyline
 90
       10
 70
   128
 43
0.0
 10
120.6790384119756
 20
459.6595780236906
 10
121.5152176868171
 20
459.7507315056174
 10
122.3259900775197
 20
460.0214222989752
 10
123.0867206752626
 20
460.463425600984
 10
123.7742950657813
 20
461.0633113649768
 10
124.3678216491498
 20
461.8028523655715
 10
124.849266420471
 20
462.6595780236908
 10
125.2040009239913
 20
463.6074571637369
 10
125.4212467313255
 20
464.6176889576894
 10
125.4944029385495
 20
465.659578023691
  0
LINE
  5
2075
330
1E
100
AcDbEntity
  8
STEMPEL
100
AcDbLine
 10
117.417956608145
 20
460.6595780236906
 30
0.0
 11
118.3820707779077
 21
460.6595780236906
 31
0.0
  0
LWPOLYLINE
  5
2076
330
1E
100
AcDbEntity
  8
STEMPEL
100
AcDbPolyline
 90
        7
 70
   128
 43
0.0
 10
118.3820707779075
 20
460.6595780236911
 10
119.0587726529849
 20
461.2691787515501
 10
119.6583220766188
 20
461.9967378354617
 10
120.1646107497685
 20
462.822707697142
 10
120.564036041814
 20
463.7248967223451
 10
120.845866457077
 20
464.6790654905387
 10
121.0025299615784
 20
465.659578023691
  0
ARC
  5
2077
330
1E
100
AcDbEntity
  8
STEMPEL
100
AcDbCircle
 10
113.8287285507804
 20
465.659578023691
 30
0.0
 40
6.0
100
AcDbArc
 50
270.0000000000033
 51
0.0
  0
ARC
  5
2078
330
1E
100
AcDbEntity
  8
STEMPEL
100
AcDbCircle
 10
113.8287285507804
 20
465.659578023691
 30
0.0
 40
5.0
100
AcDbArc
 50
270.0
 51
0.0
  0
LWPOLYLINE
  5
2079
330
1E
100
AcDbEntity
  8
STEMPEL
100
AcDbPolyline
 90
       10
 70
   128
 43
0.0
 10
114.5324270607849
 20
459.6595780236917
 10
115.3905000570576
 20
459.7257052382643
 10
116.2433122566798
 20
459.9782589879946
 10
117.0640705635969
 20
460.4093047043122
 10
117.8269889299958
 20
461.0053000747521
 10
118.508098485495
 20
461.7475205064727
 10
119.0860005754408
 20
462.6126474032702
 10
119.542539049847
 20
463.5735007739862
 10
119.8633706814445
 20
464.5998931556984
 10
120.0384157918157
 20
465.659578023691
  0
LWPOLYLINE
  5
207A
330
1E
100
AcDbEntity
  8
STEMPEL
100
AcDbPolyline
 90
       10
 70
   128
 43
0.0
 10
116.4903199440853
 20
459.6595780236906
 10
117.3483929403581
 20
459.7257052382633
 10
118.2012051399803
 20
459.9782589879935
 10
119.0219634468973
 20
460.409304704311
 10
119.7848818132963
 20
461.005300074751
 10
120.4659913687955
 20
461.7475205064716
 10
121.0438934587412
 20
462.612647403269
 10
121.5004319331475
 20
463.5735007739851
 10
121.821263564745
 20
464.5998931556973
 10
121.9963086751161
 20
465.6595780236899
  0
LINE
  5
207D
330
1E
100
AcDbEntity
  8
STEMPEL
100
AcDbLine
 10
123.3408313058809
 20
460.6595780236906
 30
0.0
 11
128.1550284548523
 21
460.6595780236906
 31
0.0
  0
LINE
  5
207E
330
1E
100
AcDbEntity
  8
STEMPEL
100
AcDbLine
 10
121.0181750949127
 20
459.6595780236911
 30
0.0
 11
132.8287285507802
 21
459.6595780236902
 31
0.0
  0
LWPOLYLINE
  5
207F
330
1E
100
AcDbEntity
  8
STEMPEL
100
AcDbPolyline
 90
       10
 70
   128
 43
0.0
 10
126.4192898974533
 20
459.6595780236906
 10
127.2554691722949
 20
459.7507315056174
 10
128.0662415629975
 20
460.0214222989752
 10
128.8269721607403
 20
460.463425600984
 10
129.5145465512591
 20
461.0633113649768
 10
130.1080731346275
 20
461.8028523655715
 10
130.5895179059487
 20
462.6595780236908
 10
130.9442524094691
 20
463.6074571637369
 10
131.1614982168033
 20
464.6176889576894
 10
131.2346544240272
 20
465.659578023691
  0
LINE
  5
2080
102
{ACAD_REACTORS
330
25A9
102
}
330
1E
100
AcDbEntity
  8
STEMPEL
100
AcDbLine
 10
132.3287285507801
 20
436.6595780236893
 30
0.0
 11
132.3287285507801
 21
433.6595780236892
 31
0.0
  0
LINE
  5
2082
102
{ACAD_REACTORS
330
25A9
102
}
330
1E
100
AcDbEntity
  8
STEMPEL
100
AcDbLine
 10
106.3287285507801
 20
436.6595780236893
 30
0.0
 11
106.3287285507801
 21
433.6595780236892
 31
0.0
  0
LINE
  5
2085
102
{ACAD_REACTORS
330
25A9
102
}
330
1E
100
AcDbEntity
  8
STEMPEL
100
AcDbLine
 10
106.3287285507801
 20
436.6595780236893
 30
0.0
 11
133.8287285507803
 21
436.6595780236893
 31
0.0
  0
LINE
  5
2087
330
1E
100
AcDbEntity
  8
MITTEL
100
AcDbLine
 10
132.03962103525
 20
472.2595780236933
 30
0.0
 11
132.03962103525
 21
443.6595780236898
 31
0.0
  0
LINE
  5
2089
330
1E
100
AcDbEntity
  8
STEMPEL
100
AcDbLine
 10
98.82872855078023
 20
460.6595780236908
 30
0.0
 11
98.82872855078012
 21
459.6595780236906
 31
0.0
  0
LINE
  5
208A
330
1E
100
AcDbEntity
  8
STEMPEL
100
AcDbLine
 10
98.82872855078034
 20
460.6595780236906
 30
0.0
 11
113.8287285507805
 21
460.659578023691
 31
0.0
  0
LINE
  5
208B
330
1E
100
AcDbEntity
  8
STEMPEL
100
AcDbLine
 10
121.9963086751161
 20
472.1595780236888
 30
0.0
 11
121.9963086751161
 21
465.6595780236899
 31
0.0
  0
LINE
  5
208C
330
1E
100
AcDbEntity
  8
STEMPEL
100
AcDbLine
 10
121.0025299615783
 20
472.1595780236888
 30
0.0
 11
121.0025299615783
 21
465.659578023691
 31
0.0
  0
LINE
  5
208D
330
1E
100
AcDbEntity
  8
STEMPEL
100
AcDbLine
 10
120.0384157918157
 20
472.1595780236888
 30
0.0
 11
120.0384157918157
 21
465.659578023691
 31
0.0
  0
LINE
  5
208E
330
1E
100
AcDbEntity
  8
STEMPEL
100
AcDbLine
 10
125.4944029385495
 20
472.1595780236888
 30
0.0
 11
125.4944029385495
 21
465.6595780236922
 31
0.0
  0
LINE
  5
208F
330
1E
100
AcDbEntity
  8
STEMPEL
100
AcDbLine
 10
137.992453607709
 20
472.1595780236888
 30
0.0
 11
137.992453607709
 21
465.6595780236922
 31
0.0
  0
LINE
  5
2090
330
1E
100
AcDbEntity
  8
STEMPEL
100
AcDbLine
 10
130.30860008752
 20
472.1595780236888
 30
0.0
 11
130.30860008752
 21
465.6595780236922
 31
0.0
  0
LINE
  5
2091
330
1E
100
AcDbEntity
  8
STEMPEL
100
AcDbLine
 10
131.2346544240272
 20
472.1595780236888
 30
0.0
 11
131.2346544240272
 21
465.6595780236922
 31
0.0
  0
LINE
  5
2092
330
1E
100
AcDbEntity
  8
STEMPEL
100
AcDbLine
 10
119.8287285507804
 20
529.659520056375
 30
0.0
 11
119.8287285507804
 21
465.659578023691
 31
0.0
  0
LINE
  5
2093
330
1E
100
AcDbEntity
  8
STEMPEL
100
AcDbLine
 10
118.8287285507803
 20
529.659520056375
 30
0.0
 11
118.8287285507803
 21
465.659578023691
 31
0.0
  0
DIMENSION
  5
2094
330
1E
100
AcDbEntity
  8
BEM
100
AcDbDimension
  2
*D2
 10
71.51796272000166
 20
439.659578023688
 30
0.0
 11
65.01796272000159
 21
494.6595780236889
 31
0.0
 70
    32
 71
     5
 42
110.0000000000019
  3
Standard
100
AcDbAlignedDimension
 13
148.8287285507803
 23
549.65957802369
 33
0.0
 14
111.8287285507808
 24
439.659578023688
 34
0.0
 50
90.0
100
AcDbRotatedDimension
1001
ACAD
1000
DSTYLE
1002
{
1070
    40
1040
2.0
1070
    41
1040
3.5
1070
    42
1040
1.0
1070
    43
1040
7.0
1070
    44
1040
1.0
1070
    73
1070
     0
1070
    74
1070
     0
1070
    77
1070
     1
1070
    78
1070
     8
1070
    79
1070
     2
1070
   140
1040
3.5
1070
   141
1040
1.5
1070
   146
1040
0.5142857142857144
1070
   147
1040
1.5
1070
   172
1070
     1
1070
   178
1070
     1
1070
   179
1070
     2
1070
   271
1070
     2
1070
   272
1070
     2
1070
   284
1070
     8
1070
   285
1070
     8
1070
   286
1070
     8
1002
}
  0
LINE
  5
2095
330
1E
100
AcDbEntity
  8
STEMPEL
100
AcDbLine
 10
122.3093749826533
 20
533.9784154705713
 30
0.0
 11
146.2882288756045
 21
547.9660686367568
 31
0.0
  0
LINE
  5
2096
330
1E
100
AcDbEntity
  8
STEMPEL
100
AcDbLine
 10
121.7960339290725
 20
534.8366585837339
 30
0.0
 11
145.7823368045394
 21
548.8286685944225
 31
0.0
  0
LWPOLYLINE
  5
2097
330
1E
100
AcDbEntity
  8
STEMPEL
100
AcDbPolyline
 90
       18
 70
   128
 43
0.0
 10
-137.9924536077091
 20
472.1595780236888
 10
-138.0701935089692
 20
473.5376994073133
 10
-138.300765873651
 20
474.868890520093
 10
-138.6763188364162
 20
476.1078192452698
 10
-139.1840633915439
 20
477.2122953510391
 10
-139.8067089071818
 20
478.1447072282919
 10
-140.5230519370759
 20
478.8733027088531
 10
-141.3086982785018
 20
479.3732703474865
 10
-142.1368936875812
 20
479.6275843459032
 10
-142.9794349629689
 20
479.6275843459032
 10
-143.8076303720483
 20
479.3732703474865
 10
-144.5932767134742
 20
478.8733027088531
 10
-145.3096197433682
 20
478.1447072282919
 10
-145.9322652590062
 20
477.2122953510391
 10
-146.4400098141339
 20
476.1078192452698
 10
-146.815562776899
 20
474.868890520093
 10
-147.0461351415809
 20
473.5376994073133
 10
-147.123875042841
 20
472.1595780236888
210
0.0
220
0.0
230
-1.0
  0
LINE
  5
2099
102
{ACAD_REACTORS
330
25A9
102
}
330
1E
100
AcDbEntity
  8
STEMPEL
100
AcDbLine
 10
106.3287285507801
 20
433.6595780236892
 30
0.0
 11
351.3287285507803
 21
433.6595780236891
 31
0.0
  0
LWPOLYLINE
  5
209A
330
1E
100
AcDbEntity
  8
STEMPEL
100
AcDbPolyline
 90
       10
 70
   128
 43
0.0
 10
-141.7629434384541
 20
479.659578023692
 10
-142.5557707843138
 20
479.5456361712835
 10
-143.3245084724595
 20
479.2072726795861
 10
-144.045798797237
 20
478.654768552075
 10
-144.6977257171185
 20
477.9049113470839
 10
-145.2604807625342
 20
476.9804850963405
 10
-145.7169649061971
 20
475.9095780236911
 10
-146.0533081083938
 20
474.7247290986335
 10
-146.2592907511239
 20
473.4619393561926
 10
-146.32865415602
 20
472.1595780236904
210
0.0
220
0.0
230
-1.0
  0
DIMENSION
  5
209B
330
1E
100
AcDbEntity
  8
BEM
100
AcDbDimension
  2
*D3
 10
338.8287285507806
 20
558.4719310204238
 30
0.0
 11
228.8287285507804
 21
564.9719310204239
 31
0.0
 70
    32
  1
%%c<>
 71
     5
 42
220.0000000000002
  3
Standard
100
AcDbAlignedDimension
 13
118.8287285507803
 23
529.659520056375
 33
0.0
 14
338.8287285507806
 24
529.659520056375
 34
0.0
100
AcDbRotatedDimension
1001
ACAD
1000
DSTYLE
1002
{
1070
    40
1040
2.0
1070
    41
1040
3.5
1070
    42
1040
1.0
1070
    43
1040
7.0
1070
    44
1040
1.0
1070
    73
1070
     0
1070
    74
1070
     0
1070
    77
1070
     1
1070
    78
1070
     8
1070
    79
1070
     2
1070
   140
1040
3.5
1070
   141
1040
1.5
1070
   146
1040
0.5142857142857144
1070
   147
1040
1.5
1070
   172
1070
     1
1070
   178
1070
     1
1070
   179
1070
     2
1070
   271
1070
     2
1070
   272
1070
     2
1070
   284
1070
     8
1070
   285
1070
     8
1070
   286
1070
     8
1002
}
  0
LINE
  5
20A1
330
1E
100
AcDbEntity
  8
MITTEL
100
AcDbLine
 10
228.8287285507802
 20
556.1595780236903
 30
0.0
 11
228.8287285507803
 21
128.6595780236893
 31
0.0
  0
DIMENSION
  5
20A7
330
1E
100
AcDbEntity
  8
BEM
100
AcDbDimension
  2
*D4
 10
265.3287285507806
 20
116.8042486389615
 30
0.0
 11
228.8287285507806
 21
123.3042486389615
 31
0.0
 70
    32
  1
%%c<>
 71
     5
 42
73.0
  3
Standard
100
AcDbAlignedDimension
 13
192.3287285507806
 23
138.5940866093268
 33
0.0
 14
265.3287285507806
 24
138.5940866093267
 34
0.0
100
AcDbRotatedDimension
1001
ACAD
1000
DSTYLE
1002
{
1070
    40
1040
2.0
1070
    41
1040
3.5
1070
    42
1040
1.0
1070
    43
1040
7.0
1070
    44
1040
1.0
1070
    47
1040
2.0
1070
    48
1040
2.0
1070
    73
1070
     0
1070
    74
1070
     0
1070
    77
1070
     1
1070
    78
1070
     8
1070
    79
1070
     2
1070
   140
1040
3.5
1070
   141
1040
1.5
1070
   146
1040
0.5142857142857144
1070
   147
1040
1.5
1070
   172
1070
     1
1070
   178
1070
     1
1070
   179
1070
     2
1070
   279
1070
     0
1002
}
  0
TEXT
  5
20A9
330
1E
100
AcDbEntity
  8
TEXT
 62
     1
100
AcDbText
 10
345.1748422125894
 20
88.14901428913959
 30
0.0
 40
7.0
  1
22701070W
 41
0.8
  7
GREEKS
 72
     1
 11
368.6415088792561
 21
88.14901428913959
 31
0.0
100
AcDbText
  0
TEXT
  5
20AA
330
1E
100
AcDbEntity
  8
TEXT
100
AcDbText
 10
336.7238616296993
 20
73.1811823709997
 30
0.0
 40
5.0
  1
Ersatz für:
 41
0.8
  7
GREEKS
100
AcDbText
  0
TEXT
  5
20AB
330
1E
100
AcDbEntity
  8
TEXT
100
AcDbText
 10
336.178754957634
 20
102.3132034537136
 30
0.0
 40
5.0
  1
Zeichnungs Nr.
 41
0.8
  7
GREEKS
100
AcDbText
  0
TEXT
  5
20AC
330
1E
100
AcDbEntity
  8
TEXT
100
AcDbText
 10
337.2400861497006
 20
52.07416177878599
 30
0.0
 40
5.0
  1
ersetzt durch:
 41
0.8
  7
GREEKS
100
AcDbText
  0
LINE
  5
20AD
330
1E
100
AcDbEntity
  8
STEMPEL
100
AcDbLine
 10
332.0
 20
109.9999999999997
 30
0.0
 11
332.0
 21
40.0
 31
0.0
  0
TEXT
  5
20AE
330
1E
100
AcDbEntity
  8
TEXT
100
AcDbText
 10
234.877940380901
 20
102.5489328011779
 30
0.0
 40
5.0
  1
Benennung
 41
0.8
  7
GREEKS
100
AcDbText
  0
TEXT
  5
20AF
330
1E
100
AcDbEntity
  8
TEXT
100
AcDbText
 10
234.984013084261
 20
72.24063750011021
 30
0.0
 40
5.0
  1
Notablauf DN70, einteilig
 41
0.7
  7
GREEKS
100
AcDbText
  0
TEXT
  5
20B0
330
1E
100
AcDbEntity
  8
TEXT
100
AcDbText
 10
234.9837501577827
 20
42.62974153022628
 30
0.0
 40
4.0
  1
22701070W.DWG
 41
0.8
  7
GREEKS
100
AcDbText
  0
TEXT
  5
20B1
330
1E
100
AcDbEntity
  8
TEXT
100
AcDbText
 10
153.5163572150377
 20
102.4620895087088
 30
0.0
 40
5.0
  1
Maßstab
 41
0.8
  7
GREEKS
100
AcDbText
  0
TEXT
  5
20B2
330
1E
100
AcDbEntity
  8
TEXT
100
AcDbText
 10
148.622109822104
 20
73.14025471151666
 30
0.0
 40
4.0
  1
2011
 41
0.8
  7
GREEKS
100
AcDbText
  0
TEXT
  5
20B3
330
1E
100
AcDbEntity
  8
TEXT
 62
     1
100
AcDbText
 10
160.5006306481887
 20
88.14901428913959
 30
0.0
 40
7.0
  1
1:2
 41
0.8
  7
GREEKS
100
AcDbText
  0
TEXT
  5
20B4
330
1E
100
AcDbEntity
  8
TEXT
100
AcDbText
 10
172.331167315365
 20
73.31880501229926
 30
0.0
 40
4.0
  1
Tag
 41
0.8
  7
GREEKS
100
AcDbText
  0
TEXT
  5
20B5
330
1E
100
AcDbEntity
  8
TEXT
100
AcDbText
 10
147.6006777387303
 20
43.5294638964981
 30
0.0
 40
4.0
  1
Norm.
 41
0.8
  7
GREEKS
100
AcDbText
  0
TEXT
  5
20B6
330
1E
100
AcDbEntity
  8
TEXT
100
AcDbText
 10
147.5515086571672
 20
53.68926291428374
 30
0.0
 40
4.0
  1
Gepr.
 41
0.8
  7
GREEKS
100
AcDbText
  0
TEXT
  5
20B7
330
1E
100
AcDbEntity
  8
TEXT
100
AcDbText
 10
170.7037590129979
 20
63.10765040825732
 30
0.0
 40
4.0
  1
17.02.
 41
0.8
  7
GREEKS
 72
     1
 11
177.4085209177598
 21
63.10765040825732
 31
0.0
100
AcDbText
  0
LINE
  5
20B8
330
1E
100
AcDbEntity
  8
VOLL
100
AcDbLine
 10
190.0000000000001
 20
109.9999999999998
 30
0.0
 11
190.0
 21
40.0
 31
0.0
  0
LINE
  5
20B9
330
1E
100
AcDbEntity
  8
VOLL
100
AcDbLine
 10
164.0000000000001
 20
79.99999999999994
 30
0.0
 11
164.0000000000001
 21
40.0
 31
0.0
  0
TEXT
  5
20BA
330
1E
100
AcDbEntity
  8
TEXT
100
AcDbText
 10
147.5836127167615
 20
63.62990369617967
 30
0.0
 40
4.0
  1
Gez.
 41
0.8
  7
GREEKS
100
AcDbText
  0
TEXT
  5
20BB
330
1E
100
AcDbEntity
  8
TEXT
100
AcDbText
 10
204.4216048581257
 20
63.0896391972351
 30
0.0
 40
4.0
  1
Koeh
 41
0.8
  7
GREEKS
 72
     1
 11
209.6787477152686
 21
63.0896391972351
 31
0.0
100
AcDbText
  0
TEXT
  5
20BC
330
1E
100
AcDbEntity
  8
TEXT
100
AcDbText
 10
193.4832750652269
 20
90.76363841023022
 30
0.0
 40
4.0
  1
DIN EN 1124-3
 41
0.7
  7
GREEKS
 72
     1
 11
209.6166083985602
 21
90.76363841023022
 31
0.0
100
AcDbText
  0
TEXT
  5
20BD
330
1E
100
AcDbEntity
  8
TEXT
100
AcDbText
 10
194.2858954734051
 20
102.4184168434819
 30
0.0
 40
5.0
  1
Zul. Abw.
 41
0.8
  7
GREEKS
100
AcDbText
  0
TEXT
  5
20BE
330
1E
100
AcDbEntity
  8
TEXT
100
AcDbText
 10
202.4626584226295
 20
73.30961091915225
 30
0.0
 40
4.0
  1
Name
 41
0.8
  7
GREEKS
100
AcDbText
  0
LINE
  5
20BF
330
1E
100
AcDbEntity
  8
STEMPEL
100
AcDbLine
 10
230.0
 20
110.0
 30
0.0
 11
230.0
 21
10.0
 31
0.0
  0
INSERT
  5
20C0
330
1E
100
AcDbEntity
  8
STEMPEL
100
AcDbBlockReference
  2
LOGO
 10
150.9955485457794
 20
45.02105276448321
 30
0.0
 41
2.0
 42
2.0
 43
2.0
  0
TEXT
  5
20C1
330
1E
100
AcDbEntity
  8
TEXT
100
AcDbText
 10
234.742238391136
 20
30.8456057019306
 30
0.0
 40
5.0
  1
Bauvorhaben
 41
0.8
  7
GREEKS
100
AcDbText
  0
TEXT
  5
20C2
330
1E
100
AcDbEntity
  8
TEXT
 62
     1
100
AcDbText
 10
234.9312991262535
 20
87.67874643537368
 30
0.0
 40
7.0
  1
Drainlet Kompletteinheit 
 41
0.7
  7
GREEKS
100
AcDbText
  0
TEXT
  5
20C3
330
1E
100
AcDbEntity
  8
TEXT
100
AcDbText
 10
235.1296391125315
 20
51.64011943042158
 30
0.0
 40
5.0
  1
EDV-Art.Nr. 22701.070X
 41
0.8
  7
GREEKS
100
AcDbText
  0
LINE
  5
20C4
330
1E
100
AcDbEntity
  8
HILF
100
AcDbLine
 10
234.7736801096947
 20
50.0
 30
0.0
 11
324.835391655631
 21
50.0
 31
0.0
  0
LINE
  5
20C5
330
1E
100
AcDbEntity
  8
HILF
100
AcDbLine
 10
234.7736801096947
 20
60.0
 30
0.0
 11
324.835391655631
 21
60.0
 31
0.0
  0
LINE
  5
20C6
330
1E
100
AcDbEntity
  8
HILF
100
AcDbLine
 10
234.7736801096947
 20
70.0
 30
0.0
 11
324.835391655631
 21
70.0
 31
0.0
  0
LINE
  5
20C7
330
1E
100
AcDbEntity
  8
HILF
100
AcDbLine
 10
234.7736801096947
 20
84.03758247564139
 30
0.0
 11
324.8353916556311
 21
84.03758247564139
 31
0.0
  0
LINE
  5
20C8
330
1E
100
AcDbEntity
  8
STEMPEL
100
AcDbLine
 10
146.0000000000001
 20
109.9999999999999
 30
0.0
 11
146.0
 21
10.0
 31
0.0
  0
LINE
  5
20C9
330
1E
100
AcDbEntity
  8
HILF
100
AcDbLine
 10
146.0000000000001
 20
50.0
 30
0.0
 11
230.0
 21
50.0
 31
0.0
  0
LINE
  5
20CA
330
1E
100
AcDbEntity
  8
HILF
100
AcDbLine
 10
146.0000000000001
 20
60.0
 30
0.0
 11
230.0
 21
60.0
 31
0.0
  0
LINE
  5
20CB
330
1E
100
AcDbEntity
  8
HILF
100
AcDbLine
 10
146.0000000000001
 20
70.0
 30
0.0
 11
230.0
 21
70.0
 31
0.0
  0
LINE
  5
20CC
330
1E
100
AcDbEntity
  8
HILF
100
AcDbLine
 10
336.7238616296993
 20
83.77983636955827
 30
0.0
 11
404.8588839326728
 21
83.77983636955827
 31
0.0
  0
LINE
  5
20CD
330
1E
100
AcDbEntity
  8
VOLL
100
AcDbLine
 10
332.0
 20
60.0
 30
0.0
 11
410.0
 21
60.0
 31
0.0
  0
LINE
  5
20CE
330
1E
100
AcDbEntity
  8
HILF
100
AcDbLine
 10
233.4909699289885
 20
14.89398258028314
 30
0.0
 11
404.8588839326728
 21
14.89398258028314
 31
0.0
  0
LINE
  5
20CF
330
1E
100
AcDbEntity
  8
STEMPEL
100
AcDbLine
 10
410.0
 20
80.0
 30
0.0
 11
146.0000000000001
 21
79.99999999999994
 31
0.0
  0
LINE
  5
20D0
330
1E
100
AcDbEntity
  8
STEMPEL
100
AcDbLine
 10
410.0
 20
40.0
 30
0.0
 11
146.0000000000001
 21
40.0
 31
0.0
  0
TEXT
  5
235D
330
1E
100
AcDbEntity
  8
TEXT
 62
     1
100
AcDbText
 10
368.6415088792561
 20
63.53869497703453
 30
0.0
 40
7.0
  1

 41
0.8
  7
GREEKS
 72
     1
 11
368.6415088792561
 21
63.53869497703453
 31
0.0
100
AcDbText
  0
TEXT
  5
2388
330
1E
100
AcDbEntity
  8
TEXT
 62
     1
100
AcDbText
 10
351.5052363819445
 20
299.4064922266801
 30
0.0
 40
7.0
  1
EDV-Art.Nr. 21907.070X
 50
90.0
 41
0.8
100
AcDbText
  0
LINE
  5
2389
330
1E
100
AcDbEntity
  8
TEXT
 62
     2
100
AcDbLine
 10
342.2127395741454
 20
404.7497009230587
 30
0.0
 11
342.2127395741454
 21
298.8111363479257
 31
0.0
  0
TEXT
  5
238A
330
1E
100
AcDbEntity
  8
TEXT
 62
     1
100
AcDbText
 10
338.728905413235
 20
300.6250215800086
 30
0.0
 40
7.0
  1
Losflansch DN70
 50
90.0
 41
0.8
100
AcDbText
  0
LINE
  5
238B
102
{ACAD_REACTORS
330
25A9
102
}
330
1E
100
AcDbEntity
  8
TEXT
 62
     2
100
AcDbLine
 10
342.2127395741454
 20
404.7497009230587
 30
0.0
 11
316.1065734154659
 21
444.0552975872834
 31
0.0
  0
LINE
  5
238C
330
1E
100
AcDbEntity
  8
TEXT
 62
     2
100
AcDbLine
 10
399.0686906579364
 20
206.2177771421588
 30
0.0
 11
293.1301260828032
 21
206.2177771421588
 31
0.0
  0
TEXT
  5
238D
330
1E
100
AcDbEntity
  8
TEXT
 62
     1
100
AcDbText
 10
293.7254819615576
 20
209.7016113030693
 30
0.0
 40
7.0
  1
Ablaufkörper DN70
 41
0.8
100
AcDbText
  0
TEXT
  5
238E
330
1E
100
AcDbEntity
  8
TEXT
 62
     1
100
AcDbText
 10
293.7254819615576
 20
196.9252803343597
 30
0.0
 40
7.0
  1
EDV-Art.Nr. 21976.070X
 41
0.8
100
AcDbText
  0
LINE
  5
238F
330
1E
100
AcDbEntity
  8
TEXT
 62
     2
100
AcDbLine
 10
293.1301260828032
 20
206.2177771421588
 30
0.0
 11
264.564156602282
 21
192.8880718303765
 31
0.0
  0
TEXT
  5
2390
330
1E
100
AcDbEntity
  8
TEXT
 62
     1
100
AcDbText
 10
312.9743808584159
 20
270.9749446873934
 30
0.0
 40
7.0
  1
EDV-Art.Nr. 21920.070X
 50
90.0
 41
0.8
100
AcDbText
  0
LINE
  5
2391
330
1E
100
AcDbEntity
  8
TEXT
 62
     2
100
AcDbLine
 10
303.6818840506168
 20
374.232656008717
 30
0.0
 11
303.6818840506168
 21
268.2940914335838
 31
0.0
  0
TEXT
  5
2392
330
1E
100
AcDbEntity
  8
TEXT
 62
     1
100
AcDbText
 10
300.1980498897063
 20
270.9749446873934
 30
0.0
 40
7.0
  1
Kompressionsdichtung
 50
90.0
 41
0.8
100
AcDbText
  0
LINE
  5
2393
330
1E
100
AcDbEntity
  8
TEXT
 62
     2
100
AcDbLine
 10
303.6818840506168
 20
374.232656008717
 30
0.0
 11
293.2153769685316
 21
436.310014584216
 31
0.0
  0
DIMENSION
  5
2399
330
1E
100
AcDbEntity
  8
BEM
100
AcDbDimension
  2
*D5
 10
358.8287285507801
 20
571.9671323347313
 30
0.0
 11
228.8287285507802
 21
578.4671323347313
 31
0.0
 70
    32
  1
%%c<>
 71
     5
 42
259.9999999999999
  3
Standard
100
AcDbAlignedDimension
 13
98.82872855078023
 23
460.6595780236906
 33
0.0
 14
358.8287285507801
 24
460.6595780236908
 34
0.0
100
AcDbRotatedDimension
1001
ACAD
1000
DSTYLE
1002
{
1070
    40
1040
2.0
1070
    41
1040
3.5
1070
    42
1040
1.0
1070
    43
1040
7.0
1070
    44
1040
1.0
1070
    73
1070
     0
1070
    74
1070
     0
1070
    77
1070
     1
1070
    78
1070
     8
1070
    79
1070
     2
1070
   140
1040
3.5
1070
   141
1040
1.5
1070
   146
1040
0.5142857142857144
1070
   147
1040
1.5
1070
   172
1070
     1
1070
   178
1070
     1
1070
   179
1070
     2
1070
   271
1070
     2
1070
   272
1070
     2
1070
   284
1070
     8
1070
   285
1070
     8
1070
   286
1070
     8
1002
}
  0
LINE
  5
239A
330
1E
100
AcDbEntity
  8
TEXT
 62
     2
100
AcDbLine
 10
387.9673258460272
 20
447.5100483035229
 30
0.0
 11
387.967325846027
 21
553.4550091694772
 31
0.0
  0
TEXT
  5
239B
330
1E
100
AcDbEntity
  8
TEXT
 62
     1
100
AcDbText
 10
384.5874204291306
 20
449.6237772945007
 30
0.0
 40
7.0
  1
Drainlethaube
 50
90.0
 41
0.8
  7
GREEKS
100
AcDbText
  0
TEXT
  5
239D
330
1E
100
AcDbEntity
  8
TEXT
 62
     1
100
AcDbText
 10
396.6463029942995
 20
449.6237772945007
 30
0.0
 40
7.0
  1
EDV-Art.Nr. 21011.000X
 50
90.0
 41
0.8
  7
GREEKS
100
AcDbText
  0
LINE
  5
239F
330
1E
100
AcDbEntity
  8
TEXT
 62
     2
100
AcDbLine
 10
387.967325846027
 20
553.4550091694772
 30
0.0
 11
331.1131816090103
 21
537.1255289098789
 31
0.0
  0
HATCH
  5
2406
330
1E
100
AcDbEntity
  8
SCHRAFF
100
AcDbHatch
 10
0.0
 20
0.0
 30
0.0
210
0.0
220
0.0
230
1.0
  2
HONEY
 70
     0
 71
     0
 91
        2
 92
        7
 72
     1
 73
     1
 93
        7
 10
232.8287285507805
 20
548.6595780236905
 42
0.0
 10
232.8287285507803
 20
526.6595780236905
 42
0.0
 10
337.8287285507804
 20
526.6595780236906
 42
0.0
 10
337.8287285507804
 20
529.659520056375
 42
0.2667503951500763
 10
335.3480821189073
 20
533.9784154705714
 42
0.0
 10
311.3268754428772
 20
547.9907744063893
 42
0.1315436689467474
 10
308.8287285507805
 20
548.6595780236905
 42
0.0
 97
        0
 92
        7
 72
     1
 73
     1
 93
        7
 10
148.8287285507803
 20
548.6595780236902
 42
0.1315436689462666
 10
146.330581658694
 20
547.9907744063955
 42
0.0
 10
122.3093749826533
 20
533.9784154705713
 42
0.266750395150088
 10
119.8287285507804
 20
529.6595200563752
 42
0.0
 10
119.8287285507804
 20
526.65957802369
 42
0.0
 10
224.8287285507804
 20
526.6595780236905
 42
0.0
 10
224.8287285507804
 20
548.6595780236903
 42
0.0
 97
        0
 75
     0
 76
     1
 52
0.0
 41
30.0
 77
     0
 78
     3
 53
0.0
 43
-9.614743003894744
 44
73.03447732099352
 45
5.625
 46
3.247595249999999
 79
     2
 49
3.75
 49
-7.5
 53
120.0
 43
-9.614743003894744
 44
73.03447732099352
 45
-5.624999987709673
 46
3.247595271287468
 79
     2
 49
3.749999999999997
 49
-7.499999999999994
 53
60.0
 43
-9.614743003894744
 44
73.03447732099352
 45
0.0000000122903263
 46
6.495190521287468
 79
     2
 49
-7.5
 49
3.75
 47
0.3214602750441732
 98
        2
 10
260.3460878605654
 20
540.0074671025045
 10
199.5571410701389
 20
540.0074671025045
  0
HATCH
  5
2407
330
1E
100
AcDbEntity
  8
SCHRAFF
100
AcDbHatch
 10
0.0
 20
0.0
 30
0.0
210
0.0
220
0.0
230
1.0
  2
_USER
 70
     0
 71
     1
 91
        2
 92
        7
 72
     0
 73
     1
 93
        4
 10
335.5787285507803
 20
526.6595780236907
 10
233.5787285507804
 20
526.6595780236905
 10
233.5787285507803
 20
524.6595780236904
 10
335.5787285507803
 20
524.6595780236908
 97
        4
330
241F
330
2420
330
2434
330
2431
 92
        7
 72
     0
 73
     1
 93
        4
 10
224.0787285507803
 20
526.6595780236905
 10
122.0787285507803
 20
526.65957802369
 10
122.0787285507803
 20
524.6595780236901
 10
224.0787285507804
 20
524.6595780236904
 97
        4
330
2433
330
2432
330
2434
330
2421
 75
     0
 76
     0
 52
135.0
 41
2.0
 77
     0
 78
     1
 53
135.0
 43
-9.614743003894744
 44
50.88689415518269
 45
-1.414213562373095
 46
-1.414213562373094
 79
     0
 47
0.2882846600731254
 98
        2
 10
276.8335814836844
 20
527.0878532862086
 10
212.7996744152049
 20
527.0878532862086
  0
ARC
  5
2408
330
1E
100
AcDbEntity
  8
STEMPEL
100
AcDbCircle
 10
222.3287285507803
 20
516.2437746199757
 30
0.0
 40
0.5
100
AcDbArc
 50
0.0
 51
71.12924595933046
  0
ARC
  5
2409
330
1E
100
AcDbEntity
  8
STEMPEL
100
AcDbCircle
 10
235.3287285507803
 20
516.2437746199757
 30
0.0
 40
0.5
100
AcDbArc
 50
108.8707540406695
 51
180.0
  0
LINE
  5
240A
330
1E
100
AcDbEntity
  8
STEMPEL
100
AcDbLine
 10
222.8287285507803
 20
516.2437746199757
 30
0.0
 11
222.8287285507803
 21
514.0595780236902
 31
0.0
  0
LINE
  5
240B
330
1E
100
AcDbEntity
  8
STEMPEL
100
AcDbLine
 10
234.8287285507803
 20
516.2437746199757
 30
0.0
 11
234.8287285507803
 21
514.0595780236902
 31
0.0
  0
LINE
  5
240C
330
1E
100
AcDbEntity
  8
STEMPEL
100
AcDbLine
 10
222.8287285507803
 20
514.0595780236902
 30
0.0
 11
234.8287285507803
 21
514.0595780236902
 31
0.0
  0
LINE
  5
240D
330
1E
100
AcDbEntity
  8
STEMPEL
100
AcDbLine
 10
236.0175365055964
 20
522.4736528346237
 30
0.0
 11
235.6183376089997
 21
522.704130425034
 31
0.0
  0
LINE
  5
240E
330
1E
100
AcDbEntity
  8
STEMPEL
100
AcDbLine
 10
234.2151792755392
 20
523.0595780236903
 30
0.0
 11
234.219808745586
 21
523.0595780236903
 31
0.0
  0
LINE
  5
240F
330
1E
100
AcDbEntity
  8
STEMPEL
100
AcDbLine
 10
236.0175365055964
 20
517.1455032127568
 30
0.0
 11
235.6183376089997
 21
516.9150256223465
 31
0.0
  0
LINE
  5
2410
330
1E
100
AcDbEntity
  8
STEMPEL
100
AcDbLine
 10
234.2151792755392
 20
516.5595780236901
 30
0.0
 11
234.219808745586
 21
516.5595780236901
 31
0.0
  0
LINE
  5
2411
330
1E
100
AcDbEntity
  8
STEMPEL
100
AcDbLine
 10
236.0175365055964
 20
522.4736528346238
 30
0.0
 11
236.0175365055964
 21
517.1455032127568
 31
0.0
  0
LINE
  5
2412
330
1E
100
AcDbEntity
  8
STEMPEL
100
AcDbLine
 10
232.4231325281884
 20
522.4428450584203
 30
0.0
 11
232.4231325281884
 21
517.1763109889602
 31
0.0
  0
LINE
  5
2413
330
1E
100
AcDbEntity
  8
STEMPEL
100
AcDbLine
 10
225.2343245733724
 20
522.4428450584203
 30
0.0
 11
225.2343245733724
 21
517.1763109889602
 31
0.0
  0
ARC
  5
2414
330
1E
100
AcDbEntity
  8
STEMPEL
100
AcDbCircle
 10
228.8287285507804
 20
527.3422832236901
 30
0.0
 40
10.7827052
100
AcDbArc
 50
250.5278273813848
 51
289.4721726186153
  0
ARC
  5
2415
330
1E
100
AcDbEntity
  8
STEMPEL
100
AcDbCircle
 10
228.8287285507804
 20
512.2768728236904
 30
0.0
 40
10.7827052
100
AcDbArc
 50
70.52782738138472
 51
109.4721726186152
  0
ARC
  5
2416
330
1E
100
AcDbEntity
  8
STEMPEL
100
AcDbCircle
 10
234.2203345168924
 20
519.4865289615537
 30
0.0
 40
2.926950985085932
100
AcDbArc
 50
232.1193642828198
 51
301.469194524079
  0
ARC
  5
2417
330
1E
100
AcDbEntity
  8
STEMPEL
100
AcDbCircle
 10
234.2203345168924
 20
520.1326270858268
 30
0.0
 40
2.926950985085932
100
AcDbArc
 50
58.53080547592095
 51
127.8806357171802
  0
LINE
  5
2418
330
1E
100
AcDbEntity
  8
STEMPEL
100
AcDbLine
 10
221.6399205959644
 20
522.4736528346237
 30
0.0
 11
222.0391194925611
 21
522.704130425034
 31
0.0
  0
LINE
  5
2419
330
1E
100
AcDbEntity
  8
STEMPEL
100
AcDbLine
 10
221.6399205959644
 20
517.1455032127568
 30
0.0
 11
222.0391194925611
 21
516.9150256223465
 31
0.0
  0
LINE
  5
241A
330
1E
100
AcDbEntity
  8
STEMPEL
100
AcDbLine
 10
221.6399205959644
 20
522.4736528346237
 30
0.0
 11
221.6399205959644
 21
517.1455032127568
 31
0.0
  0
LINE
  5
241B
330
1E
100
AcDbEntity
  8
STEMPEL
100
AcDbLine
 10
223.437648355955
 20
516.5595780236903
 30
0.0
 11
234.2198087455964
 21
516.5595780236901
 31
0.0
  0
ARC
  5
241C
330
1E
100
AcDbEntity
  8
STEMPEL
100
AcDbCircle
 10
223.4371225846684
 20
519.4865289615537
 30
0.0
 40
2.926950985085932
100
AcDbArc
 50
238.530805475921
 51
307.8806357171803
  0
LINE
  5
241D
330
1E
100
AcDbEntity
  8
STEMPEL
100
AcDbLine
 10
223.437648355955
 20
523.0595780236902
 30
0.0
 11
234.2198087455964
 21
523.0595780236903
 31
0.0
  0
ARC
  5
241E
330
1E
100
AcDbEntity
  8
STEMPEL
100
AcDbCircle
 10
223.4371225846684
 20
520.1326270858268
 30
0.0
 40
2.926950985085932
100
AcDbArc
 50
52.11936428281976
 51
121.469194524079
  0
LINE
  5
241F
102
{ACAD_REACTORS
330
2407
102
}
330
1E
100
AcDbEntity
  8
STEMPEL
100
AcDbLine
 10
232.8287285507804
 20
526.6595780236905
 30
0.0
 11
337.8287285507804
 21
526.6595780236907
 31
0.0
  0
LINE
  5
2420
102
{ACAD_REACTORS
330
2407
102
}
330
1E
100
AcDbEntity
  8
STEMPEL
100
AcDbLine
 10
233.5787285507804
 20
526.6595780236905
 30
0.0
 11
233.5787285507803
 21
524.6595780236904
 31
0.0
  0
LINE
  5
2421
102
{ACAD_REACTORS
330
2407
102
}
330
1E
100
AcDbEntity
  8
STEMPEL
100
AcDbLine
 10
224.0787285507803
 20
526.6595780236903
 30
0.0
 11
224.0787285507803
 21
524.6595780236902
 31
0.0
  0
LINE
  5
2422
330
1E
100
AcDbEntity
  8
STEMPEL
100
AcDbLine
 10
224.8287285507804
 20
514.0595780236902
 30
0.0
 11
224.8287285507804
 21
509.6595780236905
 31
0.0
  0
LINE
  5
2423
330
1E
100
AcDbEntity
  8
HILF
100
AcDbLine
 10
225.8287285507804
 20
514.0595780236902
 30
0.0
 11
225.8287285507804
 21
508.6595780236905
 31
0.0
  0
LINE
  5
2424
330
1E
100
AcDbEntity
  8
HILF
100
AcDbLine
 10
231.8287285507803
 20
514.0595780236902
 30
0.0
 11
231.8287285507803
 21
508.6595780236904
 31
0.0
  0
LINE
  5
2425
330
1E
100
AcDbEntity
  8
STEMPEL
100
AcDbLine
 10
232.8287285507803
 20
514.0595780236902
 30
0.0
 11
232.8287285507803
 21
509.6595780236905
 31
0.0
  0
LINE
  5
2426
330
1E
100
AcDbEntity
  8
STEMPEL
100
AcDbLine
 10
236.8287285507803
 20
524.6595780236904
 30
0.0
 11
236.8287285507804
 21
523.0595780236903
 31
0.0
  0
LINE
  5
2427
330
1E
100
AcDbEntity
  8
STEMPEL
100
AcDbLine
 10
220.8287285507803
 20
524.6595780236904
 30
0.0
 11
220.8287285507803
 21
523.0595780236903
 31
0.0
  0
LINE
  5
2428
330
1E
100
AcDbEntity
  8
STEMPEL
100
AcDbLine
 10
220.8287285507803
 20
523.0595780236903
 30
0.0
 11
236.8287285507804
 21
523.0595780236903
 31
0.0
  0
LINE
  5
2429
330
1E
100
AcDbEntity
  8
STEMPEL
100
AcDbLine
 10
224.8287285507804
 20
509.6595780236905
 30
0.0
 11
225.8287285507804
 21
508.6595780236905
 31
0.0
  0
LINE
  5
242A
330
1E
100
AcDbEntity
  8
STEMPEL
100
AcDbLine
 10
232.8287285507803
 20
509.6595780236905
 30
0.0
 11
231.8287285507803
 21
508.6595780236904
 31
0.0
  0
LINE
  5
242B
330
1E
100
AcDbEntity
  8
HILF
100
AcDbLine
 10
225.8287285507804
 20
548.6595780236902
 30
0.0
 11
225.8287285507803
 21
524.6595780236902
 31
0.0
  0
LINE
  5
242C
330
1E
100
AcDbEntity
  8
HILF
100
AcDbLine
 10
231.8287285507804
 20
548.6595780236902
 30
0.0
 11
231.8287285507803
 21
524.6595780236905
 31
0.0
  0
LINE
  5
242D
330
1E
100
AcDbEntity
  8
STEMPEL
100
AcDbLine
 10
224.8287285507804
 20
509.6595780236905
 30
0.0
 11
232.8287285507803
 21
509.6595780236905
 31
0.0
  0
LINE
  5
242E
330
1E
100
AcDbEntity
  8
STEMPEL
100
AcDbLine
 10
225.8287285507804
 20
508.6595780236905
 30
0.0
 11
231.8287285507803
 21
508.6595780236904
 31
0.0
  0
LINE
  5
242F
330
1E
100
AcDbEntity
  8
STEMPEL
100
AcDbLine
 10
232.8287285507804
 20
548.6595780236902
 30
0.0
 11
232.8287285507803
 21
524.6595780236904
 31
0.0
  0
LINE
  5
2430
330
1E
100
AcDbEntity
  8
STEMPEL
100
AcDbLine
 10
224.8287285507804
 20
548.6595780236902
 30
0.0
 11
224.8287285507804
 21
524.6595780236904
 31
0.0
  0
LINE
  5
2431
102
{ACAD_REACTORS
330
2407
102
}
330
1E
100
AcDbEntity
  8
STEMPEL
100
AcDbLine
 10
335.5787285507803
 20
526.6595780236907
 30
0.0
 11
335.5787285507803
 21
524.6595780236906
 31
0.0
  0
LINE
  5
2432
102
{ACAD_REACTORS
330
2407
102
}
330
1E
100
AcDbEntity
  8
STEMPEL
100
AcDbLine
 10
122.0787285507803
 20
526.65957802369
 30
0.0
 11
122.0787285507803
 21
524.6595780236902
 31
0.0
  0
LINE
  5
2433
102
{ACAD_REACTORS
330
2407
102
}
330
1E
100
AcDbEntity
  8
STEMPEL
100
AcDbLine
 10
119.8287285507804
 20
526.65957802369
 30
0.0
 11
224.8287285507804
 21
526.6595780236904
 31
0.0
  0
LINE
  5
2434
102
{ACAD_REACTORS
330
2407
102
}
330
1E
100
AcDbEntity
  8
STEMPEL
100
AcDbLine
 10
122.0787285507803
 20
524.6595780236901
 30
0.0
 11
335.5787285507804
 21
524.6595780236908
 31
0.0
  0
ARC
  5
2435
330
1E
100
AcDbEntity
  8
STEMPEL
100
AcDbCircle
 10
228.8287285507804
 20
517.1595780236907
 30
0.0
 40
7.5
100
AcDbArc
 50
163.4371734902392
 51
180.000000000013
  0
LINE
  5
252A
330
1E
100
AcDbEntity
  8
STEMPEL
100
AcDbLine
 10
295.3287285507799
 20
459.6595780236906
 30
0.0
 11
347.8287285507802
 21
459.6595780236906
 31
0.0
  0
DIMENSION
  5
254A
330
1E
100
AcDbEntity
  8
BEM
100
AcDbDimension
  2
*D6
 10
85.23674932986841
 20
439.6595780236885
 30
0.0
 11
78.73674932986834
 21
457.1595780236886
 31
0.0
 70
    32
 71
     5
 42
35.00000000000034
  3
Standard
100
AcDbAlignedDimension
 13
162.3287285507795
 23
474.6595780236888
 33
0.0
 14
111.8287285507808
 24
439.6595780236885
 34
0.0
 50
90.0
100
AcDbRotatedDimension
1001
ACAD
1000
DSTYLE
1002
{
1070
    40
1040
2.0
1070
    41
1040
3.5
1070
    42
1040
1.0
1070
    43
1040
7.0
1070
    44
1040
1.0
1070
    73
1070
     0
1070
    74
1070
     0
1070
    77
1070
     1
1070
    78
1070
     8
1070
    79
1070
     2
1070
   140
1040
3.5
1070
   141
1040
1.5
1070
   146
1040
0.5142857142857144
1070
   147
1040
1.5
1070
   172
1070
     1
1070
   178
1070
     1
1070
   179
1070
     2
1070
   271
1070
     2
1070
   272
1070
     2
1070
   284
1070
     8
1070
   285
1070
     8
1070
   286
1070
     8
1002
}
  0
HATCH
  5
25A9
330
1E
100
AcDbEntity
  8
SCHRAFF
100
AcDbHatch
 10
0.0
 20
0.0
 30
0.0
210
0.0
220
0.0
230
1.0
  2
NET
 70
     0
 71
     1
 91
        5
 92
        7
 72
     0
 73
     1
 93
        4
 10
351.3287285507803
 20
433.6595780236891
 10
351.3287285507804
 20
436.6595780236892
 10
321.0186953567649
 20
436.6595780236893
 10
323.0112487110643
 20
433.6595780236891
 97
        4
330
2066
330
238B
330
2099
330
2010
 92
        7
 72
     0
 73
     1
 93
        4
 10
323.0112487110642
 20
433.6595780236891
 10
321.0186953567647
 20
436.6595780236893
 10
300.2287285507802
 20
436.6595780236893
 10
300.2287285507802
 20
433.6595780236891
 97
        4
330
2066
330
202C
330
2099
330
238B
 92
        7
 72
     0
 73
     1
 93
        4
 10
300.2287285507802
 20
433.6595780236891
 10
300.2287285507802
 20
436.6595780236893
 10
291.3287285507802
 20
436.6595780236892
 10
291.3287285507802
 20
433.6595780236891
 97
        4
330
2066
330
2029
330
2099
330
202C
 92
        7
 72
     0
 73
     1
 93
        4
 10
166.3287285507802
 20
433.6595780236891
 10
166.3287285507802
 20
436.6595780236893
 10
145.3287285507803
 20
436.6595780236893
 10
145.3287285507803
 20
433.6595780236891
 97
        4
330
2066
330
2057
330
2099
330
2055
 92
        7
 72
     0
 73
     1
 93
        4
 10
106.3287285507801
 20
436.6595780236893
 10
106.3287285507802
 20
433.6595780236892
 10
132.3287285507801
 20
433.6595780236891
 10
132.3287285507801
 20
436.6595780236893
 97
        4
330
2085
330
2082
330
2099
330
2080
 75
     0
 76
     1
 52
45.0
 41
15.0
 77
     0
 78
     2
 53
45.0
 43
0.0
 44
0.0
 45
-1.325825214724776
 46
1.325825214724776
 79
     0
 53
135.0
 43
0.0
 44
0.0
 45
-1.325825214724776
 46
-1.325825214724776
 79
     0
 47
0.3482183825548848
 98
        5
 10
331.707082743294
 20
435.0600678854384
 10
310.8068885151192
 20
434.7118493412328
 10
297.5701004005618
 20
435.0600678854384
 10
156.1454676411331
 20
435.0600678854384
 10
115.3900924135869
 20
435.408286429644
  0
TEXT
  5
25D0
330
1E
100
AcDbEntity
  8
VOLL
100
AcDbText
 10
397.5708181442668
 20
358.3810315636752
 30
0.0
 40
1.8
  1

 50
270.0
  7
GREEKS
100
AcDbText
  0
ARC
  5
25F1
330
1E
100
AcDbEntity
  8
HILF
100
AcDbCircle
 10
350.8287285507802
 20
447.4182859964646
 30
0.0
 40
14.94074366520046
100
AcDbArc
 50
78.85962783889434
 51
101.1403721611056
  0
ARC
  5
25F2
330
1E
100
AcDbEntity
  8
HILF
100
AcDbCircle
 10
346.498601531858
 20
458.5182692618745
 30
0.0
 40
3.840760399790701
100
AcDbArc
 50
67.92594526323878
 51
112.0740547367612
  0
ARC
  5
25F3
330
1E
100
AcDbEntity
  8
HILF
100
AcDbCircle
 10
355.1588555697025
 20
458.5171046999862
 30
0.0
 40
3.841839622940954
100
AcDbArc
 50
67.93247218100944
 51
112.0675278189905
  0
ARC
  5
25F4
330
1E
100
AcDbEntity
  8
STEMPEL
100
AcDbCircle
 10
350.8287285507802
 20
447.0523186020539
 30
0.0
 40
20.20725942163691
100
AcDbArc
 50
81.78678929826059
 51
98.2132107017394
  0
ARC
  5
25F5
330
1E
100
AcDbEntity
  8
STEMPEL
100
AcDbCircle
 10
346.498601531858
 20
462.1300408851677
 30
0.0
 40
5.129537138523076
100
AcDbArc
 50
73.65710669401657
 51
106.3428933059834
  0
LINE
  5
25F6
330
1E
100
AcDbEntity
  8
STEMPEL
100
AcDbLine
 10
345.8287285507802
 20
467.2595780236909
 30
0.0
 11
345.0552258588839
 21
467.0523186020539
 31
0.0
  0
LINE
  5
25F7
330
1E
100
AcDbEntity
  8
STEMPEL
100
AcDbLine
 10
355.8287285507802
 20
467.2595780236909
 30
0.0
 11
356.6022312426765
 21
467.0523186020539
 31
0.0
  0
ARC
  5
25F8
330
1E
100
AcDbEntity
  8
STEMPEL
100
AcDbCircle
 10
355.1588555697025
 20
462.1300408851677
 30
0.0
 40
5.129537138523076
100
AcDbArc
 50
73.65710669401657
 51
106.3428933059834
  0
LINE
  5
25F9
330
1E
100
AcDbEntity
  8
STEMPEL
100
AcDbLine
 10
357.5668396296093
 20
461.7264089651231
 30
0.0
 11
344.0906174719511
 21
461.7264089651231
 31
0.0
  0
LINE
  5
25FA
330
1E
100
AcDbEntity
  8
STEMPEL
100
AcDbLine
 10
357.3787285507803
 20
460.6595780236908
 30
0.0
 11
344.2787285507802
 21
460.6595780236908
 31
0.0
  0
LINE
  5
25FB
330
1E
100
AcDbEntity
  8
STEMPEL
100
AcDbLine
 10
345.0552258588839
 20
467.0523186020539
 30
0.0
 11
345.0552258588839
 21
462.0774977056902
 31
0.0
  0
LINE
  5
25FC
330
1E
100
AcDbEntity
  8
STEMPEL
100
AcDbLine
 10
347.9419772048321
 20
467.0523186020539
 30
0.0
 11
347.9419772048321
 21
462.0774977056902
 31
0.0
  0
LINE
  5
25FD
330
1E
100
AcDbEntity
  8
STEMPEL
100
AcDbLine
 10
353.7154798967284
 20
467.0523186020539
 30
0.0
 11
353.7154798967284
 21
462.0774977056902
 31
0.0
  0
LINE
  5
25FE
330
1E
100
AcDbEntity
  8
STEMPEL
100
AcDbLine
 10
356.6022312426765
 20
467.0523186020539
 30
0.0
 11
356.6022312426765
 21
462.0774977056902
 31
0.0
  0
LINE
  5
25FF
330
1E
100
AcDbEntity
  8
STEMPEL
100
AcDbLine
 10
355.8287285507802
 20
467.2595780236909
 30
0.0
 11
345.8287285507802
 21
467.2595780236909
 31
0.0
  0
LINE
  5
2600
330
1E
100
AcDbEntity
  8
STEMPEL
100
AcDbLine
 10
345.0552258588839
 20
462.0774977056902
 30
0.0
 11
344.0906174719511
 21
461.7264089651231
 31
0.0
  0
LINE
  5
2601
330
1E
100
AcDbEntity
  8
STEMPEL
100
AcDbLine
 10
357.5668396296093
 20
461.7264089651231
 30
0.0
 11
356.6022312426765
 21
462.0774977056902
 31
0.0
  0
ARC
  5
2602
330
1E
100
AcDbEntity
  8
STEMPEL
100
AcDbCircle
 10
357.3787285507803
 20
461.2095780236908
 30
0.0
 40
0.5500000000000009
100
AcDbArc
 50
270.0
 51
70.00000000000047
  0
ARC
  5
2603
330
1E
100
AcDbEntity
  8
STEMPEL
100
AcDbCircle
 10
344.2787285507802
 20
461.2095780236908
 30
0.0
 40
0.5500000000000003
100
AcDbArc
 50
109.9999999999995
 51
270.0
  0
ARC
  5
2605
330
1E
100
AcDbEntity
  8
STEMPEL
100
AcDbCircle
 10
125.48962103525
 20
461.2095780236933
 30
0.0
 40
0.5500000000000003
100
AcDbArc
 50
109.9999999999995
 51
270.0
  0
ARC
  5
2606
330
1E
100
AcDbEntity
  8
STEMPEL
100
AcDbCircle
 10
138.58962103525
 20
461.2095780236933
 30
0.0
 40
0.5500000000000009
100
AcDbArc
 50
270.0
 51
70.00000000000047
  0
LINE
  5
2607
330
1E
100
AcDbEntity
  8
STEMPEL
100
AcDbLine
 10
138.7777321140791
 20
461.7264089651256
 30
0.0
 11
137.8131237271462
 21
462.0774977056927
 31
0.0
  0
LINE
  5
2608
330
1E
100
AcDbEntity
  8
STEMPEL
100
AcDbLine
 10
126.2661183433537
 20
462.0774977056927
 30
0.0
 11
125.3015099564209
 21
461.7264089651256
 31
0.0
  0
LINE
  5
2609
330
1E
100
AcDbEntity
  8
STEMPEL
100
AcDbLine
 10
130.30860008752
 20
467.2595780236934
 30
0.0
 11
127.03962103525
 21
467.2595780236934
 31
0.0
  0
LINE
  5
260A
330
1E
100
AcDbEntity
  8
STEMPEL
100
AcDbLine
 10
137.8131237271463
 20
464.0376492955051
 30
0.0
 11
137.8131237271462
 21
462.0774977056927
 31
0.0
  0
LINE
  5
260C
330
1E
100
AcDbEntity
  8
STEMPEL
100
AcDbLine
 10
129.1528696893019
 20
467.0523186020564
 30
0.0
 11
129.1528696893019
 21
462.0774977056927
 31
0.0
  0
LINE
  5
260D
330
1E
100
AcDbEntity
  8
STEMPEL
100
AcDbLine
 10
126.2661183433537
 20
467.0523186020564
 30
0.0
 11
126.2661183433537
 21
462.0774977056927
 31
0.0
  0
LINE
  5
260F
330
1E
100
AcDbEntity
  8
STEMPEL
100
AcDbLine
 10
138.7777321140791
 20
461.7264089651256
 30
0.0
 11
136.9159442098086
 21
461.7264089651256
 31
0.0
  0
LINE
  5
2612
330
1E
100
AcDbEntity
  8
STEMPEL
100
AcDbLine
 10
127.03962103525
 20
467.2595780236934
 30
0.0
 11
126.2661183433537
 21
467.0523186020564
 31
0.0
  0
ARC
  5
2613
330
1E
100
AcDbEntity
  8
STEMPEL
100
AcDbCircle
 10
127.7094940163278
 20
462.1300408851702
 30
0.0
 40
5.129537138523076
100
AcDbArc
 50
73.65710669401657
 51
106.3428933059834
  0
ARC
  5
2614
330
1E
100
AcDbEntity
  8
STEMPEL
100
AcDbCircle
 10
132.03962103525
 20
447.0523186020564
 30
0.0
 40
20.20725942163691
100
AcDbArc
 50
94.91416948520935
 51
98.2132107017394
  0
ARC
  5
2615
330
1E
100
AcDbEntity
  8
HILF
100
AcDbCircle
 10
136.3697480541722
 20
458.5171046999887
 30
0.0
 40
3.841839622940954
100
AcDbArc
 50
67.93247218100944
 51
77.40284130775018
  0
ARC
  5
2616
330
1E
100
AcDbEntity
  8
HILF
100
AcDbCircle
 10
127.7094940163278
 20
458.5182692618769
 30
0.0
 40
3.840760399790701
100
AcDbArc
 50
67.92594526323878
 51
112.0740547367612
  0
ARC
  5
2617
330
1E
100
AcDbEntity
  8
HILF
100
AcDbCircle
 10
132.03962103525
 20
447.4182859964671
 30
0.0
 40
14.94074366520046
100
AcDbArc
 50
100.2909006776727
 51
101.1403721611056
  0
LINE
  5
2619
330
1E
100
AcDbEntity
  8
STEMPEL
100
AcDbLine
 10
129.1095895442412
 20
461.7264089651256
 30
0.0
 11
125.3015099564209
 21
461.7264089651256
 31
0.0
  0
TEXT
  5
2638
330
1E
100
AcDbEntity
  8
VOLL
100
AcDbText
 10
259.6524901223146
 20
516.4022585232145
 30
0.0
 40
1.8
  1

  7
GREEKS
100
AcDbText
  0
ARC
  5
2639
330
1E
100
AcDbEntity
  8
STEMPEL
100
AcDbCircle
 10
310.3787285507801
 20
446.4095780236901
 30
0.0
 40
0.750000000000001
100
AcDbArc
 50
269.9999991462263
 51
70.00000000000047
  0
LINE
  5
263C
330
1E
100
AcDbEntity
  8
STEMPEL
100
AcDbLine
 10
310.6352436582744
 20
447.1143474892794
 30
0.0
 11
308.8889825886246
 21
447.7499345398899
 31
0.0
  0
LINE
  5
263D
330
1E
100
AcDbEntity
  8
STEMPEL
100
AcDbLine
 10
308.8889825886246
 20
455.3486888912346
 30
0.0
 11
307.7287285507801
 21
455.65957802369
 31
0.0
  0
LINE
  5
2641
330
1E
100
AcDbEntity
  8
STEMPEL
100
AcDbLine
 10
310.6352436582744
 20
447.1143474892794
 30
0.0
 11
296.7534818542842
 21
447.1143474892794
 31
0.0
  0
LINE
  5
2643
330
1E
100
AcDbEntity
  8
STEMPEL
100
AcDbLine
 10
304.5588555697023
 20
447.7499345398899
 30
0.0
 11
304.5588555697023
 21
455.3486888912346
 31
0.0
  0
LINE
  5
2644
330
1E
100
AcDbEntity
  8
STEMPEL
100
AcDbLine
 10
308.8889825886246
 20
447.7499345398899
 30
0.0
 11
308.8889825886246
 21
455.3486888912346
 31
0.0
  0
LINE
  5
2645
330
1E
100
AcDbEntity
  8
STEMPEL
100
AcDbLine
 10
296.3114871714696
 20
455.65957802369
 30
0.0
 11
307.7287285507801
 21
455.65957802369
 31
0.0
  0
POINT
  5
2647
330
1E
100
AcDbEntity
  8
0
100
AcDbPoint
 10
300.2287285507801
 20
445.65957802369
 30
0.0
210
0.0000000000000001
220
1.0
230
0.0
  0
ARC
  5
2649
330
1E
100
AcDbEntity
  8
HILF
100
AcDbCircle
 10
306.7239190791635
 20
442.4110918741604
 30
0.0
 40
5.761140599691502
100
AcDbArc
 50
67.92594526326206
 51
112.0740547367379
  0
ARC
  5
264A
330
1E
100
AcDbEntity
  8
HILF
100
AcDbCircle
 10
300.2287285507801
 20
425.7611169760288
 30
0.0
 40
22.41111549782308
100
AcDbArc
 50
78.85962783890615
 51
99.02521875168822
  0
ARC
  5
264B
330
1E
100
AcDbEntity
  8
STEMPEL
100
AcDbCircle
 10
306.7239190791635
 20
447.9652723159055
 30
0.0
 40
7.694305707784447
100
AcDbArc
 50
73.65710669401501
 51
106.342893305985
  0
ARC
  5
264D
330
1E
100
AcDbEntity
  8
STEMPEL
100
AcDbCircle
 10
300.2287285507801
 20
425.3486888912352
 30
0.0
 40
30.31088913245485
100
AcDbArc
 50
81.78678929826221
 51
97.40051944419837
  0
ARC
  5
264E
330
1E
100
AcDbEntity
  8
STEMPEL
100
AcDbCircle
 10
138.8287285507803
 20
425.3486888912349
 30
0.0
 40
30.31088913245485
100
AcDbArc
 50
81.78678929826221
 51
98.2132107017378
  0
ARC
  5
264F
330
1E
100
AcDbEntity
  8
STEMPEL
100
AcDbCircle
 10
132.333538022397
 20
447.9652723159054
 30
0.0
 40
7.694305707784447
100
AcDbArc
 50
73.65710669401501
 51
106.342893305985
  0
ARC
  5
2650
330
1E
100
AcDbEntity
  8
STEMPEL
100
AcDbCircle
 10
145.3239190791636
 20
447.9652723159054
 30
0.0
 40
7.694305707784447
100
AcDbArc
 50
73.65710669401501
 51
106.342893305985
  0
ARC
  5
2651
330
1E
100
AcDbEntity
  8
HILF
100
AcDbCircle
 10
138.8287285507803
 20
425.7611169760286
 30
0.0
 40
22.41111549782308
100
AcDbArc
 50
78.85962783890615
 51
101.1403721610938
  0
ARC
  5
2652
330
1E
100
AcDbEntity
  8
HILF
100
AcDbCircle
 10
145.3239190791636
 20
442.4110918741602
 30
0.0
 40
5.761140599691502
100
AcDbArc
 50
67.92594526326206
 51
112.0740547367379
  0
ARC
  5
2653
330
1E
100
AcDbEntity
  8
HILF
100
AcDbCircle
 10
132.333538022397
 20
442.4110918741602
 30
0.0
 40
5.761140599691502
100
AcDbArc
 50
67.92594526326206
 51
112.0740547367379
  0
POINT
  5
2654
330
1E
100
AcDbEntity
  8
0
100
AcDbPoint
 10
138.8287285507803
 20
445.6595780236898
 30
0.0
210
0.0000000000000001
220
1.0
230
0.0
  0
LINE
  5
2655
330
1E
100
AcDbEntity
  8
STEMPEL
100
AcDbLine
 10
131.3287285507803
 20
455.6595780236898
 30
0.0
 11
146.3287285507803
 21
455.6595780236898
 31
0.0
  0
LINE
  5
2656
330
1E
100
AcDbEntity
  8
STEMPEL
100
AcDbLine
 10
147.4889825886247
 20
447.7499345398896
 30
0.0
 11
147.4889825886247
 21
455.3486888912344
 31
0.0
  0
LINE
  5
2657
330
1E
100
AcDbEntity
  8
STEMPEL
100
AcDbLine
 10
143.1588555697025
 20
447.7499345398896
 30
0.0
 11
143.1588555697025
 21
455.3486888912344
 31
0.0
  0
LINE
  5
2658
330
1E
100
AcDbEntity
  8
STEMPEL
100
AcDbLine
 10
134.4986015318581
 20
447.7499345398896
 30
0.0
 11
134.4986015318581
 21
455.3486888912344
 31
0.0
  0
LINE
  5
2659
330
1E
100
AcDbEntity
  8
STEMPEL
100
AcDbLine
 10
149.2352436582746
 20
447.1143474892793
 30
0.0
 11
128.4222134432861
 21
447.1143474892793
 31
0.0
  0
LINE
  5
265A
330
1E
100
AcDbEntity
  8
STEMPEL
100
AcDbLine
 10
148.9787285507803
 20
445.6595780236898
 30
0.0
 11
128.6787285507803
 21
445.6595780236898
 31
0.0
  0
LINE
  5
265B
330
1E
100
AcDbEntity
  8
STEMPEL
100
AcDbLine
 10
130.168474512936
 20
447.7499345398896
 30
0.0
 11
130.168474512936
 21
455.3486888912344
 31
0.0
  0
LINE
  5
265C
330
1E
100
AcDbEntity
  8
STEMPEL
100
AcDbLine
 10
131.3287285507803
 20
455.6595780236898
 30
0.0
 11
130.168474512936
 21
455.3486888912344
 31
0.0
  0
LINE
  5
265D
330
1E
100
AcDbEntity
  8
STEMPEL
100
AcDbLine
 10
147.4889825886247
 20
455.3486888912344
 30
0.0
 11
146.3287285507803
 21
455.6595780236898
 31
0.0
  0
LINE
  5
265E
330
1E
100
AcDbEntity
  8
STEMPEL
100
AcDbLine
 10
149.2352436582746
 20
447.1143474892793
 30
0.0
 11
147.4889825886247
 21
447.7499345398896
 31
0.0
  0
LINE
  5
265F
330
1E
100
AcDbEntity
  8
STEMPEL
100
AcDbLine
 10
130.168474512936
 20
447.7499345398896
 30
0.0
 11
128.4222134432861
 21
447.1143474892793
 31
0.0
  0
ARC
  5
2660
330
1E
100
AcDbEntity
  8
STEMPEL
100
AcDbCircle
 10
128.6787285507803
 20
446.4095780236898
 30
0.0
 40
0.7500000000000013
100
AcDbArc
 50
109.9999999999995
 51
269.9999991462263
  0
ARC
  5
2661
330
1E
100
AcDbEntity
  8
STEMPEL
100
AcDbCircle
 10
148.9787285507803
 20
446.4095780236898
 30
0.0
 40
0.750000000000001
100
AcDbArc
 50
269.9999991462263
 51
70.00000000000047
  0
LINE
  5
26B4
330
1E
100
AcDbEntity
  8
HILF
100
AcDbLine
 10
347.8287285507802
 20
439.6595780236909
 30
0.0
 11
347.8287285507802
 21
459.659578023691
 31
0.0
  0
LINE
  5
26B5
330
1E
100
AcDbEntity
  8
STEMPEL
100
AcDbLine
 10
348.8287285507802
 20
439.6595780236909
 30
0.0
 11
348.8287285507802
 21
459.659578023691
 31
0.0
  0
LINE
  5
26B6
330
1E
100
AcDbEntity
  8
STEMPEL
100
AcDbLine
 10
346.8287285507803
 20
445.6595780236908
 30
0.0
 11
346.8287285507801
 21
453.659578023691
 31
0.0
  0
LINE
  5
26B7
330
1E
100
AcDbEntity
  8
HILF
100
AcDbLine
 10
353.8287285507802
 20
439.6595780236909
 30
0.0
 11
353.8287285507802
 21
459.659578023691
 31
0.0
  0
LINE
  5
26B8
330
1E
100
AcDbEntity
  8
STEMPEL
100
AcDbLine
 10
352.8287285507802
 20
439.6595780236909
 30
0.0
 11
352.8287285507802
 21
459.659578023691
 31
0.0
  0
LINE
  5
26B9
330
1E
100
AcDbEntity
  8
STEMPEL
100
AcDbLine
 10
354.8287285507803
 20
445.6595780236911
 30
0.0
 11
354.8287285507801
 21
453.659578023691
 31
0.0
  0
HATCH
  5
26BA
330
1E
100
AcDbEntity
  8
SCHRAFF
100
AcDbHatch
 10
0.0
 20
0.0
 30
0.0
210
0.0
220
0.0
230
1.0
  2
_USER
 70
     0
 71
     0
 91
        4
 92
        7
 72
     0
 73
     1
 93
       12
 10
347.8287285507802
 20
459.659578023691
 10
346.8287285507802
 20
459.659578023691
 10
346.8287285507801
 20
456.659578023691
 10
347.3287285507804
 20
456.659578023691
 10
347.3287285507804
 20
453.659578023691
 10
346.8287285507801
 20
453.659578023691
 10
346.8287285507803
 20
445.659578023691
 10
347.3287285507804
 20
445.659578023691
 10
347.3287285507802
 20
442.6595780236911
 10
346.8287285507803
 20
442.6595780236911
 10
346.8287285507803
 20
439.6595780236906
 10
347.8287285507802
 20
439.6595780236905
 97
        0
 92
        7
 72
     0
 73
     1
 93
        5
 10
348.8287285507802
 20
459.659578023691
 10
347.8287285507802
 20
459.6595780236909
 10
347.8287285507802
 20
439.6595780236904
 10
348.0546487851819
 20
439.6595780236904
 10
348.8287285507802
 20
441.9232234776247
 97
        0
 92
        7
 72
     0
 73
     1
 93
        4
 10
353.8287285507802
 20
459.6595780236911
 10
352.8287285507802
 20
459.6595780236911
 10
352.8287285507802
 20
439.6595780236904
 10
353.8287285507802
 20
439.6595780236905
 97
        0
 92
        7
 72
     0
 73
     1
 93
       12
 10
354.8287285507802
 20
459.659578023691
 10
353.8287285507801
 20
459.6595780236909
 10
353.8287285507802
 20
439.6595780236904
 10
354.8287285507802
 20
439.6595780236904
 10
354.8287285507803
 20
442.6595780236911
 10
354.3287285507803
 20
442.6595780236911
 10
354.3287285507803
 20
445.6595780236911
 10
354.8287285507803
 20
445.6595780236912
 10
354.8287285507801
 20
453.659578023691
 10
354.3287285507802
 20
453.659578023691
 10
354.3287285507803
 20
456.659578023691
 10
354.8287285507802
 20
456.659578023691
 97
        0
 75
     0
 76
     0
 52
135.0
 41
1.0
 77
     0
 78
     1
 53
135.0
 43
3.82872855078034
 44
-63.36395759489511
 45
-0.7071067811865476
 46
-0.7071067811865475
 79
     0
 47
0.0527561546155446
 98
        4
 10
347.490680289844
 20
458.0604087176397
 10
348.5465195225747
 20
458.0604087176397
 10
353.6145429428197
 20
458.3241891022622
 10
354.4592138838347
 20
458.2714321954788
  0
LINE
  5
26BB
330
1E
100
AcDbEntity
  8
STEMPEL
100
AcDbLine
 10
342.3892850834179
 20
459.659578023691
 30
0.0
 11
342.1792150385046
 21
447.6246732108156
 31
0.0
  0
LINE
  5
26BC
330
1E
100
AcDbEntity
  8
STEMPEL
100
AcDbLine
 10
342.8287285507801
 20
459.6595780236898
 30
0.0
 11
342.6186585058669
 21
447.6246732108157
 31
0.0
  0
LINE
  5
26BD
330
1E
100
AcDbEntity
  8
STEMPEL
100
AcDbLine
 10
358.8287285507801
 20
459.6595780236898
 30
0.0
 11
359.1689500004359
 21
440.1683042269087
 31
0.0
  0
ARC
  5
26BE
330
1E
100
AcDbEntity
  8
STEMPEL
100
AcDbCircle
 10
340.6189631155541
 20
447.6595780236902
 30
0.0
 40
2.0
100
AcDbArc
 50
270.0
 51
359.0000000000015
  0
ARC
  5
26BF
330
1E
100
AcDbEntity
  8
STEMPEL
100
AcDbCircle
 10
340.1795196481918
 20
447.6595780236902
 30
0.0
 40
2.0
100
AcDbArc
 50
270.0
 51
359.0000000000015
  0
LINE
  5
26C0
330
1E
100
AcDbEntity
  8
STEMPEL
100
AcDbLine
 10
346.8287285507803
 20
439.6595780236911
 30
0.0
 11
346.8287285507803
 21
442.6595780236911
 31
0.0
  0
LINE
  5
26C1
330
1E
100
AcDbEntity
  8
STEMPEL
100
AcDbLine
 10
347.3287285507804
 20
442.659578023691
 30
0.0
 11
347.3287285507804
 21
445.659578023691
 31
0.0
  0
LINE
  5
26C2
330
1E
100
AcDbEntity
  8
STEMPEL
100
AcDbLine
 10
347.3287285507804
 20
442.6595780236911
 30
0.0
 11
346.8287285507803
 21
442.6595780236911
 31
0.0
  0
LINE
  5
26C3
330
1E
100
AcDbEntity
  8
STEMPEL
100
AcDbLine
 10
347.3287285507804
 20
445.659578023691
 30
0.0
 11
346.8287285507803
 21
445.659578023691
 31
0.0
  0
LINE
  5
26C4
330
1E
100
AcDbEntity
  8
STEMPEL
100
AcDbLine
 10
354.8287285507803
 20
439.6595780236911
 30
0.0
 11
354.8287285507803
 21
442.6595780236911
 31
0.0
  0
ARC
  5
26C5
330
1E
100
AcDbEntity
  8
STEMPEL
100
AcDbCircle
 10
358.6690261528577
 20
440.1595780236901
 30
0.0
 40
0.5
100
AcDbArc
 50
270.0
 51
0.9999999999985053
  0
LINE
  5
26C6
330
1E
100
AcDbEntity
  8
STEMPEL
100
AcDbLine
 10
354.3287285507803
 20
442.6595780236911
 30
0.0
 11
354.3287285507803
 21
445.6595780236912
 31
0.0
  0
LINE
  5
26C7
330
1E
100
AcDbEntity
  8
STEMPEL
100
AcDbLine
 10
354.8287285507803
 20
442.6595780236911
 30
0.0
 11
354.3287285507802
 21
442.6595780236911
 31
0.0
  0
LINE
  5
26C8
330
1E
100
AcDbEntity
  8
STEMPEL
100
AcDbLine
 10
354.8287285507803
 20
445.6595780236912
 30
0.0
 11
354.3287285507803
 21
445.6595780236911
 31
0.0
  0
LINE
  5
26C9
330
1E
100
AcDbEntity
  8
STEMPEL
100
AcDbLine
 10
342.3892850834179
 20
459.6595780236913
 30
0.0
 11
358.8287285507801
 21
459.6595780236898
 31
0.0
  0
LINE
  5
26CA
330
1E
100
AcDbEntity
  8
STEMPEL
100
AcDbLine
 10
347.3287285507804
 20
456.659578023691
 30
0.0
 11
346.8287285507802
 21
456.659578023691
 31
0.0
  0
LINE
  5
26CB
330
1E
100
AcDbEntity
  8
STEMPEL
100
AcDbLine
 10
346.8287285507801
 20
456.6595780236909
 30
0.0
 11
346.8287285507802
 21
459.659578023691
 31
0.0
  0
LINE
  5
26CC
330
1E
100
AcDbEntity
  8
STEMPEL
100
AcDbLine
 10
347.3287285507804
 20
453.659578023691
 30
0.0
 11
347.3287285507804
 21
456.6595780236911
 31
0.0
  0
LINE
  5
26CD
330
1E
100
AcDbEntity
  8
STEMPEL
100
AcDbLine
 10
347.3287285507804
 20
453.659578023691
 30
0.0
 11
346.8287285507802
 21
453.659578023691
 31
0.0
  0
LINE
  5
26CE
330
1E
100
AcDbEntity
  8
STEMPEL
100
AcDbLine
 10
354.3287285507803
 20
453.659578023691
 30
0.0
 11
354.3287285507803
 21
456.6595780236911
 31
0.0
  0
LINE
  5
26CF
330
1E
100
AcDbEntity
  8
STEMPEL
100
AcDbLine
 10
354.8287285507802
 20
453.659578023691
 30
0.0
 11
354.3287285507803
 21
453.659578023691
 31
0.0
  0
LINE
  5
26D0
330
1E
100
AcDbEntity
  8
STEMPEL
100
AcDbLine
 10
354.8287285507802
 20
456.659578023691
 30
0.0
 11
354.3287285507803
 21
456.659578023691
 31
0.0
  0
LINE
  5
26D1
330
1E
100
AcDbEntity
  8
STEMPEL
100
AcDbLine
 10
354.8287285507801
 20
456.659578023691
 30
0.0
 11
354.8287285507802
 21
459.659578023691
 31
0.0
  0
HATCH
  5
26D2
330
1E
100
AcDbEntity
  8
SCHRAFF
100
AcDbHatch
 10
0.0
 20
0.0
 30
0.0
210
0.0
220
0.0
230
1.0
  2
_USER
 70
     0
 71
     0
 91
        5
 92
        7
 72
     1
 73
     1
 93
       13
 10
291.3287285507803
 20
439.6595780236898
 42
0.0
 10
346.8287285507803
 20
439.65957802369
 42
0.0
 10
346.8287285507803
 20
442.6595780236912
 42
0.0
 10
347.3287285507804
 20
442.6595780236911
 42
0.0
 10
347.3287285507804
 20
445.659578023691
 42
0.0
 10
346.8287285507803
 20
445.659578023691
 42
0.0
 10
346.8287285507802
 20
453.2325107909461
 42
0.0
 10
342.7886006708292
 20
457.3606533209795
 42
0.0
 10
342.6186585058669
 20
447.6246732108157
 42
-0.4091108014277168
 10
340.6189631155541
 20
445.6595780236902
 42
0.0
 10
296.8287285507802
 20
445.65957802369
 42
0.0
 10
295.3287285507793
 20
474.6595780236902
 42
0.0
 10
292.8287285507792
 20
474.65957802369
 42
0.0
 97
        0
 92
        7
 72
     0
 73
     1
 93
        6
 10
145.8287285507798
 20
445.65957802369
 10
145.8287285507798
 20
439.6595780236888
 10
166.3287285507802
 20
439.6595780236888
 10
164.8287285507793
 20
474.65957802369
 10
162.3287285507798
 20
474.65957802369
 10
160.8287285507802
 20
445.65957802369
 97
        0
 92
        7
 72
     1
 73
     1
 93
        6
 10
131.8287285507798
 20
439.6595780236885
 42
0.0
 10
131.82872855078
 20
445.6595780236899
 42
0.0
 10
111.8287285507808
 20
445.6595780236898
 42
0.414213562373094
 10
111.3287285507808
 20
445.1595780236898
 42
0.0
 10
111.3287285507808
 20
440.1595780236885
 42
0.4142135623730971
 10
111.8287285507808
 20
439.6595780236885
 42
0.0
 97
        0
 92
        7
 72
     1
 73
     1
 93
       13
 10
358.8287285507801
 20
459.6595780236898
 42
0.0
 10
354.8287285507802
 20
459.6595780236902
 42
0.0
 10
354.8287285507801
 20
456.659578023691
 42
0.0
 10
354.3287285507803
 20
456.659578023691
 42
0.0
 10
354.3287285507803
 20
453.659578023691
 42
0.0
 10
354.8287285507801
 20
453.659578023691
 42
0.0
 10
354.8287285507803
 20
445.6595780236912
 42
0.0
 10
354.3287285507803
 20
445.6595780236911
 42
0.0
 10
354.3287285507804
 20
442.6595780236912
 42
0.0
 10
354.8287285507804
 20
442.6595780236912
 42
0.0
 10
354.8287285507803
 20
439.6595780236902
 42
0.0
 10
358.6690261528577
 20
439.6595780236901
 42
0.4193348017583757
 10
359.1689500004359
 20
440.1683042269087
 42
0.0
 97
        0
 92
       23
 72
     0
 73
     1
 93
        8
 10
342.8287285507801
 20
459.6595780236913
 10
342.7886006708293
 20
457.3606533209794
 10
346.8287285507801
 20
453.2325107909461
 10
346.8287285507801
 20
453.659578023691
 10
347.3287285507804
 20
453.659578023691
 10
347.3287285507804
 20
456.659578023691
 10
346.8287285507801
 20
456.659578023691
 10
346.8287285507802
 20
459.6595780236909
 97
        0
 75
     0
 76
     0
 52
45.0
 41
5.0
 77
     0
 78
     1
 53
45.0
 43
27.40033888255232
 44
-29.98912773900901
 45
-3.535533905932737
 46
3.535533905932737
 79
     0
 47
0.2836031840932441
 98
        5
 10
293.2139743482848
 20
458.4057763108853
 10
152.782764411004
 20
442.8076012546367
 10
119.5899320298646
 20
442.5239975939692
 10
357.613741449169
 20
450.7484899215035
 10
345.6983647268752
 20
458.6893799715531
  0
LINE
  5
26D3
330
1E
100
AcDbEntity
  8
STEMPEL
100
AcDbLine
 10
162.3287285507794
 20
474.65957802369
 30
0.0
 11
295.3287285507793
 21
474.65957802369
 31
0.0
  0
LINE
  5
26D4
330
1E
100
AcDbEntity
  8
STEMPEL
100
AcDbLine
 10
111.8287285507808
 20
439.6595780236885
 30
0.0
 11
133.8287285507803
 21
439.6595780236887
 31
0.0
  0
LINE
  5
26D5
330
1E
100
AcDbEntity
  8
STEMPEL
100
AcDbLine
 10
292.8287285507793
 20
474.65957802369
 30
0.0
 11
291.3287285507803
 21
439.6595780236896
 31
0.0
  0
LINE
  5
26D6
330
1E
100
AcDbEntity
  8
STEMPEL
100
AcDbLine
 10
295.3287285507793
 20
474.65957802369
 30
0.0
 11
296.8287285507802
 21
445.65957802369
 31
0.0
  0
LINE
  5
26D7
330
1E
100
AcDbEntity
  8
STEMPEL
100
AcDbLine
 10
296.8287285507802
 20
445.65957802369
 30
0.0
 11
340.6189631155541
 21
445.6595780236902
 31
0.0
  0
LINE
  5
26D8
330
1E
100
AcDbEntity
  8
STEMPEL
100
AcDbLine
 10
162.3287285507796
 20
474.6595780236882
 30
0.0
 11
160.8287285507802
 21
445.65957802369
 31
0.0
  0
LINE
  5
26D9
330
1E
100
AcDbEntity
  8
STEMPEL
100
AcDbLine
 10
164.8287285507794
 20
474.65957802369
 30
0.0
 11
166.3287285507802
 21
439.6595780236888
 31
0.0
  0
LINE
  5
26DA
330
1E
100
AcDbEntity
  8
STEMPEL
100
AcDbLine
 10
111.8287285507808
 20
445.6595780236898
 30
0.0
 11
160.8287285507802
 21
445.65957802369
 31
0.0
  0
LINE
  5
26DB
330
1E
100
AcDbEntity
  8
STEMPEL
100
AcDbLine
 10
143.2489190268194
 20
459.6595780236894
 30
0.0
 11
143.2741489334474
 21
458.2141576410221
 31
0.0
  0
LINE
  5
26DC
330
1E
100
AcDbEntity
  8
STEMPEL
100
AcDbLine
 10
133.8623403513663
 20
459.6595780236903
 30
0.0
 11
133.8623403513663
 21
457.6931898242753
 31
0.0
  0
LINE
  5
26DD
330
1E
100
AcDbEntity
  8
STEMPEL
100
AcDbLine
 10
121.0181750949127
 20
459.6595780236911
 30
0.0
 11
120.773804185918
 21
445.6595780236898
 31
0.0
  0
LINE
  5
26DE
330
1E
100
AcDbEntity
  8
STEMPEL
100
AcDbLine
 10
111.3287285507808
 20
440.1595780236885
 30
0.0
 11
111.3287285507808
 21
445.1595780236898
 31
0.0
  0
ARC
  5
26DF
330
1E
100
AcDbEntity
  8
STEMPEL
100
AcDbCircle
 10
111.8287285507808
 20
440.1595780236885
 30
0.0
 40
0.5
100
AcDbArc
 50
180.0
 51
270.0
  0
ARC
  5
26E0
330
1E
100
AcDbEntity
  8
STEMPEL
100
AcDbCircle
 10
111.8287285507808
 20
445.1595780236898
 30
0.0
 40
0.5
100
AcDbArc
 50
90.0
 51
180.0
  0
LINE
  5
26E1
330
1E
100
AcDbEntity
  8
STEMPEL
100
AcDbLine
 10
131.82872855078
 20
445.6595780236903
 30
0.0
 11
131.8287285507798
 21
439.6595780236883
 31
0.0
  0
LINE
  5
26E3
330
1E
100
AcDbEntity
  8
STEMPEL
100
AcDbLine
 10
145.8287285507798
 20
445.6595780236903
 30
0.0
 11
145.8287285507798
 21
439.6595780236885
 31
0.0
  0
LINE
  5
26E5
330
1E
100
AcDbEntity
  8
STEMPEL
100
AcDbLine
 10
121.0181750949127
 20
459.6595780236911
 30
0.0
 11
143.2489190268194
 21
459.6595780236894
 31
0.0
  0
LINE
  5
26F8
330
1E
100
AcDbEntity
  8
STEMPEL
100
AcDbLine
 10
143.8287285507803
 20
439.6595780236888
 30
0.0
 11
358.6690261528577
 21
439.6595780236901
 31
0.0
  0
ENDSEC
  0
SECTION
  2
OBJECTS
  0
DICTIONARY
  5
C
330
0
100
AcDbDictionary
281
     1
  3
ACAD_COLOR
350
DF
  3
ACAD_GROUP
350
D
  3
ACAD_LAYOUT
350
19
  3
ACAD_MATERIAL
350
DE
  3
ACAD_MLINESTYLE
350
16
  3
ACAD_PLOTSETTINGS
350
18
  3
ACAD_PLOTSTYLENAME
350
E
  3
AcDbVariableDictionary
350
EA
  0
DICTIONARY
  5
A0
330
1E
100
AcDbDictionary
280
     1
281
     1
  3
ACAD_LAYOUTSELFREF
360
D4
  0
DICTIONARY
  5
A2
330
1A
100
AcDbDictionary
280
     1
281
     1
  3
ACAD_LAYOUTSELFREF
360
D3
  0
DICTIONARY
  5
DF
102
{ACAD_REACTORS
330
C
102
}
330
C
100
AcDbDictionary
281
     1
  0
DICTIONARY
  5
D
102
{ACAD_REACTORS
330
C
102
}
330
C
100
AcDbDictionary
281
     1
  0
DICTIONARY
  5
19
102
{ACAD_REACTORS
330
C
102
}
330
C
100
AcDbDictionary
281
     1
  3
Layout1
350
1D
  3
Model
350
21
  0
DICTIONARY
  5
DE
102
{ACAD_REACTORS
330
C
102
}
330
C
100
AcDbDictionary
281
     1
  0
DICTIONARY
  5
16
102
{ACAD_REACTORS
330
C
102
}
330
C
100
AcDbDictionary
281
     1
  3
Standard
350
17
  0
DICTIONARY
  5
18
102
{ACAD_REACTORS
330
C
102
}
330
C
100
AcDbDictionary
281
     1
  0
ACDBDICTIONARYWDFLT
  5
E
102
{ACAD_REACTORS
330
C
102
}
330
C
100
AcDbDictionary
281
     1
  3
Normal
350
F
100
AcDbDictionaryWithDefault
340
F
  0
DICTIONARY
  5
EA
102
{ACAD_REACTORS
330
C
102
}
330
C
100
AcDbDictionary
281
     1
  3
DIMASSOC
350
EB
  3
PROJECTNAME
350
EC
  0
XRECORD
  5
D4
102
{ACAD_REACTORS
330
A0
102
}
330
A0
100
AcDbXrecord
280
     1
340
1E
  0
XRECORD
  5
D3
102
{ACAD_REACTORS
330
A2
102
}
330
A2
100
AcDbXrecord
280
     1
340
1A
  0
LAYOUT
  5
1D
102
{ACAD_REACTORS
330
19
102
}
330
19
100
AcDbPlotSettings
  1

  2
\\NT_WORK01\HP LaserJet 5000 PCL 6
  4

  6

 40
0.0
 41
0.0
 42
0.0
 43
0.0
 44
0.0
 45
0.0
 46
0.0
 47
0.0
 48
0.0
 49
0.0
140
0.0
141
0.0
142
1.0
143
1.0
 70
   688
 72
     0
 73
     0
 74
     5
  7

 75
    16
147
1.0
 76
     0
 77
     2
 78
   300
148
0.0
149
0.0
100
AcDbLayout
  1
Layout1
 70
     0
 71
     1
 10
0.0
 20
0.0
 11
12.0
 21
9.0
 12
0.0
 22
0.0
 32
0.0
 14
1.000000000000000E+20
 24
1.000000000000000E+20
 34
1.000000000000000E+20
 15
-1.000000000000000E+20
 25
-1.000000000000000E+20
 35
-1.000000000000000E+20
146
0.0
 13
0.0
 23
0.0
 33
0.0
 16
1.0
 26
0.0
 36
0.0
 17
0.0
 27
1.0
 37
0.0
 76
     0
330
1A
  0
LAYOUT
  5
21
102
{ACAD_REACTORS
330
19
102
}
330
19
100
AcDbPlotSettings
  1

  2
none_device
  4
Letter_(8.50_x_11.00_Inches)
  6

 40
6.349999904632568
 41
6.349999904632568
 42
6.350006103515625
 43
6.350006103515625
 44
215.8999938964844
 45
279.3999938964844
 46
0.0
 47
0.0
 48
0.0
 49
0.0
140
0.0
141
0.0
142
1.0
143
1.0
 70
 11952
 72
     0
 73
     1
 74
     0
  7

 75
     0
147
1.0
 76
     0
 77
     2
 78
   300
148
2286.605227809816
149
76.97378615064213
100
AcDbLayout
  1
Model
 70
     1
 71
     0
 10
0.0
 20
0.0
 11
12.0
 21
9.0
 12
0.0
 22
0.0
 32
0.0
 14
0.0
 24
0.0
 34
0.0
 15
0.0
 25
0.0
 35
0.0
146
0.0
 13
0.0
 23
0.0
 33
0.0
 16
1.0
 26
0.0
 36
0.0
 17
0.0
 27
1.0
 37
0.0
 76
     0
330
1E
  0
MLINESTYLE
  5
17
102
{ACAD_REACTORS
330
16
102
}
330
16
100
AcDbMlineStyle
  2
STANDARD
 70
     0
  3

 62
   256
 51
90.0
 52
90.0
 71
     2
 49
0.5
 62
   256
  6
BYLAYER
 49
-0.5
 62
   256
  6
BYLAYER
  0
ACDBPLACEHOLDER
  5
F
102
{ACAD_REACTORS
330
E
102
}
330
E
  0
DICTIONARYVAR
  5
EB
102
{ACAD_REACTORS
330
EA
102
}
330
EA
100
DictionaryVariables
280
     0
  1
1
  0
DICTIONARYVAR
  5
EC
102
{ACAD_REACTORS
330
EA
102
}
330
EA
100
DictionaryVariables
280
     0
  1

  0
ENDSEC
  0
EOF
