  0
SECTION
  2
HEADER
  9
$ACADVER
  1
AC1018
  9
$ACADMAINTVER
 70
     2
  9
$DWGCODEPAGE
  3
ANSI_1252
  9
$INSBASE
 10
0.0
 20
0.0
 30
0.0
  9
$EXTMIN
 10
0.0
 20
-0.0000000000000364
 30
0.0
  9
$EXTMAX
 10
594.0
 20
840.0000000000002
 30
0.0
  9
$LIMMIN
 10
0.0
 20
0.0
  9
$LIMMAX
 10
594.0
 20
840.0000000000002
  9
$ORTHOMODE
 70
     1
  9
$REGENMODE
 70
     1
  9
$FILLMODE
 70
     1
  9
$QTEXTMODE
 70
     0
  9
$MIRRTEXT
 70
     1
  9
$LTSCALE
 40
20.0
  9
$ATTMODE
 70
     1
  9
$TEXTSIZE
 40
2.5
  9
$TRACEWID
 40
0.5
  9
$TEXTSTYLE
  7
GREEKS
  9
$CLAYER
  8
SCHRAFF
  9
$CELTYPE
  6
BYLAYER
  9
$CECOLOR
 62
   256
  9
$CELTSCALE
 40
1.0
  9
$DISPSILH
 70
     0
  9
$DIMSCALE
 40
2.0
  9
$DIMASZ
 40
3.5
  9
$DIMEXO
 40
1.0
  9
$DIMDLI
 40
8.0
  9
$DIMRND
 40
0.0
  9
$DIMDLE
 40
0.0
  9
$DIMEXE
 40
1.5
  9
$DIMTP
 40
2.0
  9
$DIMTM
 40
2.0
  9
$DIMTXT
 40
3.5
  9
$DIMCEN
 40
1.5
  9
$DIMTSZ
 40
0.0
  9
$DIMTOL
 70
     0
  9
$DIMLIM
 70
     0
  9
$DIMTIH
 70
     0
  9
$DIMTOH
 70
     0
  9
$DIMSE1
 70
     0
  9
$DIMSE2
 70
     0
  9
$DIMTAD
 70
     1
  9
$DIMZIN
 70
     8
  9
$DIMBLK
  1

  9
$DIMASO
 70
     1
  9
$DIMSHO
 70
     0
  9
$DIMPOST
  1

  9
$DIMAPOST
  1

  9
$DIMALT
 70
     0
  9
$DIMALTD
 70
     2
  9
$DIMALTF
 40
25.4
  9
$DIMLFAC
 40
1.0
  9
$DIMTOFL
 70
     1
  9
$DIMTVP
 40
0.0
  9
$DIMTIX
 70
     0
  9
$DIMSOXD
 70
     0
  9
$DIMSAH
 70
     0
  9
$DIMBLK1
  1

  9
$DIMBLK2
  1

  9
$DIMSTYLE
  2
STANDARD
  9
$DIMCLRD
 70
     0
  9
$DIMCLRE
 70
     0
  9
$DIMCLRT
 70
     1
  9
$DIMTFAC
 40
1.0
  9
$DIMGAP
 40
1.5
  9
$DIMJUST
 70
     0
  9
$DIMSD1
 70
     0
  9
$DIMSD2
 70
     0
  9
$DIMTOLJ
 70
     1
  9
$DIMTZIN
 70
     8
  9
$DIMALTZ
 70
     8
  9
$DIMALTTZ
 70
     8
  9
$DIMUPT
 70
     0
  9
$DIMDEC
 70
     1
  9
$DIMTDEC
 70
     2
  9
$DIMALTU
 70
     2
  9
$DIMALTTD
 70
     2
  9
$DIMTXSTY
  7
GREEKS
  9
$DIMAUNIT
 70
     0
  9
$DIMADEC
 70
     0
  9
$DIMALTRND
 40
0.0
  9
$DIMAZIN
 70
     0
  9
$DIMDSEP
 70
    46
  9
$DIMATFIT
 70
     0
  9
$DIMFRAC
 70
     0
  9
$DIMLDRBLK
  1

  9
$DIMLUNIT
 70
     2
  9
$DIMLWD
 70
    -2
  9
$DIMLWE
 70
    -2
  9
$DIMTMOVE
 70
     0
  9
$LUNITS
 70
     2
  9
$LUPREC
 70
     2
  9
$SKETCHINC
 40
1.0
  9
$FILLETRAD
 40
0.0
  9
$AUNITS
 70
     0
  9
$AUPREC
 70
     0
  9
$MENU
  1
ACAD
  9
$ELEVATION
 40
0.0
  9
$PELEVATION
 40
0.0
  9
$THICKNESS
 40
0.0
  9
$LIMCHECK
 70
     0
  9
$CHAMFERA
 40
0.0
  9
$CHAMFERB
 40
0.0
  9
$CHAMFERC
 40
0.0
  9
$CHAMFERD
 40
0.0
  9
$SKPOLY
 70
     0
  9
$TDCREATE
 40
2452389.632394560
  9
$TDUCREATE
 40
2452389.590727894
  9
$TDUPDATE
 40
2455589.478548750
  9
$TDUUPDATE
 40
2455589.436882083
  9
$TDINDWG
 40
1.5963028241
  9
$TDUSRTIMER
 40
1.5963028241
  9
$USRTIMER
 70
     1
  9
$ANGBASE
 50
0.0
  9
$ANGDIR
 70
     0
  9
$PDMODE
 70
     0
  9
$PDSIZE
 40
0.0
  9
$PLINEWID
 40
0.0
  9
$SPLFRAME
 70
     0
  9
$SPLINETYPE
 70
     6
  9
$SPLINESEGS
 70
     8
  9
$HANDSEED
  5
170E
  9
$SURFTAB1
 70
     6
  9
$SURFTAB2
 70
     6
  9
$SURFTYPE
 70
     6
  9
$SURFU
 70
     6
  9
$SURFV
 70
     6
  9
$UCSBASE
  2

  9
$UCSNAME
  2

  9
$UCSORG
 10
0.0
 20
0.0
 30
0.0
  9
$UCSXDIR
 10
1.0
 20
0.0
 30
0.0
  9
$UCSYDIR
 10
0.0
 20
1.0
 30
0.0
  9
$UCSORTHOREF
  2

  9
$UCSORTHOVIEW
 70
     0
  9
$UCSORGTOP
 10
0.0
 20
0.0
 30
0.0
  9
$UCSORGBOTTOM
 10
0.0
 20
0.0
 30
0.0
  9
$UCSORGLEFT
 10
0.0
 20
0.0
 30
0.0
  9
$UCSORGRIGHT
 10
0.0
 20
0.0
 30
0.0
  9
$UCSORGFRONT
 10
0.0
 20
0.0
 30
0.0
  9
$UCSORGBACK
 10
0.0
 20
0.0
 30
0.0
  9
$PUCSBASE
  2

  9
$PUCSNAME
  2

  9
$PUCSORG
 10
0.0
 20
0.0
 30
0.0
  9
$PUCSXDIR
 10
1.0
 20
0.0
 30
0.0
  9
$PUCSYDIR
 10
0.0
 20
1.0
 30
0.0
  9
$PUCSORTHOREF
  2

  9
$PUCSORTHOVIEW
 70
     0
  9
$PUCSORGTOP
 10
0.0
 20
0.0
 30
0.0
  9
$PUCSORGBOTTOM
 10
0.0
 20
0.0
 30
0.0
  9
$PUCSORGLEFT
 10
0.0
 20
0.0
 30
0.0
  9
$PUCSORGRIGHT
 10
0.0
 20
0.0
 30
0.0
  9
$PUCSORGFRONT
 10
0.0
 20
0.0
 30
0.0
  9
$PUCSORGBACK
 10
0.0
 20
0.0
 30
0.0
  9
$USERI1
 70
     0
  9
$USERI2
 70
     0
  9
$USERI3
 70
     0
  9
$USERI4
 70
     0
  9
$USERI5
 70
     0
  9
$USERR1
 40
0.0
  9
$USERR2
 40
0.0
  9
$USERR3
 40
0.0
  9
$USERR4
 40
0.0
  9
$USERR5
 40
0.0
  9
$WORLDVIEW
 70
     1
  9
$SHADEDGE
 70
     3
  9
$SHADEDIF
 70
    70
  9
$TILEMODE
 70
     1
  9
$MAXACTVP
 70
    16
  9
$PINSBASE
 10
2.245140564963854
 20
50.00000000000001
 30
-1.032422173993944
  9
$PLIMCHECK
 70
     0
  9
$PEXTMIN
 10
1.000000000000000E+20
 20
1.000000000000000E+20
 30
1.000000000000000E+20
  9
$PEXTMAX
 10
-1.000000000000000E+20
 20
-1.000000000000000E+20
 30
-1.000000000000000E+20
  9
$PLIMMIN
 10
0.0
 20
0.0
  9
$PLIMMAX
 10
12.0
 20
9.0
  9
$UNITMODE
 70
     0
  9
$VISRETAIN
 70
     0
  9
$PLINEGEN
 70
     0
  9
$PSLTSCALE
 70
     0
  9
$TREEDEPTH
 70
  3020
  9
$CMLSTYLE
  2
STANDARD
  9
$CMLJUST
 70
     0
  9
$CMLSCALE
 40
1.0
  9
$PROXYGRAPHICS
 70
     1
  9
$MEASUREMENT
 70
     0
  9
$CELWEIGHT
370
    -1
  9
$ENDCAPS
280
     0
  9
$JOINSTYLE
280
     0
  9
$LWDISPLAY
290
     0
  9
$INSUNITS
 70
     0
  9
$HYPERLINKBASE
  1

  9
$STYLESHEET
  1
monochrome 1.ctb
  9
$XEDIT
290
     1
  9
$CEPSNTYPE
380
     0
  9
$PSTYLEMODE
290
     1
  9
$FINGERPRINTGUID
  2
{507F1FB5-30B5-4A41-960D-B0CCB142E103}
  9
$VERSIONGUID
  2
{5A655515-7081-4706-9A2C-4B208097B554}
  9
$EXTNAMES
290
     1
  9
$PSVPSCALE
 40
0.0
  9
$OLESTARTUP
290
     0
  9
$SORTENTS
280
    96
  9
$INDEXCTL
280
     0
  9
$HIDETEXT
280
     0
  9
$XCLIPFRAME
290
     0
  9
$HALOGAP
280
     0
  9
$OBSCOLOR
 70
   257
  9
$OBSLTYPE
280
     0
  9
$INTERSECTIONDISPLAY
280
     0
  9
$INTERSECTIONCOLOR
 70
   257
  9
$DIMASSOC
280
     1
  9
$PROJECTNAME
  1

  0
ENDSEC
  0
SECTION
  2
CLASSES
  0
CLASS
  1
DICTIONARYVAR
  2
AcDbDictionaryVar
  3
ObjectDBX Classes
 90
        0
 91
        3
280
     0
281
     0
  0
CLASS
  1
ACDBDICTIONARYWDFLT
  2
AcDbDictionaryWithDefault
  3
ObjectDBX Classes
 90
        0
 91
        1
280
     1
281
     0
  0
ENDSEC
  0
SECTION
  2
TABLES
  0
TABLE
  2
VPORT
  5
16
330
0
100
AcDbSymbolTable
 70
     2
  0
VPORT
  5
170D
330
16
100
AcDbSymbolTableRecord
100
AcDbViewportTableRecord
  2
*Active
 70
     0
 10
0.0
 20
0.0
 11
1.0
 21
1.0
 12
297.0
 22
420.0000000000001
 13
0.0
 23
0.0
 14
1.0
 24
1.0
 15
20.0
 25
20.0
 16
0.0
 26
0.0
 36
1.0
 17
0.0
 27
0.0
 37
0.0
 40
840.203994167763
 41
1.336927223719676
 42
50.0
 43
0.0
 44
0.0
 50
0.0
 51
0.0
 71
     0
 72
  1500
 73
     1
 74
     0
 75
     0
 76
     0
 77
     0
 78
     0
281
     0
 65
     1
110
0.0
120
0.0
130
0.0
111
1.0
121
0.0
131
0.0
112
0.0
122
1.0
132
0.0
 79
     0
146
0.0
  0
ENDTAB
  0
TABLE
  2
LTYPE
  5
11
330
0
100
AcDbSymbolTable
 70
     3
  0
LTYPE
  5
12
330
11
100
AcDbSymbolTableRecord
100
AcDbLinetypeTableRecord
  2
BYBLOCK
 70
     0
  3

 72
    65
 73
     0
 40
0.0
  0
LTYPE
  5
13
330
11
100
AcDbSymbolTableRecord
100
AcDbLinetypeTableRecord
  2
BYLAYER
 70
     0
  3

 72
    65
 73
     0
 40
0.0
  0
LTYPE
  5
7
330
11
100
AcDbSymbolTableRecord
100
AcDbLinetypeTableRecord
  2
AUSGEZOGEN
 70
     0
  3
Ausgezogene Linie
 72
    65
 73
     0
 40
0.0
  0
LTYPE
  5
7E
330
11
100
AcDbSymbolTableRecord
100
AcDbLinetypeTableRecord
  2
STRICHPUNKT
 70
     0
  3
__ . __ . __ . __ . __ . __ . __ . __ . __ . __
 72
    65
 73
     4
 40
1.0
 49
0.5
 74
     0
 49
-0.25
 74
     0
 49
0.0
 74
     0
 49
-0.25
 74
     0
  0
LTYPE
  5
79
330
11
100
AcDbSymbolTableRecord
100
AcDbLinetypeTableRecord
  2
Continuous
 70
     0
  3
Solid line
 72
    65
 73
     0
 40
0.0
  0
ENDTAB
  0
TABLE
  2
LAYER
  5
E
330
0
100
AcDbSymbolTable
 70
    10
  0
LAYER
  5
6
330
E
100
AcDbSymbolTableRecord
100
AcDbLayerTableRecord
  2
0
 70
     0
 62
     7
  6
AUSGEZOGEN
370
    -3
390
6A2
  0
LAYER
  5
386
330
E
100
AcDbSymbolTableRecord
100
AcDbLayerTableRecord
  2
VOLL
 70
     0
 62
     1
  6
AUSGEZOGEN
370
    -3
390
6A2
  0
LAYER
  5
39
330
E
100
AcDbSymbolTableRecord
100
AcDbLayerTableRecord
  2
HILF
 70
     0
 62
     2
  6
AUSGEZOGEN
370
    -3
390
6A2
  0
LAYER
  5
7D
330
E
100
AcDbSymbolTableRecord
100
AcDbLayerTableRecord
  2
MITTEL
 70
     0
 62
     2
  6
STRICHPUNKT
370
    -3
390
6A2
  0
LAYER
  5
28
330
E
100
AcDbSymbolTableRecord
100
AcDbLayerTableRecord
  2
BEM
 70
     0
 62
     7
  6
AUSGEZOGEN
370
    -3
390
6A2
  0
LAYER
  5
3B
330
E
100
AcDbSymbolTableRecord
100
AcDbLayerTableRecord
  2
STEMPEL
 70
     0
 62
     3
  6
AUSGEZOGEN
370
    -3
390
6A2
  0
LAYER
  5
31
330
E
100
AcDbSymbolTableRecord
100
AcDbLayerTableRecord
  2
DEFPOINTS
 70
     0
 62
     7
  6
AUSGEZOGEN
290
     0
370
    -3
390
6A2
  0
LAYER
  5
1F
330
E
100
AcDbSymbolTableRecord
100
AcDbLayerTableRecord
  2
SCHRAFF
 70
     0
 62
     7
  6
AUSGEZOGEN
370
    -3
390
6A2
  0
LAYER
  5
1C2
330
E
100
AcDbSymbolTableRecord
100
AcDbLayerTableRecord
  2
TEXT
 70
     0
 62
     7
  6
AUSGEZOGEN
370
    -3
390
6A2
  0
LAYER
  5
723
330
E
100
AcDbSymbolTableRecord
100
AcDbLayerTableRecord
  2
TEXT35
 70
     0
 62
     1
  6
AUSGEZOGEN
370
    -3
390
6A2
  0
ENDTAB
  0
TABLE
  2
STYLE
  5
F
330
0
100
AcDbSymbolTable
 70
     2
  0
STYLE
  5
10
330
F
100
AcDbSymbolTableRecord
100
AcDbTextStyleTableRecord
  2
STANDARD
 70
     0
 40
0.0
 41
0.8
 50
0.0
 71
     0
 42
3.5
  3
simplex.shx
  4

  0
STYLE
  5
20
330
F
100
AcDbSymbolTableRecord
100
AcDbTextStyleTableRecord
  2
GREEKS
 70
     0
 40
0.0
 41
0.8
 50
0.0
 71
     0
 42
2.5
  3
SIMPLEX.shx
  4

  0
ENDTAB
  0
TABLE
  2
VIEW
  5
14
330
0
100
AcDbSymbolTable
 70
     0
  0
ENDTAB
  0
TABLE
  2
UCS
  5
15
330
0
100
AcDbSymbolTable
 70
     0
  0
ENDTAB
  0
TABLE
  2
APPID
  5
18
330
0
100
AcDbSymbolTable
 70
     2
  0
APPID
  5
19
330
18
100
AcDbSymbolTableRecord
100
AcDbRegAppTableRecord
  2
ACAD
 70
     0
  0
APPID
  5
724
330
18
100
AcDbSymbolTableRecord
100
AcDbRegAppTableRecord
  2
RAK
 70
     0
  0
ENDTAB
  0
TABLE
  2
DIMSTYLE
  5
1A
330
0
100
AcDbSymbolTable
 70
     1
100
AcDbDimStyleTable
 71
     1
340
22
  0
DIMSTYLE
105
22
102
{ACAD_REACTORS
330
69
330
5C
330
BF
330
84
330
CD
330
139D
102
}
330
1A
100
AcDbSymbolTableRecord
100
AcDbDimStyleTableRecord
  2
STANDARD
 70
     0
 40
2.0
 41
3.5
 42
1.0
 43
8.0
 44
1.5
 47
2.0
 48
2.0
 73
     0
 74
     0
 77
     1
 78
     8
140
3.5
141
1.5
147
1.5
172
     1
178
     1
271
     1
272
     2
284
     8
285
     8
286
     8
289
     0
340
20
  0
ENDTAB
  0
TABLE
  2
BLOCK_RECORD
  5
1
330
0
100
AcDbSymbolTable
 70
     7
  0
BLOCK_RECORD
  5
2
102
{ACAD_XDICTIONARY
360
3
102
}
330
1
100
AcDbSymbolTableRecord
100
AcDbBlockTableRecord
  2
*MODEL_SPACE
340
6A7
  0
BLOCK_RECORD
  5
9
102
{ACAD_XDICTIONARY
360
A
102
}
330
1
100
AcDbSymbolTableRecord
100
AcDbBlockTableRecord
  2
*PAPER_SPACE
340
6A8
  0
BLOCK_RECORD
  5
364
330
1
100
AcDbSymbolTableRecord
100
AcDbBlockTableRecord
  2
LOGO
340
0
102
{BLKREFS
331
363
102
}
  0
BLOCK_RECORD
  5
5CE
330
1
100
AcDbSymbolTableRecord
100
AcDbBlockTableRecord
  2
*D1
340
0
  0
BLOCK_RECORD
  5
5DA
330
1
100
AcDbSymbolTableRecord
100
AcDbBlockTableRecord
  2
*D2
340
0
  0
BLOCK_RECORD
  5
EBE
330
1
100
AcDbSymbolTableRecord
100
AcDbBlockTableRecord
  2
*D3
340
0
  0
BLOCK_RECORD
  5
ECA
330
1
100
AcDbSymbolTableRecord
100
AcDbBlockTableRecord
  2
*D4
340
0
  0
BLOCK_RECORD
  5
139E
330
1
100
AcDbSymbolTableRecord
100
AcDbBlockTableRecord
  2
*D5
340
0
  0
BLOCK_RECORD
  5
15C8
330
1
100
AcDbSymbolTableRecord
100
AcDbBlockTableRecord
  2
*D6
340
0
  0
ENDTAB
  0
ENDSEC
  0
SECTION
  2
BLOCKS
  0
BLOCK
  5
5
330
2
100
AcDbEntity
  8
0
100
AcDbBlockBegin
  2
*MODEL_SPACE
 70
     0
 10
0.0
 20
0.0
 30
0.0
  3
*MODEL_SPACE
  1

  0
ENDBLK
  5
8
330
2
100
AcDbEntity
  8
0
100
AcDbBlockEnd
  0
BLOCK
  5
C
330
9
100
AcDbEntity
 67
     1
  8
0
100
AcDbBlockBegin
  2
*PAPER_SPACE
 70
     0
 10
0.0
 20
0.0
 30
0.0
  3
*PAPER_SPACE
  1

  0
ENDBLK
  5
D
330
9
100
AcDbEntity
 67
     1
  8
0
100
AcDbBlockEnd
  0
BLOCK
  5
37F
330
364
100
AcDbEntity
  8
0
100
AcDbBlockBegin
  2
LOGO
 70
     0
 10
0.0
 20
0.0
 30
0.0
  3
LOGO
  1

  0
ARC
  5
365
330
364
100
AcDbEntity
  8
0
100
AcDbCircle
 10
11.59973089678112
 20
-9.271599258481501
 30
0.0
 40
4.5
100
AcDbArc
 50
270.0
 51
231.0575587310159
  0
LINE
  5
366
330
364
100
AcDbEntity
  8
0
100
AcDbLine
 10
3.599730896781125
 20
-4.771599258481529
 30
0.0
 11
3.599730896781153
 21
-11.77159925848133
 31
0.0
  0
LINE
  5
367
330
364
100
AcDbEntity
  8
0
100
AcDbLine
 10
2.599730896781125
 20
-4.771599258481529
 30
0.0
 11
2.599730896781153
 21
-11.77159925848133
 31
0.0
  0
CIRCLE
  5
368
330
364
100
AcDbEntity
  8
0
100
AcDbCircle
 10
11.59973089678112
 20
-9.271599258481501
 30
0.0
 40
3.5
  0
ARC
  5
369
330
364
100
AcDbEntity
  8
0
100
AcDbCircle
 10
31.59973089678115
 20
-9.271599258481472
 30
0.0
 40
4.5
100
AcDbArc
 50
270.0
 51
231.0575587310182
  0
LINE
  5
36A
330
364
100
AcDbEntity
  8
0
100
AcDbLine
 10
17.59973089678112
 20
-4.771599258481472
 30
0.0
 11
17.59973089678115
 21
-13.77159925848147
 31
0.0
  0
ARC
  5
36B
330
364
100
AcDbEntity
  8
0
100
AcDbCircle
 10
22.59973089678116
 20
-7.271599258481472
 30
0.0
 40
2.5
100
AcDbArc
 50
293.1161887722295
 51
90.0
  0
CIRCLE
  5
36C
330
364
100
AcDbEntity
  8
0
100
AcDbCircle
 10
31.59973089678115
 20
-9.271599258481472
 30
0.0
 40
3.5
  0
ARC
  5
36D
330
364
100
AcDbEntity
  8
0
100
AcDbCircle
 10
4.599730896781153
 20
-11.77159925848133
 30
0.0
 40
1.0
100
AcDbArc
 50
180.0
 51
270.0
  0
ARC
  5
36E
330
364
100
AcDbEntity
  8
0
100
AcDbCircle
 10
4.599730896781153
 20
-11.77159925848133
 30
0.0
 40
2.0
100
AcDbArc
 50
179.9999999999992
 51
270.0
  0
LINE
  5
36F
330
364
100
AcDbEntity
  8
0
100
AcDbLine
 10
11.59973089678115
 20
-13.77159925848144
 30
0.0
 11
4.599730896781153
 21
-13.77159925848147
 31
0.0
  0
LINE
  5
370
330
364
100
AcDbEntity
  8
0
100
AcDbLine
 10
8.771303772034769
 20
-12.77159925848136
 30
0.0
 11
4.599730896781153
 21
-12.77159925848133
 31
0.0
  0
LINE
  5
371
330
364
100
AcDbEntity
  8
0
100
AcDbLine
 10
31.59973089678115
 20
-13.77159925848147
 30
0.0
 11
23.6715276665056
 21
-13.77159925848144
 31
0.0
  0
LINE
  5
372
330
364
100
AcDbEntity
  8
0
100
AcDbLine
 10
23.56565672307022
 20
-9.51278021337896
 30
0.0
 11
24.4388546544846
 21
-12.77159925848144
 31
0.0
  0
LINE
  5
373
330
364
100
AcDbEntity
  8
0
100
AcDbLine
 10
22.59973089678116
 20
-9.771599258481472
 30
0.0
 11
18.59973089678112
 21
-9.771599258481472
 31
0.0
  0
LINE
  5
374
330
364
100
AcDbEntity
  8
0
100
AcDbLine
 10
18.59973089678115
 20
-13.77159925848144
 30
0.0
 11
17.59973089678115
 21
-13.77159925848144
 31
0.0
  0
LINE
  5
375
330
364
100
AcDbEntity
  8
0
100
AcDbLine
 10
18.59973089678115
 20
-9.771599258481472
 30
0.0
 11
18.59973089678115
 21
-13.77159925848144
 31
0.0
  0
LINE
  5
376
330
364
100
AcDbEntity
  8
0
100
AcDbLine
 10
22.59973089678116
 20
-9.771599258481472
 30
0.0
 11
23.67152766650562
 21
-13.77159925848147
 31
0.0
  0
ARC
  5
377
330
364
100
AcDbEntity
  8
0
100
AcDbCircle
 10
22.59973089678116
 20
-7.271599258481472
 30
0.0
 40
2.5
100
AcDbArc
 50
270.0
 51
270.0000000000007
  0
LINE
  5
378
330
364
100
AcDbEntity
  8
0
100
AcDbLine
 10
28.77130377203494
 20
-12.77159925848147
 30
0.0
 11
24.43885465448463
 21
-12.77159925848144
 31
0.0
  0
LINE
  5
379
330
364
100
AcDbEntity
  8
0
100
AcDbLine
 10
3.599730896781125
 20
-4.771599258481472
 30
0.0
 11
2.599730896781125
 21
-4.771599258481472
 31
0.0
  0
LINE
  5
37A
330
364
100
AcDbEntity
  8
0
100
AcDbLine
 10
22.59973089678116
 20
-8.771599258481472
 30
0.0
 11
18.59973089678115
 21
-8.771599258481472
 31
0.0
  0
LINE
  5
37B
330
364
100
AcDbEntity
  8
0
100
AcDbLine
 10
22.59973089678116
 20
-5.771599258481472
 30
0.0
 11
18.59973089678115
 21
-5.771599258481472
 31
0.0
  0
LINE
  5
37C
330
364
100
AcDbEntity
  8
0
100
AcDbLine
 10
22.59973089678116
 20
-4.771599258481472
 30
0.0
 11
17.59973089678115
 21
-4.771599258481472
 31
0.0
  0
LINE
  5
37D
330
364
100
AcDbEntity
  8
0
100
AcDbLine
 10
18.59973089678115
 20
-5.771599258481472
 30
0.0
 11
18.59973089678115
 21
-8.771599258481472
 31
0.0
  0
ARC
  5
37E
330
364
100
AcDbEntity
  8
0
100
AcDbCircle
 10
22.59973089678116
 20
-7.271599258481472
 30
0.0
 40
1.5
100
AcDbArc
 50
270.0
 51
90.0
  0
ENDBLK
  5
380
330
364
100
AcDbEntity
  8
0
100
AcDbBlockEnd
  0
BLOCK
  5
603
330
5CE
100
AcDbEntity
  8
0
100
AcDbBlockBegin
  2
*D1
 70
     1
 10
0.0
 20
0.0
 30
0.0
  3
*D1
  1

  0
LINE
  5
15DD
330
5CE
100
AcDbEntity
  8
BEM
 62
     0
370
    -2
100
AcDbLine
 10
98.81144273573267
 20
435.6969474850355
 30
0.0
 11
73.67042670526323
 21
435.6969474850355
 31
0.0
  0
LINE
  5
15DE
330
5CE
100
AcDbEntity
  8
BEM
 62
     0
370
    -2
100
AcDbLine
 10
98.81144273573267
 20
586.4040542662219
 30
0.0
 11
73.67042670526325
 21
586.4040542662219
 31
0.0
  0
LINE
  5
15DF
330
5CE
100
AcDbEntity
  8
BEM
 62
     0
370
    -2
100
AcDbLine
 10
76.67042670526322
 20
442.6969474850356
 30
0.0
 11
76.67042670526325
 21
579.4040542662219
 31
0.0
  0
SOLID
  5
15E0
330
5CE
100
AcDbEntity
  8
BEM
 62
     0
100
AcDbTrace
 10
75.50376003859655
 20
442.6969474850356
 30
0.0
 11
77.83709337192989
 21
442.6969474850356
 31
0.0
 12
76.67042670526322
 22
435.6969474850355
 32
0.0
 13
76.67042670526322
 23
435.6969474850355
 33
0.0
  0
SOLID
  5
15E1
330
5CE
100
AcDbEntity
  8
BEM
 62
     0
100
AcDbTrace
 10
75.50376003859658
 20
579.4040542662219
 30
0.0
 11
77.83709337192992
 21
579.4040542662219
 31
0.0
 12
76.67042670526325
 22
586.4040542662219
 32
0.0
 13
76.67042670526325
 23
586.4040542662219
 33
0.0
  0
MTEXT
  5
15E2
330
5CE
100
AcDbEntity
  8
BEM
 62
     1
100
AcDbMText
 10
70.17042670526315
 20
511.0505008756287
 30
0.0
 40
7.0
 41
0.0
 71
     5
 72
     1
  1
\A1;min.35 - max.200
  7
GREEKS
 11
0.0000000000000001
 21
1.0
 31
0.0
 73
     1
 44
1.0
  0
POINT
  5
15E3
330
5CE
100
AcDbEntity
  8
DEFPOINTS
 62
     0
100
AcDbPoint
 10
100.8114427357327
 20
435.6969474850355
 30
0.0
  0
POINT
  5
15E4
330
5CE
100
AcDbEntity
  8
DEFPOINTS
 62
     0
100
AcDbPoint
 10
100.8114427357327
 20
586.4040542662219
 30
0.0
  0
POINT
  5
15E5
330
5CE
100
AcDbEntity
  8
DEFPOINTS
 62
     0
100
AcDbPoint
 10
76.67042670526325
 20
586.4040542662219
 30
0.0
  0
ENDBLK
  5
60D
330
5CE
100
AcDbEntity
  8
0
100
AcDbBlockEnd
  0
BLOCK
  5
5F7
330
5DA
100
AcDbEntity
  8
0
100
AcDbBlockBegin
  2
*D2
 70
     1
 10
0.0
 20
0.0
 30
0.0
  3
*D2
  1

  0
LINE
  5
1519
330
5DA
100
AcDbEntity
  8
BEM
 62
     0
370
    -2
100
AcDbLine
 10
98.81144273573267
 20
435.6969474850355
 30
0.0
 11
73.79865599298085
 21
435.6969474850355
 31
0.0
  0
LINE
  5
151A
330
5DA
100
AcDbEntity
  8
BEM
 62
     0
370
    -2
100
AcDbLine
 10
198.0037123688533
 20
125.6969474850347
 30
0.0
 11
73.79865599298078
 21
125.6969474850347
 31
0.0
  0
LINE
  5
151B
330
5DA
100
AcDbEntity
  8
BEM
 62
     0
370
    -2
100
AcDbLine
 10
76.79865599298086
 20
428.6969474850356
 30
0.0
 11
76.79865599298079
 21
132.6969474850347
 31
0.0
  0
SOLID
  5
151C
330
5DA
100
AcDbEntity
  8
BEM
 62
     0
100
AcDbTrace
 10
75.63198932631419
 20
428.6969474850356
 30
0.0
 11
77.96532265964753
 21
428.6969474850356
 31
0.0
 12
76.79865599298086
 22
435.6969474850355
 32
0.0
 13
76.79865599298086
 23
435.6969474850355
 33
0.0
  0
SOLID
  5
151D
330
5DA
100
AcDbEntity
  8
BEM
 62
     0
100
AcDbTrace
 10
75.63198932631411
 20
132.6969474850347
 30
0.0
 11
77.96532265964746
 21
132.6969474850347
 31
0.0
 12
76.79865599298079
 22
125.6969474850347
 32
0.0
 13
76.79865599298079
 23
125.6969474850347
 33
0.0
  0
MTEXT
  5
151E
330
5DA
100
AcDbEntity
  8
BEM
 62
     1
100
AcDbMText
 10
70.29865599298076
 20
280.6969474850351
 30
0.0
 40
7.0
 41
0.0
 71
     5
 72
     1
  1
\A1;310
  7
GREEKS
 11
0.0000000000000001
 21
1.0
 31
0.0
 73
     1
 44
1.0
  0
POINT
  5
151F
330
5DA
100
AcDbEntity
  8
DEFPOINTS
 62
     0
100
AcDbPoint
 10
100.8114427357327
 20
435.6969474850355
 30
0.0
  0
POINT
  5
1520
330
5DA
100
AcDbEntity
  8
DEFPOINTS
 62
     0
100
AcDbPoint
 10
200.0037123688533
 20
125.6969474850347
 30
0.0
  0
POINT
  5
1521
330
5DA
100
AcDbEntity
  8
DEFPOINTS
 62
     0
100
AcDbPoint
 10
76.79865599298079
 20
125.6969474850347
 30
0.0
  0
ENDBLK
  5
601
330
5DA
100
AcDbEntity
  8
0
100
AcDbBlockEnd
  0
BLOCK
  5
EC8
330
EBE
100
AcDbEntity
  8
0
100
AcDbBlockBegin
  2
*D3
 70
     1
 10
0.0
 20
0.0
 30
0.0
  3
*D3
  1

  0
LINE
  5
F3B
330
EBE
100
AcDbEntity
  8
BEM
 62
     0
370
    -2
100
AcDbLine
 10
140.8114427357327
 20
684.4039962989056
 30
0.0
 11
140.8114427357327
 21
717.3031594821897
 31
0.0
  0
LINE
  5
F3C
330
EBE
100
AcDbEntity
  8
BEM
 62
     0
370
    -2
100
AcDbLine
 10
360.811442735733
 20
684.4039962989056
 30
0.0
 11
360.811442735733
 21
717.3031594821897
 31
0.0
  0
LINE
  5
F3D
330
EBE
100
AcDbEntity
  8
BEM
 62
     0
370
    -2
100
AcDbLine
 10
147.8114427357327
 20
714.3031594821897
 30
0.0
 11
353.811442735733
 21
714.3031594821897
 31
0.0
  0
SOLID
  5
F3E
330
EBE
100
AcDbEntity
  8
BEM
 62
     0
100
AcDbTrace
 10
147.8114427357327
 20
715.4698261488563
 30
0.0
 11
147.8114427357327
 21
713.136492815523
 31
0.0
 12
140.8114427357327
 22
714.3031594821897
 32
0.0
 13
140.8114427357327
 23
714.3031594821897
 33
0.0
  0
SOLID
  5
F3F
330
EBE
100
AcDbEntity
  8
BEM
 62
     0
100
AcDbTrace
 10
353.811442735733
 20
715.4698261488563
 30
0.0
 11
353.811442735733
 21
713.136492815523
 31
0.0
 12
360.811442735733
 22
714.3031594821897
 32
0.0
 13
360.811442735733
 23
714.3031594821897
 33
0.0
  0
MTEXT
  5
F40
330
EBE
100
AcDbEntity
  8
BEM
 62
     1
100
AcDbMText
 10
250.8114427357329
 20
720.8031594821896
 30
0.0
 40
7.0
 41
0.0
 71
     5
 72
     1
  1
\A1;%%c220
  7
GREEKS
 73
     1
 44
1.0
  0
POINT
  5
F41
330
EBE
100
AcDbEntity
  8
DEFPOINTS
 62
     0
100
AcDbPoint
 10
140.8114427357327
 20
682.4039962989055
 30
0.0
  0
POINT
  5
F42
330
EBE
100
AcDbEntity
  8
DEFPOINTS
 62
     0
100
AcDbPoint
 10
360.811442735733
 20
682.4039962989055
 30
0.0
  0
POINT
  5
F43
330
EBE
100
AcDbEntity
  8
DEFPOINTS
 62
     0
100
AcDbPoint
 10
360.811442735733
 20
714.3031594821897
 30
0.0
  0
ENDBLK
  5
EC9
330
EBE
100
AcDbEntity
  8
0
100
AcDbBlockEnd
  0
BLOCK
  5
ED4
330
ECA
100
AcDbEntity
  8
0
100
AcDbBlockBegin
  2
*D4
 70
     1
 10
0.0
 20
0.0
 30
0.0
  3
*D4
  1

  0
LINE
  5
15E6
330
ECA
100
AcDbEntity
  8
BEM
 62
     0
370
    -2
100
AcDbLine
 10
100.8114427357327
 20
591.404054266221
 30
0.0
 11
100.8114427357327
 21
732.9373467644501
 31
0.0
  0
LINE
  5
15E7
330
ECA
100
AcDbEntity
  8
BEM
 62
     0
370
    -2
100
AcDbLine
 10
400.8114427357328
 20
591.4881716762242
 30
0.0
 11
400.8114427357328
 21
732.9373467644501
 31
0.0
  0
LINE
  5
15E8
330
ECA
100
AcDbEntity
  8
BEM
 62
     0
370
    -2
100
AcDbLine
 10
107.8114427357327
 20
729.9373467644501
 30
0.0
 11
393.8114427357328
 21
729.9373467644501
 31
0.0
  0
SOLID
  5
15E9
330
ECA
100
AcDbEntity
  8
BEM
 62
     0
100
AcDbTrace
 10
107.8114427357327
 20
731.1040134311167
 30
0.0
 11
107.8114427357327
 21
728.7706800977835
 31
0.0
 12
100.8114427357327
 22
729.9373467644501
 32
0.0
 13
100.8114427357327
 23
729.9373467644501
 33
0.0
  0
SOLID
  5
15EA
330
ECA
100
AcDbEntity
  8
BEM
 62
     0
100
AcDbTrace
 10
393.8114427357328
 20
731.1040134311167
 30
0.0
 11
393.8114427357328
 21
728.7706800977835
 31
0.0
 12
400.8114427357328
 22
729.9373467644501
 32
0.0
 13
400.8114427357328
 23
729.9373467644501
 33
0.0
  0
MTEXT
  5
15EB
330
ECA
100
AcDbEntity
  8
BEM
 62
     1
100
AcDbMText
 10
250.8114427357327
 20
736.4373467644501
 30
0.0
 40
7.0
 41
0.0
 71
     5
 72
     1
  1
\A1;%%c300
  7
GREEKS
 73
     1
 44
1.0
  0
POINT
  5
15EC
330
ECA
100
AcDbEntity
  8
DEFPOINTS
 62
     0
100
AcDbPoint
 10
100.8114427357327
 20
589.4040542662209
 30
0.0
  0
POINT
  5
15ED
330
ECA
100
AcDbEntity
  8
DEFPOINTS
 62
     0
100
AcDbPoint
 10
400.8114427357328
 20
589.4881716762243
 30
0.0
  0
POINT
  5
15EE
330
ECA
100
AcDbEntity
  8
DEFPOINTS
 62
     0
100
AcDbPoint
 10
400.8114427357328
 20
729.9373467644501
 30
0.0
  0
ENDBLK
  5
ED5
330
ECA
100
AcDbEntity
  8
0
100
AcDbBlockEnd
  0
BLOCK
  5
13A8
330
139E
100
AcDbEntity
  8
0
100
AcDbBlockBegin
  2
*D5
 70
     1
 10
0.0
 20
0.0
 30
0.0
  3
*D5
  1

  0
LINE
  5
1510
330
139E
100
AcDbEntity
  8
BEM
 62
     0
370
    -2
100
AcDbLine
 10
199.3114427357325
 20
131.609625599218
 30
0.0
 11
199.3114427357325
 21
105.3351329491179
 31
0.0
  0
LINE
  5
1511
330
139E
100
AcDbEntity
  8
BEM
 62
     0
370
    -2
100
AcDbLine
 10
302.3114427357327
 20
131.609625599218
 30
0.0
 11
302.3114427357327
 21
105.3351329491179
 31
0.0
  0
LINE
  5
1512
330
139E
100
AcDbEntity
  8
BEM
 62
     0
370
    -2
100
AcDbLine
 10
206.3114427357326
 20
108.3351329491179
 30
0.0
 11
295.3114427357327
 21
108.3351329491179
 31
0.0
  0
SOLID
  5
1513
330
139E
100
AcDbEntity
  8
BEM
 62
     0
100
AcDbTrace
 10
206.3114427357326
 20
109.5017996157846
 30
0.0
 11
206.3114427357326
 21
107.1684662824512
 31
0.0
 12
199.3114427357325
 22
108.3351329491179
 32
0.0
 13
199.3114427357325
 23
108.3351329491179
 33
0.0
  0
SOLID
  5
1514
330
139E
100
AcDbEntity
  8
BEM
 62
     0
100
AcDbTrace
 10
295.3114427357327
 20
109.5017996157846
 30
0.0
 11
295.3114427357327
 21
107.1684662824512
 31
0.0
 12
302.3114427357327
 22
108.3351329491179
 32
0.0
 13
302.3114427357327
 23
108.3351329491179
 33
0.0
  0
MTEXT
  5
1515
330
139E
100
AcDbEntity
  8
BEM
 62
     1
100
AcDbMText
 10
250.8114427357327
 20
114.8351329491179
 30
0.0
 40
7.0
 41
0.0
 71
     5
 72
     1
  1
\A1;%%c103
  7
GREEKS
 73
     1
 44
1.0
  0
POINT
  5
1516
330
139E
100
AcDbEntity
  8
DEFPOINTS
 62
     0
100
AcDbPoint
 10
199.3114427357325
 20
133.609625599218
 30
0.0
  0
POINT
  5
1517
330
139E
100
AcDbEntity
  8
DEFPOINTS
 62
     0
100
AcDbPoint
 10
302.3114427357327
 20
133.609625599218
 30
0.0
  0
POINT
  5
1518
330
139E
100
AcDbEntity
  8
DEFPOINTS
 62
     0
100
AcDbPoint
 10
302.3114427357327
 20
108.3351329491179
 30
0.0
  0
ENDBLK
  5
13A9
330
139E
100
AcDbEntity
  8
0
100
AcDbBlockEnd
  0
BLOCK
  5
15D2
330
15C8
100
AcDbEntity
  8
0
100
AcDbBlockBegin
  2
*D6
 70
     1
 10
0.0
 20
0.0
 30
0.0
  3
*D6
  1

  0
LINE
  5
15C9
330
15C8
100
AcDbEntity
  8
BEM
 62
     0
370
    -2
100
AcDbLine
 10
106.8114427357327
 20
592.404054266221
 30
0.0
 11
73.67042670526323
 21
592.404054266221
 31
0.0
  0
LINE
  5
15CA
330
15C8
100
AcDbEntity
  8
BEM
 62
     0
370
    -2
100
AcDbLine
 10
168.8114427357327
 20
702.4040542662202
 30
0.0
 11
73.67042670526325
 21
702.4040542662202
 31
0.0
  0
LINE
  5
15CB
330
15C8
100
AcDbEntity
  8
BEM
 62
     0
370
    -2
100
AcDbLine
 10
76.67042670526322
 20
599.404054266221
 30
0.0
 11
76.67042670526325
 21
695.4040542662202
 31
0.0
  0
SOLID
  5
15CC
330
15C8
100
AcDbEntity
  8
BEM
 62
     0
100
AcDbTrace
 10
75.50376003859655
 20
599.404054266221
 30
0.0
 11
77.83709337192989
 21
599.404054266221
 31
0.0
 12
76.67042670526322
 22
592.404054266221
 32
0.0
 13
76.67042670526322
 23
592.404054266221
 33
0.0
  0
SOLID
  5
15CD
330
15C8
100
AcDbEntity
  8
BEM
 62
     0
100
AcDbTrace
 10
75.50376003859658
 20
695.4040542662202
 30
0.0
 11
77.83709337192992
 21
695.4040542662202
 31
0.0
 12
76.67042670526325
 22
702.4040542662202
 32
0.0
 13
76.67042670526325
 23
702.4040542662202
 33
0.0
  0
MTEXT
  5
15CE
330
15C8
100
AcDbEntity
  8
BEM
 62
     1
100
AcDbMText
 10
70.17042670526314
 20
647.4040542662205
 30
0.0
 40
7.0
 41
0.0
 71
     5
 72
     1
  1
\A1;110
  7
GREEKS
 11
0.0000000000000001
 21
1.0
 31
0.0
 73
     1
 44
1.0
  0
POINT
  5
15CF
330
15C8
100
AcDbEntity
  8
DEFPOINTS
 62
     0
100
AcDbPoint
 10
108.8114427357327
 20
592.404054266221
 30
0.0
  0
POINT
  5
15D0
330
15C8
100
AcDbEntity
  8
DEFPOINTS
 62
     0
100
AcDbPoint
 10
170.8114427357327
 20
702.4040542662202
 30
0.0
  0
POINT
  5
15D1
330
15C8
100
AcDbEntity
  8
DEFPOINTS
 62
     0
100
AcDbPoint
 10
76.67042670526325
 20
702.4040542662202
 30
0.0
  0
ENDBLK
  5
15D3
330
15C8
100
AcDbEntity
  8
0
100
AcDbBlockEnd
  0
ENDSEC
  0
SECTION
  2
ENTITIES
  0
TEXT
  5
3F
330
2
100
AcDbEntity
  8
TEXT
100
AcDbText
 10
583.4462193823214
 20
836.4132055378062
 30
0.0
 40
4.0
  1
Diese Zeichnung ist urheberrechtlich geschuetzt und bleibt unser Eigentum. Sie darf weder ganz noch teilweise vervielfaeltigt und nicht an Dritte weitergegeben werden.
 50
180.0
 41
0.8
100
AcDbText
  0
LINE
  5
41
330
2
100
AcDbEntity
  8
STEMPEL
100
AcDbLine
 10
10.0
 20
40.0
 30
0.0
 11
584.0
 21
39.99999999999996
 31
0.0
  0
LINE
  5
42
330
2
100
AcDbEntity
  8
STEMPEL
100
AcDbLine
 10
584.0
 20
830.0
 30
0.0
 11
10.0
 21
830.0
 31
0.0
  0
LINE
  5
43
330
2
100
AcDbEntity
  8
HILF
100
AcDbLine
 10
0.0
 20
0.0
 30
0.0
 11
594.0
 21
-0.0000000000000364
 31
0.0
  0
LINE
  5
44
330
2
100
AcDbEntity
  8
HILF
100
AcDbLine
 10
594.0
 20
840.0000000000002
 30
0.0
 11
0.0
 21
840.0000000000002
 31
0.0
  0
LINE
  5
46
330
2
100
AcDbEntity
  8
STEMPEL
100
AcDbLine
 10
120.8114427357325
 20
612.4040542662239
 30
0.0
 11
166.1685734814756
 21
612.4040542662235
 31
0.0
  0
LINE
  5
47
330
2
100
AcDbEntity
  8
STEMPEL
100
AcDbLine
 10
276.2509573307895
 20
702.4040542662207
 30
0.0
 11
330.811442735733
 21
702.4040542662211
 31
0.0
  0
LINE
  5
55
102
{ACAD_REACTORS
330
1609
102
}
330
2
100
AcDbEntity
  8
STEMPEL
100
AcDbLine
 10
100.8114427357327
 20
586.4040542662219
 30
0.0
 11
400.8114427357327
 21
586.404054266221
 31
0.0
  0
LINE
  5
58
102
{ACAD_REACTORS
330
1609
102
}
330
2
100
AcDbEntity
  8
STEMPEL
100
AcDbLine
 10
143.8114427357327
 20
589.4040542662209
 30
0.0
 11
400.8114427357327
 21
589.4040542662209
 31
0.0
  0
LINE
  5
5A
330
2
100
AcDbEntity
  8
STEMPEL
100
AcDbLine
 10
108.8114427357327
 20
598.404054266221
 30
0.0
 11
164.713993933784
 21
598.4040542662208
 31
0.0
  0
LINE
  5
5B
330
2
100
AcDbEntity
  8
STEMPEL
100
AcDbLine
 10
392.8114427357327
 20
592.404054266221
 30
0.0
 11
143.8114427357327
 21
592.404054266221
 31
0.0
  0
DIMENSION
  5
5C
330
2
100
AcDbEntity
  8
BEM
100
AcDbDimension
  2
*D3
 10
360.811442735733
 20
714.3031594821897
 30
0.0
 11
250.8114427357329
 21
720.8031594821896
 31
0.0
 70
    32
  1
%%c<>
 71
     5
 42
220.0000000000002
  3
STANDARD
100
AcDbAlignedDimension
 13
140.8114427357327
 23
682.4039962989055
 33
0.0
 14
360.811442735733
 24
682.4039962989055
 34
0.0
100
AcDbRotatedDimension
  0
DIMENSION
  5
69
330
2
100
AcDbEntity
  8
BEM
100
AcDbDimension
  2
*D4
 10
400.8114427357328
 20
729.9373467644501
 30
0.0
 11
250.8114427357327
 21
736.4373467644501
 31
0.0
 70
    32
  1
%%c<>
 71
     5
 42
300.0000000000001
  3
STANDARD
100
AcDbAlignedDimension
 13
100.8114427357327
 23
589.4040542662209
 33
0.0
 14
400.8114427357328
 24
589.4881716762243
 34
0.0
100
AcDbRotatedDimension
  0
LINE
  5
77
330
2
100
AcDbEntity
  8
STEMPEL
100
AcDbLine
 10
170.8114427357327
 20
701.4040542662201
 30
0.0
 11
330.811442735733
 21
701.4040542662211
 31
0.0
  0
HATCH
  5
78
330
2
100
AcDbEntity
  8
SCHRAFF
  6
Continuous
100
AcDbHatch
 10
0.0
 20
0.0
 30
0.0
210
0.0
220
0.0
230
1.0
  2
ANSI31
 70
     0
 71
     0
 91
        4
 92
        7
 72
     1
 73
     1
 93
       44
 10
141.8114427357328
 20
682.4039962989055
 42
-0.266750395150088
 10
144.2920891676056
 20
686.7228917131018
 42
0.0
 10
168.2709430605466
 20
700.7105448792811
 42
-0.134038508411906
 10
170.8114427357326
 20
701.4040542662201
 42
0.0
 10
225.5498049080821
 20
701.4040542662207
 42
0.2679491924311371
 10
227.7148684175433
 20
702.6540542662206
 42
-0.2679491924311204
 10
228.1478811194355
 20
702.9040542662206
 42
0.0
 10
228.3478811194356
 20
702.9040542662206
 42
-0.2679491924312574
 10
228.7808938213282
 20
702.6540542662209
 42
0.2679491924311556
 10
230.9459573307894
 20
701.4040542662207
 42
0.0
 10
233.0048049080818
 20
701.4040542662207
 42
0.2679491924311518
 10
235.1698684175431
 20
702.6540542662206
 42
-0.2679491924310975
 10
235.6028811194352
 20
702.9040542662206
 42
0.0
 10
235.8028811194356
 20
702.9040542662206
 42
-0.2679491924309788
 10
236.2358938213275
 20
702.6540542662206
 42
0.2679491924311251
 10
238.4009573307885
 20
701.4040542662207
 42
0.0
 10
244.8548049080828
 20
701.4040542662207
 42
0.2679491924310973
 10
247.0198684175437
 20
702.6540542662204
 42
-0.2679491924312862
 10
247.452881119436
 20
702.9040542662206
 42
0.0
 10
250.8114427357328
 20
702.9040542662208
 42
0.0
 10
250.8114427357328
 20
703.9040542662206
 42
0.0
 10
247.4528811194354
 20
703.9040542662206
 42
0.2679491924310756
 10
246.153843013759
 20
703.1540542662206
 42
-0.2679491924311246
 10
244.8548049080824
 20
702.4040542662207
 42
0.0
 10
238.4009573307885
 20
702.4040542662207
 42
-0.2679491924310962
 10
237.101919225112
 20
703.1540542662206
 42
0.2859076546238575
 10
235.7028811194354
 20
703.9007172209302
 42
0.2859076546238756
 10
234.3038430137587
 20
703.1540542662206
 42
-0.2679491924311237
 10
233.004804908082
 20
702.4040542662207
 42
0.0
 10
230.9459573307895
 20
702.4040542662207
 42
-0.2679491924311723
 10
229.6469192251126
 20
703.1540542662206
 42
0.2859076546238861
 10
228.2478811194358
 20
703.9007172209302
 42
0.2859076546239122
 10
226.8488430137589
 20
703.1540542662206
 42
-0.2679491924311319
 10
225.5498049080822
 20
702.4040542662207
 42
0.0
 10
170.8114427357326
 20
702.4040542662202
 42
0.1316524975837886
 10
167.8114427358063
 20
701.6002066889697
 42
0.0
 10
143.7787481140354
 20
687.5811348262706
 42
0.2662608607109036
 10
140.8114427357327
 20
682.4039962989055
 42
0.0
 10
140.8114427357327
 20
618.4040542662216
 42
-0.4142135623730909
 10
135.8114427357328
 20
613.4040542662216
 42
0.0
 10
120.8114427357325
 20
613.4040542662211
 42
0.0
 10
120.8114427357324
 20
612.4040542662211
 42
0.0
 10
135.8114427357328
 20
612.4040542662211
 42
0.4142135623730952
 10
141.8114427357328
 20
618.4040542662211
 42
0.0
 97
        0
 92
        7
 72
     1
 73
     1
 93
       31
 10
310.9537870812218
 20
702.4040542662211
 42
0.0
 10
276.2509573307895
 20
702.4040542662207
 42
-0.2679491924311948
 10
274.9519192251125
 20
703.1540542662206
 42
0.2859076546239628
 10
273.5528811194352
 20
703.9007172209302
 42
0.2859076546237491
 10
272.1538430137592
 20
703.1540542662206
 42
-0.2679491924311143
 10
270.8548049080826
 20
702.4040542662207
 42
0.0
 10
264.4009573307891
 20
702.4040542662207
 42
-0.2679491924311449
 10
263.1019192251123
 20
703.1540542662206
 42
0.2859076546238161
 10
261.7028811194359
 20
703.9007172209304
 42
0.3607372083888945
 10
260.1505123646077
 20
702.7790542662207
 42
-0.3419987131196436
 10
259.6663894463318
 20
702.4040542662207
 42
0.0
 10
259.4776402537324
 20
702.4040542662207
 42
-0.3419987131195289
 10
258.9935173354567
 20
702.7790542662207
 42
0.3419987131196487
 10
257.5411485806289
 20
703.9040542662206
 42
0.0
 10
250.8114427357328
 20
703.9040542662206
 42
0.0
 10
250.8114427357328
 20
702.9040542662206
 42
0.0
 10
257.5411485806291
 20
702.9040542662206
 42
-0.3419987131195064
 10
258.0252714989047
 20
702.5290542662206
 42
0.3596757619904947
 10
259.572014850032
 20
701.4070260648919
 42
0.3596757619905158
 10
261.1187582011594
 20
702.5290542662206
 42
-0.3419987131196715
 10
261.6028811194353
 20
702.9040542662206
 42
0.0
 10
261.8028811194356
 20
702.9040542662206
 42
-0.2679491924311643
 10
262.2358938213279
 20
702.6540542662206
 42
0.2679491924311343
 10
264.4009573307891
 20
701.4040542662207
 42
0.0
 10
270.8548049080831
 20
701.4040542662207
 42
0.2679491924310781
 10
273.0198684175439
 20
702.6540542662204
 42
-0.2679491924312612
 10
273.4528811194362
 20
702.9040542662206
 42
0.0
 10
273.6528811194355
 20
702.9040542662206
 42
-0.2679491924313018
 10
274.0858938213281
 20
702.6540542662209
 42
0.2679491924311476
 10
276.2509573307895
 20
701.4040542662207
 42
0.0
 10
311.4544904074157
 20
701.4040542662211
 42
0.0
 97
        0
 92
        7
 72
     1
 73
     1
 93
       16
 10
330.811442735733
 20
702.4040542662211
 42
0.0
 10
310.9537870812219
 20
702.4040542662211
 42
0.0
 10
311.4544904074157
 20
701.4040542662208
 42
0.0
 10
330.811442735733
 20
701.4040542662211
 42
-0.1340385084118612
 10
333.351942410918
 20
700.7105448792819
 42
0.0
 10
357.33079630386
 20
686.7228917131018
 42
-0.2667503951500871
 10
359.8114427357328
 20
682.4039962989055
 42
0.0
 10
359.8114427357328
 20
618.4040542662216
 42
0.4142135623731166
 10
365.8114427357328
 20
612.4040542662211
 42
0.0
 10
368.8114427357327
 20
612.4040542662211
 42
0.0
 10
368.8114427357327
 20
613.4040542662213
 42
0.0
 10
365.8114427357326
 20
613.4040542662216
 42
-0.4142135623730784
 10
360.811442735733
 20
618.4040542662216
 42
0.0
 10
360.811442735733
 20
682.4039962989055
 42
0.2662608607107455
 10
357.8441373574333
 20
687.5811348262687
 42
0.0
 10
333.8114427356562
 20
701.6002066889715
 42
0.131652497583648
 97
        0
 92
        7
 72
     0
 73
     1
 93
        4
 10
380.8114427357327
 20
613.4040542662211
 10
376.8114427357327
 20
613.4040542662211
 10
376.8114427357327
 20
612.4040542662211
 10
380.8114427357327
 20
612.4040542662211
 97
        0
 75
     0
 76
     1
 52
0.0
 41
20.0
 77
     0
 78
     1
 53
45.0
 43
12.36797118105764
 44
195.5777039177075
 45
-1.767766952966368
 46
1.767766952966368
 79
     0
 47
0.4197568243763778
 98
        4
 10
141.506849742332
 20
651.4795421461889
 10
295.6742534601561
 20
701.8503623205282
 10
328.0200016183193
 20
701.8503623205282
 10
378.0088879642593
 20
612.8619139912686
  0
LINE
  5
7C
330
2
100
AcDbEntity
  8
MITTEL
100
AcDbLine
 10
250.8114427357328
 20
709.9040542662207
 30
0.0
 11
250.8114427357327
 21
122.4647144380011
 31
0.0
  0
DIMENSION
  5
84
330
2
100
AcDbEntity
  8
BEM
100
AcDbDimension
  2
*D2
 10
76.79865599298079
 20
125.6969474850347
 30
0.0
 11
70.29865599298076
 21
280.6969474850351
 31
0.0
 70
    32
 71
     5
 42
310.0000000000008
  3
STANDARD
100
AcDbAlignedDimension
 13
100.8114427357327
 23
435.6969474850355
 33
0.0
 14
200.0037123688533
 24
125.6969474850347
 34
0.0
 50
90.0
100
AcDbRotatedDimension
1001
ACAD
1000
DSTYLE
1002
{
1070
   284
1070
     8
1070
    47
1040
4.0
1070
    48
1040
2.0
1070
   146
1040
0.5
1002
}
  0
LINE
  5
92
330
2
100
AcDbEntity
  8
STEMPEL
100
AcDbLine
 10
10.0
 20
830.0
 30
0.0
 11
10.0
 21
40.0
 31
0.0
  0
LINE
  5
93
330
2
100
AcDbEntity
  8
HILF
100
AcDbLine
 10
0.0
 20
840.0000000000002
 30
0.0
 11
0.0
 21
0.0
 31
0.0
  0
ARC
  5
BA
330
2
100
AcDbEntity
  8
STEMPEL
100
AcDbCircle
 10
108.8114427357327
 20
595.404054266221
 30
0.0
 40
3.0
100
AcDbArc
 50
89.99999999999946
 51
270.0000000000005
  0
LINE
  5
BB
102
{ACAD_REACTORS
330
1609
102
}
330
2
100
AcDbEntity
  8
STEMPEL
100
AcDbLine
 10
100.8114427357327
 20
589.4040542662209
 30
0.0
 11
133.8114427357327
 21
589.4040542662209
 31
0.0
  0
LINE
  5
BD
330
2
100
AcDbEntity
  8
STEMPEL
100
AcDbLine
 10
108.8114427357327
 20
592.404054266221
 30
0.0
 11
133.8114427357327
 21
592.404054266221
 31
0.0
  0
DIMENSION
  5
BF
330
2
100
AcDbEntity
  8
BEM
100
AcDbDimension
  2
*D6
 10
76.67042670526325
 20
702.4040542662202
 30
0.0
 11
70.17042670526314
 21
647.4040542662205
 31
0.0
 70
    32
 71
     5
 42
109.9999999999992
  3
STANDARD
100
AcDbAlignedDimension
 13
108.8114427357327
 23
592.404054266221
 33
0.0
 14
170.8114427357327
 24
702.4040542662202
 34
0.0
 50
90.0
100
AcDbRotatedDimension
  0
LINE
  5
CC
330
2
100
AcDbEntity
  8
HILF
100
AcDbLine
 10
10.0
 20
460.0000000000001
 30
0.0
 11
0.0
 21
460.0000000000001
 31
0.0
  0
DIMENSION
  5
CD
330
2
100
AcDbEntity
  8
BEM
100
AcDbDimension
  2
*D1
 10
76.67042670526325
 20
586.4040542662219
 30
0.0
 11
70.17042670526315
 21
511.0505008756287
 31
0.0
 70
    32
  1
min.35 - max.200
 71
     5
 42
150.7071067811863
  3
STANDARD
100
AcDbAlignedDimension
 13
100.8114427357327
 23
435.6969474850355
 33
0.0
 14
100.8114427357327
 24
586.4040542662219
 34
0.0
 50
90.0
100
AcDbRotatedDimension
  0
LINE
  5
E7
102
{ACAD_REACTORS
330
1609
102
}
330
2
100
AcDbEntity
  8
STEMPEL
100
AcDbLine
 10
100.8114427357327
 20
586.404054266221
 30
0.0
 11
100.8114427357327
 21
589.4040542662209
 31
0.0
  0
ARC
  5
E9
330
2
100
AcDbEntity
  8
STEMPEL
100
AcDbCircle
 10
146.8114427357328
 20
682.4039962989055
 30
0.0
 40
5.0
100
AcDbArc
 50
120.2564164748152
 51
180.0
  0
ARC
  5
EA
330
2
100
AcDbEntity
  8
STEMPEL
100
AcDbCircle
 10
146.8114427357328
 20
682.4039962989055
 30
0.0
 40
6.0
100
AcDbArc
 50
120.2564164748152
 51
180.0
  0
LWPOLYLINE
  5
147
330
2
100
AcDbEntity
  8
STEMPEL
100
AcDbPolyline
 90
       10
 70
   128
 43
0.0
 10
155.6114616180555
 20
612.4040542662211
 10
156.3692112431497
 20
612.4952077481479
 10
157.1039370293252
 20
612.7658985415056
 10
157.7933147053584
 20
613.2079018435144
 10
158.4163978794047
 20
613.8077876075072
 10
158.9542544845162
 20
614.547328608102
 10
159.3905420199151
 20
615.4040542662214
 10
159.7120041096104
 20
616.3519334062672
 10
159.9088732906744
 20
617.3621652002199
 10
159.9751677926612
 20
618.4040542662216
  0
LWPOLYLINE
  5
148
330
2
100
AcDbEntity
  8
STEMPEL
100
AcDbPolyline
 90
       10
 70
   128
 43
0.0
 10
148.4020040824057
 20
612.4040542662211
 10
149.2381833572473
 20
612.4952077481479
 10
150.0489557479498
 20
612.7658985415056
 10
150.8096863456927
 20
613.2079018435144
 10
151.4972607362115
 20
613.8077876075072
 10
152.0907873195799
 20
614.547328608102
 10
152.5722320909011
 20
615.4040542662214
 10
152.9269665944215
 20
616.3519334062672
 10
153.1442124017556
 20
617.3621652002199
 10
153.2173686089796
 20
618.4040542662216
  0
LWPOLYLINE
  5
149
330
2
100
AcDbEntity
  8
STEMPEL
100
AcDbPolyline
 90
       10
 70
   128
 43
0.0
 10
142.6617525969279
 20
612.4040542662211
 10
143.4979318717695
 20
612.4952077481479
 10
144.3087042624721
 20
612.7658985415056
 10
145.0694348602149
 20
613.2079018435144
 10
145.7570092507337
 20
613.8077876075072
 10
146.3505358341021
 20
614.547328608102
 10
146.8319806054233
 20
615.4040542662214
 10
147.1867151089437
 20
616.3519334062672
 10
147.4039609162779
 20
617.3621652002199
 10
147.4771171235018
 20
618.4040542662216
  0
LWPOLYLINE
  5
14A
330
2
100
AcDbEntity
  8
STEMPEL
100
AcDbPolyline
 90
        7
 70
   128
 43
0.0
 10
140.3647849628598
 20
613.4040542662216
 10
141.0414868379373
 20
614.0136549940806
 10
141.6410362615712
 20
614.7412140779921
 10
142.1473249347209
 20
615.5671839396724
 10
142.5467502267664
 20
616.4693729648755
 10
142.8285806420293
 20
617.4235417330693
 10
142.9852441465308
 20
618.4040542662216
  0
LWPOLYLINE
  5
14B
330
2
100
AcDbEntity
  8
STEMPEL
100
AcDbPolyline
 90
        7
 70
   128
 43
0.0
 10
150.1377426398037
 20
613.4040542662211
 10
150.7578331628681
 20
614.0133921680618
 10
151.2896533096514
 20
614.7408224413513
 10
151.7188991093827
 20
615.5667799352949
 10
152.03402545718
 20
616.4690494857572
 10
152.2265566341459
 20
617.4233634200003
 10
152.2913142724722
 20
618.4040542662216
  0
LWPOLYLINE
  5
14C
330
2
100
AcDbEntity
  8
STEMPEL
100
AcDbPolyline
 90
       10
 70
   128
 43
0.0
 10
138.4730341290377
 20
612.4040542662211
 10
139.3311071253104
 20
612.4701814807937
 10
140.1839193249327
 20
612.7227352305238
 10
141.0046776318497
 20
613.1537809468414
 10
141.7675959982486
 20
613.7497763172815
 10
142.4487055537479
 20
614.4919967490019
 10
143.0266076436936
 20
615.3571236457995
 10
143.4831461180998
 20
616.3179770165156
 10
143.8039777496974
 20
617.3443693982277
 10
143.9790228600685
 20
618.4040542662204
  0
LWPOLYLINE
  5
14D
330
2
100
AcDbEntity
  8
STEMPEL
100
AcDbPolyline
 90
       10
 70
   128
 43
0.0
 10
136.5151412457372
 20
612.4040542662222
 10
137.37321424201
 20
612.4701814807949
 10
138.2260264416322
 20
612.722735230525
 10
139.0467847485492
 20
613.1537809468426
 10
139.8097031149482
 20
613.7497763172824
 10
140.4908126704474
 20
614.4919967490032
 10
141.0687147603931
 20
615.3571236458007
 10
141.5252532347993
 20
616.3179770165166
 10
141.8460848663969
 20
617.3443693982289
 10
142.021129976768
 20
618.4040542662216
  0
ARC
  5
14E
330
2
100
AcDbEntity
  8
STEMPEL
100
AcDbCircle
 10
135.8114427357328
 20
618.4040542662216
 30
0.0
 40
5.0
100
AcDbArc
 50
270.0000000000017
 51
0.0
  0
ARC
  5
14F
330
2
100
AcDbEntity
  8
STEMPEL
100
AcDbCircle
 10
135.8114427357328
 20
618.4040542662216
 30
0.0
 40
6.0
100
AcDbArc
 50
270.0000000000017
 51
0.0
  0
LINE
  5
150
330
2
100
AcDbEntity
  8
STEMPEL
100
AcDbLine
 10
134.8114427357327
 20
611.4040542662216
 30
0.0
 11
133.8114427357327
 21
610.4040542662216
 31
0.0
  0
LINE
  5
151
330
2
100
AcDbEntity
  8
STEMPEL
100
AcDbLine
 10
120.8114427357327
 20
613.4040542662211
 30
0.0
 11
135.8114427357329
 21
613.4040542662216
 31
0.0
  0
LINE
  5
152
330
2
100
AcDbEntity
  8
STEMPEL
100
AcDbLine
 10
133.8114427357327
 20
610.4040542662218
 30
0.0
 11
143.8114427357327
 21
610.4040542662218
 31
0.0
  0
LINE
  5
157
330
2
100
AcDbEntity
  8
STEMPEL
100
AcDbLine
 10
120.8114427357326
 20
613.4040542662213
 30
0.0
 11
120.8114427357325
 21
612.4040542662211
 31
0.0
  0
LINE
  5
15A
330
2
100
AcDbEntity
  8
STEMPEL
100
AcDbLine
 10
131.8114427357327
 20
598.404054266221
 30
0.0
 11
131.8114427357327
 21
592.404054266221
 31
0.0
  0
LINE
  5
15D
330
2
100
AcDbEntity
  8
STEMPEL
100
AcDbLine
 10
133.8114427357327
 20
598.404054266221
 30
0.0
 11
133.8114427357327
 21
586.4040542662216
 31
0.0
  0
LINE
  5
15E
330
2
100
AcDbEntity
  8
STEMPEL
100
AcDbLine
 10
133.8114427357327
 20
610.4040542662216
 30
0.0
 11
133.8114427357327
 21
608.4040542662209
 31
0.0
  0
LINE
  5
167
330
2
100
AcDbEntity
  8
STEMPEL
100
AcDbLine
 10
145.3235454908333
 20
613.4040542662211
 30
0.0
 11
150.1377426398047
 21
613.4040542662211
 31
0.0
  0
LINE
  5
168
330
2
100
AcDbEntity
  8
MITTEL
100
AcDbLine
 10
138.8114427357327
 20
616.4040542662217
 30
0.0
 11
138.8114427357327
 21
586.4040542662216
 31
0.0
  0
LINE
  5
169
330
2
100
AcDbEntity
  8
HILF
100
AcDbLine
 10
134.8114427357327
 20
598.404054266221
 30
0.0
 11
134.8114427357327
 21
586.4040542662216
 31
0.0
  0
LINE
  5
16A
330
2
100
AcDbEntity
  8
STEMPEL
100
AcDbLine
 10
145.8114427357327
 20
598.404054266221
 30
0.0
 11
145.8114427357326
 21
592.4040542662209
 31
0.0
  0
LINE
  5
16B
330
2
100
AcDbEntity
  8
HILF
100
AcDbLine
 10
142.8114427357327
 20
598.404054266221
 30
0.0
 11
142.8114427357327
 21
586.4040542662216
 31
0.0
  0
LINE
  5
16C
330
2
100
AcDbEntity
  8
STEMPEL
100
AcDbLine
 10
143.8114427357327
 20
598.404054266221
 30
0.0
 11
143.8114427357327
 21
586.4040542662216
 31
0.0
  0
LINE
  5
16D
330
2
100
AcDbEntity
  8
STEMPEL
100
AcDbLine
 10
142.8114427357327
 20
611.4040542662216
 30
0.0
 11
134.8114427357327
 21
611.4040542662216
 31
0.0
  0
LINE
  5
16E
330
2
100
AcDbEntity
  8
HILF
100
AcDbLine
 10
134.8114427357327
 20
611.4040542662216
 30
0.0
 11
134.8114427357327
 21
608.404054266221
 31
0.0
  0
LINE
  5
16F
330
2
100
AcDbEntity
  8
STEMPEL
100
AcDbLine
 10
139.4006707930974
 20
613.4040542662211
 30
0.0
 11
140.3647849628601
 21
613.4040542662211
 31
0.0
  0
LINE
  5
170
330
2
100
AcDbEntity
  8
HILF
100
AcDbLine
 10
142.8114427357327
 20
611.4040542662216
 30
0.0
 11
142.8114427357327
 21
608.404054266221
 31
0.0
  0
LINE
  5
171
330
2
100
AcDbEntity
  8
STEMPEL
100
AcDbLine
 10
143.8114427357327
 20
610.4040542662216
 30
0.0
 11
143.8114427357327
 21
608.4040542662211
 31
0.0
  0
LINE
  5
172
330
2
100
AcDbEntity
  8
STEMPEL
100
AcDbLine
 10
143.8114427357327
 20
610.4040542662216
 30
0.0
 11
142.8114427357327
 21
611.4040542662216
 31
0.0
  0
LINE
  5
178
330
2
100
AcDbEntity
  8
STEMPEL
100
AcDbLine
 10
140.8114427357327
 20
682.4039962989055
 30
0.0
 11
140.8114427357327
 21
618.4040542662216
 31
0.0
  0
LINE
  5
179
330
2
100
AcDbEntity
  8
STEMPEL
100
AcDbLine
 10
141.8114427357328
 20
682.4039962989055
 30
0.0
 11
141.8114427357328
 21
618.4040542662216
 31
0.0
  0
LINE
  5
17A
330
2
100
AcDbEntity
  8
STEMPEL
100
AcDbLine
 10
142.0211299767681
 20
624.9040542662193
 30
0.0
 11
142.0211299767681
 21
618.4040542662216
 31
0.0
  0
LINE
  5
17B
330
2
100
AcDbEntity
  8
STEMPEL
100
AcDbLine
 10
142.9852441465307
 20
624.9040542662193
 30
0.0
 11
142.9852441465307
 21
618.4040542662216
 31
0.0
  0
LINE
  5
17C
330
2
100
AcDbEntity
  8
STEMPEL
100
AcDbLine
 10
143.9790228600685
 20
624.9040542662193
 30
0.0
 11
143.9790228600685
 21
618.4040542662204
 31
0.0
  0
LWPOLYLINE
  5
17D
330
2
100
AcDbEntity
  8
STEMPEL
100
AcDbPolyline
 90
       18
 70
   128
 43
0.0
 10
-142.021129976768
 20
624.9040542662193
 10
-142.0377984002447
 20
626.2821756498439
 10
-142.0872360475052
 20
627.6133667626234
 10
-142.1677593787657
 20
628.8522954878002
 10
-142.2766262685573
 20
629.9567715935694
 10
-142.4101293855196
 20
630.8891834708223
 10
-142.5637224411237
 20
631.6177789513837
 10
-142.7321750080758
 20
632.1177465900169
 10
-142.9097506362447
 20
632.3720605884335
 10
-143.0904022005918
 20
632.3720605884335
 10
-143.2679778287607
 20
632.1177465900169
 10
-143.4364303957128
 20
631.6177789513837
 10
-143.5900234513169
 20
630.8891834708223
 10
-143.7235265682792
 20
629.9567715935694
 10
-143.8323934580708
 20
628.8522954878002
 10
-143.9129167893313
 20
627.6133667626234
 10
-143.9623544365917
 20
626.2821756498439
 10
-143.9790228600685
 20
624.9040542662193
210
0.0
220
0.0
230
-1.0
  0
LWPOLYLINE
  5
17E
330
2
100
AcDbEntity
  8
STEMPEL
100
AcDbPolyline
 90
        7
 70
   128
 43
0.0
 10
-142.5031870616492
 20
631.3661083220591
 10
-142.6410160712194
 20
630.6140020851204
 10
-142.7598803481856
 20
629.6912884744057
 10
-142.8562283500868
 20
628.6255372245014
 10
-142.9271812976251
 20
627.4485918876804
 10
-142.9706191896329
 20
626.1956183812786
 10
-142.9852441465305
 20
624.9040542662193
210
0.0
220
0.0
230
-1.0
  0
LWPOLYLINE
  5
17F
330
2
100
AcDbEntity
  8
STEMPEL
100
AcDbPolyline
 90
        9
 70
   128
 43
0.0
 10
-149.8842156979887
 20
632.3058125108842
 10
-150.3732762412574
 20
631.979379613127
 10
-150.8328892091584
 20
631.4341105998697
 10
-151.2488390127827
 20
630.6868703567417
 10
-151.6082605420742
 20
629.7607706339642
 10
-151.9000370769617
 20
628.6844552119938
 10
-152.1151441216999
 20
627.491213964363
 10
-152.2469285278074
 20
626.2179532192873
 10
-152.2913142724722
 20
624.9040542662209
210
0.0
220
0.0
230
-1.0
  0
LWPOLYLINE
  5
180
330
2
100
AcDbEntity
  8
STEMPEL
100
AcDbPolyline
 90
       18
 70
   128
 43
0.0
 10
-147.4771171235018
 20
624.9040542662193
 10
-147.5259864684181
 20
626.2821756498439
 10
-147.6709303162382
 20
627.6133667626234
 10
-147.9070127780654
 20
628.8522954878002
 10
-148.2261943488122
 20
629.9567715935694
 10
-148.6176056829025
 20
630.8891834708223
 10
-149.0679177368004
 20
631.6177789513837
 10
-149.5617956735999
 20
632.1177465900169
 10
-150.0824210725048
 20
632.3720605884335
 10
-150.6120646599766
 20
632.3720605884335
 10
-151.1326900588816
 20
632.1177465900169
 10
-151.626567995681
 20
631.6177789513837
 10
-152.076880049579
 20
630.8891834708223
 10
-152.4682913836693
 20
629.9567715935694
 10
-152.787472954416
 20
628.8522954878002
 10
-153.0235554162433
 20
627.6133667626234
 10
-153.1684992640633
 20
626.2821756498439
 10
-153.2173686089796
 20
624.9040542662193
210
0.0
220
0.0
230
-1.0
  0
LINE
  5
181
330
2
100
AcDbEntity
  8
STEMPEL
100
AcDbLine
 10
147.4771171235019
 20
624.9040542662193
 30
0.0
 11
147.4771171235019
 21
618.4040542662227
 31
0.0
  0
LINE
  5
182
330
2
100
AcDbEntity
  8
STEMPEL
100
AcDbLine
 10
153.2173686089796
 20
624.9040542662193
 30
0.0
 11
153.2173686089796
 21
618.4040542662227
 31
0.0
  0
LINE
  5
183
330
2
100
AcDbEntity
  8
STEMPEL
100
AcDbLine
 10
152.2913142724724
 20
624.9040542662193
 30
0.0
 11
152.2913142724724
 21
618.4040542662227
 31
0.0
  0
LWPOLYLINE
  5
188
330
2
100
AcDbEntity
  8
STEMPEL
100
AcDbPolyline
 90
        3
 70
   128
 43
0.0
 10
164.7428830531873
 20
612.4040542662211
 10
165.5006326782815
 20
612.4952077481479
 10
166.1805036183062
 20
612.7456886862051
  0
LINE
  5
191
330
2
100
AcDbEntity
  8
STEMPEL
100
AcDbLine
 10
158.0235909641429
 20
613.4040542662211
 30
0.0
 11
166.2034942509673
 21
613.4040542662211
 31
0.0
  0
LINE
  5
192
102
{ACAD_REACTORS
330
1609
102
}
330
2
100
AcDbEntity
  8
STEMPEL
100
AcDbLine
 10
170.8114427357326
 20
586.404054266221
 30
0.0
 11
170.8114427357326
 21
589.4040542662209
 31
0.0
  0
LINE
  5
1A4
330
2
100
AcDbEntity
  8
STEMPEL
100
AcDbLine
 10
189.8114427357328
 20
592.4040542662209
 30
0.0
 11
189.8114427357328
 21
589.4040542662209
 31
0.0
  0
LINE
  5
1A5
330
2
100
AcDbEntity
  8
HILF
100
AcDbLine
 10
190.8114427357328
 20
592.4040542662209
 30
0.0
 11
190.8114427357328
 21
589.4040542662209
 31
0.0
  0
LINE
  5
1AD
330
2
100
AcDbEntity
  8
MITTEL
100
AcDbLine
 10
194.8114427357328
 20
616.4040542662215
 30
0.0
 11
194.8114427357328
 21
586.4040542662215
 31
0.0
  0
LINE
  5
1AE
330
2
100
AcDbEntity
  8
HILF
100
AcDbLine
 10
198.8114427357328
 20
592.4040542662209
 30
0.0
 11
198.8114427357328
 21
589.4040542662209
 31
0.0
  0
LINE
  5
1AF
330
2
100
AcDbEntity
  8
STEMPEL
100
AcDbLine
 10
199.8114427357328
 20
592.404054266221
 30
0.0
 11
199.8114427357328
 21
589.4040542662211
 31
0.0
  0
LWPOLYLINE
  5
1B7
330
2
100
AcDbEntity
  8
STEMPEL
100
AcDbPolyline
 90
       13
 70
   128
 43
0.0
 10
-159.9751677926615
 20
624.9040542662193
 10
-160.0529076939215
 20
626.2821756498439
 10
-160.2834800586034
 20
627.6133667626234
 10
-160.6590330213685
 20
628.8522954878002
 10
-161.1667775764963
 20
629.9567715935694
 10
-161.7894230921342
 20
630.8891834708223
 10
-162.5057661220282
 20
631.6177789513837
 10
-163.2914124634542
 20
632.1177465900169
 10
-164.1196078725336
 20
632.3720605884335
 10
-164.9621491479213
 20
632.3720605884335
 10
-165.7903445570006
 20
632.1177465900169
 10
-166.5759908984266
 20
631.6177789513837
 10
-166.8304921418112
 20
631.3589246762822
210
0.0
220
0.0
230
-1.0
  0
LINE
  5
1B8
330
2
100
AcDbEntity
  8
STEMPEL
100
AcDbLine
 10
159.9751677926614
 20
624.9040542662193
 30
0.0
 11
159.9751677926614
 21
618.4040542662227
 31
0.0
  0
LWPOLYLINE
  5
1BB
330
2
100
AcDbEntity
  8
STEMPEL
100
AcDbPolyline
 90
        6
 70
   128
 43
0.0
 10
-163.7456576234064
 20
632.4040542662224
 10
-164.5384849692661
 20
632.2901124138139
 10
-165.3072226574118
 20
631.9517489221167
 10
-166.0285129821894
 20
631.3992447946056
 10
-166.6804399020709
 20
630.6493875896143
 10
-166.7989182139163
 20
630.4547656799471
210
0.0
220
0.0
230
-1.0
  0
LINE
  5
1C5
330
2
100
AcDbEntity
  8
MITTEL
100
AcDbLine
 10
234.8872472848864
 20
587.4040542662211
 30
0.0
 11
234.8872472848864
 21
617.4040542662211
 31
0.0
  0
LINE
  5
1E8
330
2
100
AcDbEntity
  8
STEMPEL
100
AcDbLine
 10
260.4303762643785
 20
592.4040542662209
 30
0.0
 11
260.4303762643785
 21
589.4040542662209
 31
0.0
  0
LINE
  5
1E9
330
2
100
AcDbEntity
  8
HILF
100
AcDbLine
 10
261.4303762643785
 20
592.4040542662209
 30
0.0
 11
261.4303762643785
 21
589.4040542662209
 31
0.0
  0
LINE
  5
1F0
330
2
100
AcDbEntity
  8
MITTEL
100
AcDbLine
 10
265.4303762643785
 20
616.4040542662215
 30
0.0
 11
265.4303762643785
 21
586.4040542662215
 31
0.0
  0
LINE
  5
1F1
330
2
100
AcDbEntity
  8
STEMPEL
100
AcDbLine
 10
270.4303762643785
 20
592.4040542662209
 30
0.0
 11
270.4303762643785
 21
589.4040542662209
 31
0.0
  0
LINE
  5
1F2
330
2
100
AcDbEntity
  8
HILF
100
AcDbLine
 10
269.4303762643784
 20
592.4040542662209
 30
0.0
 11
269.4303762643785
 21
589.4040542662209
 31
0.0
  0
LINE
  5
201
330
2
100
AcDbEntity
  8
STEMPEL
100
AcDbLine
 10
170.8114427357327
 20
702.4040542662202
 30
0.0
 11
225.5498049080821
 21
702.4040542662207
 31
0.0
  0
LINE
  5
202
330
2
100
AcDbEntity
  8
STEMPEL
100
AcDbLine
 10
143.7787481140249
 20
687.5811348262645
 30
0.0
 11
167.7650509894918
 21
701.573144836953
 31
0.0
  0
LINE
  5
203
330
2
100
AcDbEntity
  8
STEMPEL
100
AcDbLine
 10
144.2920891676057
 20
686.7228917131018
 30
0.0
 11
168.2709430605568
 21
700.7105448792873
 31
0.0
  0
ARC
  5
204
330
2
100
AcDbEntity
  8
STEMPEL
100
AcDbCircle
 10
141.3002991314212
 20
691.9238912486829
 30
0.0
 40
5.0
100
AcDbArc
 50
300.0670458384848
 51
300.2564371635294
  0
ARC
  5
205
330
2
100
AcDbEntity
  8
STEMPEL
100
AcDbCircle
 10
170.8114427357327
 20
696.4040542662206
 30
0.0
 40
5.0
100
AcDbArc
 50
90.0
 51
120.5373500483013
  0
ARC
  5
206
330
2
100
AcDbEntity
  8
STEMPEL
100
AcDbCircle
 10
170.8114427357327
 20
696.4040542662206
 30
0.0
 40
6.0
100
AcDbArc
 50
90.0
 51
120.512874327619
  0
ARC
  5
207
330
2
100
AcDbEntity
  8
STEMPEL
100
AcDbCircle
 10
170.8114427357327
 20
696.4040542662206
 30
0.0
 40
6.0
100
AcDbArc
 50
90.0
 51
90.0
  0
LINE
  5
208
330
2
100
AcDbEntity
  8
STEMPEL
100
AcDbLine
 10
247.4528811194355
 20
702.9040542662206
 30
0.0
 11
257.5411485806291
 21
702.9040542662206
 31
0.0
  0
LINE
  5
209
330
2
100
AcDbEntity
  8
STEMPEL
100
AcDbLine
 10
228.1478811194356
 20
703.9040542662206
 30
0.0
 11
273.6528811194355
 21
703.9040542662206
 31
0.0
  0
ARC
  5
20A
330
2
100
AcDbEntity
  8
STEMPEL
100
AcDbCircle
 10
228.1478811194356
 20
702.4040542662207
 30
0.0
 40
1.5
100
AcDbArc
 50
89.99999999999994
 51
150.0000000000024
  0
ARC
  5
20B
330
2
100
AcDbEntity
  8
STEMPEL
100
AcDbCircle
 10
225.5498049080821
 20
703.9040542662206
 30
0.0
 40
2.5
100
AcDbArc
 50
270.0
 51
330.0000000000015
  0
ARC
  5
20C
330
2
100
AcDbEntity
  8
STEMPEL
100
AcDbCircle
 10
225.5498049080821
 20
703.9040542662206
 30
0.0
 40
1.5
100
AcDbArc
 50
270.0
 51
330.0000000000029
  0
LINE
  5
20D
330
2
100
AcDbEntity
  8
STEMPEL
100
AcDbLine
 10
238.4009573307885
 20
702.4040542662207
 30
0.0
 11
244.8548049080828
 21
702.4040542662207
 31
0.0
  0
LINE
  5
20E
330
2
100
AcDbEntity
  8
STEMPEL
100
AcDbLine
 10
238.4009573307885
 20
702.4040542662207
 30
0.0
 11
244.8548049080828
 21
702.4040542662207
 31
0.0
  0
ARC
  5
20F
330
2
100
AcDbEntity
  8
STEMPEL
100
AcDbCircle
 10
233.0048049080819
 20
703.9040542662206
 30
0.0
 40
1.5
100
AcDbArc
 50
270.0
 51
330.000000000005
  0
ARC
  5
210
330
2
100
AcDbEntity
  8
STEMPEL
100
AcDbCircle
 10
233.0048049080819
 20
703.9040542662206
 30
0.0
 40
2.5
100
AcDbArc
 50
270.0
 51
330.000000000005
  0
LINE
  5
211
330
2
100
AcDbEntity
  8
STEMPEL
100
AcDbLine
 10
230.9459573307895
 20
702.4040542662207
 30
0.0
 11
233.0048049080819
 21
702.4040542662207
 31
0.0
  0
LINE
  5
212
330
2
100
AcDbEntity
  8
STEMPEL
100
AcDbLine
 10
230.9459573307895
 20
702.4040542662207
 30
0.0
 11
233.0048049080819
 21
702.4040542662207
 31
0.0
  0
ARC
  5
213
330
2
100
AcDbEntity
  8
STEMPEL
100
AcDbCircle
 10
228.1478811194356
 20
702.4040542662207
 30
0.0
 40
0.5
100
AcDbArc
 50
89.99999999999994
 51
149.9999999999994
  0
LINE
  5
214
330
2
100
AcDbEntity
  8
STEMPEL
100
AcDbLine
 10
228.1478811194356
 20
702.9040542662206
 30
0.0
 11
228.3478811194357
 21
702.9040542662206
 31
0.0
  0
ARC
  5
215
330
2
100
AcDbEntity
  8
STEMPEL
100
AcDbCircle
 10
228.3478811194357
 20
702.4040542662207
 30
0.0
 40
0.5
100
AcDbArc
 50
29.99999999999891
 51
89.99999999999994
  0
ARC
  5
216
330
2
100
AcDbEntity
  8
STEMPEL
100
AcDbCircle
 10
228.3478811194357
 20
702.4040542662207
 30
0.0
 40
1.5
100
AcDbArc
 50
29.99999999999394
 51
89.99999999999994
  0
ARC
  5
217
330
2
100
AcDbEntity
  8
STEMPEL
100
AcDbCircle
 10
230.9459573307895
 20
703.9040542662206
 30
0.0
 40
2.5
100
AcDbArc
 50
209.9999999999937
 51
270.0
  0
ARC
  5
218
330
2
100
AcDbEntity
  8
STEMPEL
100
AcDbCircle
 10
230.9459573307895
 20
703.9040542662206
 30
0.0
 40
1.5
100
AcDbArc
 50
209.9999999999947
 51
270.0
  0
ARC
  5
219
330
2
100
AcDbEntity
  8
STEMPEL
100
AcDbCircle
 10
238.4009573307885
 20
703.9040542662206
 30
0.0
 40
2.5
100
AcDbArc
 50
210.0000000000016
 51
270.0
  0
ARC
  5
21A
330
2
100
AcDbEntity
  8
STEMPEL
100
AcDbCircle
 10
238.4009573307885
 20
703.9040542662206
 30
0.0
 40
1.5
100
AcDbArc
 50
210.0000000000016
 51
270.0
  0
ARC
  5
21B
330
2
100
AcDbEntity
  8
STEMPEL
100
AcDbCircle
 10
235.6028811194355
 20
702.4040542662207
 30
0.0
 40
0.5
100
AcDbArc
 50
89.99999999999994
 51
150.0000000000048
  0
LINE
  5
21C
330
2
100
AcDbEntity
  8
STEMPEL
100
AcDbLine
 10
235.6028811194355
 20
702.9040542662206
 30
0.0
 11
235.8028811194356
 21
702.9040542662206
 31
0.0
  0
ARC
  5
21D
330
2
100
AcDbEntity
  8
STEMPEL
100
AcDbCircle
 10
235.8028811194356
 20
702.4040542662207
 30
0.0
 40
0.5
100
AcDbArc
 50
30.00000000000242
 51
89.99999999999994
  0
ARC
  5
21E
330
2
100
AcDbEntity
  8
STEMPEL
100
AcDbCircle
 10
235.8028811194356
 20
702.4040542662207
 30
0.0
 40
1.5
100
AcDbArc
 50
30.00000000000242
 51
89.99999999999994
  0
ARC
  5
21F
330
2
100
AcDbEntity
  8
STEMPEL
100
AcDbCircle
 10
235.6028811194355
 20
702.4040542662207
 30
0.0
 40
1.5
100
AcDbArc
 50
89.99999999999994
 51
150.0000000000048
  0
ARC
  5
220
330
2
100
AcDbEntity
  8
STEMPEL
100
AcDbCircle
 10
247.4528811194355
 20
702.4040542662207
 30
0.0
 40
0.5
100
AcDbArc
 50
89.99999999999998
 51
149.9999999999961
  0
ARC
  5
221
330
2
100
AcDbEntity
  8
STEMPEL
100
AcDbCircle
 10
244.8548049080828
 20
703.9040542662206
 30
0.0
 40
1.5
100
AcDbArc
 50
270.0
 51
329.9999999999958
  0
ARC
  5
222
330
2
100
AcDbEntity
  8
STEMPEL
100
AcDbCircle
 10
244.8548049080828
 20
703.9040542662206
 30
0.0
 40
2.5
100
AcDbArc
 50
270.0
 51
329.9999999999958
  0
ARC
  5
223
330
2
100
AcDbEntity
  8
STEMPEL
100
AcDbCircle
 10
247.4528811194355
 20
702.4040542662207
 30
0.0
 40
1.5
100
AcDbArc
 50
89.99999999999998
 51
149.9999999999961
  0
ARC
  5
224
330
2
100
AcDbEntity
  8
STEMPEL
100
AcDbCircle
 10
273.6528811194355
 20
702.4040542662207
 30
0.0
 40
0.5
100
AcDbArc
 50
29.99999999999219
 51
89.99999999999992
  0
ARC
  5
225
330
2
100
AcDbEntity
  8
STEMPEL
100
AcDbCircle
 10
273.6528811194355
 20
702.4040542662207
 30
0.0
 40
1.5
100
AcDbArc
 50
29.99999999999219
 51
89.99999999999992
  0
ARC
  5
226
330
2
100
AcDbEntity
  8
STEMPEL
100
AcDbCircle
 10
261.8028811194356
 20
702.4040542662207
 30
0.0
 40
1.5
100
AcDbArc
 50
29.99999999999758
 51
89.99999999999994
  0
ARC
  5
227
330
2
100
AcDbEntity
  8
STEMPEL
100
AcDbCircle
 10
261.8028811194356
 20
702.4040542662207
 30
0.0
 40
0.5
100
AcDbArc
 50
29.99999999999758
 51
89.99999999999994
  0
ARC
  5
228
330
2
100
AcDbEntity
  8
STEMPEL
100
AcDbCircle
 10
264.4009573307891
 20
703.9040542662206
 30
0.0
 40
2.5
100
AcDbArc
 50
209.9999999999974
 51
270.0
  0
ARC
  5
229
330
2
100
AcDbEntity
  8
STEMPEL
100
AcDbCircle
 10
259.6663894463315
 20
702.9040542662206
 30
0.0
 40
1.5
100
AcDbArc
 50
270.0
 51
345.5224878140727
  0
ARC
  5
22A
330
2
100
AcDbEntity
  8
STEMPEL
100
AcDbCircle
 10
261.6028811194356
 20
702.4040542662207
 30
0.0
 40
1.5
100
AcDbArc
 50
89.99999999999998
 51
165.5224878140734
  0
ARC
  5
22B
330
2
100
AcDbEntity
  8
STEMPEL
100
AcDbCircle
 10
259.6663894463315
 20
702.9040542662206
 30
0.0
 40
0.5
100
AcDbArc
 50
270.0
 51
345.5224878140727
  0
LINE
  5
22C
330
2
100
AcDbEntity
  8
STEMPEL
100
AcDbLine
 10
259.4776402537324
 20
702.4040542662207
 30
0.0
 11
259.6663894463315
 21
702.4040542662207
 31
0.0
  0
ARC
  5
22D
330
2
100
AcDbEntity
  8
STEMPEL
100
AcDbCircle
 10
261.6028811194356
 20
702.4040542662207
 30
0.0
 40
0.5
100
AcDbArc
 50
89.99999999999998
 51
165.5224878140734
  0
LINE
  5
22E
330
2
100
AcDbEntity
  8
STEMPEL
100
AcDbLine
 10
261.6028811194356
 20
702.9040542662206
 30
0.0
 11
261.8028811194356
 21
702.9040542662206
 31
0.0
  0
ARC
  5
22F
330
2
100
AcDbEntity
  8
STEMPEL
100
AcDbCircle
 10
257.5411485806291
 20
702.4040542662207
 30
0.0
 40
0.5
100
AcDbArc
 50
14.47751218593105
 51
89.99999999999992
  0
ARC
  5
230
330
2
100
AcDbEntity
  8
STEMPEL
100
AcDbCircle
 10
259.4776402537324
 20
702.9040542662206
 30
0.0
 40
1.5
100
AcDbArc
 50
194.4775121859298
 51
270.0
  0
ARC
  5
231
330
2
100
AcDbEntity
  8
STEMPEL
100
AcDbCircle
 10
259.4776402537324
 20
702.9040542662206
 30
0.0
 40
0.5
100
AcDbArc
 50
194.4775121859298
 51
270.0
  0
ARC
  5
232
330
2
100
AcDbEntity
  8
STEMPEL
100
AcDbCircle
 10
257.5411485806291
 20
702.4040542662207
 30
0.0
 40
1.5
100
AcDbArc
 50
14.47751218593105
 51
89.99999999999992
  0
LINE
  5
233
330
2
100
AcDbEntity
  8
STEMPEL
100
AcDbLine
 10
264.4009573307891
 20
702.4040542662207
 30
0.0
 11
270.8548049080831
 21
702.4040542662207
 31
0.0
  0
LINE
  5
234
330
2
100
AcDbEntity
  8
STEMPEL
100
AcDbLine
 10
264.4009573307891
 20
702.4040542662207
 30
0.0
 11
270.8548049080831
 21
702.4040542662207
 31
0.0
  0
ARC
  5
235
330
2
100
AcDbEntity
  8
STEMPEL
100
AcDbCircle
 10
264.4009573307891
 20
703.9040542662206
 30
0.0
 40
1.5
100
AcDbArc
 50
209.9999999999974
 51
270.0
  0
ARC
  5
236
330
2
100
AcDbEntity
  8
STEMPEL
100
AcDbCircle
 10
273.4528811194355
 20
702.4040542662207
 30
0.0
 40
1.5
100
AcDbArc
 50
89.99999999999998
 51
149.9999999999912
  0
ARC
  5
237
330
2
100
AcDbEntity
  8
STEMPEL
100
AcDbCircle
 10
273.4528811194355
 20
702.4040542662207
 30
0.0
 40
0.5
100
AcDbArc
 50
89.99999999999998
 51
149.9999999999912
  0
LINE
  5
238
330
2
100
AcDbEntity
  8
STEMPEL
100
AcDbLine
 10
273.4528811194355
 20
702.9040542662206
 30
0.0
 11
273.6528811194355
 21
702.9040542662206
 31
0.0
  0
ARC
  5
239
330
2
100
AcDbEntity
  8
STEMPEL
100
AcDbCircle
 10
270.8548049080831
 20
703.9040542662206
 30
0.0
 40
1.5
100
AcDbArc
 50
270.0
 51
329.9999999999922
  0
ARC
  5
23A
330
2
100
AcDbEntity
  8
STEMPEL
100
AcDbCircle
 10
270.8548049080831
 20
703.9040542662206
 30
0.0
 40
2.5
100
AcDbArc
 50
270.0
 51
329.9999999999922
  0
ARC
  5
23B
330
2
100
AcDbEntity
  8
STEMPEL
100
AcDbCircle
 10
276.2509573307895
 20
703.9040542662206
 30
0.0
 40
2.5
100
AcDbArc
 50
209.9999999999917
 51
270.0
  0
ARC
  5
23C
330
2
100
AcDbEntity
  8
STEMPEL
100
AcDbCircle
 10
276.2509573307895
 20
703.9040542662206
 30
0.0
 40
1.5
100
AcDbArc
 50
209.9999999999917
 51
270.0
  0
TEXT
  5
242
330
2
100
AcDbEntity
  8
TEXT
100
AcDbText
 10
480.5511965856342
 20
471.4156230561489
 30
0.0
 40
5.0
  1
Erstellt mit AUTOCAD 2004
 50
90.0
 41
0.8
100
AcDbText
  0
LINE
  5
243
330
2
100
AcDbEntity
  8
STEMPEL
100
AcDbLine
 10
584.0
 20
39.99999999999996
 30
0.0
 11
584.0
 21
830.0
 31
0.0
  0
LINE
  5
244
330
2
100
AcDbEntity
  8
HILF
100
AcDbLine
 10
594.0
 20
-0.0000000000000364
 30
0.0
 11
594.0
 21
840.0000000000002
 31
0.0
  0
ARC
  5
265
330
2
100
AcDbEntity
  8
STEMPEL
100
AcDbCircle
 10
354.8114427357329
 20
682.4039962989055
 30
0.0
 40
5.0
100
AcDbArc
 50
0.000000000000007
 51
59.74358352518475
  0
ARC
  5
266
330
2
100
AcDbEntity
  8
STEMPEL
100
AcDbCircle
 10
354.8114427357329
 20
682.4039962989055
 30
0.0
 40
6.0
100
AcDbArc
 50
0.000000000000007
 51
59.74358352518475
  0
LINE
  5
26F
330
2
100
AcDbEntity
  8
STEMPEL
100
AcDbLine
 10
385.4692999603061
 20
598.4040542662211
 30
0.0
 11
392.8114427357327
 21
598.4040542662211
 31
0.0
  0
LWPOLYLINE
  5
2C7
330
2
100
AcDbEntity
  8
STEMPEL
100
AcDbPolyline
 90
       10
 70
   128
 43
0.0
 10
-346.0114238534102
 20
612.4040542662211
 10
-345.253674228316
 20
612.4952077481479
 10
-344.5189484421404
 20
612.7658985415056
 10
-343.8295707661073
 20
613.2079018435144
 10
-343.2064875920608
 20
613.8077876075072
 10
-342.6686309869495
 20
614.547328608102
 10
-342.2323434515505
 20
615.4040542662214
 10
-341.9108813618552
 20
616.3519334062672
 10
-341.7140121807912
 20
617.3621652002199
 10
-341.6477176788044
 20
618.4040542662216
210
0.0
220
0.0
230
-1.0
  0
LINE
  5
2C8
330
2
100
AcDbEntity
  8
STEMPEL
100
AcDbLine
 10
343.5992945073227
 20
613.4040542662211
 30
0.0
 11
335.4193912204984
 21
613.4040542662211
 31
0.0
  0
LWPOLYLINE
  5
2CC
330
2
100
AcDbEntity
  8
STEMPEL
100
AcDbPolyline
 90
        3
 70
   128
 43
0.0
 10
-336.8800024182783
 20
612.4040542662211
 10
-336.1222527931841
 20
612.4952077481479
 10
-335.4423818531594
 20
612.7456886862051
210
0.0
220
0.0
230
-1.0
  0
LINE
  5
2DC
102
{ACAD_REACTORS
330
1609
102
}
330
2
100
AcDbEntity
  8
STEMPEL
100
AcDbLine
 10
330.8114427357327
 20
586.404054266221
 30
0.0
 11
330.8114427357327
 21
589.4040542662209
 31
0.0
  0
LWPOLYLINE
  5
2E4
330
2
100
AcDbEntity
  8
STEMPEL
100
AcDbPolyline
 90
       13
 70
   128
 43
0.0
 10
341.6477176788041
 20
624.9040542662193
 10
341.569977777544
 20
626.2821756498439
 10
341.3394054128622
 20
627.6133667626234
 10
340.9638524500971
 20
628.8522954878002
 10
340.4561078949694
 20
629.9567715935694
 10
339.8334623793314
 20
630.8891834708223
 10
339.1171193494373
 20
631.6177789513837
 10
338.3314730080115
 20
632.1177465900169
 10
337.5032775989321
 20
632.3720605884335
 10
336.6607363235444
 20
632.3720605884335
 10
335.832540914465
 20
632.1177465900169
 10
335.0468945730392
 20
631.6177789513837
 10
334.7923933296544
 20
631.3589246762821
  0
LWPOLYLINE
  5
2E5
330
2
100
AcDbEntity
  8
STEMPEL
100
AcDbPolyline
 90
        6
 70
   128
 43
0.0
 10
337.8772278480592
 20
632.4040542662224
 10
337.0844005021995
 20
632.2901124138139
 10
336.3156628140538
 20
631.9517489221167
 10
335.5943724892762
 20
631.3992447946056
 10
334.9424455693947
 20
630.6493875896143
 10
334.8239672575494
 20
630.4547656799472
  0
LINE
  5
2E8
330
2
100
AcDbEntity
  8
STEMPEL
100
AcDbLine
 10
341.6477176788043
 20
624.9040542662193
 30
0.0
 11
341.6477176788043
 21
618.4040542662227
 31
0.0
  0
LINE
  5
2EC
330
2
100
AcDbEntity
  8
MITTEL
100
AcDbLine
 10
372.8114427357327
 20
587.4040542662212
 30
0.0
 11
372.8114427357327
 21
625.0040542662214
 31
0.0
  0
LWPOLYLINE
  5
2EF
330
2
100
AcDbEntity
  8
STEMPEL
100
AcDbPolyline
 90
        7
 70
   128
 43
0.0
 10
-351.485142831662
 20
613.4040542662211
 10
-350.8650523085977
 20
614.0133921680618
 10
-350.3332321618142
 20
614.7408224413513
 10
-349.903986362083
 20
615.5667799352949
 10
-349.5888600142856
 20
616.4690494857572
 10
-349.3963288373198
 20
617.4233634200003
 10
-349.3315711989934
 20
618.4040542662216
210
0.0
220
0.0
230
-1.0
  0
LWPOLYLINE
  5
2F0
330
2
100
AcDbEntity
  8
STEMPEL
100
AcDbPolyline
 90
       10
 70
   128
 43
0.0
 10
-353.22088138906
 20
612.4040542662211
 10
-352.3847021142184
 20
612.4952077481479
 10
-351.5739297235158
 20
612.7658985415056
 10
-350.8131991257729
 20
613.2079018435144
 10
-350.1256247352542
 20
613.8077876075072
 10
-349.5320981518858
 20
614.547328608102
 10
-349.0506533805645
 20
615.4040542662214
 10
-348.6959188770442
 20
616.3519334062672
 10
-348.47867306971
 20
617.3621652002199
 10
-348.405516862486
 20
618.4040542662216
210
0.0
220
0.0
230
-1.0
  0
ARC
  5
2F1
330
2
100
AcDbEntity
  8
STEMPEL
100
AcDbCircle
 10
365.8114427357328
 20
618.4040542662216
 30
0.0
 40
5.0
100
AcDbArc
 50
180.0
 51
269.9999999999981
  0
LWPOLYLINE
  5
2F2
330
2
100
AcDbEntity
  8
STEMPEL
100
AcDbPolyline
 90
       10
 70
   128
 43
0.0
 10
-365.1077442257284
 20
612.4040542662222
 10
-364.2496712294557
 20
612.4701814807949
 10
-363.3968590298334
 20
612.722735230525
 10
-362.5761007229164
 20
613.1537809468426
 10
-361.8131823565174
 20
613.7497763172824
 10
-361.1320728010182
 20
614.4919967490032
 10
-360.5541707110725
 20
615.3571236458007
 10
-360.0976322366663
 20
616.3179770165166
 10
-359.7768006050687
 20
617.3443693982289
 10
-359.6017554946976
 20
618.4040542662216
210
0.0
220
0.0
230
-1.0
  0
ARC
  5
2F3
330
2
100
AcDbEntity
  8
STEMPEL
100
AcDbCircle
 10
365.8114427357328
 20
618.4040542662216
 30
0.0
 40
6.0
100
AcDbArc
 50
180.0
 51
269.9999999999983
  0
LWPOLYLINE
  5
2F4
330
2
100
AcDbEntity
  8
STEMPEL
100
AcDbPolyline
 90
       10
 70
   128
 43
0.0
 10
-363.149851342428
 20
612.4040542662211
 10
-362.2917783461552
 20
612.4701814807937
 10
-361.438966146533
 20
612.7227352305238
 10
-360.6182078396159
 20
613.1537809468414
 10
-359.8552894732169
 20
613.7497763172815
 10
-359.1741799177178
 20
614.4919967490019
 10
-358.596277827772
 20
615.3571236457995
 10
-358.1397393533658
 20
616.3179770165156
 10
-357.8189077217682
 20
617.3443693982277
 10
-357.6438626113971
 20
618.4040542662204
210
0.0
220
0.0
230
-1.0
  0
LWPOLYLINE
  5
2F5
330
2
100
AcDbEntity
  8
STEMPEL
100
AcDbPolyline
 90
       10
 70
   128
 43
0.0
 10
-358.9611328745377
 20
612.4040542662211
 10
-358.1249535996962
 20
612.4952077481479
 10
-357.3141812089935
 20
612.7658985415056
 10
-356.5534506112507
 20
613.2079018435144
 10
-355.8658762207319
 20
613.8077876075072
 10
-355.2723496373635
 20
614.547328608102
 10
-354.7909048660423
 20
615.4040542662214
 10
-354.4361703625219
 20
616.3519334062672
 10
-354.2189245551877
 20
617.3621652002199
 10
-354.1457683479638
 20
618.4040542662216
210
0.0
220
0.0
230
-1.0
  0
LWPOLYLINE
  5
2F6
330
2
100
AcDbEntity
  8
STEMPEL
100
AcDbPolyline
 90
        7
 70
   128
 43
0.0
 10
-361.2581005086058
 20
613.4040542662216
 10
-360.5813986335285
 20
614.0136549940806
 10
-359.9818492098945
 20
614.7412140779921
 10
-359.4755605367449
 20
615.5671839396724
 10
-359.0761352446993
 20
616.4693729648755
 10
-358.7943048294363
 20
617.4235417330693
 10
-358.6376413249348
 20
618.4040542662216
210
0.0
220
0.0
230
-1.0
  0
LINE
  5
2F7
330
2
100
AcDbEntity
  8
STEMPEL
100
AcDbLine
 10
380.8114427357325
 20
613.4040542662211
 30
0.0
 11
365.8114427357326
 21
613.4040542662216
 31
0.0
  0
LINE
  5
2F8
330
2
100
AcDbEntity
  8
STEMPEL
100
AcDbLine
 10
359.2859503769969
 20
610.4040542662218
 30
0.0
 11
349.2859503769969
 21
610.4040542662218
 31
0.0
  0
LINE
  5
2F9
330
2
100
AcDbEntity
  8
STEMPEL
100
AcDbLine
 10
350.2859503769969
 20
611.4040542662216
 30
0.0
 11
358.2859503769969
 21
611.4040542662216
 31
0.0
  0
LINE
  5
2FE
330
2
100
AcDbEntity
  8
STEMPEL
100
AcDbLine
 10
356.2993399806324
 20
613.4040542662211
 30
0.0
 11
351.4851428316609
 21
613.4040542662211
 31
0.0
  0
LINE
  5
300
102
{ACAD_REACTORS
330
1609
102
}
330
2
100
AcDbEntity
  8
MITTEL
100
AcDbLine
 10
354.2859503769969
 20
616.4040542662217
 30
0.0
 11
354.2859503769969
 21
586.4040542662216
 31
0.0
  0
LINE
  5
302
330
2
100
AcDbEntity
  8
HILF
100
AcDbLine
 10
350.2859503769969
 20
592.404054266221
 30
0.0
 11
350.2859503769968
 21
589.4040542662209
 31
0.0
  0
LINE
  5
303
330
2
100
AcDbEntity
  8
STEMPEL
100
AcDbLine
 10
349.285950376997
 20
592.404054266221
 30
0.0
 11
349.2859503769969
 21
589.4040542662209
 31
0.0
  0
LINE
  5
306
330
2
100
AcDbEntity
  8
HILF
100
AcDbLine
 10
350.2859503769969
 20
611.4040542662216
 30
0.0
 11
350.2859503769969
 21
608.4040542662212
 31
0.0
  0
LINE
  5
307
330
2
100
AcDbEntity
  8
STEMPEL
100
AcDbLine
 10
349.2859503769969
 20
610.4040542662216
 30
0.0
 11
349.2859503769969
 21
608.4040542662212
 31
0.0
  0
LINE
  5
308
330
2
100
AcDbEntity
  8
STEMPEL
100
AcDbLine
 10
349.2859503769969
 20
610.4040542662216
 30
0.0
 11
350.2859503769969
 21
611.4040542662216
 31
0.0
  0
ARC
  5
30A
330
2
100
AcDbEntity
  8
STEMPEL
100
AcDbCircle
 10
360.1535855111595
 20
603.4040542662212
 30
0.0
 40
5.0
100
AcDbArc
 50
270.0
 51
359.0000000000015
  0
LINE
  5
30C
330
2
100
AcDbEntity
  8
HILF
100
AcDbLine
 10
358.285950376997
 20
592.404054266221
 30
0.0
 11
358.2859503769969
 21
589.4040542662209
 31
0.0
  0
LINE
  5
30D
330
2
100
AcDbEntity
  8
STEMPEL
100
AcDbLine
 10
359.2859503769969
 20
592.404054266221
 30
0.0
 11
359.2859503769969
 21
589.4040542662209
 31
0.0
  0
LINE
  5
30F
330
2
100
AcDbEntity
  8
STEMPEL
100
AcDbLine
 10
359.2859503769969
 20
610.4040542662216
 30
0.0
 11
359.2859503769969
 21
608.0040542662211
 31
0.0
  0
LINE
  5
310
330
2
100
AcDbEntity
  8
HILF
100
AcDbLine
 10
358.2859503769969
 20
611.4040542662216
 30
0.0
 11
358.2859503769969
 21
608.4040542662212
 31
0.0
  0
LINE
  5
311
330
2
100
AcDbEntity
  8
STEMPEL
100
AcDbLine
 10
358.2859503769969
 20
611.4040542662216
 30
0.0
 11
359.2859503769969
 21
610.4040542662216
 31
0.0
  0
LINE
  5
313
330
2
100
AcDbEntity
  8
STEMPEL
100
AcDbLine
 10
365.1528239869414
 20
603.3167922340348
 30
0.0
 11
365.3114427357327
 21
612.404054266221
 31
0.0
  0
LINE
  5
315
330
2
100
AcDbEntity
  8
STEMPEL
100
AcDbLine
 10
362.2222146783682
 20
613.4040542662211
 30
0.0
 11
361.2581005086056
 21
613.4040542662211
 31
0.0
  0
LINE
  5
316
330
2
100
AcDbEntity
  8
STEMPEL
100
AcDbLine
 10
375.8114427357325
 20
612.4040542662212
 30
0.0
 11
380.8114427357328
 21
612.4040542662211
 31
0.0
  0
LINE
  5
319
330
2
100
AcDbEntity
  8
HILF
100
AcDbLine
 10
375.1614427357323
 20
604.3540542662213
 30
0.0
 11
375.161442735732
 21
613.4040542662211
 31
0.0
  0
LINE
  5
31A
330
2
100
AcDbEntity
  8
STEMPEL
100
AcDbLine
 10
375.8114427357325
 20
613.4040542662212
 30
0.0
 11
375.8114427357329
 21
605.0040542662213
 31
0.0
  0
LINE
  5
31B
330
2
100
AcDbEntity
  8
HILF
100
AcDbLine
 10
370.461442735732
 20
604.3540542662213
 30
0.0
 11
370.4614427357318
 21
613.4040542662213
 31
0.0
  0
LINE
  5
31C
330
2
100
AcDbEntity
  8
STEMPEL
100
AcDbLine
 10
369.8114427357325
 20
613.4040542662213
 30
0.0
 11
369.8114427357328
 21
605.0040542662213
 31
0.0
  0
LINE
  5
31D
330
2
100
AcDbEntity
  8
STEMPEL
100
AcDbLine
 10
370.4614427357325
 20
604.3540542662213
 30
0.0
 11
375.1614427357328
 21
604.3540542662213
 31
0.0
  0
LINE
  5
31E
330
2
100
AcDbEntity
  8
STEMPEL
100
AcDbLine
 10
369.8114427357328
 20
605.0040542662213
 30
0.0
 11
375.8114427357329
 21
605.0040542662213
 31
0.0
  0
LINE
  5
31F
330
2
100
AcDbEntity
  8
STEMPEL
100
AcDbLine
 10
370.4614427357334
 20
604.3540542662208
 30
0.0
 11
370.461442735733
 21
592.404054266221
 31
0.0
  0
LINE
  5
320
330
2
100
AcDbEntity
  8
HILF
100
AcDbLine
 10
369.8114427357328
 20
605.0040542662213
 30
0.0
 11
369.8114427357322
 21
592.404054266221
 31
0.0
  0
LINE
  5
321
330
2
100
AcDbEntity
  8
STEMPEL
100
AcDbLine
 10
369.8114427357328
 20
605.0040542662213
 30
0.0
 11
370.4614427357325
 21
604.3540542662213
 31
0.0
  0
LINE
  5
322
330
2
100
AcDbEntity
  8
STEMPEL
100
AcDbLine
 10
375.1614427357328
 20
604.3540542662213
 30
0.0
 11
375.8114427357329
 21
605.0040542662213
 31
0.0
  0
LINE
  5
323
330
2
100
AcDbEntity
  8
STEMPEL
100
AcDbLine
 10
375.1614427357323
 20
604.3540542662208
 30
0.0
 11
375.1614427357327
 21
592.404054266221
 31
0.0
  0
LINE
  5
324
330
2
100
AcDbEntity
  8
HILF
100
AcDbLine
 10
375.8114427357329
 20
605.0040542662213
 30
0.0
 11
375.8114427357335
 21
592.404054266221
 31
0.0
  0
LINE
  5
325
330
2
100
AcDbEntity
  8
STEMPEL
100
AcDbLine
 10
368.8114427357327
 20
613.4040542662216
 30
0.0
 11
368.8114427357327
 21
612.4040542662211
 31
0.0
  0
LINE
  5
327
330
2
100
AcDbEntity
  8
STEMPEL
100
AcDbLine
 10
376.8114427357327
 20
613.4040542662211
 30
0.0
 11
376.8114427357327
 21
612.4040542662211
 31
0.0
  0
ARC
  5
328
330
2
100
AcDbEntity
  8
STEMPEL
100
AcDbCircle
 10
385.4692999603062
 20
603.404054266221
 30
0.0
 40
4.99999999999995
100
AcDbArc
 50
181.0000000000005
 51
269.9999999999994
  0
LINE
  5
329
330
2
100
AcDbEntity
  8
STEMPEL
100
AcDbLine
 10
380.3114427357327
 20
612.4040542662212
 30
0.0
 11
380.4700614845243
 21
603.3167922340346
 31
0.0
  0
LINE
  5
32A
330
2
100
AcDbEntity
  8
STEMPEL
100
AcDbLine
 10
380.8114427357326
 20
613.4040542662213
 30
0.0
 11
380.8114427357327
 21
612.4040542662211
 31
0.0
  0
LINE
  5
32C
330
2
100
AcDbEntity
  8
STEMPEL
100
AcDbLine
 10
359.8114427357328
 20
682.4039962989055
 30
0.0
 11
359.8114427357328
 21
618.4040542662216
 31
0.0
  0
LINE
  5
32D
330
2
100
AcDbEntity
  8
STEMPEL
100
AcDbLine
 10
360.811442735733
 20
682.4039962989055
 30
0.0
 11
360.811442735733
 21
618.4040542662216
 31
0.0
  0
LWPOLYLINE
  5
32E
330
2
100
AcDbEntity
  8
STEMPEL
100
AcDbPolyline
 90
       18
 70
   128
 43
0.0
 10
354.1457683479638
 20
624.9040542662193
 10
354.0968990030475
 20
626.2821756498439
 10
353.9519551552274
 20
627.6133667626234
 10
353.7158726934003
 20
628.8522954878002
 10
353.3966911226536
 20
629.9567715935694
 10
353.0052797885631
 20
630.8891834708223
 10
352.5549677346652
 20
631.6177789513837
 10
352.0610897978658
 20
632.1177465900169
 10
351.5404643989608
 20
632.3720605884335
 10
351.010820811489
 20
632.3720605884335
 10
350.4901954125841
 20
632.1177465900169
 10
349.9963174757846
 20
631.6177789513837
 10
349.5460054218867
 20
630.8891834708223
 10
349.1545940877962
 20
629.9567715935694
 10
348.8354125170496
 20
628.8522954878002
 10
348.5993300552224
 20
627.6133667626234
 10
348.4543862074023
 20
626.2821756498439
 10
348.405516862486
 20
624.9040542662193
  0
LINE
  5
32F
330
2
100
AcDbEntity
  8
STEMPEL
100
AcDbLine
 10
348.405516862486
 20
624.9040542662193
 30
0.0
 11
348.405516862486
 21
618.4040542662227
 31
0.0
  0
LINE
  5
330
330
2
100
AcDbEntity
  8
STEMPEL
100
AcDbLine
 10
354.1457683479638
 20
624.9040542662193
 30
0.0
 11
354.1457683479638
 21
618.4040542662227
 31
0.0
  0
LINE
  5
331
330
2
100
AcDbEntity
  8
STEMPEL
100
AcDbLine
 10
349.3315711989933
 20
624.9040542662193
 30
0.0
 11
349.3315711989933
 21
618.4040542662227
 31
0.0
  0
LWPOLYLINE
  5
332
330
2
100
AcDbEntity
  8
STEMPEL
100
AcDbPolyline
 90
        9
 70
   128
 43
0.0
 10
351.738669773477
 20
632.3058125108842
 10
351.2496092302082
 20
631.979379613127
 10
350.7899962623072
 20
631.4341105998697
 10
350.374046458683
 20
630.6868703567417
 10
350.0146249293914
 20
629.7607706339642
 10
349.7228483945039
 20
628.6844552119938
 10
349.5077413497658
 20
627.491213964363
 10
349.3759569436583
 20
626.2179532192873
 10
349.3315711989934
 20
624.9040542662209
  0
LINE
  5
333
330
2
100
AcDbEntity
  8
STEMPEL
100
AcDbLine
 10
359.6017554946976
 20
624.9040542662193
 30
0.0
 11
359.6017554946976
 21
618.4040542662216
 31
0.0
  0
LINE
  5
334
330
2
100
AcDbEntity
  8
STEMPEL
100
AcDbLine
 10
357.6438626113971
 20
624.9040542662193
 30
0.0
 11
357.6438626113971
 21
618.4040542662204
 31
0.0
  0
LINE
  5
335
330
2
100
AcDbEntity
  8
STEMPEL
100
AcDbLine
 10
358.637641324935
 20
624.9040542662193
 30
0.0
 11
358.637641324935
 21
618.4040542662216
 31
0.0
  0
LWPOLYLINE
  5
336
330
2
100
AcDbEntity
  8
STEMPEL
100
AcDbPolyline
 90
       18
 70
   128
 43
0.0
 10
359.6017554946976
 20
624.9040542662193
 10
359.5850870712208
 20
626.2821756498439
 10
359.5356494239604
 20
627.6133667626234
 10
359.4551260927
 20
628.8522954878002
 10
359.3462592029083
 20
629.9567715935694
 10
359.212756085946
 20
630.8891834708223
 10
359.0591630303419
 20
631.6177789513837
 10
358.8907104633898
 20
632.1177465900169
 10
358.7131348352209
 20
632.3720605884335
 10
358.5324832708739
 20
632.3720605884335
 10
358.3549076427049
 20
632.1177465900169
 10
358.1864550757529
 20
631.6177789513837
 10
358.0328620201488
 20
630.8891834708223
 10
357.8993589031865
 20
629.9567715935694
 10
357.7904920133948
 20
628.8522954878002
 10
357.7099686821343
 20
627.6133667626234
 10
357.660531034874
 20
626.2821756498439
 10
357.6438626113971
 20
624.9040542662193
  0
LWPOLYLINE
  5
337
330
2
100
AcDbEntity
  8
STEMPEL
100
AcDbPolyline
 90
        7
 70
   128
 43
0.0
 10
359.1196984098165
 20
631.3661083220591
 10
358.9818694002462
 20
630.6140020851204
 10
358.86300512328
 20
629.6912884744057
 10
358.7666571213788
 20
628.6255372245014
 10
358.6957041738407
 20
627.4485918876804
 10
358.6522662818327
 20
626.1956183812786
 10
358.6376413249351
 20
624.9040542662193
  0
ARC
  5
34B
330
2
100
AcDbEntity
  8
STEMPEL
100
AcDbCircle
 10
392.8114427357327
 20
595.4040542662211
 30
0.0
 40
3.000000000000028
100
AcDbArc
 50
270.0
 51
90.0
  0
LINE
  5
34C
102
{ACAD_REACTORS
330
1609
102
}
330
2
100
AcDbEntity
  8
STEMPEL
100
AcDbLine
 10
400.8114427357327
 20
586.404054266221
 30
0.0
 11
400.8114427357327
 21
589.4040542662209
 31
0.0
  0
LINE
  5
34F
330
2
100
AcDbEntity
  8
STEMPEL
100
AcDbLine
 10
357.33079630386
 20
686.7228917131018
 30
0.0
 11
333.3519424109088
 21
700.7105448792873
 31
0.0
  0
LINE
  5
350
330
2
100
AcDbEntity
  8
STEMPEL
100
AcDbLine
 10
357.8441373574408
 20
687.5811348262645
 30
0.0
 11
333.8578344819739
 21
701.573144836953
 31
0.0
  0
ARC
  5
351
330
2
100
AcDbEntity
  8
STEMPEL
100
AcDbCircle
 10
330.811442735733
 20
696.4040542662206
 30
0.0
 40
5.0
100
AcDbArc
 50
59.46264995169869
 51
90.0
  0
ARC
  5
352
330
2
100
AcDbEntity
  8
STEMPEL
100
AcDbCircle
 10
330.811442735733
 20
696.4040542662206
 30
0.0
 40
6.0
100
AcDbArc
 50
59.48712567238093
 51
90.0
  0
ARC
  5
353
330
2
100
AcDbEntity
  8
STEMPEL
100
AcDbCircle
 10
330.811442735733
 20
696.4040542662206
 30
0.0
 40
6.0
100
AcDbArc
 50
90.0
 51
90.0
  0
ARC
  5
354
330
2
100
AcDbEntity
  8
STEMPEL
100
AcDbCircle
 10
360.3225863400445
 20
691.9238912486829
 30
0.0
 40
5.0
100
AcDbArc
 50
239.7435628364705
 51
239.9329541615152
  0
TEXT
  5
355
330
2
100
AcDbEntity
  8
TEXT
100
AcDbText
 10
552.0
 20
654.9713400534564
 30
0.0
 40
4.0
  1
22321100W.DWG
 50
90.0
 41
0.8
100
AcDbText
  0
TEXT
  5
356
330
2
100
AcDbEntity
  8
TEXT
100
AcDbText
 10
542.0
 20
655.162303158329
 30
0.0
 40
5.0
  1
EDV-Art.Nr. 22321.100X
 50
90.0
 41
0.8
100
AcDbText
  0
TEXT
  5
357
330
2
100
AcDbEntity
  8
TEXT
100
AcDbText
 10
522.0
 20
654.862987254257
 30
0.0
 40
5.0
  1
Notablauf DN100 zweiteilig
 50
90.0
 41
0.8
100
AcDbText
  0
TEXT
  5
358
330
2
100
AcDbEntity
  8
TEXT
100
AcDbText
 10
563.1543942980695
 20
654.7422383911358
 30
0.0
 40
5.0
  1
Bauvorhaben
 50
90.0
 41
0.8
100
AcDbText
  0
TEXT
  5
359
330
2
100
AcDbEntity
  8
TEXT
100
AcDbText
 10
491.4510671988221
 20
654.8779403809009
 30
0.0
 40
5.0
  1
Benennung
 50
90.0
 41
0.8
100
AcDbText
  0
LINE
  5
35A
330
2
100
AcDbEntity
  8
HILF
100
AcDbLine
 10
579.1060174197171
 20
654.7736801096947
 30
0.0
 11
579.1060174197171
 21
824.8588839326728
 31
0.0
  0
LINE
  5
35B
330
2
100
AcDbEntity
  8
HILF
100
AcDbLine
 10
544.0
 20
654.7736801096947
 30
0.0
 11
544.0
 21
746.629784251481
 31
0.0
  0
LINE
  5
35C
330
2
100
AcDbEntity
  8
HILF
100
AcDbLine
 10
534.0
 20
654.7736801096947
 30
0.0
 11
534.0
 21
746.629784251481
 31
0.0
  0
LINE
  5
35D
330
2
100
AcDbEntity
  8
HILF
100
AcDbLine
 10
524.0
 20
654.7736801096947
 30
0.0
 11
524.0
 21
746.629784251481
 31
0.0
  0
LINE
  5
35E
330
2
100
AcDbEntity
  8
HILF
100
AcDbLine
 10
509.9624175243587
 20
654.7736801096947
 30
0.0
 11
509.9624175243587
 21
746.629784251481
 31
0.0
  0
LINE
  5
35F
330
2
100
AcDbEntity
  8
STEMPEL
100
AcDbLine
 10
514.0
 20
830.0
 30
0.0
 11
514.0
 21
566.0000000000001
 31
0.0
  0
LINE
  5
360
330
2
100
AcDbEntity
  8
STEMPEL
100
AcDbLine
 10
554.0
 20
830.0
 30
0.0
 11
554.0
 21
565.9999999999999
 31
0.0
  0
LINE
  5
361
330
2
100
AcDbEntity
  8
STEMPEL
100
AcDbLine
 10
484.0
 20
830.0
 30
0.0
 11
484.0
 21
469.9999999999999
 31
0.0
  0
TEXT
  5
362
330
2
100
AcDbEntity
  8
TEXT
 62
     1
100
AcDbText
 10
507.9624175243586
 20
654.979117340995
 30
0.0
 40
7.0
  1
Drainjet Kompletteinheit
 50
90.0
 41
0.7
100
AcDbText
  0
INSERT
  5
363
330
2
100
AcDbEntity
  8
STEMPEL
100
AcDbBlockReference
  2
LOGO
 10
549.6760802813285
 20
568.9705276546529
 30
0.0
 41
2.0
 42
2.0
 43
2.0
 50
90.0
  0
TEXT
  5
381
330
2
100
AcDbEntity
  8
TEXT
100
AcDbText
 10
576.0
 20
548.6761904761904
 30
0.0
 40
4.0
  1
Name
 50
90.0
 41
0.8
 72
     4
 11
574.0
 21
554.9999999999998
 31
0.0
100
AcDbText
  0
TEXT
  5
382
330
2
100
AcDbEntity
  8
TEXT
100
AcDbText
 10
575.3333333333333
 20
530.2666666666666
 30
0.0
 40
4.0
  1
Tag
 50
90.0
 41
0.8
 72
     4
 11
574.0
 21
534.0
 31
0.0
100
AcDbText
  0
TEXT
  5
383
330
2
100
AcDbEntity
  8
TEXT
100
AcDbText
 10
580.345341539728
 20
478.2664110704573
 30
0.0
 40
4.0
  1
Index
 50
180.0
 41
0.8
100
AcDbText
  0
TEXT
  5
384
330
2
100
AcDbEntity
  8
TEXT
100
AcDbText
 10
575.7142857142857
 20
493.2571428571427
 30
0.0
 40
4.0
  1
Änderung
 50
90.0
 41
0.8
 72
     4
 11
574.0
 21
503.9999999999999
 31
0.0
100
AcDbText
  0
LINE
  5
385
330
2
100
AcDbEntity
  8
VOLL
100
AcDbLine
 10
484.0000000000002
 20
544.0000000000001
 30
0.0
 11
584.0000000000002
 21
543.9999999999998
 31
0.0
  0
LINE
  5
387
330
2
100
AcDbEntity
  8
VOLL
100
AcDbLine
 10
484.0
 20
524.0000000000001
 30
0.0
 11
584.0
 21
523.9999999999999
 31
0.0
  0
LINE
  5
388
330
2
100
AcDbEntity
  8
VOLL
100
AcDbLine
 10
484.0
 20
483.9999999999999
 30
0.0
 11
584.0
 21
483.9999999999998
 31
0.0
  0
LINE
  5
389
330
2
100
AcDbEntity
  8
STEMPEL
100
AcDbLine
 10
484.0
 20
649.9999999999999
 30
0.0
 11
584.0
 21
649.9999999999999
 31
0.0
  0
LINE
  5
38A
330
2
100
AcDbEntity
  8
STEMPEL
100
AcDbLine
 10
484.0000000000002
 20
566.0000000000001
 30
0.0
 11
584.0000000000002
 21
565.9999999999999
 31
0.0
  0
LINE
  5
38B
330
2
100
AcDbEntity
  8
STEMPEL
100
AcDbLine
 10
484.0
 20
469.9999999999999
 30
0.0
 11
584.0
 21
469.9999999999998
 31
0.0
  0
LINE
  5
38C
330
2
100
AcDbEntity
  8
HILF
100
AcDbLine
 10
554.0
 20
469.9999999999999
 30
0.0
 11
554.0
 21
566.0000000000001
 31
0.0
  0
LINE
  5
38D
330
2
100
AcDbEntity
  8
HILF
100
AcDbLine
 10
544.0
 20
469.9999999999999
 30
0.0
 11
544.0
 21
566.0000000000001
 31
0.0
  0
LINE
  5
38E
330
2
100
AcDbEntity
  8
HILF
100
AcDbLine
 10
534.0
 20
469.9999999999999
 30
0.0
 11
534.0
 21
566.0000000000001
 31
0.0
  0
LINE
  5
38F
330
2
100
AcDbEntity
  8
HILF
100
AcDbLine
 10
524.0
 20
469.9999999999999
 30
0.0
 11
524.0
 21
566.0000000000001
 31
0.0
  0
LINE
  5
390
330
2
100
AcDbEntity
  8
HILF
100
AcDbLine
 10
514.0
 20
469.9999999999999
 30
0.0
 11
514.0
 21
566.0000000000001
 31
0.0
  0
LINE
  5
391
330
2
100
AcDbEntity
  8
HILF
100
AcDbLine
 10
504.0
 20
469.9999999999999
 30
0.0
 11
504.0
 21
566.0000000000001
 31
0.0
  0
LINE
  5
392
330
2
100
AcDbEntity
  8
HILF
100
AcDbLine
 10
494.0
 20
469.9999999999999
 30
0.0
 11
494.0
 21
566.0000000000001
 31
0.0
  0
LINE
  5
393
330
2
100
AcDbEntity
  8
STEMPEL
100
AcDbLine
 10
564.0
 20
565.9999999999999
 30
0.0
 11
564.0
 21
469.9999999999998
 31
0.0
  0
TEXT
  5
394
330
2
100
AcDbEntity
  8
TEXT
100
AcDbText
 10
531.0
 20
624.7428571428571
 30
0.0
 40
4.0
  1
Koeh
 50
90.0
 41
0.8
 72
     4
 11
529.0
 21
630.0
 31
0.0
100
AcDbText
  0
TEXT
  5
395
330
2
100
AcDbEntity
  8
TEXT
100
AcDbText
 10
531.0
 20
590.2952380952381
 30
0.0
 40
4.0
  1
27.01.
 50
90.0
 41
0.8
 72
     4
 11
529.0
 21
597.0
 31
0.0
100
AcDbText
  0
TEXT
  5
396
330
2
100
AcDbEntity
  8
TEXT
100
AcDbText
 10
530.3700963038204
 20
567.5836127167614
 30
0.0
 40
4.0
  1
Gez.
 50
90.0
 41
0.8
100
AcDbText
  0
LINE
  5
397
330
2
100
AcDbEntity
  8
VOLL
100
AcDbLine
 10
484.0000000000002
 20
610.0000000000001
 30
0.0
 11
554.0
 21
609.9999999999998
 31
0.0
  0
LINE
  5
398
330
2
100
AcDbEntity
  8
VOLL
100
AcDbLine
 10
514.0
 20
584.0000000000001
 30
0.0
 11
554.0
 21
584.0000000000001
 31
0.0
  0
TEXT
  5
399
330
2
100
AcDbEntity
  8
TEXT
100
AcDbText
 10
506.02548141178
 20
613.0095238095237
 30
0.0
 40
4.0
  1
DIN EN1124-3
 50
90.0
 41
0.8
 72
     1
 11
506.02548141178
 21
630.0
 31
0.0
100
AcDbText
  0
TEXT
  5
39A
330
2
100
AcDbEntity
  8
TEXT
100
AcDbText
 10
491.4510671988221
 20
616.5714285714285
 30
0.0
 40
5.0
  1
Zul. Abw.
 50
90.0
 41
0.8
 72
     1
 11
491.4510671988221
 21
630.0
 31
0.0
100
AcDbText
  0
LINE
  5
39B
330
2
100
AcDbEntity
  8
HILF
100
AcDbLine
 10
524.0
 20
566.0000000000001
 30
0.0
 11
524.0
 21
649.9999999999999
 31
0.0
  0
TEXT
  5
39C
330
2
100
AcDbEntity
  8
TEXT
 62
     1
100
AcDbText
 10
505.0665362676126
 20
582.0000000000001
 30
0.0
 40
7.0
  1
1:2
 50
90.0
 41
0.8
 72
     1
 11
505.0665362676126
 21
588.0000000000001
 31
0.0
100
AcDbText
  0
TEXT
  5
39D
330
2
100
AcDbEntity
  8
TEXT
100
AcDbText
 10
491.4510671988221
 20
576.1904761904762
 30
0.0
 40
5.0
  1
Maßstab
 50
90.0
 41
0.8
 72
     1
 11
491.4510671988221
 21
588.0000000000001
 31
0.0
100
AcDbText
  0
TEXT
  5
39E
330
2
100
AcDbEntity
  8
TEXT
100
AcDbText
 10
521.0
 20
570.3523809523809
 30
0.0
 40
4.0
  1
2011
 50
90.0
 41
0.8
 72
     4
 11
519.0
 21
575.0
 31
0.0
100
AcDbText
  0
TEXT
  5
39F
330
2
100
AcDbEntity
  8
TEXT
100
AcDbText
 10
520.3333333333334
 20
593.2666666666666
 30
0.0
 40
4.0
  1
Tag
 50
90.0
 41
0.8
 72
     4
 11
519.0
 21
597.0
 31
0.0
100
AcDbText
  0
TEXT
  5
3A0
330
2
100
AcDbEntity
  8
TEXT
100
AcDbText
 10
521.0
 20
623.6761904761905
 30
0.0
 40
4.0
  1
Name
 50
90.0
 41
0.8
 72
     4
 11
519.0
 21
630.0
 31
0.0
100
AcDbText
  0
LINE
  5
3A1
330
2
100
AcDbEntity
  8
HILF
100
AcDbLine
 10
544.0
 20
566.0000000000001
 30
0.0
 11
544.0
 21
649.9999999999999
 31
0.0
  0
LINE
  5
3A2
330
2
100
AcDbEntity
  8
HILF
100
AcDbLine
 10
534.0
 20
566.0000000000001
 30
0.0
 11
534.0
 21
649.9999999999999
 31
0.0
  0
TEXT
  5
3A3
330
2
100
AcDbEntity
  8
TEXT
100
AcDbText
 10
540.3107370857163
 20
567.5515086571671
 30
0.0
 40
4.0
  1
Gepr.
 50
90.0
 41
0.8
100
AcDbText
  0
TEXT
  5
3A4
330
2
100
AcDbEntity
  8
TEXT
100
AcDbText
 10
550.4705361035019
 20
567.6006777387303
 30
0.0
 40
4.0
  1
Norm.
 50
90.0
 41
0.8
100
AcDbText
  0
LINE
  5
3A5
330
2
100
AcDbEntity
  8
HILF
100
AcDbLine
 10
594.0
 20
460.0
 30
0.0
 11
584.0
 21
460.0
 31
0.0
  0
LINE
  5
3A6
330
2
100
AcDbEntity
  8
HILF
100
AcDbLine
 10
510.2201636304418
 20
756.7238616296994
 30
0.0
 11
510.2201636304418
 21
824.8588839326728
 31
0.0
  0
LINE
  5
3A7
330
2
100
AcDbEntity
  8
VOLL
100
AcDbLine
 10
534.0
 20
752.0000000000001
 30
0.0
 11
534.0
 21
830.0
 31
0.0
  0
LINE
  5
3A8
330
2
100
AcDbEntity
  8
STEMPEL
100
AcDbLine
 10
484.0000000000004
 20
752.0000000000001
 30
0.0
 11
554.0
 21
752.0000000000001
 31
0.0
  0
TEXT
  5
3A9
330
2
100
AcDbEntity
  8
TEXT
 62
     1
100
AcDbText
 10
508.2201636304416
 20
767.4377728175697
 30
0.0
 40
7.0
  1
22321100W
 50
90.0
 41
0.8
 72
     1
 11
508.2201636304416
 21
790.3711061509031
 31
0.0
100
AcDbText
  0
TEXT
  5
3AA
330
2
100
AcDbEntity
  8
TEXT
100
AcDbText
 10
491.6867965462863
 20
756.1787549576341
 30
0.0
 40
5.0
  1
Zeichnungs Nr.
 50
90.0
 41
0.8
100
AcDbText
  0
TEXT
  5
3AB
330
2
100
AcDbEntity
  8
TEXT
100
AcDbText
 10
520.8188176290004
 20
756.7238616296994
 30
0.0
 40
5.0
  1
Ersatz für:
 50
90.0
 41
0.8
100
AcDbText
  0
TEXT
  5
3AC
330
2
100
AcDbEntity
  8
TEXT
100
AcDbText
 10
541.925838221214
 20
757.2400861497007
 30
0.0
 40
5.0
  1
ersetzt durch:
 50
90.0
 41
0.8
100
AcDbText
  0
LINE
  5
4B3
102
{ACAD_REACTORS
330
1620
102
}
330
2
100
AcDbEntity
  8
STEMPEL
100
AcDbLine
 10
100.8114427357327
 20
435.6969474850355
 30
0.0
 11
193.9300920529366
 21
435.6969474850353
 31
0.0
  0
LINE
  5
4B6
330
2
100
AcDbEntity
  8
STEMPEL
100
AcDbLine
 10
392.8114427357327
 20
441.6969474850346
 30
0.0
 11
308.4430326375489
 21
441.6969474850347
 31
0.0
  0
LINE
  5
4B7
330
2
100
AcDbEntity
  8
STEMPEL
100
AcDbLine
 10
108.8114427357327
 20
447.6969474850347
 30
0.0
 11
199.3114427357327
 21
447.6969474850347
 31
0.0
  0
LINE
  5
4B9
102
{ACAD_REACTORS
330
1620
102
}
330
2
100
AcDbEntity
  8
STEMPEL
100
AcDbLine
 10
143.8114427357327
 20
438.6969474850347
 30
0.0
 11
194.8383792396528
 21
438.6969474850347
 31
0.0
  0
HATCH
  5
4BD
330
2
100
AcDbEntity
  8
SCHRAFF
100
AcDbHatch
 10
0.0
 20
0.0
 30
0.0
210
0.0
220
0.0
230
1.0
  2
_U
 70
     0
 71
     0
 91
        5
 92
        7
 72
     1
 73
     1
 93
        8
 10
354.2859503769969
 20
441.6969474850346
 42
0.0
 10
354.2859503769969
 20
447.6969474850348
 42
0.0
 10
332.8114427357328
 20
447.6969474850348
 42
0.0
 10
332.8114424406892
 20
447.6969474850348
 42
0.9999998546765469
 10
332.811442150209
 20
441.6969474850351
 42
0.0
 10
332.8114415663117
 20
441.6969474850353
 42
0.0
 10
332.8114421524348
 20
441.6969474850352
 42
0.0
 10
332.8114427357328
 20
441.6969474850351
 42
0.0
 97
        0
 92
        7
 72
     1
 73
     1
 93
        8
 10
360.1535855111595
 20
447.6969474850348
 42
0.0
 10
354.2859503769969
 20
447.6969474850348
 42
0.0
 10
354.2859503769969
 20
441.6969474850346
 42
0.0
 10
369.8114427357322
 20
441.6969474850346
 42
0.0
 10
369.8114427357327
 20
448.9469474850351
 42
0.0
 10
369.8114427357326
 20
461.6969474850349
 42
0.0
 10
365.3114427357327
 20
461.6969474850349
 42
0.0
 10
365.1528239869414
 20
452.6096854528486
 42
-0.409110801427714
 97
        0
 92
        7
 72
     1
 73
     1
 93
        8
 10
392.8114427357327
 20
441.6969474850346
 42
1.000000097333981
 10
392.8114427357327
 20
447.6969474850347
 42
0.0
 10
385.4692999603062
 20
447.6969474850347
 42
-0.4091108014277084
 10
380.4700614845243
 20
452.6096854528482
 42
0.0
 10
380.3114427357327
 20
461.6969474850348
 42
0.0
 10
375.8114427357325
 20
461.6969474850349
 42
0.0
 10
375.8114427357327
 20
448.9469474850351
 42
0.0
 10
375.8114427357335
 20
441.6969474850346
 42
0.0
 97
        0
 92
        7
 72
     1
 73
     1
 93
        4
 10
145.8114427357327
 20
447.6969474850347
 42
0.0
 10
145.8114427357327
 20
441.6969474850346
 42
0.0
 10
168.8114427357328
 20
441.6969474850346
 42
1.0
 10
168.8114427357328
 20
447.6969474850347
 42
0.0
 97
        0
 92
        7
 72
     1
 73
     1
 93
        4
 10
108.8114427357327
 20
447.6969474850347
 42
1.0
 10
108.8114427357327
 20
441.6969474850346
 42
0.0
 10
131.8114427357327
 20
441.6969474850346
 42
0.0
 10
131.8114427357327
 20
447.6969474850347
 42
0.0
 97
        0
 75
     0
 76
     0
 52
135.0
 41
5.0
 77
     0
 78
     1
 53
135.0
 43
0.0
 44
0.0
 45
-3.535533905932737
 46
-3.535533905932737
 79
     0
 47
0.4233752505078366
 98
        5
 10
345.9704162960684
 20
442.8651885659495
 10
365.4586471334092
 20
446.67556559503
 10
387.4888184162032
 20
443.7119402595552
 10
160.4085680829562
 20
445.8288166974974
 10
111.6879932134111
 20
446.2521925443005
  0
LINE
  5
4C1
330
2
100
AcDbEntity
  8
STEMPEL
100
AcDbLine
 10
108.8114427357327
 20
441.6969474850346
 30
0.0
 11
133.8114427357327
 21
441.6969474850346
 31
0.0
  0
LINE
  5
4C3
102
{ACAD_REACTORS
330
1620
102
}
330
2
100
AcDbEntity
  8
STEMPEL
100
AcDbLine
 10
100.8114427357327
 20
438.6969474850347
 30
0.0
 11
133.8114427357327
 21
438.6969474850347
 31
0.0
  0
ARC
  5
4C4
330
2
100
AcDbEntity
  8
STEMPEL
100
AcDbCircle
 10
108.8114427357327
 20
444.6969474850346
 30
0.0
 40
3.0
100
AcDbArc
 50
89.99999999999946
 51
270.0000000000005
  0
LINE
  5
4CA
102
{ACAD_REACTORS
330
1620
102
}
330
2
100
AcDbEntity
  8
STEMPEL
100
AcDbLine
 10
100.8114427357327
 20
435.6969474850346
 30
0.0
 11
100.8114427357327
 21
438.6969474850347
 31
0.0
  0
LINE
  5
4DB
330
2
100
AcDbEntity
  8
STEMPEL
100
AcDbLine
 10
133.8114427357327
 20
459.6969474850355
 30
0.0
 11
143.8114427357327
 21
459.6969474850355
 31
0.0
  0
LINE
  5
4DD
330
2
100
AcDbEntity
  8
STEMPEL
100
AcDbLine
 10
134.8114427357327
 20
460.6969474850354
 30
0.0
 11
133.8114427357327
 21
459.6969474850353
 31
0.0
  0
LINE
  5
4E1
330
2
100
AcDbEntity
  8
STEMPEL
100
AcDbLine
 10
133.8114427357327
 20
447.6969474850347
 30
0.0
 11
133.8114427357327
 21
435.6969474850354
 31
0.0
  0
LINE
  5
4E4
330
2
100
AcDbEntity
  8
STEMPEL
100
AcDbLine
 10
131.8114427357327
 20
447.6969474850347
 30
0.0
 11
131.8114427357327
 21
441.6969474850346
 31
0.0
  0
LINE
  5
4E8
330
2
100
AcDbEntity
  8
STEMPEL
100
AcDbLine
 10
133.8114427357327
 20
459.6969474850353
 30
0.0
 11
133.8114427357327
 21
457.6969474850346
 31
0.0
  0
LINE
  5
4EF
330
2
100
AcDbEntity
  8
MITTEL
100
AcDbLine
 10
138.8114427357327
 20
465.6969474850353
 30
0.0
 11
138.8114427357327
 21
435.6969474850354
 31
0.0
  0
LINE
  5
4F0
330
2
100
AcDbEntity
  8
HILF
100
AcDbLine
 10
134.8114427357327
 20
447.6969474850347
 30
0.0
 11
134.8114427357327
 21
435.6969474850354
 31
0.0
  0
LINE
  5
4F1
330
2
100
AcDbEntity
  8
STEMPEL
100
AcDbLine
 10
143.8114427357327
 20
447.6969474850347
 30
0.0
 11
143.8114427357327
 21
435.6969474850354
 31
0.0
  0
LINE
  5
4F2
330
2
100
AcDbEntity
  8
HILF
100
AcDbLine
 10
142.8114427357327
 20
447.6969474850347
 30
0.0
 11
142.8114427357327
 21
435.6969474850354
 31
0.0
  0
LINE
  5
4F3
330
2
100
AcDbEntity
  8
STEMPEL
100
AcDbLine
 10
145.8114427357327
 20
447.6969474850347
 30
0.0
 11
145.8114427357327
 21
441.6969474850346
 31
0.0
  0
LINE
  5
4F4
330
2
100
AcDbEntity
  8
STEMPEL
100
AcDbLine
 10
142.8114427357327
 20
460.6969474850354
 30
0.0
 11
134.8114427357327
 21
460.6969474850354
 31
0.0
  0
LINE
  5
4F6
330
2
100
AcDbEntity
  8
HILF
100
AcDbLine
 10
134.8114427357327
 20
460.6969474850354
 30
0.0
 11
134.8114427357327
 21
457.6969474850347
 31
0.0
  0
LINE
  5
4F8
330
2
100
AcDbEntity
  8
STEMPEL
100
AcDbLine
 10
143.8114427357327
 20
459.6969474850353
 30
0.0
 11
142.8114427357327
 21
460.6969474850354
 31
0.0
  0
LINE
  5
4F9
330
2
100
AcDbEntity
  8
STEMPEL
100
AcDbLine
 10
143.8114427357327
 20
459.6969474850353
 30
0.0
 11
143.8114427357327
 21
457.6969474850346
 31
0.0
  0
LINE
  5
4FA
330
2
100
AcDbEntity
  8
HILF
100
AcDbLine
 10
142.8114427357327
 20
460.6969474850354
 30
0.0
 11
142.8114427357327
 21
457.6969474850347
 31
0.0
  0
ARC
  5
50B
330
2
100
AcDbEntity
  8
STEMPEL
100
AcDbCircle
 10
168.8114427357328
 20
444.6969474850346
 30
0.0
 40
3.0
100
AcDbArc
 50
269.9999999999995
 51
90.00000000000055
  0
LINE
  5
50E
102
{ACAD_REACTORS
330
1620
102
}
330
2
100
AcDbEntity
  8
STEMPEL
100
AcDbLine
 10
170.8114427357326
 20
435.6969474850346
 30
0.0
 11
170.8114427357326
 21
438.6969474850347
 31
0.0
  0
LINE
  5
514
330
2
100
AcDbEntity
  8
STEMPEL
100
AcDbLine
 10
198.8114427357328
 20
460.6969474850351
 30
0.0
 11
190.8114427357328
 21
460.6969474850352
 31
0.0
  0
LINE
  5
515
330
2
100
AcDbEntity
  8
STEMPEL
100
AcDbLine
 10
189.8114427357329
 20
459.6969474850353
 30
0.0
 11
199.3114427357327
 21
459.6969474850354
 31
0.0
  0
LINE
  5
51D
330
2
100
AcDbEntity
  8
STEMPEL
100
AcDbLine
 10
190.8114427357328
 20
460.6969474850352
 30
0.0
 11
189.8114427357328
 21
459.6969474850352
 31
0.0
  0
LINE
  5
51E
330
2
100
AcDbEntity
  8
HILF
100
AcDbLine
 10
190.8114427357328
 20
460.6969474850352
 30
0.0
 11
190.8114427357328
 21
457.6969474850346
 31
0.0
  0
LINE
  5
51F
330
2
100
AcDbEntity
  8
STEMPEL
100
AcDbLine
 10
189.8114427357328
 20
459.6969474850352
 30
0.0
 11
189.8114427357328
 21
457.6969474850347
 31
0.0
  0
LINE
  5
520
102
{ACAD_REACTORS
330
14A4
102
}
330
2
100
AcDbEntity
  8
MITTEL
100
AcDbLine
 10
194.8114427357328
 20
465.6969474850352
 30
0.0
 11
194.8114427357328
 21
435.6969474850352
 31
0.0
  0
LINE
  5
527
330
2
100
AcDbEntity
  8
STEMPEL
100
AcDbLine
 10
199.3114427357327
 20
460.1969474850352
 30
0.0
 11
198.8114427357328
 21
460.6969474850351
 31
0.0
  0
LINE
  5
528
330
2
100
AcDbEntity
  8
HILF
100
AcDbLine
 10
198.8114427357328
 20
460.6969474850351
 30
0.0
 11
198.8114427357328
 21
457.6969474850346
 31
0.0
  0
LINE
  5
569
330
2
100
AcDbEntity
  8
STEMPEL
100
AcDbLine
 10
385.4692999603061
 20
447.6969474850347
 30
0.0
 11
392.8114427357327
 21
447.6969474850347
 31
0.0
  0
ARC
  5
577
330
2
100
AcDbEntity
  8
STEMPEL
100
AcDbCircle
 10
332.8114427357328
 20
444.696947485035
 30
0.0
 40
2.999999999999886
100
AcDbArc
 50
90.0
 51
270.0
  0
LINE
  5
57A
102
{ACAD_REACTORS
330
1620
102
}
330
2
100
AcDbEntity
  8
STEMPEL
100
AcDbLine
 10
330.8114427357327
 20
435.6969474850346
 30
0.0
 11
330.8114427357327
 21
438.6969474850347
 31
0.0
  0
LINE
  5
585
330
2
100
AcDbEntity
  8
MITTEL
100
AcDbLine
 10
372.8114427357327
 20
441.6969474850346
 30
0.0
 11
372.8114427357327
 21
466.6969474850347
 31
0.0
  0
LINE
  5
58F
330
2
100
AcDbEntity
  8
STEMPEL
100
AcDbLine
 10
350.2859503769969
 20
460.6969474850354
 30
0.0
 11
358.2859503769969
 21
460.6969474850354
 31
0.0
  0
LINE
  5
590
330
2
100
AcDbEntity
  8
STEMPEL
100
AcDbLine
 10
359.2859503769969
 20
459.6969474850355
 30
0.0
 11
349.2859503769969
 21
459.6969474850355
 31
0.0
  0
LINE
  5
591
102
{ACAD_REACTORS
330
1620
102
}
330
2
100
AcDbEntity
  8
MITTEL
100
AcDbLine
 10
354.2859503769969
 20
465.6969474850353
 30
0.0
 11
354.2859503769969
 21
435.6969474850354
 31
0.0
  0
LINE
  5
594
330
2
100
AcDbEntity
  8
STEMPEL
100
AcDbLine
 10
349.285950376997
 20
441.6969474850346
 30
0.0
 11
349.2859503769969
 21
438.6969474850347
 31
0.0
  0
LINE
  5
595
330
2
100
AcDbEntity
  8
HILF
100
AcDbLine
 10
350.285950376997
 20
441.6969474850346
 30
0.0
 11
350.2859503769968
 21
438.6969474850347
 31
0.0
  0
LINE
  5
599
330
2
100
AcDbEntity
  8
STEMPEL
100
AcDbLine
 10
349.2859503769969
 20
459.6969474850353
 30
0.0
 11
350.2859503769969
 21
460.6969474850354
 31
0.0
  0
LINE
  5
59A
330
2
100
AcDbEntity
  8
STEMPEL
100
AcDbLine
 10
349.2859503769969
 20
459.6969474850353
 30
0.0
 11
349.2859503769969
 21
457.6969474850348
 31
0.0
  0
LINE
  5
59B
330
2
100
AcDbEntity
  8
HILF
100
AcDbLine
 10
350.2859503769969
 20
460.6969474850354
 30
0.0
 11
350.2859503769969
 21
457.6969474850348
 31
0.0
  0
ARC
  5
59D
330
2
100
AcDbEntity
  8
STEMPEL
100
AcDbCircle
 10
360.1535855111595
 20
452.6969474850349
 30
0.0
 40
5.0
100
AcDbArc
 50
270.0
 51
359.0000000000015
  0
LINE
  5
59E
330
2
100
AcDbEntity
  8
STEMPEL
100
AcDbLine
 10
359.2859503769969
 20
441.6969474850346
 30
0.0
 11
359.2859503769969
 21
438.6969474850347
 31
0.0
  0
LINE
  5
59F
330
2
100
AcDbEntity
  8
HILF
100
AcDbLine
 10
358.2859503769969
 20
441.6969474850346
 30
0.0
 11
358.2859503769969
 21
438.6969474850347
 31
0.0
  0
LINE
  5
5A2
330
2
100
AcDbEntity
  8
STEMPEL
100
AcDbLine
 10
358.2859503769969
 20
460.6969474850354
 30
0.0
 11
359.2859503769969
 21
459.6969474850353
 31
0.0
  0
LINE
  5
5A3
330
2
100
AcDbEntity
  8
HILF
100
AcDbLine
 10
358.2859503769969
 20
460.6969474850354
 30
0.0
 11
358.2859503769969
 21
457.6969474850349
 31
0.0
  0
LINE
  5
5A4
330
2
100
AcDbEntity
  8
STEMPEL
100
AcDbLine
 10
359.2859503769969
 20
459.6969474850353
 30
0.0
 11
359.2859503769969
 21
457.6969474850348
 31
0.0
  0
LINE
  5
5A7
330
2
100
AcDbEntity
  8
STEMPEL
100
AcDbLine
 10
365.1528239869414
 20
452.6096854528486
 30
0.0
 11
365.3114427357327
 21
461.6969474850351
 31
0.0
  0
LINE
  5
5AA
330
2
100
AcDbEntity
  8
STEMPEL
100
AcDbLine
 10
365.3114427357327
 20
461.6969474850351
 30
0.0
 11
380.3114427357326
 21
461.6969474850348
 31
0.0
  0
LINE
  5
5B2
330
2
100
AcDbEntity
  8
HILF
100
AcDbLine
 10
369.8114427357336
 20
461.696947485035
 30
0.0
 11
369.8114427357322
 21
441.6969474850346
 31
0.0
  0
LINE
  5
5B3
330
2
100
AcDbEntity
  8
STEMPEL
100
AcDbLine
 10
370.4614427357338
 20
461.696947485035
 30
0.0
 11
370.461442735733
 21
441.6969474850346
 31
0.0
  0
LINE
  5
5B4
330
2
100
AcDbEntity
  8
HILF
100
AcDbLine
 10
375.8114427357313
 20
461.6969474850349
 30
0.0
 11
375.8114427357335
 21
441.6969474850346
 31
0.0
  0
LINE
  5
5B5
330
2
100
AcDbEntity
  8
STEMPEL
100
AcDbLine
 10
375.1614427357311
 20
461.6969474850349
 30
0.0
 11
375.1614427357327
 21
441.6969474850346
 31
0.0
  0
ARC
  5
5BA
330
2
100
AcDbEntity
  8
STEMPEL
100
AcDbCircle
 10
385.4692999603062
 20
452.6969474850346
 30
0.0
 40
4.99999999999995
100
AcDbArc
 50
181.0000000000005
 51
269.9999999999994
  0
LINE
  5
5BD
330
2
100
AcDbEntity
  8
STEMPEL
100
AcDbLine
 10
380.3114427357326
 20
461.6969474850348
 30
0.0
 11
380.4700614845243
 21
452.6096854528483
 31
0.0
  0
ARC
  5
5C8
330
2
100
AcDbEntity
  8
STEMPEL
100
AcDbCircle
 10
392.8114427357327
 20
444.6969474850347
 30
0.0
 40
3.000000000000028
100
AcDbArc
 50
270.0
 51
90.0
  0
LINE
  5
5CB
102
{ACAD_REACTORS
330
1620
102
}
330
2
100
AcDbEntity
  8
STEMPEL
100
AcDbLine
 10
400.8114427357327
 20
435.6969474850346
 30
0.0
 11
400.8114427357327
 21
438.6969474850347
 31
0.0
  0
LINE
  5
5E7
330
2
100
AcDbEntity
  8
STEMPEL
100
AcDbLine
 10
302.3114427357327
 20
447.6969474850347
 30
0.0
 11
360.1535855111595
 21
447.6969474850348
 31
0.0
  0
LINE
  5
5E8
330
2
100
AcDbEntity
  8
STEMPEL
100
AcDbLine
 10
193.1798528339166
 20
441.6969474850348
 30
0.0
 11
143.8114427357327
 21
441.6969474850346
 31
0.0
  0
LINE
  5
5EA
102
{ACAD_REACTORS
330
1620
102
}
330
2
100
AcDbEntity
  8
STEMPEL
100
AcDbLine
 10
306.7845062318124
 20
438.6969474850346
 30
0.0
 11
400.8114427357327
 21
438.6969474850347
 31
0.0
  0
LINE
  5
5EB
102
{ACAD_REACTORS
330
1620
102
}
330
2
100
AcDbEntity
  8
STEMPEL
100
AcDbLine
 10
307.692793418529
 20
435.6969474850349
 30
0.0
 11
400.8114427357327
 21
435.6969474850346
 31
0.0
  0
LINE
  5
61B
102
{ACAD_REACTORS
330
1609
102
}
330
2
100
AcDbEntity
  8
STEMPEL
100
AcDbLine
 10
131.8114427357327
 20
589.4040542662209
 30
0.0
 11
131.8114427357327
 21
586.4040542662218
 31
0.0
  0
LINE
  5
61C
102
{ACAD_REACTORS
330
1609
102
}
330
2
100
AcDbEntity
  8
STEMPEL
100
AcDbLine
 10
145.8114427357327
 20
589.4040542662209
 30
0.0
 11
145.8114427357327
 21
586.4040542662218
 31
0.0
  0
LINE
  5
666
102
{ACAD_REACTORS
330
1620
102
}
330
2
100
AcDbEntity
  8
STEMPEL
100
AcDbLine
 10
131.8114427357327
 20
438.6969474850347
 30
0.0
 11
131.8114427357327
 21
435.6969474850354
 31
0.0
  0
LINE
  5
667
102
{ACAD_REACTORS
330
1620
102
}
330
2
100
AcDbEntity
  8
STEMPEL
100
AcDbLine
 10
145.8114427357327
 20
438.6969474850347
 30
0.0
 11
145.8114427357327
 21
435.6969474850354
 31
0.0
  0
TEXT
  5
CC0
330
2
100
AcDbEntity
  8
VOLL
100
AcDbText
 10
1825.503511428483
 20
628.389461589111
 30
0.0
 40
1.8
  1

  7
GREEKS
100
AcDbText
  0
TEXT
  5
CE2
330
2
100
AcDbEntity
  8
VOLL
100
AcDbText
 10
1877.710813222073
 20
15.82580734727966
 30
0.0
 40
3.6
  1

  7
GREEKS
100
AcDbText
  0
TEXT
  5
CE3
330
2
100
AcDbEntity
  8
TEXT35
100
AcDbText
 10
2227.697333098831
 20
458.7954091288918
 30
0.0
 40
7.0
  1

 41
0.8
100
AcDbText
  0
TEXT
  5
F01
330
2
100
AcDbEntity
  8
TEXT
 62
     1
100
AcDbText
 10
357.8717572836839
 20
547.8965867998798
 30
0.0
 40
7.0
  1
Losflansch DN100
 41
0.8
100
AcDbText
  0
LINE
  5
F02
330
2
100
AcDbEntity
  8
TEXT
 62
     2
100
AcDbLine
 10
460.718525612735
 20
544.4127526389694
 30
0.0
 11
354.7799610376019
 21
544.4127526389694
 31
0.0
  0
TEXT
  5
F03
330
2
100
AcDbEntity
  8
TEXT
 62
     1
100
AcDbText
 10
355.3753169163563
 20
535.1202558311703
 30
0.0
 40
7.0
  1
EDV-Art.Nr. 21906.100X
 41
0.8
100
AcDbText
  0
LINE
  5
F04
102
{ACAD_REACTORS
330
1609
102
}
330
2
100
AcDbEntity
  8
TEXT
 62
     2
100
AcDbLine
 10
354.7799610376019
 20
544.4127526389694
 30
0.0
 11
349.3021071406284
 21
595.9062845309337
 31
0.0
  0
LINE
  5
F05
330
2
100
AcDbEntity
  8
TEXT
 62
     2
100
AcDbLine
 10
349.5361544322489
 20
517.8431455195733
 30
0.0
 11
461.0658957666516
 21
517.8431455195732
 31
0.0
  0
TEXT
  5
F06
330
2
100
AcDbEntity
  8
TEXT
 62
     1
100
AcDbText
 10
356.6179401354308
 20
507.291672706578
 30
0.0
 40
7.0
  1
EDV-Art.Nr. 21810.125X
 41
0.8
100
AcDbText
  0
TEXT
  5
F07
330
2
100
AcDbEntity
  8
TEXT
 62
     1
100
AcDbText
 10
356.2619811325941
 20
520.8296860116263
 30
0.0
 40
7.0
  1
Kompressionsdichtung
 41
0.8
100
AcDbText
  0
LINE
  5
F09
330
2
100
AcDbEntity
  8
TEXT
 62
     2
100
AcDbLine
 10
349.5361544322489
 20
517.8431455195733
 30
0.0
 11
333.6686075316336
 21
587.4536043769499
 31
0.0
  0
LINE
  5
F31
330
2
100
AcDbEntity
  8
TEXT
 62
     2
100
AcDbLine
 10
304.5103876387009
 20
711.7370158350306
 30
0.0
 11
289.2547296949766
 21
684.9464561182267
 31
0.0
  0
LINE
  5
F32
330
2
100
AcDbEntity
  8
TEXT
 62
     2
100
AcDbLine
 10
313.9098918143213
 20
728.2435459928399
 30
0.0
 11
306.9125481452459
 21
715.9554654579401
 31
0.0
  0
TEXT
  5
F33
330
2
100
AcDbEntity
  8
TEXT
 62
     1
100
AcDbText
 10
326.967854608345
 20
738.7838087053942
 30
0.0
 40
7.0
  1
EDV-Art.Nr. 21016.000X
 41
0.8
  7
GREEKS
100
AcDbText
  0
TEXT
  5
F34
330
2
100
AcDbEntity
  8
TEXT
 62
     1
100
AcDbText
 10
326.967854608345
 20
750.8426912705631
 30
0.0
 40
7.0
  1
Drainjethaube
 41
0.8
  7
GREEKS
100
AcDbText
  0
LINE
  5
F35
330
2
100
AcDbEntity
  8
TEXT
 62
     2
100
AcDbLine
 10
324.8541256173672
 20
747.4627858536666
 30
0.0
 11
430.7990864833215
 21
747.4627858536666
 31
0.0
  0
LINE
  5
F36
330
2
100
AcDbEntity
  8
TEXT
 62
     2
100
AcDbLine
 10
324.8541256173672
 20
747.4627858536666
 30
0.0
 11
316.0723302361834
 21
732.0410181103002
 31
0.0
  0
TEXT
  5
F57
330
2
100
AcDbEntity
  8
TEXT
 62
     1
100
AcDbText
 10
324.1026806247699
 20
478.4800515305266
 30
0.0
 40
7.0
  1
EDV-Art.Nr. 21976.100X
 41
0.8
100
AcDbText
  0
TEXT
  5
F58
330
2
100
AcDbEntity
  8
TEXT
 62
     1
100
AcDbText
 10
324.1026806247699
 20
491.2563824992361
 30
0.0
 40
7.0
  1
Ablaufkörper DN100
 41
0.8
100
AcDbText
  0
LINE
  5
F59
330
2
100
AcDbEntity
  8
TEXT
 62
     2
100
AcDbLine
 10
429.4458893211486
 20
487.7725483383257
 30
0.0
 11
323.5073247460156
 21
487.7725483383257
 31
0.0
  0
LINE
  5
F5A
330
2
100
AcDbEntity
  8
TEXT
 62
     2
100
AcDbLine
 10
323.5073247460156
 20
487.7725483383257
 30
0.0
 11
301.7839764703555
 21
474.4428430265434
 31
0.0
  0
LINE
  5
F77
330
2
100
AcDbEntity
  8
TEXT
 62
     2
100
AcDbLine
 10
429.4458893211486
 20
238.2231965623184
 30
0.0
 11
323.5073247460156
 21
238.2231965623184
 31
0.0
  0
TEXT
  5
F78
330
2
100
AcDbEntity
  8
TEXT
 62
     1
100
AcDbText
 10
324.1026806247699
 20
241.7070307232288
 30
0.0
 40
7.0
  1
Unterteil DN100
 41
0.8
100
AcDbText
  0
TEXT
  5
F79
330
2
100
AcDbEntity
  8
TEXT
 62
     1
100
AcDbText
 10
324.1026806247699
 20
228.9306997545192
 30
0.0
 40
7.0
  1
EDV-Art.Nr. 21975.100X
 41
0.8
100
AcDbText
  0
LINE
  5
F7A
330
2
100
AcDbEntity
  8
TEXT
 62
     2
100
AcDbLine
 10
323.5073247460156
 20
238.2231965623184
 30
0.0
 11
301.7839764703555
 21
224.893491250536
 31
0.0
  0
LINE
  5
121E
330
2
100
AcDbEntity
  8
STEMPEL
100
AcDbLine
 10
307.6927934185294
 20
435.6969474850343
 30
0.0
 11
394.2759088298
 21
435.6969474850341
 31
0.0
  0
TEXT
  5
1224
330
2
100
AcDbEntity
  8
TEXT
 62
     1
100
AcDbText
 10
242.1960051676957
 20
404.0891756088715
 30
0.0
 40
7.0
  1
DN100
 50
90.0
 41
0.8
  7
GREEKS
 72
     1
 11
242.1960051676957
 21
416.4891756088715
 31
0.0
100
AcDbText
  0
LINE
  5
12B9
102
{ACAD_REACTORS
330
12E9
102
}
330
2
100
AcDbEntity
  8
STEMPEL
100
AcDbLine
 10
400.8114427357327
 20
581.5182678285951
 30
0.0
 11
397.0972291733608
 21
585.2324813909671
 31
0.0
  0
LINE
  5
12BA
102
{ACAD_REACTORS
330
12E9
102
}
330
2
100
AcDbEntity
  8
STEMPEL
100
AcDbLine
 10
400.8114427357327
 20
581.5182678285951
 30
0.0
 11
398.6901223921732
 21
579.3969474850353
 31
0.0
  0
ARC
  5
12BB
102
{ACAD_REACTORS
330
12E9
102
}
330
2
100
AcDbEntity
  8
STEMPEL
100
AcDbCircle
 10
394.2688020486147
 20
582.4040542662207
 30
0.0
 40
1.0
100
AcDbArc
 50
45.0
 51
90.0
  0
LINE
  5
12BC
102
{ACAD_REACTORS
330
12E9
102
}
330
2
100
AcDbEntity
  8
STEMPEL
100
AcDbLine
 10
398.6901223921732
 20
579.3969474850353
 30
0.0
 11
394.9759088298013
 21
583.1111610474073
 31
0.0
  0
ARC
  5
12BD
102
{ACAD_REACTORS
330
12E9
102
}
330
2
100
AcDbEntity
  8
STEMPEL
100
AcDbCircle
 10
394.2688020486146
 20
582.4040542662209
 30
0.0
 40
4.0
100
AcDbArc
 50
45.0
 51
90.0
  0
ARC
  5
12BE
102
{ACAD_REACTORS
330
12E9
102
}
330
2
100
AcDbEntity
  8
STEMPEL
100
AcDbCircle
 10
325.1043359545458
 20
581.4040542662215
 30
0.0
 40
2.0
100
AcDbArc
 50
90.0
 51
134.9999999999988
  0
LINE
  5
12BF
102
{ACAD_REACTORS
330
12E9
102
}
330
2
100
AcDbEntity
  8
STEMPEL
100
AcDbLine
 10
310.0614427357326
 20
573.4322288592746
 30
0.0
 11
312.1827630792922
 21
571.3109085157151
 31
0.0
  0
ARC
  5
12C0
330
2
100
AcDbEntity
  8
SCHRAFF
100
AcDbCircle
 10
309.3114427357327
 20
572.6822288592747
 30
0.0
 40
4.0
100
AcDbArc
 50
247.0243128370416
 51
356.4096221092662
  0
ARC
  5
12C1
330
2
100
AcDbEntity
  8
STEMPEL
100
AcDbCircle
 10
307.3114427357328
 20
561.4898407038501
 30
0.0
 40
6.5
100
AcDbArc
 50
134.9999999999988
 51
180.0
  0
ARC
  5
12C2
330
2
100
AcDbEntity
  8
STEMPEL
100
AcDbCircle
 10
307.3114427357326
 20
561.4898407038501
 30
0.0
 40
5.0
100
AcDbArc
 50
134.9999999999988
 51
180.0
  0
LINE
  5
12C3
330
2
100
AcDbEntity
  8
STEMPEL
100
AcDbLine
 10
311.1221029075126
 20
572.3715686874949
 30
0.0
 11
303.7759088298001
 21
565.025374609783
 31
0.0
  0
LINE
  5
12C4
102
{ACAD_REACTORS
330
12E9
102
}
330
2
100
AcDbEntity
  8
STEMPEL
100
AcDbLine
 10
321.5688020486133
 20
584.9395881721545
 30
0.0
 11
302.7152486580204
 21
566.0860347815629
 31
0.0
  0
ARC
  5
12C5
102
{ACAD_REACTORS
330
12E9
102
}
330
2
100
AcDbEntity
  8
STEMPEL
100
AcDbCircle
 10
325.1043359545458
 20
581.4040542662215
 30
0.0
 40
5.0
100
AcDbArc
 50
90.0
 51
134.9999999999988
  0
LINE
  5
12C6
102
{ACAD_REACTORS
330
12E9
102
}
330
2
100
AcDbEntity
  8
STEMPEL
100
AcDbLine
 10
323.6901223921728
 20
582.8182678285947
 30
0.0
 11
312.1827630792922
 21
571.3109085157151
 31
0.0
  0
LINE
  5
12C8
102
{ACAD_REACTORS
330
12E9
102
}
330
2
100
AcDbEntity
  8
STEMPEL
100
AcDbLine
 10
325.1043359545458
 20
583.4040542662213
 30
0.0
 11
394.2688020486147
 21
583.4040542662207
 31
0.0
  0
LINE
  5
12C9
102
{ACAD_REACTORS
330
12E9
102
}
330
2
100
AcDbEntity
  8
STEMPEL
100
AcDbLine
 10
320.2759088297991
 20
579.4040542662212
 30
0.0
 11
398.6972291733587
 21
579.4040542662209
 31
0.0
  0
LINE
  5
12CA
330
2
100
AcDbEntity
  8
STEMPEL
100
AcDbLine
 10
300.8114427357327
 20
324.3822237947679
 30
0.0
 11
300.1134433462969
 21
316.4040542662215
 31
0.0
  0
LINE
  5
12CB
330
2
100
AcDbEntity
  8
STEMPEL
100
AcDbLine
 10
302.3114427357327
 20
324.3167323804046
 30
0.0
 11
301.619173102612
 21
316.4040542662215
 31
0.0
  0
LINE
  5
12CC
330
2
100
AcDbEntity
  8
STEMPEL
100
AcDbLine
 10
300.8114427357329
 20
561.4898407038501
 30
0.0
 11
300.8114427357327
 21
324.3822237947679
 31
0.0
  0
LINE
  5
12CD
102
{ACAD_REACTORS
330
14A4
102
}
330
2
100
AcDbEntity
  8
STEMPEL
100
AcDbLine
 10
302.3114427357326
 20
561.4898407038501
 30
0.0
 11
302.3114427357327
 21
324.3167323804046
 31
0.0
  0
ARC
  5
12CE
330
2
100
AcDbEntity
  8
STEMPEL
100
AcDbCircle
 10
194.3114427357328
 20
561.4898407038501
 30
0.0
 40
5.0
100
AcDbArc
 50
0.0
 51
45.00000000000115
  0
ARC
  5
12CF
330
2
100
AcDbEntity
  8
STEMPEL
100
AcDbCircle
 10
194.3114427357326
 20
561.4898407038501
 30
0.0
 40
6.5
100
AcDbArc
 50
0.0
 51
45.00000000000115
  0
ARC
  5
12D0
102
{ACAD_REACTORS
330
12E9
102
}
330
2
100
AcDbEntity
  8
STEMPEL
100
AcDbCircle
 10
176.5185495169195
 20
581.4040542662215
 30
0.0
 40
2.0
100
AcDbArc
 50
45.00000000000115
 51
90.0
  0
ARC
  5
12D1
102
{ACAD_REACTORS
330
12E9
102
}
330
2
100
AcDbEntity
  8
STEMPEL
100
AcDbCircle
 10
176.5185495169195
 20
581.4040542662215
 30
0.0
 40
5.0
100
AcDbArc
 50
45.00000000000115
 51
90.0
  0
LINE
  5
12D2
102
{ACAD_REACTORS
330
12E9
102
}
330
2
100
AcDbEntity
  8
STEMPEL
100
AcDbLine
 10
191.5614427357328
 20
573.4322288592746
 30
0.0
 11
189.440122392173
 21
571.3109085157149
 31
0.0
  0
LINE
  5
12D3
102
{ACAD_REACTORS
330
12E9
102
}
330
2
100
AcDbEntity
  8
STEMPEL
100
AcDbLine
 10
177.9327630792926
 20
582.8182678285947
 30
0.0
 11
189.440122392173
 21
571.3109085157149
 31
0.0
  0
LINE
  5
12D4
102
{ACAD_REACTORS
330
12E9
102
}
330
2
100
AcDbEntity
  8
STEMPEL
100
AcDbLine
 10
180.0540834228522
 20
584.9395881721545
 30
0.0
 11
198.9076368134452
 21
566.0860347815628
 31
0.0
  0
LINE
  5
12D5
330
2
100
AcDbEntity
  8
STEMPEL
100
AcDbLine
 10
190.5007825639531
 20
572.3715686874949
 30
0.0
 11
197.8469766416654
 21
565.025374609783
 31
0.0
  0
ARC
  5
12D6
330
2
100
AcDbEntity
  8
SCHRAFF
100
AcDbCircle
 10
192.3114427357328
 20
572.6822288592747
 30
0.0
 40
4.0
100
AcDbArc
 50
183.5903778907337
 51
292.9756871629584
  0
ARC
  5
12D7
102
{ACAD_REACTORS
330
12E9
102
}
330
2
100
AcDbEntity
  8
STEMPEL
100
AcDbCircle
 10
107.3540834228517
 20
582.4040542662219
 30
0.0
 40
1.0
100
AcDbArc
 50
90.0
 51
135.0
  0
LINE
  5
12D8
102
{ACAD_REACTORS
330
12E9
102
}
330
2
100
AcDbEntity
  8
STEMPEL
100
AcDbLine
 10
102.9327630792924
 20
579.3969474850353
 30
0.0
 11
106.6469766416651
 21
583.1111610474084
 31
0.0
  0
ARC
  5
12D9
102
{ACAD_REACTORS
330
12E9
102
}
330
2
100
AcDbEntity
  8
STEMPEL
100
AcDbCircle
 10
107.3540834228519
 20
582.4040542662219
 30
0.0
 40
4.0
100
AcDbArc
 50
90.0
 51
135.0
  0
LINE
  5
12DA
102
{ACAD_REACTORS
330
12E9
102
}
330
2
100
AcDbEntity
  8
STEMPEL
100
AcDbLine
 10
100.8114427357327
 20
581.5182678285951
 30
0.0
 11
104.5256562981057
 21
585.2324813909681
 31
0.0
  0
LINE
  5
12DB
102
{ACAD_REACTORS
330
12E9
102
}
330
2
100
AcDbEntity
  8
STEMPEL
100
AcDbLine
 10
100.8114427357327
 20
581.5182678285951
 30
0.0
 11
102.9327630792924
 21
579.3969474850353
 31
0.0
  0
LINE
  5
12DC
102
{ACAD_REACTORS
330
12E9
102
}
330
2
100
AcDbEntity
  8
STEMPEL
100
AcDbLine
 10
107.3540834228517
 20
583.4040542662219
 30
0.0
 11
176.5185495169195
 21
583.4040542662218
 31
0.0
  0
LINE
  5
12DD
102
{ACAD_REACTORS
330
12E9
102
}
330
2
100
AcDbEntity
  8
STEMPEL
100
AcDbLine
 10
102.9256562981058
 20
579.4040542662219
 30
0.0
 11
181.3469766416659
 21
579.4040542662215
 31
0.0
  0
LINE
  5
12DE
330
2
100
AcDbEntity
  8
STEMPEL
100
AcDbLine
 10
200.8114427357326
 20
324.3822237947679
 30
0.0
 11
201.5094421251685
 21
316.4040542662219
 31
0.0
  0
LINE
  5
12DF
330
2
100
AcDbEntity
  8
STEMPEL
100
AcDbLine
 10
199.3114427357326
 20
324.3167323804054
 30
0.0
 11
200.0037123688534
 21
316.4040542662219
 31
0.0
  0
LINE
  5
12E0
330
2
100
AcDbEntity
  8
STEMPEL
100
AcDbLine
 10
200.8114427357328
 20
561.4898407038501
 30
0.0
 11
200.8114427357326
 21
324.3822237947679
 31
0.0
  0
LINE
  5
12E1
102
{ACAD_REACTORS
330
14A4
102
}
330
2
100
AcDbEntity
  8
STEMPEL
100
AcDbLine
 10
199.3114427357328
 20
561.4898407038501
 30
0.0
 11
199.3114427357326
 21
324.3167323804054
 31
0.0
  0
LINE
  5
12E2
330
2
100
AcDbEntity
  8
HILF
100
AcDbLine
 10
202.8152625732761
 20
324.404054266222
 30
0.0
 11
298.8076228981894
 21
324.4040542662217
 31
0.0
  0
LINE
  5
12E3
330
2
100
AcDbEntity
  8
STEMPEL
100
AcDbLine
 10
200.0037123688534
 20
316.4040542662219
 30
0.0
 11
301.619173102612
 21
316.4040542662215
 31
0.0
  0
LINE
  5
12E4
102
{ACAD_REACTORS
330
12E9
330
1609
102
}
330
2
100
AcDbEntity
  8
STEMPEL
100
AcDbLine
 10
107.3540834228519
 20
586.4040542662219
 30
0.0
 11
394.2688020486146
 21
586.4040542662208
 31
0.0
  0
LINE
  5
12E5
330
2
100
AcDbEntity
  8
HILF
100
AcDbLine
 10
201.9149044968364
 20
563.9772830142233
 30
0.0
 11
299.7079809746291
 21
563.9772830142233
 31
0.0
  0
LINE
  5
12E6
330
2
100
AcDbEntity
  8
STEMPEL
100
AcDbLine
 10
191.5614427357328
 20
573.4322288592748
 30
0.0
 11
308.5614427357327
 21
573.4322288592749
 31
0.0
  0
HATCH
  5
12E7
330
2
100
AcDbEntity
  8
SCHRAFF
100
AcDbHatch
 10
0.0
 20
0.0
 30
0.0
210
0.0
220
0.0
230
1.0
  2
_USER
 70
     0
 71
     0
 91
        2
 92
        7
 72
     1
 73
     1
 93
       10
 10
199.3114427357326
 20
324.3167323804057
 42
0.0
 10
200.0037123688534
 20
316.4040542662219
 42
0.0
 10
201.5094421251684
 20
316.4040542662219
 42
0.0
 10
200.8114427357326
 20
324.3822237947684
 42
0.0
 10
200.8114427357328
 20
561.4898407038501
 42
0.1989123673796646
 10
198.9076368134452
 20
566.0860347815628
 42
0.0
 10
192.3114427357328
 20
572.6822288592747
 42
0.0
 10
191.2507825639531
 20
571.6215686874948
 42
0.0
 10
197.8469766416654
 20
565.025374609783
 42
-0.1989123673796688
 10
199.3114427357328
 20
561.4898407038501
 42
0.0
 97
        0
 92
        7
 72
     1
 73
     1
 93
       10
 10
300.8114427357327
 20
324.3822237947679
 42
0.0
 10
300.1134433462968
 20
316.4040542662215
 42
0.0
 10
301.619173102612
 20
316.4040542662215
 42
0.0
 10
302.3114427357328
 20
324.3167323804052
 42
0.0
 10
302.3114427357326
 20
561.4898407038501
 42
-0.198912367379667
 10
303.7759088298001
 20
565.025374609783
 42
0.0
 10
310.3721029075125
 20
571.6215686874948
 42
0.0
 10
309.3114427357327
 20
572.6822288592747
 42
0.0
 10
302.7152486580204
 20
566.0860347815629
 42
0.1989123673796673
 10
300.8114427357329
 20
561.4898407038501
 42
0.0
 97
        0
 75
     0
 76
     0
 52
135.0
 41
2.0
 77
     0
 78
     1
 53
135.0
 43
13.51237842134927
 44
137.7564089059418
 45
-1.414213562373095
 46
-1.414213562373094
 79
     0
 47
0.6030317650757743
 98
        2
 10
200.0282078910427
 20
502.0582987133997
 10
301.4042870960157
 20
518.9431877029586
  0
HATCH
  5
12E8
330
2
100
AcDbEntity
  8
SCHRAFF
100
AcDbHatch
 10
0.0
 20
0.0
 30
0.0
210
0.0
220
0.0
230
1.0
  2
ANSI31
 70
     0
 71
     0
 91
        2
 92
        7
 72
     1
 73
     1
 93
        4
 10
190.5007825639529
 20
572.3715686874949
 42
0.0
 10
189.440122392173
 20
571.3109085157149
 42
0.0
 10
188.3192936987863
 20
572.4317372091015
 42
0.5171628801835995
 10
193.8728046843786
 20
568.9995465670696
 42
0.0
 97
        0
 92
        7
 72
     1
 73
     1
 93
        4
 10
313.3035917726794
 20
572.4317372091021
 42
0.0
 10
312.1827630792922
 20
571.3109085157151
 42
0.0
 10
311.1221029075125
 20
572.3715686874949
 42
0.0
 10
307.750080787087
 20
568.9995465670696
 42
0.5171628801836321
 97
        0
 75
     0
 76
     1
 52
0.0
 41
0.25
 77
     0
 78
     1
 53
45.0
 43
13.51237842134927
 44
144.3811402123891
 45
-0.0220970869120796
 46
0.0220970869120796
 79
     0
 47
0.3005004562705639
 98
        2
 10
191.2875991560581
 20
569.829690592663
 10
309.7795100249395
 20
570.1301916250871
  0
HATCH
  5
12E9
330
2
100
AcDbEntity
  8
SCHRAFF
100
AcDbHatch
 10
0.0
 20
0.0
 30
0.0
210
0.0
220
0.0
230
1.0
  2
_USER
 70
     0
 71
     1
 91
        2
 92
        7
 72
     1
 73
     1
 93
       13
 10
394.2688020486147
 20
583.4040542662207
 42
-0.1989123673796548
 10
394.9759088298013
 20
583.1111610474073
 42
0.0
 10
398.6830156109877
 20
579.4040542662209
 42
0.0
 10
398.6972291733588
 20
579.4040542662208
 42
0.0
 10
400.8114427357328
 20
581.5182678285951
 42
0.0
 10
397.0972291733608
 20
585.2324813909671
 42
0.1989123673796622
 10
394.2688020486146
 20
586.4040542662208
 42
0.0
 10
325.1043359545458
 20
586.4040542662212
 42
0.1989123673796663
 10
321.568802048613
 20
584.9395881721541
 42
0.0
 10
310.0614427357327
 20
573.4322288592748
 42
0.0
 10
312.1827630792922
 20
571.3109085157151
 42
0.0
 10
323.6901223921728
 20
582.8182678285947
 42
-0.198912367379648
 10
325.1043359545459
 20
583.4040542662213
 42
0.0
 97
       13
330
12BD
330
12E4
330
12C5
330
12C4
330
12BF
330
12C6
330
12BE
330
12C8
330
12BB
330
12BC
330
12C9
330
12BA
330
12B9
 92
        7
 72
     1
 73
     1
 93
       13
 10
176.5185495169195
 20
583.4040542662218
 42
-0.1989123673796202
 10
177.9327630792924
 20
582.818267828595
 42
0.0
 10
189.440122392173
 20
571.3109085157149
 42
0.0
 10
191.5614427357328
 20
573.4322288592745
 42
0.0
 10
180.0540834228522
 20
584.9395881721545
 42
0.1989123673796496
 10
176.5185495169196
 20
586.4040542662216
 42
0.0
 10
107.3540834228519
 20
586.4040542662219
 42
0.1989123673796586
 10
104.5256562981057
 20
585.2324813909681
 42
0.0
 10
100.8114427357327
 20
581.5182678285951
 42
0.0
 10
102.9256562981059
 20
579.4040542662218
 42
0.0
 10
102.9398698604788
 20
579.4040542662218
 42
0.0
 10
106.6469766416651
 20
583.1111610474084
 42
-0.1989123673796765
 10
107.3540834228517
 20
583.4040542662219
 42
0.0
 97
       13
330
12D1
330
12E4
330
12D9
330
12DA
330
12DB
330
12DD
330
12D8
330
12D7
330
12DC
330
12D0
330
12D3
330
12D2
330
12D4
 75
     0
 76
     0
 52
45.0
 41
2.0
 77
     0
 78
     1
 53
45.0
 43
14.65924343192788
 44
143.1644501059062
 45
-1.414213562373094
 46
1.414213562373095
 79
     0
 47
0.3986818600869664
 98
        2
 10
332.815927384033
 20
584.6511384866495
 10
170.4335561818081
 20
584.6511384866495
  0
LINE
  5
1346
102
{ACAD_REACTORS
330
1393
102
}
330
2
100
AcDbEntity
  8
STEMPEL
100
AcDbLine
 10
400.8114427357327
 20
430.8182678285937
 30
0.0
 11
397.1043359545462
 21
434.5253746097802
 31
0.0
  0
LINE
  5
1347
102
{ACAD_REACTORS
330
1393
102
}
330
2
100
AcDbEntity
  8
STEMPEL
100
AcDbLine
 10
400.8114427357327
 20
430.8182678285937
 30
0.0
 11
398.6901223921732
 21
428.6969474850339
 31
0.0
  0
ARC
  5
1348
102
{ACAD_REACTORS
330
1393
102
}
330
2
100
AcDbEntity
  8
STEMPEL
100
AcDbCircle
 10
394.2759088298001
 20
431.6969474850339
 30
0.0
 40
1.0
100
AcDbArc
 50
45.0
 51
90.0
  0
LINE
  5
1349
102
{ACAD_REACTORS
330
1393
102
}
330
2
100
AcDbEntity
  8
STEMPEL
100
AcDbLine
 10
398.6901223921732
 20
428.6969474850339
 30
0.0
 11
394.9830156109866
 21
432.4040542662205
 31
0.0
  0
ARC
  5
134A
102
{ACAD_REACTORS
330
1393
102
}
330
2
100
AcDbEntity
  8
STEMPEL
100
AcDbCircle
 10
394.2759088298
 20
431.696947485034
 30
0.0
 40
4.0
100
AcDbArc
 50
45.0
 51
90.0
  0
ARC
  5
134B
102
{ACAD_REACTORS
330
1393
102
}
330
2
100
AcDbEntity
  8
STEMPEL
100
AcDbCircle
 10
325.1043359545458
 20
430.6969474850347
 30
0.0
 40
2.0
100
AcDbArc
 50
90.0
 51
134.9999999999988
  0
LINE
  5
134C
102
{ACAD_REACTORS
330
1551
102
}
330
2
100
AcDbEntity
  8
STEMPEL
100
AcDbLine
 10
306.3181985736573
 20
438.6969474850351
 30
0.0
 11
307.269137411648
 21
436.6576525659828
 31
0.0
  0
ARC
  5
134D
102
{ACAD_REACTORS
330
1393
102
}
330
2
100
AcDbEntity
  8
STEMPEL
100
AcDbCircle
 10
325.1043359545458
 20
430.6969474850347
 30
0.0
 40
5.0
100
AcDbArc
 50
90.0
 51
134.9999999999988
  0
LINE
  5
134E
102
{ACAD_REACTORS
330
134F
330
1393
102
}
330
2
100
AcDbEntity
  8
STEMPEL
  6
STRICHPUNKT
100
AcDbLine
 10
309.6114427357323
 20
422.2751220780875
 30
0.0
 11
311.7327630792919
 21
420.1538017345277
 31
0.0
  0
HATCH
  5
134F
330
2
100
AcDbEntity
  8
SCHRAFF
100
AcDbHatch
 10
0.0
 20
0.0
 30
0.0
210
0.0
220
0.0
230
1.0
  2
ANSI31
 70
     0
 71
     1
 91
        1
 92
        7
 72
     1
 73
     1
 93
        4
 10
312.5889768163768
 20
421.0100154716126
 42
0.0
 10
311.7327630792918
 20
420.1538017345277
 42
0.0
 10
309.6114427357323
 20
422.2751220780873
 42
0.0
 10
309.6114427357323
 20
416.0745423331245
 42
0.4254699589637421
 97
        4
330
1358
330
134E
330
1351
330
1352
 75
     0
 76
     1
 52
0.0
 41
0.25
 77
     0
 78
     1
 53
45.0
 43
30.59382216620199
 44
21.92247973355677
 45
-0.0220970869120796
 46
0.0220970869120796
 79
     0
 47
0.1640745824184307
 98
        1
 10
311.249553825767
 20
418.8935109066343
  0
LINE
  5
1350
102
{ACAD_REACTORS
330
14A4
330
1551
102
}
330
2
100
AcDbEntity
  8
STEMPEL
  6
Continuous
100
AcDbLine
 10
308.1114427357324
 20
426.092196022464
 30
0.0
 11
308.1114427357324
 21
407.929947485035
 31
0.0
  0
LINE
  5
1351
102
{ACAD_REACTORS
330
134F
330
1551
102
}
330
2
100
AcDbEntity
  8
STEMPEL
  6
Continuous
100
AcDbLine
 10
309.6114427357323
 20
426.0921960224642
 30
0.0
 11
309.6114427357323
 21
407.9301529319479
 31
0.0
  0
ARC
  5
1352
102
{ACAD_REACTORS
330
134F
102
}
330
2
100
AcDbEntity
  8
SCHRAFF
100
AcDbCircle
 10
308.7251709641064
 20
419.975122078088
 30
0.0
 40
4.0
100
AcDbArc
 50
282.8011425279594
 51
14.9943236371464
  0
ARC
  5
1353
102
{ACAD_REACTORS
330
1551
102
}
330
2
100
AcDbEntity
  8
STEMPEL
100
AcDbCircle
 10
284.6114427357323
 20
407.9301529319479
 30
0.0
 40
23.5
100
AcDbArc
 50
333.8050522283095
 51
0.0
  0
ARC
  5
1354
102
{ACAD_REACTORS
330
1551
102
}
330
2
100
AcDbEntity
  8
STEMPEL
100
AcDbCircle
 10
284.6114427357323
 20
407.9301529319479
 30
0.0
 40
25.0
100
AcDbArc
 50
333.8050522283095
 51
0.0
  0
ARC
  5
1355
102
{ACAD_REACTORS
330
14A4
330
1551
102
}
330
2
100
AcDbEntity
  8
STEMPEL
100
AcDbCircle
 10
284.9541212612654
 20
426.1681660225771
 30
0.0
 40
23.15744608787256
100
AcDbArc
 50
359.812035914187
 51
25.18796408581321
  0
ARC
  5
1356
102
{ACAD_REACTORS
330
1551
102
}
330
2
100
AcDbEntity
  8
STEMPEL
100
AcDbCircle
 10
284.6114427357323
 20
426.0921960224642
 30
0.0
 40
25.0
100
AcDbArc
 50
0.0
 51
25.00000000000663
  0
LINE
  5
1357
102
{ACAD_REACTORS
330
1393
102
}
330
2
100
AcDbEntity
  8
STEMPEL
100
AcDbLine
 10
321.5688020486133
 20
434.2324813909676
 30
0.0
 11
309.6114427357323
 21
422.2751220780874
 31
0.0
  0
LINE
  5
1358
102
{ACAD_REACTORS
330
134F
330
1393
102
}
330
2
100
AcDbEntity
  8
STEMPEL
100
AcDbLine
 10
323.6901223921728
 20
432.1111610474077
 30
0.0
 11
311.7327630792918
 21
420.1538017345277
 31
0.0
  0
LINE
  5
1359
102
{ACAD_REACTORS
330
1551
102
}
330
2
100
AcDbEntity
  8
STEMPEL
100
AcDbLine
 10
305.8114427357326
 20
391.597363825369
 30
0.0
 11
305.8114427357326
 21
315.6244363619828
 31
0.0
  0
ARC
  5
135A
102
{ACAD_REACTORS
330
1551
102
}
330
2
100
AcDbEntity
  8
STEMPEL
  6
Continuous
100
AcDbCircle
 10
310.3114427357324
 20
303.4281254443326
 30
0.0
 40
8.0
100
AcDbArc
 50
147.9760040253821
 51
180.0
  0
ARC
  5
135B
102
{ACAD_REACTORS
330
1551
102
}
330
2
100
AcDbEntity
  8
STEMPEL
  6
Continuous
100
AcDbCircle
 10
310.3114427357324
 20
303.4281254443326
 30
0.0
 40
9.5
100
AcDbArc
 50
147.9760040253821
 51
180.0
  0
ARC
  5
135C
102
{ACAD_REACTORS
330
1551
102
}
330
2
100
AcDbEntity
  8
STEMPEL
  6
Continuous
100
AcDbCircle
 10
290.8114427357324
 20
315.6244363619828
 30
0.0
 40
13.5
100
AcDbArc
 50
327.9760040253821
 51
0.0
  0
LINE
  5
135D
102
{ACAD_REACTORS
330
1551
102
}
330
2
100
AcDbEntity
  8
STEMPEL
100
AcDbLine
 10
304.3114427357326
 20
391.597363825369
 30
0.0
 11
304.3114427357326
 21
315.6244363619828
 31
0.0
  0
ARC
  5
135E
102
{ACAD_REACTORS
330
1551
102
}
330
2
100
AcDbEntity
  8
STEMPEL
100
AcDbCircle
 10
317.8114427357326
 20
391.5973638253691
 30
0.0
 40
13.5
100
AcDbArc
 50
153.8050522283095
 51
180.0
  0
ARC
  5
135F
102
{ACAD_REACTORS
330
1551
102
}
330
2
100
AcDbEntity
  8
STEMPEL
100
AcDbCircle
 10
317.8114427357326
 20
391.5973638253691
 30
0.0
 40
12.0
100
AcDbArc
 50
153.8050522283095
 51
180.0
  0
ARC
  5
1360
102
{ACAD_REACTORS
330
1551
102
}
330
2
100
AcDbEntity
  8
STEMPEL
  6
Continuous
100
AcDbCircle
 10
290.8114427357324
 20
315.6244363619828
 30
0.0
 40
15.0
100
AcDbArc
 50
327.9760040253821
 51
0.0
  0
LINE
  5
1361
102
{ACAD_REACTORS
330
14A4
330
1551
102
}
330
2
100
AcDbEntity
  8
STEMPEL
100
AcDbLine
 10
304.6631316952138
 20
438.696947485035
 30
0.0
 11
305.9096757310935
 21
436.0237251733707
 31
0.0
  0
LINE
  5
1362
102
{ACAD_REACTORS
330
1393
102
}
330
2
100
AcDbEntity
  8
STEMPEL
100
AcDbLine
 10
325.1043359545458
 20
432.6969474850344
 30
0.0
 11
394.2759088298001
 21
432.6969474850339
 31
0.0
  0
LINE
  5
1363
102
{ACAD_REACTORS
330
1393
330
1620
102
}
330
2
100
AcDbEntity
  8
STEMPEL
100
AcDbLine
 10
307.6927934185294
 20
435.6969474850342
 30
0.0
 11
394.2759088298
 21
435.696947485034
 31
0.0
  0
LINE
  5
1364
330
2
100
AcDbEntity
  8
STEMPEL
100
AcDbLine
 10
320.2759088297989
 20
428.6969474850342
 30
0.0
 11
398.6901223921732
 21
428.6969474850339
 31
0.0
  0
LINE
  5
1365
102
{ACAD_REACTORS
330
1551
102
}
330
2
100
AcDbEntity
  8
STEMPEL
100
AcDbLine
 10
300.8114427357327
 20
133.6751170135801
 30
0.0
 11
300.113443346297
 21
125.6969474850347
 31
0.0
  0
LINE
  5
1366
102
{ACAD_REACTORS
330
1551
102
}
330
2
100
AcDbEntity
  8
STEMPEL
100
AcDbLine
 10
302.3114427357327
 20
133.609625599218
 30
0.0
 11
301.619173102612
 21
125.6969474850347
 31
0.0
  0
LINE
  5
1367
102
{ACAD_REACTORS
330
1551
102
}
330
2
100
AcDbEntity
  8
STEMPEL
100
AcDbLine
 10
300.8114427357324
 20
303.4281254443325
 30
0.0
 11
300.8114427357327
 21
133.6751170135801
 31
0.0
  0
LINE
  5
1368
102
{ACAD_REACTORS
330
1551
102
}
330
2
100
AcDbEntity
  8
STEMPEL
100
AcDbLine
 10
302.3114427357324
 20
303.4281254443326
 30
0.0
 11
302.3114427357327
 21
133.609625599218
 31
0.0
  0
LINE
  5
1369
102
{ACAD_REACTORS
330
14A4
330
1551
102
}
330
2
100
AcDbEntity
  8
STEMPEL
100
AcDbLine
 10
196.9597537762517
 20
438.696947485035
 30
0.0
 11
195.7132097403718
 21
436.0237251733707
 31
0.0
  0
LINE
  5
136A
102
{ACAD_REACTORS
330
1551
102
}
330
2
100
AcDbEntity
  8
STEMPEL
100
AcDbLine
 10
195.304686897808
 20
438.696947485035
 30
0.0
 11
194.3537480598168
 21
436.6576525659819
 31
0.0
  0
ARC
  5
136B
102
{ACAD_REACTORS
330
1393
102
}
330
2
100
AcDbEntity
  8
STEMPEL
100
AcDbCircle
 10
176.5185495169196
 20
430.6969474850347
 30
0.0
 40
2.0
100
AcDbArc
 50
45.00000000000115
 51
90.0
  0
ARC
  5
136C
102
{ACAD_REACTORS
330
1393
102
}
330
2
100
AcDbEntity
  8
STEMPEL
100
AcDbCircle
 10
176.5185495169196
 20
430.6969474850347
 30
0.0
 40
5.0
100
AcDbArc
 50
45.00000000000115
 51
90.0
  0
LINE
  5
136D
102
{ACAD_REACTORS
330
1551
102
}
330
2
100
AcDbEntity
  8
STEMPEL
  6
Continuous
100
AcDbLine
 10
192.0114427357332
 20
426.0921960224642
 30
0.0
 11
192.0114427357332
 21
407.929947485035
 31
0.0
  0
LINE
  5
136E
102
{ACAD_REACTORS
330
14A4
330
1551
102
}
330
2
100
AcDbEntity
  8
STEMPEL
  6
Continuous
100
AcDbLine
 10
193.5114427357332
 20
426.092196022464
 30
0.0
 11
193.5114427357332
 21
407.929947485035
 31
0.0
  0
ARC
  5
136F
102
{ACAD_REACTORS
330
1551
102
}
330
2
100
AcDbEntity
  8
STEMPEL
100
AcDbCircle
 10
183.8114427357329
 20
391.5973638247807
 30
0.0
 40
12.0
100
AcDbArc
 50
0.0
 51
26.19435242971595
  0
ARC
  5
1370
102
{ACAD_REACTORS
330
1551
102
}
330
2
100
AcDbEntity
  8
STEMPEL
100
AcDbCircle
 10
183.8114427357329
 20
391.5973638246651
 30
0.0
 40
13.5
100
AcDbArc
 50
0.0
 51
26.19435242853251
  0
ARC
  5
1371
102
{ACAD_REACTORS
330
1551
102
}
330
2
100
AcDbEntity
  8
STEMPEL
  6
Continuous
100
AcDbCircle
 10
217.0130952801716
 20
407.9305374249355
 30
0.0
 40
25.00165255139872
100
AcDbArc
 50
180.0013519532917
 51
206.1943524297159
  0
ARC
  5
1372
102
{ACAD_REACTORS
330
1551
102
}
330
2
100
AcDbEntity
  8
STEMPEL
  6
Continuous
100
AcDbCircle
 10
217.0130952873355
 20
407.9305374274928
 30
0.0
 40
23.50165255900682
100
AcDbArc
 50
180.0014382483497
 51
206.1943524285325
  0
LINE
  5
1373
102
{ACAD_REACTORS
330
1393
102
}
330
2
100
AcDbEntity
  8
STEMPEL
  6
STRICHPUNKT
100
AcDbLine
 10
192.0114427357332
 20
422.2751220780874
 30
0.0
 11
189.8901223921736
 21
420.1538017345277
 31
0.0
  0
ARC
  5
1374
330
2
100
AcDbEntity
  8
SCHRAFF
100
AcDbCircle
 10
193.1404249580145
 20
419.975122078088
 30
0.0
 40
4.0
100
AcDbArc
 50
167.8875059179503
 51
253.6057276944653
  0
HATCH
  5
1375
330
2
100
AcDbEntity
  8
SCHRAFF
100
AcDbHatch
 10
0.0
 20
0.0
 30
0.0
210
0.0
220
0.0
230
1.0
  2
_U
 70
     0
 71
     0
 91
        1
 92
        7
 72
     1
 73
     1
 93
        4
 10
192.0114427357332
 20
422.2751220780875
 42
0.0
 10
189.8901223921735
 20
420.1538017345277
 42
0.0
 10
189.2294749440693
 20
420.8144491826318
 42
0.3924908986751826
 10
192.0114427357332
 20
416.1377532996445
 42
0.0
 97
        0
 75
     0
 76
     0
 52
0.0
 41
0.1
 77
     0
 78
     1
 53
0.0
 43
29.90309353420272
 44
-9.155675380288471
 45
0.0
 46
0.1
 79
     0
 47
0.1640745824184307
 98
        1
 10
191.1553607569078
 20
418.0632520545844
  0
ARC
  5
1376
102
{ACAD_REACTORS
330
1551
102
}
330
2
100
AcDbEntity
  8
STEMPEL
100
AcDbCircle
 10
217.0114427357332
 20
426.092196022464
 30
0.0
 40
25.0
100
AcDbArc
 50
154.9999999999999
 51
180.0
  0
ARC
  5
1377
102
{ACAD_REACTORS
330
14A4
330
1551
102
}
330
2
100
AcDbEntity
  8
STEMPEL
100
AcDbCircle
 10
217.0114427357332
 20
426.092196022464
 30
0.0
 40
23.5
100
AcDbArc
 50
154.9999999999999
 51
180.0
  0
LINE
  5
1378
102
{ACAD_REACTORS
330
1393
102
}
330
2
100
AcDbEntity
  8
STEMPEL
100
AcDbLine
 10
177.9327630792925
 20
432.1111610474077
 30
0.0
 11
189.8901223921735
 21
420.1538017345277
 31
0.0
  0
LINE
  5
1379
102
{ACAD_REACTORS
330
1393
102
}
330
2
100
AcDbEntity
  8
STEMPEL
100
AcDbLine
 10
180.0540834228521
 20
434.2324813909676
 30
0.0
 11
192.0114427357331
 21
422.2751220780873
 31
0.0
  0
ARC
  5
137A
102
{ACAD_REACTORS
330
1551
102
}
330
2
100
AcDbEntity
  8
STEMPEL
  6
Continuous
100
AcDbCircle
 10
191.3114427357331
 20
303.4281254443326
 30
0.0
 40
9.5
100
AcDbArc
 50
0.0
 51
32.02399597461788
  0
ARC
  5
137B
102
{ACAD_REACTORS
330
1551
102
}
330
2
100
AcDbEntity
  8
STEMPEL
  6
Continuous
100
AcDbCircle
 10
191.3114427357331
 20
303.4281254443326
 30
0.0
 40
8.0
100
AcDbArc
 50
0.0
 51
32.02399597461788
  0
ARC
  5
137C
102
{ACAD_REACTORS
330
1551
102
}
330
2
100
AcDbEntity
  8
STEMPEL
  6
Continuous
100
AcDbCircle
 10
210.8114427357331
 20
315.6244363619828
 30
0.0
 40
15.0
100
AcDbArc
 50
180.0
 51
212.0239959746179
  0
ARC
  5
137D
102
{ACAD_REACTORS
330
1551
102
}
330
2
100
AcDbEntity
  8
STEMPEL
  6
Continuous
100
AcDbCircle
 10
210.8114427357331
 20
315.6244363619828
 30
0.0
 40
13.5
100
AcDbArc
 50
180.0
 51
212.0239959746179
  0
LINE
  5
137E
102
{ACAD_REACTORS
330
1551
102
}
330
2
100
AcDbEntity
  8
STEMPEL
100
AcDbLine
 10
195.8114427357329
 20
391.5973638247807
 30
0.0
 11
195.8114427357329
 21
315.6244363619828
 31
0.0
  0
LINE
  5
137F
102
{ACAD_REACTORS
330
1551
102
}
330
2
100
AcDbEntity
  8
STEMPEL
100
AcDbLine
 10
197.3114427357329
 20
391.5973638246651
 30
0.0
 11
197.3114427357329
 21
315.6244363619828
 31
0.0
  0
ARC
  5
1380
102
{ACAD_REACTORS
330
1393
102
}
330
2
100
AcDbEntity
  8
STEMPEL
100
AcDbCircle
 10
107.3469766416652
 20
431.6969474850351
 30
0.0
 40
1.0
100
AcDbArc
 50
90.0
 51
135.0
  0
LINE
  5
1381
102
{ACAD_REACTORS
330
1393
102
}
330
2
100
AcDbEntity
  8
STEMPEL
100
AcDbLine
 10
100.8114427357327
 20
430.8182678285948
 30
0.0
 11
104.518549516919
 21
434.5253746097811
 31
0.0
  0
LINE
  5
1382
102
{ACAD_REACTORS
330
1393
102
}
330
2
100
AcDbEntity
  8
STEMPEL
100
AcDbLine
 10
100.8114427357327
 20
430.8182678285948
 30
0.0
 11
102.9327630792923
 21
428.6969474850351
 31
0.0
  0
LINE
  5
1383
102
{ACAD_REACTORS
330
1393
102
}
330
2
100
AcDbEntity
  8
STEMPEL
100
AcDbLine
 10
102.9327630792923
 20
428.6969474850351
 30
0.0
 11
106.6398698604787
 21
432.4040542662216
 31
0.0
  0
ARC
  5
1384
102
{ACAD_REACTORS
330
1393
102
}
330
2
100
AcDbEntity
  8
STEMPEL
100
AcDbCircle
 10
107.3469766416652
 20
431.6969474850349
 30
0.0
 40
4.0
100
AcDbArc
 50
90.0
 51
135.0
  0
LINE
  5
1385
102
{ACAD_REACTORS
330
1393
330
1620
102
}
330
2
100
AcDbEntity
  8
STEMPEL
100
AcDbLine
 10
107.3469766416652
 20
435.6969474850349
 30
0.0
 11
193.9300920529362
 21
435.6969474850346
 31
0.0
  0
LINE
  5
1386
102
{ACAD_REACTORS
330
1393
102
}
330
2
100
AcDbEntity
  8
STEMPEL
100
AcDbLine
 10
107.3469766416652
 20
432.6969474850351
 30
0.0
 11
176.5185495169196
 21
432.6969474850349
 31
0.0
  0
LINE
  5
1387
330
2
100
AcDbEntity
  8
STEMPEL
100
AcDbLine
 10
102.9327630792924
 20
428.6969474850351
 30
0.0
 11
181.3469766416659
 21
428.6969474850348
 31
0.0
  0
LINE
  5
1388
102
{ACAD_REACTORS
330
1551
102
}
330
2
100
AcDbEntity
  8
STEMPEL
100
AcDbLine
 10
199.3114427357325
 20
133.609625599218
 30
0.0
 11
200.0037123688533
 21
125.6969474850347
 31
0.0
  0
LINE
  5
1389
102
{ACAD_REACTORS
330
1551
102
}
330
2
100
AcDbEntity
  8
STEMPEL
100
AcDbLine
 10
200.8114427357326
 20
133.6751170135801
 30
0.0
 11
201.5094421251683
 21
125.6969474850347
 31
0.0
  0
LINE
  5
138A
102
{ACAD_REACTORS
330
1551
102
}
330
2
100
AcDbEntity
  8
STEMPEL
100
AcDbLine
 10
199.2922584455934
 20
303.9818226587387
 30
0.0
 11
199.3114427357325
 21
133.609625599218
 31
0.0
  0
LINE
  5
138B
102
{ACAD_REACTORS
330
1551
102
}
330
2
100
AcDbEntity
  8
STEMPEL
100
AcDbLine
 10
200.8114427357332
 20
303.4281254443326
 30
0.0
 11
200.8114427357326
 21
133.6751170135801
 31
0.0
  0
LINE
  5
138D
330
2
100
AcDbEntity
  8
HILF
100
AcDbLine
 10
202.0452131038216
 20
304.3796992838603
 30
0.0
 11
299.0776723676443
 21
304.3796992838603
 31
0.0
  0
LINE
  5
138E
330
2
100
AcDbEntity
  8
HILF
100
AcDbLine
 10
198.7827366324513
 20
313.8918634632934
 30
0.0
 11
303.0401488390144
 21
313.8918634632934
 31
0.0
  0
LINE
  5
1390
102
{ACAD_REACTORS
330
1551
102
}
330
2
100
AcDbEntity
  8
STEMPEL
100
AcDbLine
 10
200.0037123688533
 20
125.6969474850347
 30
0.0
 11
301.6191731026119
 21
125.6969474850343
 31
0.0
  0
LINE
  5
1391
330
2
100
AcDbEntity
  8
HILF
100
AcDbLine
 10
202.8152625732759
 20
133.6969474850347
 30
0.0
 11
298.8076228981895
 21
133.6969474850344
 31
0.0
  0
HATCH
  5
1393
330
2
100
AcDbEntity
  8
SCHRAFF
100
AcDbHatch
 10
0.0
 20
0.0
 30
0.0
210
0.0
220
0.0
230
1.0
  2
_USER
 70
     0
 71
     1
 91
        2
 92
        7
 72
     1
 73
     1
 93
       12
 10
325.1043359545458
 20
435.6969474850342
 42
0.1989123673796735
 10
321.5688020486127
 20
434.232481390967
 42
0.0
 10
309.6114427357323
 20
422.2751220780875
 42
0.0
 10
311.7327630792918
 20
420.1538017345278
 42
0.0
 10
323.6901223921728
 20
432.1111610474077
 42
-0.198912367379648
 10
325.1043359545459
 20
432.6969474850344
 42
0.0
 10
394.2759088298001
 20
432.6969474850339
 42
-0.1989123673796548
 10
394.9830156109866
 20
432.4040542662205
 42
0.0
 10
398.6901223921731
 20
428.6969474850339
 42
0.0
 10
400.8114427357327
 20
430.8182678285937
 42
0.0
 10
397.1043359545462
 20
434.5253746097802
 42
0.1989123673796604
 10
394.2759088298
 20
435.696947485034
 42
0.0
 97
       12
330
134A
330
1363
330
134D
330
1357
330
134E
330
1358
330
134B
330
1362
330
1348
330
1349
330
1347
330
1346
 92
        7
 72
     1
 73
     1
 93
       12
 10
107.3469766416652
 20
435.6969474850349
 42
0.1989123673796586
 10
104.518549516919
 20
434.5253746097811
 42
0.0
 10
100.8114427357327
 20
430.8182678285948
 42
0.0
 10
102.9327630792923
 20
428.696947485035
 42
0.0
 10
106.6398698604787
 20
432.4040542662216
 42
-0.1989123673796543
 10
107.3469766416652
 20
432.6969474850351
 42
0.0
 10
176.5185495169196
 20
432.6969474850349
 42
-0.1989123673796122
 10
177.9327630792923
 20
432.111161047408
 42
0.0
 10
189.8901223921736
 20
420.1538017345277
 42
0.0
 10
192.0114427357331
 20
422.2751220780873
 42
0.0
 10
180.0540834228521
 20
434.2324813909676
 42
0.1989123673796483
 10
176.5185495169195
 20
435.6969474850347
 42
0.0
 97
       12
330
1385
330
1384
330
1381
330
1382
330
1383
330
1380
330
1386
330
136B
330
1378
330
1373
330
1379
330
136C
 75
     0
 76
     0
 52
45.0
 41
2.0
 77
     0
 78
     1
 53
45.0
 43
29.90309353420272
 44
-9.155675380288471
 45
-1.414213562373094
 46
1.414213562373095
 79
     0
 47
0.4756770542966898
 98
        2
 10
349.5059752495638
 20
434.2578248572301
 10
171.4724496626829
 20
434.2578248572301
  0
DIMENSION
  5
139D
330
2
100
AcDbEntity
  8
BEM
100
AcDbDimension
  2
*D5
 10
302.3114427357327
 20
108.3351329491179
 30
0.0
 11
250.8114427357327
 21
114.8351329491179
 31
0.0
 70
    32
  1
%%c<>
 71
     5
 42
103.0000000000001
  3
STANDARD
100
AcDbAlignedDimension
 13
199.3114427357325
 23
133.609625599218
 33
0.0
 14
302.3114427357327
 24
133.609625599218
 34
0.0
100
AcDbRotatedDimension
  0
LINE
  5
145A
330
2
100
AcDbEntity
  8
STEMPEL
100
AcDbLine
 10
196.4991672606914
 20
445.696947485035
 30
0.0
 11
199.3114427357327
 21
445.696947485035
 31
0.0
  0
ARC
  5
145C
102
{ACAD_REACTORS
330
14A4
102
}
330
2
100
AcDbEntity
  8
STEMPEL
100
AcDbCircle
 10
196.4991672606914
 20
444.196947485035
 30
0.0
 40
1.5
100
AcDbArc
 50
14.99999999999995
 51
148.1457059206474
  0
POINT
  5
145D
330
2
100
AcDbEntity
  8
DEFPOINTS
  6
ByBlock
 62
     0
100
AcDbPoint
 10
199.3114427357327
 20
439.4969474850349
 30
0.0
  0
LINE
  5
145E
102
{ACAD_REACTORS
330
14A4
102
}
330
2
100
AcDbEntity
  8
STEMPEL
100
AcDbLine
 10
199.3114427357327
 20
439.4969474850349
 30
0.0
 11
197.9480560001249
 21
444.5851760526888
 31
0.0
  0
LINE
  5
145F
102
{ACAD_REACTORS
330
14A4
102
}
330
2
100
AcDbEntity
  8
STEMPEL
100
AcDbLine
 10
192.663870885107
 20
440.8665119324897
 30
0.0
 11
195.2250778167067
 21
444.9885888740028
 31
0.0
  0
POINT
  5
1462
330
2
100
AcDbEntity
  8
DEFPOINTS
  6
ByBlock
 62
     0
100
AcDbPoint
 10
192.0614427357327
 20
438.696947485035
 30
0.0
  0
LINE
  5
1463
330
2
100
AcDbEntity
  8
STEMPEL
100
AcDbLine
 10
192.0614427357327
 20
438.7554682285756
 30
0.0
 11
192.0614427357327
 21
438.696947485035
 31
0.0
  0
LINE
  5
1464
330
2
100
AcDbEntity
  8
STEMPEL
100
AcDbLine
 10
192.0614427357327
 20
428.196947485035
 30
0.0
 11
192.0614427357327
 21
427.196947485035
 31
0.0
  0
ARC
  5
1466
102
{ACAD_REACTORS
330
14A4
102
}
330
2
100
AcDbEntity
  8
STEMPEL
100
AcDbCircle
 10
196.0614427357327
 20
438.7554682285756
 30
0.0
 40
4.0
100
AcDbArc
 50
148.1457059206474
 51
180.0
  0
LINE
  5
146A
102
{ACAD_REACTORS
330
14A4
102
}
330
2
100
AcDbEntity
  8
STEMPEL
100
AcDbLine
 10
194.9507193892441
 20
420.696947485035
 30
0.0
 11
195.2118578121522
 21
422.696947485035
 31
0.0
  0
LINE
  5
146B
102
{ACAD_REACTORS
330
14A4
102
}
330
2
100
AcDbEntity
  8
STEMPEL
100
AcDbLine
 10
197.4124632501668
 20
422.696947485035
 30
0.0
 11
195.2118578121522
 21
422.696947485035
 31
0.0
  0
ARC
  5
146D
102
{ACAD_REACTORS
330
14A4
102
}
330
2
100
AcDbEntity
  8
STEMPEL
100
AcDbCircle
 10
220.8378169767133
 20
423.5581099647273
 30
0.0
 40
23.44117740281566
100
AcDbArc
 50
182.1053584489373
 51
193.4660431177007
  0
LINE
  5
146E
102
{ACAD_REACTORS
330
14A4
102
}
330
2
100
AcDbEntity
  8
STEMPEL
100
AcDbLine
 10
197.571907424429
 20
420.696947485035
 30
0.0
 11
193.5114427357332
 21
420.696947485035
 31
0.0
  0
LINE
  5
1475
102
{ACAD_REACTORS
330
14A4
330
1551
102
}
330
2
100
AcDbEntity
  8
STEMPEL
100
AcDbLine
 10
196.9597537762517
 20
438.6969474850349
 30
0.0
 11
192.0614427357327
 21
438.696947485035
 31
0.0
  0
LINE
  5
1476
102
{ACAD_REACTORS
330
14A4
102
}
330
2
100
AcDbEntity
  8
STEMPEL
100
AcDbLine
 10
199.3114427357327
 20
418.0993855165172
 30
0.0
 11
198.0410820037223
 21
418.0993855165172
 31
0.0
  0
ARC
  5
1477
102
{ACAD_REACTORS
330
14A4
102
}
330
2
100
AcDbEntity
  8
STEMPEL
100
AcDbCircle
 10
280.7850684947522
 20
423.5581099647273
 30
0.0
 40
23.44117740281566
100
AcDbArc
 50
346.5339568822993
 51
357.8946415510628
  0
LINE
  5
1478
102
{ACAD_REACTORS
330
14A4
102
}
330
2
100
AcDbEntity
  8
STEMPEL
100
AcDbLine
 10
302.3114427357328
 20
418.0993855165172
 30
0.0
 11
303.5818034677431
 21
418.0993855165172
 31
0.0
  0
LINE
  5
1479
102
{ACAD_REACTORS
330
14A4
102
}
330
2
100
AcDbEntity
  8
STEMPEL
100
AcDbLine
 10
304.0509780470365
 20
420.696947485035
 30
0.0
 11
308.1114427357323
 21
420.696947485035
 31
0.0
  0
LINE
  5
147A
102
{ACAD_REACTORS
330
14A4
102
}
330
2
100
AcDbEntity
  8
STEMPEL
100
AcDbLine
 10
306.6721660822214
 20
420.696947485035
 30
0.0
 11
306.4110276593133
 21
422.696947485035
 31
0.0
  0
LINE
  5
147B
102
{ACAD_REACTORS
330
14A4
102
}
330
2
100
AcDbEntity
  8
STEMPEL
100
AcDbLine
 10
304.2104222212987
 20
422.696947485035
 30
0.0
 11
306.4110276593133
 21
422.696947485035
 31
0.0
  0
LINE
  5
147C
102
{ACAD_REACTORS
330
14A4
330
1551
102
}
330
2
100
AcDbEntity
  8
STEMPEL
100
AcDbLine
 10
304.6631316952138
 20
438.6969474850349
 30
0.0
 11
309.5614427357327
 21
438.696947485035
 31
0.0
  0
POINT
  5
147D
330
2
100
AcDbEntity
  8
DEFPOINTS
  6
ByBlock
 62
     0
100
AcDbPoint
 10
309.5614427357327
 20
438.696947485035
 30
0.0
  0
LINE
  5
147E
330
2
100
AcDbEntity
  8
STEMPEL
100
AcDbLine
 10
309.5614427357327
 20
438.7554682285756
 30
0.0
 11
309.5614427357327
 21
438.696947485035
 31
0.0
  0
ARC
  5
147F
102
{ACAD_REACTORS
330
14A4
102
}
330
2
100
AcDbEntity
  8
STEMPEL
100
AcDbCircle
 10
305.5614427357327
 20
438.7554682285756
 30
0.0
 40
4.0
100
AcDbArc
 50
0.0
 51
31.85429407935253
  0
LINE
  5
1480
102
{ACAD_REACTORS
330
14A4
102
}
330
2
100
AcDbEntity
  8
STEMPEL
100
AcDbLine
 10
308.9590145863585
 20
440.8665119324897
 30
0.0
 11
306.3978076547588
 21
444.9885888740028
 31
0.0
  0
LINE
  5
1481
330
2
100
AcDbEntity
  8
STEMPEL
100
AcDbLine
 10
305.1237182107741
 20
445.696947485035
 30
0.0
 11
302.3114427357327
 21
445.696947485035
 31
0.0
  0
LINE
  5
1482
102
{ACAD_REACTORS
330
14A4
102
}
330
2
100
AcDbEntity
  8
STEMPEL
100
AcDbLine
 10
302.3114427357327
 20
439.4969474850349
 30
0.0
 11
303.6748294713405
 21
444.5851760526888
 31
0.0
  0
ARC
  5
1483
102
{ACAD_REACTORS
330
14A4
102
}
330
2
100
AcDbEntity
  8
STEMPEL
100
AcDbCircle
 10
305.1237182107741
 20
444.196947485035
 30
0.0
 40
1.5
100
AcDbArc
 50
31.85429407935253
 51
165.0
  0
HATCH
  5
14A4
330
2
100
AcDbEntity
  8
SCHRAFF
100
AcDbHatch
 10
0.0
 20
0.0
 30
0.0
210
0.0
220
0.0
230
1.0
  2
NET
 70
     0
 71
     1
 91
        3
 92
        7
 72
     1
 73
     1
 93
       14
 10
305.9096757310935
 20
436.0237251733707
 42
0.0
 10
304.6631316952138
 20
438.6969474850348
 42
0.0
 10
309.5610146281452
 20
438.696947485035
 42
0.1436237563963015
 10
308.9590145863585
 20
440.8665119324896
 42
0.0
 10
306.3978076547588
 20
444.9885888740028
 42
0.6565381519876209
 10
303.6748294713405
 20
444.5851760526888
 42
0.0
 10
302.3114427357326
 20
439.4969474850346
 42
0.0
 10
302.3114427357326
 20
418.0993855165172
 42
0.0
 10
303.5818034677431
 20
418.0993855165172
 42
0.0496109798504953
 10
304.210422221299
 20
422.696947485035
 42
0.0
 10
306.4110276593133
 20
422.696947485035
 42
0.0
 10
306.6721660822214
 20
420.696947485035
 42
0.0
 10
308.1114427357323
 20
420.696947485035
 42
0.0
 10
308.1114427357324
 20
426.092196022464
 42
0.1111780814714046
 97
       14
330
1361
330
147C
330
147F
330
1480
330
1483
330
1482
330
12CD
330
1478
330
1477
330
147B
330
147A
330
1479
330
1350
330
1355
 92
        7
 72
     1
 73
     1
 93
       14
 10
199.3114427357327
 20
439.4969474850348
 42
0.0
 10
197.9480560001249
 20
444.5851760526888
 42
0.6565381519876037
 10
195.2250778167067
 20
444.9885888740028
 42
0.0
 10
194.8114427357328
 20
444.3228731879929
 42
0.0
 10
194.8114427357328
 20
438.6969474850348
 42
0.0
 10
196.9597537762517
 20
438.696947485035
 42
0.0
 10
195.7132097403718
 20
436.0237251733707
 42
0.1095178116832397
 10
193.5114427357332
 20
426.0921960224644
 42
0.0
 10
193.5114427357332
 20
420.696947485035
 42
0.0
 10
194.9507193892441
 20
420.696947485035
 42
0.0
 10
195.2118578121522
 20
422.696947485035
 42
0.0
 10
197.4124632501668
 20
422.696947485035
 42
0.0496109798504947
 10
198.0410820037223
 20
418.0993855165172
 42
0.0
 10
199.3114427357327
 20
418.0993855165173
 42
0.0
 97
       14
330
145E
330
145C
330
145F
330
520
330
1475
330
1369
330
1377
330
136E
330
146E
330
146A
330
146B
330
146D
330
1476
330
12E1
 92
        7
 72
     1
 73
     1
 93
        4
 10
194.8114427357329
 20
444.322873187993
 42
0.0
 10
192.663870885107
 20
440.8665119324897
 42
0.1436237563963098
 10
192.0618708433203
 20
438.696947485035
 42
0.0
 10
194.8114427357328
 20
438.696947485035
 42
0.0
 97
        4
330
145F
330
1466
330
1475
330
520
 75
     0
 76
     1
 52
45.0
 41
10.0
 77
     0
 78
     2
 53
45.0
 43
0.0
 44
0.0
 45
-0.8838834764831842
 46
0.8838834764831844
 79
     0
 53
135.0
 43
0.0
 44
0.0
 45
-0.8838834764831844
 46
-0.8838834764831842
 79
     0
 47
0.2017211649640667
 98
        3
 10
305.619760295092
 20
429.505608473825
 10
197.4385700232028
 20
431.7245420760393
 10
192.9982961453133
 20
439.7933888715044
  0
HATCH
  5
14DD
330
2
100
AcDbEntity
  8
SCHRAFF
100
AcDbHatch
 10
0.0
 20
0.0
 30
0.0
210
0.0
220
0.0
230
1.0
  2
HONEY
 70
     0
 71
     0
 91
        2
 92
        7
 72
     1
 73
     1
 93
        7
 10
254.811442735733
 20
701.4040542662224
 42
0.0
 10
254.8114427357328
 20
679.4040542662223
 42
0.0
 10
359.811442735733
 20
679.4040542662225
 42
0.0
 10
359.811442735733
 20
682.4039962989068
 42
0.2667503951500763
 10
357.3307963038599
 20
686.7228917131033
 42
0.0
 10
333.3095896278297
 20
700.7352506489212
 42
0.1315436689467474
 10
330.8114427357331
 20
701.4040542662224
 42
0.0
 97
        0
 92
        7
 72
     1
 73
     1
 93
        7
 10
170.8114427357328
 20
701.404054266222
 42
0.1315436689462666
 10
168.3132958436465
 20
700.7352506489273
 42
0.0
 10
144.2920891676058
 20
686.7228917131032
 42
0.266750395150088
 10
141.8114427357329
 20
682.403996298907
 42
0.0
 10
141.8114427357329
 20
679.4040542662219
 42
0.0
 10
246.811442735733
 20
679.4040542662223
 42
0.0
 10
246.8114427357329
 20
701.4040542662222
 42
0.0
 97
        0
 75
     0
 76
     1
 52
0.0
 41
30.0
 77
     0
 78
     3
 53
0.0
 43
12.36797118105778
 44
225.7789535635254
 45
5.625
 46
3.247595249999999
 79
     2
 49
3.75
 49
-7.5
 53
120.0
 43
12.36797118105778
 44
225.7789535635254
 45
-5.624999987709673
 46
3.247595271287468
 79
     2
 49
3.749999999999999
 49
-7.499999999999998
 53
60.0
 43
12.36797118105778
 44
225.7789535635254
 45
0.0000000122903263
 46
6.495190521287468
 79
     2
 49
-7.5
 49
3.75
 47
0.3214602750441732
 98
        2
 10
282.328802045518
 20
692.7519433450363
 10
221.5398552550914
 20
692.7519433450363
  0
HATCH
  5
14DE
330
2
100
AcDbEntity
  8
SCHRAFF
100
AcDbHatch
 10
0.0
 20
0.0
 30
0.0
210
0.0
220
0.0
230
1.0
  2
_USER
 70
     0
 71
     1
 91
        2
 92
        7
 72
     0
 73
     1
 93
        4
 10
357.5614427357328
 20
679.4040542662226
 10
255.5614427357329
 20
679.4040542662222
 10
255.5614427357329
 20
677.4040542662223
 10
357.5614427357329
 20
677.4040542662224
 97
        4
330
14F6
330
14F7
330
150B
330
1508
 92
        7
 72
     0
 73
     1
 93
        4
 10
246.0614427357329
 20
679.4040542662222
 10
144.0614427357328
 20
679.4040542662219
 10
144.0614427357328
 20
677.404054266222
 10
246.0614427357328
 20
677.4040542662221
 97
        4
330
150A
330
1509
330
150B
330
14F8
 75
     0
 76
     0
 52
135.0
 41
2.0
 77
     0
 78
     1
 53
135.0
 43
12.36797118105778
 44
203.6313703977145
 45
-1.414213562373095
 46
-1.414213562373094
 79
     0
 47
0.2882846600731254
 98
        2
 10
298.816295668637
 20
679.8323295287405
 10
234.7823886001574
 20
679.8323295287405
  0
ARC
  5
14DF
330
2
100
AcDbEntity
  8
STEMPEL
100
AcDbCircle
 10
244.3114427357328
 20
668.9882508625076
 30
0.0
 40
0.5
100
AcDbArc
 50
0.0
 51
71.12924595933046
  0
ARC
  5
14E0
330
2
100
AcDbEntity
  8
STEMPEL
100
AcDbCircle
 10
257.3114427357328
 20
668.9882508625076
 30
0.0
 40
0.5
100
AcDbArc
 50
108.8707540406695
 51
180.0
  0
LINE
  5
14E1
330
2
100
AcDbEntity
  8
STEMPEL
100
AcDbLine
 10
244.8114427357328
 20
668.9882508625076
 30
0.0
 11
244.8114427357328
 21
666.804054266222
 31
0.0
  0
LINE
  5
14E2
330
2
100
AcDbEntity
  8
STEMPEL
100
AcDbLine
 10
256.8114427357329
 20
668.9882508625076
 30
0.0
 11
256.8114427357329
 21
666.8040542662221
 31
0.0
  0
LINE
  5
14E3
330
2
100
AcDbEntity
  8
STEMPEL
100
AcDbLine
 10
244.8114427357328
 20
666.804054266222
 30
0.0
 11
256.8114427357329
 21
666.8040542662221
 31
0.0
  0
LINE
  5
14E4
330
2
100
AcDbEntity
  8
STEMPEL
100
AcDbLine
 10
258.0002506905489
 20
675.2181290771556
 30
0.0
 11
257.6010517939522
 21
675.4486066675658
 31
0.0
  0
LINE
  5
14E5
330
2
100
AcDbEntity
  8
STEMPEL
100
AcDbLine
 10
256.1978934604917
 20
675.8040542662222
 30
0.0
 11
256.2025229305385
 21
675.8040542662222
 31
0.0
  0
LINE
  5
14E6
330
2
100
AcDbEntity
  8
STEMPEL
100
AcDbLine
 10
258.0002506905489
 20
669.8899794552886
 30
0.0
 11
257.6010517939522
 21
669.6595018648784
 31
0.0
  0
LINE
  5
14E7
330
2
100
AcDbEntity
  8
STEMPEL
100
AcDbLine
 10
256.1978934604917
 20
669.3040542662219
 30
0.0
 11
256.2025229305385
 21
669.3040542662219
 31
0.0
  0
LINE
  5
14E8
330
2
100
AcDbEntity
  8
STEMPEL
100
AcDbLine
 10
258.0002506905489
 20
675.2181290771557
 30
0.0
 11
258.0002506905489
 21
669.8899794552887
 31
0.0
  0
LINE
  5
14E9
330
2
100
AcDbEntity
  8
STEMPEL
100
AcDbLine
 10
254.4058467131409
 20
675.1873213009521
 30
0.0
 11
254.4058467131409
 21
669.9207872314921
 31
0.0
  0
LINE
  5
14EA
330
2
100
AcDbEntity
  8
STEMPEL
100
AcDbLine
 10
247.217038758325
 20
675.1873213009521
 30
0.0
 11
247.2170387583249
 21
669.9207872314921
 31
0.0
  0
ARC
  5
14EB
330
2
100
AcDbEntity
  8
STEMPEL
100
AcDbCircle
 10
250.8114427357329
 20
680.086759466222
 30
0.0
 40
10.7827052
100
AcDbArc
 50
250.5278273813848
 51
289.4721726186153
  0
ARC
  5
14EC
330
2
100
AcDbEntity
  8
STEMPEL
100
AcDbCircle
 10
250.8114427357329
 20
665.0213490662222
 30
0.0
 40
10.7827052
100
AcDbArc
 50
70.52782738138472
 51
109.4721726186152
  0
ARC
  5
14ED
330
2
100
AcDbEntity
  8
STEMPEL
100
AcDbCircle
 10
256.2030487018449
 20
672.2310052040856
 30
0.0
 40
2.926950985085932
100
AcDbArc
 50
232.1193642828198
 51
301.469194524079
  0
ARC
  5
14EE
330
2
100
AcDbEntity
  8
STEMPEL
100
AcDbCircle
 10
256.2030487018449
 20
672.8771033283586
 30
0.0
 40
2.926950985085932
100
AcDbArc
 50
58.53080547592095
 51
127.8806357171802
  0
LINE
  5
14EF
330
2
100
AcDbEntity
  8
STEMPEL
100
AcDbLine
 10
243.6226347809169
 20
675.2181290771556
 30
0.0
 11
244.0218336775136
 21
675.4486066675658
 31
0.0
  0
LINE
  5
14F0
330
2
100
AcDbEntity
  8
STEMPEL
100
AcDbLine
 10
243.6226347809169
 20
669.8899794552886
 30
0.0
 11
244.0218336775136
 21
669.6595018648784
 31
0.0
  0
LINE
  5
14F1
330
2
100
AcDbEntity
  8
STEMPEL
100
AcDbLine
 10
243.6226347809169
 20
675.2181290771556
 30
0.0
 11
243.6226347809169
 21
669.8899794552886
 31
0.0
  0
LINE
  5
14F2
330
2
100
AcDbEntity
  8
STEMPEL
100
AcDbLine
 10
245.4203625409075
 20
669.3040542662221
 30
0.0
 11
256.2025229305489
 21
669.3040542662219
 31
0.0
  0
ARC
  5
14F3
330
2
100
AcDbEntity
  8
STEMPEL
100
AcDbCircle
 10
245.4198367696209
 20
672.2310052040856
 30
0.0
 40
2.926950985085932
100
AcDbArc
 50
238.530805475921
 51
307.8806357171803
  0
LINE
  5
14F4
330
2
100
AcDbEntity
  8
STEMPEL
100
AcDbLine
 10
245.4203625409075
 20
675.8040542662221
 30
0.0
 11
256.2025229305489
 21
675.8040542662222
 31
0.0
  0
ARC
  5
14F5
330
2
100
AcDbEntity
  8
STEMPEL
100
AcDbCircle
 10
245.4198367696209
 20
672.8771033283586
 30
0.0
 40
2.926950985085932
100
AcDbArc
 50
52.11936428281976
 51
121.469194524079
  0
LINE
  5
14F6
102
{ACAD_REACTORS
330
14DE
102
}
330
2
100
AcDbEntity
  8
STEMPEL
100
AcDbLine
 10
254.8114427357329
 20
679.4040542662223
 30
0.0
 11
359.811442735733
 21
679.4040542662226
 31
0.0
  0
LINE
  5
14F7
102
{ACAD_REACTORS
330
14DE
102
}
330
2
100
AcDbEntity
  8
STEMPEL
100
AcDbLine
 10
255.5614427357329
 20
679.4040542662223
 30
0.0
 11
255.5614427357329
 21
677.4040542662222
 31
0.0
  0
LINE
  5
14F8
102
{ACAD_REACTORS
330
14DE
102
}
330
2
100
AcDbEntity
  8
STEMPEL
100
AcDbLine
 10
246.0614427357329
 20
679.4040542662221
 30
0.0
 11
246.0614427357328
 21
677.4040542662221
 31
0.0
  0
LINE
  5
14F9
330
2
100
AcDbEntity
  8
STEMPEL
100
AcDbLine
 10
246.8114427357329
 20
666.804054266222
 30
0.0
 11
246.8114427357329
 21
662.4040542662223
 31
0.0
  0
LINE
  5
14FA
330
2
100
AcDbEntity
  8
HILF
100
AcDbLine
 10
247.8114427357329
 20
666.804054266222
 30
0.0
 11
247.8114427357329
 21
661.4040542662223
 31
0.0
  0
LINE
  5
14FB
330
2
100
AcDbEntity
  8
HILF
100
AcDbLine
 10
253.8114427357329
 20
666.804054266222
 30
0.0
 11
253.8114427357328
 21
661.4040542662223
 31
0.0
  0
LINE
  5
14FC
330
2
100
AcDbEntity
  8
STEMPEL
100
AcDbLine
 10
254.8114427357328
 20
666.804054266222
 30
0.0
 11
254.8114427357329
 21
662.4040542662223
 31
0.0
  0
LINE
  5
14FD
330
2
100
AcDbEntity
  8
STEMPEL
100
AcDbLine
 10
258.8114427357329
 20
677.4040542662222
 30
0.0
 11
258.8114427357329
 21
675.8040542662222
 31
0.0
  0
LINE
  5
14FE
330
2
100
AcDbEntity
  8
STEMPEL
100
AcDbLine
 10
242.8114427357328
 20
677.4040542662222
 30
0.0
 11
242.8114427357328
 21
675.8040542662222
 31
0.0
  0
LINE
  5
14FF
330
2
100
AcDbEntity
  8
STEMPEL
100
AcDbLine
 10
242.8114427357328
 20
675.8040542662222
 30
0.0
 11
258.8114427357329
 21
675.8040542662222
 31
0.0
  0
LINE
  5
1500
330
2
100
AcDbEntity
  8
STEMPEL
100
AcDbLine
 10
246.8114427357329
 20
662.4040542662223
 30
0.0
 11
247.8114427357329
 21
661.4040542662223
 31
0.0
  0
LINE
  5
1501
330
2
100
AcDbEntity
  8
STEMPEL
100
AcDbLine
 10
254.8114427357329
 20
662.4040542662223
 30
0.0
 11
253.8114427357328
 21
661.4040542662223
 31
0.0
  0
LINE
  5
1502
330
2
100
AcDbEntity
  8
HILF
100
AcDbLine
 10
247.811442735733
 20
701.4040542662221
 30
0.0
 11
247.8114427357329
 21
677.4040542662221
 31
0.0
  0
LINE
  5
1503
330
2
100
AcDbEntity
  8
HILF
100
AcDbLine
 10
253.811442735733
 20
701.4040542662221
 30
0.0
 11
253.8114427357329
 21
677.4040542662223
 31
0.0
  0
LINE
  5
1504
330
2
100
AcDbEntity
  8
STEMPEL
100
AcDbLine
 10
246.8114427357329
 20
662.4040542662223
 30
0.0
 11
254.8114427357329
 21
662.4040542662223
 31
0.0
  0
LINE
  5
1505
330
2
100
AcDbEntity
  8
STEMPEL
100
AcDbLine
 10
247.8114427357329
 20
661.4040542662223
 30
0.0
 11
253.8114427357328
 21
661.4040542662223
 31
0.0
  0
LINE
  5
1506
330
2
100
AcDbEntity
  8
STEMPEL
100
AcDbLine
 10
254.8114427357329
 20
701.4040542662221
 30
0.0
 11
254.8114427357328
 21
677.4040542662222
 31
0.0
  0
LINE
  5
1507
330
2
100
AcDbEntity
  8
STEMPEL
100
AcDbLine
 10
246.8114427357329
 20
701.4040542662221
 30
0.0
 11
246.8114427357329
 21
677.4040542662222
 31
0.0
  0
LINE
  5
1508
102
{ACAD_REACTORS
330
14DE
102
}
330
2
100
AcDbEntity
  8
STEMPEL
100
AcDbLine
 10
357.5614427357328
 20
679.4040542662226
 30
0.0
 11
357.5614427357328
 21
677.4040542662224
 31
0.0
  0
LINE
  5
1509
102
{ACAD_REACTORS
330
14DE
102
}
330
2
100
AcDbEntity
  8
STEMPEL
100
AcDbLine
 10
144.0614427357329
 20
679.4040542662219
 30
0.0
 11
144.0614427357329
 21
677.4040542662221
 31
0.0
  0
LINE
  5
150A
102
{ACAD_REACTORS
330
14DE
102
}
330
2
100
AcDbEntity
  8
STEMPEL
100
AcDbLine
 10
141.8114427357329
 20
679.4040542662219
 30
0.0
 11
246.8114427357329
 21
679.4040542662222
 31
0.0
  0
LINE
  5
150B
102
{ACAD_REACTORS
330
14DE
102
}
330
2
100
AcDbEntity
  8
STEMPEL
100
AcDbLine
 10
144.0614427357329
 20
677.404054266222
 30
0.0
 11
357.5614427357329
 21
677.4040542662226
 31
0.0
  0
HATCH
  5
1551
330
2
100
AcDbEntity
  8
SCHRAFF
100
AcDbHatch
 10
0.0
 20
0.0
 30
0.0
210
0.0
220
0.0
230
1.0
  2
_USER
 70
     0
 71
     1
 91
        2
 92
        7
 72
     1
 73
     1
 93
       22
 10
200.8114427357332
 20
303.4281254443326
 42
0.1406476065140117
 10
199.3657905618201
 20
308.4657321277099
 42
-0.1406476065140128
 10
197.3114427357329
 20
315.6244363619828
 42
0.0
 10
197.3114427357329
 20
391.5973638246651
 42
0.1147947224150838
 10
195.9250181694747
 20
397.556498846717
 42
-0.1147883641793586
 10
193.5114427357332
 20
407.929947485035
 42
0.0
 10
193.5114427357332
 20
426.092196022464
 42
-0.1095178116832434
 10
195.7132097403718
 20
436.0237251733707
 42
0.0
 10
196.9597537762517
 20
438.696947485035
 42
0.0
 10
195.3046868978081
 20
438.696947485035
 42
0.0
 10
194.3537480598168
 20
436.6576525659819
 42
0.1095178116832391
 10
192.0114427357332
 20
426.0921960224647
 42
0.0
 10
192.0114427357332
 20
407.929947485035
 42
0.1147887456791647
 10
194.5790653433941
 20
396.8943727334935
 42
-0.1147947224203113
 10
195.8114427357329
 20
391.5973638247807
 42
0.0
 10
195.8114427357329
 20
315.6244363619828
 42
0.1406476065140104
 10
198.0940514313852
 20
307.6703205461241
 42
-0.1230293155512603
 10
199.2922584455934
 20
303.9818226587443
 42
0.0
 10
199.3114427357326
 20
133.6096255992177
 42
0.0
 10
200.0037123688533
 20
125.6969474850347
 42
0.0
 10
201.5094421251683
 20
125.6969474850347
 42
0.0
 10
200.8114427357325
 20
133.67511701358
 42
0.0
 97
       22
330
137A
330
137D
330
137F
330
1370
330
1372
330
136E
330
1377
330
1369
330
1475
330
136A
330
1376
330
136D
330
1371
330
136F
330
137E
330
137C
330
137B
330
138A
330
1388
330
1390
330
1389
330
138B
 92
        7
 72
     1
 73
     1
 93
       22
 10
302.3114427357324
 20
303.4281254443326
 42
-0.1406476065140111
 10
303.5288340400801
 20
307.670320546124
 42
0.140647606514013
 10
305.8114427357326
 20
315.6244363619828
 42
0.0
 10
305.8114427357326
 20
391.597363825369
 42
-0.114797354322162
 10
307.0438751681649
 20
396.894484616692
 42
0.114797354322161
 10
309.6114427357323
 20
407.9301529319479
 42
0.0
 10
309.6114427357323
 20
426.0921960224642
 42
0.1095178116832544
 10
307.269137411648
 20
436.6576525659828
 42
0.0
 10
306.3181985736574
 20
438.696947485035
 42
0.0
 10
304.6631316952138
 20
438.6969474850349
 42
0.0
 10
305.9096757310935
 20
436.0237251733707
 42
-0.1111780814713492
 10
308.1114427357324
 20
426.0921960224691
 42
0.0
 10
308.1114427357324
 20
407.9301529319479
 42
-0.1147973543221596
 10
305.6979292222191
 20
397.5566247156074
 42
0.1147973543221631
 10
304.3114427357326
 20
391.5973638253691
 42
0.0
 10
304.3114427357326
 20
315.6244363619828
 42
-0.1406476065140123
 10
302.2570949096456
 20
308.4657321277099
 42
0.140647606514022
 10
300.8114427357324
 20
303.4281254443323
 42
0.0
 10
300.8114427357328
 20
133.6751170135804
 42
0.0
 10
300.113443346297
 20
125.6969474850343
 42
0.0
 10
301.6191731026119
 20
125.6969474850343
 42
0.0
 10
302.3114427357327
 20
133.6096255992176
 42
0.0
 97
       22
330
135A
330
1360
330
1359
330
135F
330
1354
330
1351
330
1356
330
134C
330
147C
330
1361
330
1355
330
1350
330
1353
330
135E
330
135D
330
135C
330
135B
330
1367
330
1365
330
1390
330
1366
330
1368
 75
     0
 76
     0
 52
135.0
 41
2.0
 77
     0
 78
     1
 53
135.0
 43
0.0
 44
0.0
 45
-1.414213562373095
 46
-1.414213562373094
 79
     0
 47
0.5446259781240067
 98
        2
 10
199.7984567007143
 20
261.7760264051847
 10
301.6987548114339
 20
263.9545297007576
  0
TEXT
  5
155A
330
2
100
AcDbEntity
  8
TEXT
100
AcDbText
 10
532.0
 20
654.862987254257
 30
0.0
 40
5.0
  1

 50
90.0
 41
0.8
100
AcDbText
  0
LINE
  5
1574
330
2
100
AcDbEntity
  8
STEMPEL
100
AcDbLine
 10
167.8736448010901
 20
647.4040542662209
 30
0.0
 11
333.7492406703755
 21
647.4040542662212
 31
0.0
  0
LINE
  5
1575
330
2
100
AcDbEntity
  8
STEMPEL
100
AcDbLine
 10
165.7133847608031
 20
599.3691547695184
 30
0.0
 11
167.3739493875807
 21
646.9215040145724
 31
0.0
  0
LINE
  5
1576
330
2
100
AcDbEntity
  8
STEMPEL
100
AcDbLine
 10
171.8114427357329
 20
592.4040542662208
 30
0.0
 11
169.8908004136867
 21
647.4040542662209
 31
0.0
  0
ARC
  5
1577
330
2
100
AcDbEntity
  8
STEMPEL
100
AcDbCircle
 10
164.713993933784
 20
599.4040542662209
 30
0.0
 40
1.0
100
AcDbArc
 50
270.0
 51
357.9999999999963
  0
LINE
  5
1578
330
2
100
AcDbEntity
  8
BEM
100
AcDbLine
 10
167.3739493875807
 20
646.9215040145724
 30
0.0
 11
167.3908004136867
 21
647.4040542662209
 31
0.0
  0
LINE
  5
1579
330
2
100
AcDbEntity
  8
BEM
100
AcDbLine
 10
167.8736448010901
 20
647.4040542662209
 30
0.0
 11
167.3908004136866
 21
647.4040542662209
 31
0.0
  0
ARC
  5
157A
330
2
100
AcDbEntity
  8
STEMPEL
100
AcDbCircle
 10
167.8736448010901
 20
646.9040542662211
 30
0.0
 40
0.5
100
AcDbArc
 50
90.0
 51
177.9999999999963
  0
LINE
  5
157B
330
2
100
AcDbEntity
  8
STEMPEL
100
AcDbLine
 10
335.9095007106626
 20
599.3691547695184
 30
0.0
 11
334.248936083885
 21
646.9215040145724
 31
0.0
  0
LINE
  5
157C
330
2
100
AcDbEntity
  8
STEMPEL
100
AcDbLine
 10
329.8114427357328
 20
592.4040542662208
 30
0.0
 11
331.732085057779
 21
647.4040542662209
 31
0.0
  0
ARC
  5
157D
330
2
100
AcDbEntity
  8
STEMPEL
100
AcDbCircle
 10
336.9088915376817
 20
599.4040542662209
 30
0.0
 40
1.0
100
AcDbArc
 50
182.0000000000036
 51
270.0
  0
ARC
  5
157E
330
2
100
AcDbEntity
  8
STEMPEL
100
AcDbCircle
 10
333.7492406703755
 20
646.9040542662211
 30
0.0
 40
0.5
100
AcDbArc
 50
2.000000000003669
 51
90.0
  0
HATCH
  5
157F
330
2
100
AcDbEntity
  8
SCHRAFF
100
AcDbHatch
 10
0.0
 20
0.0
 30
0.0
210
0.0
220
0.0
230
1.0
  2
_USER
 70
     0
 71
     0
 91
        4
 92
        7
 72
     1
 73
     1
 93
        4
 10
108.8114427357328
 20
598.404054266221
 42
1.0
 10
108.8114427357328
 20
592.404054266221
 42
0.0
 10
131.8114427357327
 20
592.404054266221
 42
0.0
 10
131.8114427357327
 20
598.404054266221
 42
0.0
 97
        0
 92
        7
 72
     1
 73
     1
 93
        8
 10
145.8114427357328
 20
598.404054266221
 42
0.0
 10
145.8114427357328
 20
592.404054266221
 42
0.0
 10
171.8114427357328
 20
592.4040542662209
 42
0.0
 10
169.8908004136867
 20
647.4040542662211
 42
0.0
 10
167.8736448010901
 20
647.4040542662209
 42
0.4040262258350415
 10
167.3739493875807
 20
646.9215040145724
 42
0.0
 10
165.7133847608031
 20
599.3691547695184
 42
-0.404026225835099
 10
164.713993933784
 20
598.4040542662211
 42
0.0
 97
        0
 92
        7
 72
     1
 73
     1
 93
       19
 10
368.8114427357329
 20
592.404054266221
 42
0.0
 10
368.8114427357329
 20
595.4040542662215
 42
0.0
 10
369.3114427357329
 20
595.4040542662215
 42
0.0
 10
369.3114427357329
 20
598.4040542662214
 42
0.0
 10
368.8114427357329
 20
598.4040542662214
 42
0.0
 10
368.8114427357327
 20
606.4040542662215
 42
0.0
 10
369.3114427357329
 20
606.4040542662215
 42
0.0
 10
369.3114427357329
 20
609.4040542662214
 42
0.0
 10
368.8114427357327
 20
609.4040542662214
 42
0.0
 10
368.8114427357328
 20
612.404054266221
 42
0.0
 10
365.3114427357329
 20
612.4040542662211
 42
0.0
 10
365.1528239869415
 20
603.3167922340348
 42
-0.4091108014277157
 10
360.1535855111595
 20
598.4040542662212
 42
0.0
 10
336.9088915376817
 20
598.4040542662212
 42
-0.4040262258351384
 10
335.9095007106626
 20
599.3691547695187
 42
0.0
 10
334.248936083885
 20
646.9215040145724
 42
0.4040262258351858
 10
333.7492406703755
 20
647.4040542662212
 42
0.0
 10
331.732085057779
 20
647.4040542662212
 42
0.0
 10
329.8114427357328
 20
592.404054266221
 42
0.0
 97
        0
 92
        7
 72
     1
 73
     1
 93
       15
 10
392.8114427357328
 20
592.404054266221
 42
1.0
 10
392.8114427357328
 20
598.404054266221
 42
0.0
 10
385.4692999603064
 20
598.4040542662211
 42
-0.40911080142771
 10
380.4700614845244
 20
603.3167922340346
 42
0.0
 10
380.3114427357328
 20
612.4040542662211
 42
0.0
 10
376.8114427357328
 20
612.404054266221
 42
0.0
 10
376.8114427357327
 20
609.4040542662214
 42
0.0
 10
376.3114427357329
 20
609.4040542662213
 42
0.0
 10
376.3114427357329
 20
606.4040542662213
 42
0.0
 10
376.8114427357327
 20
606.4040542662213
 42
0.0
 10
376.8114427357329
 20
598.4040542662216
 42
0.0
 10
376.311442735733
 20
598.4040542662216
 42
0.0
 10
376.3114427357328
 20
595.4040542662215
 42
0.0
 10
376.811442735733
 20
595.4040542662217
 42
0.0
 10
376.8114427357329
 20
592.404054266221
 42
0.0
 97
        0
 75
     0
 76
     0
 52
45.0
 41
5.0
 77
     0
 78
     1
 53
45.0
 43
15.04399461342348
 44
90.00402675975919
 45
-3.535533905932737
 46
3.535533905932737
 79
     0
 47
0.4044218533258408
 98
        4
 10
125.2633984609011
 20
595.9553186352475
 10
153.5912919240473
 20
595.9553186352475
 10
349.4584462854374
 20
594.3376320352861
 10
381.4284984643419
 20
595.1464753352667
  0
LINE
  5
1580
330
2
100
AcDbEntity
  8
STEMPEL
100
AcDbLine
 10
336.9088915376817
 20
598.4040542662211
 30
0.0
 11
360.1535855111595
 21
598.4040542662212
 31
0.0
  0
LINE
  5
1581
330
2
100
AcDbEntity
  8
STEMPEL
100
AcDbLine
 10
335.4543119899901
 20
612.4040542662215
 30
0.0
 11
369.8114427357325
 21
612.4040542662212
 31
0.0
  0
LINE
  5
159C
330
2
100
AcDbEntity
  8
TEXT
 62
     2
100
AcDbLine
 10
378.8011230671543
 20
339.8275273764465
 30
0.0
 11
305.1802253839357
 21
427.2735369859601
 31
0.0
  0
LINE
  5
159D
330
2
100
AcDbEntity
  8
TEXT
 62
     2
100
AcDbLine
 10
380.3063993623415
 20
395.7463530814336
 30
0.0
 11
347.9814035479892
 21
446.2076258495464
 31
0.0
  0
LINE
  5
159F
330
2
100
AcDbEntity
  8
TEXT
 62
     2
100
AcDbLine
 10
375.0625927569885
 20
369.1767459620375
 30
0.0
 11
332.3479039389943
 21
437.7549456955626
 31
0.0
  0
LINE
  5
15A0
330
2
100
AcDbEntity
  8
TEXT
 62
     2
100
AcDbLine
 10
484.7396876422874
 20
339.8275273764465
 30
0.0
 11
378.8011230671543
 21
339.8275273764465
 31
0.0
  0
TEXT
  5
15A1
330
2
100
AcDbEntity
  8
TEXT
 62
     1
100
AcDbText
 10
381.4819763209639
 20
330.5350305686474
 30
0.0
 40
7.0
  1
EDV-Art.Nr. 00911.100X
 41
0.8
100
AcDbText
  0
LINE
  5
15A2
330
2
100
AcDbEntity
  8
TEXT
 62
     2
100
AcDbLine
 10
486.2449639374746
 20
395.7463530814336
 30
0.0
 11
380.3063993623415
 21
395.7463530814336
 31
0.0
  0
TEXT
  5
15A3
330
2
100
AcDbEntity
  8
TEXT
 62
     1
100
AcDbText
 10
380.901755241096
 20
386.4538562736345
 30
0.0
 40
7.0
  1
EDV-Art.Nr. 21905.100X
 41
0.8
100
AcDbText
  0
LINE
  5
15A4
330
2
100
AcDbEntity
  8
TEXT
 62
     2
100
AcDbLine
 10
375.0625927569885
 20
369.1767459620375
 30
0.0
 11
486.5923340913913
 21
369.1767459620374
 31
0.0
  0
TEXT
  5
15A5
330
2
100
AcDbEntity
  8
TEXT
 62
     1
100
AcDbText
 10
382.1443784601704
 20
358.6252731490422
 30
0.0
 40
7.0
  1
EDV-Art.Nr. 21810.125X
 41
0.8
100
AcDbText
  0
TEXT
  5
15A6
330
2
100
AcDbEntity
  8
TEXT
 62
     1
100
AcDbText
 10
381.4819763209639
 20
343.3113615373569
 30
0.0
 40
7.0
  1
Dichtelement DN100
 41
0.8
100
AcDbText
  0
TEXT
  5
15A7
330
2
100
AcDbEntity
  8
TEXT
 62
     1
100
AcDbText
 10
383.3981956084235
 20
399.230187242344
 30
0.0
 40
7.0
  1
Losflansch DN100
 41
0.8
100
AcDbText
  0
TEXT
  5
15A8
330
2
100
AcDbEntity
  8
TEXT
 62
     1
100
AcDbText
 10
381.7884194573337
 20
372.1632864540905
 30
0.0
 40
7.0
  1
Kompressionsdichtung
 41
0.8
100
AcDbText
  0
TEXT
  5
15AC
330
2
100
AcDbEntity
  8
TEXT
100
AcDbText
 10
560.7454004822709
 20
549.728123385421
 30
0.0
 40
4.0
  1
Koeh
 50
90.0
 41
0.8
  7
GREEKS
 72
     1
 11
560.7454004822709
 21
554.985266242564
 31
0.0
100
AcDbText
  0
LINE
  5
15BB
330
2
100
AcDbEntity
  8
STEMPEL
100
AcDbLine
 10
189.8114427357328
 20
441.6969474850347
 30
0.0
 11
189.8114427357328
 21
438.6969474850348
 31
0.0
  0
LINE
  5
15BC
330
2
100
AcDbEntity
  8
HILF
100
AcDbLine
 10
190.8114427357327
 20
441.6969474850348
 30
0.0
 11
190.8114427357327
 21
438.6969474850347
 31
0.0
  0
HATCH
  5
1609
330
2
100
AcDbEntity
  8
SCHRAFF
100
AcDbHatch
 10
0.0
 20
0.0
 30
0.0
210
0.0
220
0.0
230
1.0
  2
NET
 70
     0
 71
     1
 91
        5
 92
        7
 72
     0
 73
     1
 93
        5
 10
400.8114427357327
 20
589.4040542662209
 10
354.2859503769969
 20
589.4040542662209
 10
354.2859503769969
 20
586.404054266221
 10
394.2688020486146
 20
586.4040542662208
 10
400.8114427357327
 20
586.404054266221
 97
        5
330
58
330
300
330
12E4
330
55
330
34C
 92
        7
 72
     0
 73
     1
 93
        4
 10
354.2859503769969
 20
589.4040542662209
 10
349.993810857307
 20
589.4040542662211
 10
350.3129492245372
 20
586.4040542662211
 10
354.2859503769968
 20
586.404054266221
 97
        4
330
58
330
F04
330
12E4
330
300
 92
        7
 72
     0
 73
     1
 93
        4
 10
349.9938108573069
 20
589.4040542662211
 10
330.8114427357327
 20
589.4040542662211
 10
330.8114427357327
 20
586.4040542662212
 10
350.3129492245372
 20
586.4040542662212
 97
        4
330
58
330
2DC
330
12E4
330
F04
 92
        7
 72
     0
 73
     1
 93
        4
 10
170.8114427357326
 20
589.4040542662209
 10
145.8114427357327
 20
589.4040542662209
 10
145.8114427357327
 20
586.4040542662218
 10
170.8114427357326
 20
586.4040542662216
 97
        4
330
58
330
61C
330
12E4
330
192
 92
        7
 72
     0
 73
     1
 93
        4
 10
131.8114427357327
 20
589.4040542662209
 10
100.8114427357327
 20
589.4040542662209
 10
100.8114427357327
 20
586.404054266222
 10
131.8114427357327
 20
586.404054266222
 97
        4
330
BB
330
E7
330
55
330
61B
 75
     0
 76
     1
 52
45.0
 41
15.0
 77
     0
 78
     2
 53
45.0
 43
0.0
 44
0.0
 45
-1.325825214724776
 46
1.325825214724776
 79
     0
 53
135.0
 43
0.0
 44
0.0
 45
-1.325825214724776
 46
-1.325825214724776
 79
     0
 47
0.4762276482088036
 98
        5
 10
382.1487200281017
 20
588.3019374217897
 10
352.6125885213342
 20
588.3019374217897
 10
339.2736902075512
 20
587.3494827378003
 10
162.5332825755308
 20
588.3019374217897
 10
119.6582494387157
 20
588.3019374217897
  0
HATCH
  5
1620
330
2
100
AcDbEntity
  8
SCHRAFF
100
AcDbHatch
 10
0.0
 20
0.0
 30
0.0
210
0.0
220
0.0
230
1.0
  2
NET
 70
     0
 71
     1
 91
        4
 92
        7
 72
     0
 73
     1
 93
        5
 10
400.8114427357327
 20
438.6969474850347
 10
354.2859503769969
 20
438.6969474850346
 10
354.285950376997
 20
435.6969474850342
 10
394.2759088298
 20
435.696947485034
 10
400.8114427357326
 20
435.6969474850346
 97
        5
330
5EA
330
591
330
1363
330
5EB
330
5CB
 92
        7
 72
     0
 73
     1
 93
        4
 10
354.2859503769969
 20
438.6969474850348
 10
330.8114427357327
 20
438.6969474850347
 10
330.8114427357327
 20
435.6969474850341
 10
354.2859503769969
 20
435.6969474850341
 97
        4
330
5EA
330
57A
330
1363
330
591
 92
        7
 72
     0
 73
     1
 93
        4
 10
170.8114427357326
 20
438.6969474850347
 10
145.8114427357327
 20
438.6969474850347
 10
145.8114427357327
 20
435.6969474850348
 10
170.8114427357326
 20
435.6969474850347
 97
        4
330
4B9
330
667
330
1385
330
50E
 92
        7
 72
     0
 73
     1
 93
        4
 10
131.8114427357327
 20
438.6969474850346
 10
100.8114427357327
 20
438.6969474850347
 10
100.8114427357327
 20
435.6969474850355
 10
131.8114427357327
 20
435.6969474850354
 97
        4
330
4C3
330
4CA
330
4B3
330
666
 75
     0
 76
     1
 52
45.0
 41
15.0
 77
     0
 78
     2
 53
45.0
 43
0.0
 44
0.0
 45
-1.325825214724776
 46
1.325825214724776
 79
     0
 53
135.0
 43
0.0
 44
0.0
 45
-1.325825214724776
 46
-1.325825214724776
 79
     0
 47
0.4762276482088036
 98
        4
 10
365.9514868351171
 20
436.8615448666405
 10
344.9903599659542
 20
436.3853175246458
 10
150.6235517013483
 20
436.8615448666405
 10
122.5165876341821
 20
436.8615448666405
  0
TEXT
  5
1649
330
2
100
AcDbEntity
  8
VOLL
100
AcDbText
 10
397.9573384908872
 20
574.8012858083817
 30
0.0
 40
1.8
  1

 50
270.0
  7
GREEKS
100
AcDbText
  0
ARC
  5
164E
330
2
100
AcDbEntity
  8
STEMPEL
100
AcDbCircle
 10
366.2614427357327
 20
613.9540542662213
 30
0.0
 40
0.5500000000000003
100
AcDbArc
 50
110.0000000000006
 51
270.0
  0
ARC
  5
164F
330
2
100
AcDbEntity
  8
STEMPEL
100
AcDbCircle
 10
379.3614427357328
 20
613.9540542662213
 30
0.0
 40
0.5500000000000009
100
AcDbArc
 50
270.0
 51
69.99999999999935
  0
LINE
  5
1650
330
2
100
AcDbEntity
  8
STEMPEL
100
AcDbLine
 10
379.5495538145618
 20
614.4708852076536
 30
0.0
 11
378.584945427629
 21
614.8219739482207
 31
0.0
  0
LINE
  5
1651
330
2
100
AcDbEntity
  8
STEMPEL
100
AcDbLine
 10
367.0379400438364
 20
614.8219739482207
 30
0.0
 11
366.0733316569036
 21
614.4708852076536
 31
0.0
  0
LINE
  5
1654
330
2
100
AcDbEntity
  8
STEMPEL
100
AcDbLine
 10
377.8114427357327
 20
620.0040542662214
 30
0.0
 11
367.8114427357327
 21
620.0040542662214
 31
0.0
  0
LINE
  5
1655
330
2
100
AcDbEntity
  8
STEMPEL
100
AcDbLine
 10
378.584945427629
 20
619.7967948445844
 30
0.0
 11
378.584945427629
 21
614.8219739482207
 31
0.0
  0
LINE
  5
1656
330
2
100
AcDbEntity
  8
STEMPEL
100
AcDbLine
 10
375.6981940816809
 20
619.7967948445844
 30
0.0
 11
375.6981940816809
 21
614.8219739482207
 31
0.0
  0
LINE
  5
1657
330
2
100
AcDbEntity
  8
STEMPEL
100
AcDbLine
 10
369.9246913897846
 20
619.7967948445844
 30
0.0
 11
369.9246913897846
 21
614.8219739482207
 31
0.0
  0
LINE
  5
1658
330
2
100
AcDbEntity
  8
STEMPEL
100
AcDbLine
 10
367.0379400438364
 20
619.7967948445844
 30
0.0
 11
367.0379400438364
 21
614.8219739482207
 31
0.0
  0
LINE
  5
1659
330
2
100
AcDbEntity
  8
STEMPEL
100
AcDbLine
 10
379.3614427357328
 20
613.4040542662213
 30
0.0
 11
366.2614427357327
 21
613.4040542662213
 31
0.0
  0
LINE
  5
165A
330
2
100
AcDbEntity
  8
STEMPEL
100
AcDbLine
 10
379.5495538145618
 20
614.4708852076536
 30
0.0
 11
366.0733316569036
 21
614.4708852076536
 31
0.0
  0
ARC
  5
1662
330
2
100
AcDbEntity
  8
STEMPEL
100
AcDbCircle
 10
377.141569754655
 20
614.8745171276982
 30
0.0
 40
5.129537138523076
100
AcDbArc
 50
73.65710669401657
 51
106.3428933059834
  0
LINE
  5
1663
330
2
100
AcDbEntity
  8
STEMPEL
100
AcDbLine
 10
377.8114427357327
 20
620.0040542662214
 30
0.0
 11
378.584945427629
 21
619.7967948445844
 31
0.0
  0
LINE
  5
1664
330
2
100
AcDbEntity
  8
STEMPEL
100
AcDbLine
 10
367.8114427357327
 20
620.0040542662214
 30
0.0
 11
367.0379400438364
 21
619.7967948445844
 31
0.0
  0
ARC
  5
1665
330
2
100
AcDbEntity
  8
STEMPEL
100
AcDbCircle
 10
368.4813157168105
 20
614.8745171276982
 30
0.0
 40
5.129537138523076
100
AcDbArc
 50
73.65710669401657
 51
106.3428933059834
  0
ARC
  5
1666
330
2
100
AcDbEntity
  8
STEMPEL
100
AcDbCircle
 10
372.8114427357327
 20
599.7967948445845
 30
0.0
 40
20.20725942163691
100
AcDbArc
 50
81.78678929826011
 51
98.21321070173988
  0
ARC
  5
1667
330
2
100
AcDbEntity
  8
HILF
100
AcDbCircle
 10
377.141569754655
 20
611.2615809425167
 30
0.0
 40
3.841839622940954
100
AcDbArc
 50
67.9324721810082
 51
112.0675278189918
  0
ARC
  5
1668
330
2
100
AcDbEntity
  8
HILF
100
AcDbCircle
 10
368.4813157168105
 20
611.2627455044049
 30
0.0
 40
3.840760399790701
100
AcDbArc
 50
67.92594526323999
 51
112.07405473676
  0
ARC
  5
1669
330
2
100
AcDbEntity
  8
HILF
100
AcDbCircle
 10
372.8114427357327
 20
600.1627622389951
 30
0.0
 40
14.94074366520046
100
AcDbArc
 50
78.85962783889434
 51
101.1403721611056
  0
TEXT
  5
1686
330
2
100
AcDbEntity
  8
VOLL
100
AcDbText
 10
423.9203530834423
 20
552.6621268253647
 30
0.0
 40
1.8
  1

  7
GREEKS
100
AcDbText
  0
ARC
  5
169C
330
2
100
AcDbEntity
  8
STEMPEL
100
AcDbCircle
 10
354.2859503769969
 20
578.0931651337664
 30
0.0
 40
30.31088913245485
100
AcDbArc
 50
81.78678929826011
 51
98.21321070173988
  0
ARC
  5
169D
330
2
100
AcDbEntity
  8
HILF
100
AcDbCircle
 10
354.2859503769969
 20
578.50559321856
 30
0.0
 40
22.41111549782308
100
AcDbArc
 50
78.85962783890391
 51
101.1403721610961
  0
LINE
  5
169E
330
2
100
AcDbEntity
  8
STEMPEL
100
AcDbLine
 10
346.7859503769969
 20
608.4040542662212
 30
0.0
 11
361.7859503769969
 21
608.4040542662212
 31
0.0
  0
LINE
  5
169F
330
2
100
AcDbEntity
  8
STEMPEL
100
AcDbLine
 10
363.6793961212011
 20
599.8588237318106
 30
0.0
 11
343.8794352695026
 21
599.8588237318106
 31
0.0
  0
LINE
  5
16A1
330
2
100
AcDbEntity
  8
STEMPEL
100
AcDbLine
 10
345.6256963391525
 20
600.494410782421
 30
0.0
 11
343.8794352695027
 21
599.8588237318106
 31
0.0
  0
ARC
  5
16A2
330
2
100
AcDbEntity
  8
STEMPEL
100
AcDbCircle
 10
344.1359503769969
 20
599.1540542662212
 30
0.0
 40
0.7500000000000013
100
AcDbArc
 50
110.0000000000006
 51
269.9999991462263
  0
LINE
  5
16A3
330
2
100
AcDbEntity
  8
STEMPEL
100
AcDbLine
 10
349.9558233580747
 20
600.494410782421
 30
0.0
 11
349.9558233580747
 21
608.0931651337659
 31
0.0
  0
LINE
  5
16A4
330
2
100
AcDbEntity
  8
STEMPEL
100
AcDbLine
 10
345.6256963391525
 20
600.494410782421
 30
0.0
 11
345.6256963391525
 21
608.0931651337659
 31
0.0
  0
ARC
  5
16A5
330
2
100
AcDbEntity
  8
HILF
100
AcDbCircle
 10
347.7907598486136
 20
595.1555681166915
 30
0.0
 40
5.761140599691502
100
AcDbArc
 50
67.92594526326054
 51
112.0740547367394
  0
POINT
  5
16A6
330
2
100
AcDbEntity
  8
0
100
AcDbPoint
 10
354.2859503769969
 20
598.4040542662212
 30
0.0
210
0.0000000000000001
220
1.0
230
0.0
  0
ARC
  5
16A7
330
2
100
AcDbEntity
  8
STEMPEL
100
AcDbCircle
 10
347.7907598486136
 20
600.7097485584368
 30
0.0
 40
7.694305707784447
100
AcDbArc
 50
73.65710669401657
 51
106.3428933059865
  0
LINE
  5
16A8
330
2
100
AcDbEntity
  8
STEMPEL
100
AcDbLine
 10
346.7859503769969
 20
608.4040542662212
 30
0.0
 11
345.6256963391525
 21
608.0931651337659
 31
0.0
  0
LINE
  5
16A9
330
2
100
AcDbEntity
  8
STEMPEL
100
AcDbLine
 10
362.9462044148413
 20
600.494410782421
 30
0.0
 11
362.9462044148413
 21
608.0931651337659
 31
0.0
  0
LINE
  5
16AA
330
2
100
AcDbEntity
  8
STEMPEL
100
AcDbLine
 10
358.6160773959191
 20
600.494410782421
 30
0.0
 11
358.6160773959191
 21
608.0931651337659
 31
0.0
  0
ARC
  5
16AB
330
2
100
AcDbEntity
  8
HILF
100
AcDbCircle
 10
360.7811409053802
 20
595.1555681166915
 30
0.0
 40
5.761140599691502
100
AcDbArc
 50
67.92594526326054
 51
112.0740547367394
  0
LINE
  5
16AC
330
2
100
AcDbEntity
  8
STEMPEL
100
AcDbLine
 10
363.9361103184055
 20
600.1341144987991
 30
0.0
 11
362.9462044148413
 21
600.494410782421
 31
0.0
  0
ARC
  5
16AE
330
2
100
AcDbEntity
  8
STEMPEL
100
AcDbCircle
 10
360.7811409053802
 20
600.7097485584368
 30
0.0
 40
7.694305707784447
100
AcDbArc
 50
73.65710669401345
 51
106.3428933059834
  0
LINE
  5
16AF
330
2
100
AcDbEntity
  8
STEMPEL
100
AcDbLine
 10
362.9462044148413
 20
608.0931651337659
 30
0.0
 11
361.7859503769969
 21
608.4040542662212
 31
0.0
  0
ARC
  5
16B0
330
2
100
AcDbEntity
  8
STEMPEL
100
AcDbCircle
 10
138.8114427357327
 20
578.093165133766
 30
0.0
 40
30.31088913245485
100
AcDbArc
 50
81.78678929826011
 51
98.21321070173988
  0
ARC
  5
16B1
330
2
100
AcDbEntity
  8
HILF
100
AcDbCircle
 10
138.8114427357327
 20
578.5055932185596
 30
0.0
 40
22.41111549782308
100
AcDbArc
 50
78.85962783890391
 51
101.1403721610961
  0
LINE
  5
16B2
330
2
100
AcDbEntity
  8
STEMPEL
100
AcDbLine
 10
131.3114427357327
 20
608.4040542662209
 30
0.0
 11
146.3114427357327
 21
608.4040542662209
 31
0.0
  0
LINE
  5
16B3
330
2
100
AcDbEntity
  8
STEMPEL
100
AcDbLine
 10
149.217957843227
 20
599.8588237318102
 30
0.0
 11
128.4049276282384
 21
599.8588237318102
 31
0.0
  0
LINE
  5
16B4
330
2
100
AcDbEntity
  8
STEMPEL
100
AcDbLine
 10
148.9614427357327
 20
598.4040542662208
 30
0.0
 11
128.6614427357327
 21
598.4040542662208
 31
0.0
  0
LINE
  5
16B5
330
2
100
AcDbEntity
  8
STEMPEL
100
AcDbLine
 10
130.1511886978883
 20
600.4944107824207
 30
0.0
 11
128.4049276282385
 21
599.8588237318102
 31
0.0
  0
ARC
  5
16B6
330
2
100
AcDbEntity
  8
STEMPEL
100
AcDbCircle
 10
128.6614427357327
 20
599.1540542662209
 30
0.0
 40
0.7500000000000013
100
AcDbArc
 50
110.0000000000006
 51
269.9999991462263
  0
LINE
  5
16B7
330
2
100
AcDbEntity
  8
STEMPEL
100
AcDbLine
 10
134.4813157168105
 20
600.4944107824207
 30
0.0
 11
134.4813157168105
 21
608.0931651337655
 31
0.0
  0
LINE
  5
16B8
330
2
100
AcDbEntity
  8
STEMPEL
100
AcDbLine
 10
130.1511886978883
 20
600.4944107824207
 30
0.0
 11
130.1511886978883
 21
608.0931651337655
 31
0.0
  0
ARC
  5
16B9
330
2
100
AcDbEntity
  8
HILF
100
AcDbCircle
 10
132.3162522073494
 20
595.1555681166913
 30
0.0
 40
5.761140599691502
100
AcDbArc
 50
67.92594526326054
 51
112.0740547367394
  0
POINT
  5
16BA
330
2
100
AcDbEntity
  8
0
100
AcDbPoint
 10
138.8114427357327
 20
598.4040542662208
 30
0.0
210
0.0000000000000001
220
1.0
230
0.0
  0
ARC
  5
16BB
330
2
100
AcDbEntity
  8
STEMPEL
100
AcDbCircle
 10
132.3162522073494
 20
600.7097485584364
 30
0.0
 40
7.694305707784447
100
AcDbArc
 50
73.65710669401657
 51
106.3428933059865
  0
LINE
  5
16BC
330
2
100
AcDbEntity
  8
STEMPEL
100
AcDbLine
 10
131.3114427357327
 20
608.4040542662209
 30
0.0
 11
130.1511886978883
 21
608.0931651337655
 31
0.0
  0
LINE
  5
16BD
330
2
100
AcDbEntity
  8
STEMPEL
100
AcDbLine
 10
147.4716967735771
 20
600.4944107824207
 30
0.0
 11
147.4716967735771
 21
608.0931651337655
 31
0.0
  0
LINE
  5
16BE
330
2
100
AcDbEntity
  8
STEMPEL
100
AcDbLine
 10
143.1415697546549
 20
600.4944107824207
 30
0.0
 11
143.1415697546549
 21
608.0931651337655
 31
0.0
  0
ARC
  5
16BF
330
2
100
AcDbEntity
  8
HILF
100
AcDbCircle
 10
145.306633264116
 20
595.1555681166913
 30
0.0
 40
5.761140599691502
100
AcDbArc
 50
67.92594526326054
 51
112.0740547367394
  0
LINE
  5
16C0
330
2
100
AcDbEntity
  8
STEMPEL
100
AcDbLine
 10
149.217957843227
 20
599.8588237318102
 30
0.0
 11
147.4716967735771
 21
600.4944107824207
 31
0.0
  0
ARC
  5
16C1
330
2
100
AcDbEntity
  8
STEMPEL
100
AcDbCircle
 10
148.9614427357327
 20
599.1540542662209
 30
0.0
 40
0.750000000000001
100
AcDbArc
 50
269.9999991462263
 51
69.99999999999935
  0
ARC
  5
16C2
330
2
100
AcDbEntity
  8
STEMPEL
100
AcDbCircle
 10
145.306633264116
 20
600.7097485584364
 30
0.0
 40
7.694305707784447
100
AcDbArc
 50
73.65710669401345
 51
106.3428933059834
  0
LINE
  5
16C3
330
2
100
AcDbEntity
  8
STEMPEL
100
AcDbLine
 10
147.4716967735771
 20
608.0931651337655
 30
0.0
 11
146.3114427357327
 21
608.4040542662209
 31
0.0
  0
ARC
  5
16C4
330
2
100
AcDbEntity
  8
STEMPEL
100
AcDbCircle
 10
138.8114427357327
 20
427.3860583525798
 30
0.0
 40
30.31088913245485
100
AcDbArc
 50
81.78678929826011
 51
98.21321070173988
  0
ARC
  5
16C5
330
2
100
AcDbEntity
  8
HILF
100
AcDbCircle
 10
138.8114427357327
 20
427.7984864373734
 30
0.0
 40
22.41111549782308
100
AcDbArc
 50
78.85962783890391
 51
101.1403721610961
  0
LINE
  5
16C6
330
2
100
AcDbEntity
  8
STEMPEL
100
AcDbLine
 10
131.3114427357327
 20
457.6969474850346
 30
0.0
 11
146.3114427357327
 21
457.6969474850346
 31
0.0
  0
LINE
  5
16C7
330
2
100
AcDbEntity
  8
STEMPEL
100
AcDbLine
 10
149.217957843227
 20
449.1517169506241
 30
0.0
 11
128.4049276282384
 21
449.1517169506241
 31
0.0
  0
LINE
  5
16C8
330
2
100
AcDbEntity
  8
STEMPEL
100
AcDbLine
 10
148.9614427357327
 20
447.6969474850347
 30
0.0
 11
128.6614427357327
 21
447.6969474850347
 31
0.0
  0
LINE
  5
16C9
330
2
100
AcDbEntity
  8
STEMPEL
100
AcDbLine
 10
130.1511886978883
 20
449.7873040012344
 30
0.0
 11
128.4049276282385
 21
449.1517169506241
 31
0.0
  0
ARC
  5
16CA
330
2
100
AcDbEntity
  8
STEMPEL
100
AcDbCircle
 10
128.6614427357327
 20
448.4469474850347
 30
0.0
 40
0.7500000000000013
100
AcDbArc
 50
110.0000000000006
 51
269.9999991462263
  0
LINE
  5
16CB
330
2
100
AcDbEntity
  8
STEMPEL
100
AcDbLine
 10
134.4813157168105
 20
449.7873040012344
 30
0.0
 11
134.4813157168105
 21
457.3860583525792
 31
0.0
  0
LINE
  5
16CC
330
2
100
AcDbEntity
  8
STEMPEL
100
AcDbLine
 10
130.1511886978883
 20
449.7873040012344
 30
0.0
 11
130.1511886978883
 21
457.3860583525792
 31
0.0
  0
ARC
  5
16CD
330
2
100
AcDbEntity
  8
HILF
100
AcDbCircle
 10
132.3162522073494
 20
444.448461335505
 30
0.0
 40
5.761140599691502
100
AcDbArc
 50
67.92594526326054
 51
112.0740547367394
  0
POINT
  5
16CE
330
2
100
AcDbEntity
  8
0
100
AcDbPoint
 10
138.8114427357327
 20
447.6969474850347
 30
0.0
210
0.0000000000000001
220
1.0
230
0.0
  0
ARC
  5
16CF
330
2
100
AcDbEntity
  8
STEMPEL
100
AcDbCircle
 10
132.3162522073494
 20
450.0026417772502
 30
0.0
 40
7.694305707784447
100
AcDbArc
 50
73.65710669401657
 51
106.3428933059865
  0
LINE
  5
16D0
330
2
100
AcDbEntity
  8
STEMPEL
100
AcDbLine
 10
131.3114427357327
 20
457.6969474850346
 30
0.0
 11
130.1511886978883
 21
457.3860583525792
 31
0.0
  0
LINE
  5
16D1
330
2
100
AcDbEntity
  8
STEMPEL
100
AcDbLine
 10
147.4716967735771
 20
449.7873040012344
 30
0.0
 11
147.4716967735771
 21
457.3860583525792
 31
0.0
  0
LINE
  5
16D2
330
2
100
AcDbEntity
  8
STEMPEL
100
AcDbLine
 10
143.1415697546549
 20
449.7873040012344
 30
0.0
 11
143.1415697546549
 21
457.3860583525792
 31
0.0
  0
ARC
  5
16D3
330
2
100
AcDbEntity
  8
HILF
100
AcDbCircle
 10
145.306633264116
 20
444.448461335505
 30
0.0
 40
5.761140599691502
100
AcDbArc
 50
67.92594526326054
 51
112.0740547367394
  0
LINE
  5
16D4
330
2
100
AcDbEntity
  8
STEMPEL
100
AcDbLine
 10
149.217957843227
 20
449.1517169506241
 30
0.0
 11
147.4716967735771
 21
449.7873040012344
 31
0.0
  0
ARC
  5
16D5
330
2
100
AcDbEntity
  8
STEMPEL
100
AcDbCircle
 10
148.9614427357327
 20
448.4469474850347
 30
0.0
 40
0.750000000000001
100
AcDbArc
 50
269.9999991462263
 51
69.99999999999935
  0
ARC
  5
16D6
330
2
100
AcDbEntity
  8
STEMPEL
100
AcDbCircle
 10
145.306633264116
 20
450.0026417772502
 30
0.0
 40
7.694305707784447
100
AcDbArc
 50
73.65710669401345
 51
106.3428933059834
  0
LINE
  5
16D7
330
2
100
AcDbEntity
  8
STEMPEL
100
AcDbLine
 10
147.4716967735771
 20
457.3860583525792
 30
0.0
 11
146.3114427357327
 21
457.6969474850346
 31
0.0
  0
ARC
  5
16D8
330
2
100
AcDbEntity
  8
STEMPEL
100
AcDbCircle
 10
194.8114427357328
 20
427.3860583525799
 30
0.0
 40
30.31088913245485
100
AcDbArc
 50
81.78678929826011
 51
98.21321070173988
  0
ARC
  5
16D9
330
2
100
AcDbEntity
  8
HILF
100
AcDbCircle
 10
194.8114427357328
 20
427.7984864373735
 30
0.0
 40
22.41111549782308
100
AcDbArc
 50
78.85962783890391
 51
101.1403721610961
  0
LINE
  5
16DA
330
2
100
AcDbEntity
  8
STEMPEL
100
AcDbLine
 10
187.3114427357328
 20
457.6969474850347
 30
0.0
 11
199.3114427357327
 21
457.6969474850347
 31
0.0
  0
LINE
  5
16DB
330
2
100
AcDbEntity
  8
STEMPEL
100
AcDbLine
 10
199.3114427357327
 20
449.1517169506241
 30
0.0
 11
184.4049276282385
 21
449.1517169506241
 31
0.0
  0
LINE
  5
16DD
330
2
100
AcDbEntity
  8
STEMPEL
100
AcDbLine
 10
186.1511886978884
 20
449.7873040012345
 30
0.0
 11
184.4049276282386
 21
449.1517169506241
 31
0.0
  0
ARC
  5
16DE
330
2
100
AcDbEntity
  8
STEMPEL
100
AcDbCircle
 10
184.6614427357328
 20
448.4469474850347
 30
0.0
 40
0.7500000000000013
100
AcDbArc
 50
110.0000000000006
 51
269.9999991462263
  0
LINE
  5
16DF
330
2
100
AcDbEntity
  8
STEMPEL
100
AcDbLine
 10
190.4813157168106
 20
449.7873040012345
 30
0.0
 11
190.4813157168106
 21
457.3860583525793
 31
0.0
  0
LINE
  5
16E0
330
2
100
AcDbEntity
  8
STEMPEL
100
AcDbLine
 10
186.1511886978884
 20
449.7873040012345
 30
0.0
 11
186.1511886978884
 21
457.3860583525793
 31
0.0
  0
ARC
  5
16E1
330
2
100
AcDbEntity
  8
HILF
100
AcDbCircle
 10
188.3162522073495
 20
444.4484613355051
 30
0.0
 40
5.761140599691502
100
AcDbArc
 50
67.92594526326054
 51
112.0740547367394
  0
POINT
  5
16E2
330
2
100
AcDbEntity
  8
0
100
AcDbPoint
 10
194.8114427357328
 20
447.6969474850347
 30
0.0
210
0.0000000000000001
220
1.0
230
0.0
  0
ARC
  5
16E3
330
2
100
AcDbEntity
  8
STEMPEL
100
AcDbCircle
 10
188.3162522073495
 20
450.0026417772502
 30
0.0
 40
7.694305707784447
100
AcDbArc
 50
73.65710669401657
 51
106.3428933059865
  0
LINE
  5
16E4
330
2
100
AcDbEntity
  8
STEMPEL
100
AcDbLine
 10
187.3114427357328
 20
457.6969474850347
 30
0.0
 11
186.1511886978884
 21
457.3860583525793
 31
0.0
  0
LINE
  5
16E6
330
2
100
AcDbEntity
  8
STEMPEL
100
AcDbLine
 10
199.141569754655
 20
449.7873040012345
 30
0.0
 11
199.141569754655
 21
457.3860583525793
 31
0.0
  0
ARC
  5
16E7
330
2
100
AcDbEntity
  8
HILF
100
AcDbCircle
 10
201.3066332641161
 20
444.4484613355051
 30
0.0
 40
5.761140599691502
100
AcDbArc
 50
110.2623128518306
 51
112.0740547367394
  0
ARC
  5
16EA
330
2
100
AcDbEntity
  8
STEMPEL
100
AcDbCircle
 10
201.3066332641161
 20
450.0026417772502
 30
0.0
 40
7.694305707784447
100
AcDbArc
 50
105.0289706185152
 51
106.3428933059834
  0
ARC
  5
16EC
330
2
100
AcDbEntity
  8
STEMPEL
100
AcDbCircle
 10
354.2859503769969
 20
427.3860583525801
 30
0.0
 40
30.31088913245485
100
AcDbArc
 50
81.78678929826011
 51
98.21321070173988
  0
ARC
  5
16ED
330
2
100
AcDbEntity
  8
HILF
100
AcDbCircle
 10
354.2859503769969
 20
427.7984864373737
 30
0.0
 40
22.41111549782308
100
AcDbArc
 50
78.85962783890391
 51
101.1403721610961
  0
LINE
  5
16EE
330
2
100
AcDbEntity
  8
STEMPEL
100
AcDbLine
 10
346.7859503769969
 20
457.6969474850349
 30
0.0
 11
361.7859503769969
 21
457.6969474850349
 31
0.0
  0
LINE
  5
16EF
330
2
100
AcDbEntity
  8
STEMPEL
100
AcDbLine
 10
363.6793961212011
 20
449.1517169506242
 30
0.0
 11
343.8794352695026
 21
449.1517169506242
 31
0.0
  0
LINE
  5
16F1
330
2
100
AcDbEntity
  8
STEMPEL
100
AcDbLine
 10
345.6256963391525
 20
449.7873040012347
 30
0.0
 11
343.8794352695027
 21
449.1517169506242
 31
0.0
  0
ARC
  5
16F2
330
2
100
AcDbEntity
  8
STEMPEL
100
AcDbCircle
 10
344.1359503769969
 20
448.4469474850349
 30
0.0
 40
0.7500000000000013
100
AcDbArc
 50
110.0000000000006
 51
269.9999991462263
  0
LINE
  5
16F3
330
2
100
AcDbEntity
  8
STEMPEL
100
AcDbLine
 10
349.9558233580747
 20
449.7873040012347
 30
0.0
 11
349.9558233580747
 21
457.3860583525795
 31
0.0
  0
LINE
  5
16F4
330
2
100
AcDbEntity
  8
STEMPEL
100
AcDbLine
 10
345.6256963391525
 20
449.7873040012347
 30
0.0
 11
345.6256963391525
 21
457.3860583525795
 31
0.0
  0
ARC
  5
16F5
330
2
100
AcDbEntity
  8
HILF
100
AcDbCircle
 10
347.7907598486136
 20
444.4484613355053
 30
0.0
 40
5.761140599691502
100
AcDbArc
 50
67.92594526326054
 51
112.0740547367394
  0
POINT
  5
16F6
330
2
100
AcDbEntity
  8
0
100
AcDbPoint
 10
354.2859503769969
 20
447.6969474850348
 30
0.0
210
0.0000000000000001
220
1.0
230
0.0
  0
ARC
  5
16F7
330
2
100
AcDbEntity
  8
STEMPEL
100
AcDbCircle
 10
347.7907598486136
 20
450.0026417772504
 30
0.0
 40
7.694305707784447
100
AcDbArc
 50
73.65710669401657
 51
106.3428933059865
  0
LINE
  5
16F8
330
2
100
AcDbEntity
  8
STEMPEL
100
AcDbLine
 10
346.7859503769969
 20
457.6969474850349
 30
0.0
 11
345.6256963391525
 21
457.3860583525795
 31
0.0
  0
LINE
  5
16F9
330
2
100
AcDbEntity
  8
STEMPEL
100
AcDbLine
 10
362.9462044148413
 20
449.7873040012347
 30
0.0
 11
362.9462044148413
 21
457.3860583525795
 31
0.0
  0
LINE
  5
16FA
330
2
100
AcDbEntity
  8
STEMPEL
100
AcDbLine
 10
358.6160773959191
 20
449.7873040012347
 30
0.0
 11
358.6160773959191
 21
457.3860583525795
 31
0.0
  0
ARC
  5
16FB
330
2
100
AcDbEntity
  8
HILF
100
AcDbCircle
 10
360.7811409053802
 20
444.4484613355053
 30
0.0
 40
5.761140599691502
100
AcDbArc
 50
67.92594526326054
 51
112.0740547367394
  0
LINE
  5
16FC
330
2
100
AcDbEntity
  8
STEMPEL
100
AcDbLine
 10
363.9361103184056
 20
449.4270077176129
 30
0.0
 11
362.9462044148413
 21
449.7873040012347
 31
0.0
  0
ARC
  5
16FE
330
2
100
AcDbEntity
  8
STEMPEL
100
AcDbCircle
 10
360.7811409053802
 20
450.0026417772504
 30
0.0
 40
7.694305707784447
100
AcDbArc
 50
73.65710669401345
 51
106.3428933059834
  0
LINE
  5
16FF
330
2
100
AcDbEntity
  8
STEMPEL
100
AcDbLine
 10
362.9462044148413
 20
457.3860583525795
 30
0.0
 11
361.7859503769969
 21
457.6969474850349
 31
0.0
  0
ENDSEC
  0
SECTION
  2
OBJECTS
  0
DICTIONARY
  5
1E
330
0
100
AcDbDictionary
281
     1
  3
ACAD_COLOR
350
6A4
  3
ACAD_GROUP
350
1C
  3
ACAD_LAYOUT
350
6A5
  3
ACAD_MATERIAL
350
6A3
  3
ACAD_MLINESTYLE
350
1D
  3
ACAD_PLOTSETTINGS
350
6A6
  3
ACAD_PLOTSTYLENAME
350
6A1
  3
ACDBVARIABLEDICTIONARY
350
47A
  0
DICTIONARY
  5
3
330
2
100
AcDbDictionary
280
     1
281
     1
  3
ACAD_LAYOUTSELFREF
360
4
  0
DICTIONARY
  5
A
330
9
100
AcDbDictionary
280
     1
281
     1
  3
ACAD_LAYOUTSELFREF
360
B
  0
DICTIONARY
  5
6A4
102
{ACAD_REACTORS
330
1E
102
}
330
1E
100
AcDbDictionary
281
     1
  0
DICTIONARY
  5
1C
102
{ACAD_REACTORS
330
1E
102
}
330
1E
100
AcDbDictionary
281
     1
  0
DICTIONARY
  5
6A5
102
{ACAD_REACTORS
330
1E
102
}
330
1E
100
AcDbDictionary
281
     1
  3
Layout1
350
6A8
  3
Model
350
6A7
  0
DICTIONARY
  5
6A3
102
{ACAD_REACTORS
330
1E
102
}
330
1E
100
AcDbDictionary
281
     1
  0
DICTIONARY
  5
1D
102
{ACAD_REACTORS
330
1E
102
}
330
1E
100
AcDbDictionary
281
     1
  3
STANDARD
350
21
  0
DICTIONARY
  5
6A6
102
{ACAD_REACTORS
330
1E
102
}
330
1E
100
AcDbDictionary
281
     1
  0
ACDBDICTIONARYWDFLT
  5
6A1
102
{ACAD_REACTORS
330
1E
102
}
330
1E
100
AcDbDictionary
281
     1
  3
Normal
350
6A2
100
AcDbDictionaryWithDefault
340
6A2
  0
DICTIONARY
  5
47A
102
{ACAD_REACTORS
330
1E
102
}
330
1E
100
AcDbDictionary
281
     1
  3
DIMASSOC
350
6BC
  3
PROJECTNAME
350
6BD
  3
SORTENTS
350
47B
  0
XRECORD
  5
4
102
{ACAD_REACTORS
330
3
102
}
330
3
100
AcDbXrecord
280
     1
340
2
  0
XRECORD
  5
B
102
{ACAD_REACTORS
330
A
102
}
330
A
100
AcDbXrecord
280
     1
340
9
  0
LAYOUT
  5
6A8
102
{ACAD_REACTORS
330
6A5
102
}
330
6A5
100
AcDbPlotSettings
  1

  2
RICOH Aficio 2027 PCL 6
  4

  6

 40
0.0
 41
0.0
 42
0.0
 43
0.0
 44
0.0
 45
0.0
 46
0.0
 47
0.0
 48
0.0
 49
0.0
140
0.0
141
0.0
142
1.0
143
1.0
 70
   688
 72
     0
 73
     0
 74
     5
  7
monochrome1.ctb
 75
    16
147
1.0
 76
     0
 77
     2
 78
   300
148
0.0
149
0.0
100
AcDbLayout
  1
Layout1
 70
     0
 71
     1
 10
0.0
 20
0.0
 11
12.0
 21
9.0
 12
2.245140564963854
 22
50.00000000000001
 32
-1.032422173993944
 14
1.000000000000000E+20
 24
1.000000000000000E+20
 34
1.000000000000000E+20
 15
-1.000000000000000E+20
 25
-1.000000000000000E+20
 35
-1.000000000000000E+20
146
0.0
 13
0.0
 23
0.0
 33
0.0
 16
1.0
 26
0.0
 36
0.0
 17
0.0
 27
1.0
 37
0.0
 76
     0
330
9
  0
LAYOUT
  5
6A7
102
{ACAD_REACTORS
330
6A5
102
}
330
6A5
100
AcDbPlotSettings
  1

  2
RICOH Aficio 2027 PCL 6
  4
A4
  6

 40
5.027083396911621
 41
5.027085304260253
 42
5.027084350585937
 43
5.027069091796875
 44
209.9733276367187
 45
296.9259948730469
 46
0.0
 47
0.0
 48
0.0
 49
0.0
140
0.0
141
0.0
142
1.0
143
1.0
 70
 11952
 72
     0
 73
     1
 74
     0
  7
monochrome1.ctb
 75
     0
147
1.0
 76
     0
 77
     2
 78
   300
148
3252.364846361879
149
128.1648318136805
100
AcDbLayout
  1
Model
 70
     1
 71
     0
 10
0.0
 20
0.0
 11
12.0
 21
9.0
 12
0.0
 22
0.0
 32
0.0
 14
0.0
 24
0.0
 34
0.0
 15
0.0
 25
0.0
 35
0.0
146
0.0
 13
0.0
 23
0.0
 33
0.0
 16
1.0
 26
0.0
 36
0.0
 17
0.0
 27
1.0
 37
0.0
 76
     0
330
2
  0
MLINESTYLE
  5
21
102
{ACAD_REACTORS
330
1D
102
}
330
1D
100
AcDbMlineStyle
  2
STANDARD
 70
     0
  3

 62
   256
 51
90.0
 52
90.0
 71
     2
 49
0.5
 62
   256
  6
BYLAYER
 49
-0.5
 62
   256
  6
BYLAYER
  0
ACDBPLACEHOLDER
  5
6A2
102
{ACAD_REACTORS
330
6A1
102
}
330
6A1
  0
DICTIONARYVAR
  5
6BC
102
{ACAD_REACTORS
330
47A
102
}
330
47A
100
DictionaryVariables
280
     0
  1
1
  0
DICTIONARYVAR
  5
6BD
102
{ACAD_REACTORS
330
47A
102
}
330
47A
100
DictionaryVariables
280
     0
  1

  0
DICTIONARYVAR
  5
47B
102
{ACAD_REACTORS
330
47A
102
}
330
47A
100
DictionaryVariables
280
     0
  1
96
  0
ENDSEC
  0
EOF
