  0
SECTION
  2
HEADER
  9
$ACADVER
  1
AC1018
  9
$ACADMAINTVER
 70
     2
  9
$DWGCODEPAGE
  3
ANSI_1252
  9
$INSBASE
 10
0.0
 20
0.0
 30
0.0
  9
$EXTMIN
 10
-0.0000000000001137
 20
-0.0000000000001137
 30
0.0
  9
$EXTMAX
 10
420.0
 20
594.0000000000002
 30
0.0
  9
$LIMMIN
 10
0.0
 20
0.0
  9
$LIMMAX
 10
419.9999999999999
 20
594.0
  9
$ORTHOMODE
 70
     1
  9
$REGENMODE
 70
     1
  9
$FILLMODE
 70
     1
  9
$QTEXTMODE
 70
     0
  9
$MIRRTEXT
 70
     1
  9
$LTSCALE
 40
20.0
  9
$ATTMODE
 70
     1
  9
$TEXTSIZE
 40
3.5
  9
$TRACEWID
 40
0.5
  9
$TEXTSTYLE
  7
STANDARD
  9
$CLAYER
  8
SCHRAFF
  9
$CELTYPE
  6
ByLayer
  9
$CECOLOR
 62
   256
  9
$CELTSCALE
 40
1.0
  9
$DISPSILH
 70
     0
  9
$DIMSCALE
 40
2.0
  9
$DIMASZ
 40
3.5
  9
$DIMEXO
 40
1.0
  9
$DIMDLI
 40
7.0
  9
$DIMRND
 40
0.0
  9
$DIMDLE
 40
0.0
  9
$DIMEXE
 40
1.0
  9
$DIMTP
 40
0.0
  9
$DIMTM
 40
0.0
  9
$DIMTXT
 40
3.5
  9
$DIMCEN
 40
1.5
  9
$DIMTSZ
 40
0.0
  9
$DIMTOL
 70
     0
  9
$DIMLIM
 70
     0
  9
$DIMTIH
 70
     0
  9
$DIMTOH
 70
     0
  9
$DIMSE1
 70
     0
  9
$DIMSE2
 70
     0
  9
$DIMTAD
 70
     1
  9
$DIMZIN
 70
     8
  9
$DIMBLK
  1

  9
$DIMASO
 70
     1
  9
$DIMSHO
 70
     0
  9
$DIMPOST
  1

  9
$DIMAPOST
  1

  9
$DIMALT
 70
     0
  9
$DIMALTD
 70
     2
  9
$DIMALTF
 40
25.4
  9
$DIMLFAC
 40
1.0
  9
$DIMTOFL
 70
     1
  9
$DIMTVP
 40
0.0
  9
$DIMTIX
 70
     0
  9
$DIMSOXD
 70
     0
  9
$DIMSAH
 70
     0
  9
$DIMBLK1
  1

  9
$DIMBLK2
  1

  9
$DIMSTYLE
  2
Standard
  9
$DIMCLRD
 70
     0
  9
$DIMCLRE
 70
     0
  9
$DIMCLRT
 70
     1
  9
$DIMTFAC
 40
0.5142857142857144
  9
$DIMGAP
 40
1.5
  9
$DIMJUST
 70
     0
  9
$DIMSD1
 70
     0
  9
$DIMSD2
 70
     0
  9
$DIMTOLJ
 70
     1
  9
$DIMTZIN
 70
     8
  9
$DIMALTZ
 70
     8
  9
$DIMALTTZ
 70
     8
  9
$DIMUPT
 70
     0
  9
$DIMDEC
 70
     2
  9
$DIMTDEC
 70
     2
  9
$DIMALTU
 70
     2
  9
$DIMALTTD
 70
     2
  9
$DIMTXSTY
  7
STANDARD
  9
$DIMAUNIT
 70
     0
  9
$DIMADEC
 70
     2
  9
$DIMALTRND
 40
0.0
  9
$DIMAZIN
 70
     2
  9
$DIMDSEP
 70
    46
  9
$DIMATFIT
 70
     3
  9
$DIMFRAC
 70
     0
  9
$DIMLDRBLK
  1

  9
$DIMLUNIT
 70
     2
  9
$DIMLWD
 70
    -2
  9
$DIMLWE
 70
    -2
  9
$DIMTMOVE
 70
     0
  9
$LUNITS
 70
     2
  9
$LUPREC
 70
     2
  9
$SKETCHINC
 40
1.0
  9
$FILLETRAD
 40
0.0
  9
$AUNITS
 70
     0
  9
$AUPREC
 70
     0
  9
$MENU
  1
ACAD
  9
$ELEVATION
 40
0.0
  9
$PELEVATION
 40
0.0
  9
$THICKNESS
 40
0.0
  9
$LIMCHECK
 70
     0
  9
$CHAMFERA
 40
0.0
  9
$CHAMFERB
 40
0.0
  9
$CHAMFERC
 40
0.0
  9
$CHAMFERD
 40
0.0
  9
$SKPOLY
 70
     0
  9
$TDCREATE
 40
2455397.823042361
  9
$TDUCREATE
 40
2455397.781375695
  9
$TDUPDATE
 40
2455589.477381227
  9
$TDUUPDATE
 40
2455589.435714560
  9
$TDINDWG
 40
0.0774636458
  9
$TDUSRTIMER
 40
0.0774636458
  9
$USRTIMER
 70
     1
  9
$ANGBASE
 50
0.0
  9
$ANGDIR
 70
     0
  9
$PDMODE
 70
     0
  9
$PDSIZE
 40
0.0
  9
$PLINEWID
 40
0.0
  9
$SPLFRAME
 70
     0
  9
$SPLINETYPE
 70
     6
  9
$SPLINESEGS
 70
     8
  9
$HANDSEED
  5
958
  9
$SURFTAB1
 70
     6
  9
$SURFTAB2
 70
     6
  9
$SURFTYPE
 70
     6
  9
$SURFU
 70
     6
  9
$SURFV
 70
     6
  9
$UCSBASE
  2

  9
$UCSNAME
  2

  9
$UCSORG
 10
0.0
 20
0.0
 30
0.0
  9
$UCSXDIR
 10
1.0
 20
0.0
 30
0.0
  9
$UCSYDIR
 10
0.0
 20
1.0
 30
0.0
  9
$UCSORTHOREF
  2

  9
$UCSORTHOVIEW
 70
     0
  9
$UCSORGTOP
 10
0.0
 20
0.0
 30
0.0
  9
$UCSORGBOTTOM
 10
0.0
 20
0.0
 30
0.0
  9
$UCSORGLEFT
 10
0.0
 20
0.0
 30
0.0
  9
$UCSORGRIGHT
 10
0.0
 20
0.0
 30
0.0
  9
$UCSORGFRONT
 10
0.0
 20
0.0
 30
0.0
  9
$UCSORGBACK
 10
0.0
 20
0.0
 30
0.0
  9
$PUCSBASE
  2

  9
$PUCSNAME
  2

  9
$PUCSORG
 10
0.0
 20
0.0
 30
0.0
  9
$PUCSXDIR
 10
1.0
 20
0.0
 30
0.0
  9
$PUCSYDIR
 10
0.0
 20
1.0
 30
0.0
  9
$PUCSORTHOREF
  2

  9
$PUCSORTHOVIEW
 70
     0
  9
$PUCSORGTOP
 10
0.0
 20
0.0
 30
0.0
  9
$PUCSORGBOTTOM
 10
0.0
 20
0.0
 30
0.0
  9
$PUCSORGLEFT
 10
0.0
 20
0.0
 30
0.0
  9
$PUCSORGRIGHT
 10
0.0
 20
0.0
 30
0.0
  9
$PUCSORGFRONT
 10
0.0
 20
0.0
 30
0.0
  9
$PUCSORGBACK
 10
0.0
 20
0.0
 30
0.0
  9
$USERI1
 70
     0
  9
$USERI2
 70
     0
  9
$USERI3
 70
     0
  9
$USERI4
 70
     0
  9
$USERI5
 70
     0
  9
$USERR1
 40
0.0
  9
$USERR2
 40
0.0
  9
$USERR3
 40
0.0
  9
$USERR4
 40
0.0
  9
$USERR5
 40
0.0
  9
$WORLDVIEW
 70
     1
  9
$SHADEDGE
 70
     3
  9
$SHADEDIF
 70
    70
  9
$TILEMODE
 70
     1
  9
$MAXACTVP
 70
    16
  9
$PINSBASE
 10
0.0
 20
0.0
 30
0.0
  9
$PLIMCHECK
 70
     0
  9
$PEXTMIN
 10
1.000000000000000E+20
 20
1.000000000000000E+20
 30
1.000000000000000E+20
  9
$PEXTMAX
 10
-1.000000000000000E+20
 20
-1.000000000000000E+20
 30
-1.000000000000000E+20
  9
$PLIMMIN
 10
0.0
 20
0.0
  9
$PLIMMAX
 10
12.0
 20
9.0
  9
$UNITMODE
 70
     0
  9
$VISRETAIN
 70
     0
  9
$PLINEGEN
 70
     0
  9
$PSLTSCALE
 70
     0
  9
$TREEDEPTH
 70
  3020
  9
$CMLSTYLE
  2
Standard
  9
$CMLJUST
 70
     0
  9
$CMLSCALE
 40
1.0
  9
$PROXYGRAPHICS
 70
     1
  9
$MEASUREMENT
 70
     0
  9
$CELWEIGHT
370
    -1
  9
$ENDCAPS
280
     0
  9
$JOINSTYLE
280
     0
  9
$LWDISPLAY
290
     0
  9
$INSUNITS
 70
     0
  9
$HYPERLINKBASE
  1

  9
$STYLESHEET
  1
monochrome 1.ctb
  9
$XEDIT
290
     1
  9
$CEPSNTYPE
380
     0
  9
$PSTYLEMODE
290
     1
  9
$FINGERPRINTGUID
  2
{D68B0D02-A558-11D7-B632-000102183313}
  9
$VERSIONGUID
  2
{4F029AFA-1B37-4FA0-8B4B-A86030826131}
  9
$EXTNAMES
290
     1
  9
$PSVPSCALE
 40
0.0
  9
$OLESTARTUP
290
     0
  9
$SORTENTS
280
   127
  9
$INDEXCTL
280
     0
  9
$HIDETEXT
280
     0
  9
$XCLIPFRAME
290
     0
  9
$HALOGAP
280
     0
  9
$OBSCOLOR
 70
   257
  9
$OBSLTYPE
280
     0
  9
$INTERSECTIONDISPLAY
280
     0
  9
$INTERSECTIONCOLOR
 70
   257
  9
$DIMASSOC
280
     1
  9
$PROJECTNAME
  1

  0
ENDSEC
  0
SECTION
  2
CLASSES
  0
CLASS
  1
ACDBDICTIONARYWDFLT
  2
AcDbDictionaryWithDefault
  3
ObjectDBX Classes
 90
        0
 91
        1
280
     0
281
     0
  0
CLASS
  1
DICTIONARYVAR
  2
AcDbDictionaryVar
  3
ObjectDBX Classes
 90
        0
 91
        2
280
     0
281
     0
  0
ENDSEC
  0
SECTION
  2
TABLES
  0
TABLE
  2
VPORT
  5
8
330
0
100
AcDbSymbolTable
 70
     2
  0
VPORT
  5
957
330
8
100
AcDbSymbolTableRecord
100
AcDbViewportTableRecord
  2
*Active
 70
     0
 10
0.0
 20
0.0
 11
1.0
 21
1.0
 12
210.0
 22
297.0
 13
0.0
 23
0.0
 14
1.0
 24
1.0
 15
10.0
 25
10.0
 16
0.0
 26
0.0
 36
1.0
 17
0.0
 27
0.0
 37
0.0
 40
594.0594374706626
 41
1.336927223719676
 42
50.0
 43
0.0
 44
0.0
 50
0.0
 51
0.0
 71
     0
 72
  1500
 73
     1
 74
     0
 75
     0
 76
     0
 77
     0
 78
     0
281
     0
 65
     1
110
0.0
120
0.0
130
0.0
111
1.0
121
0.0
131
0.0
112
0.0
122
1.0
132
0.0
 79
     0
146
0.0
  0
ENDTAB
  0
TABLE
  2
LTYPE
  5
5
330
0
100
AcDbSymbolTable
 70
     3
  0
LTYPE
  5
13
330
5
100
AcDbSymbolTableRecord
100
AcDbLinetypeTableRecord
  2
ByBlock
 70
     0
  3

 72
    65
 73
     0
 40
0.0
  0
LTYPE
  5
14
330
5
100
AcDbSymbolTableRecord
100
AcDbLinetypeTableRecord
  2
ByLayer
 70
     0
  3

 72
    65
 73
     0
 40
0.0
  0
LTYPE
  5
15
330
5
100
AcDbSymbolTableRecord
100
AcDbLinetypeTableRecord
  2
Continuous
 70
     0
  3
Solid line
 72
    65
 73
     0
 40
0.0
  0
LTYPE
  5
25
330
5
100
AcDbSymbolTableRecord
100
AcDbLinetypeTableRecord
  2
STRICHPUNKT
 70
     0
  3
__ . __ . __ . __ . __ . __ . __ . __ . __ . __
 72
    65
 73
     4
 40
1.0
 49
0.5
 74
     0
 49
-0.25
 74
     0
 49
0.0
 74
     0
 49
-0.25
 74
     0
  0
LTYPE
  5
32
330
5
100
AcDbSymbolTableRecord
100
AcDbLinetypeTableRecord
  2
AUSGEZOGEN
 70
     0
  3
Ausgezogene Linie
 72
    65
 73
     0
 40
0.0
  0
ENDTAB
  0
TABLE
  2
LAYER
  5
2
330
0
100
AcDbSymbolTable
 70
     9
  0
LAYER
  5
10
330
2
100
AcDbSymbolTableRecord
100
AcDbLayerTableRecord
  2
0
 70
     0
 62
     7
  6
Continuous
370
    -3
390
F
  0
LAYER
  5
2A
330
2
100
AcDbSymbolTableRecord
100
AcDbLayerTableRecord
  2
VOLL
 70
     0
 62
     1
  6
Continuous
370
    -3
390
F
  0
LAYER
  5
2B
330
2
100
AcDbSymbolTableRecord
100
AcDbLayerTableRecord
  2
HILF
 70
     0
 62
     2
  6
Continuous
370
    -3
390
F
  0
LAYER
  5
2C
330
2
100
AcDbSymbolTableRecord
100
AcDbLayerTableRecord
  2
MITTEL
 70
     0
 62
     2
  6
STRICHPUNKT
370
    -3
390
F
  0
LAYER
  5
2F
330
2
100
AcDbSymbolTableRecord
100
AcDbLayerTableRecord
  2
BEM
 70
     0
 62
     7
  6
Continuous
370
    -3
390
F
  0
LAYER
  5
30
330
2
100
AcDbSymbolTableRecord
100
AcDbLayerTableRecord
  2
STEMPEL
 70
     0
 62
     3
  6
Continuous
370
    -3
390
F
  0
LAYER
  5
31
330
2
100
AcDbSymbolTableRecord
100
AcDbLayerTableRecord
  2
TEXT
 70
     0
 62
     7
  6
Continuous
370
    -3
390
F
  0
LAYER
  5
267
330
2
100
AcDbSymbolTableRecord
100
AcDbLayerTableRecord
  2
DEFPOINTS
 70
     0
 62
     7
  6
AUSGEZOGEN
290
     0
370
    -3
390
F
  0
LAYER
  5
268
330
2
100
AcDbSymbolTableRecord
100
AcDbLayerTableRecord
  2
SCHRAFF
 70
     0
 62
     7
  6
AUSGEZOGEN
370
    -3
390
F
  0
ENDTAB
  0
TABLE
  2
STYLE
  5
3
330
0
100
AcDbSymbolTable
 70
     2
  0
STYLE
  5
11
330
3
100
AcDbSymbolTableRecord
100
AcDbTextStyleTableRecord
  2
STANDARD
 70
     0
 40
0.0
 41
0.8
 50
0.0
 71
     0
 42
3.5
  3
simplex.shx
  4

  0
STYLE
  5
24
330
3
100
AcDbSymbolTableRecord
100
AcDbTextStyleTableRecord
  2
GREEKS
 70
     0
 40
0.0
 41
0.8
 50
0.0
 71
     0
 42
2.5
  3
SIMPLEX.shx
  4

  0
ENDTAB
  0
TABLE
  2
VIEW
  5
6
330
0
100
AcDbSymbolTable
 70
     0
  0
ENDTAB
  0
TABLE
  2
UCS
  5
7
330
0
100
AcDbSymbolTable
 70
     0
  0
ENDTAB
  0
TABLE
  2
APPID
  5
9
330
0
100
AcDbSymbolTable
 70
     1
  0
APPID
  5
12
330
9
100
AcDbSymbolTableRecord
100
AcDbRegAppTableRecord
  2
ACAD
 70
     0
  0
ENDTAB
  0
TABLE
  2
DIMSTYLE
  5
A
330
0
100
AcDbSymbolTable
 70
     1
100
AcDbDimStyleTable
 71
     1
340
9D
  0
DIMSTYLE
105
9D
102
{ACAD_REACTORS
330
441
330
5D9
330
5DA
330
5D2
330
474
102
}
330
A
100
AcDbSymbolTableRecord
100
AcDbDimStyleTableRecord
  2
Standard
 70
     0
340
11
  0
ENDTAB
  0
TABLE
  2
BLOCK_RECORD
  5
1
330
0
100
AcDbSymbolTable
 70
     7
  0
BLOCK_RECORD
  5
1E
102
{ACAD_XDICTIONARY
360
A0
102
}
330
1
100
AcDbSymbolTableRecord
100
AcDbBlockTableRecord
  2
*Model_Space
340
21
  0
BLOCK_RECORD
  5
1A
102
{ACAD_XDICTIONARY
360
A2
102
}
330
1
100
AcDbSymbolTableRecord
100
AcDbBlockTableRecord
  2
*Paper_Space
340
1D
  0
BLOCK_RECORD
  5
22
330
1
100
AcDbSymbolTableRecord
100
AcDbBlockTableRecord
  2
LOGO
340
0
102
{BLKREFS
331
9B
102
}
  0
BLOCK_RECORD
  5
1DE
330
1
100
AcDbSymbolTableRecord
100
AcDbBlockTableRecord
  2
*X1
340
0
102
{BLKREFS
331
4D0
102
}
  0
BLOCK_RECORD
  5
5E5
330
1
100
AcDbSymbolTableRecord
100
AcDbBlockTableRecord
  2
*D2
340
0
  0
BLOCK_RECORD
  5
5F0
330
1
100
AcDbSymbolTableRecord
100
AcDbBlockTableRecord
  2
*D3
340
0
  0
BLOCK_RECORD
  5
5FB
330
1
100
AcDbSymbolTableRecord
100
AcDbBlockTableRecord
  2
*D4
340
0
  0
BLOCK_RECORD
  5
606
330
1
100
AcDbSymbolTableRecord
100
AcDbBlockTableRecord
  2
*D5
340
0
  0
BLOCK_RECORD
  5
612
330
1
100
AcDbSymbolTableRecord
100
AcDbBlockTableRecord
  2
*D6
340
0
  0
ENDTAB
  0
ENDSEC
  0
SECTION
  2
BLOCKS
  0
BLOCK
  5
35
330
1E
100
AcDbEntity
  8
0
100
AcDbBlockBegin
  2
*Model_Space
 70
     0
 10
0.0
 20
0.0
 30
0.0
  3
*Model_Space
  1

  0
ENDBLK
  5
36
330
1E
100
AcDbEntity
  8
0
100
AcDbBlockEnd
  0
BLOCK
  5
33
330
1A
100
AcDbEntity
 67
     1
  8
0
100
AcDbBlockBegin
  2
*Paper_Space
 70
     0
 10
0.0
 20
0.0
 30
0.0
  3
*Paper_Space
  1

  0
ENDBLK
  5
34
330
1A
100
AcDbEntity
 67
     1
  8
0
100
AcDbBlockEnd
  0
BLOCK
  5
37
330
22
100
AcDbEntity
  8
0
100
AcDbBlockBegin
  2
LOGO
 70
     0
 10
0.0
 20
0.0
 30
0.0
  3
LOGO
  1

  0
ARC
  5
38
330
22
100
AcDbEntity
  8
0
100
AcDbCircle
 10
11.59973089678112
 20
-9.271599258481501
 30
0.0
 40
4.5
100
AcDbArc
 50
270.0
 51
231.0575587310159
  0
LINE
  5
39
330
22
100
AcDbEntity
  8
0
100
AcDbLine
 10
3.599730896781125
 20
-4.771599258481529
 30
0.0
 11
3.599730896781153
 21
-11.77159925848133
 31
0.0
  0
LINE
  5
3A
330
22
100
AcDbEntity
  8
0
100
AcDbLine
 10
2.599730896781125
 20
-4.771599258481529
 30
0.0
 11
2.599730896781153
 21
-11.77159925848133
 31
0.0
  0
CIRCLE
  5
3B
330
22
100
AcDbEntity
  8
0
100
AcDbCircle
 10
11.59973089678112
 20
-9.271599258481501
 30
0.0
 40
3.5
  0
ARC
  5
3C
330
22
100
AcDbEntity
  8
0
100
AcDbCircle
 10
31.59973089678115
 20
-9.271599258481472
 30
0.0
 40
4.5
100
AcDbArc
 50
270.0
 51
231.0575587310182
  0
LINE
  5
3D
330
22
100
AcDbEntity
  8
0
100
AcDbLine
 10
17.59973089678112
 20
-4.771599258481472
 30
0.0
 11
17.59973089678115
 21
-13.77159925848147
 31
0.0
  0
ARC
  5
3E
330
22
100
AcDbEntity
  8
0
100
AcDbCircle
 10
22.59973089678116
 20
-7.271599258481472
 30
0.0
 40
2.5
100
AcDbArc
 50
293.1161887722295
 51
90.0
  0
CIRCLE
  5
3F
330
22
100
AcDbEntity
  8
0
100
AcDbCircle
 10
31.59973089678115
 20
-9.271599258481472
 30
0.0
 40
3.5
  0
ARC
  5
40
330
22
100
AcDbEntity
  8
0
100
AcDbCircle
 10
4.599730896781153
 20
-11.77159925848133
 30
0.0
 40
1.0
100
AcDbArc
 50
180.0
 51
270.0
  0
ARC
  5
41
330
22
100
AcDbEntity
  8
0
100
AcDbCircle
 10
4.599730896781153
 20
-11.77159925848133
 30
0.0
 40
2.0
100
AcDbArc
 50
179.9999999999992
 51
270.0
  0
LINE
  5
42
330
22
100
AcDbEntity
  8
0
100
AcDbLine
 10
11.59973089678115
 20
-13.77159925848144
 30
0.0
 11
4.599730896781153
 21
-13.77159925848147
 31
0.0
  0
LINE
  5
43
330
22
100
AcDbEntity
  8
0
100
AcDbLine
 10
8.771303772034769
 20
-12.77159925848136
 30
0.0
 11
4.599730896781153
 21
-12.77159925848133
 31
0.0
  0
LINE
  5
44
330
22
100
AcDbEntity
  8
0
100
AcDbLine
 10
31.59973089678115
 20
-13.77159925848147
 30
0.0
 11
23.6715276665056
 21
-13.77159925848144
 31
0.0
  0
LINE
  5
45
330
22
100
AcDbEntity
  8
0
100
AcDbLine
 10
23.56565672307022
 20
-9.51278021337896
 30
0.0
 11
24.4388546544846
 21
-12.77159925848144
 31
0.0
  0
LINE
  5
46
330
22
100
AcDbEntity
  8
0
100
AcDbLine
 10
22.59973089678116
 20
-9.771599258481472
 30
0.0
 11
18.59973089678112
 21
-9.771599258481472
 31
0.0
  0
LINE
  5
47
330
22
100
AcDbEntity
  8
0
100
AcDbLine
 10
18.59973089678115
 20
-13.77159925848144
 30
0.0
 11
17.59973089678115
 21
-13.77159925848144
 31
0.0
  0
LINE
  5
48
330
22
100
AcDbEntity
  8
0
100
AcDbLine
 10
18.59973089678115
 20
-9.771599258481472
 30
0.0
 11
18.59973089678115
 21
-13.77159925848144
 31
0.0
  0
LINE
  5
49
330
22
100
AcDbEntity
  8
0
100
AcDbLine
 10
22.59973089678116
 20
-9.771599258481472
 30
0.0
 11
23.67152766650562
 21
-13.77159925848147
 31
0.0
  0
ARC
  5
4A
330
22
100
AcDbEntity
  8
0
100
AcDbCircle
 10
22.59973089678116
 20
-7.271599258481472
 30
0.0
 40
2.5
100
AcDbArc
 50
270.0
 51
270.0000000000007
  0
LINE
  5
4B
330
22
100
AcDbEntity
  8
0
100
AcDbLine
 10
28.77130377203494
 20
-12.77159925848147
 30
0.0
 11
24.43885465448463
 21
-12.77159925848144
 31
0.0
  0
LINE
  5
4C
330
22
100
AcDbEntity
  8
0
100
AcDbLine
 10
3.599730896781125
 20
-4.771599258481472
 30
0.0
 11
2.599730896781125
 21
-4.771599258481472
 31
0.0
  0
LINE
  5
4D
330
22
100
AcDbEntity
  8
0
100
AcDbLine
 10
22.59973089678116
 20
-8.771599258481472
 30
0.0
 11
18.59973089678115
 21
-8.771599258481472
 31
0.0
  0
LINE
  5
4E
330
22
100
AcDbEntity
  8
0
100
AcDbLine
 10
22.59973089678116
 20
-5.771599258481472
 30
0.0
 11
18.59973089678115
 21
-5.771599258481472
 31
0.0
  0
LINE
  5
4F
330
22
100
AcDbEntity
  8
0
100
AcDbLine
 10
22.59973089678116
 20
-4.771599258481472
 30
0.0
 11
17.59973089678115
 21
-4.771599258481472
 31
0.0
  0
LINE
  5
50
330
22
100
AcDbEntity
  8
0
100
AcDbLine
 10
18.59973089678115
 20
-5.771599258481472
 30
0.0
 11
18.59973089678115
 21
-8.771599258481472
 31
0.0
  0
ARC
  5
51
330
22
100
AcDbEntity
  8
0
100
AcDbCircle
 10
22.59973089678116
 20
-7.271599258481472
 30
0.0
 40
1.5
100
AcDbArc
 50
270.0
 51
90.0
  0
ENDBLK
  5
52
330
22
100
AcDbEntity
  8
0
100
AcDbBlockEnd
  0
BLOCK
  5
1DF
330
1DE
100
AcDbEntity
  8
0
100
AcDbBlockBegin
  2
*X1
 70
     1
 10
0.0
 20
0.0
 30
0.0
  3
*X1
  1

  0
LINE
  5
1E0
330
1DE
100
AcDbEntity
  8
SCHRAFF
 62
     0
100
AcDbLine
 10
361.3530656954375
 20
428.5282099081594
 30
0.0
 11
362.3530656954376
 21
429.5282099081595
 31
0.0
  0
LINE
  5
1E1
330
1DE
100
AcDbEntity
  8
SCHRAFF
 62
     0
100
AcDbLine
 10
350.7464639776393
 20
428.5282099081594
 30
0.0
 11
351.7464639776398
 21
429.52820990816
 31
0.0
  0
LINE
  5
1E2
330
1DE
100
AcDbEntity
  8
SCHRAFF
 62
     0
100
AcDbLine
 10
347.536101489645
 20
428.8533813260979
 30
0.0
 11
348.3429835939319
 21
429.6602634303847
 31
0.0
  0
LINE
  5
1E3
330
1DE
100
AcDbEntity
  8
SCHRAFF
 62
     0
100
AcDbLine
 10
345.3383891982183
 20
430.1912029406039
 30
0.0
 11
346.0457107741778
 21
430.8985245165633
 31
0.0
  0
LINE
  5
1E4
330
1DE
100
AcDbEntity
  8
SCHRAFF
 62
     0
100
AcDbLine
 10
343.9130455377835
 20
432.3013931861019
 30
0.0
 11
344.6971737132816
 21
433.0855213616
 31
0.0
  0
LINE
  5
1E5
330
1DE
100
AcDbEntity
  8
SCHRAFF
 62
     0
100
AcDbLine
 10
343.4845163746778
 20
435.4083979289289
 30
0.0
 11
344.4845163746779
 21
436.408397928929
 31
0.0
  0
LINE
  5
1E6
330
1DE
100
AcDbEntity
  8
SCHRAFF
 62
     0
100
AcDbLine
 10
343.4845163746778
 20
438.9439318348616
 30
0.0
 11
344.4845163746779
 21
439.9439318348616
 31
0.0
  0
LINE
  5
1E7
330
1DE
100
AcDbEntity
  8
SCHRAFF
 62
     0
100
AcDbLine
 10
343.4845163746777
 20
442.4794657407942
 30
0.0
 11
344.4845163746779
 21
443.4794657407945
 31
0.0
  0
LINE
  5
1E8
330
1DE
100
AcDbEntity
  8
SCHRAFF
 62
     0
100
AcDbLine
 10
343.4845163746778
 20
446.0149996467271
 30
0.0
 11
344.4845163746779
 21
447.0149996467272
 31
0.0
  0
LINE
  5
1E9
330
1DE
100
AcDbEntity
  8
SCHRAFF
 62
     0
100
AcDbLine
 10
343.4845163746778
 20
449.5505335526598
 30
0.0
 11
344.4845163746779
 21
450.5505335526598
 31
0.0
  0
LINE
  5
1EA
330
1DE
100
AcDbEntity
  8
SCHRAFF
 62
     0
100
AcDbLine
 10
343.4845163746778
 20
453.0860674585926
 30
0.0
 11
344.4845163746779
 21
454.0860674585927
 31
0.0
  0
LINE
  5
1EB
330
1DE
100
AcDbEntity
  8
SCHRAFF
 62
     0
100
AcDbLine
 10
343.4845163746777
 20
456.6216013645252
 30
0.0
 11
344.4845163746779
 21
457.6216013645254
 31
0.0
  0
LINE
  5
1EC
330
1DE
100
AcDbEntity
  8
SCHRAFF
 62
     0
100
AcDbLine
 10
343.4845163746777
 20
460.157135270458
 30
0.0
 11
344.4845163746779
 21
461.1571352704581
 31
0.0
  0
LINE
  5
1ED
330
1DE
100
AcDbEntity
  8
SCHRAFF
 62
     0
100
AcDbLine
 10
343.4845163746778
 20
463.6926691763907
 30
0.0
 11
344.4845163746779
 21
464.6926691763908
 31
0.0
  0
LINE
  5
1EE
330
1DE
100
AcDbEntity
  8
SCHRAFF
 62
     0
100
AcDbLine
 10
343.4845163746777
 20
467.2282030823234
 30
0.0
 11
344.4845163746779
 21
468.2282030823236
 31
0.0
  0
LINE
  5
1EF
330
1DE
100
AcDbEntity
  8
SCHRAFF
 62
     0
100
AcDbLine
 10
343.4845163746777
 20
470.7637369882561
 30
0.0
 11
344.4845163746779
 21
471.7637369882563
 31
0.0
  0
LINE
  5
1F0
330
1DE
100
AcDbEntity
  8
SCHRAFF
 62
     0
100
AcDbLine
 10
343.4845163746777
 20
474.299270894189
 30
0.0
 11
344.4845163746779
 21
475.2992708941891
 31
0.0
  0
LINE
  5
1F1
330
1DE
100
AcDbEntity
  8
SCHRAFF
 62
     0
100
AcDbLine
 10
343.4845163746778
 20
477.8348048001216
 30
0.0
 11
344.4845163746779
 21
478.8348048001218
 31
0.0
  0
LINE
  5
1F2
330
1DE
100
AcDbEntity
  8
SCHRAFF
 62
     0
100
AcDbLine
 10
343.4845163746778
 20
481.3703387060544
 30
0.0
 11
344.4845163746779
 21
482.3703387060545
 31
0.0
  0
LINE
  5
1F3
330
1DE
100
AcDbEntity
  8
SCHRAFF
 62
     0
100
AcDbLine
 10
343.4845163746777
 20
484.9058726119871
 30
0.0
 11
344.4845163746779
 21
485.9058726119873
 31
0.0
  0
LINE
  5
1F4
330
1DE
100
AcDbEntity
  8
SCHRAFF
 62
     0
100
AcDbLine
 10
343.4845163746778
 20
488.4414065179199
 30
0.0
 11
344.4845163746779
 21
489.44140651792
 31
0.0
  0
LINE
  5
1F5
330
1DE
100
AcDbEntity
  8
SCHRAFF
 62
     0
100
AcDbLine
 10
343.4845163746778
 20
491.9769404238526
 30
0.0
 11
344.4845163746779
 21
492.9769404238527
 31
0.0
  0
LINE
  5
1F6
330
1DE
100
AcDbEntity
  8
SCHRAFF
 62
     0
100
AcDbLine
 10
343.4845163746778
 20
495.5124743297854
 30
0.0
 11
344.4845163746779
 21
496.5124743297855
 31
0.0
  0
LINE
  5
1F7
330
1DE
100
AcDbEntity
  8
SCHRAFF
 62
     0
100
AcDbLine
 10
343.4599269805499
 20
499.0234188415903
 30
0.0
 11
344.3276533245371
 21
499.8911451855775
 31
0.0
  0
LINE
  5
1F8
330
1DE
100
AcDbEntity
  8
SCHRAFF
 62
     0
100
AcDbLine
 10
342.4606660313685
 20
501.5596917983416
 30
0.0
 11
343.1730907250824
 21
502.2721164920555
 31
0.0
  0
LINE
  5
1F9
330
1DE
100
AcDbEntity
  8
SCHRAFF
 62
     0
100
AcDbLine
 10
340.5040494148713
 20
503.1386090877771
 30
0.0
 11
341.2352235009612
 21
503.869783173867
 31
0.0
  0
LINE
  5
1FA
330
1DE
100
AcDbEntity
  8
SCHRAFF
 62
     0
100
AcDbLine
 10
338.2710799496559
 20
504.4411735284945
 30
0.0
 11
339.0022547182668
 21
505.1723482971054
 31
0.0
  0
LINE
  5
1FB
330
1DE
100
AcDbEntity
  8
SCHRAFF
 62
     0
100
AcDbLine
 10
336.0381104844405
 20
505.7437379692118
 30
0.0
 11
336.7692859355724
 21
506.4749134203437
 31
0.0
  0
LINE
  5
1FC
330
1DE
100
AcDbEntity
  8
SCHRAFF
 62
     0
100
AcDbLine
 10
333.8051410192252
 20
507.0463024099292
 30
0.0
 11
334.5363171528782
 21
507.7774785435821
 31
0.0
  0
LINE
  5
1FD
330
1DE
100
AcDbEntity
  8
SCHRAFF
 62
     0
100
AcDbLine
 10
331.5721715540097
 20
508.3488668506464
 30
0.0
 11
332.3033483701837
 21
509.0800436668205
 31
0.0
  0
LINE
  5
1FE
330
1DE
100
AcDbEntity
  8
SCHRAFF
 62
     0
100
AcDbLine
 10
329.3392020887944
 20
509.6514312913639
 30
0.0
 11
330.0703795874893
 21
510.3826087900587
 31
0.0
  0
LINE
  5
1FF
330
1DE
100
AcDbEntity
  8
SCHRAFF
 62
     0
100
AcDbLine
 10
327.106232623579
 20
510.9539957320812
 30
0.0
 11
327.8374108047949
 21
511.6851739132972
 31
0.0
  0
LINE
  5
200
330
1DE
100
AcDbEntity
  8
SCHRAFF
 62
     0
100
AcDbLine
 10
324.8732631583637
 20
512.2565601727987
 30
0.0
 11
325.6044420221004
 21
512.9877390365354
 31
0.0
  0
LINE
  5
201
330
1DE
100
AcDbEntity
  8
SCHRAFF
 62
     0
100
AcDbLine
 10
322.6402936931483
 20
513.559124613516
 30
0.0
 11
323.3714732394061
 21
514.2903041597738
 31
0.0
  0
LINE
  5
202
330
1DE
100
AcDbEntity
  8
SCHRAFF
 62
     0
100
AcDbLine
 10
320.4073242279329
 20
514.8616890542333
 30
0.0
 11
321.1385044567117
 21
515.5928692830122
 31
0.0
  0
LINE
  5
203
330
1DE
100
AcDbEntity
  8
SCHRAFF
 62
     0
100
AcDbLine
 10
318.1743547627175
 20
516.1642534949508
 30
0.0
 11
318.9055356740174
 21
516.8954344062505
 31
0.0
  0
LINE
  5
204
330
1DE
100
AcDbEntity
  8
SCHRAFF
 62
     0
100
AcDbLine
 10
315.820881490301
 20
517.3463141284669
 30
0.0
 11
316.6126742455683
 21
518.1381068837342
 31
0.0
  0
LINE
  5
205
330
1DE
100
AcDbEntity
  8
SCHRAFF
 62
     0
100
AcDbLine
 10
312.4672433640608
 20
517.5282099081595
 30
0.0
 11
313.4672433640607
 21
518.5282099081594
 31
0.0
  0
LINE
  5
206
330
1DE
100
AcDbEntity
  8
SCHRAFF
 62
     0
100
AcDbLine
 10
308.9317094581281
 20
517.5282099081595
 30
0.0
 11
309.931709458128
 21
518.5282099081594
 31
0.0
  0
LINE
  5
207
330
1DE
100
AcDbEntity
  8
SCHRAFF
 62
     0
100
AcDbLine
 10
305.3961755521953
 20
517.5282099081595
 30
0.0
 11
306.3961755521952
 21
518.5282099081594
 31
0.0
  0
LINE
  5
208
330
1DE
100
AcDbEntity
  8
SCHRAFF
 62
     0
100
AcDbLine
 10
301.8606416462625
 20
517.5282099081593
 30
0.0
 11
302.8606416462625
 21
518.5282099081594
 31
0.0
  0
LINE
  5
209
330
1DE
100
AcDbEntity
  8
SCHRAFF
 62
     0
100
AcDbLine
 10
298.3251077403297
 20
517.5282099081593
 30
0.0
 11
299.3251077403297
 21
518.5282099081594
 31
0.0
  0
LINE
  5
20A
330
1DE
100
AcDbEntity
  8
SCHRAFF
 62
     0
100
AcDbLine
 10
294.789573834397
 20
517.5282099081593
 30
0.0
 11
295.789573834397
 21
518.5282099081594
 31
0.0
  0
LINE
  5
20B
330
1DE
100
AcDbEntity
  8
SCHRAFF
 62
     0
100
AcDbLine
 10
291.2540399284642
 20
517.5282099081593
 30
0.0
 11
292.2540399284642
 21
518.5282099081594
 31
0.0
  0
LINE
  5
20C
330
1DE
100
AcDbEntity
  8
SCHRAFF
 62
     0
100
AcDbLine
 10
287.7185060225315
 20
517.5282099081592
 30
0.0
 11
288.7185060225315
 21
518.5282099081594
 31
0.0
  0
LINE
  5
20D
330
1DE
100
AcDbEntity
  8
SCHRAFF
 62
     0
100
AcDbLine
 10
284.1829721165987
 20
517.5282099081593
 30
0.0
 11
285.1829721165988
 21
518.5282099081594
 31
0.0
  0
LINE
  5
20E
330
1DE
100
AcDbEntity
  8
SCHRAFF
 62
     0
100
AcDbLine
 10
280.647438210666
 20
517.5282099081593
 30
0.0
 11
281.647438210666
 21
518.5282099081594
 31
0.0
  0
LINE
  5
20F
330
1DE
100
AcDbEntity
  8
SCHRAFF
 62
     0
100
AcDbLine
 10
277.1119043047332
 20
517.5282099081593
 30
0.0
 11
278.1119043047332
 21
518.5282099081594
 31
0.0
  0
LINE
  5
210
330
1DE
100
AcDbEntity
  8
SCHRAFF
 62
     0
100
AcDbLine
 10
273.5763703988006
 20
517.5282099081592
 30
0.0
 11
274.5763703988006
 21
518.5282099081594
 31
0.0
  0
LINE
  5
211
330
1DE
100
AcDbEntity
  8
SCHRAFF
 62
     0
100
AcDbLine
 10
270.0408364928677
 20
517.5282099081592
 30
0.0
 11
271.0408364928678
 21
518.5282099081592
 31
0.0
  0
LINE
  5
212
330
1DE
100
AcDbEntity
  8
SCHRAFF
 62
     0
100
AcDbLine
 10
266.5053025869349
 20
517.5282099081591
 30
0.0
 11
267.5053025869349
 21
518.5282099081591
 31
0.0
  0
LINE
  5
213
330
1DE
100
AcDbEntity
  8
SCHRAFF
 62
     0
100
AcDbLine
 10
262.9697686810021
 20
517.5282099081591
 30
0.0
 11
263.9697686810022
 21
518.5282099081591
 31
0.0
  0
LINE
  5
214
330
1DE
100
AcDbEntity
  8
SCHRAFF
 62
     0
100
AcDbLine
 10
259.4749079361372
 20
517.568883069227
 30
0.0
 11
260.4342347750694
 21
518.5282099081591
 31
0.0
  0
LINE
  5
215
330
1DE
100
AcDbEntity
  8
SCHRAFF
 62
     0
100
AcDbLine
 10
257.3940431461983
 20
519.0235521852208
 30
0.0
 11
258.1512520306926
 21
519.780761069715
 31
0.0
  0
LINE
  5
216
330
1DE
100
AcDbEntity
  8
SCHRAFF
 62
     0
100
AcDbLine
 10
252.3631669632039
 20
517.5282099081591
 30
0.0
 11
253.3631669632039
 21
518.5282099081591
 31
0.0
  0
LINE
  5
217
330
1DE
100
AcDbEntity
  8
SCHRAFF
 62
     0
100
AcDbLine
 10
248.8276330572712
 20
517.5282099081591
 30
0.0
 11
249.8276330572711
 21
518.5282099081591
 31
0.0
  0
LINE
  5
218
330
1DE
100
AcDbEntity
  8
SCHRAFF
 62
     0
100
AcDbLine
 10
246.1709275481826
 20
518.4070383050033
 30
0.0
 11
246.8818140855336
 21
519.1179248423543
 31
0.0
  0
LINE
  5
219
330
1DE
100
AcDbEntity
  8
SCHRAFF
 62
     0
100
AcDbLine
 10
242.1443006842736
 20
517.9159453470271
 30
0.0
 11
242.8540700154741
 21
518.6257146782276
 31
0.0
  0
LINE
  5
21A
330
1DE
100
AcDbEntity
  8
SCHRAFF
 62
     0
100
AcDbLine
 10
239.7210313394731
 20
519.0282099081592
 30
0.0
 11
240.7210313394729
 21
520.0282099081591
 31
0.0
  0
LINE
  5
21B
330
1DE
100
AcDbEntity
  8
SCHRAFF
 62
     0
100
AcDbLine
 10
236.1854974335404
 20
519.0282099081592
 30
0.0
 11
237.1854974335402
 21
520.0282099081591
 31
0.0
  0
LINE
  5
21C
330
1DE
100
AcDbEntity
  8
SCHRAFF
 62
     0
100
AcDbLine
 10
232.6499635276076
 20
519.0282099081592
 30
0.0
 11
233.6499635276075
 21
520.0282099081591
 31
0.0
  0
LINE
  5
21D
330
1DE
100
AcDbEntity
  8
SCHRAFF
 62
     0
100
AcDbLine
 10
227.6144296216747
 20
517.5282099081591
 30
0.0
 11
228.6170845409935
 21
518.5308648274778
 31
0.0
  0
LINE
  5
21E
330
1DE
100
AcDbEntity
  8
SCHRAFF
 62
     0
100
AcDbLine
 10
224.078895715742
 20
517.5282099081591
 30
0.0
 11
225.078895715742
 21
518.5282099081591
 31
0.0
  0
LINE
  5
21F
330
1DE
100
AcDbEntity
  8
SCHRAFF
 62
     0
100
AcDbLine
 10
220.8586671457231
 20
517.8435152440729
 30
0.0
 11
221.6152455799146
 21
518.6000936782646
 31
0.0
  0
LINE
  5
220
330
1DE
100
AcDbEntity
  8
SCHRAFF
 62
     0
100
AcDbLine
 10
217.0332086343661
 20
517.5535906386487
 30
0.0
 11
219.5074962454095
 21
520.0278782496921
 31
0.0
  0
LINE
  5
221
330
1DE
100
AcDbEntity
  8
SCHRAFF
 62
     0
100
AcDbLine
 10
213.662515278557
 20
517.7184311887723
 30
0.0
 11
214.4788578596354
 21
518.5347737698508
 31
0.0
  0
LINE
  5
222
330
1DE
100
AcDbEntity
  8
SCHRAFF
 62
     0
100
AcDbLine
 10
210.0931095030357
 20
517.6845593191838
 30
0.0
 11
212.3905210042391
 21
519.9819708203872
 31
0.0
  0
LINE
  5
223
330
1DE
100
AcDbEntity
  8
SCHRAFF
 62
     0
100
AcDbLine
 10
121.1818415716838
 20
428.7732913878319
 30
0.0
 11
125.2394348950052
 21
432.8308847111533
 31
0.0
  0
LINE
  5
224
330
1DE
100
AcDbEntity
  8
SCHRAFF
 62
     0
100
AcDbLine
 10
124.4845163746777
 20
435.6115000967585
 30
0.0
 11
125.4845163746778
 21
436.6115000967586
 31
0.0
  0
LINE
  5
225
330
1DE
100
AcDbEntity
  8
SCHRAFF
 62
     0
100
AcDbLine
 10
206.4012261860781
 20
517.5282099081589
 30
0.0
 11
207.4012261860782
 21
518.528209908159
 31
0.0
  0
LINE
  5
226
330
1DE
100
AcDbEntity
  8
SCHRAFF
 62
     0
100
AcDbLine
 10
117.4012261860785
 20
428.5282099081594
 30
0.0
 11
118.401226186079
 21
429.5282099081598
 31
0.0
  0
LINE
  5
227
330
1DE
100
AcDbEntity
  8
SCHRAFF
 62
     0
100
AcDbLine
 10
124.4845163746777
 20
439.1470340026912
 30
0.0
 11
125.4845163746778
 21
440.1470340026913
 31
0.0
  0
LINE
  5
228
330
1DE
100
AcDbEntity
  8
SCHRAFF
 62
     0
100
AcDbLine
 10
202.8656922801453
 20
517.5282099081589
 30
0.0
 11
203.8656922801454
 21
518.5282099081589
 31
0.0
  0
LINE
  5
229
330
1DE
100
AcDbEntity
  8
SCHRAFF
 62
     0
100
AcDbLine
 10
113.8656922801458
 20
428.5282099081594
 30
0.0
 11
114.8656922801461
 21
429.5282099081597
 31
0.0
  0
LINE
  5
22A
330
1DE
100
AcDbEntity
  8
SCHRAFF
 62
     0
100
AcDbLine
 10
124.4845163746777
 20
442.682567908624
 30
0.0
 11
125.4845163746777
 21
443.682567908624
 31
0.0
  0
LINE
  5
22B
330
1DE
100
AcDbEntity
  8
SCHRAFF
 62
     0
100
AcDbLine
 10
199.3301583742126
 20
517.5282099081589
 30
0.0
 11
200.3301583742126
 21
518.5282099081589
 31
0.0
  0
LINE
  5
22C
330
1DE
100
AcDbEntity
  8
SCHRAFF
 62
     0
100
AcDbLine
 10
110.330158374213
 20
428.5282099081594
 30
0.0
 11
111.3301583742134
 21
429.5282099081597
 31
0.0
  0
LINE
  5
22D
330
1DE
100
AcDbEntity
  8
SCHRAFF
 62
     0
100
AcDbLine
 10
124.4845163746776
 20
446.2181018145567
 30
0.0
 11
125.4845163746777
 21
447.2181018145568
 31
0.0
  0
LINE
  5
22E
330
1DE
100
AcDbEntity
  8
SCHRAFF
 62
     0
100
AcDbLine
 10
195.7946244682799
 20
517.5282099081589
 30
0.0
 11
196.7946244682798
 21
518.5282099081589
 31
0.0
  0
LINE
  5
22F
330
1DE
100
AcDbEntity
  8
SCHRAFF
 62
     0
100
AcDbLine
 10
106.7946244682803
 20
428.5282099081594
 30
0.0
 11
107.7946244682805
 21
429.5282099081595
 31
0.0
  0
LINE
  5
230
330
1DE
100
AcDbEntity
  8
SCHRAFF
 62
     0
100
AcDbLine
 10
192.2590905623471
 20
517.5282099081589
 30
0.0
 11
193.2590905623471
 21
518.5282099081589
 31
0.0
  0
LINE
  5
231
330
1DE
100
AcDbEntity
  8
SCHRAFF
 62
     0
100
AcDbLine
 10
124.4845163746776
 20
449.7536357204894
 30
0.0
 11
125.4845163746778
 21
450.7536357204895
 31
0.0
  0
LINE
  5
232
330
1DE
100
AcDbEntity
  8
SCHRAFF
 62
     0
100
AcDbLine
 10
188.7235566564143
 20
517.5282099081589
 30
0.0
 11
189.7235566564143
 21
518.5282099081589
 31
0.0
  0
LINE
  5
233
330
1DE
100
AcDbEntity
  8
SCHRAFF
 62
     0
100
AcDbLine
 10
124.4845163746777
 20
453.2891696264222
 30
0.0
 11
125.4845163746778
 21
454.2891696264223
 31
0.0
  0
LINE
  5
234
330
1DE
100
AcDbEntity
  8
SCHRAFF
 62
     0
100
AcDbLine
 10
185.1880227504816
 20
517.5282099081589
 30
0.0
 11
186.1880227504815
 21
518.5282099081587
 31
0.0
  0
LINE
  5
235
330
1DE
100
AcDbEntity
  8
SCHRAFF
 62
     0
100
AcDbLine
 10
124.4845163746776
 20
456.8247035323548
 30
0.0
 11
125.4845163746777
 21
457.8247035323549
 31
0.0
  0
LINE
  5
236
330
1DE
100
AcDbEntity
  8
SCHRAFF
 62
     0
100
AcDbLine
 10
181.6524888445489
 20
517.5282099081589
 30
0.0
 11
182.6524888445487
 21
518.5282099081587
 31
0.0
  0
LINE
  5
237
330
1DE
100
AcDbEntity
  8
SCHRAFF
 62
     0
100
AcDbLine
 10
124.4845163746776
 20
460.3602374382877
 30
0.0
 11
125.4845163746777
 21
461.3602374382877
 31
0.0
  0
LINE
  5
238
330
1DE
100
AcDbEntity
  8
SCHRAFF
 62
     0
100
AcDbLine
 10
178.1169549386161
 20
517.5282099081589
 30
0.0
 11
179.1169549386161
 21
518.5282099081589
 31
0.0
  0
LINE
  5
239
330
1DE
100
AcDbEntity
  8
SCHRAFF
 62
     0
100
AcDbLine
 10
124.4845163746777
 20
463.8957713442204
 30
0.0
 11
125.4845163746778
 21
464.8957713442205
 31
0.0
  0
LINE
  5
23A
330
1DE
100
AcDbEntity
  8
SCHRAFF
 62
     0
100
AcDbLine
 10
174.5814210326834
 20
517.5282099081589
 30
0.0
 11
175.5814210326834
 21
518.5282099081589
 31
0.0
  0
LINE
  5
23B
330
1DE
100
AcDbEntity
  8
SCHRAFF
 62
     0
100
AcDbLine
 10
124.4845163746777
 20
467.4313052501531
 30
0.0
 11
125.4845163746778
 21
468.4313052501533
 31
0.0
  0
LINE
  5
23C
330
1DE
100
AcDbEntity
  8
SCHRAFF
 62
     0
100
AcDbLine
 10
171.0458871267506
 20
517.5282099081588
 30
0.0
 11
172.0458871267506
 21
518.5282099081588
 31
0.0
  0
LINE
  5
23D
330
1DE
100
AcDbEntity
  8
SCHRAFF
 62
     0
100
AcDbLine
 10
124.4845163746776
 20
470.9668391560858
 30
0.0
 11
125.4845163746777
 21
471.9668391560859
 31
0.0
  0
LINE
  5
23E
330
1DE
100
AcDbEntity
  8
SCHRAFF
 62
     0
100
AcDbLine
 10
167.5103532208179
 20
517.5282099081588
 30
0.0
 11
168.5103532208179
 21
518.5282099081588
 31
0.0
  0
LINE
  5
23F
330
1DE
100
AcDbEntity
  8
SCHRAFF
 62
     0
100
AcDbLine
 10
124.4845163746776
 20
474.5023730620186
 30
0.0
 11
125.4845163746777
 21
475.5023730620187
 31
0.0
  0
LINE
  5
240
330
1DE
100
AcDbEntity
  8
SCHRAFF
 62
     0
100
AcDbLine
 10
163.9748193148851
 20
517.5282099081588
 30
0.0
 11
164.9748193148851
 21
518.5282099081587
 31
0.0
  0
LINE
  5
241
330
1DE
100
AcDbEntity
  8
SCHRAFF
 62
     0
100
AcDbLine
 10
124.4845163746777
 20
478.0379069679513
 30
0.0
 11
125.4845163746778
 21
479.0379069679515
 31
0.0
  0
LINE
  5
242
330
1DE
100
AcDbEntity
  8
SCHRAFF
 62
     0
100
AcDbLine
 10
160.4392854089524
 20
517.5282099081588
 30
0.0
 11
161.4392854089523
 21
518.5282099081587
 31
0.0
  0
LINE
  5
243
330
1DE
100
AcDbEntity
  8
SCHRAFF
 62
     0
100
AcDbLine
 10
124.4845163746777
 20
481.573440873884
 30
0.0
 11
125.4845163746778
 21
482.5734408738842
 31
0.0
  0
LINE
  5
244
330
1DE
100
AcDbEntity
  8
SCHRAFF
 62
     0
100
AcDbLine
 10
156.9037515030196
 20
517.5282099081588
 30
0.0
 11
157.9037515030196
 21
518.5282099081587
 31
0.0
  0
LINE
  5
245
330
1DE
100
AcDbEntity
  8
SCHRAFF
 62
     0
100
AcDbLine
 10
124.4845163746776
 20
485.1089747798168
 30
0.0
 11
125.4845163746777
 21
486.1089747798168
 31
0.0
  0
LINE
  5
246
330
1DE
100
AcDbEntity
  8
SCHRAFF
 62
     0
100
AcDbLine
 10
153.2005491399496
 20
517.3605414510214
 30
0.0
 11
154.3670679764303
 21
518.5270602875022
 31
0.0
  0
LINE
  5
247
330
1DE
100
AcDbEntity
  8
SCHRAFF
 62
     0
100
AcDbLine
 10
124.4845163746776
 20
488.6445086857496
 30
0.0
 11
125.4845163746778
 21
489.6445086857497
 31
0.0
  0
LINE
  5
248
330
1DE
100
AcDbEntity
  8
SCHRAFF
 62
     0
100
AcDbLine
 10
145.2124027695547
 20
512.9079289865594
 30
0.0
 11
147.990883748717
 21
515.6864099657216
 31
0.0
  0
LINE
  5
249
330
1DE
100
AcDbEntity
  8
SCHRAFF
 62
     0
100
AcDbLine
 10
124.4845163746777
 20
492.1800425916822
 30
0.0
 11
125.4845163746778
 21
493.1800425916824
 31
0.0
  0
LINE
  5
24A
330
1DE
100
AcDbEntity
  8
SCHRAFF
 62
     0
100
AcDbLine
 10
136.7271312509051
 20
507.9581913738425
 30
0.0
 11
139.5056023744788
 21
510.7366624974162
 31
0.0
  0
LINE
  5
24B
330
1DE
100
AcDbEntity
  8
SCHRAFF
 62
     0
100
AcDbLine
 10
124.4845163746776
 20
495.715576497615
 30
0.0
 11
125.4845163746778
 21
496.7155764976151
 31
0.0
  0
LINE
  5
24C
330
1DE
100
AcDbEntity
  8
SCHRAFF
 62
     0
100
AcDbLine
 10
128.2418597322555
 20
503.0084537611257
 30
0.0
 11
131.0203210002406
 21
505.7869150291107
 31
0.0
  0
LINE
  5
24D
330
1DE
100
AcDbEntity
  8
SCHRAFF
 62
     0
100
AcDbLine
 10
124.5345129736124
 20
499.3011070024826
 30
0.0
 11
126.027383285034
 21
500.7939773139042
 31
0.0
  0
ENDBLK
  5
24E
330
1DE
100
AcDbEntity
  8
0
100
AcDbBlockEnd
  0
BLOCK
  5
5EE
330
5E5
100
AcDbEntity
  8
0
100
AcDbBlockBegin
  2
*D2
 70
     1
 10
0.0
 20
0.0
 30
0.0
  3
*D2
  1

  0
LINE
  5
946
330
5E5
100
AcDbEntity
  8
BEM
 62
     0
370
    -2
100
AcDbLine
 10
155.7624828313077
 20
549.4313401944419
 30
0.0
 11
93.27782811459778
 21
549.4313401944419
 31
0.0
  0
LINE
  5
947
330
5E5
100
AcDbEntity
  8
BEM
 62
     0
370
    -2
100
AcDbLine
 10
123.7624828313075
 20
439.431340194442
 30
0.0
 11
93.27782811459774
 21
439.431340194442
 31
0.0
  0
LINE
  5
948
330
5E5
100
AcDbEntity
  8
BEM
 62
     0
370
    -2
100
AcDbLine
 10
95.27782811459777
 20
542.4313401944419
 30
0.0
 11
95.27782811459776
 21
446.4313401944419
 31
0.0
  0
SOLID
  5
949
330
5E5
100
AcDbEntity
  8
BEM
 62
     0
100
AcDbTrace
 10
94.1111614479311
 20
542.4313401944419
 30
0.0
 11
96.44449478126444
 21
542.4313401944419
 31
0.0
 12
95.27782811459777
 22
549.4313401944419
 32
0.0
 13
95.27782811459777
 23
549.4313401944419
 33
0.0
  0
SOLID
  5
94A
330
5E5
100
AcDbEntity
  8
BEM
 62
     0
100
AcDbTrace
 10
94.11116144793108
 20
446.4313401944419
 30
0.0
 11
96.44449478126443
 21
446.4313401944419
 31
0.0
 12
95.27782811459776
 22
439.431340194442
 32
0.0
 13
95.27782811459776
 23
439.431340194442
 33
0.0
  0
MTEXT
  5
94B
330
5E5
100
AcDbEntity
  8
BEM
 62
     1
100
AcDbMText
 10
88.77782811459768
 20
494.431340194442
 30
0.0
 40
7.0
 41
0.0
 71
     5
 72
     1
  1
\A1;110
 11
0.0000000000000001
 21
1.0
 31
0.0
 73
     1
 44
1.0
  0
POINT
  5
94C
330
5E5
100
AcDbEntity
  8
DEFPOINTS
 62
     0
100
AcDbPoint
 10
157.7624828313077
 20
549.4313401944419
 30
0.0
  0
POINT
  5
94D
330
5E5
100
AcDbEntity
  8
DEFPOINTS
 62
     0
100
AcDbPoint
 10
125.7624828313075
 20
439.431340194442
 30
0.0
  0
POINT
  5
94E
330
5E5
100
AcDbEntity
  8
DEFPOINTS
 62
     0
100
AcDbPoint
 10
95.27782811459776
 20
439.431340194442
 30
0.0
  0
ENDBLK
  5
5EF
330
5E5
100
AcDbEntity
  8
0
100
AcDbBlockEnd
  0
BLOCK
  5
5F9
330
5F0
100
AcDbEntity
  8
0
100
AcDbBlockBegin
  2
*D3
 70
     1
 10
0.0
 20
0.0
 30
0.0
  3
*D3
  1

  0
LINE
  5
80C
330
5F0
100
AcDbEntity
  8
BEM
 62
     0
370
    -2
100
AcDbLine
 10
127.7624828313077
 20
531.431282227127
 30
0.0
 11
127.7624828313077
 21
560.2436931911759
 31
0.0
  0
LINE
  5
80D
330
5F0
100
AcDbEntity
  8
BEM
 62
     0
370
    -2
100
AcDbLine
 10
347.762482831308
 20
531.431282227127
 30
0.0
 11
347.762482831308
 21
560.2436931911759
 31
0.0
  0
LINE
  5
80E
330
5F0
100
AcDbEntity
  8
BEM
 62
     0
370
    -2
100
AcDbLine
 10
134.7624828313077
 20
558.2436931911758
 30
0.0
 11
340.762482831308
 21
558.2436931911758
 31
0.0
  0
SOLID
  5
80F
330
5F0
100
AcDbEntity
  8
BEM
 62
     0
100
AcDbTrace
 10
134.7624828313077
 20
559.4103598578425
 30
0.0
 11
134.7624828313077
 21
557.0770265245093
 31
0.0
 12
127.7624828313077
 22
558.2436931911758
 32
0.0
 13
127.7624828313077
 23
558.2436931911758
 33
0.0
  0
SOLID
  5
810
330
5F0
100
AcDbEntity
  8
BEM
 62
     0
100
AcDbTrace
 10
340.762482831308
 20
559.4103598578425
 30
0.0
 11
340.762482831308
 21
557.0770265245093
 31
0.0
 12
347.762482831308
 22
558.2436931911758
 32
0.0
 13
347.762482831308
 23
558.2436931911758
 33
0.0
  0
MTEXT
  5
811
330
5F0
100
AcDbEntity
  8
BEM
 62
     1
100
AcDbMText
 10
237.7624828313078
 20
564.7436931911759
 30
0.0
 40
7.0
 41
0.0
 71
     5
 72
     1
  1
\A1;%%c220
 73
     1
 44
1.0
  0
POINT
  5
812
330
5F0
100
AcDbEntity
  8
DEFPOINTS
 62
     0
100
AcDbPoint
 10
127.7624828313077
 20
529.4312822271271
 30
0.0
  0
POINT
  5
813
330
5F0
100
AcDbEntity
  8
DEFPOINTS
 62
     0
100
AcDbPoint
 10
347.762482831308
 20
529.4312822271271
 30
0.0
  0
POINT
  5
814
330
5F0
100
AcDbEntity
  8
DEFPOINTS
 62
     0
100
AcDbPoint
 10
347.762482831308
 20
558.2436931911758
 30
0.0
  0
ENDBLK
  5
5FA
330
5F0
100
AcDbEntity
  8
0
100
AcDbBlockEnd
  0
BLOCK
  5
604
330
5FB
100
AcDbEntity
  8
0
100
AcDbBlockBegin
  2
*D4
 70
     1
 10
0.0
 20
0.0
 30
0.0
  3
*D4
  1

  0
LINE
  5
803
330
5FB
100
AcDbEntity
  8
BEM
 62
     0
370
    -2
100
AcDbLine
 10
107.7624828313077
 20
462.4313401944426
 30
0.0
 11
107.7624828313077
 21
573.7388945054833
 31
0.0
  0
LINE
  5
804
330
5FB
100
AcDbEntity
  8
BEM
 62
     0
370
    -2
100
AcDbLine
 10
367.7624828313077
 20
462.4313401944428
 30
0.0
 11
367.7624828313077
 21
573.7388945054833
 31
0.0
  0
LINE
  5
805
330
5FB
100
AcDbEntity
  8
BEM
 62
     0
370
    -2
100
AcDbLine
 10
114.7624828313077
 20
571.7388945054834
 30
0.0
 11
360.7624828313076
 21
571.7388945054834
 31
0.0
  0
SOLID
  5
806
330
5FB
100
AcDbEntity
  8
BEM
 62
     0
100
AcDbTrace
 10
114.7624828313077
 20
572.9055611721499
 30
0.0
 11
114.7624828313077
 21
570.5722278388167
 31
0.0
 12
107.7624828313077
 22
571.7388945054834
 32
0.0
 13
107.7624828313077
 23
571.7388945054834
 33
0.0
  0
SOLID
  5
807
330
5FB
100
AcDbEntity
  8
BEM
 62
     0
100
AcDbTrace
 10
360.7624828313076
 20
572.9055611721499
 30
0.0
 11
360.7624828313076
 21
570.5722278388167
 31
0.0
 12
367.7624828313077
 22
571.7388945054834
 32
0.0
 13
367.7624828313077
 23
571.7388945054834
 33
0.0
  0
MTEXT
  5
808
330
5FB
100
AcDbEntity
  8
BEM
 62
     1
100
AcDbMText
 10
237.7624828313077
 20
578.2388945054833
 30
0.0
 40
7.0
 41
0.0
 71
     5
 72
     1
  1
\A1;%%c260
 73
     1
 44
1.0
  0
POINT
  5
809
330
5FB
100
AcDbEntity
  8
DEFPOINTS
 62
     0
100
AcDbPoint
 10
107.7624828313077
 20
460.4313401944426
 30
0.0
  0
POINT
  5
80A
330
5FB
100
AcDbEntity
  8
DEFPOINTS
 62
     0
100
AcDbPoint
 10
367.7624828313077
 20
460.4313401944429
 30
0.0
  0
POINT
  5
80B
330
5FB
100
AcDbEntity
  8
DEFPOINTS
 62
     0
100
AcDbPoint
 10
367.7624828313077
 20
571.7388945054834
 30
0.0
  0
ENDBLK
  5
605
330
5FB
100
AcDbEntity
  8
0
100
AcDbBlockEnd
  0
BLOCK
  5
610
330
606
100
AcDbEntity
  8
0
100
AcDbBlockBegin
  2
*D5
 70
     1
 10
0.0
 20
0.0
 30
0.0
  3
*D5
  1

  0
LINE
  5
827
330
606
100
AcDbEntity
  8
BEM
 62
     0
370
    -2
100
AcDbLine
 10
201.2624828313081
 20
136.3658487800789
 30
0.0
 11
201.2624828313081
 21
113.186407090378
 31
0.0
  0
LINE
  5
828
330
606
100
AcDbEntity
  8
BEM
 62
     0
370
    -2
100
AcDbLine
 10
274.2624828313079
 20
136.3658487800881
 30
0.0
 11
274.2624828313079
 21
113.186407090378
 31
0.0
  0
LINE
  5
829
330
606
100
AcDbEntity
  8
BEM
 62
     0
370
    -2
100
AcDbLine
 10
208.2624828313081
 20
115.186407090378
 30
0.0
 11
267.2624828313079
 21
115.186407090378
 31
0.0
  0
SOLID
  5
82A
330
606
100
AcDbEntity
  8
BEM
 62
     0
100
AcDbTrace
 10
208.2624828313081
 20
116.3530737570446
 30
0.0
 11
208.2624828313081
 21
114.0197404237113
 31
0.0
 12
201.2624828313081
 22
115.186407090378
 32
0.0
 13
201.2624828313081
 23
115.186407090378
 33
0.0
  0
SOLID
  5
82B
330
606
100
AcDbEntity
  8
BEM
 62
     0
100
AcDbTrace
 10
267.2624828313079
 20
116.3530737570446
 30
0.0
 11
267.2624828313079
 21
114.0197404237113
 31
0.0
 12
274.2624828313079
 22
115.186407090378
 32
0.0
 13
274.2624828313079
 23
115.186407090378
 33
0.0
  0
MTEXT
  5
82C
330
606
100
AcDbEntity
  8
BEM
 62
     1
100
AcDbMText
 10
237.762482831308
 20
120.686407090378
 30
0.0
 40
7.0
 41
0.0
 71
     5
 72
     1
  1
\A1;%%c73
 73
     1
 44
1.0
  0
POINT
  5
82D
330
606
100
AcDbEntity
  8
DEFPOINTS
 62
     0
100
AcDbPoint
 10
201.2624828313081
 20
138.3658487800789
 30
0.0
  0
POINT
  5
82E
330
606
100
AcDbEntity
  8
DEFPOINTS
 62
     0
100
AcDbPoint
 10
274.2624828313079
 20
138.3658487800881
 30
0.0
  0
POINT
  5
82F
330
606
100
AcDbEntity
  8
DEFPOINTS
 62
     0
100
AcDbPoint
 10
274.2624828313079
 20
115.186407090378
 30
0.0
  0
ENDBLK
  5
611
330
606
100
AcDbEntity
  8
0
100
AcDbBlockEnd
  0
BLOCK
  5
61C
330
612
100
AcDbEntity
  8
0
100
AcDbBlockBegin
  2
*D6
 70
     1
 10
0.0
 20
0.0
 30
0.0
  3
*D6
  1

  0
LINE
  5
91D
330
612
100
AcDbEntity
  8
BEM
 62
     0
370
    -2
100
AcDbLine
 10
199.7873840317368
 20
133.4300456407138
 30
0.0
 11
93.27782811459767
 21
133.4300456407138
 31
0.0
  0
LINE
  5
91E
330
612
100
AcDbEntity
  8
BEM
 62
     0
370
    -2
100
AcDbLine
 10
113.2624828313076
 20
433.4313401944412
 30
0.0
 11
93.27782811459774
 21
433.4313401944412
 31
0.0
  0
LINE
  5
91F
330
612
100
AcDbEntity
  8
BEM
 62
     0
370
    -2
100
AcDbLine
 10
95.27782811459768
 20
140.4300456407138
 30
0.0
 11
95.27782811459776
 21
426.4313401944413
 31
0.0
  0
SOLID
  5
920
330
612
100
AcDbEntity
  8
BEM
 62
     0
100
AcDbTrace
 10
94.11116144793101
 20
140.4300456407138
 30
0.0
 11
96.44449478126436
 21
140.4300456407138
 31
0.0
 12
95.27782811459768
 22
133.4300456407138
 32
0.0
 13
95.27782811459768
 23
133.4300456407138
 33
0.0
  0
SOLID
  5
921
330
612
100
AcDbEntity
  8
BEM
 62
     0
100
AcDbTrace
 10
94.11116144793108
 20
426.4313401944413
 30
0.0
 11
96.44449478126443
 21
426.4313401944413
 31
0.0
 12
95.27782811459776
 22
433.4313401944412
 32
0.0
 13
95.27782811459776
 23
433.4313401944412
 33
0.0
  0
MTEXT
  5
922
330
612
100
AcDbEntity
  8
BEM
 62
     1
100
AcDbMText
 10
88.77782811459766
 20
283.4306929175776
 30
0.0
 40
7.0
 41
0.0
 71
     5
 72
     1
  1
\A1;300
 11
0.0000000000000001
 21
1.0
 31
0.0
 73
     1
 44
1.0
  0
POINT
  5
923
330
612
100
AcDbEntity
  8
DEFPOINTS
 62
     0
100
AcDbPoint
 10
201.7873840317368
 20
133.4300456407138
 30
0.0
  0
POINT
  5
924
330
612
100
AcDbEntity
  8
DEFPOINTS
 62
     0
100
AcDbPoint
 10
115.2624828313076
 20
433.4313401944412
 30
0.0
  0
POINT
  5
925
330
612
100
AcDbEntity
  8
DEFPOINTS
 62
     0
100
AcDbPoint
 10
95.27782811459776
 20
433.4313401944412
 30
0.0
  0
ENDBLK
  5
61D
330
612
100
AcDbEntity
  8
0
100
AcDbBlockEnd
  0
ENDSEC
  0
SECTION
  2
ENTITIES
  0
LINE
  5
57
330
1E
100
AcDbEntity
  8
STEMPEL
100
AcDbLine
 10
410.0
 20
110.0
 30
0.0
 11
39.99999999999997
 21
110.0
 31
0.0
  0
LINE
  5
58
330
1E
100
AcDbEntity
  8
STEMPEL
100
AcDbLine
 10
136.0000000000001
 20
109.9999999999999
 30
0.0
 11
136.0
 21
9.999999999999971
 31
0.0
  0
LINE
  5
59
330
1E
100
AcDbEntity
  8
STEMPEL
100
AcDbLine
 10
220.0
 20
110.0
 30
0.0
 11
220.0
 21
9.999999999999971
 31
0.0
  0
LINE
  5
5A
330
1E
100
AcDbEntity
  8
STEMPEL
100
AcDbLine
 10
332.0
 20
109.9999999999997
 30
0.0
 11
332.0
 21
40.0
 31
0.0
  0
LINE
  5
5B
330
1E
100
AcDbEntity
  8
STEMPEL
100
AcDbLine
 10
135.9999999999999
 20
29.99999999999997
 30
0.0
 11
39.99999999999997
 21
29.99999999999997
 31
0.0
  0
LINE
  5
5C
330
1E
100
AcDbEntity
  8
STEMPEL
100
AcDbLine
 10
410.0
 20
40.0
 30
0.0
 11
136.0000000000001
 21
39.99999999999997
 31
0.0
  0
LINE
  5
5D
330
1E
100
AcDbEntity
  8
STEMPEL
100
AcDbLine
 10
410.0
 20
80.0
 30
0.0
 11
136.0000000000001
 21
79.99999999999994
 31
0.0
  0
LINE
  5
5E
330
1E
100
AcDbEntity
  8
VOLL
100
AcDbLine
 10
54.00000000000009
 20
110.0
 30
0.0
 11
53.99999999999997
 21
9.999999999999971
 31
0.0
  0
LINE
  5
5F
330
1E
100
AcDbEntity
  8
VOLL
100
AcDbLine
 10
94.00000000000011
 20
109.9999999999999
 30
0.0
 11
94.0
 21
9.999999999999971
 31
0.0
  0
LINE
  5
60
330
1E
100
AcDbEntity
  8
VOLL
100
AcDbLine
 10
114.0000000000001
 20
109.9999999999999
 30
0.0
 11
114.0
 21
9.999999999999971
 31
0.0
  0
LINE
  5
61
330
1E
100
AcDbEntity
  8
VOLL
100
AcDbLine
 10
154.0000000000001
 20
79.99999999999994
 30
0.0
 11
154.0000000000001
 21
39.99999999999997
 31
0.0
  0
LINE
  5
62
330
1E
100
AcDbEntity
  8
VOLL
100
AcDbLine
 10
180.0000000000001
 20
109.9999999999998
 30
0.0
 11
180.0
 21
39.99999999999997
 31
0.0
  0
LINE
  5
63
330
1E
100
AcDbEntity
  8
HILF
100
AcDbLine
 10
40.00000000000008
 20
100.0
 30
0.0
 11
136.0000000000001
 21
100.0
 31
0.0
  0
LINE
  5
64
330
1E
100
AcDbEntity
  8
HILF
100
AcDbLine
 10
40.00000000000008
 20
90.00000000000005
 30
0.0
 11
136.0000000000001
 21
90.00000000000005
 31
0.0
  0
LINE
  5
65
330
1E
100
AcDbEntity
  8
HILF
100
AcDbLine
 10
40.00000000000008
 20
79.99999999999994
 30
0.0
 11
136.0000000000001
 21
79.99999999999994
 31
0.0
  0
LINE
  5
66
330
1E
100
AcDbEntity
  8
HILF
100
AcDbLine
 10
40.00000000000008
 20
69.99999999999994
 30
0.0
 11
136.0000000000001
 21
69.99999999999994
 31
0.0
  0
LINE
  5
67
330
1E
100
AcDbEntity
  8
HILF
100
AcDbLine
 10
40.00000000000008
 20
59.99999999999997
 30
0.0
 11
136.0000000000001
 21
59.99999999999997
 31
0.0
  0
LINE
  5
68
330
1E
100
AcDbEntity
  8
HILF
100
AcDbLine
 10
40.00000000000008
 20
49.99999999999997
 30
0.0
 11
136.0000000000001
 21
49.99999999999997
 31
0.0
  0
LINE
  5
69
330
1E
100
AcDbEntity
  8
HILF
100
AcDbLine
 10
40.00000000000008
 20
39.99999999999997
 30
0.0
 11
136.0000000000001
 21
39.99999999999997
 31
0.0
  0
LINE
  5
6A
330
1E
100
AcDbEntity
  8
HILF
100
AcDbLine
 10
136.0000000000001
 20
69.99999999999994
 30
0.0
 11
220.0
 21
69.99999999999994
 31
0.0
  0
LINE
  5
6B
330
1E
100
AcDbEntity
  8
HILF
100
AcDbLine
 10
136.0000000000001
 20
59.99999999999997
 30
0.0
 11
220.0
 21
59.99999999999997
 31
0.0
  0
LINE
  5
6C
330
1E
100
AcDbEntity
  8
HILF
100
AcDbLine
 10
136.0000000000001
 20
49.99999999999997
 30
0.0
 11
220.0
 21
49.99999999999997
 31
0.0
  0
LINE
  5
6D
330
1E
100
AcDbEntity
  8
HILF
100
AcDbLine
 10
224.7736801096948
 20
84.03758247564139
 30
0.0
 11
324.8353916556311
 21
84.03758247564139
 31
0.0
  0
LINE
  5
6E
330
1E
100
AcDbEntity
  8
HILF
100
AcDbLine
 10
224.7736801096948
 20
69.99999999999994
 30
0.0
 11
324.835391655631
 21
69.99999999999994
 31
0.0
  0
LINE
  5
6F
330
1E
100
AcDbEntity
  8
HILF
100
AcDbLine
 10
224.7736801096948
 20
59.99999999999997
 30
0.0
 11
324.835391655631
 21
59.99999999999997
 31
0.0
  0
LINE
  5
70
330
1E
100
AcDbEntity
  8
HILF
100
AcDbLine
 10
224.7736801096948
 20
49.99999999999997
 30
0.0
 11
324.835391655631
 21
49.99999999999997
 31
0.0
  0
LINE
  5
71
330
1E
100
AcDbEntity
  8
VOLL
100
AcDbLine
 10
332.0
 20
60.0
 30
0.0
 11
410.0
 21
60.0
 31
0.0
  0
LINE
  5
72
330
1E
100
AcDbEntity
  8
HILF
100
AcDbLine
 10
336.7238616296993
 20
83.77983636955827
 30
0.0
 11
404.8588839326728
 21
83.77983636955827
 31
0.0
  0
LINE
  5
73
330
1E
100
AcDbEntity
  8
HILF
100
AcDbLine
 10
223.4909699289885
 20
14.89398258028314
 30
0.0
 11
404.8588839326728
 21
14.89398258028314
 31
0.0
  0
TEXT
  5
74
330
1E
100
AcDbEntity
  8
TEXT
100
AcDbText
 10
63.86165979631819
 20
18.67381894984132
 30
0.0
 40
4.0
  1
Änderung
 41
0.8
  7
GREEKS
 72
     1
 11
74.60451693917534
 21
18.67381894984132
 31
0.0
100
AcDbText
  0
TEXT
  5
75
330
1E
100
AcDbEntity
  8
TEXT
100
AcDbText
 10
143.5163572150377
 20
102.4620895087088
 30
0.0
 40
5.0
  1
Maßstab
 41
0.8
  7
GREEKS
100
AcDbText
  0
TEXT
  5
76
330
1E
100
AcDbEntity
  8
TEXT
100
AcDbText
 10
184.2858954734051
 20
102.4184168434819
 30
0.0
 40
5.0
  1
Zul. Abw.
 41
0.8
  7
GREEKS
100
AcDbText
  0
TEXT
  5
77
330
1E
100
AcDbEntity
  8
TEXT
100
AcDbText
 10
224.877940380901
 20
102.5489328011779
 30
0.0
 40
5.0
  1
Benennung
 41
0.8
  7
GREEKS
100
AcDbText
  0
TEXT
  5
78
330
1E
100
AcDbEntity
  8
TEXT
100
AcDbText
 10
336.178754957634
 20
102.3132034537136
 30
0.0
 40
5.0
  1
Zeichnungs Nr.
 41
0.8
  7
GREEKS
100
AcDbText
  0
TEXT
  5
79
330
1E
100
AcDbEntity
  8
TEXT
100
AcDbText
 10
224.742238391136
 20
30.84560570193057
 30
0.0
 40
5.0
  1
Bauvorhaben
 41
0.8
  7
GREEKS
100
AcDbText
  0
TEXT
  5
7A
330
1E
100
AcDbEntity
  8
TEXT
100
AcDbText
 10
336.7238616296993
 20
73.1811823709997
 30
0.0
 40
5.0
  1
Ersatz für:
 41
0.8
  7
GREEKS
100
AcDbText
  0
TEXT
  5
7B
330
1E
100
AcDbEntity
  8
TEXT
100
AcDbText
 10
48.26641107045756
 20
13.65465846027192
 30
0.0
 40
4.0
  1
Index
 50
90.0
 41
0.8
  7
GREEKS
100
AcDbText
  0
TEXT
  5
7C
330
1E
100
AcDbEntity
  8
TEXT
100
AcDbText
 10
100.0934676075481
 20
18.6715626933981
 30
0.0
 40
4.0
  1
Tag
 41
0.8
  7
GREEKS
 72
     1
 11
103.8268009408814
 21
18.6715626933981
 31
0.0
100
AcDbText
  0
TEXT
  5
7D
330
1E
100
AcDbEntity
  8
TEXT
100
AcDbText
 10
119.0122744386592
 20
18.59324216966408
 30
0.0
 40
4.0
  1
Name
 41
0.8
  7
GREEKS
 72
     1
 11
125.3360839624688
 21
18.59324216966408
 31
0.0
100
AcDbText
  0
TEXT
  5
7E
330
1E
100
AcDbEntity
  8
TEXT
100
AcDbText
 10
162.3311673153651
 20
73.31880501229926
 30
0.0
 40
4.0
  1
Tag
 41
0.8
  7
GREEKS
100
AcDbText
  0
TEXT
  5
7F
330
1E
100
AcDbEntity
  8
TEXT
100
AcDbText
 10
192.4626584226295
 20
73.30961091915225
 30
0.0
 40
4.0
  1
Name
 41
0.8
  7
GREEKS
100
AcDbText
  0
TEXT
  5
80
330
1E
100
AcDbEntity
  8
TEXT
100
AcDbText
 10
137.5836127167615
 20
63.62990369617964
 30
0.0
 40
4.0
  1
Gez.
 41
0.8
  7
GREEKS
100
AcDbText
  0
TEXT
  5
81
330
1E
100
AcDbEntity
  8
TEXT
100
AcDbText
 10
137.5515086571672
 20
53.68926291428377
 30
0.0
 40
4.0
  1
Gepr.
 41
0.8
  7
GREEKS
100
AcDbText
  0
TEXT
  5
82
330
1E
100
AcDbEntity
  8
TEXT
100
AcDbText
 10
137.6006777387304
 20
43.52946389649807
 30
0.0
 40
4.0
  1
Norm.
 41
0.8
  7
GREEKS
100
AcDbText
  0
LINE
  5
83
330
1E
100
AcDbEntity
  8
STEMPEL
100
AcDbLine
 10
49.99999999999989
 20
10.0
 30
0.0
 11
410.0
 21
10.0
 31
0.0
  0
TEXT
  5
84
330
1E
100
AcDbEntity
  8
TEXT
100
AcDbText
 10
337.2400861497006
 20
52.07416177878602
 30
0.0
 40
5.0
  1
ersetzt durch:
 41
0.8
  7
GREEKS
100
AcDbText
  0
LINE
  5
85
330
1E
100
AcDbEntity
  8
STEMPEL
100
AcDbLine
 10
410.0
 20
10.0
 30
0.0
 11
39.99999999999989
 21
10.0
 31
0.0
  0
LINE
  5
86
330
1E
100
AcDbEntity
  8
STEMPEL
100
AcDbLine
 10
410.0
 20
10.0
 30
0.0
 11
410.0
 21
584.0
 31
0.0
  0
LINE
  5
87
330
1E
100
AcDbEntity
  8
STEMPEL
100
AcDbLine
 10
40.0
 20
10.0
 30
0.0
 11
39.99999999999989
 21
584.0
 31
0.0
  0
LINE
  5
88
330
1E
100
AcDbEntity
  8
STEMPEL
100
AcDbLine
 10
410.0
 20
584.0
 30
0.0
 11
39.99999999999989
 21
584.0
 31
0.0
  0
LINE
  5
89
330
1E
100
AcDbEntity
  8
HILF
100
AcDbLine
 10
0.0
 20
0.0
 30
0.0
 11
-0.0000000000001137
 21
594.0
 31
0.0
  0
LINE
  5
8A
330
1E
100
AcDbEntity
  8
HILF
100
AcDbLine
 10
419.9999999999999
 20
594.0000000000002
 30
0.0
 11
0.0
 21
594.0
 31
0.0
  0
LINE
  5
8B
330
1E
100
AcDbEntity
  8
HILF
100
AcDbLine
 10
420.0
 20
0.0
 30
0.0
 11
0.0
 21
0.0
 31
0.0
  0
LINE
  5
8C
330
1E
100
AcDbEntity
  8
HILF
100
AcDbLine
 10
31.08767135713856
 20
297.0
 30
0.0
 11
0.0000000000001137
 21
297.0
 31
0.0
  0
TEXT
  5
8D
330
1E
100
AcDbEntity
  8
TEXT
100
AcDbText
 10
138.622109822104
 20
73.14025471151666
 30
0.0
 40
4.0
  1
2011
 41
0.8
  7
GREEKS
100
AcDbText
  0
LINE
  5
8E
330
1E
100
AcDbEntity
  8
HILF
100
AcDbLine
 10
420.0
 20
-0.0000000000001137
 30
0.0
 11
419.9999999999999
 21
594.0
 31
0.0
  0
TEXT
  5
8F
330
1E
100
AcDbEntity
  8
VOLL
100
AcDbText
 10
78.07675471698113
 20
31.02594776470585
 30
0.0
 40
1.8
  1

  7
GREEKS
100
AcDbText
  0
TEXT
  5
90
330
1E
100
AcDbEntity
  8
TEXT
100
AcDbText
 10
41.85509950977674
 20
111.6719999999999
 30
0.0
 40
5.0
  1
Erstellt mit AUTOCAD 2004
 41
0.8
  7
GREEKS
100
AcDbText
  0
TEXT
  5
91
330
1E
100
AcDbEntity
  8
TEXT
100
AcDbText
 10
194.4216048581257
 20
63.0896391972351
 30
0.0
 40
4.0
  1
Koeh
 41
0.8
  7
GREEKS
 72
     1
 11
199.6787477152685
 21
63.0896391972351
 31
0.0
100
AcDbText
  0
TEXT
  5
92
330
1E
100
AcDbEntity
  8
TEXT
 62
     1
100
AcDbText
 10
346.5827145028972
 20
88.14901428913959
 30
0.0
 40
7.0
  1
22101070W
 41
0.8
  7
GREEKS
 72
     1
 11
369.5160478362305
 21
88.14901428913959
 31
0.0
100
AcDbText
  0
TEXT
  5
93
330
1E
100
AcDbEntity
  8
TEXT
 62
     1
100
AcDbText
 10
150.5006306481887
 20
88.14901428913959
 30
0.0
 40
7.0
  1
1:2
 41
0.8
  7
GREEKS
100
AcDbText
  0
TEXT
  5
94
330
1E
100
AcDbEntity
  8
TEXT
100
AcDbText
 10
160.7037590129979
 20
63.10765040825732
 30
0.0
 40
4.0
  1
27.01.
 41
0.8
  7
GREEKS
 72
     1
 11
167.4085209177598
 21
63.10765040825732
 31
0.0
100
AcDbText
  0
TEXT
  5
95
330
1E
100
AcDbEntity
  8
TEXT
 62
     1
100
AcDbText
 10
226.8935731057402
 20
87.41748789253779
 30
0.0
 40
7.0
  1
Drainjet Kompletteinheit
 41
0.8
  7
GREEKS
100
AcDbText
  0
TEXT
  5
96
330
1E
100
AcDbEntity
  8
TEXT
100
AcDbText
 10
225.1296391125315
 20
71.50334417585288
 30
0.0
 40
5.0
  1
DN70 einteilig mit Klemmflansch
 41
0.8
  7
GREEKS
100
AcDbText
  0
TEXT
  5
98
330
1E
100
AcDbEntity
  8
TEXT
100
AcDbText
 10
225.1296391125315
 20
51.64011943042158
 30
0.0
 40
5.0
  1
EDV-Art.Nr. 22101.070X
 41
0.8
  7
GREEKS
100
AcDbText
  0
TEXT
  5
99
330
1E
100
AcDbEntity
  8
TEXT
100
AcDbText
 10
224.9837501577827
 20
42.62974153022632
 30
0.0
 40
4.0
  1
22101070W.DWG
 41
0.8
  7
GREEKS
100
AcDbText
  0
TEXT
  5
9A
330
1E
100
AcDbEntity
  8
TEXT
100
AcDbText
 10
182.626132208084
 20
90.76363841023022
 30
0.0
 40
4.0
  1
DIN EN1124-3
 41
0.8
  7
GREEKS
 72
     1
 11
199.6166083985602
 21
90.76363841023022
 31
0.0
100
AcDbText
  0
INSERT
  5
9B
330
1E
100
AcDbEntity
  8
STEMPEL
100
AcDbBlockReference
  2
LOGO
 10
140.9955485457794
 20
45.02105276448322
 30
0.0
 41
2.0
 42
2.0
 43
2.0
  0
TEXT
  5
118
330
1E
100
AcDbEntity
  8
BEM
100
AcDbText
 10
417.3022923857165
 20
10.16790107998849
 30
0.0
 40
4.0
  1
Diese Zeichnung ist urheberrechtlich geschützt und bleibt unser Eigentum. Sie darf weder ganz noch teilweise verfielfältigt und nicht an Dritte weitergegeben werden.
 50
90.0
 41
0.8
  7
GREEKS
100
AcDbText
  0
HATCH
  5
429
330
1E
100
AcDbEntity
  8
BEM
100
AcDbHatch
 10
0.0
 20
0.0
 30
0.0
210
0.0
220
0.0
230
1.0
  2
_USER
 70
     0
 71
     0
 91
        4
 92
        7
 72
     1
 73
     1
 93
       14
 10
363.7624828313075
 20
453.4313401944432
 42
0.0
 10
363.2624828313077
 20
453.4313401944431
 42
0.0
 10
363.2624828313077
 20
456.4313401944432
 42
0.0
 10
363.7624828313075
 20
456.4313401944431
 42
0.0
 10
363.7624828313076
 20
459.4313401944427
 42
0.0
 10
362.7624828313076
 20
459.4313401944426
 42
0.0
 10
362.7624828313076
 20
446.6813401944428
 42
0.0
 10
362.7624828313075
 20
439.4313401944412
 42
0.0
 10
363.0235471650109
 20
439.4313401944412
 42
0.0370996223327176
 10
363.7624828313077
 20
439.4862442316641
 42
0.0
 10
363.7624828313077
 20
442.4313401944433
 42
0.0
 10
363.2624828313077
 20
442.4313401944432
 42
0.0
 10
363.2624828313077
 20
445.4313401944433
 42
0.0
 10
363.7624828313077
 20
445.4313401944434
 42
0.0
 97
        0
 92
        7
 72
     0
 73
     1
 93
       13
 10
356.7624828313077
 20
459.4313401944427
 10
355.7624828313075
 20
459.4313401944427
 10
355.7624828313075
 20
456.4313401944431
 10
356.2624828313077
 20
456.4313401944431
 10
356.2624828313076
 20
453.4313401944431
 10
355.7624828313075
 20
453.4313401944431
 10
355.7624828313077
 20
445.4313401944431
 10
356.2624828313076
 20
445.4313401944431
 10
356.2624828313078
 20
442.4313401944433
 10
355.7624828313077
 20
442.4313401944433
 10
355.7624828313077
 20
439.4313401944412
 10
356.7624828313076
 20
439.4313401944412
 10
356.7624828313076
 20
446.6813401944429
 97
        0
 92
        7
 72
     0
 73
     1
 93
        5
 10
357.7624828313076
 20
446.031340194443
 10
357.4124828313077
 20
446.031340194443
 10
356.7624828313076
 20
446.6813401944428
 10
356.7624828313076
 20
439.4313401944412
 10
357.7624828313076
 20
439.4313401944412
 97
        0
 92
        7
 72
     0
 73
     1
 93
        5
 10
362.7624828313075
 20
446.6813401944428
 10
362.1124828313077
 20
446.0313401944429
 10
361.7624828313076
 20
446.0313401944429
 10
361.7624828313076
 20
439.4313401944413
 10
362.7624828313076
 20
439.4313401944412
 97
        0
 75
     0
 76
     0
 52
135.0
 41
2.0
 77
     0
 78
     1
 53
135.0
 43
3.27796645663011
 44
30.90313028628316
 45
-1.414213562373095
 46
-1.414213562373094
 79
     0
 47
0.0558583262238273
 98
        4
 10
363.4205314213159
 20
452.2216124678943
 10
356.1536304037963
 20
451.4954536940431
 10
357.2716164351405
 20
444.7924543686067
 10
362.4702454776648
 20
444.3455884005779
  0
LINE
  5
42A
330
1E
100
AcDbEntity
  8
STEMPEL
100
AcDbLine
 10
356.2624828313077
 20
453.4313401944431
 30
0.0
 11
356.2624828313077
 21
456.4313401944432
 31
0.0
  0
LINE
  5
42B
330
1E
100
AcDbEntity
  8
HILF
100
AcDbLine
 10
356.7624828313076
 20
439.431340194443
 30
0.0
 11
356.7624828313076
 21
446.6813401944429
 31
0.0
  0
LINE
  5
42C
330
1E
100
AcDbEntity
  8
STEMPEL
100
AcDbLine
 10
357.7624828313076
 20
439.431340194443
 30
0.0
 11
357.7624828313076
 21
446.0313401944429
 31
0.0
  0
LINE
  5
42D
330
1E
100
AcDbEntity
  8
STEMPEL
100
AcDbLine
 10
356.2624828313077
 20
442.4313401944432
 30
0.0
 11
356.2624828313077
 21
445.4313401944431
 31
0.0
  0
LINE
  5
42E
330
1E
100
AcDbEntity
  8
STEMPEL
100
AcDbLine
 10
356.2624828313077
 20
442.4313401944433
 30
0.0
 11
355.7624828313077
 21
442.4313401944433
 31
0.0
  0
LINE
  5
42F
330
1E
100
AcDbEntity
  8
STEMPEL
100
AcDbLine
 10
355.7624828313077
 20
439.4313401944432
 30
0.0
 11
355.7624828313077
 21
442.4313401944433
 31
0.0
  0
LINE
  5
430
330
1E
100
AcDbEntity
  8
STEMPEL
100
AcDbLine
 10
356.2624828313077
 20
453.4313401944431
 30
0.0
 11
355.7624828313076
 21
453.4313401944431
 31
0.0
  0
LINE
  5
431
330
1E
100
AcDbEntity
  8
STEMPEL
100
AcDbLine
 10
356.2624828313077
 20
445.4313401944431
 30
0.0
 11
355.7624828313077
 21
445.4313401944431
 31
0.0
  0
LINE
  5
432
330
1E
100
AcDbEntity
  8
STEMPEL
100
AcDbLine
 10
355.7624828313077
 20
445.431340194443
 30
0.0
 11
355.7624828313075
 21
453.4313401944431
 31
0.0
  0
LINE
  5
433
330
1E
100
AcDbEntity
  8
STEMPEL
100
AcDbLine
 10
356.2624828313077
 20
456.4313401944431
 30
0.0
 11
355.7624828313076
 21
456.4313401944431
 31
0.0
  0
LINE
  5
434
330
1E
100
AcDbEntity
  8
STEMPEL
100
AcDbLine
 10
355.7624828313075
 20
456.431340194443
 30
0.0
 11
355.7624828313076
 21
459.4313401944432
 31
0.0
  0
LINE
  5
435
330
1E
100
AcDbEntity
  8
STEMPEL
100
AcDbLine
 10
363.2624828313077
 20
453.4313401944431
 30
0.0
 11
363.2624828313077
 21
456.4313401944432
 31
0.0
  0
LINE
  5
436
330
1E
100
AcDbEntity
  8
HILF
100
AcDbLine
 10
362.7624828313076
 20
439.431340194443
 30
0.0
 11
362.7624828313076
 21
446.6813401944429
 31
0.0
  0
LINE
  5
437
330
1E
100
AcDbEntity
  8
STEMPEL
100
AcDbLine
 10
361.7624828313076
 20
439.431340194443
 30
0.0
 11
361.7624828313076
 21
446.0313401944429
 31
0.0
  0
LINE
  5
438
330
1E
100
AcDbEntity
  8
STEMPEL
100
AcDbLine
 10
363.2624828313077
 20
442.4313401944433
 30
0.0
 11
363.2624828313077
 21
445.4313401944434
 31
0.0
  0
LINE
  5
439
330
1E
100
AcDbEntity
  8
STEMPEL
100
AcDbLine
 10
363.7624828313077
 20
442.4313401944433
 30
0.0
 11
363.2624828313076
 21
442.4313401944433
 31
0.0
  0
LINE
  5
43A
330
1E
100
AcDbEntity
  8
STEMPEL
100
AcDbLine
 10
363.7624828313077
 20
439.4313401944432
 30
0.0
 11
363.7624828313077
 21
442.4313401944433
 31
0.0
  0
LINE
  5
43B
330
1E
100
AcDbEntity
  8
STEMPEL
100
AcDbLine
 10
363.7624828313076
 20
453.4313401944431
 30
0.0
 11
363.2624828313077
 21
453.4313401944431
 31
0.0
  0
LINE
  5
43C
330
1E
100
AcDbEntity
  8
STEMPEL
100
AcDbLine
 10
363.7624828313077
 20
445.4313401944434
 30
0.0
 11
363.2624828313077
 21
445.4313401944433
 31
0.0
  0
LINE
  5
43D
330
1E
100
AcDbEntity
  8
STEMPEL
100
AcDbLine
 10
363.7624828313077
 20
445.4313401944433
 30
0.0
 11
363.7624828313075
 21
453.4313401944431
 31
0.0
  0
LINE
  5
43E
330
1E
100
AcDbEntity
  8
STEMPEL
100
AcDbLine
 10
363.7624828313076
 20
456.4313401944431
 30
0.0
 11
363.2624828313077
 21
456.4313401944431
 31
0.0
  0
LINE
  5
43F
330
1E
100
AcDbEntity
  8
STEMPEL
100
AcDbLine
 10
363.7624828313075
 20
456.4313401944431
 30
0.0
 11
363.7624828313076
 21
459.4313401944432
 31
0.0
  0
HATCH
  5
440
330
1E
100
AcDbEntity
  8
SCHRAFF
100
AcDbHatch
 10
0.0
 20
0.0
 30
0.0
210
0.0
220
0.0
230
1.0
  2
_USER
 70
     0
 71
     0
 91
        5
 92
        7
 72
     1
 73
     1
 93
       12
 10
367.7624828313074
 20
459.431340194442
 42
0.0
 10
363.7624828313076
 20
459.4313401944424
 42
0.0
 10
363.7624828313075
 20
456.4313401944432
 42
0.0
 10
363.2624828313077
 20
456.4313401944431
 42
0.0
 10
363.2624828313077
 20
453.4313401944431
 42
0.0
 10
363.7624828313075
 20
453.4313401944433
 42
0.0
 10
363.7624828313077
 20
445.4313401944434
 42
0.0
 10
363.2624828313077
 20
445.4313401944433
 42
0.0
 10
363.2624828313077
 20
442.4313401944433
 42
0.0
 10
363.7624828313077
 20
442.4313401944433
 42
0.0
 10
363.7624828313077
 20
439.4862442316651
 42
0.3763797779543461
 10
368.0227856407927
 20
444.5186022266286
 42
0.0
 97
        0
 92
        7
 72
     1
 73
     1
 93
       11
 10
355.7624828313075
 20
452.928353693655
 42
0.0
 10
351.7105872121081
 20
456.458242161706
 42
0.0
 10
351.6038640825162
 20
450.344078162256
 42
-0.4091108014277268
 10
346.6046256067342
 20
445.4313401944422
 42
0.0
 10
303.2624828313076
 20
445.4313401944422
 42
1.0
 10
303.2624828313076
 20
439.4313401944418
 42
0.0
 10
355.7624828313077
 20
439.4313401944422
 42
0.0
 10
355.7624828313077
 20
442.4313401944433
 42
0.0
 10
356.2624828313077
 20
442.4313401944432
 42
0.0
 10
356.2624828313077
 20
445.4313401944431
 42
0.0
 10
355.7624828313077
 20
445.4313401944431
 42
0.0
 97
        0
 92
        7
 72
     0
 73
     1
 93
        8
 10
355.7624828313076
 20
452.9283536936552
 10
355.7624828313075
 20
453.431340194443
 10
356.2624828313077
 20
453.4313401944431
 10
356.2624828313077
 20
456.431340194443
 10
355.7624828313075
 20
456.431340194443
 10
355.7624828313076
 20
459.4313401944432
 10
351.7624828313075
 20
459.4313401944435
 10
351.7105872121082
 20
456.4582421617057
 97
        0
 92
        7
 72
     1
 73
     1
 93
        4
 10
154.2624828313071
 20
445.4313401944422
 42
0.0
 10
154.2624828313071
 20
439.4313401944408
 42
0.0
 10
172.2624828313076
 20
439.4313401944409
 42
1.0
 10
172.2624828313076
 20
445.431340194442
 42
0.0
 97
        0
 92
        7
 72
     1
 73
     1
 93
        4
 10
125.7624828313074
 20
445.431340194442
 42
1.0
 10
125.7624828313074
 20
439.4313401944407
 42
0.0
 10
141.2624828313071
 20
439.4313401944407
 42
0.0
 10
141.2624828313073
 20
445.431340194442
 42
0.0
 97
        0
 75
     0
 76
     0
 52
45.0
 41
5.0
 77
     0
 78
     1
 53
45.0
 43
36.33409316307967
 44
-70.25793105013213
 45
-3.535533905932737
 46
3.535533905932737
 79
     0
 47
0.4273487917069632
 98
        5
 10
366.2645194273587
 20
447.6262771293165
 10
353.862326787637
 20
446.3442310317252
 10
353.4346670389569
 20
457.0279499099362
 10
163.9804831096926
 20
442.4980913406684
 10
134.4718188027687
 20
443.3527887390625
  0
DIMENSION
  5
441
330
1E
100
AcDbEntity
  8
BEM
100
AcDbDimension
  2
*D5
 10
274.2624828313079
 20
115.186407090378
 30
0.0
 11
237.762482831308
 21
120.686407090378
 31
0.0
 70
    32
  1
%%c<>
 71
     5
 42
72.99999999999977
  3
Standard
100
AcDbAlignedDimension
 13
201.2624828313081
 23
138.3658487800789
 33
0.0
 14
274.2624828313079
 24
138.3658487800881
 34
0.0
100
AcDbRotatedDimension
1001
ACAD
1000
DSTYLE
1002
{
1070
    40
1040
2.0
1070
    41
1040
3.5
1070
    42
1040
1.0
1070
    43
1040
7.0
1070
    44
1040
1.0
1070
    47
1040
0.7
1070
    48
1040
0.7
1070
    73
1070
     0
1070
    74
1070
     0
1070
    77
1070
     1
1070
    78
1070
     8
1070
   140
1040
3.5
1070
   141
1040
1.5
1070
   146
1040
0.5142857142857144
1070
   147
1040
1.0
1070
   172
1070
     1
1070
   178
1070
     1
1002
}
  0
HATCH
  5
442
330
1E
100
AcDbEntity
  8
SCHRAFF
100
AcDbHatch
 10
0.0
 20
0.0
 30
0.0
210
0.0
220
0.0
230
1.0
  2
_USER
 70
     0
 71
     1
 91
        2
 92
        7
 72
     1
 73
     1
 93
       10
 10
274.2624828313101
 20
410.7389520390165
 42
-0.1989123673795745
 10
275.7269489253732
 20
414.2744859449494
 42
0.0
 10
281.3231430030872
 20
419.8706800226627
 42
0.0
 10
280.2624828313077
 20
420.9313401944426
 42
0.0
 10
274.6662887535935
 20
415.3351461167289
 42
0.1989123673796067
 10
272.7624828313103
 20
410.7389520390159
 42
0.0
 10
272.7624828313079
 20
138.4313401944474
 42
0.0
 10
272.3250395136775
 20
133.4313401944413
 42
0.0
 10
273.8307692699926
 20
133.4313401944413
 42
0.0
 10
274.2624828313079
 20
138.3658487800886
 42
0.0
 97
       10
330
449
330
44A
330
450
330
460
330
448
330
45A
330
452
330
458
330
453
330
459
 92
        7
 72
     1
 73
     1
 93
       10
 10
202.7624828313098
 20
410.7389520390162
 42
0.1989123673796779
 10
200.858676909022
 20
415.3351461167291
 42
0.0
 10
195.2502165461038
 20
420.9436064796464
 42
0.0
 10
194.1895563743241
 20
419.8829463078667
 42
0.0
 10
199.7980167372422
 20
414.2744859449494
 42
-0.1989123673796759
 10
201.2624828313097
 20
410.7389520390164
 42
0.0
 10
201.2624828313081
 20
138.3658487800787
 42
0.0
 10
201.6941963926227
 20
133.4313401944413
 42
0.0
 10
203.1999261489375
 20
133.4313401944413
 42
0.0
 10
202.7624828313079
 20
138.4313401944412
 42
0.0
 97
       10
330
44C
330
46B
330
44F
330
44E
330
44D
330
45B
330
454
330
458
330
455
330
45C
 75
     0
 76
     0
 52
135.0
 41
2.0
 77
     0
 78
     1
 53
135.0
 43
14.82373189939295
 44
-22.69770415072935
 45
-1.414213562373095
 46
-1.414213562373094
 79
     0
 47
0.5486474276378085
 98
        2
 10
273.8419003002988
 20
326.7529909053871
 10
202.4654924962943
 20
340.469177729346
  0
HATCH
  5
443
330
1E
100
AcDbEntity
  8
SCHRAFF
100
AcDbHatch
 10
0.0
 20
0.0
 30
0.0
210
0.0
220
0.0
230
1.0
  2
_USER
 70
     0
 71
     0
 91
        5
 92
        7
 72
     1
 73
     1
 93
        8
 10
327.7624828313079
 20
433.4313401944411
 42
0.0
 10
296.0761913302923
 20
433.4313401944411
 42
0.1989123673796403
 10
290.4193370808003
 20
431.0881944439338
 42
0.0
 10
280.2624828313076
 20
420.9313401944425
 42
0.0
 10
281.6766963936808
 20
419.5171266320691
 42
0.0
 10
291.8335506431734
 20
429.6739808815607
 42
-0.1989123673796358
 10
296.0761913302923
 20
431.4313401944411
 42
0.0
 10
327.7624828313079
 20
431.4313401944414
 42
0.0
 97
        0
 92
        7
 72
     0
 73
     1
 93
        4
 10
342.3418478646975
 20
433.431340194441
 10
327.7624828313079
 20
433.431340194441
 10
327.7624828313079
 20
431.4313401944414
 10
341.5585685200186
 20
431.4313401944414
 97
        0
 92
        7
 72
     1
 73
     1
 93
        8
 10
354.0449684100356
 20
433.4313401944411
 42
0.0
 10
342.3418478646974
 20
433.431340194441
 42
0.0
 10
341.5585685200186
 20
431.4313401944415
 42
0.0
 10
354.0449684100356
 20
431.4313401944415
 42
-0.1989123673797046
 10
356.5198421441888
 20
430.4062139285938
 42
0.0
 10
358.848269268935
 20
428.0777868038473
 42
0.0
 10
360.2624828313079
 20
429.4920003662207
 42
0.0
 10
357.9340557065619
 20
431.8204274909668
 42
0.1989123673796779
 97
        0
 92
        7
 72
     1
 73
     1
 93
        8
 10
179.448774332323
 20
433.4313401944412
 42
0.0
 10
147.7624828313077
 20
433.4313401944413
 42
0.0
 10
147.7624828313077
 20
431.4313401944414
 42
0.0
 10
179.448774332323
 20
431.4313401944411
 42
-0.1989123673796432
 10
183.6914150194421
 20
429.6739808815607
 42
0.0
 10
193.8360029837307
 20
419.5293929172732
 42
0.0
 10
195.2502165461039
 20
420.9436064796466
 42
0.0
 10
185.1056285818152
 20
431.0881944439337
 42
0.1989123673796519
 97
        0
 92
        7
 72
     1
 73
     1
 93
        8
 10
147.7624828313077
 20
433.4313401944413
 42
0.0
 10
121.47999725258
 20
433.4313401944413
 42
0.1989123673797045
 10
117.5909099560534
 20
431.8204274909668
 42
0.0
 10
115.2624828313074
 20
429.4920003662205
 42
0.0
 10
116.6766963936803
 20
428.0777868038473
 42
0.0
 10
119.0051235184265
 20
430.4062139285938
 42
-0.198912367379677
 10
121.4799972525792
 20
431.4313401944415
 42
0.0
 10
147.7624828313077
 20
431.4313401944413
 42
0.0
 97
        0
 75
     0
 76
     0
 52
45.0
 41
2.0
 77
     0
 78
     1
 53
45.0
 43
14.82373189939295
 44
-22.69770415072935
 45
-1.414213562373094
 46
1.414213562373095
 79
     0
 47
0.3473152716033439
 98
        5
 10
300.9263777794468
 20
432.7845202323391
 10
331.1649379351298
 20
432.0898902181204
 10
345.7628632452038
 20
432.0898902181204
 10
169.8926134659742
 20
432.7845202323391
 10
138.9589127102236
 20
432.0898902181204
  0
HATCH
  5
444
330
1E
100
AcDbEntity
  8
SCHRAFF
100
AcDbHatch
 10
0.0
 20
0.0
 30
0.0
210
0.0
220
0.0
230
1.0
  2
_U
 70
     0
 71
     0
 91
        2
 92
        7
 72
     1
 73
     1
 93
        4
 10
194.189556374324
 20
419.8829463078666
 42
0.0
 10
193.8360029837305
 20
419.5293929172732
 42
0.0
 10
192.3172596677757
 20
421.0481362332278
 42
0.5760313318603869
 10
196.9378906370282
 20
417.1346120451629
 42
0.0
 97
        0
 92
        7
 72
     1
 73
     1
 93
        4
 10
283.2077059948399
 20
421.0481362332281
 42
0.0
 10
281.6766963936805
 20
419.517126632069
 42
0.0
 10
281.3231430030871
 20
419.8706800226625
 42
0.0
 10
278.5870750255873
 20
417.1346120451631
 42
0.5760313318604339
 97
        0
 75
     0
 76
     0
 52
0.0
 41
0.1
 77
     0
 78
     1
 53
0.0
 43
14.82373189939295
 44
-22.69770415072935
 45
0.0
 46
0.1
 79
     0
 47
0.1173469678841337
 98
        2
 10
194.3398259011586
 20
418.2325161655011
 10
281.1286218985727
 20
418.1151691029869
  0
TEXT
  5
445
330
1E
100
AcDbEntity
  8
TEXT
 62
     1
100
AcDbText
 10
226.0595545858976
 20
301.3838399619782
 30
0.0
 40
7.0
  1
DN70
 50
90.0
 41
0.8
  7
GREEKS
100
AcDbText
  0
ARC
  5
446
330
1E
100
AcDbEntity
  8
SCHRAFF
100
AcDbCircle
 10
195.7624828313079
 20
420.4313401944425
 30
0.0
 40
3.5
100
AcDbArc
 50
169.8499045790552
 51
289.6230664748541
  0
ARC
  5
447
330
1E
100
AcDbEntity
  8
SCHRAFF
100
AcDbCircle
 10
279.7624828313078
 20
420.4313401944425
 30
0.0
 40
3.5
100
AcDbArc
 50
250.3769335251431
 51
10.15009542095131
  0
ARC
  5
448
102
{ACAD_REACTORS
330
442
102
}
330
1E
100
AcDbEntity
  8
STEMPEL
100
AcDbCircle
 10
279.2624828313056
 20
410.7389520390162
 30
0.0
 40
6.5
100
AcDbArc
 50
134.9999999999985
 51
180.0
  0
ARC
  5
449
102
{ACAD_REACTORS
330
442
102
}
330
1E
100
AcDbEntity
  8
STEMPEL
100
AcDbCircle
 10
279.2624828313056
 20
410.7389520390162
 30
0.0
 40
5.0
100
AcDbArc
 50
134.9999999999985
 51
180.0
  0
LINE
  5
44A
102
{ACAD_REACTORS
330
442
102
}
330
1E
100
AcDbEntity
  8
STEMPEL
100
AcDbLine
 10
281.3231430030872
 20
419.8706800226627
 30
0.0
 11
275.7269489253732
 21
414.2744859449494
 31
0.0
  0
LINE
  5
44B
330
1E
100
AcDbEntity
  8
HILF
100
AcDbLine
 10
203.8659445924134
 20
413.2263943493894
 30
0.0
 11
271.6590210702019
 21
413.2263943493894
 31
0.0
  0
ARC
  5
44C
102
{ACAD_REACTORS
330
442
102
}
330
1E
100
AcDbEntity
  8
STEMPEL
100
AcDbCircle
 10
196.2624828313098
 20
410.7389520390162
 30
0.0
 40
6.5
100
AcDbArc
 50
0.0
 51
45.00000000000143
  0
ARC
  5
44D
102
{ACAD_REACTORS
330
442
102
}
330
1E
100
AcDbEntity
  8
STEMPEL
100
AcDbCircle
 10
196.2624828313097
 20
410.7389520390162
 30
0.0
 40
5.0
100
AcDbArc
 50
0.0
 51
45.00000000000143
  0
LINE
  5
44E
102
{ACAD_REACTORS
330
442
102
}
330
1E
100
AcDbEntity
  8
STEMPEL
100
AcDbLine
 10
194.189556374324
 20
419.8829463078667
 30
0.0
 11
199.7980167372422
 21
414.2744859449494
 31
0.0
  0
LINE
  5
44F
102
{ACAD_REACTORS
330
442
102
}
330
1E
100
AcDbEntity
  8
STEMPEL
100
AcDbLine
 10
195.2502165461037
 20
420.9436064796463
 30
0.0
 11
193.8360029837305
 21
419.5293929172732
 31
0.0
  0
LINE
  5
450
102
{ACAD_REACTORS
330
442
102
}
330
1E
100
AcDbEntity
  8
STEMPEL
100
AcDbLine
 10
280.2624828313076
 20
420.9313401944425
 30
0.0
 11
281.6766963936808
 21
419.5171266320691
 31
0.0
  0
LINE
  5
451
330
1E
100
AcDbEntity
  8
STEMPEL
100
AcDbLine
 10
195.7624828313077
 20
420.4313401944425
 30
0.0
 11
279.7624828313076
 21
420.4313401944425
 31
0.0
  0
LINE
  5
452
102
{ACAD_REACTORS
330
442
102
}
330
1E
100
AcDbEntity
  8
STEMPEL
100
AcDbLine
 10
272.7624828313079
 20
138.4313401944475
 30
0.0
 11
272.3250395136775
 21
133.4313401944413
 31
0.0
  0
LINE
  5
453
102
{ACAD_REACTORS
330
442
102
}
330
1E
100
AcDbEntity
  8
STEMPEL
100
AcDbLine
 10
274.2624828313079
 20
138.3658487800881
 30
0.0
 11
273.8307692699926
 21
133.4313401944413
 31
0.0
  0
LINE
  5
454
102
{ACAD_REACTORS
330
442
102
}
330
1E
100
AcDbEntity
  8
STEMPEL
100
AcDbLine
 10
201.2624828313081
 20
138.3658487800789
 30
0.0
 11
201.6941963926227
 21
133.4313401944413
 31
0.0
  0
LINE
  5
455
102
{ACAD_REACTORS
330
442
102
}
330
1E
100
AcDbEntity
  8
STEMPEL
100
AcDbLine
 10
202.7624828313079
 20
138.4313401944413
 30
0.0
 11
203.1999261489375
 21
133.4313401944413
 31
0.0
  0
LINE
  5
456
330
1E
100
AcDbEntity
  8
HILF
100
AcDbLine
 10
271.2567530749923
 20
138.4313401944413
 30
0.0
 11
204.2682125876229
 21
138.4313401944413
 31
0.0
  0
LINE
  5
457
330
1E
100
AcDbEntity
  8
STEMPEL
100
AcDbLine
 10
273.7375816308784
 20
133.4300456407139
 30
0.0
 11
201.7873840317368
 21
133.4300456407139
 31
0.0
  0
LINE
  5
458
102
{ACAD_REACTORS
330
442
102
}
330
1E
100
AcDbEntity
  8
STEMPEL
100
AcDbLine
 10
273.8307692699926
 20
133.4313401944413
 30
0.0
 11
201.6941963926227
 21
133.4313401944413
 31
0.0
  0
LINE
  5
459
102
{ACAD_REACTORS
330
442
102
}
330
1E
100
AcDbEntity
  8
STEMPEL
  6
Continuous
100
AcDbLine
 10
274.2624828313101
 20
410.7389520390165
 30
0.0
 11
274.2624828313079
 21
138.3658487800881
 31
0.0
  0
LINE
  5
45A
102
{ACAD_REACTORS
330
442
102
}
330
1E
100
AcDbEntity
  8
STEMPEL
  6
Continuous
100
AcDbLine
 10
272.7624828313103
 20
410.7389520390162
 30
0.0
 11
272.7624828313079
 21
138.4313401944475
 31
0.0
  0
LINE
  5
45B
102
{ACAD_REACTORS
330
442
102
}
330
1E
100
AcDbEntity
  8
STEMPEL
  6
Continuous
100
AcDbLine
 10
201.2624828313097
 20
410.7389520390162
 30
0.0
 11
201.2624828313081
 21
138.3658487800789
 31
0.0
  0
LINE
  5
45C
102
{ACAD_REACTORS
330
442
102
}
330
1E
100
AcDbEntity
  8
STEMPEL
  6
Continuous
100
AcDbLine
 10
202.7624828313098
 20
410.7389520390162
 30
0.0
 11
202.7624828313079
 21
138.4313401944413
 31
0.0
  0
LINE
  5
45D
330
1E
100
AcDbEntity
  8
STEMPEL
100
AcDbLine
 10
291.8335506431734
 20
429.6739808815607
 30
0.0
 11
281.6766963936806
 21
419.5171266320691
 31
0.0
  0
ARC
  5
45E
330
1E
100
AcDbEntity
  8
STEMPEL
100
AcDbCircle
 10
296.0761913302923
 20
425.4313401944411
 30
0.0
 40
6.0
100
AcDbArc
 50
90.0
 51
134.9999999999985
  0
ARC
  5
45F
330
1E
100
AcDbEntity
  8
STEMPEL
100
AcDbCircle
 10
296.0761913302923
 20
425.4313401944411
 30
0.0
 40
8.0
100
AcDbArc
 50
90.0
 51
134.9999999999985
  0
LINE
  5
460
102
{ACAD_REACTORS
330
442
102
}
330
1E
100
AcDbEntity
  8
STEMPEL
100
AcDbLine
 10
290.4193370808003
 20
431.0881944439337
 30
0.0
 11
274.6662887535935
 21
415.3351461167289
 31
0.0
  0
ARC
  5
461
330
1E
100
AcDbEntity
  8
STEMPEL
100
AcDbCircle
 10
179.448774332323
 20
425.4313401944411
 30
0.0
 40
8.0
100
AcDbArc
 50
45.00000000000143
 51
90.0
  0
ARC
  5
462
330
1E
100
AcDbEntity
  8
STEMPEL
100
AcDbCircle
 10
179.448774332323
 20
425.4313401944411
 30
0.0
 40
6.0
100
AcDbArc
 50
45.00000000000143
 51
90.0
  0
LINE
  5
463
330
1E
100
AcDbEntity
  8
STEMPEL
100
AcDbLine
 10
354.0449684100356
 20
431.4313401944415
 30
0.0
 11
296.0761913302923
 21
431.4313401944411
 31
0.0
  0
LINE
  5
464
330
1E
100
AcDbEntity
  8
STEMPEL
100
AcDbLine
 10
121.4799972525796
 20
431.4313401944415
 30
0.0
 11
179.448774332323
 21
431.4313401944411
 31
0.0
  0
LINE
  5
465
330
1E
100
AcDbEntity
  8
STEMPEL
100
AcDbLine
 10
360.2624828313079
 20
429.4920003662206
 30
0.0
 11
358.848269268935
 21
428.0777868038473
 31
0.0
  0
LINE
  5
466
330
1E
100
AcDbEntity
  8
STEMPEL
100
AcDbLine
 10
360.2624828313079
 20
429.4920003662206
 30
0.0
 11
357.9340557065619
 21
431.8204274909668
 31
0.0
  0
ARC
  5
467
330
1E
100
AcDbEntity
  8
STEMPEL
100
AcDbCircle
 10
354.0449684100356
 20
427.9313401944409
 30
0.0
 40
3.499999999999851
100
AcDbArc
 50
45.00000000000029
 51
90.0
  0
LINE
  5
468
330
1E
100
AcDbEntity
  8
STEMPEL
100
AcDbLine
 10
358.8482692689348
 20
428.0777868038476
 30
0.0
 11
356.5198421441888
 21
430.4062139285938
 31
0.0
  0
ARC
  5
469
330
1E
100
AcDbEntity
  8
STEMPEL
100
AcDbCircle
 10
354.0449684100356
 20
427.9313401944409
 30
0.0
 40
5.499999999999851
100
AcDbArc
 50
45.00000000000029
 51
90.0
  0
LINE
  5
46A
330
1E
100
AcDbEntity
  8
STEMPEL
100
AcDbLine
 10
290.2373565654601
 20
428.0777868038473
 30
0.0
 11
358.8482692689348
 21
428.0777868038473
 31
0.0
  0
LINE
  5
46B
102
{ACAD_REACTORS
330
442
102
}
330
1E
100
AcDbEntity
  8
STEMPEL
100
AcDbLine
 10
185.1056285818152
 20
431.0881944439337
 30
0.0
 11
200.858676909022
 21
415.3351461167291
 31
0.0
  0
LINE
  5
46C
330
1E
100
AcDbEntity
  8
STEMPEL
100
AcDbLine
 10
183.6914150194421
 20
429.6739808815607
 30
0.0
 11
193.8360029837307
 21
419.5293929172732
 31
0.0
  0
LINE
  5
46D
330
1E
100
AcDbEntity
  8
STEMPEL
100
AcDbLine
 10
116.6766963936805
 20
428.0777868038476
 30
0.0
 11
119.0051235184265
 21
430.4062139285938
 31
0.0
  0
ARC
  5
46E
330
1E
100
AcDbEntity
  8
STEMPEL
100
AcDbCircle
 10
121.4799972525796
 20
427.9313401944409
 30
0.0
 40
5.499999999999851
100
AcDbArc
 50
90.0
 51
134.9999999999997
  0
ARC
  5
46F
330
1E
100
AcDbEntity
  8
STEMPEL
100
AcDbCircle
 10
121.4799972525796
 20
427.9313401944409
 30
0.0
 40
3.499999999999851
100
AcDbArc
 50
90.0
 51
134.9999999999997
  0
LINE
  5
470
330
1E
100
AcDbEntity
  8
STEMPEL
100
AcDbLine
 10
115.2624828313074
 20
429.4920003662206
 30
0.0
 11
116.6766963936803
 21
428.0777868038473
 31
0.0
  0
LINE
  5
471
330
1E
100
AcDbEntity
  8
STEMPEL
100
AcDbLine
 10
115.2624828313074
 20
429.4920003662206
 30
0.0
 11
117.5909099560534
 21
431.8204274909668
 31
0.0
  0
LINE
  5
472
330
1E
100
AcDbEntity
  8
STEMPEL
100
AcDbLine
 10
185.2876090971554
 20
428.0777868038473
 30
0.0
 11
116.6766963936805
 21
428.0777868038473
 31
0.0
  0
LINE
  5
473
330
1E
100
AcDbEntity
  8
STEMPEL
100
AcDbLine
 10
121.47999725258
 20
433.4313401944413
 30
0.0
 11
354.0449684100356
 21
433.4313401944411
 31
0.0
  0
DIMENSION
  5
474
330
1E
100
AcDbEntity
  8
BEM
100
AcDbDimension
  2
*D6
 10
95.27782811459776
 20
433.4313401944412
 30
0.0
 11
88.77782811459766
 21
283.4306929175776
 31
0.0
 70
    32
 71
     5
 42
300.0012945537275
  3
Standard
100
AcDbAlignedDimension
 13
201.7873840317368
 23
133.4300456407138
 33
0.0
 14
115.2624828313076
 24
433.4313401944412
 34
0.0
 50
90.0
100
AcDbRotatedDimension
1001
ACAD
1000
DSTYLE
1002
{
1070
    40
1040
2.0
1070
    41
1040
3.5
1070
    42
1040
1.0
1070
    43
1040
7.0
1070
    44
1040
1.0
1070
    73
1070
     0
1070
    74
1070
     0
1070
    77
1070
     1
1070
    78
1070
     8
1070
    79
1070
     2
1070
   140
1040
3.5
1070
   141
1040
1.5
1070
   146
1040
0.5142857142857144
1070
   147
1040
1.5
1070
   172
1070
     1
1070
   178
1070
     1
1070
   179
1070
     2
1070
   271
1070
     2
1070
   272
1070
     2
1070
   284
1070
     8
1070
   285
1070
     8
1070
   286
1070
     8
1002
}
  0
LINE
  5
475
330
1E
100
AcDbEntity
  8
STEMPEL
100
AcDbLine
 10
121.4799972525799
 20
433.4313401944413
 30
0.0
 11
354.0449684100356
 21
433.4313401944411
 31
0.0
  0
LINE
  5
476
330
1E
100
AcDbEntity
  8
STEMPEL
100
AcDbLine
 10
152.1826733073468
 20
459.4313401944408
 30
0.0
 11
152.2079032139749
 21
457.9859198117737
 31
0.0
  0
LINE
  5
477
330
1E
100
AcDbEntity
  8
STEMPEL
100
AcDbLine
 10
142.7960946318937
 20
459.4313401944417
 30
0.0
 11
142.7960946318937
 21
457.4649519950268
 31
0.0
  0
LINE
  5
47E
330
1E
100
AcDbEntity
  8
STEMPEL
100
AcDbLine
 10
314.1624828313076
 20
457.4313401944415
 30
0.0
 11
314.1624828313076
 21
455.431340194442
 31
0.0
  0
LINE
  5
47F
330
1E
100
AcDbEntity
  8
STEMPEL
100
AcDbLine
 10
313.1624828313076
 20
458.4313401944417
 30
0.0
 11
305.1624828313076
 21
458.4313401944417
 31
0.0
  0
LINE
  5
480
330
1E
100
AcDbEntity
  8
HILF
100
AcDbLine
 10
305.1624828313076
 20
458.4313401944416
 30
0.0
 11
305.1624828313076
 21
455.4313401944421
 31
0.0
  0
LINE
  5
481
330
1E
100
AcDbEntity
  8
HILF
100
AcDbLine
 10
313.1624828313076
 20
458.4313401944417
 30
0.0
 11
313.1624828313077
 21
455.4313401944421
 31
0.0
  0
LINE
  5
487
330
1E
100
AcDbEntity
  8
STEMPEL
100
AcDbLine
 10
304.1624828313076
 20
457.4313401944417
 30
0.0
 11
304.1624828313076
 21
455.4313401944421
 31
0.0
  0
LINE
  5
488
330
1E
100
AcDbEntity
  8
STEMPEL
100
AcDbLine
 10
305.1624828313076
 20
458.4313401944417
 30
0.0
 11
304.1624828313076
 21
457.4313401944417
 31
0.0
  0
LINE
  5
48D
330
1E
100
AcDbEntity
  8
STEMPEL
100
AcDbLine
 10
304.1624828313076
 20
457.4313401944417
 30
0.0
 11
314.1624828313074
 21
457.4313401944417
 31
0.0
  0
LINE
  5
48E
330
1E
100
AcDbEntity
  8
STEMPEL
100
AcDbLine
 10
314.1624828313076
 20
457.4313401944417
 30
0.0
 11
313.1624828313076
 21
458.4313401944417
 31
0.0
  0
LINE
  5
48F
330
1E
100
AcDbEntity
  8
STEMPEL
100
AcDbLine
 10
314.1624828313077
 20
439.4313401944413
 30
0.0
 11
314.1624828313078
 21
436.4313401944417
 31
0.0
  0
LINE
  5
490
330
1E
100
AcDbEntity
  8
HILF
100
AcDbLine
 10
313.1624828313078
 20
439.4313401944413
 30
0.0
 11
313.1624828313078
 21
436.4313401944417
 31
0.0
  0
LINE
  5
491
330
1E
100
AcDbEntity
  8
HILF
100
AcDbLine
 10
305.162482831308
 20
439.4313401944414
 30
0.0
 11
305.1624828313078
 21
436.4313401944417
 31
0.0
  0
LINE
  5
492
330
1E
100
AcDbEntity
  8
STEMPEL
100
AcDbLine
 10
304.1624828313079
 20
439.4313401944413
 30
0.0
 11
304.1624828313079
 21
436.4313401944417
 31
0.0
  0
LWPOLYLINE
  5
493
330
1E
100
AcDbEntity
  8
STEMPEL
100
AcDbPolyline
 90
       10
 70
   128
 43
0.0
 10
-313.5729682174198
 20
459.4313401944438
 10
-312.9369638574189
 20
459.5224936763705
 10
-312.3202841680627
 20
459.7931844697283
 10
-311.7416666496577
 20
460.2351877717372
 10
-311.2186923027059
 20
460.83507353573
 10
-310.7672514381014
 20
461.5746145363247
 10
-310.4010608580754
 20
462.431340194444
 10
-310.1312470781004
 20
463.37921933449
 10
-309.9660082533488
 20
464.3894511284425
 10
-309.9103650818957
 20
465.4313401944442
210
0.0
220
0.0
230
-1.0
  0
LWPOLYLINE
  5
494
330
1E
100
AcDbEntity
  8
STEMPEL
100
AcDbPolyline
 90
       10
 70
   128
 43
0.0
 10
186.4974088913611
 20
459.4313401944438
 10
186.9701388491147
 20
459.5224936763705
 10
187.4285051463149
 20
459.7931844697283
 10
187.8585805549656
 20
460.2351877717372
 10
188.2472974514039
 20
460.83507353573
 10
188.5828448694315
 20
461.5746145363247
 10
188.8550273705471
 20
462.431340194444
 10
189.0555748271852
 20
463.37921933449
 10
189.1783937063576
 20
464.3894511284425
 10
189.2197522185701
 20
465.4313401944442
  0
LWPOLYLINE
  5
495
330
1E
100
AcDbEntity
  8
STEMPEL
100
AcDbPolyline
 90
        8
 70
   128
 43
0.0
 10
143.4906207853705
 20
459.4313401944419
 10
144.7443548009334
 20
460.2351877717354
 10
145.3674379749797
 20
460.8350735357283
 10
145.9052945800912
 20
461.574614536323
 10
146.3415821154902
 20
462.4313401944422
 10
146.6630442051854
 20
463.3792193344882
 10
146.8599133862495
 20
464.3894511284408
 10
146.9262078882363
 20
465.4313401944425
  0
LINE
  5
496
330
1E
100
AcDbEntity
  8
STEMPEL
100
AcDbLine
 10
144.9480923814417
 20
460.4313401944426
 30
0.0
 11
153.3108316080292
 21
460.4313401944426
 31
0.0
  0
LINE
  5
499
330
1E
100
AcDbEntity
  8
STEMPEL
100
AcDbLine
 10
197.7624828313075
 20
457.4313401944412
 30
0.0
 11
196.7624828313075
 21
458.4313401944412
 31
0.0
  0
LINE
  5
49B
330
1E
100
AcDbEntity
  8
STEMPEL
100
AcDbLine
 10
197.7624828313075
 20
457.4313401944412
 30
0.0
 11
197.7624828313075
 21
455.4313401944419
 31
0.0
  0
LINE
  5
49C
330
1E
100
AcDbEntity
  8
HILF
100
AcDbLine
 10
196.7624828313075
 20
458.4313401944412
 30
0.0
 11
196.7624828313075
 21
455.4313401944419
 31
0.0
  0
LINE
  5
49F
330
1E
100
AcDbEntity
  8
STEMPEL
100
AcDbLine
 10
188.7624828313075
 20
458.4313401944412
 30
0.0
 11
187.7624828313075
 21
457.4313401944412
 31
0.0
  0
LINE
  5
4A1
330
1E
100
AcDbEntity
  8
HILF
100
AcDbLine
 10
188.7624828313075
 20
458.4313401944412
 30
0.0
 11
188.7624828313075
 21
455.4313401944419
 31
0.0
  0
LINE
  5
4A2
330
1E
100
AcDbEntity
  8
STEMPEL
100
AcDbLine
 10
187.7624828313075
 20
457.4313401944412
 30
0.0
 11
187.7624828313075
 21
455.4313401944419
 31
0.0
  0
LINE
  5
4A7
330
1E
100
AcDbEntity
  8
STEMPEL
100
AcDbLine
 10
187.7624828313075
 20
457.4313401944412
 30
0.0
 11
197.7624828313073
 21
457.4313401944412
 31
0.0
  0
LINE
  5
4A8
330
1E
100
AcDbEntity
  8
STEMPEL
100
AcDbLine
 10
196.7624828313075
 20
458.4313401944412
 30
0.0
 11
188.7624828313075
 21
458.4313401944412
 31
0.0
  0
LINE
  5
4B8
330
1E
100
AcDbEntity
  8
STEMPEL
100
AcDbLine
 10
152.7624828313077
 20
445.4313401944419
 30
0.0
 11
152.7624828313077
 21
433.4313401944412
 31
0.0
  0
LINE
  5
4B9
330
1E
100
AcDbEntity
  8
HILF
100
AcDbLine
 10
151.7624828313077
 20
445.4313401944419
 30
0.0
 11
151.7624828313077
 21
433.4313401944412
 31
0.0
  0
LINE
  5
4BA
330
1E
100
AcDbEntity
  8
STEMPEL
100
AcDbLine
 10
142.7624828313077
 20
445.4313401944419
 30
0.0
 11
142.7624828313077
 21
433.4313401944412
 31
0.0
  0
LINE
  5
4BB
330
1E
100
AcDbEntity
  8
HILF
100
AcDbLine
 10
143.7624828313077
 20
445.4313401944419
 30
0.0
 11
143.7624828313077
 21
433.4313401944412
 31
0.0
  0
LINE
  5
4BF
330
1E
100
AcDbEntity
  8
STEMPEL
100
AcDbLine
 10
125.7624828313075
 20
445.4313401944419
 30
0.0
 11
346.6046256067343
 21
445.4313401944421
 31
0.0
  0
LINE
  5
4C0
330
1E
100
AcDbEntity
  8
STEMPEL
100
AcDbLine
 10
154.2624828313076
 20
445.431340194442
 30
0.0
 11
154.2624828313076
 21
439.4313401944414
 31
0.0
  0
LINE
  5
4C1
330
1E
100
AcDbEntity
  8
STEMPEL
100
AcDbLine
 10
141.2624828313076
 20
445.4313401944419
 30
0.0
 11
141.2624828313076
 21
439.4313401944414
 31
0.0
  0
LINE
  5
4C2
330
1E
100
AcDbEntity
  8
HILF
100
AcDbLine
 10
196.7624828313077
 20
439.4313401944413
 30
0.0
 11
196.7624828313077
 21
436.4313401944413
 31
0.0
  0
LINE
  5
4C3
330
1E
100
AcDbEntity
  8
STEMPEL
100
AcDbLine
 10
197.7624828313077
 20
439.4313401944413
 30
0.0
 11
197.7624828313077
 21
436.4313401944413
 31
0.0
  0
LINE
  5
4C4
330
1E
100
AcDbEntity
  8
HILF
100
AcDbLine
 10
188.7624828313077
 20
439.4313401944414
 30
0.0
 11
188.7624828313077
 21
436.4313401944412
 31
0.0
  0
LINE
  5
4C5
330
1E
100
AcDbEntity
  8
STEMPEL
100
AcDbLine
 10
187.7624828313077
 20
439.4313401944414
 30
0.0
 11
187.7624828313077
 21
436.4313401944413
 31
0.0
  0
LINE
  5
4C6
330
1E
100
AcDbEntity
  8
STEMPEL
100
AcDbLine
 10
152.7624828313077
 20
457.4313401944412
 30
0.0
 11
151.7624828313077
 21
458.4313401944412
 31
0.0
  0
LINE
  5
4C7
330
1E
100
AcDbEntity
  8
STEMPEL
100
AcDbLine
 10
143.7624828313077
 20
458.4313401944412
 30
0.0
 11
142.7624828313077
 21
457.4313401944412
 31
0.0
  0
LINE
  5
4C8
330
1E
100
AcDbEntity
  8
STEMPEL
100
AcDbLine
 10
151.7624828313077
 20
458.4313401944412
 30
0.0
 11
143.7624828313077
 21
458.4313401944412
 31
0.0
  0
LINE
  5
4C9
330
1E
100
AcDbEntity
  8
STEMPEL
100
AcDbLine
 10
142.7624828313077
 20
457.4313401944412
 30
0.0
 11
152.7624828313075
 21
457.4313401944412
 31
0.0
  0
LINE
  5
4CA
330
1E
100
AcDbEntity
  8
MITTEL
100
AcDbLine
 10
147.7624828313077
 20
463.4313401944412
 30
0.0
 11
147.7624828313077
 21
428.4313401944409
 31
0.0
  0
LINE
  5
4CB
330
1E
100
AcDbEntity
  8
HILF
100
AcDbLine
 10
143.7624828313077
 20
458.4313401944412
 30
0.0
 11
143.7624828313077
 21
455.4313401944418
 31
0.0
  0
LINE
  5
4CC
330
1E
100
AcDbEntity
  8
STEMPEL
100
AcDbLine
 10
142.7624828313077
 20
457.4313401944412
 30
0.0
 11
142.7624828313077
 21
455.4313401944419
 31
0.0
  0
LINE
  5
4CD
330
1E
100
AcDbEntity
  8
HILF
100
AcDbLine
 10
151.7624828313077
 20
458.4313401944412
 30
0.0
 11
151.7624828313078
 21
455.4313401944419
 31
0.0
  0
LINE
  5
4CE
330
1E
100
AcDbEntity
  8
STEMPEL
100
AcDbLine
 10
152.7624828313077
 20
457.4313401944412
 30
0.0
 11
152.7624828313077
 21
455.4313401944418
 31
0.0
  0
LINE
  5
4CF
330
1E
100
AcDbEntity
  8
MITTEL
100
AcDbLine
 10
192.7624828313075
 20
463.4313401944411
 30
0.0
 11
192.7624828313075
 21
428.4313401944408
 31
0.0
  0
INSERT
  5
4D0
330
1E
100
AcDbEntity
  8
SCHRAFF
  6
Continuous
100
AcDbBlockReference
  2
*X1
 10
3.27796645663011
 20
30.90313028628316
 30
0.0
1001
ACAD
1000
HATCH
1002
{
1070
    19
1000
ANSI31
1040
20.0
1040
0.0
1000
R14_HATCH_DATA
1000
B81
1011
4.27796645663011
1021
30.90313028628316
1031
0.0
1011
3.27796645663011
1021
31.90313028628316
1031
0.0
1011
3.27796645663011
1021
30.90313028628316
1031
1.0
1040
0.0
1010
0.0
1020
0.0
1030
1.0
1000
ANSI31
1070
     0
1070
     0
1071
        4
1071
        7
1070
     1
1070
     1
1071
       16
1040
125.4845163746777
1040
498.5281519408439
1040
-0.2667503951500901
1040
127.9651628065506
1040
502.8470473550401
1040
0.0
1040
151.9440166994974
1040
516.8347005212232
1040
-0.1340385084115534
1040
154.4845163746775
1040
517.5282099081588
1040
0.0
1040
181.3903590825795
1040
517.5282099081589
1040
0.0
1040
181.1206783245243
1040
518.5282099081589
1040
0.0
1040
154.4845163746775
1040
518.5282099081588
1040
0.1316524975839352
1040
151.4845163747482
1040
517.7243623309065
1040
0.0
1040
127.4518217529799
1040
503.7052904682087
1040
0.2662608607108822
1040
124.4845163746776
1040
498.5281519408439
1040
0.0
1040
124.4845163746776
1040
434.5282099081599
1040
-0.4142135623730909
1040
119.4845163746777
1040
429.5282099081599
1040
0.0
1040
104.4845163746775
1040
429.5282099081595
1040
0.0
1040
104.4845163746774
1040
428.5282099081594
1040
0.0
1040
119.4845163746777
1040
428.5282099081594
1040
0.4142135623730952
1040
125.4845163746777
1040
434.5282099081594
1040
0.0
1071
        0
1071
        7
1070
     1
1070
     1
1071
       32
1040
211.3879420564882
1040
518.7782099081592
1040
-0.2679491924311204
1040
211.8209547583804
1040
519.0282099081591
1040
0.0
1040
212.0209547583806
1040
519.0282099081591
1040
-0.2679491924312903
1040
212.4539674602732
1040
518.7782099081593
1040
0.2679491924311428
1040
214.6190309697343
1040
517.5282099081591
1040
0.0
1040
216.6778785470267
1040
517.5282099081591
1040
0.2679491924311518
1040
218.8429420564879
1040
518.7782099081593
1040
-0.2679491924310846
1040
219.2759547583801
1040
519.0282099081592
1040
0.0
1040
219.4759547583805
1040
519.0282099081592
1040
-0.2679491924309635
1040
219.9089674602724
1040
518.7782099081592
1040
0.267949192431125
1040
222.0740309697335
1040
517.5282099081591
1040
0.0
1040
228.5278785470276
1040
517.5282099081591
1040
0.2679491924310967
1040
230.6929420564886
1040
518.778209908159
1040
-0.2679491924312205
1040
231.1259547583809
1040
519.0282099081592
1040
0.0
1040
234.4845163746775
1040
519.0282099081592
1040
0.0
1040
234.4845163746775
1040
520.0282099081591
1040
0.0
1040
231.1259547583804
1040
520.0282099081591
1040
0.2679491924310706
1040
229.826916652704
1040
519.2782099081592
1040
-0.2679491924311248
1040
228.5278785470274
1040
518.5282099081591
1040
0.0
1040
222.0740309697335
1040
518.5282099081591
1040
-0.2679491924310946
1040
220.774992864057
1040
519.2782099081592
1040
0.2859076546238937
1040
219.3759547583801
1040
520.0248728628687
1040
0.2859076546238273
1040
217.9769166527036
1040
519.2782099081592
1040
-0.2679491924311237
1040
216.677878547027
1040
518.5282099081591
1040
0.0
1040
214.6190309697344
1040
518.5282099081591
1040
-0.2679491924311664
1040
213.3199928640575
1040
519.2782099081592
1040
0.2859076546239339
1040
211.9209547583805
1040
520.0248728628687
1040
0.2859076546238759
1040
210.5219166527038
1040
519.2782099081592
1040
-0.2679491924311312
1040
209.2228785470271
1040
518.528209908159
1040
0.0
1040
181.1206783245243
1040
518.5282099081588
1040
0.0
1040
181.3903590825796
1040
517.5282099081589
1040
0.0
1040
209.222878547027
1040
517.5282099081591
1040
0.267949192431136
1071
        0
1071
        7
1070
     1
1070
     1
1071
       44
1040
314.484516374678
1040
518.5282099081595
1040
0.0
1040
259.9240309697345
1040
518.5282099081592
1040
-0.2679491924312094
1040
258.6249928640574
1040
519.2782099081592
1040
0.285907654623908
1040
257.2259547583804
1040
520.0248728628687
1040
0.2859076546237761
1040
255.8269166527042
1040
519.2782099081592
1040
-0.2679491924311255
1040
254.5278785470276
1040
518.5282099081591
1040
0.0
1040
248.0740309697341
1040
518.5282099081591
1040
-0.2679491924311383
1040
246.7749928640573
1040
519.2782099081592
1040
0.2859076546238221
1040
245.3759547583809
1040
520.0248728628687
1040
0.3607372083888694
1040
243.8235860035526
1040
518.9032099081591
1040
-0.3419987131196436
1040
243.3394630852767
1040
518.5282099081591
1040
0.0
1040
243.1507138926773
1040
518.5282099081591
1040
-0.3419987131194885
1040
242.6665909744016
1040
518.9032099081591
1040
0.3419987131196458
1040
241.2142222195738
1040
520.0282099081591
1040
0.0
1040
234.4845163746775
1040
520.0282099081591
1040
0.0
1040
234.4845163746775
1040
519.0282099081592
1040
0.0
1040
241.214222219574
1040
519.0282099081592
1040
-0.3419987131195311
1040
241.6983451378496
1040
518.6532099081591
1040
0.3596757619904443
1040
243.2450884889767
1040
517.5311817068304
1040
0.359675761990552
1040
244.7918318401043
1040
518.6532099081591
1040
-0.3419987131196961
1040
245.2759547583802
1040
519.0282099081592
1040
0.0
1040
245.4759547583805
1040
519.0282099081592
1040
-0.267949192431149
1040
245.9089674602728
1040
518.7782099081593
1040
0.2679491924311277
1040
248.0740309697339
1040
517.5282099081592
1040
0.0
1040
254.5278785470281
1040
517.5282099081592
1040
0.2679491924310553
1040
256.6929420564888
1040
518.7782099081588
1040
-0.2679491924313444
1040
257.1259547583812
1040
519.0282099081591
1040
0.0
1040
257.3259547583804
1040
519.0282099081591
1040
-0.2679491924313275
1040
257.7589674602732
1040
518.7782099081593
1040
0.2679491924311476
1040
259.9240309697344
1040
517.5282099081592
1040
0.0
1040
314.4845163746779
1040
517.5282099081595
1040
-0.1340385084117589
1040
317.0250160498613
1040
516.8347005212212
1040
0.0
1040
341.0038699428049
1040
502.8470473550401
1040
-0.2667503951500871
1040
343.4845163746778
1040
498.528151940844
1040
0.0
1040
343.4845163746778
1040
434.5282099081599
1040
0.4142135623731166
1040
349.4845163746778
1040
428.5282099081594
1040
0.0
1040
352.4845163746777
1040
428.5282099081594
1040
0.0
1040
352.4845163746777
1040
429.5282099081599
1040
0.0
1040
350.4845163746775
1040
429.52820990816
1040
0.0
1040
349.484516374678
1040
429.5282099081599
1040
-0.4142135623731052
1040
344.4845163746779
1040
434.5282099081599
1040
0.0
1040
344.4845163746779
1040
498.5281519408439
1040
0.2662608607095104
1040
341.5172109964022
1040
503.7052904681933
1040
0.0
1040
317.4845163746013
1040
517.7243623309099
1040
0.1316524975836475
1071
        0
1071
        7
1070
     0
1070
     1
1071
        4
1040
364.4845163746775
1040
429.5282099081595
1040
360.4845163746777
1040
429.5282099081595
1040
360.4845163746776
1040
428.5282099081594
1040
364.4845163746776
1040
428.5282099081594
1071
        0
1070
     0
1070
     1
1040
0.0
1040
20.0
1070
     0
1070
     1
1040
0.7853981633974483
1040
0.0
1040
0.0
1040
-1.767766952966368
1040
1.767766952966368
1070
     0
1040
0.4109460669167521
1071
        4
1040
125.1226099263463
1040
464.822119640487
1040
0.0
1040
195.8618845685205
1040
517.8341632954173
1040
0.0
1040
271.5364586384376
1040
517.8341632954173
1040
0.0
1040
362.0169260900188
1040
429.0698116436324
1040
0.0
1002
}
  0
LINE
  5
4D8
330
1E
100
AcDbEntity
  8
STEMPEL
100
AcDbLine
 10
137.0887827353791
 20
460.431340194443
 30
0.0
 11
134.9733753157774
 21
460.431340194443
 31
0.0
  0
ARC
  5
4DA
330
1E
100
AcDbEntity
  8
STEMPEL
100
AcDbCircle
 10
341.7624828313079
 20
529.4312822271271
 30
0.0
 40
6.0
100
AcDbArc
 50
0.0
 51
59.74358352518217
  0
ARC
  5
4DB
330
1E
100
AcDbEntity
  8
STEMPEL
100
AcDbCircle
 10
347.2736264356195
 20
538.9511771769044
 30
0.0
 40
5.0
100
AcDbArc
 50
239.7435628364694
 51
239.9329541615142
  0
ARC
  5
4DC
330
1E
100
AcDbEntity
  8
STEMPEL
100
AcDbCircle
 10
341.7624828313079
 20
529.4312822271271
 30
0.0
 40
5.0
100
AcDbArc
 50
0.0
 51
59.74358352518217
  0
ARC
  5
4DD
330
1E
100
AcDbEntity
  8
STEMPEL
100
AcDbCircle
 10
317.762482831308
 20
543.4313401944422
 30
0.0
 40
6.0
100
AcDbArc
 50
90.0
 51
90.0
  0
ARC
  5
4DE
330
1E
100
AcDbEntity
  8
STEMPEL
100
AcDbCircle
 10
317.762482831308
 20
543.4313401944422
 30
0.0
 40
5.0
100
AcDbArc
 50
59.46264995169917
 51
90.0
  0
ARC
  5
4DF
330
1E
100
AcDbEntity
  8
STEMPEL
100
AcDbCircle
 10
317.762482831308
 20
543.4313401944422
 30
0.0
 40
6.0
100
AcDbArc
 50
59.48712567237924
 51
90.0
  0
LINE
  5
4E0
330
1E
100
AcDbEntity
  8
STEMPEL
100
AcDbLine
 10
344.7951774530158
 20
534.608420754486
 30
0.0
 11
320.8088745775489
 21
548.6004307651746
 31
0.0
  0
LINE
  5
4E1
330
1E
100
AcDbEntity
  8
STEMPEL
100
AcDbLine
 10
344.281836399435
 20
533.7501776413233
 30
0.0
 11
320.3029825064839
 21
547.7378308075088
 31
0.0
  0
ARC
  5
4E2
330
1E
100
AcDbEntity
  8
STEMPEL
100
AcDbCircle
 10
260.6039212150105
 20
549.4313401944423
 30
0.0
 40
1.5
100
AcDbArc
 50
29.99999999999246
 51
90.0
  0
ARC
  5
4E3
330
1E
100
AcDbEntity
  8
STEMPEL
100
AcDbCircle
 10
260.6039212150105
 20
549.4313401944423
 30
0.0
 40
0.5
100
AcDbArc
 50
29.99999999999246
 51
90.0
  0
LINE
  5
4E4
330
1E
100
AcDbEntity
  8
STEMPEL
100
AcDbLine
 10
260.4039212150105
 20
549.9313401944423
 30
0.0
 11
260.6039212150105
 21
549.9313401944423
 31
0.0
  0
ARC
  5
4E5
330
1E
100
AcDbEntity
  8
STEMPEL
100
AcDbCircle
 10
260.4039212150105
 20
549.4313401944423
 30
0.0
 40
0.5
100
AcDbArc
 50
90.0
 51
149.9999999999924
  0
ARC
  5
4E6
330
1E
100
AcDbEntity
  8
STEMPEL
100
AcDbCircle
 10
260.4039212150105
 20
549.4313401944423
 30
0.0
 40
1.5
100
AcDbArc
 50
90.0
 51
149.9999999999924
  0
ARC
  5
4E7
330
1E
100
AcDbEntity
  8
STEMPEL
100
AcDbCircle
 10
263.2019974263646
 20
550.9313401944423
 30
0.0
 40
1.5
100
AcDbArc
 50
209.9999999999925
 51
270.0
  0
ARC
  5
4E8
330
1E
100
AcDbEntity
  8
STEMPEL
100
AcDbCircle
 10
263.2019974263646
 20
550.9313401944423
 30
0.0
 40
2.5
100
AcDbArc
 50
209.9999999999925
 51
270.0
  0
LINE
  5
4E9
330
1E
100
AcDbEntity
  8
STEMPEL
100
AcDbLine
 10
251.3519974263641
 20
549.4313401944423
 30
0.0
 11
257.8058450036581
 21
549.4313401944423
 31
0.0
  0
LINE
  5
4EA
330
1E
100
AcDbEntity
  8
STEMPEL
100
AcDbLine
 10
251.3519974263641
 20
549.4313401944424
 30
0.0
 11
257.8058450036581
 21
549.4313401944424
 31
0.0
  0
ARC
  5
4EB
330
1E
100
AcDbEntity
  8
STEMPEL
100
AcDbCircle
 10
248.7539212150106
 20
549.4313401944423
 30
0.0
 40
0.5
100
AcDbArc
 50
29.99999999999973
 51
90.0
  0
LINE
  5
4EC
330
1E
100
AcDbEntity
  8
STEMPEL
100
AcDbLine
 10
248.5539212150106
 20
549.9313401944424
 30
0.0
 11
248.7539212150106
 21
549.9313401944424
 31
0.0
  0
ARC
  5
4ED
330
1E
100
AcDbEntity
  8
STEMPEL
100
AcDbCircle
 10
248.5539212150106
 20
549.4313401944423
 30
0.0
 40
0.5
100
AcDbArc
 50
90.0
 51
165.5224878140701
  0
LINE
  5
4EE
330
1E
100
AcDbEntity
  8
STEMPEL
100
AcDbLine
 10
246.4286803493074
 20
549.4313401944423
 30
0.0
 11
246.6174295419066
 21
549.4313401944423
 31
0.0
  0
ARC
  5
4EF
330
1E
100
AcDbEntity
  8
STEMPEL
100
AcDbCircle
 10
246.6174295419066
 20
549.9313401944423
 30
0.0
 40
0.5
100
AcDbArc
 50
270.0
 51
345.52248781407
  0
ARC
  5
4F0
330
1E
100
AcDbEntity
  8
STEMPEL
100
AcDbCircle
 10
248.5539212150106
 20
549.4313401944423
 30
0.0
 40
1.5
100
AcDbArc
 50
90.0
 51
165.5224878140701
  0
ARC
  5
4F1
330
1E
100
AcDbEntity
  8
STEMPEL
100
AcDbCircle
 10
248.7539212150106
 20
549.4313401944423
 30
0.0
 40
1.5
100
AcDbArc
 50
29.99999999999973
 51
90.0
  0
ARC
  5
4F2
330
1E
100
AcDbEntity
  8
STEMPEL
100
AcDbCircle
 10
244.4921886762041
 20
549.4313401944423
 30
0.0
 40
1.5
100
AcDbArc
 50
14.47751218592996
 51
90.0
  0
ARC
  5
4F3
330
1E
100
AcDbEntity
  8
STEMPEL
100
AcDbCircle
 10
244.4921886762041
 20
549.4313401944423
 30
0.0
 40
0.5
100
AcDbArc
 50
14.47751218592996
 51
90.0
  0
ARC
  5
4F4
330
1E
100
AcDbEntity
  8
STEMPEL
100
AcDbCircle
 10
246.4286803493074
 20
549.9313401944423
 30
0.0
 40
0.5
100
AcDbArc
 50
194.4775121859299
 51
270.0
  0
ARC
  5
4F5
330
1E
100
AcDbEntity
  8
STEMPEL
100
AcDbCircle
 10
251.3519974263641
 20
550.9313401944423
 30
0.0
 40
1.5
100
AcDbArc
 50
209.9999999999997
 51
270.0
  0
ARC
  5
4F6
330
1E
100
AcDbEntity
  8
STEMPEL
100
AcDbCircle
 10
251.3519974263641
 20
550.9313401944423
 30
0.0
 40
2.5
100
AcDbArc
 50
209.9999999999997
 51
270.0
  0
ARC
  5
4F7
330
1E
100
AcDbEntity
  8
STEMPEL
100
AcDbCircle
 10
246.6174295419066
 20
549.9313401944423
 30
0.0
 40
1.5
100
AcDbArc
 50
270.0
 51
345.52248781407
  0
ARC
  5
4F8
330
1E
100
AcDbEntity
  8
STEMPEL
100
AcDbCircle
 10
246.4286803493074
 20
549.9313401944423
 30
0.0
 40
1.5
100
AcDbArc
 50
194.4775121859299
 51
270.0
  0
ARC
  5
4F9
330
1E
100
AcDbEntity
  8
STEMPEL
100
AcDbCircle
 10
257.8058450036581
 20
550.9313401944423
 30
0.0
 40
2.5
100
AcDbArc
 50
270.0
 51
329.9999999999924
  0
ARC
  5
4FA
330
1E
100
AcDbEntity
  8
STEMPEL
100
AcDbCircle
 10
257.8058450036581
 20
550.9313401944423
 30
0.0
 40
1.5
100
AcDbArc
 50
270.0
 51
329.9999999999924
  0
ARC
  5
4FB
330
1E
100
AcDbEntity
  8
STEMPEL
100
AcDbCircle
 10
234.4039212150105
 20
549.4313401944423
 30
0.0
 40
0.5
100
AcDbArc
 50
90.0
 51
149.9999999999928
  0
ARC
  5
4FC
330
1E
100
AcDbEntity
  8
STEMPEL
100
AcDbCircle
 10
231.8058450036578
 20
550.9313401944423
 30
0.0
 40
1.5
100
AcDbArc
 50
270.0
 51
329.9999999999926
  0
ARC
  5
4FD
330
1E
100
AcDbEntity
  8
STEMPEL
100
AcDbCircle
 10
234.4039212150105
 20
549.4313401944423
 30
0.0
 40
1.5
100
AcDbArc
 50
90.0
 51
149.9999999999928
  0
ARC
  5
4FE
330
1E
100
AcDbEntity
  8
STEMPEL
100
AcDbCircle
 10
231.8058450036578
 20
550.9313401944423
 30
0.0
 40
2.5
100
AcDbArc
 50
270.0
 51
329.9999999999926
  0
ARC
  5
4FF
330
1E
100
AcDbEntity
  8
STEMPEL
100
AcDbCircle
 10
222.7539212150106
 20
549.4313401944423
 30
0.0
 40
1.5
100
AcDbArc
 50
30.00000000000014
 51
90.0
  0
ARC
  5
500
330
1E
100
AcDbEntity
  8
STEMPEL
100
AcDbCircle
 10
222.7539212150106
 20
549.4313401944423
 30
0.0
 40
0.5
100
AcDbArc
 50
30.00000000000014
 51
90.0
  0
LINE
  5
501
330
1E
100
AcDbEntity
  8
STEMPEL
100
AcDbLine
 10
222.5539212150106
 20
549.9313401944424
 30
0.0
 11
222.7539212150106
 21
549.9313401944424
 31
0.0
  0
ARC
  5
502
330
1E
100
AcDbEntity
  8
STEMPEL
100
AcDbCircle
 10
222.5539212150106
 20
549.4313401944423
 30
0.0
 40
0.5
100
AcDbArc
 50
90.0
 51
150.0000000000073
  0
ARC
  5
503
330
1E
100
AcDbEntity
  8
STEMPEL
100
AcDbCircle
 10
225.3519974263635
 20
550.9313401944423
 30
0.0
 40
1.5
100
AcDbArc
 50
210.0000000000001
 51
270.0
  0
ARC
  5
504
330
1E
100
AcDbEntity
  8
STEMPEL
100
AcDbCircle
 10
219.9558450036569
 20
550.9313401944423
 30
0.0
 40
1.5
100
AcDbArc
 50
270.0
 51
330.0000000000073
  0
ARC
  5
505
330
1E
100
AcDbEntity
  8
STEMPEL
100
AcDbCircle
 10
222.5539212150106
 20
549.4313401944423
 30
0.0
 40
1.5
100
AcDbArc
 50
90.0
 51
150.0000000000073
  0
ARC
  5
506
330
1E
100
AcDbEntity
  8
STEMPEL
100
AcDbCircle
 10
215.0989212150106
 20
549.4313401944423
 30
0.0
 40
1.5
100
AcDbArc
 50
90.0
 51
150.0
  0
ARC
  5
507
330
1E
100
AcDbEntity
  8
STEMPEL
100
AcDbCircle
 10
215.2989212150107
 20
549.4313401944423
 30
0.0
 40
1.5
100
AcDbArc
 50
29.99999999999266
 51
90.0
  0
ARC
  5
508
330
1E
100
AcDbEntity
  8
STEMPEL
100
AcDbCircle
 10
215.2989212150107
 20
549.4313401944423
 30
0.0
 40
0.5
100
AcDbArc
 50
29.99999999999993
 51
90.0
  0
LINE
  5
509
330
1E
100
AcDbEntity
  8
STEMPEL
100
AcDbLine
 10
215.0989212150106
 20
549.9313401944423
 30
0.0
 11
215.2989212150107
 21
549.9313401944423
 31
0.0
  0
ARC
  5
50A
330
1E
100
AcDbEntity
  8
STEMPEL
100
AcDbCircle
 10
215.0989212150106
 20
549.4313401944423
 30
0.0
 40
0.5
100
AcDbArc
 50
90.0
 51
149.9999999999998
  0
ARC
  5
50B
330
1E
100
AcDbEntity
  8
STEMPEL
100
AcDbCircle
 10
212.5008450036572
 20
550.9313401944423
 30
0.0
 40
1.5
100
AcDbArc
 50
270.0
 51
330.0000000000003
  0
ARC
  5
50C
330
1E
100
AcDbEntity
  8
STEMPEL
100
AcDbCircle
 10
217.8969974263645
 20
550.9313401944423
 30
0.0
 40
1.5
100
AcDbArc
 50
209.9999999999927
 51
270.0
  0
LINE
  5
50D
330
1E
100
AcDbEntity
  8
STEMPEL
100
AcDbLine
 10
217.8969974263645
 20
549.4313401944423
 30
0.0
 11
219.9558450036569
 21
549.4313401944423
 31
0.0
  0
LINE
  5
50E
330
1E
100
AcDbEntity
  8
STEMPEL
100
AcDbLine
 10
217.8969974263645
 20
549.4313401944422
 30
0.0
 11
219.9558450036569
 21
549.4313401944422
 31
0.0
  0
ARC
  5
50F
330
1E
100
AcDbEntity
  8
STEMPEL
100
AcDbCircle
 10
217.8969974263645
 20
550.9313401944423
 30
0.0
 40
2.5
100
AcDbArc
 50
209.9999999999927
 51
270.0
  0
ARC
  5
510
330
1E
100
AcDbEntity
  8
STEMPEL
100
AcDbCircle
 10
212.5008450036572
 20
550.9313401944423
 30
0.0
 40
2.5
100
AcDbArc
 50
270.0
 51
330.0000000000001
  0
ARC
  5
511
330
1E
100
AcDbEntity
  8
STEMPEL
100
AcDbCircle
 10
225.3519974263635
 20
550.9313401944423
 30
0.0
 40
2.5
100
AcDbArc
 50
210.0000000000001
 51
270.0
  0
ARC
  5
512
330
1E
100
AcDbEntity
  8
STEMPEL
100
AcDbCircle
 10
219.9558450036569
 20
550.9313401944423
 30
0.0
 40
2.5
100
AcDbArc
 50
270.0
 51
330.0000000000073
  0
LINE
  5
513
330
1E
100
AcDbEntity
  8
STEMPEL
100
AcDbLine
 10
225.3519974263635
 20
549.4313401944423
 30
0.0
 11
231.8058450036578
 21
549.4313401944423
 31
0.0
  0
LINE
  5
514
330
1E
100
AcDbEntity
  8
STEMPEL
100
AcDbLine
 10
225.3519974263635
 20
549.4313401944423
 30
0.0
 11
231.8058450036578
 21
549.4313401944423
 31
0.0
  0
LINE
  5
515
330
1E
100
AcDbEntity
  8
STEMPEL
100
AcDbLine
 10
215.0989212150106
 20
550.9313401944423
 30
0.0
 11
260.6039212150105
 21
550.9313401944423
 31
0.0
  0
LINE
  5
516
330
1E
100
AcDbEntity
  8
STEMPEL
100
AcDbLine
 10
234.4039212150105
 20
549.9313401944424
 30
0.0
 11
244.4921886762041
 21
549.9313401944424
 31
0.0
  0
ARC
  5
51A
330
1E
100
AcDbEntity
  8
STEMPEL
100
AcDbCircle
 10
157.7624828313077
 20
543.4313401944422
 30
0.0
 40
6.0
100
AcDbArc
 50
90.0
 51
90.0
  0
ARC
  5
51B
330
1E
100
AcDbEntity
  8
STEMPEL
100
AcDbCircle
 10
157.7624828313077
 20
543.4313401944422
 30
0.0
 40
6.0
100
AcDbArc
 50
90.0
 51
120.5128743276207
  0
ARC
  5
51C
330
1E
100
AcDbEntity
  8
STEMPEL
100
AcDbCircle
 10
157.7624828313077
 20
543.4313401944422
 30
0.0
 40
5.0
100
AcDbArc
 50
90.0
 51
120.5373500483008
  0
LINE
  5
51D
330
1E
100
AcDbEntity
  8
STEMPEL
100
AcDbLine
 10
157.7624828313077
 20
549.4313401944419
 30
0.0
 11
212.5008450036572
 21
549.4313401944422
 31
0.0
  0
LINE
  5
51E
330
1E
100
AcDbEntity
  8
STEMPEL
100
AcDbLine
 10
263.2019974263646
 20
549.4313401944424
 30
0.0
 11
317.762482831308
 21
549.4313401944427
 31
0.0
  0
LINE
  5
51F
330
1E
100
AcDbEntity
  8
STEMPEL
100
AcDbLine
 10
157.7624828313077
 20
548.431340194442
 30
0.0
 11
317.762482831308
 21
548.4313401944426
 31
0.0
  0
LWPOLYLINE
  5
521
330
1E
100
AcDbEntity
  8
STEMPEL
100
AcDbPolyline
 90
        7
 70
   128
 43
0.0
 10
346.0707385053915
 20
478.3933942502806
 10
345.9329094958212
 20
477.6412880133421
 10
345.814045218855
 20
476.7185744026273
 10
345.7176972169538
 20
475.6528231527231
 10
345.6467442694157
 20
474.4758778159019
 10
345.6033063774077
 20
473.2229043095001
 10
345.5886814205101
 20
471.9313401944408
  0
LWPOLYLINE
  5
522
330
1E
100
AcDbEntity
  8
STEMPEL
100
AcDbPolyline
 90
       18
 70
   128
 43
0.0
 10
346.5527955902726
 20
471.9313401944408
 10
346.5361271667958
 20
473.3094615780654
 10
346.4866895195354
 20
474.640652690845
 10
346.406166188275
 20
475.8795814160218
 10
346.2972992984833
 20
476.984057521791
 10
346.163796181521
 20
477.9164693990439
 10
346.0102031259169
 20
478.6450648796052
 10
345.8417505589649
 20
479.1450325182385
 10
345.6641749307959
 20
479.3993465166551
 10
345.4835233664489
 20
479.3993465166551
 10
345.30594773828
 20
479.1450325182385
 10
345.1374951713279
 20
478.6450648796052
 10
344.9839021157238
 20
477.9164693990439
 10
344.8503989987615
 20
476.984057521791
 10
344.7415321089698
 20
475.8795814160218
 10
344.6610087777094
 20
474.640652690845
 10
344.611571130449
 20
473.3094615780654
 10
344.5949027069722
 20
471.9313401944408
  0
LWPOLYLINE
  5
523
330
1E
100
AcDbEntity
  8
STEMPEL
100
AcDbPolyline
 90
        9
 70
   128
 43
0.0
 10
338.689709869052
 20
479.333098439106
 10
338.2006493257832
 20
479.0066655413485
 10
337.7410363578822
 20
478.4613965280913
 10
337.325086554258
 20
477.7141562849633
 10
336.9656650249664
 20
476.7880565621857
 10
336.6738884900789
 20
475.7117411402155
 10
336.4587814453408
 20
474.5184998925846
 10
336.3269970392333
 20
473.2452391475088
 10
336.2826112945684
 20
471.9313401944424
  0
LWPOLYLINE
  5
524
330
1E
100
AcDbEntity
  8
STEMPEL
100
AcDbPolyline
 90
       18
 70
   128
 43
0.0
 10
341.0968084435388
 20
471.9313401944408
 10
341.0479390986225
 20
473.3094615780654
 10
340.9029952508025
 20
474.640652690845
 10
340.6669127889752
 20
475.8795814160218
 10
340.3477312182286
 20
476.984057521791
 10
339.9563198841382
 20
477.9164693990439
 10
339.5060078302402
 20
478.6450648796052
 10
339.0121298934408
 20
479.1450325182385
 10
338.4915044945358
 20
479.3993465166551
 10
337.961860907064
 20
479.3993465166551
 10
337.4412355081591
 20
479.1450325182385
 10
336.9473575713596
 20
478.6450648796052
 10
336.4970455174617
 20
477.9164693990439
 10
336.1056341833712
 20
476.984057521791
 10
335.7864526126246
 20
475.8795814160218
 10
335.5503701507974
 20
474.640652690845
 10
335.4054263029774
 20
473.3094615780654
 10
335.356556958061
 20
471.9313401944408
  0
LINE
  5
525
330
1E
100
AcDbEntity
  8
STEMPEL
100
AcDbLine
 10
367.7624828313077
 20
460.4313401944429
 30
0.0
 11
367.7624828313077
 21
459.4313401944426
 31
0.0
  0
LINE
  5
526
330
1E
100
AcDbEntity
  8
STEMPEL
100
AcDbLine
 10
367.7624828313075
 20
459.4313401944419
 30
0.0
 11
368.0227856407928
 21
444.5186022266285
 31
0.0
  0
LINE
  5
52D
330
1E
100
AcDbEntity
  8
STEMPEL
100
AcDbLine
 10
363.7624828313077
 20
460.4313401944426
 30
0.0
 11
363.7624828313077
 21
459.4313401944426
 31
0.0
  0
LINE
  5
533
330
1E
100
AcDbEntity
  8
STEMPEL
100
AcDbLine
 10
355.7624828313077
 20
460.431340194443
 30
0.0
 11
355.7624828313077
 21
459.4313401944426
 31
0.0
  0
LINE
  5
538
330
1E
100
AcDbEntity
  8
STEMPEL
100
AcDbLine
 10
362.1124828313078
 20
446.031340194443
 30
0.0
 11
362.7624828313076
 21
446.6813401944428
 31
0.0
  0
LINE
  5
539
330
1E
100
AcDbEntity
  8
STEMPEL
100
AcDbLine
 10
356.7624828313076
 20
446.6813401944428
 30
0.0
 11
357.4124828313077
 21
446.031340194443
 31
0.0
  0
LINE
  5
53A
330
1E
100
AcDbEntity
  8
STEMPEL
100
AcDbLine
 10
356.7624828313076
 20
446.6813401944428
 30
0.0
 11
362.7624828313076
 21
446.6813401944428
 31
0.0
  0
LINE
  5
53B
330
1E
100
AcDbEntity
  8
STEMPEL
100
AcDbLine
 10
357.4124828313077
 20
446.031340194443
 30
0.0
 11
362.1124828313078
 21
446.031340194443
 31
0.0
  0
LINE
  5
53C
330
1E
100
AcDbEntity
  8
STEMPEL
100
AcDbLine
 10
362.7624828313076
 20
460.4313401944429
 30
0.0
 11
362.7624828313076
 21
446.6813401944428
 31
0.0
  0
LINE
  5
53D
330
1E
100
AcDbEntity
  8
HILF
100
AcDbLine
 10
362.1124828313078
 20
446.031340194443
 30
0.0
 11
362.1124828313078
 21
460.4313401944429
 31
0.0
  0
LINE
  5
53E
330
1E
100
AcDbEntity
  8
STEMPEL
100
AcDbLine
 10
356.7624828313076
 20
460.4313401944429
 30
0.0
 11
356.7624828313076
 21
446.6813401944428
 31
0.0
  0
LINE
  5
53F
330
1E
100
AcDbEntity
  8
HILF
100
AcDbLine
 10
357.4124828313077
 20
446.031340194443
 30
0.0
 11
357.4124828313077
 21
460.4313401944429
 31
0.0
  0
LINE
  5
540
330
1E
100
AcDbEntity
  8
STEMPEL
100
AcDbLine
 10
351.3230393639453
 20
459.4313401944431
 30
0.0
 11
351.164420615154
 21
450.3440781622569
 31
0.0
  0
LINE
  5
541
330
1E
100
AcDbEntity
  8
STEMPEL
100
AcDbLine
 10
351.7624828313075
 20
459.4313401944419
 30
0.0
 11
351.6038640825163
 21
450.3440781622559
 31
0.0
  0
LWPOLYLINE
  5
542
330
1E
100
AcDbEntity
  8
STEMPEL
100
AcDbPolyline
 90
        7
 70
   128
 43
0.0
 10
-348.2091406041809
 20
460.431340194443
 10
-347.5324387291035
 20
461.0409409223022
 10
-346.9328893054695
 20
461.7685000062137
 10
-346.4266006323199
 20
462.594469867894
 10
-346.0271753402742
 20
463.4966588930971
 10
-345.7453449250114
 20
464.4508276612908
 10
-345.5886814205099
 20
465.4313401944431
210
0.0
220
0.0
230
-1.0
  0
LWPOLYLINE
  5
543
330
1E
100
AcDbEntity
  8
STEMPEL
100
AcDbPolyline
 90
       10
 70
   128
 43
0.0
 10
-350.100891438003
 20
459.4313401944426
 10
-349.2428184417302
 20
459.4974674090153
 10
-348.390006242108
 20
459.7500211587455
 10
-347.569247935191
 20
460.1810668750631
 10
-346.8063295687919
 20
460.777062245503
 10
-346.1252200132928
 20
461.5192826772236
 10
-345.5473179233471
 20
462.3844095740211
 10
-345.0907794489408
 20
463.3452629447371
 10
-344.7699478173433
 20
464.3716553264493
 10
-344.5949027069722
 20
465.431340194442
210
0.0
220
0.0
230
-1.0
  0
LINE
  5
544
330
1E
100
AcDbEntity
  8
STEMPEL
100
AcDbLine
 10
349.1732547739433
 20
460.4313401944426
 30
0.0
 11
348.2091406041806
 21
460.4313401944426
 31
0.0
  0
LWPOLYLINE
  5
545
330
1E
100
AcDbEntity
  8
STEMPEL
100
AcDbPolyline
 90
       10
 70
   128
 43
0.0
 10
-340.171921484635
 20
459.4313401944426
 10
-339.3357422097934
 20
459.5224936763694
 10
-338.5249698190908
 20
459.7931844697272
 10
-337.764239221348
 20
460.235187771736
 10
-337.0766648308292
 20
460.8350735357289
 10
-336.4831382474608
 20
461.5746145363236
 10
-336.0016934761396
 20
462.4313401944428
 10
-335.6469589726192
 20
463.3792193344889
 10
-335.429713165285
 20
464.3894511284414
 10
-335.356556958061
 20
465.4313401944431
210
0.0
220
0.0
230
-1.0
  0
LWPOLYLINE
  5
546
330
1E
100
AcDbEntity
  8
STEMPEL
100
AcDbPolyline
 90
        7
 70
   128
 43
0.0
 10
-338.436182927237
 20
460.4313401944426
 10
-337.8160924041727
 20
461.0406780962835
 10
-337.2842722573892
 20
461.7681083695727
 10
-336.855026457658
 20
462.5940658635165
 10
-336.5399001098607
 20
463.4963354139787
 10
-336.3473689328948
 20
464.4506493482219
 10
-336.2826112945684
 20
465.4313401944431
210
0.0
220
0.0
230
-1.0
  0
LWPOLYLINE
  5
547
330
1E
100
AcDbEntity
  8
STEMPEL
100
AcDbPolyline
 90
       10
 70
   128
 43
0.0
 10
-345.9121729701128
 20
459.4313401944426
 10
-345.0759936952711
 20
459.5224936763694
 10
-344.2652213045686
 20
459.7931844697272
 10
-343.5044907068257
 20
460.235187771736
 10
-342.816916316307
 20
460.8350735357289
 10
-342.2233897329385
 20
461.5746145363236
 10
-341.7419449616173
 20
462.4313401944428
 10
-341.387210458097
 20
463.3792193344889
 10
-341.1699646507628
 20
464.3894511284414
 10
-341.0968084435388
 20
465.4313401944431
210
0.0
220
0.0
230
-1.0
  0
LINE
  5
548
330
1E
100
AcDbEntity
  8
STEMPEL
100
AcDbLine
 10
343.2503800762074
 20
460.4313401944426
 30
0.0
 11
338.436182927236
 21
460.4313401944426
 31
0.0
  0
ARC
  5
549
330
1E
100
AcDbEntity
  8
STEMPEL
100
AcDbCircle
 10
346.165182139372
 20
450.4313401944433
 30
0.0
 40
5.0
100
AcDbArc
 50
270.0
 51
358.9999999999982
  0
ARC
  5
54A
330
1E
100
AcDbEntity
  8
STEMPEL
100
AcDbCircle
 10
346.6046256067343
 20
450.4313401944421
 30
0.0
 40
5.0
100
AcDbArc
 50
270.0
 51
358.9999999999982
  0
ARC
  5
54B
330
1E
100
AcDbEntity
  8
STEMPEL
100
AcDbCircle
 10
352.7624828313079
 20
465.4313401944431
 30
0.0
 40
6.0
100
AcDbArc
 50
180.0
 51
269.9999999999984
  0
LWPOLYLINE
  5
54C
330
1E
100
AcDbEntity
  8
STEMPEL
100
AcDbPolyline
 90
       10
 70
   128
 43
0.0
 10
-352.0587843213034
 20
459.4313401944438
 10
-351.2007113250307
 20
459.4974674090164
 10
-350.3478991254084
 20
459.7500211587466
 10
-349.5271408184914
 20
460.1810668750642
 10
-348.7642224520924
 20
460.7770622455041
 10
-348.0831128965933
 20
461.5192826772248
 10
-347.5052108066476
 20
462.3844095740222
 10
-347.0486723322413
 20
463.3452629447383
 10
-346.7278407006438
 20
464.3716553264504
 10
-346.5527955902726
 20
465.4313401944431
210
0.0
220
0.0
230
-1.0
  0
ARC
  5
54D
330
1E
100
AcDbEntity
  8
STEMPEL
100
AcDbCircle
 10
352.7624828313079
 20
465.4313401944431
 30
0.0
 40
5.0
100
AcDbArc
 50
180.0
 51
269.999999999998
  0
LINE
  5
54E
102
{ACAD_REACTORS
330
93E
102
}
330
1E
100
AcDbEntity
  8
STEMPEL
100
AcDbLine
 10
360.2624828313076
 20
436.4313401944412
 30
0.0
 11
360.2624828313076
 21
433.4313401944411
 31
0.0
  0
ARC
  5
550
330
1E
100
AcDbEntity
  8
STEMPEL
100
AcDbCircle
 10
363.0235471650109
 20
444.4313401944421
 30
0.0
 40
5.0
100
AcDbArc
 50
270.0
 51
1.000000000001775
  0
LINE
  5
551
330
1E
100
AcDbEntity
  8
STEMPEL
100
AcDbLine
 10
362.7624828313076
 20
459.4313401944426
 30
0.0
 11
367.7624828313079
 21
459.4313401944426
 31
0.0
  0
LINE
  5
552
330
1E
100
AcDbEntity
  8
STEMPEL
100
AcDbLine
 10
367.7624828313075
 20
460.4313401944426
 30
0.0
 11
352.7624828313076
 21
460.431340194443
 31
0.0
  0
LINE
  5
553
330
1E
100
AcDbEntity
  8
MITTEL
100
AcDbLine
 10
359.7624828313076
 20
472.0313401944429
 30
0.0
 11
359.7624828313076
 21
439.4313401944413
 31
0.0
  0
LINE
  5
554
330
1E
100
AcDbEntity
  8
STEMPEL
100
AcDbLine
 10
345.58868142051
 20
471.9313401944408
 30
0.0
 11
345.58868142051
 21
465.4313401944431
 31
0.0
  0
LINE
  5
555
330
1E
100
AcDbEntity
  8
STEMPEL
100
AcDbLine
 10
344.5949027069722
 20
471.9313401944408
 30
0.0
 11
344.5949027069722
 21
465.431340194442
 31
0.0
  0
LINE
  5
556
330
1E
100
AcDbEntity
  8
STEMPEL
100
AcDbLine
 10
341.0968084435388
 20
471.9313401944408
 30
0.0
 11
341.0968084435388
 21
465.4313401944442
 31
0.0
  0
LINE
  5
557
330
1E
100
AcDbEntity
  8
STEMPEL
100
AcDbLine
 10
346.5527955902726
 20
471.9313401944408
 30
0.0
 11
346.5527955902726
 21
465.4313401944431
 31
0.0
  0
LINE
  5
558
330
1E
100
AcDbEntity
  8
STEMPEL
100
AcDbLine
 10
335.356556958061
 20
471.9313401944408
 30
0.0
 11
335.356556958061
 21
465.4313401944442
 31
0.0
  0
LINE
  5
559
330
1E
100
AcDbEntity
  8
STEMPEL
100
AcDbLine
 10
336.2826112945683
 20
471.9313401944408
 30
0.0
 11
336.2826112945683
 21
465.4313401944442
 31
0.0
  0
LWPOLYLINE
  5
55A
330
1E
100
AcDbEntity
  8
STEMPEL
100
AcDbPolyline
 90
       10
 70
   128
 43
0.0
 10
324.8282679436342
 20
479.431340194444
 10
324.0354405977746
 20
479.3173983420356
 10
323.2667029096288
 20
478.9790348503382
 10
322.5454125848512
 20
478.4265307228271
 10
321.8934856649698
 20
477.676673517836
 10
321.3307306195541
 20
476.7522472670925
 10
320.8742464758912
 20
475.6813401944432
 10
320.5379032736944
 20
474.4964912693855
 10
320.3319206309644
 20
473.2337015269447
 10
320.2625572260683
 20
471.9313401944424
  0
LWPOLYLINE
  5
55B
330
1E
100
AcDbEntity
  8
STEMPEL
100
AcDbPolyline
 90
       18
 70
   128
 43
0.0
 10
328.5987577743792
 20
471.9313401944408
 10
328.5210178731191
 20
473.3094615780654
 10
328.2904455084373
 20
474.640652690845
 10
327.9148925456721
 20
475.8795814160218
 10
327.4071479905444
 20
476.984057521791
 10
326.7845024749064
 20
477.9164693990439
 10
326.0681594450123
 20
478.6450648796052
 10
325.2825131035865
 20
479.1450325182385
 10
324.4543176945071
 20
479.3993465166551
 10
323.6117764191194
 20
479.3993465166551
 10
322.78358101004
 20
479.1450325182385
 10
321.9979346686141
 20
478.6450648796052
 10
321.28159163872
 20
477.9164693990439
 10
320.6589461230821
 20
476.984057521791
 10
320.1512015679544
 20
475.8795814160218
 10
319.7756486051892
 20
474.640652690845
 10
319.5450762405074
 20
473.3094615780654
 10
319.4673363392473
 20
471.9313401944408
  0
LWPOLYLINE
  5
55C
330
1E
100
AcDbEntity
  8
STEMPEL
100
AcDbPolyline
 90
        9
 70
   128
 43
0.0
 10
304.2653122536308
 20
479.4214742722645
 10
303.1489045322597
 20
479.2141671358574
 10
302.0836252805174
 20
478.7449124084036
 10
301.1077902974791
 20
478.030588171235
 10
300.2564982646211
 20
477.0968871278387
 10
299.5603683218847
 20
475.9773924926783
 10
299.0444387631933
 20
474.7123700753395
 10
298.7272664629775
 20
473.3473200061303
 10
298.6202594253893
 20
471.9313401944424
  0
LWPOLYLINE
  5
55D
330
1E
100
AcDbEntity
  8
STEMPEL
100
AcDbPolyline
 90
       18
 70
   128
 43
0.0
 10
309.9103650818958
 20
471.9313401944408
 10
309.8090524700915
 20
473.3094615780654
 10
309.5085647141622
 20
474.640652690845
 10
309.019134564241
 20
475.8795814160218
 10
308.3574289770766
 20
476.984057521791
 10
307.5459815428115
 20
477.9164693990439
 10
306.6124251305958
 20
478.6450648796052
 10
305.5885508843697
 20
479.1450325182385
 10
304.5092256135869
 20
479.3993465166551
 10
303.4112044458358
 20
479.3993465166551
 10
302.3318791750531
 20
479.1450325182385
 10
301.308004928827
 20
478.6450648796052
 10
300.3744485166113
 20
477.9164693990439
 10
299.5630010823461
 20
476.984057521791
 10
298.9012954951817
 20
475.8795814160218
 10
298.4118653452605
 20
474.640652690845
 10
298.1113775893313
 20
473.3094615780654
 10
298.010064977527
 20
471.9313401944408
  0
LWPOLYLINE
  5
55E
330
1E
100
AcDbEntity
  8
STEMPEL
100
AcDbPolyline
 90
       10
 70
   128
 43
0.0
 10
-332.9624639489852
 20
459.4313401944426
 10
-332.204714323891
 20
459.5224936763694
 10
-331.4699885377154
 20
459.7931844697272
 10
-330.7806108616823
 20
460.235187771736
 10
-330.1575276876359
 20
460.8350735357289
 10
-329.6196710825245
 20
461.5746145363236
 10
-329.1833835471255
 20
462.4313401944428
 10
-328.8619214574302
 20
463.3792193344889
 10
-328.6650522763662
 20
464.3894511284414
 10
-328.5987577743794
 20
465.4313401944431
210
0.0
220
0.0
230
-1.0
  0
LWPOLYLINE
  5
55F
330
1E
100
AcDbEntity
  8
STEMPEL
100
AcDbPolyline
 90
        7
 70
   128
 43
0.0
 10
-322.2141340545865
 20
460.4313401944426
 10
-321.6522050813224
 20
461.0406780962835
 10
-321.1702671417352
 20
461.7681083695727
 10
-320.7812825619854
 20
462.5940658635165
 10
-320.495713570879
 20
463.4963354139787
 10
-320.321240905083
 20
464.450649348222
 10
-320.262557226068
 20
465.4313401944431
210
0.0
220
0.0
230
-1.0
  0
LINE
  5
560
330
1E
100
AcDbEntity
  8
STEMPEL
100
AcDbLine
 10
330.5503346028978
 20
460.4313401944426
 30
0.0
 11
322.2141340545858
 21
460.4313401944426
 31
0.0
  0
LWPOLYLINE
  5
561
330
1E
100
AcDbEntity
  8
STEMPEL
100
AcDbPolyline
 90
       10
 70
   128
 43
0.0
 10
-323.8310425138533
 20
459.4313401944426
 10
-323.0732928887591
 20
459.5224936763694
 10
-322.3385671025836
 20
459.7931844697272
 10
-321.6491894265504
 20
460.235187771736
 10
-321.026106252504
 20
460.8350735357289
 10
-320.4882496473926
 20
461.5746145363236
 10
-320.0519621119937
 20
462.4313401944428
 10
-319.7305000222984
 20
463.3792193344889
 10
-319.5336308412344
 20
464.3894511284414
 10
-319.4673363392475
 20
465.4313401944431
210
0.0
220
0.0
230
-1.0
  0
LWPOLYLINE
  5
562
330
1E
100
AcDbEntity
  8
STEMPEL
100
AcDbPolyline
 90
       10
 70
   128
 43
0.0
 10
-301.672668113051
 20
459.4313401944426
 10
-301.0366637530501
 20
459.5224936763694
 10
-300.4199840636939
 20
459.7931844697272
 10
-299.8413665452888
 20
460.235187771736
 10
-299.318392198337
 20
460.8350735357289
 10
-298.8669513337325
 20
461.5746145363236
 10
-298.5007607537065
 20
462.4313401944428
 10
-298.2309469737316
 20
463.3792193344889
 10
-298.0657081489799
 20
464.3894511284414
 10
-298.0100649775268
 20
465.4313401944431
210
0.0
220
0.0
230
-1.0
  0
LWPOLYLINE
  5
563
330
1E
100
AcDbEntity
  8
STEMPEL
100
AcDbPolyline
 90
        7
 70
   128
 43
0.0
 10
-300.2582825014945
 20
460.4313401944426
 10
-299.7866369009277
 20
461.0406780962835
 10
-299.3821304245449
 20
461.7681083695727
 10
-299.0556427820558
 20
462.5940658635165
 10
-298.8159552686476
 20
463.4963354139787
 10
-298.6695145810216
 20
464.450649348222
 10
-298.6202594253892
 20
465.4313401944431
210
0.0
220
0.0
230
-1.0
  0
LINE
  5
564
330
1E
100
AcDbEntity
  8
STEMPEL
100
AcDbLine
 10
311.5706629497457
 20
460.4313401944424
 30
0.0
 11
300.258282501494
 21
460.4313401944426
 31
0.0
  0
LWPOLYLINE
  5
565
330
1E
100
AcDbEntity
  8
STEMPEL
100
AcDbPolyline
 90
       10
 70
   128
 43
0.0
 10
-289.0275567712546
 20
459.4313401944426
 10
-288.5548268135011
 20
459.5224936763694
 10
-288.0964605163009
 20
459.7931844697272
 10
-287.6663851076501
 20
460.235187771736
 10
-287.2776682112118
 20
460.8350735357289
 10
-286.9421207931842
 20
461.5746145363236
 10
-286.6699382920686
 20
462.4313401944428
 10
-286.4693908354305
 20
463.3792193344889
 10
-286.3465719562581
 20
464.3894511284414
 10
-286.3052134440456
 20
465.4313401944431
210
0.0
220
0.0
230
-1.0
  0
LINE
  5
566
330
1E
100
AcDbEntity
  8
STEMPEL
100
AcDbLine
 10
287.5227248767747
 20
460.4313401944426
 30
0.0
 11
274.0481161547803
 21
460.4313401944426
 31
0.0
  0
LINE
  5
567
102
{ACAD_REACTORS
330
93E
102
}
330
1E
100
AcDbEntity
  8
STEMPEL
100
AcDbLine
 10
300.2624828313076
 20
436.4313401944412
 30
0.0
 11
300.2624828313076
 21
433.4313401944411
 31
0.0
  0
ARC
  5
569
330
1E
100
AcDbEntity
  8
STEMPEL
100
AcDbCircle
 10
303.2624828313077
 20
442.4313401944419
 30
0.0
 40
3.0
100
AcDbArc
 50
90.0
 51
270.0
  0
LINE
  5
56A
102
{ACAD_REACTORS
330
93E
102
}
330
1E
100
AcDbEntity
  8
MITTEL
100
AcDbLine
 10
309.1624828313075
 20
463.4313401944411
 30
0.0
 11
309.1624828313077
 21
428.4313401944409
 31
0.0
  0
LINE
  5
56B
330
1E
100
AcDbEntity
  8
STEMPEL
100
AcDbLine
 10
286.3052134440456
 20
471.9313401944408
 30
0.0
 11
286.3052134440456
 21
465.4313401944442
 31
0.0
  0
LINE
  5
56C
330
1E
100
AcDbEntity
  8
STEMPEL
100
AcDbLine
 10
298.0100649775268
 20
471.9313401944408
 30
0.0
 11
298.0100649775268
 21
465.4313401944442
 31
0.0
  0
LINE
  5
56D
330
1E
100
AcDbEntity
  8
STEMPEL
100
AcDbLine
 10
298.6202594253892
 20
471.9313401944408
 30
0.0
 11
298.6202594253892
 21
465.4313401944442
 31
0.0
  0
LINE
  5
56E
330
1E
100
AcDbEntity
  8
STEMPEL
100
AcDbLine
 10
319.4673363392474
 20
471.9313401944408
 30
0.0
 11
319.4673363392474
 21
465.4313401944442
 31
0.0
  0
LINE
  5
56F
330
1E
100
AcDbEntity
  8
STEMPEL
100
AcDbLine
 10
309.9103650818957
 20
471.9313401944408
 30
0.0
 11
309.9103650818957
 21
465.4313401944442
 31
0.0
  0
LINE
  5
570
330
1E
100
AcDbEntity
  8
STEMPEL
100
AcDbLine
 10
328.5987577743793
 20
471.9313401944408
 30
0.0
 11
328.5987577743793
 21
465.4313401944442
 31
0.0
  0
LINE
  5
571
330
1E
100
AcDbEntity
  8
STEMPEL
100
AcDbLine
 10
320.2625572260682
 20
471.9313401944408
 30
0.0
 11
320.2625572260682
 21
465.4313401944442
 31
0.0
  0
LWPOLYLINE
  5
572
330
1E
100
AcDbEntity
  8
STEMPEL
100
AcDbPolyline
 90
        9
 70
   128
 43
0.0
 10
252.0215352000345
 20
479.4310499542156
 10
250.5801952161567
 20
479.2757485602918
 10
249.1961143127071
 20
478.8413483132775
 10
247.9218897001752
 20
478.1443570930023
 10
246.8059438804453
 20
477.2112616415567
 10
245.8906845169923
 20
476.0775210262131
 10
245.2108928782172
 20
474.7862191401438
 10
244.7924020955678
 20
473.3864274479842
 10
244.6511154646739
 20
471.9313401944424
  0
LWPOLYLINE
  5
573
330
1E
100
AcDbEntity
  8
STEMPEL
100
AcDbPolyline
 90
       18
 70
   128
 43
0.0
 10
259.3919549355948
 20
471.9313401944408
 10
259.2653456894185
 20
473.3094615780654
 10
258.8898294769168
 20
474.640652690845
 10
258.2781940523244
 20
475.8795814160218
 10
257.4512679264501
 20
476.984057521791
 10
256.4372110767218
 20
477.9164693990439
 10
255.27055599293
 20
478.6450648796052
 10
253.9910317147048
 20
479.1450325182385
 10
252.6422109067206
 20
479.3993465166551
 10
251.2700260438614
 20
479.3993465166551
 10
249.9212052358773
 20
479.1450325182385
 10
248.641680957652
 20
478.6450648796052
 10
247.4750258738603
 20
477.9164693990439
 10
246.460969024132
 20
476.984057521791
 10
245.6340428982576
 20
475.8795814160218
 10
245.0224074736653
 20
474.640652690845
 10
244.6468912611636
 20
473.3094615780654
 10
244.5202820149873
 20
471.9313401944408
  0
LWPOLYLINE
  5
574
330
1E
100
AcDbEntity
  8
STEMPEL
100
AcDbPolyline
 90
       18
 70
   128
 43
0.0
 10
-216.1330107270209
 20
471.9313401944408
 10
-216.2596199731973
 20
473.3094615780654
 10
-216.635136185699
 20
474.640652690845
 10
-217.2467716102913
 20
475.8795814160218
 10
-218.0736977361657
 20
476.984057521791
 10
-219.0877545858939
 20
477.9164693990439
 10
-220.2544096696857
 20
478.6450648796052
 10
-221.5339339479109
 20
479.1450325182385
 10
-222.882754755895
 20
479.3993465166551
 10
-224.2549396187544
 20
479.3993465166551
 10
-225.6037604267385
 20
479.1450325182385
 10
-226.8832847049637
 20
478.6450648796052
 10
-228.0499397887555
 20
477.9164693990439
 10
-229.0639966384837
 20
476.984057521791
 10
-229.8909227643581
 20
475.8795814160218
 10
-230.5025581889505
 20
474.640652690845
 10
-230.8780744014521
 20
473.3094615780654
 10
-231.0046836476285
 20
471.9313401944408
210
0.0
220
0.0
230
-1.0
  0
LWPOLYLINE
  5
575
330
1E
100
AcDbEntity
  8
STEMPEL
100
AcDbPolyline
 90
        9
 70
   128
 43
0.0
 10
-223.5034304625812
 20
479.4310499542156
 10
-224.944770446459
 20
479.2757485602918
 10
-226.3288513499086
 20
478.8413483132775
 10
-227.6030759624405
 20
478.1443570930023
 10
-228.7190217821704
 20
477.2112616415567
 10
-229.6342811456234
 20
476.0775210262131
 10
-230.3140727843985
 20
474.7862191401438
 10
-230.732563567048
 20
473.3864274479842
 10
-230.8738501979419
 20
471.9313401944424
210
0.0
220
0.0
230
-1.0
  0
LWPOLYLINE
  5
576
330
1E
100
AcDbEntity
  8
STEMPEL
100
AcDbPolyline
 90
       10
 70
   128
 43
0.0
 10
-260.7035296721028
 20
459.4313401944426
 10
-260.4757771092342
 20
459.5224936763694
 10
-260.25494469274
 20
459.7931844697272
 10
-260.0477423038488
 20
460.235187771736
 10
-259.8604656822976
 20
460.8350735357289
 10
-259.6988051334657
 20
461.5746145363236
 10
-259.567672631325
 20
462.4313401944428
 10
-259.4710525705971
 20
463.3792193344889
 10
-259.411880702935
 20
464.3894511284414
 10
-259.3919549355949
 20
465.4313401944431
210
0.0
220
0.0
230
-1.0
  0
LWPOLYLINE
  5
577
330
1E
100
AcDbEntity
  8
STEMPEL
100
AcDbPolyline
 90
        7
 70
   128
 43
0.0
 10
-245.2376899869309
 20
460.4313401944426
 10
-245.0687941411624
 20
461.0406780962835
 10
-244.9239407525898
 20
461.7681083695727
 10
-244.8070258350227
 20
462.5940658635165
 10
-244.721193962005
 20
463.4963354139787
 10
-244.6687536895593
 20
464.450649348222
 10
-244.651115464674
 20
465.4313401944431
210
0.0
220
0.0
230
-1.0
  0
LWPOLYLINE
  5
578
330
1E
100
AcDbEntity
  8
STEMPEL
100
AcDbPolyline
 90
       10
 70
   128
 43
0.0
 10
-245.8318567514952
 20
459.4313401944426
 10
-245.6041041886266
 20
459.5224936763694
 10
-245.3832717721324
 20
459.7931844697272
 10
-245.1760693832412
 20
460.235187771736
 10
-244.98879276169
 20
460.8350735357289
 10
-244.8271322128581
 20
461.5746145363236
 10
-244.6959997107175
 20
462.4313401944428
 10
-244.5993796499895
 20
463.3792193344889
 10
-244.5402077823273
 20
464.3894511284414
 10
-244.5202820149873
 20
465.4313401944431
210
0.0
220
0.0
230
-1.0
  0
LINE
  5
579
330
1E
100
AcDbEntity
  8
STEMPEL
100
AcDbLine
 10
259.978529457852
 20
460.4313401944426
 30
0.0
 11
245.2376899869305
 21
460.4313401944426
 31
0.0
  0
LWPOLYLINE
  5
57A
330
1E
100
AcDbEntity
  8
STEMPEL
100
AcDbPolyline
 90
        7
 70
   128
 43
0.0
 10
230.2872756756848
 20
460.4313401944426
 10
230.4561715214533
 20
461.0406780962835
 10
230.601024910026
 20
461.7681083695727
 10
230.717939827593
 20
462.5940658635165
 10
230.8037717006107
 20
463.4963354139787
 10
230.8562119730564
 20
464.450649348222
 10
230.8738501979417
 20
465.4313401944431
  0
LWPOLYLINE
  5
57B
330
1E
100
AcDbEntity
  8
STEMPEL
100
AcDbPolyline
 90
       10
 70
   128
 43
0.0
 10
229.6931089111205
 20
459.4313401944426
 10
229.9208614739891
 20
459.5224936763694
 10
230.1416938904833
 20
459.7931844697272
 10
230.3488962793745
 20
460.235187771736
 10
230.5361729009257
 20
460.8350735357289
 10
230.6978334497576
 20
461.5746145363236
 10
230.8289659518983
 20
462.4313401944428
 10
230.9255860126262
 20
463.3792193344889
 10
230.9847578802884
 20
464.3894511284414
 10
231.0046836476284
 20
465.4313401944431
  0
LWPOLYLINE
  5
57C
330
1E
100
AcDbEntity
  8
STEMPEL
100
AcDbPolyline
 90
       10
 70
   128
 43
0.0
 10
214.8214359905129
 20
459.4313401944426
 10
215.0491885533815
 20
459.5224936763694
 10
215.2700209698757
 20
459.7931844697272
 10
215.477223358767
 20
460.235187771736
 10
215.6644999803181
 20
460.8350735357289
 10
215.82616052915
 20
461.5746145363236
 10
215.9572930312907
 20
462.4313401944428
 10
216.0539130920186
 20
463.3792193344889
 10
216.1130849596808
 20
464.3894511284414
 10
216.1330107270208
 20
465.4313401944431
  0
LINE
  5
57D
330
1E
100
AcDbEntity
  8
STEMPEL
100
AcDbLine
 10
215.5464362047638
 20
460.4313401944426
 30
0.0
 11
230.2872756756852
 21
460.4313401944426
 31
0.0
  0
LINE
  5
57E
330
1E
100
AcDbEntity
  8
STEMPEL
100
AcDbLine
 10
216.1330107270207
 20
471.9313401944424
 30
0.0
 11
216.1330107270207
 21
465.4313401944442
 31
0.0
  0
LINE
  5
57F
330
1E
100
AcDbEntity
  8
STEMPEL
100
AcDbLine
 10
230.8738501979419
 20
471.9313401944408
 30
0.0
 11
230.8738501979419
 21
465.4313401944442
 31
0.0
  0
LINE
  5
580
330
1E
100
AcDbEntity
  8
STEMPEL
100
AcDbLine
 10
231.0046836476284
 20
471.9313401944392
 30
0.0
 11
231.0046836476284
 21
465.4313401944442
 31
0.0
  0
LINE
  5
581
330
1E
100
AcDbEntity
  8
STEMPEL
100
AcDbLine
 10
244.5202820149873
 20
471.9313401944392
 30
0.0
 11
244.5202820149873
 21
465.4313401944442
 31
0.0
  0
LINE
  5
582
330
1E
100
AcDbEntity
  8
STEMPEL
100
AcDbLine
 10
244.6511154646739
 20
471.9313401944408
 30
0.0
 11
244.6511154646739
 21
465.4313401944442
 31
0.0
  0
LINE
  5
583
330
1E
100
AcDbEntity
  8
STEMPEL
100
AcDbLine
 10
272.4470204563747
 20
471.9313401944392
 30
0.0
 11
272.4470204563747
 21
465.4313401944442
 31
0.0
  0
LINE
  5
584
330
1E
100
AcDbEntity
  8
STEMPEL
100
AcDbLine
 10
272.8306047220517
 20
471.9313401944408
 30
0.0
 11
272.8306047220517
 21
465.4313401944442
 31
0.0
  0
LINE
  5
585
330
1E
100
AcDbEntity
  8
STEMPEL
100
AcDbLine
 10
259.3919549355951
 20
471.9313401944424
 30
0.0
 11
259.3919549355951
 21
465.4313401944442
 31
0.0
  0
LWPOLYLINE
  5
586
330
1E
100
AcDbEntity
  8
STEMPEL
100
AcDbPolyline
 90
       18
 70
   128
 43
0.0
 10
-189.2197522185701
 20
471.9313401944408
 10
-189.3377332538512
 20
473.3094615780654
 10
-189.6876586570409
 20
474.640652690845
 10
-190.2576121382226
 20
475.8795814160218
 10
-191.0281846151787
 20
476.984057521791
 10
-191.9731351664063
 20
477.9164693990439
 10
-193.0602846342264
 20
478.6450648796052
 10
-194.2526114474046
 20
479.1450325182385
 10
-195.5095123463564
 20
479.3993465166551
 10
-196.7881850784547
 20
479.3993465166551
 10
-198.0450859774066
 20
479.1450325182385
 10
-199.2374127905847
 20
478.6450648796052
 10
-200.3245622584049
 20
477.9164693990439
 10
-201.2695128096325
 20
476.984057521791
 10
-202.0400852865885
 20
475.8795814160218
 10
-202.6100387677703
 20
474.640652690845
 10
-202.9599641709599
 20
473.3094615780654
 10
-203.077945206241
 20
471.9313401944408
210
0.0
220
0.0
230
-1.0
  0
LWPOLYLINE
  5
587
330
1E
100
AcDbEntity
  8
STEMPEL
100
AcDbPolyline
 90
        9
 70
   128
 43
0.0
 10
-195.9570565795937
 20
479.428466617481
 10
-197.2812660299235
 20
479.2496337104331
 10
-198.5492454271096
 20
478.799357793109
 10
-199.7139641151952
 20
478.0943400609698
 10
-200.7322214838019
 20
477.1607303445863
 10
-201.5662493230641
 20
476.0331571856102
 10
-202.1851126852581
 20
474.7534434286584
 10
-202.5658572937322
 20
473.369054969123
 10
-202.6943609405641
 20
471.9313401944424
210
0.0
220
0.0
230
-1.0
  0
LWPOLYLINE
  5
588
330
1E
100
AcDbEntity
  8
STEMPEL
100
AcDbPolyline
 90
        9
 70
   128
 43
0.0
 10
-171.2596534089849
 20
479.4214742722645
 10
-172.376061130356
 20
479.2141671358574
 10
-173.4413403820983
 20
478.7449124084036
 10
-174.4171753651366
 20
478.030588171235
 10
-175.2684673979946
 20
477.0968871278387
 10
-175.964597340731
 20
475.9773924926783
 10
-176.4805268994224
 20
474.7123700753395
 10
-176.7976991996383
 20
473.3473200061303
 10
-176.9047062372264
 20
471.9313401944424
210
0.0
220
0.0
230
-1.0
  0
LWPOLYLINE
  5
589
330
1E
100
AcDbEntity
  8
STEMPEL
100
AcDbPolyline
 90
       18
 70
   128
 43
0.0
 10
-165.6146005807199
 20
471.9313401944408
 10
-165.7159131925243
 20
473.3094615780654
 10
-166.0164009484535
 20
474.640652690845
 10
-166.5058310983747
 20
475.8795814160218
 10
-167.1675366855391
 20
476.984057521791
 10
-167.9789841198042
 20
477.9164693990439
 10
-168.9125405320199
 20
478.6450648796052
 10
-169.936414778246
 20
479.1450325182385
 10
-171.0157400490288
 20
479.3993465166551
 10
-172.1137612167799
 20
479.3993465166551
 10
-173.1930864875626
 20
479.1450325182385
 10
-174.2169607337887
 20
478.6450648796052
 10
-175.1505171460044
 20
477.9164693990439
 10
-175.9619645802696
 20
476.984057521791
 10
-176.623670167434
 20
475.8795814160218
 10
-177.1131003173552
 20
474.640652690845
 10
-177.4135880732844
 20
473.3094615780654
 10
-177.5149006850887
 20
471.9313401944408
210
0.0
220
0.0
230
-1.0
  0
LWPOLYLINE
  5
58A
330
1E
100
AcDbEntity
  8
STEMPEL
100
AcDbPolyline
 90
        7
 70
   128
 43
0.0
 10
201.4768495078349
 20
460.4313401944426
 10
201.827414722247
 20
461.0406780962835
 10
202.1280767011857
 20
461.7681083695727
 10
202.3707487631203
 20
462.5940658635165
 10
202.5489039381688
 20
463.4963354139787
 10
202.6577505191493
 20
464.4506493482219
 10
202.6943609405641
 20
465.4313401944431
  0
LWPOLYLINE
  5
58B
330
1E
100
AcDbEntity
  8
STEMPEL
100
AcDbPolyline
 90
       10
 70
   128
 43
0.0
 10
200.355601879032
 20
459.4313401944426
 10
200.8283318367856
 20
459.5224936763694
 10
201.2866981339858
 20
459.7931844697272
 10
201.7167735426365
 20
460.235187771736
 10
202.1054904390748
 20
460.8350735357289
 10
202.4410378571025
 20
461.5746145363236
 10
202.713220358218
 20
462.4313401944428
 10
202.9137678148562
 20
463.3792193344889
 10
203.0365866940286
 20
464.3894511284414
 10
203.077945206241
 20
465.4313401944431
  0
LINE
  5
58C
330
1E
100
AcDbEntity
  8
STEMPEL
100
AcDbLine
 10
187.9856843563219
 20
460.431340194443
 30
0.0
 11
201.4768495078354
 21
460.4313401944426
 31
0.0
  0
LWPOLYLINE
  5
58D
330
1E
100
AcDbEntity
  8
STEMPEL
100
AcDbPolyline
 90
       10
 70
   128
 43
0.0
 10
173.8522975495647
 20
459.4313401944426
 10
174.4883019095657
 20
459.5224936763694
 10
175.1049815989218
 20
459.7931844697272
 10
175.6835991173268
 20
460.235187771736
 10
176.2065734642787
 20
460.8350735357289
 10
176.6580143288832
 20
461.5746145363236
 10
177.0242049089092
 20
462.4313401944428
 10
177.2940186888841
 20
463.3792193344889
 10
177.4592575136358
 20
464.3894511284414
 10
177.5149006850889
 20
465.4313401944431
  0
LWPOLYLINE
  5
58E
330
1E
100
AcDbEntity
  8
STEMPEL
100
AcDbPolyline
 90
        7
 70
   128
 43
0.0
 10
175.2666831611212
 20
460.4313401944426
 10
175.738328761688
 20
461.0406780962835
 10
176.1428352380708
 20
461.7681083695727
 10
176.4693228805599
 20
462.5940658635165
 10
176.709010393968
 20
463.4963354139787
 10
176.8554510815941
 20
464.450649348222
 10
176.9047062372265
 20
465.4313401944431
  0
LWPOLYLINE
  5
58F
330
1E
100
AcDbEntity
  8
STEMPEL
100
AcDbPolyline
 90
       10
 70
   128
 43
0.0
 10
161.9519974451959
 20
459.4313401944426
 10
162.5880018051968
 20
459.5224936763694
 10
163.204681494553
 20
459.7931844697272
 10
163.783299012958
 20
460.235187771736
 10
164.3062733599099
 20
460.8350735357289
 10
164.7577142245143
 20
461.5746145363236
 10
165.1239048045403
 20
462.4313401944428
 10
165.3937185845153
 20
463.3792193344889
 10
165.5589574092669
 20
464.3894511284414
 10
165.61460058072
 20
465.4313401944431
  0
LWPOLYLINE
  5
590
330
1E
100
AcDbEntity
  8
STEMPEL
100
AcDbPolyline
 90
        8
 70
   128
 43
0.0
 10
152.6220422205024
 20
459.4313401944425
 10
153.8757762360653
 20
460.235187771736
 10
154.4988594101116
 20
460.8350735357289
 10
155.0367160152231
 20
461.5746145363236
 10
155.4730035506221
 20
462.4313401944428
 10
155.7944656403173
 20
463.3792193344889
 10
155.9913348213813
 20
464.3894511284414
 10
156.0576293233682
 20
465.4313401944431
  0
LWPOLYLINE
  5
591
330
1E
100
AcDbEntity
  8
STEMPEL
100
AcDbPolyline
 90
        7
 70
   128
 43
0.0
 10
153.3108316080292
 20
460.4313401944426
 10
153.8727605812933
 20
461.0406780962835
 10
154.3546985208805
 20
461.7681083695727
 10
154.7436831006303
 20
462.5940658635165
 10
155.0292520917368
 20
463.4963354139787
 10
155.2037247575327
 20
464.450649348222
 10
155.2624084365477
 20
465.4313401944431
  0
LINE
  5
592
330
1E
100
AcDbEntity
  8
STEMPEL
100
AcDbLine
 10
163.9765775046147
 20
460.4313401944426
 30
0.0
 11
175.2666831611217
 21
460.4313401944426
 31
0.0
  0
LINE
  5
593
102
{ACAD_REACTORS
330
93E
102
}
330
1E
100
AcDbEntity
  8
STEMPEL
100
AcDbLine
 10
175.2624828313076
 20
436.4313401944413
 30
0.0
 11
175.2624828313076
 21
433.4313401944412
 31
0.0
  0
LINE
  5
595
102
{ACAD_REACTORS
330
93E
102
}
330
1E
100
AcDbEntity
  8
STEMPEL
100
AcDbLine
 10
154.2624828313076
 20
436.4313401944413
 30
0.0
 11
154.2624828313076
 21
433.4313401944412
 31
0.0
  0
ARC
  5
596
330
1E
100
AcDbEntity
  8
STEMPEL
100
AcDbCircle
 10
172.2624828313073
 20
442.4313401944417
 30
0.0
 40
3.000000000000397
100
AcDbArc
 50
270.0000000000081
 51
89.99999999999186
  0
LINE
  5
597
330
1E
100
AcDbEntity
  8
STEMPEL
100
AcDbLine
 10
165.61460058072
 20
471.9313401944408
 30
0.0
 11
165.61460058072
 21
465.4313401944442
 31
0.0
  0
LINE
  5
598
330
1E
100
AcDbEntity
  8
STEMPEL
100
AcDbLine
 10
155.2624084365475
 20
471.9313401944408
 30
0.0
 11
155.2624084365475
 21
465.4313401944442
 31
0.0
  0
LINE
  5
599
330
1E
100
AcDbEntity
  8
STEMPEL
100
AcDbLine
 10
156.0576293233683
 20
471.9313401944408
 30
0.0
 11
156.0576293233683
 21
465.4313401944442
 31
0.0
  0
LINE
  5
59A
330
1E
100
AcDbEntity
  8
STEMPEL
100
AcDbLine
 10
176.9047062372265
 20
471.9313401944408
 30
0.0
 11
176.9047062372265
 21
465.4313401944442
 31
0.0
  0
LINE
  5
59B
330
1E
100
AcDbEntity
  8
STEMPEL
100
AcDbLine
 10
177.5149006850889
 20
471.9313401944408
 30
0.0
 11
177.5149006850889
 21
465.4313401944442
 31
0.0
  0
LINE
  5
59C
330
1E
100
AcDbEntity
  8
STEMPEL
100
AcDbLine
 10
189.2197522185701
 20
471.9313401944408
 30
0.0
 11
189.2197522185701
 21
465.4313401944442
 31
0.0
  0
LINE
  5
59D
330
1E
100
AcDbEntity
  8
STEMPEL
100
AcDbLine
 10
202.6943609405641
 20
471.9313401944408
 30
0.0
 11
202.6943609405641
 21
465.4313401944442
 31
0.0
  0
LINE
  5
59E
330
1E
100
AcDbEntity
  8
STEMPEL
100
AcDbLine
 10
203.077945206241
 20
471.9313401944392
 30
0.0
 11
203.077945206241
 21
465.4313401944442
 31
0.0
  0
LINE
  5
59F
330
1E
100
AcDbEntity
  8
STEMPEL
100
AcDbLine
 10
107.7624828313075
 20
459.4313401944425
 30
0.0
 11
356.7624828313076
 21
459.4313401944427
 31
0.0
  0
LWPOLYLINE
  5
5A0
330
1E
100
AcDbEntity
  8
STEMPEL
100
AcDbPolyline
 90
        7
 70
   128
 43
0.0
 10
-274.0481161547807
 20
460.4313401944426
 10
-273.6975509403688
 20
461.0406780962835
 10
-273.3968889614301
 20
461.7681083695727
 10
-273.1542168994955
 20
462.5940658635165
 10
-272.976061724447
 20
463.4963354139787
 10
-272.8672151434665
 20
464.4506493482219
 10
-272.8306047220517
 20
465.4313401944431
210
0.0
220
0.0
230
-1.0
  0
LWPOLYLINE
  5
5A1
330
1E
100
AcDbEntity
  8
STEMPEL
100
AcDbPolyline
 90
       18
 70
   128
 43
0.0
 10
286.3052134440456
 20
471.9313401944408
 10
286.1872324087645
 20
473.3094615780654
 10
285.8373070055748
 20
474.640652690845
 10
285.2673535243931
 20
475.8795814160218
 10
284.496781047437
 20
476.984057521791
 10
283.5518304962095
 20
477.9164693990439
 10
282.4646810283894
 20
478.6450648796052
 10
281.2723542152111
 20
479.1450325182385
 10
280.0154533162593
 20
479.3993465166551
 10
278.736780584161
 20
479.3993465166551
 10
277.4798796852091
 20
479.1450325182385
 10
276.2875528720309
 20
478.6450648796052
 10
275.2004034042108
 20
477.9164693990439
 10
274.2554528529833
 20
476.984057521791
 10
273.4848803760272
 20
475.8795814160218
 10
272.9149268948455
 20
474.640652690845
 10
272.5650014916558
 20
473.3094615780654
 10
272.4470204563747
 20
471.9313401944408
  0
LWPOLYLINE
  5
5A2
330
1E
100
AcDbEntity
  8
STEMPEL
100
AcDbPolyline
 90
        9
 70
   128
 43
0.0
 10
279.567909083022
 20
479.428466617481
 10
278.2436996326922
 20
479.2496337104331
 10
276.9757202355061
 20
478.799357793109
 10
275.8110015474205
 20
478.0943400609698
 10
274.7927441788139
 20
477.1607303445863
 10
273.9587163395516
 20
476.0331571856102
 10
273.3398529773577
 20
474.7534434286584
 10
272.9591083688835
 20
473.369054969123
 10
272.8306047220517
 20
471.9313401944424
  0
LWPOLYLINE
  5
5A3
330
1E
100
AcDbEntity
  8
STEMPEL
100
AcDbPolyline
 90
       10
 70
   128
 43
0.0
 10
-275.1693637835837
 20
459.4313401944426
 10
-274.6966338258301
 20
459.5224936763694
 10
-274.2382675286299
 20
459.7931844697272
 10
-273.8081921199792
 20
460.235187771736
 10
-273.4194752235409
 20
460.8350735357289
 10
-273.0839278055133
 20
461.5746145363236
 10
-272.8117453043977
 20
462.4313401944428
 10
-272.6111978477596
 20
463.3792193344889
 10
-272.4883789685871
 20
464.3894511284414
 10
-272.4470204563747
 20
465.4313401944431
210
0.0
220
0.0
230
-1.0
  0
LINE
  5
5A4
102
{ACAD_REACTORS
330
93E
102
}
330
1E
100
AcDbEntity
  8
STEMPEL
100
AcDbLine
 10
152.7624828313077
 20
436.4313401944413
 30
0.0
 11
360.2624828313076
 21
436.4313401944412
 31
0.0
  0
LINE
  5
5A6
330
1E
100
AcDbEntity
  8
STEMPEL
100
AcDbLine
 10
152.7624828313077
 20
439.4313401944414
 30
0.0
 11
363.0235471650109
 21
439.4313401944412
 31
0.0
  0
LINE
  5
5A7
330
1E
100
AcDbEntity
  8
STEMPEL
100
AcDbLine
 10
347.762482831308
 20
529.4312822271271
 30
0.0
 11
347.762482831308
 21
465.4313401944431
 31
0.0
  0
LINE
  5
5A8
330
1E
100
AcDbEntity
  8
STEMPEL
100
AcDbLine
 10
346.7624828313079
 20
529.4312822271271
 30
0.0
 11
346.7624828313079
 21
465.4313401944431
 31
0.0
  0
ARC
  5
5A9
330
1E
100
AcDbEntity
  8
STEMPEL
100
AcDbCircle
 10
128.2513392269962
 20
538.9511771769044
 30
0.0
 40
5.0
100
AcDbArc
 50
300.0670458384858
 51
300.2564371635306
  0
ARC
  5
5AA
330
1E
100
AcDbEntity
  8
STEMPEL
100
AcDbCircle
 10
133.7624828313078
 20
529.4312822271271
 30
0.0
 40
5.0
100
AcDbArc
 50
120.2564164748178
 51
180.0
  0
ARC
  5
5AB
330
1E
100
AcDbEntity
  8
STEMPEL
100
AcDbCircle
 10
133.7624828313078
 20
529.4312822271271
 30
0.0
 40
6.0
100
AcDbArc
 50
120.2564164748178
 51
180.0
  0
LWPOLYLINE
  5
5AD
330
1E
100
AcDbEntity
  8
STEMPEL
100
AcDbPolyline
 90
        9
 70
   128
 43
0.0
 10
-136.8352557935638
 20
479.333098439106
 10
-137.3243163368325
 20
479.0066655413485
 10
-137.7839293047335
 20
478.4613965280913
 10
-138.1998791083577
 20
477.7141562849633
 10
-138.5593006376493
 20
476.7880565621857
 10
-138.8510771725368
 20
475.7117411402155
 10
-139.0661842172749
 20
474.5184998925846
 10
-139.1979686233824
 20
473.2452391475088
 10
-139.2423543680473
 20
471.9313401944424
210
0.0
220
0.0
230
-1.0
  0
LWPOLYLINE
  5
5AE
330
1E
100
AcDbEntity
  8
STEMPEL
100
AcDbPolyline
 90
        7
 70
   128
 43
0.0
 10
-129.4542271572242
 20
478.3933942502806
 10
-129.5920561667945
 20
477.6412880133421
 10
-129.7109204437607
 20
476.7185744026273
 10
-129.8072684456619
 20
475.6528231527231
 10
-129.8782213932001
 20
474.4758778159019
 10
-129.921659285208
 20
473.2229043095001
 10
-129.9362842421056
 20
471.9313401944408
210
0.0
220
0.0
230
-1.0
  0
LWPOLYLINE
  5
5AF
330
1E
100
AcDbEntity
  8
STEMPEL
100
AcDbPolyline
 90
       18
 70
   128
 43
0.0
 10
-128.9721700723431
 20
471.9313401944408
 10
-128.9888384958198
 20
473.3094615780654
 10
-129.0382761430802
 20
474.640652690845
 10
-129.1187994743407
 20
475.8795814160218
 10
-129.2276663641324
 20
476.984057521791
 10
-129.3611694810947
 20
477.9164693990439
 10
-129.5147625366988
 20
478.6450648796052
 10
-129.6832151036508
 20
479.1450325182385
 10
-129.8607907318198
 20
479.3993465166551
 10
-130.0414422961668
 20
479.3993465166551
 10
-130.2190179243358
 20
479.1450325182385
 10
-130.3874704912878
 20
478.6450648796052
 10
-130.5410635468919
 20
477.9164693990439
 10
-130.6745666638542
 20
476.984057521791
 10
-130.7834335536459
 20
475.8795814160218
 10
-130.8639568849063
 20
474.640652690845
 10
-130.9133945321668
 20
473.3094615780654
 10
-130.9300629556435
 20
471.9313401944408
210
0.0
220
0.0
230
-1.0
  0
LWPOLYLINE
  5
5B0
330
1E
100
AcDbEntity
  8
STEMPEL
100
AcDbPolyline
 90
       18
 70
   128
 43
0.0
 10
-134.4281572190769
 20
471.9313401944408
 10
-134.4770265639932
 20
473.3094615780654
 10
-134.6219704118132
 20
474.640652690845
 10
-134.8580528736404
 20
475.8795814160218
 10
-135.1772344443872
 20
476.984057521791
 10
-135.5686457784775
 20
477.9164693990439
 10
-136.0189578323755
 20
478.6450648796052
 10
-136.5128357691749
 20
479.1450325182385
 10
-137.0334611680799
 20
479.3993465166551
 10
-137.5631047555517
 20
479.3993465166551
 10
-138.0837301544566
 20
479.1450325182385
 10
-138.577608091256
 20
478.6450648796052
 10
-139.027920145154
 20
477.9164693990439
 10
-139.4193314792443
 20
476.984057521791
 10
-139.7385130499911
 20
475.8795814160218
 10
-139.9745955118183
 20
474.640652690845
 10
-140.1195393596384
 20
473.3094615780654
 10
-140.1684087045547
 20
471.9313401944408
210
0.0
220
0.0
230
-1.0
  0
LWPOLYLINE
  5
5B1
330
1E
100
AcDbEntity
  8
STEMPEL
100
AcDbPolyline
 90
        7
 70
   128
 43
0.0
 10
137.0887827353787
 20
460.4313401944426
 10
137.7088732584431
 20
461.0406780962835
 10
138.2406934052265
 20
461.7681083695727
 10
138.6699392049577
 20
462.5940658635165
 10
138.9850655527551
 20
463.4963354139787
 10
139.1775967297209
 20
464.4506493482219
 10
139.2423543680473
 20
465.4313401944431
  0
LWPOLYLINE
  5
5B2
330
1E
100
AcDbEntity
  8
STEMPEL
100
AcDbPolyline
 90
       10
 70
   128
 43
0.0
 10
129.612792692503
 20
459.4313401944426
 10
130.4489719673445
 20
459.5224936763694
 10
131.2597443580471
 20
459.7931844697272
 10
132.02047495579
 20
460.235187771736
 10
132.7080493463087
 20
460.8350735357289
 10
133.3015759296772
 20
461.5746145363236
 10
133.7830207009984
 20
462.4313401944428
 10
134.1377552045188
 20
463.3792193344889
 10
134.3550010118529
 20
464.3894511284414
 10
134.4281572190769
 20
465.4313401944431
  0
LINE
  5
5B3
330
1E
100
AcDbEntity
  8
STEMPEL
100
AcDbLine
 10
126.3517108886724
 20
460.4313401944426
 30
0.0
 11
127.3158250584351
 21
460.4313401944426
 31
0.0
  0
LWPOLYLINE
  5
5B4
330
1E
100
AcDbEntity
  8
STEMPEL
100
AcDbPolyline
 90
        7
 70
   128
 43
0.0
 10
127.3158250584349
 20
460.431340194443
 10
127.9925269335123
 20
461.0409409223022
 10
128.5920763571462
 20
461.7685000062137
 10
129.0983650302959
 20
462.594469867894
 10
129.4977903223414
 20
463.4966588930971
 10
129.7796207376044
 20
464.4508276612908
 10
129.9362842421058
 20
465.4313401944431
  0
ARC
  5
5B5
330
1E
100
AcDbEntity
  8
STEMPEL
100
AcDbCircle
 10
122.7624828313078
 20
465.4313401944431
 30
0.0
 40
6.0
100
AcDbArc
 50
270.0000000000017
 51
0.0
  0
ARC
  5
5B6
330
1E
100
AcDbEntity
  8
STEMPEL
100
AcDbCircle
 10
122.7624828313078
 20
465.4313401944431
 30
0.0
 40
5.0
100
AcDbArc
 50
270.0000000000017
 51
0.0
  0
LWPOLYLINE
  5
5B7
330
1E
100
AcDbEntity
  8
STEMPEL
100
AcDbPolyline
 90
       10
 70
   128
 43
0.0
 10
123.4661813413123
 20
459.4313401944438
 10
124.324254337585
 20
459.4974674090164
 10
125.1770665372073
 20
459.7500211587466
 10
125.9978248441243
 20
460.1810668750642
 10
126.7607432105232
 20
460.7770622455041
 10
127.4418527660224
 20
461.5192826772248
 10
128.0197548559682
 20
462.3844095740222
 10
128.4762933303744
 20
463.3452629447383
 10
128.7971249619719
 20
464.3716553264504
 10
128.9721700723431
 20
465.4313401944431
  0
LWPOLYLINE
  5
5B8
330
1E
100
AcDbEntity
  8
STEMPEL
100
AcDbPolyline
 90
       10
 70
   128
 43
0.0
 10
125.4240742246127
 20
459.4313401944426
 10
126.2821472208855
 20
459.4974674090153
 10
127.1349594205077
 20
459.7500211587455
 10
127.9557177274248
 20
460.1810668750631
 10
128.7186360938237
 20
460.777062245503
 10
129.3997456493229
 20
461.5192826772236
 10
129.9776477392686
 20
462.3844095740211
 10
130.4341862136749
 20
463.3452629447371
 10
130.7550178452724
 20
464.3716553264493
 10
130.9300629556435
 20
465.431340194442
  0
LWPOLYLINE
  5
5B9
330
1E
100
AcDbEntity
  8
STEMPEL
100
AcDbPolyline
 90
       10
 70
   128
 43
0.0
 10
128.1587405079794
 20
445.4313401944419
 10
128.4425806303551
 20
445.5059757230353
 10
128.7177964142426
 20
445.7276145460463
 10
128.9760255673142
 20
446.0895222799926
 10
129.209421927424
 20
446.5807025415124
 10
129.4108938642745
 20
447.1862310669084
 10
129.5743197550141
 20
447.8877091783489
 10
129.6947339866503
 20
448.6638228183827
 10
129.7684778336872
 20
449.4909901667898
 10
129.7933106266488
 20
450.3440781622558
  0
LINE
  5
5BA
330
1E
100
AcDbEntity
  8
STEMPEL
100
AcDbLine
 10
129.9519293754401
 20
459.4313401944432
 30
0.0
 11
129.7933106266488
 21
450.3440781622571
 31
0.0
  0
LINE
  5
5BB
330
1E
100
AcDbEntity
  8
STEMPEL
100
AcDbLine
 10
132.2745855864083
 20
460.4313401944426
 30
0.0
 11
137.0887827353797
 21
460.4313401944426
 31
0.0
  0
LINE
  5
5BC
330
1E
100
AcDbEntity
  8
STEMPEL
100
AcDbLine
 10
129.9519293754401
 20
459.4313401944432
 30
0.0
 11
141.7624828313076
 21
459.4313401944423
 31
0.0
  0
LWPOLYLINE
  5
5BD
330
1E
100
AcDbEntity
  8
STEMPEL
100
AcDbPolyline
 90
       10
 70
   128
 43
0.0
 10
135.3530441779807
 20
459.4313401944426
 10
136.1892234528223
 20
459.5224936763694
 10
136.9999958435249
 20
459.7931844697272
 10
137.7607264412677
 20
460.235187771736
 10
138.4483008317865
 20
460.8350735357289
 10
139.0418274151549
 20
461.5746145363236
 10
139.5232721864761
 20
462.4313401944428
 10
139.8780066899965
 20
463.3792193344889
 10
140.0952524973307
 20
464.3894511284414
 10
140.1684087045547
 20
465.4313401944431
  0
LINE
  5
5BE
102
{ACAD_REACTORS
330
93E
102
}
330
1E
100
AcDbEntity
  8
STEMPEL
100
AcDbLine
 10
141.2624828313076
 20
436.4313401944413
 30
0.0
 11
141.2624828313076
 21
433.4313401944412
 31
0.0
  0
POINT
  5
5BF
330
1E
100
AcDbEntity
  8
BEM
100
AcDbPoint
 10
122.7624828313075
 20
442.4313401944419
 30
0.0
  0
LINE
  5
5C0
102
{ACAD_REACTORS
330
93E
102
}
330
1E
100
AcDbEntity
  8
STEMPEL
100
AcDbLine
 10
115.2624828313076
 20
436.4313401944413
 30
0.0
 11
115.2624828313076
 21
433.4313401944412
 31
0.0
  0
LINE
  5
5C3
102
{ACAD_REACTORS
330
93E
102
}
330
1E
100
AcDbEntity
  8
STEMPEL
100
AcDbLine
 10
115.2624828313076
 20
436.4313401944413
 30
0.0
 11
142.7624828313077
 21
436.4313401944413
 31
0.0
  0
LINE
  5
5C4
330
1E
100
AcDbEntity
  8
STEMPEL
100
AcDbLine
 10
125.7624828313075
 20
439.4313401944414
 30
0.0
 11
142.7624828313077
 21
439.4313401944414
 31
0.0
  0
LINE
  5
5C5
330
1E
100
AcDbEntity
  8
MITTEL
100
AcDbLine
 10
140.9733753157774
 20
472.0313401944404
 30
0.0
 11
140.9733753157774
 21
443.4313401944419
 31
0.0
  0
ARC
  5
5C6
330
1E
100
AcDbEntity
  8
STEMPEL
100
AcDbCircle
 10
125.7624828313074
 20
442.4313401944419
 30
0.0
 40
2.999999999999943
100
AcDbArc
 50
89.99999999999877
 51
270.0000000000012
  0
LINE
  5
5C7
330
1E
100
AcDbEntity
  8
STEMPEL
100
AcDbLine
 10
107.7624828313076
 20
460.4313401944429
 30
0.0
 11
107.7624828313075
 21
459.4313401944426
 31
0.0
  0
LINE
  5
5C8
330
1E
100
AcDbEntity
  8
STEMPEL
100
AcDbLine
 10
107.7624828313077
 20
460.4313401944426
 30
0.0
 11
122.7624828313079
 21
460.431340194443
 31
0.0
  0
LINE
  5
5C9
330
1E
100
AcDbEntity
  8
STEMPEL
100
AcDbLine
 10
130.9300629556435
 20
471.9313401944408
 30
0.0
 11
130.9300629556435
 21
465.431340194442
 31
0.0
  0
LINE
  5
5CA
330
1E
100
AcDbEntity
  8
STEMPEL
100
AcDbLine
 10
129.9362842421057
 20
471.9313401944408
 30
0.0
 11
129.9362842421057
 21
465.4313401944431
 31
0.0
  0
LINE
  5
5CB
330
1E
100
AcDbEntity
  8
STEMPEL
100
AcDbLine
 10
128.9721700723431
 20
471.9313401944408
 30
0.0
 11
128.9721700723431
 21
465.4313401944431
 31
0.0
  0
LINE
  5
5CC
330
1E
100
AcDbEntity
  8
STEMPEL
100
AcDbLine
 10
134.4281572190769
 20
471.9313401944408
 30
0.0
 11
134.4281572190769
 21
465.4313401944442
 31
0.0
  0
LINE
  5
5CD
330
1E
100
AcDbEntity
  8
STEMPEL
100
AcDbLine
 10
146.9262078882364
 20
471.9313401944408
 30
0.0
 11
146.9262078882364
 21
465.4313401944442
 31
0.0
  0
LINE
  5
5CE
330
1E
100
AcDbEntity
  8
STEMPEL
100
AcDbLine
 10
139.2423543680474
 20
471.9313401944408
 30
0.0
 11
139.2423543680474
 21
465.4313401944442
 31
0.0
  0
LINE
  5
5CF
330
1E
100
AcDbEntity
  8
STEMPEL
100
AcDbLine
 10
140.1684087045547
 20
471.9313401944408
 30
0.0
 11
140.1684087045547
 21
465.4313401944442
 31
0.0
  0
LINE
  5
5D0
330
1E
100
AcDbEntity
  8
STEMPEL
100
AcDbLine
 10
128.7624828313078
 20
529.4312822271271
 30
0.0
 11
128.7624828313078
 21
465.431340194443
 31
0.0
  0
LINE
  5
5D1
330
1E
100
AcDbEntity
  8
STEMPEL
100
AcDbLine
 10
127.7624828313077
 20
529.4312822271271
 30
0.0
 11
127.7624828313077
 21
465.431340194443
 31
0.0
  0
DIMENSION
  5
5D2
330
1E
100
AcDbEntity
  8
BEM
100
AcDbDimension
  2
*D2
 10
95.27782811459776
 20
439.431340194442
 30
0.0
 11
88.77782811459768
 21
494.431340194442
 31
0.0
 70
    32
 71
     5
 42
110.0
  3
Standard
100
AcDbAlignedDimension
 13
157.7624828313077
 23
549.4313401944419
 33
0.0
 14
125.7624828313075
 24
439.431340194442
 34
0.0
 50
90.0
100
AcDbRotatedDimension
1001
ACAD
1000
DSTYLE
1002
{
1070
    40
1040
2.0
1070
    41
1040
3.5
1070
    42
1040
1.0
1070
    43
1040
7.0
1070
    44
1040
1.0
1070
    73
1070
     0
1070
    74
1070
     0
1070
    77
1070
     1
1070
    78
1070
     8
1070
    79
1070
     2
1070
   140
1040
3.5
1070
   141
1040
1.5
1070
   146
1040
0.5142857142857144
1070
   147
1040
1.5
1070
   172
1070
     1
1070
   178
1070
     1
1070
   179
1070
     2
1070
   271
1070
     2
1070
   272
1070
     2
1070
   284
1070
     8
1070
   285
1070
     8
1070
   286
1070
     8
1002
}
  0
LINE
  5
5D3
330
1E
100
AcDbEntity
  8
STEMPEL
100
AcDbLine
 10
131.2431292631807
 20
533.7501776413233
 30
0.0
 11
155.2219831561319
 21
547.7378308075088
 31
0.0
  0
LINE
  5
5D4
330
1E
100
AcDbEntity
  8
STEMPEL
100
AcDbLine
 10
130.7297882095999
 20
534.608420754486
 30
0.0
 11
154.7160910850668
 21
548.6004307651746
 31
0.0
  0
LWPOLYLINE
  5
5D5
330
1E
100
AcDbEntity
  8
STEMPEL
100
AcDbPolyline
 90
       18
 70
   128
 43
0.0
 10
-146.9262078882365
 20
471.9313401944408
 10
-147.0039477894966
 20
473.3094615780654
 10
-147.2345201541785
 20
474.640652690845
 10
-147.6100731169436
 20
475.8795814160218
 10
-148.1178176720713
 20
476.984057521791
 10
-148.7404631877093
 20
477.9164693990439
 10
-149.4568062176033
 20
478.6450648796052
 10
-150.2424525590292
 20
479.1450325182385
 10
-151.0706479681086
 20
479.3993465166551
 10
-151.9131892434963
 20
479.3993465166551
 10
-152.7413846525757
 20
479.1450325182385
 10
-153.5270309940017
 20
478.6450648796052
 10
-154.2433740238957
 20
477.9164693990439
 10
-154.8660195395336
 20
476.984057521791
 10
-155.3737640946613
 20
475.8795814160218
 10
-155.7493170574265
 20
474.640652690845
 10
-155.9798894221083
 20
473.3094615780654
 10
-156.0576293233684
 20
471.9313401944408
210
0.0
220
0.0
230
-1.0
  0
LINE
  5
5D7
102
{ACAD_REACTORS
330
93E
102
}
330
1E
100
AcDbEntity
  8
STEMPEL
100
AcDbLine
 10
115.2624828313076
 20
433.4313401944412
 30
0.0
 11
360.2624828313075
 21
433.4313401944411
 31
0.0
  0
LWPOLYLINE
  5
5D8
330
1E
100
AcDbEntity
  8
STEMPEL
100
AcDbPolyline
 90
       10
 70
   128
 43
0.0
 10
-150.6966977189815
 20
479.431340194444
 10
-151.4895250648412
 20
479.3173983420356
 10
-152.2582627529869
 20
478.9790348503382
 10
-152.9795530777644
 20
478.4265307228271
 10
-153.6314799976459
 20
477.676673517836
 10
-154.1942350430616
 20
476.7522472670925
 10
-154.6507191867245
 20
475.6813401944432
 10
-154.9870623889213
 20
474.4964912693855
 10
-155.1930450316513
 20
473.2337015269447
 10
-155.2624084365474
 20
471.9313401944424
210
0.0
220
0.0
230
-1.0
  0
DIMENSION
  5
5D9
330
1E
100
AcDbEntity
  8
BEM
100
AcDbDimension
  2
*D3
 10
347.762482831308
 20
558.2436931911758
 30
0.0
 11
237.7624828313078
 21
564.7436931911759
 31
0.0
 70
    32
  1
%%c<>
 71
     5
 42
220.0000000000002
  3
Standard
100
AcDbAlignedDimension
 13
127.7624828313077
 23
529.4312822271271
 33
0.0
 14
347.762482831308
 24
529.4312822271271
 34
0.0
100
AcDbRotatedDimension
1001
ACAD
1000
DSTYLE
1002
{
1070
    40
1040
2.0
1070
    41
1040
3.5
1070
    42
1040
1.0
1070
    43
1040
7.0
1070
    44
1040
1.0
1070
    73
1070
     0
1070
    74
1070
     0
1070
    77
1070
     1
1070
    78
1070
     8
1070
    79
1070
     2
1070
   140
1040
3.5
1070
   141
1040
1.5
1070
   146
1040
0.5142857142857144
1070
   147
1040
1.5
1070
   172
1070
     1
1070
   178
1070
     1
1070
   179
1070
     2
1070
   271
1070
     2
1070
   272
1070
     2
1070
   284
1070
     8
1070
   285
1070
     8
1070
   286
1070
     8
1002
}
  0
DIMENSION
  5
5DA
330
1E
100
AcDbEntity
  8
BEM
100
AcDbDimension
  2
*D4
 10
367.7624828313077
 20
571.7388945054834
 30
0.0
 11
237.7624828313077
 21
578.2388945054833
 31
0.0
 70
    32
  1
%%c<>
 71
     5
 42
259.9999999999999
  3
Standard
100
AcDbAlignedDimension
 13
107.7624828313077
 23
460.4313401944426
 33
0.0
 14
367.7624828313077
 24
460.4313401944429
 34
0.0
100
AcDbRotatedDimension
1001
ACAD
1000
DSTYLE
1002
{
1070
    40
1040
2.0
1070
    41
1040
3.5
1070
    42
1040
1.0
1070
    43
1040
7.0
1070
    44
1040
1.0
1070
    73
1070
     0
1070
    74
1070
     0
1070
    77
1070
     1
1070
    78
1070
     8
1070
    79
1070
     2
1070
   140
1040
3.5
1070
   141
1040
1.5
1070
   146
1040
0.5142857142857144
1070
   147
1040
1.5
1070
   172
1070
     1
1070
   178
1070
     1
1070
   179
1070
     2
1070
   271
1070
     2
1070
   272
1070
     2
1070
   284
1070
     8
1070
   285
1070
     8
1070
   286
1070
     8
1002
}
  0
LINE
  5
5DF
330
1E
100
AcDbEntity
  8
MITTEL
100
AcDbLine
 10
237.7624828313076
 20
555.9313401944423
 30
0.0
 11
237.7624828313077
 21
128.4313401944413
 31
0.0
  0
TEXT
  5
6A9
330
1E
100
AcDbEntity
  8
TEXT
 62
     1
100
AcDbText
 10
395.552722291388
 20
410.0226436637878
 30
0.0
 40
7.0
  1
EDV-Art.Nr. 21015.000X
 50
90.0
 41
0.8
  7
GREEKS
100
AcDbText
  0
LINE
  5
6AA
330
1E
100
AcDbEntity
  8
TEXT
 62
     2
100
AcDbLine
 10
347.350985919225
 20
525.1002224632071
 30
0.0
 11
386.8737451431156
 21
513.8538755387643
 31
0.0
  0
TEXT
  5
6AB
330
1E
100
AcDbEntity
  8
TEXT
 62
     1
100
AcDbText
 10
383.493839726219
 20
410.0226436637878
 30
0.0
 40
7.0
  1
Drainjethaube
 50
90.0
 41
0.8
  7
GREEKS
100
AcDbText
  0
LINE
  5
6AC
330
1E
100
AcDbEntity
  8
TEXT
 62
     2
100
AcDbLine
 10
386.8737451431155
 20
407.9089146728101
 30
0.0
 11
386.8737451431156
 21
513.8538755387643
 31
0.0
  0
LINE
  5
71B
330
1E
100
AcDbEntity
  8
TEXT
 62
     2
100
AcDbLine
 10
312.6156383311442
 20
373.4307162506047
 30
0.0
 11
302.149131249059
 21
435.5080748261038
 31
0.0
  0
TEXT
  5
71C
330
1E
100
AcDbEntity
  8
TEXT
 62
     1
100
AcDbText
 10
309.1318041702337
 20
270.1730049292812
 30
0.0
 40
7.0
  1
Kompressionsdichtung
 50
90.0
 41
0.8
100
AcDbText
  0
LINE
  5
71D
330
1E
100
AcDbEntity
  8
TEXT
 62
     2
100
AcDbLine
 10
312.6156383311442
 20
373.4307162506047
 30
0.0
 11
312.6156383311442
 21
267.4921516754716
 31
0.0
  0
TEXT
  5
71E
330
1E
100
AcDbEntity
  8
TEXT
 62
     1
100
AcDbText
 10
321.9081351389433
 20
270.1730049292812
 30
0.0
 40
7.0
  1
EDV-Art.Nr. 21920.070X
 50
90.0
 41
0.8
100
AcDbText
  0
LINE
  5
71F
330
1E
100
AcDbEntity
  8
TEXT
 62
     2
100
AcDbLine
 10
290.9837432040109
 20
202.4980424454379
 30
0.0
 11
273.4979108828094
 21
189.1683371336555
 31
0.0
  0
TEXT
  5
720
330
1E
100
AcDbEntity
  8
TEXT
 62
     1
100
AcDbText
 10
291.5790990827653
 20
193.2055456376387
 30
0.0
 40
7.0
  1
EDV-Art.Nr. 21976.070X
 41
0.8
100
AcDbText
  0
TEXT
  5
721
330
1E
100
AcDbEntity
  8
TEXT
 62
     1
100
AcDbText
 10
291.5790990827653
 20
205.9818766063483
 30
0.0
 40
7.0
  1
Ablaufkörper DN70
 41
0.8
100
AcDbText
  0
LINE
  5
722
330
1E
100
AcDbEntity
  8
TEXT
 62
     2
100
AcDbLine
 10
396.922307779144
 20
202.4980424454379
 30
0.0
 11
290.9837432040109
 21
202.4980424454379
 31
0.0
  0
LINE
  5
739
102
{ACAD_REACTORS
330
93E
102
}
330
1E
100
AcDbEntity
  8
TEXT
 62
     2
100
AcDbLine
 10
344.2589747369887
 20
399.3191607632036
 30
0.0
 11
325.0403276959933
 21
443.2533578291711
 31
0.0
  0
TEXT
  5
73A
330
1E
100
AcDbEntity
  8
TEXT
 62
     1
100
AcDbText
 10
340.7751405760782
 20
295.1944814201534
 30
0.0
 40
7.0
  1
Losflansch DN70
 50
90.0
 41
0.8
100
AcDbText
  0
LINE
  5
73B
330
1E
100
AcDbEntity
  8
TEXT
 62
     2
100
AcDbLine
 10
344.2589747369887
 20
399.3191607632036
 30
0.0
 11
344.2589747369887
 21
293.3805961880705
 31
0.0
  0
TEXT
  5
73C
330
1E
100
AcDbEntity
  8
TEXT
 62
     1
100
AcDbText
 10
353.5514715447878
 20
293.975952066825
 30
0.0
 40
7.0
  1
EDV-Art.Nr. 21905.070X
 50
90.0
 41
0.8
100
AcDbText
  0
HATCH
  5
791
330
1E
100
AcDbEntity
  8
SCHRAFF
100
AcDbHatch
 10
0.0
 20
0.0
 30
0.0
210
0.0
220
0.0
230
1.0
  2
HONEY
 70
     0
 71
     0
 91
        2
 92
        7
 72
     1
 73
     1
 93
        7
 10
241.7624828313079
 20
548.4313401944425
 42
0.0
 10
241.7624828313077
 20
526.4313401944425
 42
0.0
 10
346.7624828313078
 20
526.4313401944426
 42
0.0
 10
346.7624828313078
 20
529.4312822271271
 42
0.2667503951500763
 10
344.2818363994347
 20
533.7501776413234
 42
0.0
 10
320.2606297234046
 20
547.7625365771414
 42
0.1315436689467474
 10
317.7624828313079
 20
548.4313401944425
 42
0.0
 97
        0
 92
        7
 72
     1
 73
     1
 93
        7
 10
157.7624828313077
 20
548.4313401944421
 42
0.1315436689462666
 10
155.2643359392214
 20
547.7625365771475
 42
0.0
 10
131.2431292631807
 20
533.7501776413233
 42
0.266750395150088
 10
128.7624828313078
 20
529.4312822271272
 42
0.0
 10
128.7624828313078
 20
526.4313401944421
 42
0.0
 10
233.7624828313078
 20
526.4313401944425
 42
0.0
 10
233.7624828313078
 20
548.4313401944424
 42
0.0
 97
        0
 75
     0
 76
     1
 52
0.0
 41
30.0
 77
     0
 78
     3
 53
0.0
 43
-0.6809887233673351
 44
72.80623949174554
 45
5.625
 46
3.247595249999999
 79
     2
 49
3.75
 49
-7.5
 53
120.0
 43
-0.6809887233673351
 44
72.80623949174554
 45
-5.624999987709673
 46
3.247595271287468
 79
     2
 49
3.749999999999998
 49
-7.499999999999996
 53
60.0
 43
-0.6809887233673351
 44
72.80623949174554
 45
0.0000000122903263
 46
6.495190521287468
 79
     2
 49
-7.5
 49
3.75
 47
0.3214602750441732
 98
        2
 10
269.2798421410928
 20
539.7792292732565
 10
208.4908953506663
 20
539.7792292732565
  0
HATCH
  5
792
330
1E
100
AcDbEntity
  8
SCHRAFF
100
AcDbHatch
 10
0.0
 20
0.0
 30
0.0
210
0.0
220
0.0
230
1.0
  2
_USER
 70
     0
 71
     1
 91
        2
 92
        7
 72
     0
 73
     1
 93
        4
 10
344.5124828313077
 20
526.4313401944427
 10
242.5124828313078
 20
526.4313401944426
 10
242.5124828313077
 20
524.4313401944424
 10
344.5124828313077
 20
524.4313401944427
 97
        4
330
7AA
330
7AB
330
7BF
330
7BC
 92
        7
 72
     0
 73
     1
 93
        4
 10
233.0124828313078
 20
526.4313401944424
 10
131.0124828313077
 20
526.4313401944421
 10
131.0124828313077
 20
524.4313401944422
 10
233.0124828313077
 20
524.4313401944424
 97
        4
330
7BE
330
7BD
330
7BF
330
7AC
 75
     0
 76
     0
 52
135.0
 41
2.0
 77
     0
 78
     1
 53
135.0
 43
-0.6809887233673351
 44
50.65865632593471
 45
-1.414213562373095
 46
-1.414213562373094
 79
     0
 47
0.2882846600731254
 98
        2
 10
285.7673357642118
 20
526.8596154569606
 10
221.7334286957323
 20
526.8596154569606
  0
ARC
  5
793
330
1E
100
AcDbEntity
  8
STEMPEL
100
AcDbCircle
 10
231.2624828313077
 20
516.0155367907277
 30
0.0
 40
0.5
100
AcDbArc
 50
0.0
 51
71.12924595933046
  0
ARC
  5
794
330
1E
100
AcDbEntity
  8
STEMPEL
100
AcDbCircle
 10
244.2624828313077
 20
516.0155367907277
 30
0.0
 40
0.5
100
AcDbArc
 50
108.8707540406695
 51
180.0
  0
LINE
  5
795
330
1E
100
AcDbEntity
  8
STEMPEL
100
AcDbLine
 10
231.7624828313077
 20
516.0155367907277
 30
0.0
 11
231.7624828313077
 21
513.8313401944421
 31
0.0
  0
LINE
  5
796
330
1E
100
AcDbEntity
  8
STEMPEL
100
AcDbLine
 10
243.7624828313077
 20
516.0155367907277
 30
0.0
 11
243.7624828313077
 21
513.8313401944422
 31
0.0
  0
LINE
  5
797
330
1E
100
AcDbEntity
  8
STEMPEL
100
AcDbLine
 10
231.7624828313077
 20
513.8313401944421
 30
0.0
 11
243.7624828313077
 21
513.8313401944422
 31
0.0
  0
LINE
  5
798
330
1E
100
AcDbEntity
  8
STEMPEL
100
AcDbLine
 10
244.9512907861238
 20
522.2454150053757
 30
0.0
 11
244.5520918895271
 21
522.475892595786
 31
0.0
  0
LINE
  5
799
330
1E
100
AcDbEntity
  8
STEMPEL
100
AcDbLine
 10
243.1489335560666
 20
522.8313401944424
 30
0.0
 11
243.1535630261134
 21
522.8313401944424
 31
0.0
  0
LINE
  5
79A
330
1E
100
AcDbEntity
  8
STEMPEL
100
AcDbLine
 10
244.9512907861238
 20
516.9172653835088
 30
0.0
 11
244.5520918895271
 21
516.6867877930985
 31
0.0
  0
LINE
  5
79B
330
1E
100
AcDbEntity
  8
STEMPEL
100
AcDbLine
 10
243.1489335560666
 20
516.3313401944422
 30
0.0
 11
243.1535630261134
 21
516.3313401944422
 31
0.0
  0
LINE
  5
79C
330
1E
100
AcDbEntity
  8
STEMPEL
100
AcDbLine
 10
244.9512907861238
 20
522.2454150053758
 30
0.0
 11
244.9512907861238
 21
516.9172653835089
 31
0.0
  0
LINE
  5
79D
330
1E
100
AcDbEntity
  8
STEMPEL
100
AcDbLine
 10
241.3568868087158
 20
522.2146072291723
 30
0.0
 11
241.3568868087158
 21
516.9480731597123
 31
0.0
  0
LINE
  5
79E
330
1E
100
AcDbEntity
  8
STEMPEL
100
AcDbLine
 10
234.1680788538998
 20
522.2146072291723
 30
0.0
 11
234.1680788538998
 21
516.9480731597123
 31
0.0
  0
ARC
  5
79F
330
1E
100
AcDbEntity
  8
STEMPEL
100
AcDbCircle
 10
237.7624828313078
 20
527.1140453944422
 30
0.0
 40
10.7827052
100
AcDbArc
 50
250.5278273813848
 51
289.4721726186153
  0
ARC
  5
7A0
330
1E
100
AcDbEntity
  8
STEMPEL
100
AcDbCircle
 10
237.7624828313078
 20
512.0486349944424
 30
0.0
 40
10.7827052
100
AcDbArc
 50
70.52782738138472
 51
109.4721726186152
  0
ARC
  5
7A1
330
1E
100
AcDbEntity
  8
STEMPEL
100
AcDbCircle
 10
243.1540887974198
 20
519.2582911323057
 30
0.0
 40
2.926950985085932
100
AcDbArc
 50
232.1193642828198
 51
301.469194524079
  0
ARC
  5
7A2
330
1E
100
AcDbEntity
  8
STEMPEL
100
AcDbCircle
 10
243.1540887974198
 20
519.9043892565788
 30
0.0
 40
2.926950985085932
100
AcDbArc
 50
58.53080547592095
 51
127.8806357171802
  0
LINE
  5
7A3
330
1E
100
AcDbEntity
  8
STEMPEL
100
AcDbLine
 10
230.5736748764918
 20
522.2454150053757
 30
0.0
 11
230.9728737730885
 21
522.475892595786
 31
0.0
  0
LINE
  5
7A4
330
1E
100
AcDbEntity
  8
STEMPEL
100
AcDbLine
 10
230.5736748764918
 20
516.9172653835088
 30
0.0
 11
230.9728737730885
 21
516.6867877930985
 31
0.0
  0
LINE
  5
7A5
330
1E
100
AcDbEntity
  8
STEMPEL
100
AcDbLine
 10
230.5736748764918
 20
522.2454150053757
 30
0.0
 11
230.5736748764918
 21
516.9172653835088
 31
0.0
  0
LINE
  5
7A6
330
1E
100
AcDbEntity
  8
STEMPEL
100
AcDbLine
 10
232.3714026364824
 20
516.3313401944423
 30
0.0
 11
243.1535630261238
 21
516.3313401944422
 31
0.0
  0
ARC
  5
7A7
330
1E
100
AcDbEntity
  8
STEMPEL
100
AcDbCircle
 10
232.3708768651958
 20
519.2582911323057
 30
0.0
 40
2.926950985085932
100
AcDbArc
 50
238.530805475921
 51
307.8806357171803
  0
LINE
  5
7A8
330
1E
100
AcDbEntity
  8
STEMPEL
100
AcDbLine
 10
232.3714026364824
 20
522.8313401944423
 30
0.0
 11
243.1535630261238
 21
522.8313401944424
 31
0.0
  0
ARC
  5
7A9
330
1E
100
AcDbEntity
  8
STEMPEL
100
AcDbCircle
 10
232.3708768651958
 20
519.9043892565788
 30
0.0
 40
2.926950985085932
100
AcDbArc
 50
52.11936428281976
 51
121.469194524079
  0
LINE
  5
7AA
102
{ACAD_REACTORS
330
792
102
}
330
1E
100
AcDbEntity
  8
STEMPEL
100
AcDbLine
 10
241.7624828313078
 20
526.4313401944425
 30
0.0
 11
346.7624828313078
 21
526.4313401944427
 31
0.0
  0
LINE
  5
7AB
102
{ACAD_REACTORS
330
792
102
}
330
1E
100
AcDbEntity
  8
STEMPEL
100
AcDbLine
 10
242.5124828313078
 20
526.4313401944425
 30
0.0
 11
242.5124828313077
 21
524.4313401944424
 31
0.0
  0
LINE
  5
7AC
102
{ACAD_REACTORS
330
792
102
}
330
1E
100
AcDbEntity
  8
STEMPEL
100
AcDbLine
 10
233.0124828313078
 20
526.4313401944423
 30
0.0
 11
233.0124828313077
 21
524.4313401944423
 31
0.0
  0
LINE
  5
7AD
330
1E
100
AcDbEntity
  8
STEMPEL
100
AcDbLine
 10
233.7624828313078
 20
513.8313401944421
 30
0.0
 11
233.7624828313078
 21
509.4313401944425
 31
0.0
  0
LINE
  5
7AE
330
1E
100
AcDbEntity
  8
HILF
100
AcDbLine
 10
234.7624828313078
 20
513.8313401944421
 30
0.0
 11
234.7624828313078
 21
508.4313401944426
 31
0.0
  0
LINE
  5
7AF
330
1E
100
AcDbEntity
  8
HILF
100
AcDbLine
 10
240.7624828313077
 20
513.8313401944421
 30
0.0
 11
240.7624828313077
 21
508.4313401944425
 31
0.0
  0
LINE
  5
7B0
330
1E
100
AcDbEntity
  8
STEMPEL
100
AcDbLine
 10
241.7624828313077
 20
513.8313401944421
 30
0.0
 11
241.7624828313077
 21
509.4313401944424
 31
0.0
  0
LINE
  5
7B1
330
1E
100
AcDbEntity
  8
STEMPEL
100
AcDbLine
 10
245.7624828313077
 20
524.4313401944424
 30
0.0
 11
245.7624828313078
 21
522.8313401944424
 31
0.0
  0
LINE
  5
7B2
330
1E
100
AcDbEntity
  8
STEMPEL
100
AcDbLine
 10
229.7624828313077
 20
524.4313401944424
 30
0.0
 11
229.7624828313078
 21
522.8313401944424
 31
0.0
  0
LINE
  5
7B3
330
1E
100
AcDbEntity
  8
STEMPEL
100
AcDbLine
 10
229.7624828313078
 20
522.8313401944424
 30
0.0
 11
245.7624828313078
 21
522.8313401944424
 31
0.0
  0
LINE
  5
7B4
330
1E
100
AcDbEntity
  8
STEMPEL
100
AcDbLine
 10
233.7624828313078
 20
509.4313401944425
 30
0.0
 11
234.7624828313078
 21
508.4313401944426
 31
0.0
  0
LINE
  5
7B5
330
1E
100
AcDbEntity
  8
STEMPEL
100
AcDbLine
 10
241.7624828313077
 20
509.4313401944424
 30
0.0
 11
240.7624828313077
 21
508.4313401944425
 31
0.0
  0
LINE
  5
7B6
330
1E
100
AcDbEntity
  8
HILF
100
AcDbLine
 10
234.7624828313078
 20
548.4313401944423
 30
0.0
 11
234.7624828313077
 21
524.4313401944423
 31
0.0
  0
LINE
  5
7B7
330
1E
100
AcDbEntity
  8
HILF
100
AcDbLine
 10
240.7624828313078
 20
548.4313401944423
 30
0.0
 11
240.7624828313077
 21
524.4313401944425
 31
0.0
  0
LINE
  5
7B8
330
1E
100
AcDbEntity
  8
STEMPEL
100
AcDbLine
 10
233.7624828313078
 20
509.4313401944425
 30
0.0
 11
241.7624828313077
 21
509.4313401944424
 31
0.0
  0
LINE
  5
7B9
330
1E
100
AcDbEntity
  8
STEMPEL
100
AcDbLine
 10
234.7624828313078
 20
508.4313401944426
 30
0.0
 11
240.7624828313077
 21
508.4313401944425
 31
0.0
  0
LINE
  5
7BA
330
1E
100
AcDbEntity
  8
STEMPEL
100
AcDbLine
 10
241.7624828313079
 20
548.4313401944423
 30
0.0
 11
241.7624828313077
 21
524.4313401944424
 31
0.0
  0
LINE
  5
7BB
330
1E
100
AcDbEntity
  8
STEMPEL
100
AcDbLine
 10
233.7624828313078
 20
548.4313401944423
 30
0.0
 11
233.7624828313078
 21
524.4313401944424
 31
0.0
  0
LINE
  5
7BC
102
{ACAD_REACTORS
330
792
102
}
330
1E
100
AcDbEntity
  8
STEMPEL
100
AcDbLine
 10
344.5124828313077
 20
526.4313401944427
 30
0.0
 11
344.5124828313077
 21
524.4313401944427
 31
0.0
  0
LINE
  5
7BD
102
{ACAD_REACTORS
330
792
102
}
330
1E
100
AcDbEntity
  8
STEMPEL
100
AcDbLine
 10
131.0124828313077
 20
526.4313401944421
 30
0.0
 11
131.0124828313077
 21
524.4313401944423
 31
0.0
  0
LINE
  5
7BE
102
{ACAD_REACTORS
330
792
102
}
330
1E
100
AcDbEntity
  8
STEMPEL
100
AcDbLine
 10
128.7624828313078
 20
526.4313401944421
 30
0.0
 11
233.7624828313078
 21
526.4313401944424
 31
0.0
  0
LINE
  5
7BF
102
{ACAD_REACTORS
330
792
102
}
330
1E
100
AcDbEntity
  8
STEMPEL
100
AcDbLine
 10
131.0124828313077
 20
524.4313401944422
 30
0.0
 11
344.5124828313078
 21
524.4313401944427
 31
0.0
  0
TEXT
  5
856
330
1E
100
AcDbEntity
  8
VOLL
100
AcDbText
 10
224.3929105184983
 20
403.1768569111926
 30
0.0
 40
1.8
  1

  7
GREEKS
100
AcDbText
  0
ARC
  5
86C
330
1E
100
AcDbEntity
  8
STEMPEL
100
AcDbCircle
 10
309.1624828313076
 20
425.1204510619872
 30
0.0
 40
30.31088913245485
100
AcDbArc
 50
81.78678929826221
 51
98.2132107017378
  0
ARC
  5
86D
330
1E
100
AcDbEntity
  8
STEMPEL
100
AcDbCircle
 10
302.6672923029242
 20
447.7370344866576
 30
0.0
 40
7.694305707784447
100
AcDbArc
 50
73.65710669401501
 51
106.342893305985
  0
ARC
  5
86E
330
1E
100
AcDbEntity
  8
STEMPEL
100
AcDbCircle
 10
315.6576733596909
 20
447.7370344866576
 30
0.0
 40
7.694305707784447
100
AcDbArc
 50
73.65710669401501
 51
106.342893305985
  0
ARC
  5
86F
330
1E
100
AcDbEntity
  8
HILF
100
AcDbCircle
 10
309.1624828313076
 20
425.5328791467809
 30
0.0
 40
22.41111549782308
100
AcDbArc
 50
78.85962783890615
 51
101.1403721610938
  0
ARC
  5
870
330
1E
100
AcDbEntity
  8
HILF
100
AcDbCircle
 10
315.6576733596909
 20
442.1828540449125
 30
0.0
 40
5.761140599691502
100
AcDbArc
 50
67.92594526326206
 51
112.0740547367379
  0
ARC
  5
871
330
1E
100
AcDbEntity
  8
HILF
100
AcDbCircle
 10
302.6672923029242
 20
442.1828540449125
 30
0.0
 40
5.761140599691502
100
AcDbArc
 50
67.92594526326206
 51
112.0740547367379
  0
POINT
  5
872
330
1E
100
AcDbEntity
  8
0
100
AcDbPoint
 10
309.1624828313076
 20
445.431340194442
 30
0.0
210
0.0000000000000001
220
1.0
230
0.0
  0
LINE
  5
873
330
1E
100
AcDbEntity
  8
STEMPEL
100
AcDbLine
 10
301.6624828313076
 20
455.4313401944421
 30
0.0
 11
316.6624828313076
 21
455.4313401944421
 31
0.0
  0
LINE
  5
874
330
1E
100
AcDbEntity
  8
STEMPEL
100
AcDbLine
 10
317.822736869152
 20
447.5216967106419
 30
0.0
 11
317.822736869152
 21
455.1204510619867
 31
0.0
  0
LINE
  5
875
330
1E
100
AcDbEntity
  8
STEMPEL
100
AcDbLine
 10
313.4926098502298
 20
447.5216967106419
 30
0.0
 11
313.4926098502298
 21
455.1204510619867
 31
0.0
  0
LINE
  5
876
330
1E
100
AcDbEntity
  8
STEMPEL
100
AcDbLine
 10
304.8323558123854
 20
447.5216967106419
 30
0.0
 11
304.8323558123854
 21
455.1204510619867
 31
0.0
  0
LINE
  5
877
330
1E
100
AcDbEntity
  8
STEMPEL
100
AcDbLine
 10
319.5689979388018
 20
446.8861096600315
 30
0.0
 11
298.7559677238134
 21
446.8861096600315
 31
0.0
  0
LINE
  5
878
330
1E
100
AcDbEntity
  8
STEMPEL
100
AcDbLine
 10
319.3124828313075
 20
445.431340194442
 30
0.0
 11
299.0124828313076
 21
445.431340194442
 31
0.0
  0
LINE
  5
879
330
1E
100
AcDbEntity
  8
STEMPEL
100
AcDbLine
 10
300.5022287934632
 20
447.5216967106419
 30
0.0
 11
300.5022287934632
 21
455.1204510619867
 31
0.0
  0
LINE
  5
87A
330
1E
100
AcDbEntity
  8
STEMPEL
100
AcDbLine
 10
301.6624828313076
 20
455.4313401944421
 30
0.0
 11
300.5022287934632
 21
455.1204510619867
 31
0.0
  0
LINE
  5
87B
330
1E
100
AcDbEntity
  8
STEMPEL
100
AcDbLine
 10
317.822736869152
 20
455.1204510619867
 30
0.0
 11
316.6624828313076
 21
455.4313401944421
 31
0.0
  0
LINE
  5
87C
330
1E
100
AcDbEntity
  8
STEMPEL
100
AcDbLine
 10
319.5689979388018
 20
446.8861096600315
 30
0.0
 11
317.822736869152
 21
447.5216967106419
 31
0.0
  0
LINE
  5
87D
330
1E
100
AcDbEntity
  8
STEMPEL
100
AcDbLine
 10
300.5022287934632
 20
447.5216967106419
 30
0.0
 11
298.7559677238134
 21
446.8861096600315
 31
0.0
  0
ARC
  5
87E
330
1E
100
AcDbEntity
  8
STEMPEL
100
AcDbCircle
 10
299.0124828313076
 20
446.1813401944421
 30
0.0
 40
0.7500000000000013
100
AcDbArc
 50
109.9999999999995
 51
269.9999991462263
  0
ARC
  5
87F
330
1E
100
AcDbEntity
  8
STEMPEL
100
AcDbCircle
 10
319.3124828313075
 20
446.1813401944421
 30
0.0
 40
0.750000000000001
100
AcDbArc
 50
269.9999991462263
 51
70.00000000000047
  0
ARC
  5
880
330
1E
100
AcDbEntity
  8
STEMPEL
100
AcDbCircle
 10
192.7624828313075
 20
425.1204510619871
 30
0.0
 40
30.31088913245485
100
AcDbArc
 50
81.78678929826221
 51
98.2132107017378
  0
ARC
  5
881
330
1E
100
AcDbEntity
  8
STEMPEL
100
AcDbCircle
 10
186.2672923029242
 20
447.7370344866575
 30
0.0
 40
7.694305707784447
100
AcDbArc
 50
73.65710669401501
 51
106.342893305985
  0
ARC
  5
882
330
1E
100
AcDbEntity
  8
STEMPEL
100
AcDbCircle
 10
199.2576733596908
 20
447.7370344866575
 30
0.0
 40
7.694305707784447
100
AcDbArc
 50
73.65710669401501
 51
106.342893305985
  0
ARC
  5
883
330
1E
100
AcDbEntity
  8
HILF
100
AcDbCircle
 10
192.7624828313075
 20
425.5328791467808
 30
0.0
 40
22.41111549782308
100
AcDbArc
 50
78.85962783890615
 51
101.1403721610938
  0
ARC
  5
884
330
1E
100
AcDbEntity
  8
HILF
100
AcDbCircle
 10
199.2576733596908
 20
442.1828540449123
 30
0.0
 40
5.761140599691502
100
AcDbArc
 50
67.92594526326206
 51
112.0740547367379
  0
ARC
  5
885
330
1E
100
AcDbEntity
  8
HILF
100
AcDbCircle
 10
186.2672923029242
 20
442.1828540449123
 30
0.0
 40
5.761140599691502
100
AcDbArc
 50
67.92594526326206
 51
112.0740547367379
  0
POINT
  5
886
330
1E
100
AcDbEntity
  8
0
100
AcDbPoint
 10
192.7624828313075
 20
445.4313401944419
 30
0.0
210
0.0000000000000001
220
1.0
230
0.0
  0
LINE
  5
887
330
1E
100
AcDbEntity
  8
STEMPEL
100
AcDbLine
 10
185.2624828313075
 20
455.4313401944419
 30
0.0
 11
200.2624828313075
 21
455.4313401944419
 31
0.0
  0
LINE
  5
888
330
1E
100
AcDbEntity
  8
STEMPEL
100
AcDbLine
 10
201.4227368691519
 20
447.5216967106418
 30
0.0
 11
201.4227368691519
 21
455.1204510619866
 31
0.0
  0
LINE
  5
889
330
1E
100
AcDbEntity
  8
STEMPEL
100
AcDbLine
 10
197.0926098502297
 20
447.5216967106418
 30
0.0
 11
197.0926098502297
 21
455.1204510619866
 31
0.0
  0
LINE
  5
88A
330
1E
100
AcDbEntity
  8
STEMPEL
100
AcDbLine
 10
188.4323558123853
 20
447.5216967106418
 30
0.0
 11
188.4323558123853
 21
455.1204510619866
 31
0.0
  0
LINE
  5
88B
330
1E
100
AcDbEntity
  8
STEMPEL
100
AcDbLine
 10
203.1689979388018
 20
446.8861096600313
 30
0.0
 11
182.3559677238133
 21
446.8861096600313
 31
0.0
  0
LINE
  5
88C
330
1E
100
AcDbEntity
  8
STEMPEL
100
AcDbLine
 10
202.9124828313075
 20
445.4313401944419
 30
0.0
 11
182.6124828313075
 21
445.4313401944419
 31
0.0
  0
LINE
  5
88D
330
1E
100
AcDbEntity
  8
STEMPEL
100
AcDbLine
 10
184.1022287934631
 20
447.5216967106418
 30
0.0
 11
184.1022287934631
 21
455.1204510619866
 31
0.0
  0
LINE
  5
88E
330
1E
100
AcDbEntity
  8
STEMPEL
100
AcDbLine
 10
185.2624828313075
 20
455.4313401944419
 30
0.0
 11
184.1022287934631
 21
455.1204510619866
 31
0.0
  0
LINE
  5
88F
330
1E
100
AcDbEntity
  8
STEMPEL
100
AcDbLine
 10
201.4227368691519
 20
455.1204510619866
 30
0.0
 11
200.2624828313075
 21
455.4313401944419
 31
0.0
  0
LINE
  5
890
330
1E
100
AcDbEntity
  8
STEMPEL
100
AcDbLine
 10
203.1689979388018
 20
446.8861096600313
 30
0.0
 11
201.4227368691519
 21
447.5216967106418
 31
0.0
  0
LINE
  5
891
330
1E
100
AcDbEntity
  8
STEMPEL
100
AcDbLine
 10
184.1022287934631
 20
447.5216967106418
 30
0.0
 11
182.3559677238133
 21
446.8861096600313
 31
0.0
  0
ARC
  5
892
330
1E
100
AcDbEntity
  8
STEMPEL
100
AcDbCircle
 10
182.6124828313075
 20
446.181340194442
 30
0.0
 40
0.7500000000000013
100
AcDbArc
 50
109.9999999999995
 51
269.9999991462263
  0
ARC
  5
893
330
1E
100
AcDbEntity
  8
STEMPEL
100
AcDbCircle
 10
202.9124828313075
 20
446.181340194442
 30
0.0
 40
0.750000000000001
100
AcDbArc
 50
269.9999991462263
 51
70.00000000000047
  0
ARC
  5
894
330
1E
100
AcDbEntity
  8
STEMPEL
100
AcDbCircle
 10
147.7624828313077
 20
425.120451061987
 30
0.0
 40
30.31088913245485
100
AcDbArc
 50
81.78678929826221
 51
98.2132107017378
  0
ARC
  5
895
330
1E
100
AcDbEntity
  8
STEMPEL
100
AcDbCircle
 10
141.2672923029244
 20
447.7370344866574
 30
0.0
 40
7.694305707784447
100
AcDbArc
 50
73.65710669401501
 51
106.342893305985
  0
ARC
  5
896
330
1E
100
AcDbEntity
  8
STEMPEL
100
AcDbCircle
 10
154.257673359691
 20
447.7370344866574
 30
0.0
 40
7.694305707784447
100
AcDbArc
 50
73.65710669401501
 51
106.342893305985
  0
ARC
  5
897
330
1E
100
AcDbEntity
  8
HILF
100
AcDbCircle
 10
147.7624828313077
 20
425.5328791467806
 30
0.0
 40
22.41111549782308
100
AcDbArc
 50
78.85962783890615
 51
101.1403721610938
  0
ARC
  5
898
330
1E
100
AcDbEntity
  8
HILF
100
AcDbCircle
 10
154.257673359691
 20
442.1828540449122
 30
0.0
 40
5.761140599691502
100
AcDbArc
 50
67.92594526326206
 51
112.0740547367379
  0
ARC
  5
899
330
1E
100
AcDbEntity
  8
HILF
100
AcDbCircle
 10
141.2672923029244
 20
442.1828540449122
 30
0.0
 40
5.761140599691502
100
AcDbArc
 50
67.92594526326206
 51
112.0740547367379
  0
POINT
  5
89A
330
1E
100
AcDbEntity
  8
0
100
AcDbPoint
 10
147.7624828313077
 20
445.4313401944419
 30
0.0
210
0.0000000000000001
220
1.0
230
0.0
  0
LINE
  5
89B
330
1E
100
AcDbEntity
  8
STEMPEL
100
AcDbLine
 10
140.2624828313077
 20
455.4313401944418
 30
0.0
 11
155.2624828313077
 21
455.4313401944418
 31
0.0
  0
LINE
  5
89C
330
1E
100
AcDbEntity
  8
STEMPEL
100
AcDbLine
 10
156.4227368691521
 20
447.5216967106417
 30
0.0
 11
156.4227368691521
 21
455.1204510619864
 31
0.0
  0
LINE
  5
89D
330
1E
100
AcDbEntity
  8
STEMPEL
100
AcDbLine
 10
152.0926098502299
 20
447.5216967106417
 30
0.0
 11
152.0926098502299
 21
455.1204510619864
 31
0.0
  0
LINE
  5
89E
330
1E
100
AcDbEntity
  8
STEMPEL
100
AcDbLine
 10
143.4323558123855
 20
447.5216967106417
 30
0.0
 11
143.4323558123855
 21
455.1204510619864
 31
0.0
  0
LINE
  5
89F
330
1E
100
AcDbEntity
  8
STEMPEL
100
AcDbLine
 10
158.168997938802
 20
446.8861096600313
 30
0.0
 11
137.3559677238135
 21
446.8861096600313
 31
0.0
  0
LINE
  5
8A0
330
1E
100
AcDbEntity
  8
STEMPEL
100
AcDbLine
 10
157.9124828313077
 20
445.4313401944419
 30
0.0
 11
137.6124828313077
 21
445.4313401944419
 31
0.0
  0
LINE
  5
8A1
330
1E
100
AcDbEntity
  8
STEMPEL
100
AcDbLine
 10
139.1022287934634
 20
447.5216967106417
 30
0.0
 11
139.1022287934634
 21
455.1204510619864
 31
0.0
  0
LINE
  5
8A2
330
1E
100
AcDbEntity
  8
STEMPEL
100
AcDbLine
 10
140.2624828313077
 20
455.4313401944418
 30
0.0
 11
139.1022287934634
 21
455.1204510619864
 31
0.0
  0
LINE
  5
8A3
330
1E
100
AcDbEntity
  8
STEMPEL
100
AcDbLine
 10
156.4227368691521
 20
455.1204510619864
 30
0.0
 11
155.2624828313077
 21
455.4313401944418
 31
0.0
  0
LINE
  5
8A4
330
1E
100
AcDbEntity
  8
STEMPEL
100
AcDbLine
 10
158.168997938802
 20
446.8861096600313
 30
0.0
 11
156.4227368691521
 21
447.5216967106417
 31
0.0
  0
LINE
  5
8A5
330
1E
100
AcDbEntity
  8
STEMPEL
100
AcDbLine
 10
139.1022287934634
 20
447.5216967106417
 30
0.0
 11
137.3559677238135
 21
446.8861096600313
 31
0.0
  0
ARC
  5
8A6
330
1E
100
AcDbEntity
  8
STEMPEL
100
AcDbCircle
 10
137.6124828313077
 20
446.1813401944418
 30
0.0
 40
0.7500000000000013
100
AcDbArc
 50
109.9999999999995
 51
269.9999991462263
  0
ARC
  5
8A7
330
1E
100
AcDbEntity
  8
STEMPEL
100
AcDbCircle
 10
157.9124828313077
 20
446.1813401944418
 30
0.0
 40
0.750000000000001
100
AcDbArc
 50
269.9999991462263
 51
70.00000000000047
  0
TEXT
  5
8D0
330
1E
100
AcDbEntity
  8
VOLL
100
AcDbText
 10
326.4543456254275
 20
444.0529020357571
 30
0.0
 40
1.8
  1

 50
270.0
  7
GREEKS
100
AcDbText
  0
ARC
  5
8F1
330
1E
100
AcDbEntity
  8
HILF
100
AcDbCircle
 10
359.7624828313076
 20
447.1900481672167
 30
0.0
 40
14.94074366520046
100
AcDbArc
 50
78.85962783889434
 51
101.1403721611056
  0
ARC
  5
8F2
330
1E
100
AcDbEntity
  8
HILF
100
AcDbCircle
 10
355.4323558123854
 20
458.2900314326264
 30
0.0
 40
3.840760399790701
100
AcDbArc
 50
67.92594526323999
 51
112.07405473676
  0
ARC
  5
8F3
330
1E
100
AcDbEntity
  8
HILF
100
AcDbCircle
 10
364.0926098502299
 20
458.2888668707382
 30
0.0
 40
3.841839622940954
100
AcDbArc
 50
67.9324721810082
 51
112.0675278189918
  0
ARC
  5
8F4
330
1E
100
AcDbEntity
  8
STEMPEL
100
AcDbCircle
 10
359.7624828313076
 20
446.824080772806
 30
0.0
 40
20.20725942163691
100
AcDbArc
 50
81.78678929826011
 51
98.21321070173988
  0
ARC
  5
8F5
330
1E
100
AcDbEntity
  8
STEMPEL
100
AcDbCircle
 10
355.4323558123854
 20
461.9018030559198
 30
0.0
 40
5.129537138523076
100
AcDbArc
 50
73.65710669401657
 51
106.3428933059834
  0
LINE
  5
8F6
330
1E
100
AcDbEntity
  8
STEMPEL
100
AcDbLine
 10
354.7624828313076
 20
467.0313401944429
 30
0.0
 11
353.9889801394114
 21
466.824080772806
 31
0.0
  0
LINE
  5
8F7
330
1E
100
AcDbEntity
  8
STEMPEL
100
AcDbLine
 10
364.7624828313076
 20
467.0313401944429
 30
0.0
 11
365.5359855232039
 21
466.824080772806
 31
0.0
  0
ARC
  5
8F8
330
1E
100
AcDbEntity
  8
STEMPEL
100
AcDbCircle
 10
364.0926098502299
 20
461.9018030559198
 30
0.0
 40
5.129537138523076
100
AcDbArc
 50
73.65710669401657
 51
106.3428933059834
  0
LINE
  5
8F9
330
1E
100
AcDbEntity
  8
STEMPEL
100
AcDbLine
 10
366.5005939101367
 20
461.4981711358751
 30
0.0
 11
353.0243717524785
 21
461.4981711358751
 31
0.0
  0
LINE
  5
8FA
330
1E
100
AcDbEntity
  8
STEMPEL
100
AcDbLine
 10
366.3124828313077
 20
460.4313401944429
 30
0.0
 11
353.2124828313076
 21
460.4313401944429
 31
0.0
  0
LINE
  5
8FB
330
1E
100
AcDbEntity
  8
STEMPEL
100
AcDbLine
 10
353.9889801394114
 20
466.824080772806
 30
0.0
 11
353.9889801394114
 21
461.8492598764422
 31
0.0
  0
LINE
  5
8FC
330
1E
100
AcDbEntity
  8
STEMPEL
100
AcDbLine
 10
356.8757314853595
 20
466.824080772806
 30
0.0
 11
356.8757314853595
 21
461.8492598764422
 31
0.0
  0
LINE
  5
8FD
330
1E
100
AcDbEntity
  8
STEMPEL
100
AcDbLine
 10
362.6492341772558
 20
466.824080772806
 30
0.0
 11
362.6492341772558
 21
461.8492598764422
 31
0.0
  0
LINE
  5
8FE
330
1E
100
AcDbEntity
  8
STEMPEL
100
AcDbLine
 10
365.5359855232039
 20
466.824080772806
 30
0.0
 11
365.5359855232039
 21
461.8492598764422
 31
0.0
  0
LINE
  5
8FF
330
1E
100
AcDbEntity
  8
STEMPEL
100
AcDbLine
 10
364.7624828313076
 20
467.0313401944429
 30
0.0
 11
354.7624828313076
 21
467.0313401944429
 31
0.0
  0
LINE
  5
900
330
1E
100
AcDbEntity
  8
STEMPEL
100
AcDbLine
 10
353.9889801394114
 20
461.8492598764422
 30
0.0
 11
353.0243717524785
 21
461.4981711358751
 31
0.0
  0
LINE
  5
901
330
1E
100
AcDbEntity
  8
STEMPEL
100
AcDbLine
 10
366.5005939101367
 20
461.4981711358751
 30
0.0
 11
365.5359855232039
 21
461.8492598764422
 31
0.0
  0
ARC
  5
902
330
1E
100
AcDbEntity
  8
STEMPEL
100
AcDbCircle
 10
366.3124828313077
 20
460.9813401944428
 30
0.0
 40
0.5500000000000009
100
AcDbArc
 50
270.0
 51
69.99999999999935
  0
ARC
  5
903
330
1E
100
AcDbEntity
  8
STEMPEL
100
AcDbCircle
 10
353.2124828313076
 20
460.9813401944428
 30
0.0
 40
0.5500000000000003
100
AcDbArc
 50
110.0000000000006
 51
270.0
  0
ARC
  5
905
330
1E
100
AcDbEntity
  8
STEMPEL
100
AcDbCircle
 10
134.4233753157774
 20
460.9813401944403
 30
0.0
 40
0.5500000000000003
100
AcDbArc
 50
110.0000000000006
 51
270.0
  0
ARC
  5
906
330
1E
100
AcDbEntity
  8
STEMPEL
100
AcDbCircle
 10
147.5233753157774
 20
460.9813401944403
 30
0.0
 40
0.5500000000000009
100
AcDbArc
 50
270.0
 51
69.99999999999935
  0
LINE
  5
907
330
1E
100
AcDbEntity
  8
STEMPEL
100
AcDbLine
 10
147.7114863946065
 20
461.4981711358726
 30
0.0
 11
146.7468780076736
 21
461.8492598764397
 31
0.0
  0
LINE
  5
908
330
1E
100
AcDbEntity
  8
STEMPEL
100
AcDbLine
 10
135.1998726238811
 20
461.8492598764397
 30
0.0
 11
134.2352642369483
 21
461.4981711358726
 31
0.0
  0
LINE
  5
909
330
1E
100
AcDbEntity
  8
STEMPEL
100
AcDbLine
 10
139.2423543680474
 20
467.0313401944404
 30
0.0
 11
135.9733753157774
 21
467.0313401944404
 31
0.0
  0
LINE
  5
90A
330
1E
100
AcDbEntity
  8
STEMPEL
100
AcDbLine
 10
146.7468780076737
 20
463.8094114662573
 30
0.0
 11
146.7468780076737
 21
461.8492598764397
 31
0.0
  0
LINE
  5
90C
330
1E
100
AcDbEntity
  8
STEMPEL
100
AcDbLine
 10
138.0866239698293
 20
466.8240807728035
 30
0.0
 11
138.0866239698293
 21
461.8492598764397
 31
0.0
  0
LINE
  5
90D
330
1E
100
AcDbEntity
  8
STEMPEL
100
AcDbLine
 10
135.1998726238811
 20
466.8240807728035
 30
0.0
 11
135.1998726238811
 21
461.8492598764397
 31
0.0
  0
LINE
  5
90F
330
1E
100
AcDbEntity
  8
STEMPEL
100
AcDbLine
 10
147.7114863946065
 20
461.4981711358726
 30
0.0
 11
145.8496984903324
 21
461.4981711358726
 31
0.0
  0
LINE
  5
912
330
1E
100
AcDbEntity
  8
STEMPEL
100
AcDbLine
 10
135.9733753157774
 20
467.0313401944404
 30
0.0
 11
135.1998726238811
 21
466.8240807728035
 31
0.0
  0
ARC
  5
913
330
1E
100
AcDbEntity
  8
STEMPEL
100
AcDbCircle
 10
136.6432482968552
 20
461.9018030559173
 30
0.0
 40
5.129537138523076
100
AcDbArc
 50
73.65710669401657
 51
106.3428933059834
  0
ARC
  5
914
330
1E
100
AcDbEntity
  8
STEMPEL
100
AcDbCircle
 10
140.9733753157774
 20
446.8240807728035
 30
0.0
 40
20.20725942163691
100
AcDbArc
 50
94.91416948520935
 51
98.21321070173988
  0
ARC
  5
915
330
1E
100
AcDbEntity
  8
HILF
100
AcDbCircle
 10
145.3035023346996
 20
458.2888668707357
 30
0.0
 40
3.841839622940954
100
AcDbArc
 50
67.9324721810082
 51
77.40284130778492
  0
ARC
  5
916
330
1E
100
AcDbEntity
  8
HILF
100
AcDbCircle
 10
136.6432482968552
 20
458.290031432624
 30
0.0
 40
3.840760399790701
100
AcDbArc
 50
67.92594526323999
 51
112.07405473676
  0
ARC
  5
917
330
1E
100
AcDbEntity
  8
HILF
100
AcDbCircle
 10
140.9733753157774
 20
447.1900481672142
 30
0.0
 40
14.94074366520046
100
AcDbArc
 50
100.2909006776838
 51
101.1403721611056
  0
LINE
  5
918
330
1E
100
AcDbEntity
  8
STEMPEL
100
AcDbLine
 10
138.0433438247649
 20
461.4981711358726
 30
0.0
 11
134.2352642369483
 21
461.4981711358726
 31
0.0
  0
HATCH
  5
93E
330
1E
100
AcDbEntity
  8
SCHRAFF
100
AcDbHatch
 10
0.0
 20
0.0
 30
0.0
210
0.0
220
0.0
230
1.0
  2
NET
 70
     0
 71
     1
 91
        5
 92
        7
 72
     0
 73
     1
 93
        4
 10
328.0245622509677
 20
436.4313401944413
 10
329.3368871589753
 20
433.4313401944411
 10
360.2624828313076
 20
433.4313401944411
 10
360.2624828313077
 20
436.4313401944413
 97
        4
330
5A4
330
739
330
5D7
330
54E
 92
        7
 72
     0
 73
     1
 93
        4
 10
329.3368871589754
 20
433.431340194441
 10
328.0245622509677
 20
436.4313401944413
 10
309.1624828313076
 20
436.4313401944412
 10
309.1624828313077
 20
433.4313401944411
 97
        4
330
5A4
330
56A
330
5D7
330
739
 92
        7
 72
     0
 73
     1
 93
        4
 10
309.1624828313076
 20
433.4313401944411
 10
309.1624828313076
 20
436.4313401944413
 10
300.2624828313076
 20
436.4313401944413
 10
300.2624828313076
 20
433.4313401944411
 97
        4
330
5A4
330
567
330
5D7
330
56A
 92
        7
 72
     0
 73
     1
 93
        4
 10
175.2624828313076
 20
433.4313401944412
 10
175.2624828313076
 20
436.4313401944412
 10
154.2624828313077
 20
436.4313401944413
 10
154.2624828313076
 20
433.4313401944412
 97
        4
330
5A4
330
595
330
5D7
330
593
 92
        7
 72
     0
 73
     1
 93
        4
 10
141.2624828313076
 20
433.4313401944412
 10
141.2624828313076
 20
436.4313401944413
 10
115.2624828313076
 20
436.4313401944413
 10
115.2624828313076
 20
433.4313401944412
 97
        4
330
5C3
330
5C0
330
5D7
330
5BE
 75
     0
 76
     1
 52
45.0
 41
15.0
 77
     0
 78
     2
 53
45.0
 43
0.0
 44
0.0
 45
-1.325825214724776
 46
1.325825214724776
 79
     0
 53
135.0
 43
0.0
 44
0.0
 45
-1.325825214724776
 46
-1.325825214724776
 79
     0
 47
0.2917173782896212
 98
        5
 10
338.0761438320469
 20
435.199140689498
 10
318.23262905614
 20
434.0322714905733
 10
305.97634313963
 20
434.9074230438938
 10
166.1963064632568
 20
434.3239891361775
 10
133.2210584522304
 20
434.3239891361775
  0
ENDSEC
  0
SECTION
  2
OBJECTS
  0
DICTIONARY
  5
C
330
0
100
AcDbDictionary
281
     1
  3
ACAD_COLOR
350
DF
  3
ACAD_GROUP
350
D
  3
ACAD_LAYOUT
350
19
  3
ACAD_MATERIAL
350
DE
  3
ACAD_MLINESTYLE
350
16
  3
ACAD_PLOTSETTINGS
350
18
  3
ACAD_PLOTSTYLENAME
350
E
  3
AcDbVariableDictionary
350
EA
  0
DICTIONARY
  5
A0
330
1E
100
AcDbDictionary
280
     1
281
     1
  3
ACAD_LAYOUTSELFREF
360
D4
  0
DICTIONARY
  5
A2
330
1A
100
AcDbDictionary
280
     1
281
     1
  3
ACAD_LAYOUTSELFREF
360
D3
  0
DICTIONARY
  5
DF
102
{ACAD_REACTORS
330
C
102
}
330
C
100
AcDbDictionary
281
     1
  0
DICTIONARY
  5
D
102
{ACAD_REACTORS
330
C
102
}
330
C
100
AcDbDictionary
281
     1
  0
DICTIONARY
  5
19
102
{ACAD_REACTORS
330
C
102
}
330
C
100
AcDbDictionary
281
     1
  3
Layout1
350
1D
  3
Model
350
21
  0
DICTIONARY
  5
DE
102
{ACAD_REACTORS
330
C
102
}
330
C
100
AcDbDictionary
281
     1
  0
DICTIONARY
  5
16
102
{ACAD_REACTORS
330
C
102
}
330
C
100
AcDbDictionary
281
     1
  3
Standard
350
17
  0
DICTIONARY
  5
18
102
{ACAD_REACTORS
330
C
102
}
330
C
100
AcDbDictionary
281
     1
  0
ACDBDICTIONARYWDFLT
  5
E
102
{ACAD_REACTORS
330
C
102
}
330
C
100
AcDbDictionary
281
     1
  3
Normal
350
F
100
AcDbDictionaryWithDefault
340
F
  0
DICTIONARY
  5
EA
102
{ACAD_REACTORS
330
C
102
}
330
C
100
AcDbDictionary
281
     1
  3
DIMASSOC
350
EB
  3
PROJECTNAME
350
EC
  0
XRECORD
  5
D4
102
{ACAD_REACTORS
330
A0
102
}
330
A0
100
AcDbXrecord
280
     1
340
1E
  0
XRECORD
  5
D3
102
{ACAD_REACTORS
330
A2
102
}
330
A2
100
AcDbXrecord
280
     1
340
1A
  0
LAYOUT
  5
1D
102
{ACAD_REACTORS
330
19
102
}
330
19
100
AcDbPlotSettings
  1

  2
\\NT_WORK01\HP LaserJet 5000 PCL 6
  4

  6

 40
0.0
 41
0.0
 42
0.0
 43
0.0
 44
0.0
 45
0.0
 46
0.0
 47
0.0
 48
0.0
 49
0.0
140
0.0
141
0.0
142
1.0
143
1.0
 70
   688
 72
     0
 73
     0
 74
     5
  7

 75
    16
147
1.0
 76
     0
 77
     2
 78
   300
148
0.0
149
0.0
100
AcDbLayout
  1
Layout1
 70
     0
 71
     1
 10
0.0
 20
0.0
 11
12.0
 21
9.0
 12
0.0
 22
0.0
 32
0.0
 14
1.000000000000000E+20
 24
1.000000000000000E+20
 34
1.000000000000000E+20
 15
-1.000000000000000E+20
 25
-1.000000000000000E+20
 35
-1.000000000000000E+20
146
0.0
 13
0.0
 23
0.0
 33
0.0
 16
1.0
 26
0.0
 36
0.0
 17
0.0
 27
1.0
 37
0.0
 76
     0
330
1A
  0
LAYOUT
  5
21
102
{ACAD_REACTORS
330
19
102
}
330
19
100
AcDbPlotSettings
  1

  2
none_device
  4
Letter_(8.50_x_11.00_Inches)
  6

 40
6.349999904632568
 41
6.349999904632568
 42
6.350006103515625
 43
6.350006103515625
 44
215.8999938964844
 45
279.3999938964844
 46
0.0
 47
0.0
 48
0.0
 49
0.0
140
0.0
141
0.0
142
1.0
143
1.0
 70
 11952
 72
     0
 73
     1
 74
     0
  7

 75
     0
147
1.0
 76
     0
 77
     2
 78
   300
148
2209.800000000002
149
0.0
100
AcDbLayout
  1
Model
 70
     1
 71
     0
 10
0.0
 20
0.0
 11
12.0
 21
9.0
 12
0.0
 22
0.0
 32
0.0
 14
0.0
 24
0.0
 34
0.0
 15
0.0
 25
0.0
 35
0.0
146
0.0
 13
0.0
 23
0.0
 33
0.0
 16
1.0
 26
0.0
 36
0.0
 17
0.0
 27
1.0
 37
0.0
 76
     0
330
1E
  0
MLINESTYLE
  5
17
102
{ACAD_REACTORS
330
16
102
}
330
16
100
AcDbMlineStyle
  2
STANDARD
 70
     0
  3

 62
   256
 51
90.0
 52
90.0
 71
     2
 49
0.5
 62
   256
  6
BYLAYER
 49
-0.5
 62
   256
  6
BYLAYER
  0
ACDBPLACEHOLDER
  5
F
102
{ACAD_REACTORS
330
E
102
}
330
E
  0
DICTIONARYVAR
  5
EB
102
{ACAD_REACTORS
330
EA
102
}
330
EA
100
DictionaryVariables
280
     0
  1
1
  0
DICTIONARYVAR
  5
EC
102
{ACAD_REACTORS
330
EA
102
}
330
EA
100
DictionaryVariables
280
     0
  1

  0
ENDSEC
  0
EOF
