  0
SECTION
  2
HEADER
  9
$ACADVER
  1
AC1018
  9
$ACADMAINTVER
 70
     2
  9
$DWGCODEPAGE
  3
ANSI_1252
  9
$INSBASE
 10
0.0
 20
0.0
 30
0.0
  9
$EXTMIN
 10
-0.0000000000001137
 20
-0.0000000000001137
 30
0.0
  9
$EXTMAX
 10
420.0
 20
594.0000000000002
 30
0.0
  9
$LIMMIN
 10
0.0
 20
0.0
  9
$LIMMAX
 10
419.9999999999999
 20
594.0
  9
$ORTHOMODE
 70
     1
  9
$REGENMODE
 70
     1
  9
$FILLMODE
 70
     1
  9
$QTEXTMODE
 70
     0
  9
$MIRRTEXT
 70
     1
  9
$LTSCALE
 40
20.0
  9
$ATTMODE
 70
     1
  9
$TEXTSIZE
 40
3.5
  9
$TRACEWID
 40
0.5
  9
$TEXTSTYLE
  7
STANDARD
  9
$CLAYER
  8
VOLL
  9
$CELTYPE
  6
ByLayer
  9
$CECOLOR
 62
   256
  9
$CELTSCALE
 40
1.0
  9
$DISPSILH
 70
     0
  9
$DIMSCALE
 40
2.0
  9
$DIMASZ
 40
3.5
  9
$DIMEXO
 40
1.0
  9
$DIMDLI
 40
7.0
  9
$DIMRND
 40
0.0
  9
$DIMDLE
 40
0.0
  9
$DIMEXE
 40
1.0
  9
$DIMTP
 40
0.0
  9
$DIMTM
 40
0.0
  9
$DIMTXT
 40
3.5
  9
$DIMCEN
 40
1.5
  9
$DIMTSZ
 40
0.0
  9
$DIMTOL
 70
     0
  9
$DIMLIM
 70
     0
  9
$DIMTIH
 70
     0
  9
$DIMTOH
 70
     0
  9
$DIMSE1
 70
     0
  9
$DIMSE2
 70
     0
  9
$DIMTAD
 70
     1
  9
$DIMZIN
 70
     8
  9
$DIMBLK
  1

  9
$DIMASO
 70
     1
  9
$DIMSHO
 70
     0
  9
$DIMPOST
  1

  9
$DIMAPOST
  1

  9
$DIMALT
 70
     0
  9
$DIMALTD
 70
     2
  9
$DIMALTF
 40
25.4
  9
$DIMLFAC
 40
1.0
  9
$DIMTOFL
 70
     1
  9
$DIMTVP
 40
0.0
  9
$DIMTIX
 70
     0
  9
$DIMSOXD
 70
     0
  9
$DIMSAH
 70
     0
  9
$DIMBLK1
  1

  9
$DIMBLK2
  1

  9
$DIMSTYLE
  2
Standard
  9
$DIMCLRD
 70
     0
  9
$DIMCLRE
 70
     0
  9
$DIMCLRT
 70
     1
  9
$DIMTFAC
 40
0.5142857142857144
  9
$DIMGAP
 40
1.5
  9
$DIMJUST
 70
     0
  9
$DIMSD1
 70
     0
  9
$DIMSD2
 70
     0
  9
$DIMTOLJ
 70
     1
  9
$DIMTZIN
 70
     8
  9
$DIMALTZ
 70
     8
  9
$DIMALTTZ
 70
     8
  9
$DIMUPT
 70
     0
  9
$DIMDEC
 70
     2
  9
$DIMTDEC
 70
     2
  9
$DIMALTU
 70
     2
  9
$DIMALTTD
 70
     2
  9
$DIMTXSTY
  7
STANDARD
  9
$DIMAUNIT
 70
     0
  9
$DIMADEC
 70
     2
  9
$DIMALTRND
 40
0.0
  9
$DIMAZIN
 70
     2
  9
$DIMDSEP
 70
    46
  9
$DIMATFIT
 70
     3
  9
$DIMFRAC
 70
     0
  9
$DIMLDRBLK
  1

  9
$DIMLUNIT
 70
     2
  9
$DIMLWD
 70
    -2
  9
$DIMLWE
 70
    -2
  9
$DIMTMOVE
 70
     0
  9
$LUNITS
 70
     2
  9
$LUPREC
 70
     2
  9
$SKETCHINC
 40
1.0
  9
$FILLETRAD
 40
0.0
  9
$AUNITS
 70
     0
  9
$AUPREC
 70
     0
  9
$MENU
  1
ACAD
  9
$ELEVATION
 40
0.0
  9
$PELEVATION
 40
0.0
  9
$THICKNESS
 40
0.0
  9
$LIMCHECK
 70
     0
  9
$CHAMFERA
 40
0.0
  9
$CHAMFERB
 40
0.0
  9
$CHAMFERC
 40
0.0
  9
$CHAMFERD
 40
0.0
  9
$SKPOLY
 70
     0
  9
$TDCREATE
 40
2455397.823042361
  9
$TDUCREATE
 40
2455397.781375695
  9
$TDUPDATE
 40
2455545.468697292
  9
$TDUUPDATE
 40
2455545.427030625
  9
$TDINDWG
 40
0.1461003935
  9
$TDUSRTIMER
 40
0.1461003935
  9
$USRTIMER
 70
     1
  9
$ANGBASE
 50
0.0
  9
$ANGDIR
 70
     0
  9
$PDMODE
 70
     0
  9
$PDSIZE
 40
0.0
  9
$PLINEWID
 40
0.0
  9
$SPLFRAME
 70
     0
  9
$SPLINETYPE
 70
     6
  9
$SPLINESEGS
 70
     8
  9
$HANDSEED
  5
17BF
  9
$SURFTAB1
 70
     6
  9
$SURFTAB2
 70
     6
  9
$SURFTYPE
 70
     6
  9
$SURFU
 70
     6
  9
$SURFV
 70
     6
  9
$UCSBASE
  2

  9
$UCSNAME
  2

  9
$UCSORG
 10
0.0
 20
0.0
 30
0.0
  9
$UCSXDIR
 10
1.0
 20
0.0
 30
0.0
  9
$UCSYDIR
 10
0.0
 20
1.0
 30
0.0
  9
$UCSORTHOREF
  2

  9
$UCSORTHOVIEW
 70
     0
  9
$UCSORGTOP
 10
0.0
 20
0.0
 30
0.0
  9
$UCSORGBOTTOM
 10
0.0
 20
0.0
 30
0.0
  9
$UCSORGLEFT
 10
0.0
 20
0.0
 30
0.0
  9
$UCSORGRIGHT
 10
0.0
 20
0.0
 30
0.0
  9
$UCSORGFRONT
 10
0.0
 20
0.0
 30
0.0
  9
$UCSORGBACK
 10
0.0
 20
0.0
 30
0.0
  9
$PUCSBASE
  2

  9
$PUCSNAME
  2

  9
$PUCSORG
 10
0.0
 20
0.0
 30
0.0
  9
$PUCSXDIR
 10
1.0
 20
0.0
 30
0.0
  9
$PUCSYDIR
 10
0.0
 20
1.0
 30
0.0
  9
$PUCSORTHOREF
  2

  9
$PUCSORTHOVIEW
 70
     0
  9
$PUCSORGTOP
 10
0.0
 20
0.0
 30
0.0
  9
$PUCSORGBOTTOM
 10
0.0
 20
0.0
 30
0.0
  9
$PUCSORGLEFT
 10
0.0
 20
0.0
 30
0.0
  9
$PUCSORGRIGHT
 10
0.0
 20
0.0
 30
0.0
  9
$PUCSORGFRONT
 10
0.0
 20
0.0
 30
0.0
  9
$PUCSORGBACK
 10
0.0
 20
0.0
 30
0.0
  9
$USERI1
 70
     0
  9
$USERI2
 70
     0
  9
$USERI3
 70
     0
  9
$USERI4
 70
     0
  9
$USERI5
 70
     0
  9
$USERR1
 40
0.0
  9
$USERR2
 40
0.0
  9
$USERR3
 40
0.0
  9
$USERR4
 40
0.0
  9
$USERR5
 40
0.0
  9
$WORLDVIEW
 70
     1
  9
$SHADEDGE
 70
     3
  9
$SHADEDIF
 70
    70
  9
$TILEMODE
 70
     1
  9
$MAXACTVP
 70
    16
  9
$PINSBASE
 10
0.0
 20
0.0
 30
0.0
  9
$PLIMCHECK
 70
     0
  9
$PEXTMIN
 10
1.000000000000000E+20
 20
1.000000000000000E+20
 30
1.000000000000000E+20
  9
$PEXTMAX
 10
-1.000000000000000E+20
 20
-1.000000000000000E+20
 30
-1.000000000000000E+20
  9
$PLIMMIN
 10
0.0
 20
0.0
  9
$PLIMMAX
 10
12.0
 20
9.0
  9
$UNITMODE
 70
     0
  9
$VISRETAIN
 70
     0
  9
$PLINEGEN
 70
     0
  9
$PSLTSCALE
 70
     0
  9
$TREEDEPTH
 70
  3020
  9
$CMLSTYLE
  2
Standard
  9
$CMLJUST
 70
     0
  9
$CMLSCALE
 40
1.0
  9
$PROXYGRAPHICS
 70
     1
  9
$MEASUREMENT
 70
     0
  9
$CELWEIGHT
370
    -1
  9
$ENDCAPS
280
     0
  9
$JOINSTYLE
280
     0
  9
$LWDISPLAY
290
     0
  9
$INSUNITS
 70
     0
  9
$HYPERLINKBASE
  1

  9
$STYLESHEET
  1
monochrome 1.ctb
  9
$XEDIT
290
     1
  9
$CEPSNTYPE
380
     0
  9
$PSTYLEMODE
290
     1
  9
$FINGERPRINTGUID
  2
{D68B0D02-A558-11D7-B632-000102183313}
  9
$VERSIONGUID
  2
{3610652C-AACB-4672-BDE5-621147CA6844}
  9
$EXTNAMES
290
     1
  9
$PSVPSCALE
 40
0.0
  9
$OLESTARTUP
290
     0
  9
$SORTENTS
280
   127
  9
$INDEXCTL
280
     0
  9
$HIDETEXT
280
     0
  9
$XCLIPFRAME
290
     0
  9
$HALOGAP
280
     0
  9
$OBSCOLOR
 70
   257
  9
$OBSLTYPE
280
     0
  9
$INTERSECTIONDISPLAY
280
     0
  9
$INTERSECTIONCOLOR
 70
   257
  9
$DIMASSOC
280
     1
  9
$PROJECTNAME
  1

  0
ENDSEC
  0
SECTION
  2
CLASSES
  0
CLASS
  1
ACDBDICTIONARYWDFLT
  2
AcDbDictionaryWithDefault
  3
ObjectDBX Classes
 90
        0
 91
        1
280
     0
281
     0
  0
CLASS
  1
DICTIONARYVAR
  2
AcDbDictionaryVar
  3
ObjectDBX Classes
 90
        0
 91
        2
280
     0
281
     0
  0
ENDSEC
  0
SECTION
  2
TABLES
  0
TABLE
  2
VPORT
  5
8
330
0
100
AcDbSymbolTable
 70
     2
  0
VPORT
  5
17BE
330
8
100
AcDbSymbolTableRecord
100
AcDbViewportTableRecord
  2
*Active
 70
     0
 10
0.0
 20
0.0
 11
1.0
 21
1.0
 12
210.0
 22
297.0
 13
0.0
 23
0.0
 14
1.0
 24
1.0
 15
10.0
 25
10.0
 16
0.0
 26
0.0
 36
1.0
 17
0.0
 27
0.0
 37
0.0
 40
594.3208754108747
 41
1.336927223719676
 42
50.0
 43
0.0
 44
0.0
 50
0.0
 51
0.0
 71
     0
 72
  1500
 73
     1
 74
     0
 75
     0
 76
     0
 77
     0
 78
     0
281
     0
 65
     1
110
0.0
120
0.0
130
0.0
111
1.0
121
0.0
131
0.0
112
0.0
122
1.0
132
0.0
 79
     0
146
0.0
  0
ENDTAB
  0
TABLE
  2
LTYPE
  5
5
330
0
100
AcDbSymbolTable
 70
     3
  0
LTYPE
  5
13
330
5
100
AcDbSymbolTableRecord
100
AcDbLinetypeTableRecord
  2
ByBlock
 70
     0
  3

 72
    65
 73
     0
 40
0.0
  0
LTYPE
  5
14
330
5
100
AcDbSymbolTableRecord
100
AcDbLinetypeTableRecord
  2
ByLayer
 70
     0
  3

 72
    65
 73
     0
 40
0.0
  0
LTYPE
  5
15
330
5
100
AcDbSymbolTableRecord
100
AcDbLinetypeTableRecord
  2
Continuous
 70
     0
  3
Solid line
 72
    65
 73
     0
 40
0.0
  0
LTYPE
  5
25
330
5
100
AcDbSymbolTableRecord
100
AcDbLinetypeTableRecord
  2
STRICHPUNKT
 70
     0
  3
__ . __ . __ . __ . __ . __ . __ . __ . __ . __
 72
    65
 73
     4
 40
1.0
 49
0.5
 74
     0
 49
-0.25
 74
     0
 49
0.0
 74
     0
 49
-0.25
 74
     0
  0
LTYPE
  5
32
330
5
100
AcDbSymbolTableRecord
100
AcDbLinetypeTableRecord
  2
AUSGEZOGEN
 70
     0
  3
Ausgezogene Linie
 72
    65
 73
     0
 40
0.0
  0
ENDTAB
  0
TABLE
  2
LAYER
  5
2
330
0
100
AcDbSymbolTable
 70
     9
  0
LAYER
  5
10
330
2
100
AcDbSymbolTableRecord
100
AcDbLayerTableRecord
  2
0
 70
     0
 62
     7
  6
Continuous
370
    -3
390
F
  0
LAYER
  5
2A
330
2
100
AcDbSymbolTableRecord
100
AcDbLayerTableRecord
  2
VOLL
 70
     0
 62
     1
  6
Continuous
370
    -3
390
F
  0
LAYER
  5
2B
330
2
100
AcDbSymbolTableRecord
100
AcDbLayerTableRecord
  2
HILF
 70
     0
 62
     2
  6
Continuous
370
    -3
390
F
  0
LAYER
  5
2C
330
2
100
AcDbSymbolTableRecord
100
AcDbLayerTableRecord
  2
MITTEL
 70
     0
 62
     2
  6
STRICHPUNKT
370
    -3
390
F
  0
LAYER
  5
2F
330
2
100
AcDbSymbolTableRecord
100
AcDbLayerTableRecord
  2
BEM
 70
     0
 62
     7
  6
Continuous
370
    -3
390
F
  0
LAYER
  5
30
330
2
100
AcDbSymbolTableRecord
100
AcDbLayerTableRecord
  2
STEMPEL
 70
     0
 62
     3
  6
Continuous
370
    -3
390
F
  0
LAYER
  5
31
330
2
100
AcDbSymbolTableRecord
100
AcDbLayerTableRecord
  2
TEXT
 70
     0
 62
     7
  6
Continuous
370
    -3
390
F
  0
LAYER
  5
4F0
330
2
100
AcDbSymbolTableRecord
100
AcDbLayerTableRecord
  2
DEFPOINTS
 70
     0
 62
     7
  6
AUSGEZOGEN
290
     0
370
    -3
390
F
  0
LAYER
  5
4F1
330
2
100
AcDbSymbolTableRecord
100
AcDbLayerTableRecord
  2
SCHRAFF
 70
     0
 62
     7
  6
AUSGEZOGEN
370
    -3
390
F
  0
ENDTAB
  0
TABLE
  2
STYLE
  5
3
330
0
100
AcDbSymbolTable
 70
     2
  0
STYLE
  5
11
330
3
100
AcDbSymbolTableRecord
100
AcDbTextStyleTableRecord
  2
STANDARD
 70
     0
 40
0.0
 41
0.8
 50
0.0
 71
     0
 42
3.5
  3
simplex.shx
  4

  0
STYLE
  5
24
330
3
100
AcDbSymbolTableRecord
100
AcDbTextStyleTableRecord
  2
GREEKS
 70
     0
 40
0.0
 41
0.8
 50
0.0
 71
     0
 42
2.5
  3
SIMPLEX.shx
  4

  0
ENDTAB
  0
TABLE
  2
VIEW
  5
6
330
0
100
AcDbSymbolTable
 70
     0
  0
ENDTAB
  0
TABLE
  2
UCS
  5
7
330
0
100
AcDbSymbolTable
 70
     0
  0
ENDTAB
  0
TABLE
  2
APPID
  5
9
330
0
100
AcDbSymbolTable
 70
     1
  0
APPID
  5
12
330
9
100
AcDbSymbolTableRecord
100
AcDbRegAppTableRecord
  2
ACAD
 70
     0
  0
ENDTAB
  0
TABLE
  2
DIMSTYLE
  5
A
330
0
100
AcDbSymbolTable
 70
     1
100
AcDbDimStyleTable
 71
     1
340
9D
  0
DIMSTYLE
105
9D
102
{ACAD_REACTORS
330
1156
330
1146
330
13BC
330
1607
330
1608
330
1609
102
}
330
A
100
AcDbSymbolTableRecord
100
AcDbDimStyleTableRecord
  2
Standard
 70
     0
340
11
  0
ENDTAB
  0
TABLE
  2
BLOCK_RECORD
  5
1
330
0
100
AcDbSymbolTable
 70
     7
  0
BLOCK_RECORD
  5
1E
102
{ACAD_XDICTIONARY
360
A0
102
}
330
1
100
AcDbSymbolTableRecord
100
AcDbBlockTableRecord
  2
*Model_Space
340
21
  0
BLOCK_RECORD
  5
1A
102
{ACAD_XDICTIONARY
360
A2
102
}
330
1
100
AcDbSymbolTableRecord
100
AcDbBlockTableRecord
  2
*Paper_Space
340
1D
  0
BLOCK_RECORD
  5
22
330
1
100
AcDbSymbolTableRecord
100
AcDbBlockTableRecord
  2
LOGO
340
0
102
{BLKREFS
331
125E
102
}
  0
BLOCK_RECORD
  5
1282
330
1
100
AcDbSymbolTableRecord
100
AcDbBlockTableRecord
  2
*D1
340
0
  0
BLOCK_RECORD
  5
129C
330
1
100
AcDbSymbolTableRecord
100
AcDbBlockTableRecord
  2
*D2
340
0
  0
BLOCK_RECORD
  5
13BD
330
1
100
AcDbSymbolTableRecord
100
AcDbBlockTableRecord
  2
*D3
340
0
  0
BLOCK_RECORD
  5
160A
330
1
100
AcDbSymbolTableRecord
100
AcDbBlockTableRecord
  2
*D4
340
0
  0
BLOCK_RECORD
  5
1616
330
1
100
AcDbSymbolTableRecord
100
AcDbBlockTableRecord
  2
*D5
340
0
  0
BLOCK_RECORD
  5
1622
330
1
100
AcDbSymbolTableRecord
100
AcDbBlockTableRecord
  2
*D6
340
0
  0
ENDTAB
  0
ENDSEC
  0
SECTION
  2
BLOCKS
  0
BLOCK
  5
35
330
1E
100
AcDbEntity
  8
0
100
AcDbBlockBegin
  2
*Model_Space
 70
     0
 10
0.0
 20
0.0
 30
0.0
  3
*Model_Space
  1

  0
ENDBLK
  5
36
330
1E
100
AcDbEntity
  8
0
100
AcDbBlockEnd
  0
BLOCK
  5
33
330
1A
100
AcDbEntity
 67
     1
  8
0
100
AcDbBlockBegin
  2
*Paper_Space
 70
     0
 10
0.0
 20
0.0
 30
0.0
  3
*Paper_Space
  1

  0
ENDBLK
  5
34
330
1A
100
AcDbEntity
 67
     1
  8
0
100
AcDbBlockEnd
  0
BLOCK
  5
37
330
22
100
AcDbEntity
  8
0
100
AcDbBlockBegin
  2
LOGO
 70
     0
 10
0.0
 20
0.0
 30
0.0
  3
LOGO
  1

  0
ARC
  5
38
330
22
100
AcDbEntity
  8
0
100
AcDbCircle
 10
11.59973089678112
 20
-9.271599258481501
 30
0.0
 40
4.5
100
AcDbArc
 50
270.0
 51
231.0575587310159
  0
LINE
  5
39
330
22
100
AcDbEntity
  8
0
100
AcDbLine
 10
3.599730896781125
 20
-4.771599258481529
 30
0.0
 11
3.599730896781153
 21
-11.77159925848133
 31
0.0
  0
LINE
  5
3A
330
22
100
AcDbEntity
  8
0
100
AcDbLine
 10
2.599730896781125
 20
-4.771599258481529
 30
0.0
 11
2.599730896781153
 21
-11.77159925848133
 31
0.0
  0
CIRCLE
  5
3B
330
22
100
AcDbEntity
  8
0
100
AcDbCircle
 10
11.59973089678112
 20
-9.271599258481501
 30
0.0
 40
3.5
  0
ARC
  5
3C
330
22
100
AcDbEntity
  8
0
100
AcDbCircle
 10
31.59973089678115
 20
-9.271599258481472
 30
0.0
 40
4.5
100
AcDbArc
 50
270.0
 51
231.0575587310182
  0
LINE
  5
3D
330
22
100
AcDbEntity
  8
0
100
AcDbLine
 10
17.59973089678112
 20
-4.771599258481472
 30
0.0
 11
17.59973089678115
 21
-13.77159925848147
 31
0.0
  0
ARC
  5
3E
330
22
100
AcDbEntity
  8
0
100
AcDbCircle
 10
22.59973089678116
 20
-7.271599258481472
 30
0.0
 40
2.5
100
AcDbArc
 50
293.1161887722295
 51
90.0
  0
CIRCLE
  5
3F
330
22
100
AcDbEntity
  8
0
100
AcDbCircle
 10
31.59973089678115
 20
-9.271599258481472
 30
0.0
 40
3.5
  0
ARC
  5
40
330
22
100
AcDbEntity
  8
0
100
AcDbCircle
 10
4.599730896781153
 20
-11.77159925848133
 30
0.0
 40
1.0
100
AcDbArc
 50
180.0
 51
270.0
  0
ARC
  5
41
330
22
100
AcDbEntity
  8
0
100
AcDbCircle
 10
4.599730896781153
 20
-11.77159925848133
 30
0.0
 40
2.0
100
AcDbArc
 50
179.9999999999992
 51
270.0
  0
LINE
  5
42
330
22
100
AcDbEntity
  8
0
100
AcDbLine
 10
11.59973089678115
 20
-13.77159925848144
 30
0.0
 11
4.599730896781153
 21
-13.77159925848147
 31
0.0
  0
LINE
  5
43
330
22
100
AcDbEntity
  8
0
100
AcDbLine
 10
8.771303772034769
 20
-12.77159925848136
 30
0.0
 11
4.599730896781153
 21
-12.77159925848133
 31
0.0
  0
LINE
  5
44
330
22
100
AcDbEntity
  8
0
100
AcDbLine
 10
31.59973089678115
 20
-13.77159925848147
 30
0.0
 11
23.6715276665056
 21
-13.77159925848144
 31
0.0
  0
LINE
  5
45
330
22
100
AcDbEntity
  8
0
100
AcDbLine
 10
23.56565672307022
 20
-9.51278021337896
 30
0.0
 11
24.4388546544846
 21
-12.77159925848144
 31
0.0
  0
LINE
  5
46
330
22
100
AcDbEntity
  8
0
100
AcDbLine
 10
22.59973089678116
 20
-9.771599258481472
 30
0.0
 11
18.59973089678112
 21
-9.771599258481472
 31
0.0
  0
LINE
  5
47
330
22
100
AcDbEntity
  8
0
100
AcDbLine
 10
18.59973089678115
 20
-13.77159925848144
 30
0.0
 11
17.59973089678115
 21
-13.77159925848144
 31
0.0
  0
LINE
  5
48
330
22
100
AcDbEntity
  8
0
100
AcDbLine
 10
18.59973089678115
 20
-9.771599258481472
 30
0.0
 11
18.59973089678115
 21
-13.77159925848144
 31
0.0
  0
LINE
  5
49
330
22
100
AcDbEntity
  8
0
100
AcDbLine
 10
22.59973089678116
 20
-9.771599258481472
 30
0.0
 11
23.67152766650562
 21
-13.77159925848147
 31
0.0
  0
ARC
  5
4A
330
22
100
AcDbEntity
  8
0
100
AcDbCircle
 10
22.59973089678116
 20
-7.271599258481472
 30
0.0
 40
2.5
100
AcDbArc
 50
270.0
 51
270.0000000000007
  0
LINE
  5
4B
330
22
100
AcDbEntity
  8
0
100
AcDbLine
 10
28.77130377203494
 20
-12.77159925848147
 30
0.0
 11
24.43885465448463
 21
-12.77159925848144
 31
0.0
  0
LINE
  5
4C
330
22
100
AcDbEntity
  8
0
100
AcDbLine
 10
3.599730896781125
 20
-4.771599258481472
 30
0.0
 11
2.599730896781125
 21
-4.771599258481472
 31
0.0
  0
LINE
  5
4D
330
22
100
AcDbEntity
  8
0
100
AcDbLine
 10
22.59973089678116
 20
-8.771599258481472
 30
0.0
 11
18.59973089678115
 21
-8.771599258481472
 31
0.0
  0
LINE
  5
4E
330
22
100
AcDbEntity
  8
0
100
AcDbLine
 10
22.59973089678116
 20
-5.771599258481472
 30
0.0
 11
18.59973089678115
 21
-5.771599258481472
 31
0.0
  0
LINE
  5
4F
330
22
100
AcDbEntity
  8
0
100
AcDbLine
 10
22.59973089678116
 20
-4.771599258481472
 30
0.0
 11
17.59973089678115
 21
-4.771599258481472
 31
0.0
  0
LINE
  5
50
330
22
100
AcDbEntity
  8
0
100
AcDbLine
 10
18.59973089678115
 20
-5.771599258481472
 30
0.0
 11
18.59973089678115
 21
-8.771599258481472
 31
0.0
  0
ARC
  5
51
330
22
100
AcDbEntity
  8
0
100
AcDbCircle
 10
22.59973089678116
 20
-7.271599258481472
 30
0.0
 40
1.5
100
AcDbArc
 50
270.0
 51
90.0
  0
ENDBLK
  5
52
330
22
100
AcDbEntity
  8
0
100
AcDbBlockEnd
  0
BLOCK
  5
128D
330
1282
100
AcDbEntity
  8
0
100
AcDbBlockBegin
  2
*D1
 70
     1
 10
0.0
 20
0.0
 30
0.0
  3
*D1
  1

  0
LINE
  5
1507
330
1282
100
AcDbEntity
  8
BEM
 62
     0
370
    -2
100
AcDbLine
 10
372.3119631711551
 20
451.5273335146376
 30
0.0
 11
372.3119631711551
 21
506.0839274654718
 31
0.0
  0
LINE
  5
1508
330
1282
100
AcDbEntity
  8
BEM
 62
     0
370
    -2
100
AcDbLine
 10
72.31196317115507
 20
450.5273335146376
 30
0.0
 11
72.31196317115507
 21
506.0839274654718
 31
0.0
  0
LINE
  5
1509
330
1282
100
AcDbEntity
  8
BEM
 62
     0
370
    -2
100
AcDbLine
 10
365.3119631711551
 20
504.0839274654717
 30
0.0
 11
79.31196317115507
 21
504.0839274654717
 31
0.0
  0
SOLID
  5
150A
330
1282
100
AcDbEntity
  8
BEM
 62
     0
100
AcDbTrace
 10
365.3119631711551
 20
505.2505941321384
 30
0.0
 11
365.3119631711551
 21
502.917260798805
 31
0.0
 12
372.3119631711551
 22
504.0839274654717
 32
0.0
 13
372.3119631711551
 23
504.0839274654717
 33
0.0
  0
SOLID
  5
150B
330
1282
100
AcDbEntity
  8
BEM
 62
     0
100
AcDbTrace
 10
79.31196317115507
 20
505.2505941321384
 30
0.0
 11
79.31196317115507
 21
502.917260798805
 31
0.0
 12
72.31196317115507
 22
504.0839274654717
 32
0.0
 13
72.31196317115507
 23
504.0839274654717
 33
0.0
  0
MTEXT
  5
150C
330
1282
100
AcDbEntity
  8
BEM
 62
     1
100
AcDbMText
 10
222.3119631711551
 20
510.5839274654718
 30
0.0
 40
7.0
 41
0.0
 71
     5
 72
     1
  1
\A1;%%c300
 73
     1
 44
1.0
  0
POINT
  5
150D
330
1282
100
AcDbEntity
  8
DEFPOINTS
 62
     0
100
AcDbPoint
 10
372.3119631711551
 20
449.5273335146375
 30
0.0
  0
POINT
  5
150E
330
1282
100
AcDbEntity
  8
DEFPOINTS
 62
     0
100
AcDbPoint
 10
72.31196317115507
 20
448.5273335146375
 30
0.0
  0
POINT
  5
150F
330
1282
100
AcDbEntity
  8
DEFPOINTS
 62
     0
100
AcDbPoint
 10
72.31196317115507
 20
504.0839274654717
 30
0.0
  0
ENDBLK
  5
128E
330
1282
100
AcDbEntity
  8
0
100
AcDbBlockEnd
  0
BLOCK
  5
12A7
330
129C
100
AcDbEntity
  8
0
100
AcDbBlockBegin
  2
*D2
 70
     1
 10
0.0
 20
0.0
 30
0.0
  3
*D2
  1

  0
LINE
  5
165B
330
129C
100
AcDbEntity
  8
BEM
 62
     0
370
    -2
100
AcDbLine
 10
70.31196317115507
 20
446.5273335146376
 30
0.0
 11
45.80126812744089
 21
446.5273335146376
 31
0.0
  0
LINE
  5
165C
330
129C
100
AcDbEntity
  8
BEM
 62
     0
370
    -2
100
AcDbLine
 10
170.2072886743108
 20
176.5273335146378
 30
0.0
 11
45.80126812744083
 21
176.5273335146378
 31
0.0
  0
LINE
  5
165D
330
129C
100
AcDbEntity
  8
BEM
 62
     0
370
    -2
100
AcDbLine
 10
47.80126812744089
 20
439.5273335146375
 30
0.0
 11
47.80126812744083
 21
183.5273335146378
 31
0.0
  0
SOLID
  5
165E
330
129C
100
AcDbEntity
  8
BEM
 62
     0
100
AcDbTrace
 10
46.63460146077422
 20
439.5273335146375
 30
0.0
 11
48.96793479410756
 21
439.5273335146375
 31
0.0
 12
47.80126812744089
 22
446.5273335146376
 32
0.0
 13
47.80126812744089
 23
446.5273335146376
 33
0.0
  0
SOLID
  5
165F
330
129C
100
AcDbEntity
  8
BEM
 62
     0
100
AcDbTrace
 10
46.63460146077417
 20
183.5273335146378
 30
0.0
 11
48.96793479410749
 21
183.5273335146378
 31
0.0
 12
47.80126812744083
 22
176.5273335146378
 32
0.0
 13
47.80126812744083
 23
176.5273335146378
 33
0.0
  0
MTEXT
  5
1660
330
129C
100
AcDbEntity
  8
BEM
 62
     1
100
AcDbMText
 10
41.30126812744081
 20
311.5273335146377
 30
0.0
 40
7.0
 41
0.0
 71
     5
 72
     1
  1
\A1;270
 11
0.0000000000000001
 21
1.0
 31
0.0
 73
     1
 44
1.0
  0
POINT
  5
1661
330
129C
100
AcDbEntity
  8
DEFPOINTS
 62
     0
100
AcDbPoint
 10
72.31196317115507
 20
446.5273335146376
 30
0.0
  0
POINT
  5
1662
330
129C
100
AcDbEntity
  8
DEFPOINTS
 62
     0
100
AcDbPoint
 10
172.2072886743108
 20
176.5273335146378
 30
0.0
  0
POINT
  5
1663
330
129C
100
AcDbEntity
  8
DEFPOINTS
 62
     0
100
AcDbPoint
 10
47.80126812744083
 20
176.5273335146378
 30
0.0
  0
ENDBLK
  5
12A8
330
129C
100
AcDbEntity
  8
0
100
AcDbBlockEnd
  0
BLOCK
  5
13C7
330
13BD
100
AcDbEntity
  8
0
100
AcDbBlockBegin
  2
*D3
 70
     1
 10
0.0
 20
0.0
 30
0.0
  3
*D3
  1

  0
LINE
  5
13D2
330
13BD
100
AcDbEntity
  8
BEM
 62
     0
370
    -2
100
AcDbLine
 10
273.1119631711555
 20
182.4749403831487
 30
0.0
 11
273.1119631711555
 21
153.9161243474545
 31
0.0
  0
LINE
  5
13D3
330
13BD
100
AcDbEntity
  8
BEM
 62
     0
370
    -2
100
AcDbLine
 10
171.5119631711553
 20
182.4749403831458
 30
0.0
 11
171.5119631711553
 21
153.9161243474545
 31
0.0
  0
LINE
  5
13D4
330
13BD
100
AcDbEntity
  8
BEM
 62
     0
370
    -2
100
AcDbLine
 10
266.1119631711555
 20
155.9161243474545
 30
0.0
 11
178.5119631711554
 21
155.9161243474545
 31
0.0
  0
SOLID
  5
13D5
330
13BD
100
AcDbEntity
  8
BEM
 62
     0
100
AcDbTrace
 10
266.1119631711555
 20
157.0827910141212
 30
0.0
 11
266.1119631711555
 21
154.7494576807879
 31
0.0
 12
273.1119631711555
 22
155.9161243474545
 32
0.0
 13
273.1119631711555
 23
155.9161243474545
 33
0.0
  0
SOLID
  5
13D6
330
13BD
100
AcDbEntity
  8
BEM
 62
     0
100
AcDbTrace
 10
178.5119631711554
 20
157.0827910141212
 30
0.0
 11
178.5119631711554
 21
154.7494576807879
 31
0.0
 12
171.5119631711553
 22
155.9161243474545
 32
0.0
 13
171.5119631711553
 23
155.9161243474545
 33
0.0
  0
MTEXT
  5
13D7
330
13BD
100
AcDbEntity
  8
BEM
 62
     1
100
AcDbMText
 10
222.3119631711554
 20
162.4161243474546
 30
0.0
 40
7.0
 41
0.0
 71
     5
 72
     1
  1
\A1;%%c101.6
 73
     1
 44
1.0
  0
POINT
  5
13D8
330
13BD
100
AcDbEntity
  8
DEFPOINTS
 62
     0
100
AcDbPoint
 10
273.1119631711555
 20
184.4749403831487
 30
0.0
  0
POINT
  5
13D9
330
13BD
100
AcDbEntity
  8
DEFPOINTS
 62
     0
100
AcDbPoint
 10
171.5119631711553
 20
184.4749403831458
 30
0.0
  0
POINT
  5
13DA
330
13BD
100
AcDbEntity
  8
DEFPOINTS
 62
     0
100
AcDbPoint
 10
171.5119631711553
 20
155.9161243474545
 30
0.0
  0
ENDBLK
  5
13C8
330
13BD
100
AcDbEntity
  8
0
100
AcDbBlockEnd
  0
BLOCK
  5
1614
330
160A
100
AcDbEntity
  8
0
100
AcDbBlockBegin
  2
*D4
 70
     1
 10
0.0
 20
0.0
 30
0.0
  3
*D4
  1

  0
LINE
  5
1664
330
160A
100
AcDbEntity
  8
BEM
 62
     0
370
    -2
100
AcDbLine
 10
76.44039029590143
 20
443.5273335146383
 30
0.0
 11
59.93427005887677
 21
443.5273335146383
 31
0.0
  0
LINE
  5
1665
330
160A
100
AcDbEntity
  8
BEM
 62
     0
370
    -2
100
AcDbLine
 10
140.3119631711551
 20
283.5273335146382
 30
0.0
 11
59.93427005887674
 21
283.5273335146382
 31
0.0
  0
LINE
  5
1666
330
160A
100
AcDbEntity
  8
BEM
 62
     0
370
    -2
100
AcDbLine
 10
61.93427005887677
 20
436.5273335146382
 30
0.0
 11
61.93427005887674
 21
290.5273335146382
 31
0.0
  0
SOLID
  5
1667
330
160A
100
AcDbEntity
  8
BEM
 62
     0
100
AcDbTrace
 10
60.7676033922101
 20
436.5273335146382
 30
0.0
 11
63.10093672554343
 21
436.5273335146382
 31
0.0
 12
61.93427005887677
 22
443.5273335146383
 32
0.0
 13
61.93427005887677
 23
443.5273335146383
 33
0.0
  0
SOLID
  5
1668
330
160A
100
AcDbEntity
  8
BEM
 62
     0
100
AcDbTrace
 10
60.76760339221007
 20
290.5273335146382
 30
0.0
 11
63.1009367255434
 21
290.5273335146382
 31
0.0
 12
61.93427005887674
 22
283.5273335146382
 32
0.0
 13
61.93427005887674
 23
283.5273335146382
 33
0.0
  0
MTEXT
  5
1669
330
160A
100
AcDbEntity
  8
BEM
 62
     1
100
AcDbMText
 10
55.43427005887669
 20
363.5273335146383
 30
0.0
 40
7.0
 41
0.0
 71
     5
 72
     1
  1
\A1;160
 11
0.0000000000000001
 21
1.0
 31
0.0
 73
     1
 44
1.0
  0
POINT
  5
166A
330
160A
100
AcDbEntity
  8
DEFPOINTS
 62
     0
100
AcDbPoint
 10
78.44039029590144
 20
443.5273335146383
 30
0.0
  0
POINT
  5
166B
330
160A
100
AcDbEntity
  8
DEFPOINTS
 62
     0
100
AcDbPoint
 10
142.3119631711551
 20
283.5273335146382
 30
0.0
  0
POINT
  5
166C
330
160A
100
AcDbEntity
  8
DEFPOINTS
 62
     0
100
AcDbPoint
 10
61.93427005887674
 20
283.5273335146382
 30
0.0
  0
ENDBLK
  5
1615
330
160A
100
AcDbEntity
  8
0
100
AcDbBlockEnd
  0
BLOCK
  5
1620
330
1616
100
AcDbEntity
  8
0
100
AcDbBlockBegin
  2
*D5
 70
     1
 10
0.0
 20
0.0
 30
0.0
  3
*D5
  1

  0
LINE
  5
1649
330
1616
100
AcDbEntity
  8
BEM
 62
     0
370
    -2
100
AcDbLine
 10
142.3119631711551
 20
281.5273335146382
 30
0.0
 11
142.3119631711551
 21
263.2065522791088
 31
0.0
  0
LINE
  5
164A
330
1616
100
AcDbEntity
  8
BEM
 62
     0
370
    -2
100
AcDbLine
 10
302.3119631711551
 20
281.5273335146376
 30
0.0
 11
302.3119631711551
 21
263.2065522791088
 31
0.0
  0
LINE
  5
164B
330
1616
100
AcDbEntity
  8
BEM
 62
     0
370
    -2
100
AcDbLine
 10
149.3119631711551
 20
265.2065522791088
 30
0.0
 11
295.3119631711551
 21
265.2065522791088
 31
0.0
  0
SOLID
  5
164C
330
1616
100
AcDbEntity
  8
BEM
 62
     0
100
AcDbTrace
 10
149.3119631711551
 20
266.3732189457755
 30
0.0
 11
149.3119631711551
 21
264.0398856124421
 31
0.0
 12
142.3119631711551
 22
265.2065522791088
 32
0.0
 13
142.3119631711551
 23
265.2065522791088
 33
0.0
  0
SOLID
  5
164D
330
1616
100
AcDbEntity
  8
BEM
 62
     0
100
AcDbTrace
 10
295.3119631711551
 20
266.3732189457755
 30
0.0
 11
295.3119631711551
 21
264.0398856124421
 31
0.0
 12
302.3119631711551
 22
265.2065522791088
 32
0.0
 13
302.3119631711551
 23
265.2065522791088
 33
0.0
  0
MTEXT
  5
164E
330
1616
100
AcDbEntity
  8
BEM
 62
     1
100
AcDbMText
 10
222.3119631711551
 20
271.7065522791088
 30
0.0
 40
7.0
 41
0.0
 71
     5
 72
     1
  1
\A1;%%c160
 73
     1
 44
1.0
  0
POINT
  5
164F
330
1616
100
AcDbEntity
  8
DEFPOINTS
 62
     0
100
AcDbPoint
 10
142.3119631711551
 20
283.5273335146382
 30
0.0
  0
POINT
  5
1650
330
1616
100
AcDbEntity
  8
DEFPOINTS
 62
     0
100
AcDbPoint
 10
302.3119631711551
 20
283.5273335146376
 30
0.0
  0
POINT
  5
1651
330
1616
100
AcDbEntity
  8
DEFPOINTS
 62
     0
100
AcDbPoint
 10
302.3119631711551
 20
265.2065522791088
 30
0.0
  0
ENDBLK
  5
1621
330
1616
100
AcDbEntity
  8
0
100
AcDbBlockEnd
  0
BLOCK
  5
162C
330
1622
100
AcDbEntity
  8
0
100
AcDbBlockBegin
  2
*D6
 70
     1
 10
0.0
 20
0.0
 30
0.0
  3
*D6
  1

  0
LINE
  5
1640
330
1622
100
AcDbEntity
  8
BEM
 62
     0
370
    -2
100
AcDbLine
 10
127.311963171155
 20
445.5273335146381
 30
0.0
 11
127.311963171155
 21
488.8091977096287
 31
0.0
  0
LINE
  5
1641
330
1622
100
AcDbEntity
  8
BEM
 62
     0
370
    -2
100
AcDbLine
 10
317.311963171155
 20
445.5273335146369
 30
0.0
 11
317.311963171155
 21
488.8091977096287
 31
0.0
  0
LINE
  5
1642
330
1622
100
AcDbEntity
  8
BEM
 62
     0
370
    -2
100
AcDbLine
 10
134.3119631711551
 20
486.8091977096287
 30
0.0
 11
310.311963171155
 21
486.8091977096287
 31
0.0
  0
SOLID
  5
1643
330
1622
100
AcDbEntity
  8
BEM
 62
     0
100
AcDbTrace
 10
134.3119631711551
 20
487.9758643762953
 30
0.0
 11
134.3119631711551
 21
485.642531042962
 31
0.0
 12
127.311963171155
 22
486.8091977096287
 32
0.0
 13
127.311963171155
 23
486.8091977096287
 33
0.0
  0
SOLID
  5
1644
330
1622
100
AcDbEntity
  8
BEM
 62
     0
100
AcDbTrace
 10
310.311963171155
 20
487.9758643762953
 30
0.0
 11
310.311963171155
 21
485.642531042962
 31
0.0
 12
317.311963171155
 22
486.8091977096287
 32
0.0
 13
317.311963171155
 23
486.8091977096287
 33
0.0
  0
MTEXT
  5
1645
330
1622
100
AcDbEntity
  8
BEM
 62
     1
100
AcDbMText
 10
222.3119631711551
 20
493.3091977096287
 30
0.0
 40
7.0
 41
0.0
 71
     5
 72
     1
  1
\A1;%%c190
 73
     1
 44
1.0
  0
POINT
  5
1646
330
1622
100
AcDbEntity
  8
DEFPOINTS
 62
     0
100
AcDbPoint
 10
127.311963171155
 20
443.5273335146382
 30
0.0
  0
POINT
  5
1647
330
1622
100
AcDbEntity
  8
DEFPOINTS
 62
     0
100
AcDbPoint
 10
317.311963171155
 20
443.5273335146368
 30
0.0
  0
POINT
  5
1648
330
1622
100
AcDbEntity
  8
DEFPOINTS
 62
     0
100
AcDbPoint
 10
317.311963171155
 20
486.8091977096287
 30
0.0
  0
ENDBLK
  5
162D
330
1622
100
AcDbEntity
  8
0
100
AcDbBlockEnd
  0
ENDSEC
  0
SECTION
  2
ENTITIES
  0
LINE
  5
57
330
1E
100
AcDbEntity
  8
STEMPEL
100
AcDbLine
 10
410.0
 20
110.0
 30
0.0
 11
29.99999999999997
 21
110.0
 31
0.0
  0
LINE
  5
5B
330
1E
100
AcDbEntity
  8
STEMPEL
100
AcDbLine
 10
145.9999999999999
 20
29.99999999999997
 30
0.0
 11
29.99999999999997
 21
29.99999999999997
 31
0.0
  0
LINE
  5
5E
330
1E
100
AcDbEntity
  8
VOLL
100
AcDbLine
 10
44.00000000000008
 20
110.0
 30
0.0
 11
43.99999999999997
 21
9.999999999999971
 31
0.0
  0
LINE
  5
5F
330
1E
100
AcDbEntity
  8
VOLL
100
AcDbLine
 10
104.0000000000001
 20
109.9999999999999
 30
0.0
 11
104.0
 21
9.999999999999971
 31
0.0
  0
LINE
  5
60
330
1E
100
AcDbEntity
  8
VOLL
100
AcDbLine
 10
124.0000000000001
 20
109.9999999999999
 30
0.0
 11
124.0
 21
9.999999999999971
 31
0.0
  0
LINE
  5
63
330
1E
100
AcDbEntity
  8
HILF
100
AcDbLine
 10
30.00000000000009
 20
100.0
 30
0.0
 11
146.0000000000001
 21
100.0
 31
0.0
  0
LINE
  5
64
330
1E
100
AcDbEntity
  8
HILF
100
AcDbLine
 10
30.00000000000009
 20
90.00000000000005
 30
0.0
 11
146.0000000000001
 21
90.00000000000005
 31
0.0
  0
LINE
  5
65
330
1E
100
AcDbEntity
  8
HILF
100
AcDbLine
 10
30.00000000000009
 20
79.99999999999994
 30
0.0
 11
146.0000000000001
 21
79.99999999999994
 31
0.0
  0
LINE
  5
66
330
1E
100
AcDbEntity
  8
HILF
100
AcDbLine
 10
30.00000000000009
 20
69.99999999999994
 30
0.0
 11
146.0000000000001
 21
69.99999999999994
 31
0.0
  0
LINE
  5
67
330
1E
100
AcDbEntity
  8
HILF
100
AcDbLine
 10
30.00000000000009
 20
59.99999999999997
 30
0.0
 11
146.0000000000001
 21
59.99999999999997
 31
0.0
  0
LINE
  5
68
330
1E
100
AcDbEntity
  8
HILF
100
AcDbLine
 10
30.00000000000009
 20
49.99999999999997
 30
0.0
 11
146.0000000000001
 21
49.99999999999997
 31
0.0
  0
LINE
  5
69
330
1E
100
AcDbEntity
  8
HILF
100
AcDbLine
 10
30.00000000000009
 20
39.99999999999997
 30
0.0
 11
146.0000000000001
 21
39.99999999999997
 31
0.0
  0
TEXT
  5
74
330
1E
100
AcDbEntity
  8
TEXT
100
AcDbText
 10
64.34071736793199
 20
18.67381894984132
 30
0.0
 40
4.0
  1
Änderung
 41
0.8
  7
GREEKS
 72
     1
 11
75.08357451078913
 21
18.67381894984132
 31
0.0
100
AcDbText
  0
TEXT
  5
7B
330
1E
100
AcDbEntity
  8
TEXT
100
AcDbText
 10
38.26641107045757
 20
13.65465846027192
 30
0.0
 40
4.0
  1
Index
 50
90.0
 41
0.8
  7
GREEKS
100
AcDbText
  0
TEXT
  5
7C
330
1E
100
AcDbEntity
  8
TEXT
100
AcDbText
 10
110.0934676075481
 20
18.6715626933981
 30
0.0
 40
4.0
  1
Tag
 41
0.8
  7
GREEKS
 72
     1
 11
113.8268009408814
 21
18.6715626933981
 31
0.0
100
AcDbText
  0
TEXT
  5
7D
330
1E
100
AcDbEntity
  8
TEXT
100
AcDbText
 10
129.0122744386592
 20
18.59324216966408
 30
0.0
 40
4.0
  1
Name
 41
0.8
  7
GREEKS
 72
     1
 11
135.3360839624688
 21
18.59324216966408
 31
0.0
100
AcDbText
  0
LINE
  5
83
330
1E
100
AcDbEntity
  8
STEMPEL
100
AcDbLine
 10
39.99999999999989
 20
10.0
 30
0.0
 11
410.0
 21
10.0
 31
0.0
  0
LINE
  5
85
330
1E
100
AcDbEntity
  8
STEMPEL
100
AcDbLine
 10
410.0
 20
10.0
 30
0.0
 11
29.99999999999989
 21
10.0
 31
0.0
  0
LINE
  5
86
330
1E
100
AcDbEntity
  8
STEMPEL
100
AcDbLine
 10
410.0
 20
10.0
 30
0.0
 11
410.0
 21
584.0
 31
0.0
  0
LINE
  5
87
330
1E
100
AcDbEntity
  8
STEMPEL
100
AcDbLine
 10
30.0
 20
10.0
 30
0.0
 11
29.99999999999989
 21
584.0
 31
0.0
  0
LINE
  5
88
330
1E
100
AcDbEntity
  8
STEMPEL
100
AcDbLine
 10
410.0
 20
584.0
 30
0.0
 11
29.99999999999989
 21
584.0
 31
0.0
  0
LINE
  5
89
330
1E
100
AcDbEntity
  8
HILF
100
AcDbLine
 10
0.0
 20
0.0
 30
0.0
 11
-0.0000000000001137
 21
594.0
 31
0.0
  0
LINE
  5
8A
330
1E
100
AcDbEntity
  8
HILF
100
AcDbLine
 10
419.9999999999999
 20
594.0000000000002
 30
0.0
 11
0.0
 21
594.0
 31
0.0
  0
LINE
  5
8B
330
1E
100
AcDbEntity
  8
HILF
100
AcDbLine
 10
420.0
 20
0.0
 30
0.0
 11
0.0
 21
0.0
 31
0.0
  0
LINE
  5
8C
330
1E
100
AcDbEntity
  8
HILF
100
AcDbLine
 10
31.08767135713856
 20
297.0
 30
0.0
 11
0.0000000000001137
 21
297.0
 31
0.0
  0
LINE
  5
8E
330
1E
100
AcDbEntity
  8
HILF
100
AcDbLine
 10
420.0
 20
-0.0000000000001137
 30
0.0
 11
419.9999999999999
 21
594.0
 31
0.0
  0
TEXT
  5
8F
330
1E
100
AcDbEntity
  8
VOLL
100
AcDbText
 10
78.07675471698113
 20
31.02594776470585
 30
0.0
 40
1.8
  1

  7
GREEKS
100
AcDbText
  0
TEXT
  5
90
330
1E
100
AcDbEntity
  8
TEXT
100
AcDbText
 10
31.85509950977675
 20
111.6719999999999
 30
0.0
 40
5.0
  1
Erstellt mit AUTOCAD 2004
 41
0.8
  7
GREEKS
100
AcDbText
  0
TEXT
  5
118
330
1E
100
AcDbEntity
  8
BEM
100
AcDbText
 10
417.3022923857165
 20
10.16790107998849
 30
0.0
 40
4.0
  1
Diese Zeichnung ist urheberrechtlich geschützt und bleibt unser Eigentum. Sie darf weder ganz noch teilweise verfielfältigt und nicht an Dritte weitergegeben werden.
 50
90.0
 41
0.8
  7
GREEKS
100
AcDbText
  0
DIMENSION
  5
1146
330
1E
100
AcDbEntity
  8
BEM
100
AcDbDimension
  2
*D1
 10
72.31196317115507
 20
504.0839274654717
 30
0.0
 11
222.3119631711551
 21
510.5839274654718
 31
0.0
 70
    32
  1
%%c<>
 71
     5
 42
300.0
  3
Standard
100
AcDbAlignedDimension
 13
372.3119631711551
 23
449.5273335146375
 33
0.0
 14
72.31196317115507
 24
448.5273335146375
 34
0.0
100
AcDbRotatedDimension
1001
ACAD
1000
DSTYLE
1002
{
1070
    40
1040
2.0
1070
    41
1040
3.5
1070
    42
1040
1.0
1070
    43
1040
7.0
1070
    44
1040
1.0
1070
    73
1070
     0
1070
    74
1070
     0
1070
    77
1070
     1
1070
    78
1070
     8
1070
    79
1070
     2
1070
   140
1040
3.5
1070
   141
1040
1.5
1070
   146
1040
0.5142857142857144
1070
   147
1040
1.5
1070
   172
1070
     1
1070
   178
1070
     1
1070
   179
1070
     2
1070
   271
1070
     2
1070
   272
1070
     2
1070
   284
1070
     8
1070
   285
1070
     8
1070
   286
1070
     8
1002
}
  0
HATCH
  5
1148
330
1E
100
AcDbEntity
  8
SCHRAFF
100
AcDbHatch
 10
0.0
 20
0.0
 30
0.0
210
0.0
220
0.0
230
1.0
  2
_U
 70
     0
 71
     0
 91
        5
 92
        7
 72
     1
 73
     1
 93
        4
 10
103.311963171155
 20
458.5273335146375
 42
0.0
 10
80.31196317115506
 20
458.5273335146375
 42
1.0
 10
80.31196317115506
 20
452.5273335146375
 42
0.0
 10
103.311963171155
 20
452.5273335146375
 42
0.0
 97
        0
 92
        7
 72
     1
 73
     1
 93
        4
 10
140.3119631711552
 20
458.5273335146375
 42
0.0
 10
117.311963171155
 20
458.5273335146375
 42
0.0
 10
117.311963171155
 20
452.5273335146375
 42
0.0
 10
140.3119631711552
 20
452.5273335146375
 42
1.0
 97
        0
 92
        7
 72
     1
 73
     1
 93
        5
 10
325.7864708124192
 20
458.5273335146375
 42
0.0
 10
304.3119631711552
 20
458.5273335146375
 42
0.0
 10
304.3119623452489
 20
458.5273335146378
 42
1.0
 10
304.3119631711552
 20
452.5273335146375
 42
0.0
 10
325.7864708124192
 20
452.5273335146375
 42
0.0
 97
        0
 92
        7
 72
     1
 73
     1
 93
        7
 10
342.3119631711551
 20
472.5273335146377
 42
0.0
 10
336.8119631711551
 20
472.5273335146376
 42
0.0
 10
336.6533444223637
 20
463.4400714824514
 42
-0.4091108014277335
 10
331.6541059465818
 20
458.5273335146375
 42
0.0
 10
325.7864708124192
 20
458.5273335146375
 42
0.0
 10
325.7864708124192
 20
452.5273335146375
 42
0.0
 10
342.3119631711552
 20
452.5273335146375
 42
0.0
 97
        0
 92
        7
 72
     1
 73
     1
 93
        7
 10
364.3119631711551
 20
458.5273335146378
 42
0.0
 10
356.9698203957285
 20
458.5273335146378
 42
-0.4091108014277076
 10
351.9705819199467
 20
463.4400714824512
 42
0.0
 10
351.8119631711551
 20
472.5273335146377
 42
0.0
 10
346.3119631711551
 20
472.5273335146376
 42
0.0
 10
346.3119631711551
 20
452.5273335146375
 42
0.0
 10
364.3119631711551
 20
452.5273335146375
 42
1.0
 97
        0
 75
     0
 76
     0
 52
135.0
 41
5.0
 77
     0
 78
     1
 53
135.0
 43
0.0
 44
0.0
 45
-3.535533905932737
 46
-3.535533905932737
 79
     0
 47
0.374699653914983
 98
        5
 10
89.32883132444601
 20
455.0804909994158
 10
132.0730357068145
 20
456.2045890685717
 10
318.4227748860866
 20
456.9539896467526
 10
333.7956906014032
 20
457.3286890031381
 10
351.043353944954
 20
457.7033883595236
  0
LINE
  5
1149
330
1E
100
AcDbEntity
  8
STEMPEL
100
AcDbLine
 10
80.31196317115506
 20
458.5273335146375
 30
0.0
 11
331.6541059465818
 21
458.5273335146375
 31
0.0
  0
LINE
  5
114A
330
1E
100
AcDbEntity
  8
STEMPEL
100
AcDbLine
 10
198.8877677203087
 20
472.5273335146376
 30
0.0
 11
213.8877677203088
 21
472.5273335146376
 31
0.0
  0
DIMENSION
  5
1156
330
1E
100
AcDbEntity
  8
BEM
100
AcDbDimension
  2
*D2
 10
47.80126812744083
 20
176.5273335146378
 30
0.0
 11
41.30126812744081
 21
311.5273335146377
 31
0.0
 70
    32
 71
     5
 42
269.9999999999998
  3
Standard
100
AcDbAlignedDimension
 13
72.31196317115507
 23
446.5273335146376
 33
0.0
 14
172.2072886743108
 24
176.5273335146378
 34
0.0
 50
90.0
100
AcDbRotatedDimension
1001
ACAD
1000
DSTYLE
1002
{
1070
    40
1040
2.0
1070
    41
1040
3.5
1070
    42
1040
1.0
1070
    43
1040
7.0
1070
    44
1040
1.0
1070
    73
1070
     0
1070
    74
1070
     0
1070
    77
1070
     1
1070
    78
1070
     8
1070
    79
1070
     2
1070
   140
1040
3.5
1070
   141
1040
1.5
1070
   146
1040
0.5142857142857144
1070
   147
1040
1.5
1070
   172
1070
     1
1070
   178
1070
     1
1070
   179
1070
     2
1070
   271
1070
     2
1070
   272
1070
     2
1070
   284
1070
     8
1070
   285
1070
     8
1070
   286
1070
     8
1002
}
  0
LINE
  5
115A
330
1E
100
AcDbEntity
  8
STEMPEL
100
AcDbLine
 10
105.311963171155
 20
452.5273335146375
 30
0.0
 11
80.31196317115506
 21
452.5273335146375
 31
0.0
  0
LINE
  5
115B
330
1E
100
AcDbEntity
  8
STEMPEL
100
AcDbLine
 10
80.31196317115506
 20
452.5273335146375
 30
0.0
 11
105.311963171155
 21
452.5273335146375
 31
0.0
  0
ARC
  5
115E
330
1E
100
AcDbEntity
  8
STEMPEL
100
AcDbCircle
 10
80.31196317115506
 20
455.5273335146376
 30
0.0
 40
3.0
100
AcDbArc
 50
90.0
 51
270.0
  0
LINE
  5
1162
330
1E
100
AcDbEntity
  8
TEXT
 62
     2
100
AcDbLine
 10
51.6974069174031
 20
541.4765430043026
 30
0.0
 11
85.94488799900398
 21
455.0968579583125
 31
0.0
  0
TEXT
  5
1163
330
1E
100
AcDbEntity
  8
TEXT
 62
     1
100
AcDbText
 10
58.6048003379243
 20
531.1102897312544
 30
0.0
 40
7.0
  1
EDV-Art.Nr. 21905.100X
 41
0.8
100
AcDbText
  0
TEXT
  5
1164
330
1E
100
AcDbEntity
  8
TEXT
 62
     1
100
AcDbText
 10
58.24884133508749
 20
544.6483030363029
 30
0.0
 40
7.0
  1
Losflansch DN100
 41
0.8
100
AcDbText
  0
LINE
  5
1165
330
1E
100
AcDbEntity
  8
TEXT
 62
     2
100
AcDbLine
 10
51.6974069174031
 20
541.4765430043026
 30
0.0
 11
165.2787692473358
 21
541.4765430043026
 31
0.0
  0
LINE
  5
116C
330
1E
100
AcDbEntity
  8
STEMPEL
100
AcDbLine
 10
165.1803732693393
 20
452.5273335146375
 30
0.0
 11
115.311963171155
 21
452.5273335146375
 31
0.0
  0
LINE
  5
1173
330
1E
100
AcDbEntity
  8
STEMPEL
100
AcDbLine
 10
105.311963171155
 20
470.5273335146382
 30
0.0
 11
115.311963171155
 21
470.5273335146382
 31
0.0
  0
LINE
  5
1174
330
1E
100
AcDbEntity
  8
STEMPEL
100
AcDbLine
 10
114.3119631711551
 20
471.5273335146382
 30
0.0
 11
106.311963171155
 21
471.5273335146382
 31
0.0
  0
LINE
  5
1176
330
1E
100
AcDbEntity
  8
MITTEL
100
AcDbLine
 10
110.3119631711551
 20
476.5273335146384
 30
0.0
 11
110.3119631711551
 21
446.5273335146382
 31
0.0
  0
LINE
  5
1178
330
1E
100
AcDbEntity
  8
STEMPEL
100
AcDbLine
 10
103.311963171155
 20
458.5273335146375
 30
0.0
 11
103.3119631711551
 21
452.5273335146375
 31
0.0
  0
LINE
  5
1179
330
1E
100
AcDbEntity
  8
HILF
100
AcDbLine
 10
106.311963171155
 20
458.5273335146375
 30
0.0
 11
106.311963171155
 21
446.5273335146382
 31
0.0
  0
LINE
  5
117A
330
1E
100
AcDbEntity
  8
STEMPEL
100
AcDbLine
 10
105.311963171155
 20
458.5273335146375
 30
0.0
 11
105.311963171155
 21
446.5273335146382
 31
0.0
  0
LINE
  5
117E
330
1E
100
AcDbEntity
  8
STEMPEL
100
AcDbLine
 10
106.311963171155
 20
471.5273335146382
 30
0.0
 11
105.311963171155
 21
470.5273335146382
 31
0.0
  0
LINE
  5
117F
330
1E
100
AcDbEntity
  8
HILF
100
AcDbLine
 10
106.311963171155
 20
471.5273335146382
 30
0.0
 11
106.311963171155
 21
468.5273335146376
 31
0.0
  0
LINE
  5
1181
330
1E
100
AcDbEntity
  8
STEMPEL
100
AcDbLine
 10
105.311963171155
 20
470.5273335146382
 30
0.0
 11
105.311963171155
 21
468.5273335146376
 31
0.0
  0
LINE
  5
1184
330
1E
100
AcDbEntity
  8
STEMPEL
100
AcDbLine
 10
115.311963171155
 20
458.5273335146375
 30
0.0
 11
115.311963171155
 21
446.5273335146382
 31
0.0
  0
LINE
  5
1185
330
1E
100
AcDbEntity
  8
HILF
100
AcDbLine
 10
114.3119631711551
 20
458.5273335146375
 30
0.0
 11
114.3119631711551
 21
446.5273335146382
 31
0.0
  0
LINE
  5
1186
330
1E
100
AcDbEntity
  8
STEMPEL
100
AcDbLine
 10
117.311963171155
 20
458.5273335146375
 30
0.0
 11
117.3119631711551
 21
452.5273335146375
 31
0.0
  0
LINE
  5
1187
330
1E
100
AcDbEntity
  8
STEMPEL
100
AcDbLine
 10
115.311963171155
 20
470.5273335146382
 30
0.0
 11
114.3119631711551
 21
471.5273335146382
 31
0.0
  0
LINE
  5
1188
330
1E
100
AcDbEntity
  8
HILF
100
AcDbLine
 10
114.3119631711551
 20
471.5273335146382
 30
0.0
 11
114.311963171155
 21
468.5273335146376
 31
0.0
  0
LINE
  5
118C
330
1E
100
AcDbEntity
  8
STEMPEL
100
AcDbLine
 10
115.311963171155
 20
470.5273335146382
 30
0.0
 11
115.311963171155
 21
468.5273335146376
 31
0.0
  0
ARC
  5
118F
330
1E
100
AcDbEntity
  8
STEMPEL
100
AcDbCircle
 10
140.3119631711552
 20
455.5273335146376
 30
0.0
 40
3.0
100
AcDbArc
 50
270.0
 51
90.0
  0
LINE
  5
11B1
330
1E
100
AcDbEntity
  8
MITTEL
100
AcDbLine
 10
166.3119631711552
 20
476.5273335146381
 30
0.0
 11
166.3119631711552
 21
456.3603882688651
 31
0.0
  0
LINE
  5
11C1
330
1E
100
AcDbEntity
  8
STEMPEL
100
AcDbLine
 10
170.3119631711552
 20
471.527333514638
 30
0.0
 11
162.3119631711552
 21
471.5273335146382
 31
0.0
  0
LINE
  5
11C2
330
1E
100
AcDbEntity
  8
STEMPEL
100
AcDbLine
 10
161.3119631711553
 20
470.5273335146382
 30
0.0
 11
171.3119631711551
 21
470.5273335146382
 31
0.0
  0
LINE
  5
11C3
330
1E
100
AcDbEntity
  8
STEMPEL
100
AcDbLine
 10
162.3119631711552
 20
471.5273335146382
 30
0.0
 11
161.3119631711552
 21
470.5273335146382
 31
0.0
  0
LINE
  5
11C4
330
1E
100
AcDbEntity
  8
HILF
100
AcDbLine
 10
162.3119631711552
 20
471.5273335146382
 30
0.0
 11
162.3119631711552
 21
468.5273335146376
 31
0.0
  0
LINE
  5
11C6
330
1E
100
AcDbEntity
  8
STEMPEL
100
AcDbLine
 10
161.3119631711552
 20
470.5273335146382
 30
0.0
 11
161.3119631711552
 21
468.5273335146376
 31
0.0
  0
LINE
  5
11C7
330
1E
100
AcDbEntity
  8
STEMPEL
100
AcDbLine
 10
171.3119631711552
 20
470.527333514638
 30
0.0
 11
170.3119631711552
 21
471.527333514638
 31
0.0
  0
LINE
  5
11C8
330
1E
100
AcDbEntity
  8
HILF
100
AcDbLine
 10
170.3119631711552
 20
471.527333514638
 30
0.0
 11
170.3119631711552
 21
468.5273335146376
 31
0.0
  0
LINE
  5
11CC
330
1E
100
AcDbEntity
  8
STEMPEL
100
AcDbLine
 10
171.3119631711552
 20
470.527333514638
 30
0.0
 11
171.3119631711552
 21
468.5273335146376
 31
0.0
  0
LINE
  5
11CE
330
1E
100
AcDbEntity
  8
MITTEL
100
AcDbLine
 10
206.3877677203088
 20
456.5273335146369
 30
0.0
 11
206.3877677203087
 21
477.5273335146375
 31
0.0
  0
ARC
  5
11CF
330
1E
100
AcDbEntity
  8
STEMPEL
100
AcDbCircle
 10
193.7299104957354
 20
463.5273335146377
 30
0.0
 40
5.0
100
AcDbArc
 50
270.0
 51
358.9999999999982
  0
LINE
  5
11D0
330
1E
100
AcDbEntity
  8
STEMPEL
100
AcDbLine
 10
198.7291489715173
 20
463.4400714824512
 30
0.0
 11
198.8877677203087
 21
472.5273335146376
 31
0.0
  0
LINE
  5
11D1
330
1E
100
AcDbEntity
  8
MITTEL
100
AcDbLine
 10
222.3119631711552
 20
463.5273335146376
 30
0.0
 11
222.3119631711552
 21
278.2992593080178
 31
0.0
  0
LINE
  5
11D4
330
1E
100
AcDbEntity
  8
TEXT
 62
     2
100
AcDbLine
 10
286.9293832699204
 20
215.1700043546175
 30
0.0
 11
393.8921469176839
 21
215.1700043546175
 31
0.0
  0
TEXT
  5
11D5
330
1E
100
AcDbEntity
  8
TEXT
 62
     1
100
AcDbText
 10
293.6552099702657
 20
218.1565448466705
 30
0.0
 40
7.0
  1
Unterteil DN100
 41
0.8
100
AcDbText
  0
TEXT
  5
11D6
330
1E
100
AcDbEntity
  8
TEXT
 62
     1
100
AcDbText
 10
293.6552099702657
 20
204.6185315416222
 30
0.0
 40
7.0
  1
EDV-Art.Nr. 21971.100X
 41
0.8
100
AcDbText
  0
LINE
  5
11D7
330
1E
100
AcDbEntity
  8
TEXT
 62
     2
100
AcDbLine
 10
286.9293832699204
 20
215.1700043546175
 30
0.0
 11
272.7380979080854
 21
232.0131941610747
 31
0.0
  0
LINE
  5
11DE
330
1E
100
AcDbEntity
  8
STEMPEL
100
AcDbLine
 10
336.8119631711551
 20
472.5273335146376
 30
0.0
 11
351.8119631711551
 21
472.5273335146377
 31
0.0
  0
LINE
  5
11DF
330
1E
100
AcDbEntity
  8
STEMPEL
100
AcDbLine
 10
364.3119631711551
 20
452.5273335146374
 30
0.0
 11
279.4435530729714
 21
452.5273335146376
 31
0.0
  0
TEXT
  5
11E1
330
1E
100
AcDbEntity
  8
TEXT
 62
     1
100
AcDbText
 10
289.8227130525914
 20
546.2882386876182
 30
0.0
 40
7.0
  1
EDV-Art.Nr. 00911.100X
 41
0.8
100
AcDbText
  0
TEXT
  5
11E2
330
1E
100
AcDbEntity
  8
TEXT
 62
     1
100
AcDbText
 10
289.8227130525914
 20
559.8262519926666
 30
0.0
 40
7.0
  1
Dichtelement DN100
 41
0.8
100
AcDbText
  0
LINE
  5
11E3
330
1E
100
AcDbEntity
  8
TEXT
 62
     2
100
AcDbLine
 10
283.0968863522462
 20
556.8397115006134
 30
0.0
 11
394.6266276866491
 21
556.8397115006134
 31
0.0
  0
LINE
  5
11E7
330
1E
100
AcDbEntity
  8
TEXT
 62
     2
100
AcDbLine
 10
294.4025826522766
 20
527.2753987415701
 30
0.0
 11
405.9323239866793
 21
527.2753987415701
 31
0.0
  0
TEXT
  5
11E8
330
1E
100
AcDbEntity
  8
TEXT
 62
     1
100
AcDbText
 10
301.4843683554586
 20
516.7239259285747
 30
0.0
 40
7.0
  1
EDV-Art.Nr. 21810.125X
 41
0.8
100
AcDbText
  0
TEXT
  5
11E9
330
1E
100
AcDbEntity
  8
TEXT
 62
     1
100
AcDbText
 10
301.1284093526218
 20
530.2619392336232
 30
0.0
 40
7.0
  1
Kompressionsdichtung
 41
0.8
100
AcDbText
  0
TEXT
  5
11F0
330
1E
100
AcDbEntity
  8
TEXT
 62
     1
100
AcDbText
 10
217.1031462353627
 20
352.2770064242296
 30
0.0
 40
7.0
  1
DN100
 50
90.0
 41
0.8
100
AcDbText
  0
ARC
  5
11F7
330
1E
100
AcDbEntity
  8
STEMPEL
100
AcDbCircle
 10
219.0456249448823
 20
463.5273335146376
 30
0.0
 40
5.0
100
AcDbArc
 50
181.0000000000017
 51
270.0
  0
LINE
  5
11F8
330
1E
100
AcDbEntity
  8
STEMPEL
100
AcDbLine
 10
214.0463864691002
 20
463.4400714824512
 30
0.0
 11
213.8877677203088
 21
472.5273335146376
 31
0.0
  0
LINE
  5
11FA
330
1E
100
AcDbEntity
  8
MITTEL
100
AcDbLine
 10
236.9308966998009
 20
476.5273335146378
 30
0.0
 11
236.9308966998009
 21
456.5273335146369
 31
0.0
  0
LINE
  5
11FB
330
1E
100
AcDbEntity
  8
STEMPEL
100
AcDbLine
 10
231.930896699801
 20
470.5273335146382
 30
0.0
 11
241.9308966998008
 21
470.5273335146382
 31
0.0
  0
LINE
  5
11FC
330
1E
100
AcDbEntity
  8
STEMPEL
100
AcDbLine
 10
240.9308966998009
 20
471.527333514638
 30
0.0
 11
232.9308966998009
 21
471.5273335146382
 31
0.0
  0
LINE
  5
11FF
330
1E
100
AcDbEntity
  8
STEMPEL
100
AcDbLine
 10
232.9308966998009
 20
471.5273335146382
 30
0.0
 11
231.9308966998009
 21
470.5273335146382
 31
0.0
  0
LINE
  5
1200
330
1E
100
AcDbEntity
  8
HILF
100
AcDbLine
 10
232.9308966998009
 20
471.5273335146382
 30
0.0
 11
232.9308966998009
 21
468.5273335146376
 31
0.0
  0
LINE
  5
1204
330
1E
100
AcDbEntity
  8
STEMPEL
100
AcDbLine
 10
231.9308966998009
 20
470.5273335146382
 30
0.0
 11
231.930896699801
 21
468.5273335146376
 31
0.0
  0
LINE
  5
1206
330
1E
100
AcDbEntity
  8
STEMPEL
100
AcDbLine
 10
241.9308966998009
 20
470.527333514638
 30
0.0
 11
240.9308966998009
 21
471.527333514638
 31
0.0
  0
LINE
  5
1207
330
1E
100
AcDbEntity
  8
HILF
100
AcDbLine
 10
240.9308966998009
 20
471.527333514638
 30
0.0
 11
240.9308966998009
 21
468.5273335146376
 31
0.0
  0
LINE
  5
1208
330
1E
100
AcDbEntity
  8
STEMPEL
100
AcDbLine
 10
241.9308966998009
 20
470.527333514638
 30
0.0
 11
241.9308966998009
 21
468.5273335146376
 31
0.0
  0
LINE
  5
120F
330
1E
100
AcDbEntity
  8
TEXT
 62
     2
100
AcDbLine
 10
283.0968863522462
 20
556.8397115006134
 30
0.0
 11
280.5762819595259
 21
506.0839274654717
 31
0.0
  0
LINE
  5
1212
330
1E
100
AcDbEntity
  8
TEXT
 62
     2
100
AcDbLine
 10
294.4025826522766
 20
527.2753987415701
 30
0.0
 11
298.4019079236437
 21
506.0839274654717
 31
0.0
  0
ARC
  5
122D
330
1E
100
AcDbEntity
  8
STEMPEL
100
AcDbCircle
 10
304.3119631711552
 20
455.5273335146377
 30
0.0
 40
2.999999999999886
100
AcDbArc
 50
90.0
 51
270.0
  0
LINE
  5
1232
330
1E
100
AcDbEntity
  8
STEMPEL
100
AcDbLine
 10
321.7864708124192
 20
471.5273335146382
 30
0.0
 11
329.7864708124192
 21
471.5273335146382
 31
0.0
  0
LINE
  5
1233
330
1E
100
AcDbEntity
  8
STEMPEL
100
AcDbLine
 10
330.7864708124192
 20
470.5273335146382
 30
0.0
 11
320.7864708124192
 21
470.5273335146382
 31
0.0
  0
LINE
  5
123A
330
1E
100
AcDbEntity
  8
HILF
100
AcDbLine
 10
321.7864708124192
 20
471.5273335146382
 30
0.0
 11
321.7864708124193
 21
468.5273335146376
 31
0.0
  0
LINE
  5
123B
330
1E
100
AcDbEntity
  8
STEMPEL
100
AcDbLine
 10
320.7864708124192
 20
470.5273335146382
 30
0.0
 11
321.7864708124192
 21
471.5273335146382
 31
0.0
  0
LINE
  5
123D
330
1E
100
AcDbEntity
  8
STEMPEL
100
AcDbLine
 10
320.7864708124192
 20
470.5273335146382
 30
0.0
 11
320.7864708124193
 21
468.5273335146376
 31
0.0
  0
ARC
  5
123E
330
1E
100
AcDbEntity
  8
STEMPEL
100
AcDbCircle
 10
331.6541059465818
 20
463.5273335146377
 30
0.0
 40
5.0
100
AcDbArc
 50
270.0
 51
358.9999999999982
  0
LINE
  5
123F
330
1E
100
AcDbEntity
  8
MITTEL
100
AcDbLine
 10
325.7864708124192
 20
476.5273335146375
 30
0.0
 11
325.7864708124192
 21
446.5273335146382
 31
0.0
  0
LINE
  5
1244
330
1E
100
AcDbEntity
  8
STEMPEL
100
AcDbLine
 10
329.7864708124192
 20
471.5273335146382
 30
0.0
 11
330.7864708124192
 21
470.5273335146382
 31
0.0
  0
LINE
  5
1245
330
1E
100
AcDbEntity
  8
HILF
100
AcDbLine
 10
329.7864708124192
 20
471.5273335146382
 30
0.0
 11
329.7864708124193
 21
468.5273335146376
 31
0.0
  0
LINE
  5
1247
330
1E
100
AcDbEntity
  8
STEMPEL
100
AcDbLine
 10
330.7864708124192
 20
470.5273335146382
 30
0.0
 11
330.7864708124193
 21
468.5273335146376
 31
0.0
  0
LINE
  5
1248
330
1E
100
AcDbEntity
  8
STEMPEL
100
AcDbLine
 10
336.6533444223637
 20
463.4400714824514
 30
0.0
 11
336.8119631711551
 21
472.5273335146376
 31
0.0
  0
LINE
  5
124A
330
1E
100
AcDbEntity
  8
STEMPEL
100
AcDbLine
 10
356.9698203957285
 20
458.5273335146378
 30
0.0
 11
364.3119631711551
 21
458.5273335146378
 31
0.0
  0
LINE
  5
124B
330
1E
100
AcDbEntity
  8
STEMPEL
100
AcDbLine
 10
346.3119631711551
 20
452.5273335146378
 30
0.0
 11
346.3119631711551
 21
472.5273335146377
 31
0.0
  0
LINE
  5
124C
330
1E
100
AcDbEntity
  8
STEMPEL
100
AcDbLine
 10
342.3119631711551
 20
452.5273335146378
 30
0.0
 11
342.3119631711551
 21
472.5273335146376
 31
0.0
  0
LINE
  5
124D
330
1E
100
AcDbEntity
  8
HILF
100
AcDbLine
 10
347.3119631711551
 20
452.5273335146375
 30
0.0
 11
347.3119631711551
 21
472.5273335146376
 31
0.0
  0
LINE
  5
124E
330
1E
100
AcDbEntity
  8
HILF
100
AcDbLine
 10
341.3119631711551
 20
452.5273335146378
 30
0.0
 11
341.3119631711551
 21
472.5273335146376
 31
0.0
  0
ARC
  5
124F
330
1E
100
AcDbEntity
  8
STEMPEL
100
AcDbCircle
 10
356.9698203957285
 20
463.5273335146376
 30
0.0
 40
4.99999999999995
100
AcDbArc
 50
181.0000000000017
 51
270.0
  0
LINE
  5
1250
330
1E
100
AcDbEntity
  8
MITTEL
100
AcDbLine
 10
344.3119631711551
 20
452.5273335146375
 30
0.0
 11
344.3119631711551
 21
477.5273335146378
 31
0.0
  0
LINE
  5
1251
330
1E
100
AcDbEntity
  8
STEMPEL
100
AcDbLine
 10
351.8119631711551
 20
472.5273335146377
 30
0.0
 11
351.9705819199467
 21
463.4400714824512
 31
0.0
  0
ARC
  5
1252
330
1E
100
AcDbEntity
  8
STEMPEL
100
AcDbCircle
 10
364.3119631711551
 20
455.5273335146377
 30
0.0
 40
3.000000000000028
100
AcDbArc
 50
270.0
 51
90.0
  0
TEXT
  5
125A
330
1E
100
AcDbEntity
  8
TEXT
100
AcDbText
 10
192.626132208084
 20
90.76363841023022
 30
0.0
 40
4.0
  1
DIN EN1124-3
 41
0.8
  7
GREEKS
 72
     1
 11
209.6166083985602
 21
90.76363841023022
 31
0.0
100
AcDbText
  0
TEXT
  5
125B
330
1E
100
AcDbEntity
  8
TEXT
100
AcDbText
 10
194.2858954734051
 20
102.4184168434819
 30
0.0
 40
5.0
  1
Zul. Abw.
 41
0.8
  7
GREEKS
100
AcDbText
  0
TEXT
  5
125C
330
1E
100
AcDbEntity
  8
TEXT
100
AcDbText
 10
204.4216048581258
 20
63.0896391972351
 30
0.0
 40
4.0
  1
Koeh
 41
0.8
  7
GREEKS
 72
     1
 11
209.6787477152686
 21
63.0896391972351
 31
0.0
100
AcDbText
  0
TEXT
  5
125D
330
1E
100
AcDbEntity
  8
TEXT
100
AcDbText
 10
202.4626584226295
 20
73.30961091915225
 30
0.0
 40
4.0
  1
Name
 41
0.8
  7
GREEKS
100
AcDbText
  0
INSERT
  5
125E
330
1E
100
AcDbEntity
  8
STEMPEL
100
AcDbBlockReference
  2
LOGO
 10
150.9955485457794
 20
45.02105276448321
 30
0.0
 41
2.0
 42
2.0
 43
2.0
  0
LINE
  5
125F
330
1E
100
AcDbEntity
  8
HILF
100
AcDbLine
 10
146.0000000000001
 20
70.0
 30
0.0
 11
230.0
 21
70.0
 31
0.0
  0
LINE
  5
1260
330
1E
100
AcDbEntity
  8
HILF
100
AcDbLine
 10
146.0000000000001
 20
60.0
 30
0.0
 11
230.0
 21
60.0
 31
0.0
  0
LINE
  5
1261
330
1E
100
AcDbEntity
  8
HILF
100
AcDbLine
 10
146.0000000000001
 20
50.0
 30
0.0
 11
230.0
 21
50.0
 31
0.0
  0
LINE
  5
1262
330
1E
100
AcDbEntity
  8
STEMPEL
100
AcDbLine
 10
410.0
 20
40.0
 30
0.0
 11
146.0000000000001
 21
40.0
 31
0.0
  0
LINE
  5
1263
330
1E
100
AcDbEntity
  8
STEMPEL
100
AcDbLine
 10
410.0
 20
80.0
 30
0.0
 11
146.0000000000001
 21
79.99999999999994
 31
0.0
  0
LINE
  5
1264
330
1E
100
AcDbEntity
  8
STEMPEL
100
AcDbLine
 10
146.0000000000001
 20
109.9999999999999
 30
0.0
 11
146.0
 21
10.0
 31
0.0
  0
TEXT
  5
1265
330
1E
100
AcDbEntity
  8
TEXT
100
AcDbText
 10
153.5163572150377
 20
102.4620895087088
 30
0.0
 40
5.0
  1
Maßstab
 41
0.8
  7
GREEKS
100
AcDbText
  0
TEXT
  5
1266
330
1E
100
AcDbEntity
  8
TEXT
100
AcDbText
 10
172.331167315365
 20
73.31880501229926
 30
0.0
 40
4.0
  1
Tag
 41
0.8
  7
GREEKS
100
AcDbText
  0
TEXT
  5
1267
330
1E
100
AcDbEntity
  8
TEXT
100
AcDbText
 10
171.0085209177599
 20
63.10765040825732
 30
0.0
 40
4.0
  1
14.12.
 41
0.8
  7
GREEKS
 72
     1
 11
177.4085209177599
 21
63.10765040825732
 31
0.0
100
AcDbText
  0
LINE
  5
1268
330
1E
100
AcDbEntity
  8
VOLL
100
AcDbLine
 10
164.0000000000001
 20
79.99999999999994
 30
0.0
 11
164.0000000000001
 21
40.0
 31
0.0
  0
TEXT
  5
1269
330
1E
100
AcDbEntity
  8
TEXT
100
AcDbText
 10
147.5836127167615
 20
63.62990369617967
 30
0.0
 40
4.0
  1
Gez.
 41
0.8
  7
GREEKS
100
AcDbText
  0
TEXT
  5
126A
330
1E
100
AcDbEntity
  8
TEXT
100
AcDbText
 10
147.5515086571672
 20
53.68926291428374
 30
0.0
 40
4.0
  1
Gepr.
 41
0.8
  7
GREEKS
100
AcDbText
  0
TEXT
  5
126B
330
1E
100
AcDbEntity
  8
TEXT
100
AcDbText
 10
147.6006777387303
 20
43.5294638964981
 30
0.0
 40
4.0
  1
Norm.
 41
0.8
  7
GREEKS
100
AcDbText
  0
TEXT
  5
126C
330
1E
100
AcDbEntity
  8
TEXT
 62
     1
100
AcDbText
 10
160.5006306481887
 20
88.14901428913959
 30
0.0
 40
7.0
  1
1:2
 41
0.8
  7
GREEKS
100
AcDbText
  0
TEXT
  5
126D
330
1E
100
AcDbEntity
  8
TEXT
100
AcDbText
 10
148.622109822104
 20
73.14025471151666
 30
0.0
 40
4.0
  1
2010
 41
0.8
  7
GREEKS
100
AcDbText
  0
LINE
  5
126E
330
1E
100
AcDbEntity
  8
VOLL
100
AcDbLine
 10
190.0000000000001
 20
109.9999999999998
 30
0.0
 11
190.0
 21
40.0
 31
0.0
  0
TEXT
  5
126F
330
1E
100
AcDbEntity
  8
TEXT
100
AcDbText
 10
336.178754957634
 20
102.3132034537136
 30
0.0
 40
5.0
  1
Zeichnungs Nr.
 41
0.8
  7
GREEKS
100
AcDbText
  0
TEXT
  5
1270
330
1E
100
AcDbEntity
  8
TEXT
100
AcDbText
 10
336.7238616296993
 20
73.1811823709997
 30
0.0
 40
5.0
  1
Ersatz für:
 41
0.8
  7
GREEKS
100
AcDbText
  0
TEXT
  5
1271
330
1E
100
AcDbEntity
  8
TEXT
100
AcDbText
 10
337.2400861497006
 20
52.07416177878599
 30
0.0
 40
5.0
  1
ersetzt durch:
 41
0.8
  7
GREEKS
100
AcDbText
  0
LINE
  5
1272
330
1E
100
AcDbEntity
  8
HILF
100
AcDbLine
 10
336.7238616296993
 20
83.77983636955827
 30
0.0
 11
404.8588839326728
 21
83.77983636955827
 31
0.0
  0
LINE
  5
1273
330
1E
100
AcDbEntity
  8
VOLL
100
AcDbLine
 10
332.0
 20
60.0
 30
0.0
 11
410.0
 21
60.0
 31
0.0
  0
LINE
  5
1274
330
1E
100
AcDbEntity
  8
HILF
100
AcDbLine
 10
233.4909699289885
 20
14.89398258028314
 30
0.0
 11
404.8588839326728
 21
14.89398258028314
 31
0.0
  0
TEXT
  5
1275
330
1E
100
AcDbEntity
  8
TEXT
100
AcDbText
 10
235.1296391125316
 20
51.50334417585293
 30
0.0
 40
5.0
  1
EDV-Art.Nr. 21993.100X
 41
0.8
  7
GREEKS
100
AcDbText
  0
LINE
  5
1276
330
1E
100
AcDbEntity
  8
HILF
100
AcDbLine
 10
234.7736801096947
 20
84.03758247564139
 30
0.0
 11
324.8353916556311
 21
84.03758247564139
 31
0.0
  0
LINE
  5
1277
330
1E
100
AcDbEntity
  8
HILF
100
AcDbLine
 10
234.7736801096947
 20
70.0
 30
0.0
 11
324.8353916556309
 21
70.0
 31
0.0
  0
LINE
  5
1278
330
1E
100
AcDbEntity
  8
HILF
100
AcDbLine
 10
234.7736801096947
 20
60.0
 30
0.0
 11
324.8353916556309
 21
60.0
 31
0.0
  0
LINE
  5
1279
330
1E
100
AcDbEntity
  8
HILF
100
AcDbLine
 10
234.7736801096947
 20
50.0
 30
0.0
 11
324.8353916556309
 21
50.0
 31
0.0
  0
TEXT
  5
127A
330
1E
100
AcDbEntity
  8
TEXT
 62
     1
100
AcDbText
 10
236.4640065904547
 20
87.41748789253779
 30
0.0
 40
7.0
  1
Unterteileinheit DN100
 41
0.75
  7
GREEKS
100
AcDbText
  0
LINE
  5
127B
330
1E
100
AcDbEntity
  8
STEMPEL
100
AcDbLine
 10
230.0
 20
110.0
 30
0.0
 11
230.0
 21
10.0
 31
0.0
  0
TEXT
  5
127C
330
1E
100
AcDbEntity
  8
TEXT
100
AcDbText
 10
234.877940380901
 20
102.5489328011779
 30
0.0
 40
5.0
  1
Benennung
 41
0.8
  7
GREEKS
100
AcDbText
  0
TEXT
  5
127D
330
1E
100
AcDbEntity
  8
TEXT
100
AcDbText
 10
234.742238391136
 20
30.8456057019306
 30
0.0
 40
5.0
  1
Bauvorhaben
 41
0.8
  7
GREEKS
100
AcDbText
  0
TEXT
  5
127E
330
1E
100
AcDbEntity
  8
TEXT
100
AcDbText
 10
234.9837501577827
 20
42.62974153022628
 30
0.0
 40
4.0
  1
21993100W.DWG
 41
0.8
  7
GREEKS
100
AcDbText
  0
LINE
  5
127F
330
1E
100
AcDbEntity
  8
STEMPEL
100
AcDbLine
 10
332.0
 20
109.9999999999997
 30
0.0
 11
332.0
 21
40.0
 31
0.0
  0
TEXT
  5
1281
330
1E
100
AcDbEntity
  8
TEXT
 62
     1
100
AcDbText
 10
345.836805352834
 20
88.14901428913959
 30
0.0
 40
7.0
  1
21993100W
 41
0.8
  7
GREEKS
 72
     1
 11
368.7701386861673
 21
88.14901428913959
 31
0.0
100
AcDbText
  0
LINE
  5
1301
330
1E
100
AcDbEntity
  8
TEXT
 62
     2
100
AcDbLine
 10
299.1568012898024
 20
502.0839274654717
 30
0.0
 11
301.7571272799421
 21
488.3054198949432
 31
0.0
  0
LINE
  5
1303
330
1E
100
AcDbEntity
  8
TEXT
 62
     2
100
AcDbLine
 10
280.3776362728806
 20
502.0839274654718
 30
0.0
 11
279.7146515092411
 21
489.7615566851048
 31
0.0
  0
ARC
  5
1365
330
1E
100
AcDbEntity
  8
SCHRAFF
100
AcDbCircle
 10
164.4119631711552
 20
432.6486538581971
 30
0.0
 40
4.042823390159128
100
AcDbArc
 50
190.0411439810052
 51
270.0
  0
HATCH
  5
1366
330
1E
100
AcDbEntity
  8
SCHRAFF
100
AcDbHatch
 10
0.0
 20
0.0
 30
0.0
210
0.0
220
0.0
230
1.0
  2
_USER
 70
     0
 71
     0
 91
        2
 92
        7
 72
     1
 73
     1
 93
        4
 10
160.4310645044729
 20
431.943766087254
 42
0.0
 10
161.8474970770898
 20
430.5273335146374
 42
0.0
 10
164.4119631711553
 20
430.5273335146373
 42
0.0
 10
164.4119631711553
 20
428.605830468038
 42
-0.3637669406775779
 97
        0
 92
        7
 72
     0
 73
     1
 93
        4
 10
161.8474970770897
 20
430.5273335146374
 10
163.9688174206492
 20
432.6486538581971
 10
164.4119631711552
 20
432.6486538581971
 10
164.4119631711553
 20
430.5273335146373
 97
        0
 75
     0
 76
     0
 52
0.0
 41
0.1
 77
     0
 78
     1
 53
180.0
 43
443.2203123726854
 44
1.674710649314931
 45
-0.0000000000000001
 46
0.1
 79
     0
 47
0.0587368280222698
 98
        2
 10
163.3544425559305
 20
429.5456195771563
 10
163.5307498864247
 20
430.8965665079575
  0
HATCH
  5
1367
330
1E
100
AcDbEntity
  8
SCHRAFF
100
AcDbHatch
 10
0.0
 20
0.0
 30
0.0
210
0.0
220
0.0
230
1.0
  2
_USER
 70
     0
 71
     1
 91
        2
 92
        7
 72
     1
 73
     1
 93
        4
 10
284.1928618378375
 20
431.9437660872541
 42
0.0
 10
282.7764292652207
 20
430.5273335146374
 42
0.0
 10
280.2119631711552
 20
430.5273335146374
 42
0.0
 10
280.2119631711552
 20
428.6058304680381
 42
0.3637669406775779
 97
        4
330
1385
330
1371
330
13A1
330
1368
 92
        7
 72
     0
 73
     1
 93
        4
 10
282.7764292652208
 20
430.5273335146374
 10
280.6551089216612
 20
432.6486538581972
 10
280.2119631711552
 20
432.6486538581972
 10
280.2119631711552
 20
430.5273335146374
 97
        4
330
1374
330
13A1
330
1371
330
1383
 75
     0
 76
     0
 52
0.0
 41
0.1
 77
     0
 78
     1
 53
0.0
 43
1.403613969625354
 44
1.674710649314761
 45
0.0
 46
0.1
 79
     0
 47
0.0587368280222698
 98
        2
 10
281.26948378638
 20
429.5456195771563
 10
281.0931764558858
 20
430.8965665079576
  0
ARC
  5
1368
102
{ACAD_REACTORS
330
1367
102
}
330
1E
100
AcDbEntity
  8
SCHRAFF
100
AcDbCircle
 10
280.2119631711553
 20
432.6486538581972
 30
0.0
 40
4.042823390159128
100
AcDbArc
 50
270.0
 51
349.9588560189948
  0
HATCH
  5
1369
330
1E
100
AcDbEntity
  8
SCHRAFF
100
AcDbHatch
 10
0.0
 20
0.0
 30
0.0
210
0.0
220
0.0
230
1.0
  2
_USER
 70
     0
 71
     0
 91
        1
 92
        7
 72
     1
 73
     1
 93
       23
 10
271.9119631711553
 20
314.9842068379975
 42
-0.1345075013956313
 10
273.1966478558401
 20
319.6733201293497
 42
0.1345075013956287
 10
275.0119631711553
 20
326.2992410845209
 42
0.0
 10
275.0119631711553
 20
402.0241329839562
 42
-0.1178625008509361
 10
276.5254766846689
 20
408.3556142658357
 42
0.1178625008509353
 10
279.0119631711553
 20
418.7573335146377
 42
0.0
 10
279.0119631711553
 20
437.3310225969873
 42
0.1406476065140156
 10
275.5119631711553
 20
449.5273335146378
 42
0.0
 10
276.9138769591318
 20
449.5273335146378
 42
-0.0323355871437242
 10
278.3119631711553
 20
446.7304906670433
 42
0.0
 10
278.3119631711553
 20
446.5273335146378
 42
0.0
 10
278.3965084090176
 20
446.5273335146378
 42
-0.0977622252683791
 10
280.2119631711553
 20
437.3310225969873
 42
0.0
 10
280.2119631711553
 20
418.7573335146377
 42
-0.1178625008509346
 10
277.5957469549392
 20
407.8129158702461
 42
0.1178625008509366
 10
276.2119631711553
 20
402.0241329839563
 42
0.0
 10
276.2119631711553
 20
326.2992410845209
 42
-0.1345075013956306
 10
274.2290802882724
 20
319.0616966565645
 42
0.1345075013956317
 10
273.1119631711552
 20
314.9842068379974
 42
0.0
 10
273.1119631711552
 20
184.4749403831447
 42
0.0
 10
272.4166376679998
 20
176.5273335146378
 42
0.0
 10
271.2120538629479
 20
176.5273335146378
 42
0.0
 10
271.9119631711553
 20
184.5273335146383
 42
0.0
 97
        0
 75
     0
 76
     0
 52
135.0
 41
2.0
 77
     0
 78
     1
 53
135.0
 43
-383.5232475758885
 44
-21.47551616759887
 45
-1.414213562373095
 46
-1.414213562373094
 79
     0
 47
0.4820997955160877
 98
        1
 10
272.8045479216123
 20
303.8398724819313
  0
HATCH
  5
136A
330
1E
100
AcDbEntity
  8
SCHRAFF
100
AcDbHatch
 10
0.0
 20
0.0
 30
0.0
210
0.0
220
0.0
230
1.0
  2
_USER
 70
     0
 71
     0
 91
        1
 92
        7
 72
     1
 73
     1
 93
       23
 10
172.7119631711553
 20
314.9842068379975
 42
0.1345075013956313
 10
171.4272784864705
 20
319.6733201293497
 42
-0.1345075013956287
 10
169.6119631711552
 20
326.2992410845209
 42
0.0
 10
169.6119631711552
 20
402.0241329839562
 42
0.1178625008509361
 10
168.0984496576417
 20
408.3556142658357
 42
-0.1178625008509353
 10
165.6119631711552
 20
418.7573335146377
 42
0.0
 10
165.6119631711552
 20
437.3310225969873
 42
-0.1406476065140156
 10
169.1119631711553
 20
449.5273335146378
 42
0.0
 10
167.7100493831788
 20
449.5273335146378
 42
0.0323355871437242
 10
166.3119631711553
 20
446.7304906670433
 42
0.0
 10
166.3119631711553
 20
446.5273335146378
 42
0.0
 10
166.2274179332929
 20
446.5273335146378
 42
0.0977622252683791
 10
164.4119631711553
 20
437.3310225969873
 42
0.0
 10
164.4119631711553
 20
418.7573335146377
 42
0.1178625008509346
 10
167.0281793873714
 20
407.8129158702461
 42
-0.1178625008509366
 10
168.4119631711553
 20
402.0241329839563
 42
0.0
 10
168.4119631711553
 20
326.2992410845209
 42
0.1345075013956306
 10
170.3948460540382
 20
319.0616966565645
 42
-0.1345075013956317
 10
171.5119631711553
 20
314.9842068379974
 42
0.0
 10
171.5119631711555
 20
184.4749403831447
 42
0.0
 10
172.2072886743108
 20
176.5273335146378
 42
0.0
 10
173.4118724793627
 20
176.5273335146378
 42
0.0
 10
172.7119631711553
 20
184.5273335146383
 42
0.0
 97
        0
 75
     0
 76
     0
 52
135.0
 41
2.0
 77
     0
 78
     1
 53
135.0
 43
-383.5232475758885
 44
-21.47551616759887
 45
-1.414213562373095
 46
-1.414213562373094
 79
     0
 47
0.4820997955160877
 98
        1
 10
171.8193784206983
 20
303.8398724819313
  0
LINE
  5
136B
330
1E
100
AcDbEntity
  8
STEMPEL
100
AcDbLine
 10
271.9119631711552
 20
184.5273335146379
 30
0.0
 11
271.2120538629477
 21
176.5273335146378
 31
0.0
  0
LINE
  5
136C
330
1E
100
AcDbEntity
  8
STEMPEL
100
AcDbLine
 10
273.1119631711555
 20
184.4749403831487
 30
0.0
 11
272.4166376679997
 21
176.5273335146376
 31
0.0
  0
LINE
  5
136D
330
1E
100
AcDbEntity
  8
STEMPEL
100
AcDbLine
 10
171.5119631711553
 20
184.4749403831458
 30
0.0
 11
172.2072886743108
 21
176.5273335146378
 31
0.0
  0
LINE
  5
136E
330
1E
100
AcDbEntity
  8
STEMPEL
100
AcDbLine
 10
172.7119631711553
 20
184.5273335146379
 30
0.0
 11
173.4118724793627
 21
176.5273335146378
 31
0.0
  0
LINE
  5
136F
330
1E
100
AcDbEntity
  8
HILF
100
AcDbLine
 10
173.9119631711553
 20
184.5273335146379
 30
0.0
 11
270.7119631711553
 21
184.5273335146376
 31
0.0
  0
LINE
  5
1370
330
1E
100
AcDbEntity
  8
STEMPEL
100
AcDbLine
 10
164.4119631711554
 20
432.6486538581972
 30
0.0
 11
163.9688174206492
 21
432.6486538581971
 31
0.0
  0
LINE
  5
1371
102
{ACAD_REACTORS
330
1367
102
}
330
1E
100
AcDbEntity
  8
STEMPEL
100
AcDbLine
 10
280.2119631711552
 20
430.5273335146374
 30
0.0
 11
282.7764292652207
 21
430.5273335146374
 31
0.0
  0
LINE
  5
1372
330
1E
100
AcDbEntity
  8
STEMPEL
100
AcDbLine
 10
278.3965084090176
 20
446.5273335146376
 30
0.0
 11
366.183536046409
 21
446.5273335146371
 31
0.0
  0
LINE
  5
1373
330
1E
100
AcDbEntity
  8
STEMPEL
100
AcDbLine
 10
161.847497077089
 20
430.5273335146379
 30
0.0
 11
164.4119631711553
 21
430.5273335146378
 31
0.0
  0
LINE
  5
1374
102
{ACAD_REACTORS
330
1367
102
}
330
1E
100
AcDbEntity
  8
STEMPEL
100
AcDbLine
 10
280.6551089216612
 20
432.6486538581971
 30
0.0
 11
280.2119631711553
 21
432.6486538581972
 31
0.0
  0
LINE
  5
1375
102
{ACAD_REACTORS
330
138C
102
}
330
1E
100
AcDbEntity
  8
STEMPEL
100
AcDbLine
 10
78.44039029590144
 20
446.5273335146382
 30
0.0
 11
166.227417933293
 21
446.5273335146378
 31
0.0
  0
LINE
  5
1376
330
1E
100
AcDbEntity
  8
STEMPEL
100
AcDbLine
 10
74.44039029590143
 20
439.5273335146382
 30
0.0
 11
127.6869631711551
 21
439.5273335146381
 31
0.0
  0
LINE
  5
1377
102
{ACAD_REACTORS
330
138C
102
}
330
1E
100
AcDbEntity
  8
STEMPEL
100
AcDbLine
 10
78.44039029590144
 20
443.5273335146382
 30
0.0
 11
148.0190699523421
 21
443.5273335146381
 31
0.0
  0
LINE
  5
1378
102
{ACAD_REACTORS
330
138C
102
}
330
1E
100
AcDbEntity
  8
STEMPEL
100
AcDbLine
 10
72.31906995234178
 20
441.6486538581982
 30
0.0
 11
76.31906995234178
 21
445.6486538581979
 31
0.0
  0
LINE
  5
1379
102
{ACAD_REACTORS
330
138C
102
}
330
1E
100
AcDbEntity
  8
STEMPEL
100
AcDbLine
 10
74.44039029590143
 20
439.5273335146382
 30
0.0
 11
78.44039029590144
 21
443.5273335146383
 31
0.0
  0
LINE
  5
137A
102
{ACAD_REACTORS
330
138C
102
}
330
1E
100
AcDbEntity
  8
STEMPEL
100
AcDbLine
 10
72.31906995234189
 20
441.6486538581979
 30
0.0
 11
74.44039029590143
 21
439.5273335146382
 31
0.0
  0
ARC
  5
137B
102
{ACAD_REACTORS
330
138C
102
}
330
1E
100
AcDbEntity
  8
STEMPEL
100
AcDbCircle
 10
78.44039029590144
 20
443.5273335146383
 30
0.0
 40
3.0
100
AcDbArc
 50
90.0
 51
135.0
  0
ARC
  5
137C
102
{ACAD_REACTORS
330
138C
102
}
330
1E
100
AcDbEntity
  8
STEMPEL
100
AcDbCircle
 10
148.0190699523421
 20
441.5273335146379
 30
0.0
 40
5.0
100
AcDbArc
 50
45.00000000000115
 51
90.0
  0
LINE
  5
137D
102
{ACAD_REACTORS
330
138C
102
}
330
1E
100
AcDbEntity
  8
STEMPEL
100
AcDbLine
 10
149.4332835147151
 20
442.9415470770109
 30
0.0
 11
161.847497077089
 21
430.5273335146379
 31
0.0
  0
ARC
  5
137E
102
{ACAD_REACTORS
330
138C
102
}
330
1E
100
AcDbEntity
  8
STEMPEL
100
AcDbCircle
 10
148.0190699523421
 20
441.5273335146379
 30
0.0
 40
2.0
100
AcDbArc
 50
45.00000000000115
 51
90.0
  0
LINE
  5
137F
102
{ACAD_REACTORS
330
138C
102
}
330
1E
100
AcDbEntity
  8
STEMPEL
100
AcDbLine
 10
151.5546038582746
 20
445.0628674205707
 30
0.0
 11
163.9688174206486
 21
432.6486538581976
 31
0.0
  0
LINE
  5
1380
102
{ACAD_REACTORS
330
138C
102
}
330
1E
100
AcDbEntity
  8
STEMPEL
  6
STRICHPUNKT
100
AcDbLine
 10
163.9688174206485
 20
432.6486538581976
 30
0.0
 11
161.847497077089
 21
430.5273335146379
 31
0.0
  0
LINE
  5
1381
330
1E
100
AcDbEntity
  8
STEMPEL
100
AcDbLine
 10
316.936963171155
 20
439.5273335146373
 30
0.0
 11
370.1835360464102
 21
439.5273335146371
 31
0.0
  0
LINE
  5
1382
330
1E
100
AcDbEntity
  8
STEMPEL
100
AcDbLine
 10
296.6048563899683
 20
443.5273335146376
 30
0.0
 11
366.1835360464099
 21
443.5273335146371
 31
0.0
  0
LINE
  5
1383
102
{ACAD_REACTORS
330
1367
102
}
330
1E
100
AcDbEntity
  8
STEMPEL
  6
STRICHPUNKT
100
AcDbLine
 10
280.6551089216612
 20
432.6486538581971
 30
0.0
 11
282.7764292652207
 21
430.5273335146374
 31
0.0
  0
LINE
  5
1384
330
1E
100
AcDbEntity
  8
STEMPEL
100
AcDbLine
 10
293.0693224840358
 20
445.0628674205707
 30
0.0
 11
280.6551089216612
 21
432.6486538581971
 31
0.0
  0
LINE
  5
1385
102
{ACAD_REACTORS
330
1367
102
}
330
1E
100
AcDbEntity
  8
STEMPEL
100
AcDbLine
 10
295.1906428275953
 20
442.9415470770109
 30
0.0
 11
282.7764292652207
 21
430.5273335146374
 31
0.0
  0
ARC
  5
1386
330
1E
100
AcDbEntity
  8
STEMPEL
100
AcDbCircle
 10
296.6048563899683
 20
441.5273335146379
 30
0.0
 40
2.0
100
AcDbArc
 50
90.0
 51
134.9999999999988
  0
ARC
  5
1387
330
1E
100
AcDbEntity
  8
STEMPEL
100
AcDbCircle
 10
296.6048563899683
 20
441.5273335146379
 30
0.0
 40
5.0
100
AcDbArc
 50
90.0
 51
134.9999999999988
  0
LINE
  5
1388
330
1E
100
AcDbEntity
  8
STEMPEL
100
AcDbLine
 10
372.3179345962694
 20
441.6355756518972
 30
0.0
 11
368.3048563899685
 21
445.6486538581979
 31
0.0
  0
LINE
  5
1389
330
1E
100
AcDbEntity
  8
STEMPEL
100
AcDbLine
 10
372.3179345962694
 20
441.6355756518972
 30
0.0
 11
370.1966142527099
 21
439.5142553083374
 31
0.0
  0
LINE
  5
138A
330
1E
100
AcDbEntity
  8
STEMPEL
100
AcDbLine
 10
370.1835360464102
 20
439.5273335146371
 30
0.0
 11
366.183536046409
 21
443.5273335146383
 31
0.0
  0
ARC
  5
138B
330
1E
100
AcDbEntity
  8
STEMPEL
100
AcDbCircle
 10
366.183536046409
 20
443.5273335146383
 30
0.0
 40
3.0
100
AcDbArc
 50
45.0
 51
90.0
  0
HATCH
  5
138C
330
1E
100
AcDbEntity
  8
SCHRAFF
100
AcDbHatch
 10
0.0
 20
0.0
 30
0.0
210
0.0
220
0.0
230
1.0
  2
_USER
 70
     0
 71
     1
 91
        1
 92
        7
 72
     1
 73
     1
 93
       11
 10
78.44039029590144
 20
446.5273335146382
 42
0.1989123673796551
 10
76.31906995234178
 20
445.6486538581979
 42
0.0
 10
72.31906995234175
 20
441.6486538581981
 42
0.0
 10
74.44039029590143
 20
439.5273335146382
 42
0.0
 10
78.44039029590132
 20
443.5273335146382
 42
0.0
 10
148.0190699523421
 20
443.5273335146381
 42
-0.1989123673796174
 10
149.4332835147149
 20
442.9415470770112
 42
0.0
 10
161.847497077089
 20
430.5273335146378
 42
0.0
 10
163.9688174206485
 20
432.6486538581977
 42
0.0
 10
151.5546038582746
 20
445.0628674205707
 42
0.1989123673796485
 10
148.0190699523421
 20
446.5273335146379
 42
0.0
 97
       11
330
1375
330
137B
330
1378
330
137A
330
1379
330
1377
330
137E
330
137D
330
1380
330
137F
330
137C
 75
     0
 76
     0
 52
45.0
 41
2.0
 77
     0
 78
     1
 53
45.0
 43
-26.88172506194357
 44
171.2164907066543
 45
-1.414213562373094
 46
1.414213562373095
 79
     0
 47
0.4118729359136521
 98
        1
 10
137.5816360925387
 20
445.0829707346309
  0
HATCH
  5
138D
330
1E
100
AcDbEntity
  8
SCHRAFF
100
AcDbHatch
 10
0.0
 20
0.0
 30
0.0
210
0.0
220
0.0
230
1.0
  2
_USER
 70
     0
 71
     0
 91
        1
 92
        7
 72
     1
 73
     1
 93
       11
 10
296.6048563899683
 20
446.5273335146379
 42
0.0
 10
366.183536046409
 20
446.5273335146382
 42
-0.1989123673796547
 10
368.3048563899687
 20
445.6486538581979
 42
0.0
 10
372.3048563899687
 20
441.648653858198
 42
0.0
 10
370.183536046409
 20
439.5273335146382
 42
0.0
 10
366.1835360464091
 20
443.5273335146381
 42
0.0
 10
296.6048563899683
 20
443.5273335146381
 42
0.1989123673796182
 10
295.1906428275955
 20
442.9415470770112
 42
0.0
 10
282.7764292652214
 20
430.5273335146379
 42
0.0
 10
280.6551089216618
 20
432.6486538581976
 42
0.0
 10
293.0693224840358
 20
445.0628674205707
 42
-0.1989123673796434
 97
        0
 75
     0
 76
     0
 52
45.0
 41
2.0
 77
     0
 78
     1
 53
45.0
 43
-26.88172506194357
 44
171.2164907066543
 45
-1.414213562373094
 46
1.414213562373095
 79
     0
 47
0.4118729359136521
 98
        1
 10
307.0422902497717
 20
445.0829707346309
  0
LINE
  5
138E
330
1E
100
AcDbEntity
  8
HILF
100
AcDbLine
 10
270.9320976061614
 20
317.1126656885868
 30
0.0
 11
173.6918287361492
 21
317.1126656885868
 31
0.0
  0
LINE
  5
138F
330
1E
100
AcDbEntity
  8
HILF
100
AcDbLine
 10
273.1995246360828
 20
322.5471125594743
 30
0.0
 11
171.4244017062277
 21
322.5471125594743
 31
0.0
  0
LINE
  5
1390
330
1E
100
AcDbEntity
  8
HILF
100
AcDbLine
 10
274.1061326413329
 20
405.0000725357981
 30
0.0
 11
170.5177937009776
 21
405.0000725357981
 31
0.0
  0
LINE
  5
1391
102
{ACAD_REACTORS
330
14EF
102
}
330
1E
100
AcDbEntity
  8
STEMPEL
100
AcDbLine
 10
280.5619631711552
 20
449.5273335146377
 30
0.0
 11
275.5119631711553
 21
449.5273335146377
 31
0.0
  0
LINE
  5
1392
330
1E
100
AcDbEntity
  8
STEMPEL
100
AcDbLine
 10
272.4166376679997
 20
176.5273335146376
 30
0.0
 11
172.2072886743108
 21
176.5273335146378
 31
0.0
  0
ARC
  5
1393
330
1E
100
AcDbEntity
  8
STEMPEL
100
AcDbCircle
 10
289.0119631711552
 20
402.0241329839563
 30
0.0
 40
14.0
100
AcDbArc
 50
153.1119523822753
 51
180.0
  0
ARC
  5
1394
330
1E
100
AcDbEntity
  8
STEMPEL
100
AcDbCircle
 10
256.0119631711552
 20
418.7573335146378
 30
0.0
 40
23.0
100
AcDbArc
 50
333.1119523822754
 51
0.0
  0
ARC
  5
1395
102
{ACAD_REACTORS
330
14EF
102
}
330
1E
100
AcDbEntity
  8
STEMPEL
100
AcDbCircle
 10
256.0119631711552
 20
437.3310225969873
 30
0.0
 40
23.0
100
AcDbArc
 50
0.0
 51
32.02399597461788
  0
LINE
  5
1396
102
{ACAD_REACTORS
330
14EF
102
}
330
1E
100
AcDbEntity
  8
STEMPEL
100
AcDbLine
 10
279.0119631711552
 20
437.3310225969874
 30
0.0
 11
279.0119631711552
 21
418.7573335146378
 31
0.0
  0
ARC
  5
1397
330
1E
100
AcDbEntity
  8
STEMPEL
100
AcDbCircle
 10
281.1119631711552
 20
314.9842068379976
 30
0.0
 40
8.0
100
AcDbArc
 50
149.1404189093777
 51
180.0
  0
LINE
  5
1398
330
1E
100
AcDbEntity
  8
STEMPEL
100
AcDbLine
 10
275.0119631711552
 20
402.0241329839563
 30
0.0
 11
275.0119631711552
 21
326.299241084521
 31
0.0
  0
LINE
  5
1399
330
1E
100
AcDbEntity
  8
STEMPEL
100
AcDbLine
 10
273.1119631711552
 20
314.8837896093862
 30
0.0
 11
273.1119631711555
 21
184.4749403831487
 31
0.0
  0
LINE
  5
139A
330
1E
100
AcDbEntity
  8
STEMPEL
100
AcDbLine
 10
271.9119631711553
 20
314.8837896093862
 30
0.0
 11
271.9119631711553
 21
184.5273335146377
 31
0.0
  0
ARC
  5
139B
330
1E
100
AcDbEntity
  8
STEMPEL
100
AcDbCircle
 10
281.1119631711552
 20
314.9842068379976
 30
0.0
 40
9.199999999999999
100
AcDbArc
 50
149.3570682370604
 51
180.0
  0
ARC
  5
139C
330
1E
100
AcDbEntity
  8
STEMPEL
100
AcDbCircle
 10
262.0119631711552
 20
326.299241084521
 30
0.0
 40
13.0
100
AcDbArc
 50
329.3570682370604
 51
0.0
  0
ARC
  5
139D
330
1E
100
AcDbEntity
  8
STEMPEL
100
AcDbCircle
 10
262.0119631711552
 20
326.299241084521
 30
0.0
 40
14.2
100
AcDbArc
 50
329.3570682370604
 51
0.0
  0
LINE
  5
139E
330
1E
100
AcDbEntity
  8
STEMPEL
100
AcDbLine
 10
276.2119631711553
 20
402.0241329839563
 30
0.0
 11
276.2119631711553
 21
326.299241084521
 31
0.0
  0
ARC
  5
139F
330
1E
100
AcDbEntity
  8
STEMPEL
100
AcDbCircle
 10
289.0119631711552
 20
402.0241329839563
 30
0.0
 40
12.8
100
AcDbArc
 50
153.1119523822753
 51
180.0
  0
ARC
  5
13A0
330
1E
100
AcDbEntity
  8
STEMPEL
100
AcDbCircle
 10
256.0119631711552
 20
418.7573335146378
 30
0.0
 40
24.2
100
AcDbArc
 50
333.1119523822754
 51
0.0
  0
LINE
  5
13A1
102
{ACAD_REACTORS
330
1367
102
}
330
1E
100
AcDbEntity
  8
STEMPEL
100
AcDbLine
 10
280.2119631711552
 20
437.3310225969874
 30
0.0
 11
280.2119631711553
 21
418.7573335146378
 31
0.0
  0
ARC
  5
13A2
330
1E
100
AcDbEntity
  8
STEMPEL
100
AcDbCircle
 10
256.0119631711552
 20
437.3310225969873
 30
0.0
 40
24.2
100
AcDbArc
 50
0.0
 51
30.26365194209906
  0
ARC
  5
13A3
330
1E
100
AcDbEntity
  8
STEMPEL
100
AcDbCircle
 10
188.6119631711553
 20
437.3310225969873
 30
0.0
 40
24.2
100
AcDbArc
 50
149.7363480579009
 51
180.0
  0
LINE
  5
13A4
330
1E
100
AcDbEntity
  8
STEMPEL
100
AcDbLine
 10
164.4119631711553
 20
437.3310225969873
 30
0.0
 11
164.4119631711553
 21
418.7573335146377
 31
0.0
  0
ARC
  5
13A5
330
1E
100
AcDbEntity
  8
STEMPEL
100
AcDbCircle
 10
188.6119631711553
 20
418.7573335146377
 30
0.0
 40
24.2
100
AcDbArc
 50
180.0
 51
206.8880476177246
  0
ARC
  5
13A6
330
1E
100
AcDbEntity
  8
STEMPEL
100
AcDbCircle
 10
155.6119631711553
 20
402.0241329839563
 30
0.0
 40
12.8
100
AcDbArc
 50
0.0
 51
26.88804761772463
  0
LINE
  5
13A7
330
1E
100
AcDbEntity
  8
STEMPEL
100
AcDbLine
 10
168.4119631711553
 20
402.0241329839562
 30
0.0
 11
168.4119631711553
 21
326.2992410845209
 31
0.0
  0
ARC
  5
13A8
330
1E
100
AcDbEntity
  8
STEMPEL
100
AcDbCircle
 10
182.6119631711553
 20
326.2992410845209
 30
0.0
 40
14.2
100
AcDbArc
 50
180.0
 51
210.6429317629396
  0
ARC
  5
13A9
330
1E
100
AcDbEntity
  8
STEMPEL
100
AcDbCircle
 10
182.6119631711553
 20
326.2992410845209
 30
0.0
 40
13.0
100
AcDbArc
 50
180.0
 51
210.6429317629396
  0
ARC
  5
13AA
330
1E
100
AcDbEntity
  8
STEMPEL
100
AcDbCircle
 10
163.5119631711553
 20
314.9842068379975
 30
0.0
 40
9.199999999999999
100
AcDbArc
 50
0.0
 51
30.64293176293956
  0
LINE
  5
13AB
330
1E
100
AcDbEntity
  8
STEMPEL
100
AcDbLine
 10
172.7119631711553
 20
314.8837896093861
 30
0.0
 11
172.7119631711553
 21
184.5273335146379
 31
0.0
  0
LINE
  5
13AC
330
1E
100
AcDbEntity
  8
STEMPEL
100
AcDbLine
 10
171.5119631711553
 20
314.8837896093861
 30
0.0
 11
171.5119631711553
 21
184.4749403831458
 31
0.0
  0
LINE
  5
13AD
330
1E
100
AcDbEntity
  8
STEMPEL
100
AcDbLine
 10
169.6119631711552
 20
402.0241329839562
 30
0.0
 11
169.6119631711552
 21
326.2992410845209
 31
0.0
  0
ARC
  5
13AE
330
1E
100
AcDbEntity
  8
STEMPEL
100
AcDbCircle
 10
163.5119631711553
 20
314.9842068379975
 30
0.0
 40
8.0
100
AcDbArc
 50
0.0
 51
30.85958109062227
  0
LINE
  5
13AF
102
{ACAD_REACTORS
330
14EF
102
}
330
1E
100
AcDbEntity
  8
STEMPEL
100
AcDbLine
 10
165.6119631711552
 20
437.3310225969873
 30
0.0
 11
165.6119631711552
 21
418.7573335146377
 31
0.0
  0
ARC
  5
13B0
102
{ACAD_REACTORS
330
14EF
102
}
330
1E
100
AcDbEntity
  8
STEMPEL
100
AcDbCircle
 10
188.6119631711553
 20
437.3310225969873
 30
0.0
 40
23.0
100
AcDbArc
 50
147.9760040253821
 51
180.0
  0
ARC
  5
13B1
330
1E
100
AcDbEntity
  8
STEMPEL
100
AcDbCircle
 10
188.6119631711553
 20
418.7573335146377
 30
0.0
 40
23.0
100
AcDbArc
 50
180.0
 51
206.8880476177246
  0
ARC
  5
13B2
330
1E
100
AcDbEntity
  8
STEMPEL
100
AcDbCircle
 10
155.6119631711553
 20
402.0241329839563
 30
0.0
 40
14.0
100
AcDbArc
 50
0.0
 51
26.88804761772463
  0
DIMENSION
  5
13BC
330
1E
100
AcDbEntity
  8
BEM
100
AcDbDimension
  2
*D3
 10
171.5119631711553
 20
155.9161243474545
 30
0.0
 11
222.3119631711554
 21
162.4161243474546
 31
0.0
 70
    32
  1
%%c<>
 71
     5
 42
101.6000000000001
  3
Standard
100
AcDbAlignedDimension
 13
273.1119631711555
 23
184.4749403831487
 33
0.0
 14
171.5119631711553
 24
184.4749403831458
 34
0.0
100
AcDbRotatedDimension
1001
ACAD
1000
DSTYLE
1002
{
1070
    40
1040
2.0
1070
    41
1040
3.5
1070
    42
1040
1.0
1070
    43
1040
7.0
1070
    44
1040
1.0
1070
    73
1070
     0
1070
    74
1070
     0
1070
    77
1070
     1
1070
    78
1070
     8
1070
    79
1070
     2
1070
   140
1040
3.5
1070
   141
1040
1.5
1070
   146
1040
0.5142857142857144
1070
   147
1040
1.5
1070
   172
1070
     1
1070
   178
1070
     1
1070
   179
1070
     2
1070
   271
1070
     2
1070
   272
1070
     2
1070
   284
1070
     8
1070
   285
1070
     8
1070
   286
1070
     8
1002
}
  0
POINT
  5
146E
330
1E
100
AcDbEntity
  8
DEFPOINTS
  6
ByBlock
 62
     0
100
AcDbPoint
 10
280.5619631711552
 20
449.5273335146376
 30
0.0
  0
LINE
  5
146F
330
1E
100
AcDbEntity
  8
STEMPEL
100
AcDbLine
 10
280.5619631711552
 20
449.5858542581782
 30
0.0
 11
280.5619631711552
 21
449.5273335146376
 31
0.0
  0
ARC
  5
1471
102
{ACAD_REACTORS
330
14EF
102
}
330
1E
100
AcDbEntity
  8
STEMPEL
100
AcDbCircle
 10
276.5619631711552
 20
449.5858542581782
 30
0.0
 40
4.0
100
AcDbArc
 50
0.0
 51
31.85429407935391
  0
LINE
  5
1472
102
{ACAD_REACTORS
330
14EF
102
}
330
1E
100
AcDbEntity
  8
STEMPEL
100
AcDbLine
 10
279.959535021781
 20
451.6968979620925
 30
0.0
 11
277.3983280901815
 21
455.8189749036055
 31
0.0
  0
LINE
  5
1476
102
{ACAD_REACTORS
330
14EF
102
}
330
1E
100
AcDbEntity
  8
STEMPEL
100
AcDbLine
 10
277.8975005442563
 20
431.5273335146376
 30
0.0
 11
277.4115480947358
 21
433.5273335146377
 31
0.0
  0
POINT
  5
1479
330
1E
100
AcDbEntity
  8
DEFPOINTS
  6
ByBlock
 62
     0
100
AcDbPoint
 10
273.3119631711552
 20
450.3273335146375
 30
0.0
  0
LINE
  5
147A
102
{ACAD_REACTORS
330
14EF
102
}
330
1E
100
AcDbEntity
  8
STEMPEL
100
AcDbLine
 10
273.3119631711552
 20
450.3273335146375
 30
0.0
 11
274.6753499067632
 21
455.4155620822915
 31
0.0
  0
LINE
  5
147B
102
{ACAD_REACTORS
330
14EF
102
}
330
1E
100
AcDbEntity
  8
STEMPEL
100
AcDbLine
 10
268.3119631711552
 20
431.0273335146376
 30
0.0
 11
268.3119631711552
 21
429.5273335146377
 31
0.0
  0
ARC
  5
147C
102
{ACAD_REACTORS
330
14EF
102
}
330
1E
100
AcDbEntity
  8
STEMPEL
100
AcDbCircle
 10
268.3119631711552
 20
436.0273335146376
 30
0.0
 40
5.0
100
AcDbArc
 50
270.0
 51
0.0
  0
ARC
  5
147D
102
{ACAD_REACTORS
330
14EF
102
}
330
1E
100
AcDbEntity
  8
STEMPEL
100
AcDbCircle
 10
270.3119631711552
 20
434.5273335146376
 30
0.0
 40
5.0
100
AcDbArc
 50
270.0
 51
348.4630409671851
  0
LINE
  5
147E
102
{ACAD_REACTORS
330
14EF
102
}
330
1E
100
AcDbEntity
  8
STEMPEL
100
AcDbLine
 10
273.3119631711552
 20
450.3273335146375
 30
0.0
 11
273.3119631711552
 21
436.0273335146376
 31
0.0
  0
LINE
  5
147F
102
{ACAD_REACTORS
330
14EF
102
}
330
1E
100
AcDbEntity
  8
STEMPEL
100
AcDbLine
 10
275.2109426567213
 20
433.5273335146377
 30
0.0
 11
277.4115480947358
 21
433.5273335146377
 31
0.0
  0
LINE
  5
1480
102
{ACAD_REACTORS
330
14EF
102
}
330
1E
100
AcDbEntity
  8
STEMPEL
100
AcDbLine
 10
274.3119631711554
 20
431.5273335146376
 30
0.0
 11
279.0119631711553
 21
431.5273335146377
 31
0.0
  0
ARC
  5
1483
102
{ACAD_REACTORS
330
14EF
102
}
330
1E
100
AcDbEntity
  8
STEMPEL
100
AcDbCircle
 10
276.1242386461968
 20
455.0273335146376
 30
0.0
 40
1.5
100
AcDbArc
 50
31.85429407935114
 51
164.9999999999992
  0
LINE
  5
1484
330
1E
100
AcDbEntity
  8
STEMPEL
100
AcDbLine
 10
176.3119631711553
 20
431.0273335146376
 30
0.0
 11
268.3119631711552
 21
431.0273335146376
 31
0.0
  0
LINE
  5
1485
102
{ACAD_REACTORS
330
14EF
102
}
330
1E
100
AcDbEntity
  8
STEMPEL
100
AcDbLine
 10
174.3119631711553
 20
429.5273335146376
 30
0.0
 11
270.3119631711552
 21
429.5273335146376
 31
0.0
  0
LINE
  5
1486
330
1E
100
AcDbEntity
  8
STEMPEL
100
AcDbLine
 10
171.3119631711553
 20
450.3273335146375
 30
0.0
 11
273.3119631711552
 21
450.3273335146375
 31
0.0
  0
LINE
  5
1487
330
1E
100
AcDbEntity
  8
STEMPEL
100
AcDbLine
 10
168.4996876961139
 20
456.5273335146376
 30
0.0
 11
276.1242386461968
 21
456.5273335146376
 31
0.0
  0
ARC
  5
1489
102
{ACAD_REACTORS
330
14EF
102
}
330
1E
100
AcDbEntity
  8
STEMPEL
100
AcDbCircle
 10
168.4996876961139
 20
455.0273335146376
 30
0.0
 40
1.5
100
AcDbArc
 50
15.00000000000074
 51
148.1457059206488
  0
LINE
  5
148B
102
{ACAD_REACTORS
330
14EF
102
}
330
1E
100
AcDbEntity
  8
STEMPEL
100
AcDbLine
 10
171.3119631711553
 20
450.3273335146375
 30
0.0
 11
169.9485764355475
 21
455.4155620822915
 31
0.0
  0
LINE
  5
148C
102
{ACAD_REACTORS
330
14EF
102
}
330
1E
100
AcDbEntity
  8
STEMPEL
100
AcDbLine
 10
164.6643913205295
 20
451.6968979620925
 30
0.0
 11
167.2255982521293
 21
455.8189749036055
 31
0.0
  0
POINT
  5
148F
330
1E
100
AcDbEntity
  8
DEFPOINTS
  6
ByBlock
 62
     0
100
AcDbPoint
 10
164.0619631711553
 20
450.5273335146376
 30
0.0
  0
LINE
  5
1490
330
1E
100
AcDbEntity
  8
STEMPEL
100
AcDbLine
 10
164.0619631711553
 20
450.5858542581782
 30
0.0
 11
164.0619631711553
 21
450.5273335146376
 31
0.0
  0
ARC
  5
1493
102
{ACAD_REACTORS
330
14EF
102
}
330
1E
100
AcDbEntity
  8
STEMPEL
100
AcDbCircle
 10
168.0619631711553
 20
449.5858542581782
 30
0.0
 40
4.0
100
AcDbArc
 50
148.1457059206461
 51
180.0
  0
LINE
  5
14AA
102
{ACAD_REACTORS
330
14EF
102
}
330
1E
100
AcDbEntity
  8
STEMPEL
100
AcDbLine
 10
169.1119631711553
 20
449.5273335146379
 30
0.0
 11
164.0619631711553
 21
449.5273335146378
 31
0.0
  0
LINE
  5
14AB
102
{ACAD_REACTORS
330
14EF
102
}
330
1E
100
AcDbEntity
  8
STEMPEL
100
AcDbLine
 10
170.3119631711552
 20
431.5273335146373
 30
0.0
 11
165.6119631711553
 21
431.5273335146374
 31
0.0
  0
LINE
  5
14AC
102
{ACAD_REACTORS
330
14EF
102
}
330
1E
100
AcDbEntity
  8
STEMPEL
100
AcDbLine
 10
169.4129836855893
 20
433.5273335146373
 30
0.0
 11
167.2123782475748
 21
433.5273335146373
 31
0.0
  0
LINE
  5
14AD
102
{ACAD_REACTORS
330
14EF
102
}
330
1E
100
AcDbEntity
  8
STEMPEL
100
AcDbLine
 10
171.3119631711552
 20
450.3273335146372
 30
0.0
 11
171.3119631711553
 21
436.0273335146373
 31
0.0
  0
ARC
  5
14AE
102
{ACAD_REACTORS
330
14EF
102
}
330
1E
100
AcDbEntity
  8
STEMPEL
100
AcDbCircle
 10
174.3119631711553
 20
434.5273335146373
 30
0.0
 40
5.0
100
AcDbArc
 50
191.5369590328152
 51
270.0000000000003
  0
ARC
  5
14AF
102
{ACAD_REACTORS
330
14EF
102
}
330
1E
100
AcDbEntity
  8
STEMPEL
100
AcDbCircle
 10
176.3119631711553
 20
436.0273335146373
 30
0.0
 40
5.0
100
AcDbArc
 50
180.0000000000004
 51
270.0000000000003
  0
LINE
  5
14B0
102
{ACAD_REACTORS
330
14EF
102
}
330
1E
100
AcDbEntity
  8
STEMPEL
100
AcDbLine
 10
166.7264257980543
 20
431.5273335146373
 30
0.0
 11
167.2123782475748
 21
433.5273335146373
 31
0.0
  0
LINE
  5
14D0
102
{ACAD_REACTORS
330
14EF
102
}
330
1E
100
AcDbEntity
  8
STEMPEL
100
AcDbLine
 10
176.3119631711552
 20
431.0273335146376
 30
0.0
 11
176.3119631711552
 21
429.5273335146377
 31
0.0
  0
HATCH
  5
14EF
330
1E
100
AcDbEntity
  8
SCHRAFF
100
AcDbHatch
 10
0.0
 20
0.0
 30
0.0
210
0.0
220
0.0
230
1.0
  2
NET
 70
     0
 71
     1
 91
        2
 92
        7
 72
     1
 73
     1
 93
       15
 10
273.3119631711552
 20
436.0273335146376
 42
-0.4142135623730951
 10
268.3119631711552
 20
431.0273335146376
 42
0.0
 10
268.3119631711552
 20
429.5273335146376
 42
0.0
 10
270.3119631711552
 20
429.5273335146376
 42
0.3563939586926033
 10
275.2109426567216
 20
433.5273335146377
 42
0.0
 10
277.4115480947358
 20
433.5273335146377
 42
0.0
 10
277.8975005442562
 20
431.5273335146376
 42
0.0
 10
279.0119631711552
 20
431.5273335146377
 42
0.0
 10
279.0119631711552
 20
437.3310225969874
 42
0.1406476065140125
 10
275.5119631711553
 20
449.5273335146377
 42
0.0
 10
280.5615350635676
 20
449.5273335146377
 42
0.1436237563963093
 10
279.9595350217811
 20
451.6968979620923
 42
0.0
 10
277.3983280901815
 20
455.8189749036055
 42
0.6565381519876399
 10
274.6753499067632
 20
455.4155620822915
 42
0.0
 10
273.3119631711552
 20
450.3273335146374
 42
0.0
 97
       15
330
1391
330
1471
330
1472
330
1483
330
147A
330
147E
330
147C
330
147B
330
1485
330
147D
330
147F
330
1476
330
1480
330
1396
330
1395
 92
        7
 72
     1
 73
     1
 93
       15
 10
171.3119631711552
 20
450.3273335146379
 42
0.0
 10
169.9485764355475
 20
455.4155620822915
 42
0.6565381519876398
 10
167.2255982521293
 20
455.8189749036055
 42
0.0
 10
164.6643913205295
 20
451.6968979620925
 42
0.1436237563963072
 10
164.0623912787429
 20
449.5273335146378
 42
0.0
 10
169.1119631711553
 20
449.5273335146379
 42
0.140647606514017
 10
165.6119631711552
 20
437.3310225969873
 42
0.0
 10
165.6119631711552
 20
431.5273335146374
 42
0.0
 10
166.7264257980543
 20
431.5273335146374
 42
0.0
 10
167.2123782475748
 20
433.5273335146373
 42
0.0
 10
169.4129836855893
 20
433.5273335146373
 42
0.3563939586925869
 10
174.3119631711556
 20
429.5273335146376
 42
0.0
 10
176.3119631711552
 20
429.5273335146375
 42
0.0
 10
176.3119631711552
 20
431.0273335146376
 42
-0.4142135623730702
 10
171.3119631711553
 20
436.0273335146373
 42
0.0
 97
       15
330
148B
330
1489
330
148C
330
1493
330
14AA
330
13B0
330
13AF
330
14AB
330
14B0
330
14AC
330
14AE
330
1485
330
14D0
330
14AF
330
14AD
 75
     0
 76
     1
 52
45.0
 41
15.0
 77
     0
 78
     2
 53
45.0
 43
0.0
 44
0.0
 45
-1.325825214724776
 46
1.325825214724776
 79
     0
 53
135.0
 43
0.0
 44
0.0
 45
-1.325825214724776
 46
-1.325825214724776
 79
     0
 47
0.1414253687964116
 98
        2
 10
274.8940479251969
 20
441.4390439065707
 10
170.182780167599
 20
442.9947230375939
  0
TEXT
  5
1541
330
1E
100
AcDbEntity
  8
VOLL
100
AcDbText
 10
385.070585301257
 20
426.7768879564645
 30
0.0
 40
1.8
  1

  7
GREEKS
100
AcDbText
  0
ARC
  5
1558
330
1E
100
AcDbEntity
  8
STEMPEL
100
AcDbCircle
 10
110.3119631711551
 20
438.2164443821827
 30
0.0
 40
30.31088913245485
100
AcDbArc
 50
81.78678929826059
 51
98.2132107017394
  0
ARC
  5
1559
330
1E
100
AcDbEntity
  8
STEMPEL
100
AcDbCircle
 10
103.8167726427718
 20
460.8330278068531
 30
0.0
 40
7.694305707784447
100
AcDbArc
 50
73.65710669401657
 51
106.3428933059865
  0
ARC
  5
155A
330
1E
100
AcDbEntity
  8
STEMPEL
100
AcDbCircle
 10
116.8071536995384
 20
460.8330278068531
 30
0.0
 40
7.694305707784447
100
AcDbArc
 50
73.65710669401345
 51
106.3428933059834
  0
ARC
  5
155B
330
1E
100
AcDbEntity
  8
HILF
100
AcDbCircle
 10
110.3119631711551
 20
438.6288724669763
 30
0.0
 40
22.41111549782308
100
AcDbArc
 50
78.85962783890455
 51
101.1403721610954
  0
ARC
  5
155C
330
1E
100
AcDbEntity
  8
HILF
100
AcDbCircle
 10
116.8071536995384
 20
455.2788473651079
 30
0.0
 40
5.761140599691502
100
AcDbArc
 50
67.92594526326054
 51
112.0740547367394
  0
ARC
  5
155D
330
1E
100
AcDbEntity
  8
HILF
100
AcDbCircle
 10
103.8167726427718
 20
455.2788473651079
 30
0.0
 40
5.761140599691502
100
AcDbArc
 50
67.92594526326054
 51
112.0740547367394
  0
LINE
  5
155E
330
1E
100
AcDbEntity
  8
STEMPEL
100
AcDbLine
 10
102.811963171155
 20
468.5273335146376
 30
0.0
 11
117.811963171155
 21
468.5273335146376
 31
0.0
  0
LINE
  5
155F
330
1E
100
AcDbEntity
  8
STEMPEL
100
AcDbLine
 10
118.9722172089994
 20
460.6176900308374
 30
0.0
 11
118.9722172089994
 21
468.2164443821822
 31
0.0
  0
LINE
  5
1560
330
1E
100
AcDbEntity
  8
STEMPEL
100
AcDbLine
 10
114.6420901900773
 20
460.6176900308374
 30
0.0
 11
114.6420901900773
 21
468.2164443821822
 31
0.0
  0
LINE
  5
1561
330
1E
100
AcDbEntity
  8
STEMPEL
100
AcDbLine
 10
105.9818361522328
 20
460.6176900308374
 30
0.0
 11
105.9818361522328
 21
468.2164443821822
 31
0.0
  0
LINE
  5
1562
330
1E
100
AcDbEntity
  8
STEMPEL
100
AcDbLine
 10
120.7184782786493
 20
459.982102980227
 30
0.0
 11
99.90544806366081
 21
459.982102980227
 31
0.0
  0
LINE
  5
1563
330
1E
100
AcDbEntity
  8
STEMPEL
100
AcDbLine
 10
120.461963171155
 20
458.5273335146375
 30
0.0
 11
100.1619631711551
 21
458.5273335146375
 31
0.0
  0
LINE
  5
1564
330
1E
100
AcDbEntity
  8
STEMPEL
100
AcDbLine
 10
101.6517091333107
 20
460.6176900308374
 30
0.0
 11
101.6517091333107
 21
468.2164443821822
 31
0.0
  0
LINE
  5
1565
330
1E
100
AcDbEntity
  8
STEMPEL
100
AcDbLine
 10
102.811963171155
 20
468.5273335146376
 30
0.0
 11
101.6517091333107
 21
468.2164443821822
 31
0.0
  0
LINE
  5
1566
330
1E
100
AcDbEntity
  8
STEMPEL
100
AcDbLine
 10
118.9722172089994
 20
468.2164443821822
 30
0.0
 11
117.811963171155
 21
468.5273335146376
 31
0.0
  0
LINE
  5
1567
330
1E
100
AcDbEntity
  8
STEMPEL
100
AcDbLine
 10
120.7184782786493
 20
459.982102980227
 30
0.0
 11
118.9722172089994
 21
460.6176900308374
 31
0.0
  0
LINE
  5
1568
330
1E
100
AcDbEntity
  8
STEMPEL
100
AcDbLine
 10
101.6517091333107
 20
460.6176900308374
 30
0.0
 11
99.90544806366086
 21
459.982102980227
 31
0.0
  0
ARC
  5
1569
330
1E
100
AcDbEntity
  8
STEMPEL
100
AcDbCircle
 10
100.1619631711551
 20
459.2773335146375
 30
0.0
 40
0.7500000000000013
100
AcDbArc
 50
109.9999999999995
 51
269.9999991462263
  0
ARC
  5
156A
330
1E
100
AcDbEntity
  8
STEMPEL
100
AcDbCircle
 10
120.461963171155
 20
459.2773335146375
 30
0.0
 40
0.750000000000001
100
AcDbArc
 50
269.9999991462263
 51
70.00000000000047
  0
ARC
  5
156B
330
1E
100
AcDbEntity
  8
STEMPEL
100
AcDbCircle
 10
166.3119631711552
 20
438.2164443821827
 30
0.0
 40
30.31088913245485
100
AcDbArc
 50
81.78678929826059
 51
98.2132107017394
  0
ARC
  5
156C
330
1E
100
AcDbEntity
  8
STEMPEL
100
AcDbCircle
 10
159.816772642772
 20
460.8330278068531
 30
0.0
 40
7.694305707784447
100
AcDbArc
 50
73.65710669401657
 51
106.3428933059865
  0
ARC
  5
156D
330
1E
100
AcDbEntity
  8
STEMPEL
100
AcDbCircle
 10
172.8071536995385
 20
460.8330278068531
 30
0.0
 40
7.694305707784447
100
AcDbArc
 50
73.65710669401345
 51
106.3428933059834
  0
ARC
  5
156E
330
1E
100
AcDbEntity
  8
HILF
100
AcDbCircle
 10
166.3119631711552
 20
438.6288724669763
 30
0.0
 40
22.41111549782308
100
AcDbArc
 50
78.85962783890455
 51
101.1403721610954
  0
ARC
  5
156F
330
1E
100
AcDbEntity
  8
HILF
100
AcDbCircle
 10
172.8071536995385
 20
455.2788473651079
 30
0.0
 40
5.761140599691502
100
AcDbArc
 50
67.92594526326054
 51
112.0740547367394
  0
ARC
  5
1570
330
1E
100
AcDbEntity
  8
HILF
100
AcDbCircle
 10
159.816772642772
 20
455.2788473651079
 30
0.0
 40
5.761140599691502
100
AcDbArc
 50
67.92594526326054
 51
112.0740547367394
  0
LINE
  5
1571
330
1E
100
AcDbEntity
  8
STEMPEL
100
AcDbLine
 10
158.8119631711552
 20
468.5273335146376
 30
0.0
 11
173.8119631711552
 21
468.5273335146376
 31
0.0
  0
LINE
  5
1572
330
1E
100
AcDbEntity
  8
STEMPEL
100
AcDbLine
 10
174.9722172089996
 20
460.6176900308374
 30
0.0
 11
174.9722172089996
 21
468.2164443821822
 31
0.0
  0
LINE
  5
1573
330
1E
100
AcDbEntity
  8
STEMPEL
100
AcDbLine
 10
170.6420901900774
 20
460.6176900308374
 30
0.0
 11
170.6420901900774
 21
468.2164443821822
 31
0.0
  0
LINE
  5
1574
330
1E
100
AcDbEntity
  8
STEMPEL
100
AcDbLine
 10
161.981836152233
 20
460.6176900308374
 30
0.0
 11
161.981836152233
 21
468.2164443821822
 31
0.0
  0
LINE
  5
1575
330
1E
100
AcDbEntity
  8
STEMPEL
100
AcDbLine
 10
176.7184782786495
 20
459.982102980227
 30
0.0
 11
155.905448063661
 21
459.982102980227
 31
0.0
  0
LINE
  5
1576
330
1E
100
AcDbEntity
  8
STEMPEL
100
AcDbLine
 10
176.4619631711552
 20
458.5273335146375
 30
0.0
 11
156.1619631711552
 21
458.5273335146375
 31
0.0
  0
LINE
  5
1577
330
1E
100
AcDbEntity
  8
STEMPEL
100
AcDbLine
 10
157.6517091333109
 20
460.6176900308374
 30
0.0
 11
157.6517091333109
 21
468.2164443821822
 31
0.0
  0
LINE
  5
1578
330
1E
100
AcDbEntity
  8
STEMPEL
100
AcDbLine
 10
158.8119631711552
 20
468.5273335146376
 30
0.0
 11
157.6517091333109
 21
468.2164443821822
 31
0.0
  0
LINE
  5
1579
330
1E
100
AcDbEntity
  8
STEMPEL
100
AcDbLine
 10
174.9722172089996
 20
468.2164443821822
 30
0.0
 11
173.8119631711552
 21
468.5273335146376
 31
0.0
  0
LINE
  5
157A
330
1E
100
AcDbEntity
  8
STEMPEL
100
AcDbLine
 10
176.7184782786495
 20
459.982102980227
 30
0.0
 11
174.9722172089996
 21
460.6176900308374
 31
0.0
  0
LINE
  5
157B
330
1E
100
AcDbEntity
  8
STEMPEL
100
AcDbLine
 10
157.6517091333109
 20
460.6176900308374
 30
0.0
 11
155.905448063661
 21
459.982102980227
 31
0.0
  0
ARC
  5
157C
330
1E
100
AcDbEntity
  8
STEMPEL
100
AcDbCircle
 10
156.1619631711552
 20
459.2773335146375
 30
0.0
 40
0.7500000000000013
100
AcDbArc
 50
109.9999999999995
 51
269.9999991462263
  0
ARC
  5
157D
330
1E
100
AcDbEntity
  8
STEMPEL
100
AcDbCircle
 10
176.4619631711552
 20
459.2773335146375
 30
0.0
 40
0.750000000000001
100
AcDbArc
 50
269.9999991462263
 51
70.00000000000047
  0
ARC
  5
157E
330
1E
100
AcDbEntity
  8
STEMPEL
100
AcDbCircle
 10
236.9308966998009
 20
438.2164443821827
 30
0.0
 40
30.31088913245485
100
AcDbArc
 50
81.78678929826059
 51
98.2132107017394
  0
ARC
  5
157F
330
1E
100
AcDbEntity
  8
STEMPEL
100
AcDbCircle
 10
230.4357061714176
 20
460.8330278068531
 30
0.0
 40
7.694305707784447
100
AcDbArc
 50
73.65710669401657
 51
106.3428933059865
  0
ARC
  5
1580
330
1E
100
AcDbEntity
  8
STEMPEL
100
AcDbCircle
 10
243.4260872281842
 20
460.8330278068531
 30
0.0
 40
7.694305707784447
100
AcDbArc
 50
73.65710669401345
 51
106.3428933059834
  0
ARC
  5
1581
330
1E
100
AcDbEntity
  8
HILF
100
AcDbCircle
 10
236.9308966998009
 20
438.6288724669763
 30
0.0
 40
22.41111549782308
100
AcDbArc
 50
78.85962783890455
 51
101.1403721610954
  0
ARC
  5
1582
330
1E
100
AcDbEntity
  8
HILF
100
AcDbCircle
 10
243.4260872281842
 20
455.2788473651079
 30
0.0
 40
5.761140599691502
100
AcDbArc
 50
67.92594526326054
 51
112.0740547367394
  0
ARC
  5
1583
330
1E
100
AcDbEntity
  8
HILF
100
AcDbCircle
 10
230.4357061714176
 20
455.2788473651079
 30
0.0
 40
5.761140599691502
100
AcDbArc
 50
67.92594526326054
 51
112.0740547367394
  0
LINE
  5
1584
330
1E
100
AcDbEntity
  8
STEMPEL
100
AcDbLine
 10
229.4308966998009
 20
468.5273335146376
 30
0.0
 11
244.4308966998009
 21
468.5273335146376
 31
0.0
  0
LINE
  5
1585
330
1E
100
AcDbEntity
  8
STEMPEL
100
AcDbLine
 10
245.5911507376453
 20
460.6176900308374
 30
0.0
 11
245.5911507376453
 21
468.2164443821822
 31
0.0
  0
LINE
  5
1586
330
1E
100
AcDbEntity
  8
STEMPEL
100
AcDbLine
 10
241.2610237187231
 20
460.6176900308374
 30
0.0
 11
241.2610237187231
 21
468.2164443821822
 31
0.0
  0
LINE
  5
1587
330
1E
100
AcDbEntity
  8
STEMPEL
100
AcDbLine
 10
232.6007696808787
 20
460.6176900308374
 30
0.0
 11
232.6007696808787
 21
468.2164443821822
 31
0.0
  0
LINE
  5
1588
330
1E
100
AcDbEntity
  8
STEMPEL
100
AcDbLine
 10
247.3374118072952
 20
459.982102980227
 30
0.0
 11
226.5243815923066
 21
459.982102980227
 31
0.0
  0
LINE
  5
1589
330
1E
100
AcDbEntity
  8
STEMPEL
100
AcDbLine
 10
247.0808966998009
 20
458.5273335146375
 30
0.0
 11
226.7808966998009
 21
458.5273335146375
 31
0.0
  0
LINE
  5
158A
330
1E
100
AcDbEntity
  8
STEMPEL
100
AcDbLine
 10
228.2706426619566
 20
460.6176900308374
 30
0.0
 11
228.2706426619566
 21
468.2164443821822
 31
0.0
  0
LINE
  5
158B
330
1E
100
AcDbEntity
  8
STEMPEL
100
AcDbLine
 10
229.4308966998009
 20
468.5273335146376
 30
0.0
 11
228.2706426619566
 21
468.2164443821822
 31
0.0
  0
LINE
  5
158C
330
1E
100
AcDbEntity
  8
STEMPEL
100
AcDbLine
 10
245.5911507376453
 20
468.2164443821822
 30
0.0
 11
244.4308966998009
 21
468.5273335146376
 31
0.0
  0
LINE
  5
158D
330
1E
100
AcDbEntity
  8
STEMPEL
100
AcDbLine
 10
247.3374118072952
 20
459.982102980227
 30
0.0
 11
245.5911507376453
 21
460.6176900308374
 31
0.0
  0
LINE
  5
158E
330
1E
100
AcDbEntity
  8
STEMPEL
100
AcDbLine
 10
228.2706426619566
 20
460.6176900308374
 30
0.0
 11
226.5243815923067
 21
459.982102980227
 31
0.0
  0
ARC
  5
158F
330
1E
100
AcDbEntity
  8
STEMPEL
100
AcDbCircle
 10
226.7808966998009
 20
459.2773335146375
 30
0.0
 40
0.7500000000000013
100
AcDbArc
 50
109.9999999999995
 51
269.9999991462263
  0
ARC
  5
1590
330
1E
100
AcDbEntity
  8
STEMPEL
100
AcDbCircle
 10
247.0808966998009
 20
459.2773335146375
 30
0.0
 40
0.750000000000001
100
AcDbArc
 50
269.9999991462263
 51
70.00000000000047
  0
ARC
  5
1591
330
1E
100
AcDbEntity
  8
STEMPEL
100
AcDbCircle
 10
325.7864708124192
 20
438.2164443821827
 30
0.0
 40
30.31088913245485
100
AcDbArc
 50
81.78678929826059
 51
98.2132107017394
  0
ARC
  5
1592
330
1E
100
AcDbEntity
  8
STEMPEL
100
AcDbCircle
 10
319.291280284036
 20
460.8330278068531
 30
0.0
 40
7.694305707784447
100
AcDbArc
 50
73.65710669401657
 51
106.3428933059865
  0
ARC
  5
1593
330
1E
100
AcDbEntity
  8
STEMPEL
100
AcDbCircle
 10
332.2816613408026
 20
460.8330278068531
 30
0.0
 40
7.694305707784447
100
AcDbArc
 50
73.65710669401345
 51
106.3428933059834
  0
ARC
  5
1594
330
1E
100
AcDbEntity
  8
HILF
100
AcDbCircle
 10
325.7864708124192
 20
438.6288724669763
 30
0.0
 40
22.41111549782308
100
AcDbArc
 50
78.85962783890455
 51
101.1403721610954
  0
ARC
  5
1595
330
1E
100
AcDbEntity
  8
HILF
100
AcDbCircle
 10
332.2816613408026
 20
455.2788473651079
 30
0.0
 40
5.761140599691502
100
AcDbArc
 50
67.92594526326054
 51
112.0740547367394
  0
ARC
  5
1596
330
1E
100
AcDbEntity
  8
HILF
100
AcDbCircle
 10
319.291280284036
 20
455.2788473651079
 30
0.0
 40
5.761140599691502
100
AcDbArc
 50
67.92594526326054
 51
112.0740547367394
  0
LINE
  5
1597
330
1E
100
AcDbEntity
  8
STEMPEL
100
AcDbLine
 10
318.2864708124192
 20
468.5273335146376
 30
0.0
 11
333.2864708124192
 21
468.5273335146376
 31
0.0
  0
LINE
  5
1598
330
1E
100
AcDbEntity
  8
STEMPEL
100
AcDbLine
 10
334.4467248502636
 20
460.6176900308374
 30
0.0
 11
334.4467248502636
 21
468.2164443821822
 31
0.0
  0
LINE
  5
1599
330
1E
100
AcDbEntity
  8
STEMPEL
100
AcDbLine
 10
330.1165978313414
 20
460.6176900308374
 30
0.0
 11
330.1165978313414
 21
468.2164443821822
 31
0.0
  0
LINE
  5
159A
330
1E
100
AcDbEntity
  8
STEMPEL
100
AcDbLine
 10
321.456343793497
 20
460.6176900308374
 30
0.0
 11
321.456343793497
 21
468.2164443821822
 31
0.0
  0
LINE
  5
159B
330
1E
100
AcDbEntity
  8
STEMPEL
100
AcDbLine
 10
335.1799165566233
 20
459.9821029802269
 30
0.0
 11
315.379955704925
 21
459.982102980227
 31
0.0
  0
LINE
  5
159C
330
1E
100
AcDbEntity
  8
STEMPEL
100
AcDbLine
 10
331.6541059465818
 20
458.5273335146376
 30
0.0
 11
315.6364708124193
 21
458.5273335146375
 31
0.0
  0
LINE
  5
159D
330
1E
100
AcDbEntity
  8
STEMPEL
100
AcDbLine
 10
317.1262167745748
 20
460.6176900308374
 30
0.0
 11
317.1262167745748
 21
468.2164443821822
 31
0.0
  0
LINE
  5
159E
330
1E
100
AcDbEntity
  8
STEMPEL
100
AcDbLine
 10
318.2864708124192
 20
468.5273335146376
 30
0.0
 11
317.1262167745748
 21
468.2164443821822
 31
0.0
  0
LINE
  5
159F
330
1E
100
AcDbEntity
  8
STEMPEL
100
AcDbLine
 10
334.4467248502636
 20
468.2164443821822
 30
0.0
 11
333.2864708124192
 21
468.5273335146376
 31
0.0
  0
LINE
  5
15A0
330
1E
100
AcDbEntity
  8
STEMPEL
100
AcDbLine
 10
335.4366307538278
 20
460.2573937472157
 30
0.0
 11
334.4467248502636
 21
460.6176900308374
 31
0.0
  0
LINE
  5
15A1
330
1E
100
AcDbEntity
  8
STEMPEL
100
AcDbLine
 10
317.1262167745748
 20
460.6176900308374
 30
0.0
 11
315.379955704925
 21
459.982102980227
 31
0.0
  0
ARC
  5
15A2
330
1E
100
AcDbEntity
  8
STEMPEL
100
AcDbCircle
 10
315.6364708124193
 20
459.2773335146375
 30
0.0
 40
0.7500000000000013
100
AcDbArc
 50
109.9999999999995
 51
269.9999991462263
  0
LINE
  5
15F1
330
1E
100
AcDbEntity
  8
STEMPEL
100
AcDbLine
 10
148.8119631711553
 20
393.527333514638
 30
0.0
 11
159.8119631711551
 21
373.5273335146379
 31
0.0
  0
LINE
  5
15F2
330
1E
100
AcDbEntity
  8
STEMPEL
100
AcDbLine
 10
295.8119631711549
 20
393.527333514638
 30
0.0
 11
284.8119631711551
 21
373.5273335146371
 31
0.0
  0
LINE
  5
15F3
330
1E
100
AcDbEntity
  8
STEMPEL
100
AcDbLine
 10
159.8119631711551
 20
373.5273335146379
 30
0.0
 11
168.4119631711554
 21
373.5273335146378
 31
0.0
  0
LINE
  5
15F4
330
1E
100
AcDbEntity
  8
STEMPEL
100
AcDbLine
 10
171.5119631711553
 20
289.4873335146377
 30
0.0
 11
159.8119631711552
 21
303.5273335146376
 31
0.0
  0
LINE
  5
15F5
330
1E
100
AcDbEntity
  8
STEMPEL
100
AcDbLine
 10
283.1119631711554
 20
301.4873335146379
 30
0.0
 11
284.8119631711551
 21
303.5273335146376
 31
0.0
  0
LINE
  5
15F6
330
1E
100
AcDbEntity
  8
STEMPEL
100
AcDbLine
 10
159.8119631711551
 20
303.5273335146381
 30
0.0
 11
171.5119631711553
 21
303.527333514638
 31
0.0
  0
LINE
  5
15F7
330
1E
100
AcDbEntity
  8
STEMPEL
100
AcDbLine
 10
284.8119631711551
 20
373.5273335146371
 30
0.0
 11
284.8119631711551
 21
303.5273335146376
 31
0.0
  0
LINE
  5
15F8
330
1E
100
AcDbEntity
  8
STEMPEL
100
AcDbLine
 10
159.8119631711551
 20
373.5273335146379
 30
0.0
 11
159.8119631711551
 21
303.5273335146381
 31
0.0
  0
LINE
  5
15F9
330
1E
100
AcDbEntity
  8
STEMPEL
100
AcDbLine
 10
145.0438679236529
 20
283.5273335146382
 30
0.0
 11
171.5119631711553
 21
283.527333514638
 31
0.0
  0
ARC
  5
15FA
330
1E
100
AcDbEntity
  8
STEMPEL
100
AcDbCircle
 10
145.0438679236529
 20
286.5273335146381
 30
0.0
 40
3.0
100
AcDbArc
 50
185.3558250428554
 51
270.0
  0
LINE
  5
15FD
330
1E
100
AcDbEntity
  8
STEMPEL
100
AcDbLine
 10
127.3119631711551
 20
443.5273335146382
 30
0.0
 11
142.056965245475
 21
286.2473113885589
 31
0.0
  0
LINE
  5
15FE
330
1E
100
AcDbEntity
  8
STEMPEL
100
AcDbLine
 10
142.3119631711551
 20
443.5273335146383
 30
0.0
 11
148.8119631711551
 21
438.5273335146382
 31
0.0
  0
LINE
  5
15FF
330
1E
100
AcDbEntity
  8
STEMPEL
100
AcDbLine
 10
148.8119631711553
 20
393.527333514638
 30
0.0
 11
148.8119631711551
 21
438.5273335146382
 31
0.0
  0
LINE
  5
1600
330
1E
100
AcDbEntity
  8
STEMPEL
100
AcDbLine
 10
317.3119631711551
 20
443.5273335146382
 30
0.0
 11
302.5669610968352
 21
286.2473113885589
 31
0.0
  0
LINE
  5
1601
330
1E
100
AcDbEntity
  8
STEMPEL
100
AcDbLine
 10
295.8119631711549
 20
393.527333514638
 30
0.0
 11
295.8119631711551
 21
438.5273335146382
 31
0.0
  0
LINE
  5
1602
330
1E
100
AcDbEntity
  8
STEMPEL
100
AcDbLine
 10
302.3119631711551
 20
443.5273335146383
 30
0.0
 11
295.8119631711551
 21
438.5273335146382
 31
0.0
  0
ARC
  5
1604
330
1E
100
AcDbEntity
  8
STEMPEL
100
AcDbCircle
 10
299.5800584186573
 20
286.5273335146381
 30
0.0
 40
3.0
100
AcDbArc
 50
270.0
 51
354.6441749571445
  0
LINE
  5
1605
330
1E
100
AcDbEntity
  8
STEMPEL
100
AcDbLine
 10
148.8119631711553
 20
393.527333514638
 30
0.0
 11
168.4119631711553
 21
393.527333514638
 31
0.0
  0
LINE
  5
1606
330
1E
100
AcDbEntity
  8
STEMPEL
100
AcDbLine
 10
148.8119631711551
 20
438.5273335146382
 30
0.0
 11
153.8474970770882
 21
438.5273335146382
 31
0.0
  0
DIMENSION
  5
1607
330
1E
100
AcDbEntity
  8
BEM
100
AcDbDimension
  2
*D4
 10
61.93427005887674
 20
283.5273335146382
 30
0.0
 11
55.43427005887669
 21
363.5273335146383
 31
0.0
 70
    32
 71
     5
 42
160.0000000000001
  3
Standard
100
AcDbAlignedDimension
 13
78.44039029590144
 23
443.5273335146383
 33
0.0
 14
142.3119631711551
 24
283.5273335146382
 34
0.0
 50
90.0
100
AcDbRotatedDimension
1001
ACAD
1000
DSTYLE
1002
{
1070
    40
1040
2.0
1070
    41
1040
3.5
1070
    42
1040
1.0
1070
    43
1040
7.0
1070
    44
1040
1.0
1070
    73
1070
     0
1070
    74
1070
     0
1070
    77
1070
     1
1070
    78
1070
     8
1070
    79
1070
     2
1070
   140
1040
3.5
1070
   141
1040
1.5
1070
   146
1040
0.5142857142857144
1070
   147
1040
1.5
1070
   172
1070
     1
1070
   178
1070
     1
1070
   179
1070
     2
1070
   271
1070
     2
1070
   272
1070
     2
1070
   284
1070
     8
1070
   285
1070
     8
1070
   286
1070
     8
1002
}
  0
DIMENSION
  5
1608
330
1E
100
AcDbEntity
  8
BEM
100
AcDbDimension
  2
*D5
 10
302.3119631711551
 20
265.2065522791088
 30
0.0
 11
222.3119631711551
 21
271.7065522791088
 31
0.0
 70
    32
  1
%%c<>
 71
     5
 42
159.9999999999999
  3
Standard
100
AcDbAlignedDimension
 13
142.3119631711551
 23
283.5273335146382
 33
0.0
 14
302.3119631711551
 24
283.5273335146376
 34
0.0
100
AcDbRotatedDimension
1001
ACAD
1000
DSTYLE
1002
{
1070
    40
1040
2.0
1070
    41
1040
3.5
1070
    42
1040
1.0
1070
    43
1040
7.0
1070
    44
1040
1.0
1070
    73
1070
     0
1070
    74
1070
     0
1070
    77
1070
     1
1070
    78
1070
     8
1070
    79
1070
     2
1070
   140
1040
3.5
1070
   141
1040
1.5
1070
   146
1040
0.5142857142857144
1070
   147
1040
1.5
1070
   172
1070
     1
1070
   178
1070
     1
1070
   179
1070
     2
1070
   271
1070
     2
1070
   272
1070
     2
1070
   284
1070
     8
1070
   285
1070
     8
1070
   286
1070
     8
1002
}
  0
DIMENSION
  5
1609
330
1E
100
AcDbEntity
  8
BEM
100
AcDbDimension
  2
*D6
 10
317.311963171155
 20
486.8091977096287
 30
0.0
 11
222.3119631711551
 21
493.3091977096287
 31
0.0
 70
    32
  1
%%c<>
 71
     5
 42
189.9999999999999
  3
Standard
100
AcDbAlignedDimension
 13
127.311963171155
 23
443.5273335146382
 33
0.0
 14
317.311963171155
 24
443.5273335146368
 34
0.0
100
AcDbRotatedDimension
1001
ACAD
1000
DSTYLE
1002
{
1070
    40
1040
2.0
1070
    41
1040
3.5
1070
    42
1040
1.0
1070
    43
1040
7.0
1070
    44
1040
1.0
1070
    73
1070
     0
1070
    74
1070
     0
1070
    77
1070
     1
1070
    78
1070
     8
1070
    79
1070
     2
1070
   140
1040
3.5
1070
   141
1040
1.5
1070
   146
1040
0.5142857142857144
1070
   147
1040
1.5
1070
   172
1070
     1
1070
   178
1070
     1
1070
   179
1070
     2
1070
   271
1070
     2
1070
   272
1070
     2
1070
   284
1070
     8
1070
   285
1070
     8
1070
   286
1070
     8
1002
}
  0
LINE
  5
166D
330
1E
100
AcDbEntity
  8
TEXT
 62
     2
100
AcDbLine
 10
302.4972935967591
 20
484.3834550188526
 30
0.0
 11
309.3592167691145
 21
448.0237598355561
 31
0.0
  0
LINE
  5
166E
330
1E
100
AcDbEntity
  8
TEXT
 62
     2
100
AcDbLine
 10
279.4140315813802
 20
484.1741730554505
 30
0.0
 11
277.6079224713188
 21
450.6054587432202
 31
0.0
  0
LINE
  5
166F
330
1E
100
AcDbEntity
  8
STEMPEL
100
AcDbLine
 10
290.7764292652223
 20
438.5273335146382
 30
0.0
 11
295.8119631711551
 21
438.5273335146382
 31
0.0
  0
LINE
  5
1670
330
1E
100
AcDbEntity
  8
STEMPEL
100
AcDbLine
 10
286.2119631711553
 20
393.527333514638
 30
0.0
 11
295.8119631711549
 21
393.527333514638
 31
0.0
  0
LINE
  5
1671
330
1E
100
AcDbEntity
  8
STEMPEL
100
AcDbLine
 10
283.2185104271754
 20
373.5273335146371
 30
0.0
 11
284.8119631711551
 21
373.5273335146371
 31
0.0
  0
LINE
  5
1672
330
1E
100
AcDbEntity
  8
STEMPEL
100
AcDbLine
 10
283.1119631711553
 20
303.5273335146376
 30
0.0
 11
284.8119631711551
 21
303.5273335146376
 31
0.0
  0
LINE
  5
1673
330
1E
100
AcDbEntity
  8
STEMPEL
100
AcDbLine
 10
283.1119631711554
 20
283.5273335146376
 30
0.0
 11
299.5800584186573
 21
283.5273335146376
 31
0.0
  0
LINE
  5
1674
330
1E
100
AcDbEntity
  8
MITTEL
100
AcDbLine
 10
222.3119631711552
 20
261.7247167534742
 30
0.0
 11
222.3119631711552
 21
171.527333514638
 31
0.0
  0
TEXT
  5
1675
330
1E
100
AcDbEntity
  8
TEXT
100
AcDbText
 10
235.1296391125316
 20
71.50334417585293
 30
0.0
 40
5.0
  1
mit Wärmedämmung und Heizung
 41
0.7
  7
GREEKS
100
AcDbText
  0
LINE
  5
167F
330
1E
100
AcDbEntity
  8
TEXT
 62
     2
100
AcDbLine
 10
314.3371357492435
 20
301.4564105417919
 30
0.0
 11
299.4957093152268
 21
316.8427107975722
 31
0.0
  0
LINE
  5
1680
330
1E
100
AcDbEntity
  8
TEXT
 62
     2
100
AcDbLine
 10
406.8771952195809
 20
301.4564105417919
 30
0.0
 11
314.3371357492435
 21
301.4564105417919
 31
0.0
  0
TEXT
  5
1681
330
1E
100
AcDbEntity
  8
TEXT
 62
     1
100
AcDbText
 10
314.9324916279979
 20
304.9402447027024
 30
0.0
 40
7.0
  1
Wärmedämmung DN100
 41
0.7
100
AcDbText
  0
TEXT
  5
1682
330
1E
100
AcDbEntity
  8
TEXT
 62
     1
100
AcDbText
 10
314.9324916279979
 20
292.1639137339928
 30
0.0
 40
7.0
  1
EDV-Art.Nr. 19842.100X
 41
0.7
100
AcDbText
  0
ARC
  5
16D4
330
1E
100
AcDbEntity
  8
STEMPEL
100
AcDbCircle
 10
165.4119631711552
 20
402.0241329839567
 30
0.0
 40
2.0
100
AcDbArc
 50
90.0
 51
180.0
  0
ARC
  5
16D5
102
{ACAD_REACTORS
330
16D9
102
}
330
1E
100
AcDbEntity
  8
STEMPEL
100
AcDbCircle
 10
165.4119631711552
 20
402.0241329839567
 30
0.0
 40
1.0
100
AcDbArc
 50
90.0
 51
180.0
  0
HATCH
  5
16D6
330
1E
100
AcDbEntity
  8
SCHRAFF
100
AcDbHatch
 10
0.0
 20
0.0
 30
0.0
210
0.0
220
0.0
230
1.0
  2
NET
 70
     0
 71
     0
 91
        2
 92
        7
 72
     1
 73
     1
 93
       10
 10
163.4119631711552
 20
402.0241329839567
 42
-0.2539150913703598
 10
164.3223538720911
 20
403.7012589706951
 42
-0.0005032130446828
 10
164.3477958561065
 20
403.7175165570381
 42
-0.1411920676771369
 10
165.4119631711551
 20
404.0241329839567
 42
0.0
 10
166.4119631711552
 20
404.0241329839568
 42
-0.4142135623730951
 10
168.4119631711552
 20
402.0241329839568
 42
0.0
 10
168.4119631711552
 20
396.0241329839568
 42
-0.4142135623730951
 10
166.4119631711552
 20
394.0241329839567
 42
0.0
 10
165.4119631711552
 20
394.0241329839567
 42
-0.4142135623730951
 10
163.4119631711552
 20
396.0241329839568
 42
0.0
 97
        0
 92
       22
 72
     1
 73
     1
 93
        8
 10
164.4119631711552
 20
396.0241329839568
 42
0.4142135623730951
 10
165.4119631711552
 20
395.0241329839568
 42
0.0
 10
166.4119631711552
 20
395.0241329839568
 42
0.4142135623730951
 10
167.4119631711552
 20
396.0241329839568
 42
0.0
 10
167.4119631711552
 20
402.0241329839568
 42
0.4142135623731284
 10
166.411963171155
 20
403.0241329839568
 42
0.0
 10
165.4119631711552
 20
403.0241329839567
 42
0.4142135623730951
 10
164.4119631711552
 20
402.0241329839567
 42
0.0
 97
        0
 75
     0
 76
     1
 52
45.0
 41
10.0
 77
     0
 78
     2
 53
135.0
 43
426.3418819229969
 44
19.61701901362062
 45
0.8838834764831842
 46
0.8838834764831844
 79
     0
 53
45.0
 43
426.3418819229969
 44
19.61701901362062
 45
0.8838834764831844
 46
-0.8838834764831842
 79
     0
 47
0.1212528115745328
 98
        2
 10
164.0849814549647
 20
400.5564868515976
 10
164.0849814549647
 20
400.5564868515976
  0
ARC
  5
16D7
330
1E
100
AcDbEntity
  8
STEMPEL
100
AcDbCircle
 10
166.4119631711552
 20
402.0241329839568
 30
0.0
 40
2.0
100
AcDbArc
 50
0.0
 51
90.0
  0
ARC
  5
16D8
102
{ACAD_REACTORS
330
16D9
102
}
330
1E
100
AcDbEntity
  8
STEMPEL
100
AcDbCircle
 10
166.4119631711552
 20
402.0241329839568
 30
0.0
 40
1.0
100
AcDbArc
 50
0.0
 51
90.0
  0
HATCH
  5
16D9
330
1E
100
AcDbEntity
  8
SCHRAFF
100
AcDbHatch
 10
0.0
 20
0.0
 30
0.0
210
0.0
220
0.0
230
1.0
  2
_USER
 70
     0
 71
     1
 91
        1
 92
        7
 72
     1
 73
     1
 93
        8
 10
164.4119631711552
 20
396.0241329839568
 42
0.4142135623730951
 10
165.4119631711552
 20
395.0241329839568
 42
0.0
 10
166.4119631711552
 20
395.0241329839568
 42
0.4142135623730951
 10
167.4119631711552
 20
396.0241329839568
 42
0.0
 10
167.4119631711552
 20
402.0241329839568
 42
0.4142135623731283
 10
166.411963171155
 20
403.0241329839568
 42
0.0
 10
165.4119631711552
 20
403.0241329839567
 42
0.4142135623730951
 10
164.4119631711552
 20
402.0241329839567
 42
0.0
 97
        8
330
16D5
330
16DA
330
16D8
330
16E1
330
16E4
330
16DB
330
16DF
330
16DE
 75
     0
 76
     0
 52
135.0
 41
1.0
 77
     0
 78
     1
 53
135.0
 43
1.40361396962524
 44
1.674710649314704
 45
-0.7071067811865476
 46
-0.7071067811865475
 79
     0
 47
0.1071053300341939
 98
        1
 10
165.8468131593627
 20
398.8002084175334
  0
LINE
  5
16DA
102
{ACAD_REACTORS
330
16D9
102
}
330
1E
100
AcDbEntity
  8
STEMPEL
100
AcDbLine
 10
166.4119631711552
 20
403.0241329839568
 30
0.0
 11
165.4119631711552
 21
403.0241329839567
 31
0.0
  0
LINE
  5
16DB
102
{ACAD_REACTORS
330
16D9
102
}
330
1E
100
AcDbEntity
  8
STEMPEL
100
AcDbLine
 10
166.4119631711552
 20
395.0241329839568
 30
0.0
 11
165.4119631711552
 21
395.0241329839568
 31
0.0
  0
LINE
  5
16DC
330
1E
100
AcDbEntity
  8
STEMPEL
100
AcDbLine
 10
166.4119631711552
 20
394.0241329839567
 30
0.0
 11
165.4119631711552
 21
394.0241329839567
 31
0.0
  0
LINE
  5
16DD
330
1E
100
AcDbEntity
  8
STEMPEL
  6
Continuous
100
AcDbLine
 10
163.4119631711552
 20
402.0241329839567
 30
0.0
 11
163.4119631711552
 21
396.0241329839568
 31
0.0
  0
LINE
  5
16DE
102
{ACAD_REACTORS
330
16D9
102
}
330
1E
100
AcDbEntity
  8
STEMPEL
  6
Continuous
100
AcDbLine
 10
164.4119631711552
 20
402.0241329839567
 30
0.0
 11
164.4119631711552
 21
396.0241329839568
 31
0.0
  0
ARC
  5
16DF
102
{ACAD_REACTORS
330
16D9
102
}
330
1E
100
AcDbEntity
  8
STEMPEL
100
AcDbCircle
 10
165.4119631711552
 20
396.0241329839568
 30
0.0
 40
1.0
100
AcDbArc
 50
180.0
 51
270.0
  0
ARC
  5
16E0
330
1E
100
AcDbEntity
  8
STEMPEL
100
AcDbCircle
 10
165.4119631711552
 20
396.0241329839568
 30
0.0
 40
2.0
100
AcDbArc
 50
180.0
 51
270.0
  0
LINE
  5
16E1
102
{ACAD_REACTORS
330
16D9
102
}
330
1E
100
AcDbEntity
  8
STEMPEL
  6
Continuous
100
AcDbLine
 10
167.4119631711552
 20
402.0241329839568
 30
0.0
 11
167.4119631711552
 21
396.0241329839568
 31
0.0
  0
LINE
  5
16E2
330
1E
100
AcDbEntity
  8
STEMPEL
  6
Continuous
100
AcDbLine
 10
168.4119631711552
 20
402.0241329839568
 30
0.0
 11
168.4119631711552
 21
396.0241329839568
 31
0.0
  0
ARC
  5
16E3
330
1E
100
AcDbEntity
  8
STEMPEL
100
AcDbCircle
 10
166.4119631711552
 20
396.0241329839568
 30
0.0
 40
2.0
100
AcDbArc
 50
270.0
 51
0.0
  0
ARC
  5
16E4
102
{ACAD_REACTORS
330
16D9
102
}
330
1E
100
AcDbEntity
  8
STEMPEL
100
AcDbCircle
 10
166.4119631711552
 20
396.0241329839568
 30
0.0
 40
1.0
100
AcDbArc
 50
270.0
 51
0.0
  0
LINE
  5
16E5
330
1E
100
AcDbEntity
  8
STEMPEL
100
AcDbLine
 10
165.4119631711552
 20
404.0241329839567
 30
0.0
 11
166.4119631711552
 21
404.0241329839568
 31
0.0
  0
ARC
  5
16E6
102
{ACAD_REACTORS
330
16F5
102
}
330
1E
100
AcDbEntity
  8
STEMPEL
100
AcDbCircle
 10
278.2119631711553
 20
396.0241329839568
 30
0.0
 40
1.0
100
AcDbArc
 50
180.0
 51
270.0
  0
ARC
  5
16E7
102
{ACAD_REACTORS
330
16F5
102
}
330
1E
100
AcDbEntity
  8
STEMPEL
100
AcDbCircle
 10
278.2119631711553
 20
402.0241329839568
 30
0.0
 40
1.0
100
AcDbArc
 50
90.0
 51
180.0
  0
ARC
  5
16E8
330
1E
100
AcDbEntity
  8
STEMPEL
100
AcDbCircle
 10
278.2119631711553
 20
396.0241329839568
 30
0.0
 40
2.0
100
AcDbArc
 50
180.0
 51
270.0
  0
ARC
  5
16E9
330
1E
100
AcDbEntity
  8
STEMPEL
100
AcDbCircle
 10
278.2119631711553
 20
402.0241329839568
 30
0.0
 40
2.0
100
AcDbArc
 50
90.0
 51
180.0
  0
HATCH
  5
16EA
330
1E
100
AcDbEntity
  8
SCHRAFF
100
AcDbHatch
 10
0.0
 20
0.0
 30
0.0
210
0.0
220
0.0
230
1.0
  2
NET
 70
     0
 71
     0
 91
        2
 92
        7
 72
     1
 73
     1
 93
       10
 10
281.2119631711553
 20
402.0241329839567
 42
0.2539150913703598
 10
280.3015724702193
 20
403.7012589706951
 42
0.0005032130446828
 10
280.2761304862039
 20
403.7175165570381
 42
0.1411920676771369
 10
279.2119631711554
 20
404.0241329839567
 42
0.0
 10
278.2119631711553
 20
404.0241329839568
 42
0.4142135623730951
 10
276.2119631711553
 20
402.0241329839568
 42
0.0
 10
276.2119631711553
 20
396.0241329839568
 42
0.4142135623730951
 10
278.2119631711553
 20
394.0241329839567
 42
0.0
 10
279.2119631711553
 20
394.0241329839567
 42
0.4142135623730951
 10
281.2119631711553
 20
396.0241329839568
 42
0.0
 97
        0
 92
       22
 72
     1
 73
     1
 93
        8
 10
280.2119631711553
 20
396.0241329839568
 42
-0.4142135623730951
 10
279.2119631711553
 20
395.0241329839568
 42
0.0
 10
278.2119631711553
 20
395.0241329839568
 42
-0.4142135623730951
 10
277.2119631711553
 20
396.0241329839568
 42
0.0
 10
277.2119631711553
 20
402.0241329839568
 42
-0.4142135623731284
 10
278.2119631711554
 20
403.0241329839568
 42
0.0
 10
279.2119631711553
 20
403.0241329839567
 42
-0.4142135623730951
 10
280.2119631711553
 20
402.0241329839567
 42
0.0
 97
        0
 75
     0
 76
     1
 52
45.0
 41
10.0
 77
     0
 78
     2
 53
45.0
 43
18.28204441931345
 44
19.61701901362062
 45
-0.8838834764831842
 46
0.8838834764831844
 79
     0
 53
135.0
 43
18.28204441931345
 44
19.61701901362062
 45
-0.8838834764831844
 46
-0.8838834764831842
 79
     0
 47
0.1212528115745328
 98
        2
 10
280.5389448873457
 20
400.5564868515976
 10
280.5389448873457
 20
400.5564868515976
  0
LINE
  5
16EB
330
1E
100
AcDbEntity
  8
STEMPEL
  6
Continuous
100
AcDbLine
 10
276.2119631711553
 20
402.0241329839568
 30
0.0
 11
276.2119631711553
 21
396.0241329839568
 31
0.0
  0
ARC
  5
16EC
102
{ACAD_REACTORS
330
16F5
102
}
330
1E
100
AcDbEntity
  8
STEMPEL
100
AcDbCircle
 10
279.2119631711553
 20
402.0241329839567
 30
0.0
 40
1.0
100
AcDbArc
 50
0.0
 51
90.0
  0
ARC
  5
16ED
330
1E
100
AcDbEntity
  8
STEMPEL
100
AcDbCircle
 10
279.2119631711553
 20
402.0241329839567
 30
0.0
 40
2.0
100
AcDbArc
 50
0.0
 51
90.0
  0
ARC
  5
16EE
330
1E
100
AcDbEntity
  8
STEMPEL
100
AcDbCircle
 10
279.2119631711553
 20
396.0241329839568
 30
0.0
 40
2.0
100
AcDbArc
 50
270.0
 51
0.0
  0
LINE
  5
16EF
330
1E
100
AcDbEntity
  8
STEMPEL
100
AcDbLine
 10
278.2119631711553
 20
394.0241329839567
 30
0.0
 11
279.2119631711553
 21
394.0241329839567
 31
0.0
  0
ARC
  5
16F0
102
{ACAD_REACTORS
330
16F5
102
}
330
1E
100
AcDbEntity
  8
STEMPEL
100
AcDbCircle
 10
279.2119631711553
 20
396.0241329839568
 30
0.0
 40
1.0
100
AcDbArc
 50
270.0
 51
0.0
  0
LINE
  5
16F1
102
{ACAD_REACTORS
330
16F5
102
}
330
1E
100
AcDbEntity
  8
STEMPEL
100
AcDbLine
 10
278.2119631711553
 20
395.0241329839568
 30
0.0
 11
279.2119631711553
 21
395.0241329839568
 31
0.0
  0
LINE
  5
16F2
102
{ACAD_REACTORS
330
16F5
102
}
330
1E
100
AcDbEntity
  8
STEMPEL
100
AcDbLine
 10
278.2119631711553
 20
403.0241329839568
 30
0.0
 11
279.2119631711553
 21
403.0241329839567
 31
0.0
  0
LINE
  5
16F3
102
{ACAD_REACTORS
330
16F5
102
}
330
1E
100
AcDbEntity
  8
STEMPEL
  6
Continuous
100
AcDbLine
 10
280.2119631711553
 20
402.0241329839567
 30
0.0
 11
280.2119631711553
 21
396.0241329839568
 31
0.0
  0
LINE
  5
16F4
102
{ACAD_REACTORS
330
16F5
102
}
330
1E
100
AcDbEntity
  8
STEMPEL
  6
Continuous
100
AcDbLine
 10
277.2119631711553
 20
402.0241329839568
 30
0.0
 11
277.2119631711553
 21
396.0241329839568
 31
0.0
  0
HATCH
  5
16F5
330
1E
100
AcDbEntity
  8
SCHRAFF
100
AcDbHatch
 10
0.0
 20
0.0
 30
0.0
210
0.0
220
0.0
230
1.0
  2
_USER
 70
     0
 71
     1
 91
        1
 92
        7
 72
     1
 73
     1
 93
        8
 10
280.2119631711553
 20
402.0241329839567
 42
0.4142135623730951
 10
279.2119631711553
 20
403.0241329839567
 42
0.0
 10
278.2119631711553
 20
403.0241329839568
 42
0.4142135623730951
 10
277.2119631711553
 20
402.0241329839568
 42
0.0
 10
277.2119631711553
 20
396.0241329839568
 42
0.4142135623730951
 10
278.2119631711553
 20
395.0241329839568
 42
0.0
 10
279.2119631711553
 20
395.0241329839568
 42
0.4142135623730951
 10
280.2119631711553
 20
396.0241329839568
 42
0.0
 97
        8
330
16EC
330
16F2
330
16E7
330
16F4
330
16E6
330
16F1
330
16F0
330
16F3
 75
     0
 76
     0
 52
135.0
 41
1.0
 77
     0
 78
     1
 53
135.0
 43
18.28204441931345
 44
19.61701901362062
 45
-0.7071067811865476
 46
-0.7071067811865475
 79
     0
 47
0.1071053300341939
 98
        1
 10
278.7771131829477
 20
398.8002084175334
  0
LINE
  5
16F6
330
1E
100
AcDbEntity
  8
STEMPEL
  6
Continuous
100
AcDbLine
 10
281.2119631711553
 20
402.0241329839567
 30
0.0
 11
281.2119631711553
 21
396.0241329839568
 31
0.0
  0
LINE
  5
16F7
330
1E
100
AcDbEntity
  8
STEMPEL
100
AcDbLine
 10
279.2119631711553
 20
404.0241329839567
 30
0.0
 11
278.2119631711553
 21
404.0241329839568
 31
0.0
  0
ARC
  5
16F8
330
1E
100
AcDbEntity
  8
STEMPEL
100
AcDbCircle
 10
275.3981352997521
 20
394.0521422545718
 30
0.0
 40
10.82655519756146
100
AcDbArc
 50
357.2215433564766
 51
63.22048523125464
  0
LINE
  5
16F9
330
1E
100
AcDbEntity
  8
STEMPEL
100
AcDbLine
 10
286.2119631711553
 20
394.5769509945035
 30
0.0
 11
286.2119631711553
 21
386.2992410845216
 31
0.0
  0
ARC
  5
16FA
330
1E
100
AcDbEntity
  8
STEMPEL
100
AcDbCircle
 10
262.0119631711552
 20
386.2992410845215
 30
0.0
 40
24.2
100
AcDbArc
 50
335.4166065353522
 51
0.0
  0
ARC
  5
16FB
330
1E
100
AcDbEntity
  8
STEMPEL
100
AcDbCircle
 10
293.1119631711553
 20
372.0714513756449
 30
0.0
 40
10.0
100
AcDbArc
 50
155.4166065353522
 51
180.0
  0
LINE
  5
16FC
330
1E
100
AcDbEntity
  8
STEMPEL
100
AcDbLine
 10
283.1119631711553
 20
372.0714513756449
 30
0.0
 11
283.1119631711554
 21
276.2352961255772
 31
0.0
  0
TEXT
  5
16FD
330
1E
100
AcDbEntity
  8
TEXT
 62
     1
100
AcDbText
 10
301.9369026554946
 20
234.4733706298248
 30
0.0
 40
7.0
  1
EDV-Art.Nr. 19853.000X
 41
0.7
  7
GREEKS
100
AcDbText
  0
TEXT
  5
16FE
330
1E
100
AcDbEntity
  8
TEXT
 62
     1
100
AcDbText
 10
301.9369026554946
 20
249.4360764241913
 30
0.0
 40
7.0
  1
Heizbandkabel
 41
0.8
  7
GREEKS
100
AcDbText
  0
LINE
  5
16FF
330
1E
100
AcDbEntity
  8
TEXT
 62
     2
100
AcDbLine
 10
300.1378106610282
 20
245.2909258144796
 30
0.0
 11
393.3196578902937
 21
245.2909258144796
 31
0.0
  0
POLYLINE
  5
1700
330
1E
100
AcDbEntity
  8
STEMPEL
100
AcDb2dPolyline
 66
     1
 10
0.0
 20
0.0
 30
0.0
 70
     4
 75
     6
  0
VERTEX
  5
1701
330
1700
100
AcDbEntity
  8
STEMPEL
100
AcDbVertex
100
AcDb2dVertex
 10
273.1119718489971
 20
283.5336893816041
 30
0.0
 70
    16
  0
VERTEX
  5
1702
330
1700
100
AcDbEntity
  8
STEMPEL
100
AcDbVertex
100
AcDb2dVertex
 10
273.1119718489971
 20
283.5336893816041
 30
0.0
 70
     8
  0
VERTEX
  5
1703
330
1700
100
AcDbEntity
  8
STEMPEL
100
AcDbVertex
100
AcDb2dVertex
 10
273.7666269526326
 20
276.6120672912694
 30
0.0
 70
     8
  0
VERTEX
  5
1704
330
1700
100
AcDbEntity
  8
STEMPEL
100
AcDbVertex
100
AcDb2dVertex
 10
274.3326954307165
 20
271.1616840866005
 30
0.0
 70
     8
  0
VERTEX
  5
1705
330
1700
100
AcDbEntity
  8
STEMPEL
100
AcDbVertex
100
AcDb2dVertex
 10
274.9041596234866
 20
266.6991890429144
 30
0.0
 70
     8
  0
VERTEX
  5
1706
330
1700
100
AcDbEntity
  8
STEMPEL
100
AcDbVertex
100
AcDb2dVertex
 10
275.5750018711806
 20
262.7412314355279
 30
0.0
 70
     8
  0
VERTEX
  5
1707
330
1700
100
AcDbEntity
  8
STEMPEL
100
AcDbVertex
100
AcDb2dVertex
 10
276.4392045140361
 20
258.8044605397581
 30
0.0
 70
     8
  0
VERTEX
  5
1708
330
1700
100
AcDbEntity
  8
STEMPEL
100
AcDbVertex
100
AcDb2dVertex
 10
277.590749892291
 20
254.4055256309219
 30
0.0
 70
     8
  0
VERTEX
  5
1709
330
1700
100
AcDbEntity
  8
STEMPEL
100
AcDbVertex
100
AcDb2dVertex
 10
279.123620346183
 20
249.0610759843363
 30
0.0
 70
     8
  0
VERTEX
  5
170A
330
1700
100
AcDbEntity
  8
STEMPEL
100
AcDbVertex
100
AcDb2dVertex
 10
281.1317982159497
 20
242.2877608753183
 30
0.0
 70
     8
  0
VERTEX
  5
170B
330
1700
100
AcDbEntity
  8
STEMPEL
100
AcDbVertex
100
AcDb2dVertex
 10
275.0593741507496
 20
262.6847335378835
 30
0.0
 70
    16
  0
VERTEX
  5
170C
330
1700
100
AcDbEntity
  8
STEMPEL
100
AcDbVertex
100
AcDb2dVertex
 10
281.1317982159498
 20
242.2877608753184
 30
0.0
 70
    16
  0
SEQEND
  5
170D
330
1700
100
AcDbEntity
  8
STEMPEL
  0
POLYLINE
  5
170E
330
1E
100
AcDbEntity
  8
STEMPEL
100
AcDb2dPolyline
 66
     1
 10
0.0
 20
0.0
 30
0.0
  0
VERTEX
  5
170F
330
170E
100
AcDbEntity
  8
STEMPEL
100
AcDbVertex
100
AcDb2dVertex
 10
283.1119631711553
 20
283.5273335146378
 30
0.0
  0
VERTEX
  5
1710
330
170E
100
AcDbEntity
  8
STEMPEL
100
AcDbVertex
100
AcDb2dVertex
 10
283.1065073797942
 20
276.6602424718818
 30
0.0
  0
VERTEX
  5
1711
330
170E
100
AcDbEntity
  8
STEMPEL
100
AcDbVertex
100
AcDb2dVertex
 10
283.1739590543575
 20
271.4064963586601
 30
0.0
  0
VERTEX
  5
1712
330
170E
100
AcDbEntity
  8
STEMPEL
100
AcDbVertex
100
AcDb2dVertex
 10
283.3713827409692
 20
267.3277169587724
 30
0.0
  0
VERTEX
  5
1713
330
170E
100
AcDbEntity
  8
STEMPEL
100
AcDbVertex
100
AcDb2dVertex
 10
283.746365929822
 20
263.8966053754104
 30
0.0
  0
VERTEX
  5
1714
330
170E
100
AcDbEntity
  8
STEMPEL
100
AcDbVertex
100
AcDb2dVertex
 10
284.3715417869859
 20
260.4767492813561
 30
0.0
  0
VERTEX
  5
1715
330
170E
100
AcDbEntity
  8
STEMPEL
100
AcDbVertex
100
AcDb2dVertex
 10
285.359623801359
 20
256.442218405947
 30
0.0
  0
VERTEX
  5
1716
330
170E
100
AcDbEntity
  8
STEMPEL
100
AcDbVertex
100
AcDb2dVertex
 10
286.8136086559179
 20
251.2807367877214
 30
0.0
  0
VERTEX
  5
1717
330
170E
100
AcDbEntity
  8
STEMPEL
100
AcDbVertex
100
AcDb2dVertex
 10
288.8029959778856
 20
244.557722306108
 30
0.0
  0
SEQEND
  5
1718
330
170E
100
AcDbEntity
  8
STEMPEL
  0
LINE
  5
1719
330
1E
100
AcDbEntity
  8
TEXT
 62
     2
100
AcDbLine
 10
300.1378106610282
 20
245.2909258144796
 30
0.0
 11
285.9924023952965
 21
249.6908914740044
 31
0.0
  0
LINE
  5
171A
330
1E
100
AcDbEntity
  8
MITTEL
100
AcDbLine
 10
291.6796951386116
 20
245.4089578426541
 30
0.0
 11
278.2550990552242
 21
241.4365253387722
 31
0.0
  0
HATCH
  5
171B
330
1E
100
AcDbEntity
  8
SCHRAFF
100
AcDbHatch
 10
0.0
 20
0.0
 30
0.0
210
0.0
220
0.0
230
1.0
  2
HONEY
 70
     0
 71
     0
 91
        2
 92
        7
 72
     1
 73
     1
 93
       10
 10
295.811963171155
 20
393.5273335146381
 42
0.0
 10
284.8119631711552
 20
373.5273335146371
 42
0.0
 10
284.8119631711551
 20
303.5273335146377
 42
0.0
 10
283.1119631711554
 20
301.4873335146381
 42
0.0
 10
283.1119631711554
 20
283.5273335146377
 42
0.0
 10
299.5800584186574
 20
283.5273335146377
 42
0.3870924378343482
 10
302.5669610968352
 20
286.2473113885591
 42
0.0
 10
317.3119631711552
 20
443.5273335146375
 42
0.0
 10
302.3119631711543
 20
443.5273335146376
 42
0.0
 10
295.8119631711552
 20
438.5273335146384
 42
0.0
 97
        0
 92
        7
 72
     1
 73
     1
 93
       10
 10
148.8119631711552
 20
438.5273335146385
 42
0.0
 10
142.3119631711555
 20
443.5273335146381
 42
0.0
 10
127.3119631711552
 20
443.5273335146381
 42
0.0
 10
142.0569652454751
 20
286.2473113885591
 42
0.387092437834293
 10
145.043867923653
 20
283.5273335146382
 42
0.0
 10
171.5119631711553
 20
283.5273335146382
 42
0.0
 10
171.5119631711553
 20
289.4873335146378
 42
0.0
 10
159.8119631711551
 20
303.5273335146377
 42
0.0
 10
159.8119631711551
 20
373.5273335146381
 42
0.0
 10
148.8119631711554
 20
393.5273335146382
 42
0.0
 97
        0
 75
     0
 76
     1
 52
0.0
 41
30.0
 77
     0
 78
     3
 53
0.0
 43
1.40361396962524
 44
1.674710649314704
 45
5.625
 46
3.247595249999999
 79
     2
 49
3.75
 49
-7.5
 53
120.0
 43
1.40361396962524
 44
1.674710649314704
 45
-5.624999987709673
 46
3.247595271287468
 79
     2
 49
3.749999999999999
 49
-7.499999999999998
 53
60.0
 43
1.40361396962524
 44
1.674710649314704
 45
0.0000000122903263
 46
6.495190521287468
 79
     2
 49
-7.5
 49
3.75
 47
0.4951887379721068
 98
        2
 10
303.0109444264665
 20
409.8148544964427
 10
143.5103912398424
 20
397.9303242746596
  0
LINE
  5
1754
330
1E
100
AcDbEntity
  8
STEMPEL
100
AcDbLine
 10
72.31196317115522
 20
446.5273335146378
 30
0.0
 11
166.227417933293
 21
446.5273335146378
 31
0.0
  0
LINE
  5
1755
330
1E
100
AcDbEntity
  8
STEMPEL
100
AcDbLine
 10
72.31196317115532
 20
446.5273335146384
 30
0.0
 11
166.227417933293
 21
446.527333514638
 31
0.0
  0
LINE
  5
175C
330
1E
100
AcDbEntity
  8
STEMPEL
100
AcDbLine
 10
115.3119631711554
 20
452.5273335146374
 30
0.0
 11
165.1803732693392
 21
452.5273335146374
 31
0.0
  0
LINE
  5
176E
330
1E
100
AcDbEntity
  8
STEMPEL
100
AcDbLine
 10
278.3965084090176
 20
446.5273335146375
 30
0.0
 11
372.3119631711554
 21
446.5273335146374
 31
0.0
  0
LINE
  5
1771
330
1E
100
AcDbEntity
  8
STEMPEL
100
AcDbLine
 10
278.3965084090175
 20
446.5273335146378
 30
0.0
 11
372.3119631711553
 21
446.5273335146378
 31
0.0
  0
LINE
  5
179C
330
1E
100
AcDbEntity
  8
STEMPEL
100
AcDbLine
 10
372.3119631711553
 20
446.527333514638
 30
0.0
 11
372.3119631711553
 21
449.527333514638
 31
0.0
  0
LINE
  5
179D
330
1E
100
AcDbEntity
  8
STEMPEL
100
AcDbLine
 10
372.3119631711554
 20
446.5273335146376
 30
0.0
 11
372.3119631711554
 21
449.527333514638
 31
0.0
  0
HATCH
  5
179E
330
1E
100
AcDbEntity
  8
SCHRAFF
100
AcDbHatch
 10
0.0
 20
0.0
 30
0.0
210
0.0
220
0.0
230
1.0
  2
NET
 70
     0
 71
     0
 91
        4
 92
        7
 72
     0
 73
     1
 93
        4
 10
372.3119631711553
 20
449.527333514638
 10
325.7864708124193
 20
449.527333514638
 10
325.7864708124194
 20
446.527333514638
 10
372.3119631711553
 20
446.5273335146379
 97
        0
 92
        7
 72
     0
 73
     1
 93
        4
 10
325.7864708124194
 20
449.5273335146381
 10
302.3119631711554
 20
449.5273335146381
 10
302.3119631711553
 20
446.527333514638
 10
325.7864708124194
 20
446.527333514638
 97
        0
 92
        7
 72
     0
 73
     1
 93
        4
 10
142.3119631711552
 20
449.527333514638
 10
118.3119631711555
 20
449.527333514638
 10
118.3119631711555
 20
446.527333514638
 10
142.3119631711552
 20
446.527333514638
 97
        0
 92
        7
 72
     0
 73
     1
 93
        4
 10
102.3119631711552
 20
449.527333514638
 10
72.31196317115536
 20
449.527333514638
 10
72.31196317115536
 20
446.5273335146379
 10
102.3119631711552
 20
446.5273335146379
 97
        0
 75
     0
 76
     1
 52
45.0
 41
15.0
 77
     0
 78
     2
 53
45.0
 43
-26.05752546541623
 44
-32.81395050564936
 45
-1.325825214724776
 46
1.325825214724776
 79
     0
 53
135.0
 43
-26.05752546541623
 44
-32.81395050564936
 45
-1.325825214724776
 46
-1.325825214724776
 79
     0
 47
0.3213995559881435
 98
        4
 10
352.3300894413461
 20
447.9311445866198
 10
308.9264261415493
 20
448.5739435769548
 10
125.6665177741362
 20
448.8953430721218
 10
94.15867375036635
 20
447.6097450914527
  0
LINE
  5
179F
330
1E
100
AcDbEntity
  8
STEMPEL
100
AcDbLine
 10
115.3119631711554
 20
449.527333514638
 30
0.0
 11
167.710049383179
 21
449.527333514638
 31
0.0
  0
LINE
  5
17A0
330
1E
100
AcDbEntity
  8
STEMPEL
100
AcDbLine
 10
330.7864708124196
 20
452.5273335146377
 30
0.0
 11
330.7864708124196
 21
449.527333514638
 31
0.0
  0
LINE
  5
17A1
330
1E
100
AcDbEntity
  8
HILF
100
AcDbLine
 10
329.7864708124196
 20
452.5273335146377
 30
0.0
 11
329.7864708124196
 21
449.527333514638
 31
0.0
  0
LINE
  5
17A2
330
1E
100
AcDbEntity
  8
STEMPEL
100
AcDbLine
 10
320.7864708124198
 20
452.5273335146377
 30
0.0
 11
320.7864708124195
 21
449.527333514638
 31
0.0
  0
LINE
  5
17A3
330
1E
100
AcDbEntity
  8
HILF
100
AcDbLine
 10
321.7864708124196
 20
452.5273335146377
 30
0.0
 11
321.7864708124194
 21
449.527333514638
 31
0.0
  0
LINE
  5
17A4
330
1E
100
AcDbEntity
  8
STEMPEL
100
AcDbLine
 10
302.3119631711553
 20
446.527333514638
 30
0.0
 11
302.3119631711553
 21
449.527333514638
 31
0.0
  0
LINE
  5
17A7
330
1E
100
AcDbEntity
  8
HILF
100
AcDbLine
 10
162.3119631711555
 20
452.5273335146375
 30
0.0
 11
162.3119631711555
 21
449.527333514638
 31
0.0
  0
LINE
  5
17A8
330
1E
100
AcDbEntity
  8
STEMPEL
100
AcDbLine
 10
161.3119631711555
 20
452.5273335146375
 30
0.0
 11
161.3119631711555
 21
449.527333514638
 31
0.0
  0
LINE
  5
17AD
330
1E
100
AcDbEntity
  8
STEMPEL
100
AcDbLine
 10
118.3119631711555
 20
446.5273335146378
 30
0.0
 11
118.3119631711555
 21
449.5273335146379
 31
0.0
  0
LINE
  5
17AE
330
1E
100
AcDbEntity
  8
STEMPEL
100
AcDbLine
 10
142.3119631711552
 20
446.527333514638
 30
0.0
 11
142.3119631711552
 21
449.527333514638
 31
0.0
  0
LINE
  5
17AF
330
1E
100
AcDbEntity
  8
STEMPEL
100
AcDbLine
 10
72.31196317115524
 20
449.527333514638
 30
0.0
 11
105.3119631711554
 21
449.527333514638
 31
0.0
  0
LINE
  5
17B0
330
1E
100
AcDbEntity
  8
STEMPEL
100
AcDbLine
 10
102.3119631711552
 20
446.5273335146378
 30
0.0
 11
102.3119631711552
 21
449.5273335146379
 31
0.0
  0
LINE
  5
17B1
330
1E
100
AcDbEntity
  8
STEMPEL
100
AcDbLine
 10
72.31196317115536
 20
446.5273335146376
 30
0.0
 11
72.31196317115536
 21
449.5273335146375
 31
0.0
  0
LINE
  5
17B2
330
1E
100
AcDbEntity
  8
STEMPEL
100
AcDbLine
 10
72.31196317115524
 20
446.527333514638
 30
0.0
 11
72.31196317115524
 21
448.527333514638
 31
0.0
  0
LINE
  5
17B3
330
1E
100
AcDbEntity
  8
STEMPEL
100
AcDbLine
 10
72.31196317115536
 20
446.5273335146376
 30
0.0
 11
72.31196317115536
 21
448.527333514638
 31
0.0
  0
LINE
  5
17B4
330
1E
100
AcDbEntity
  8
STEMPEL
100
AcDbLine
 10
276.9138769591316
 20
449.527333514638
 30
0.0
 11
372.3119631711553
 21
449.527333514638
 31
0.0
  0
ENDSEC
  0
SECTION
  2
OBJECTS
  0
DICTIONARY
  5
C
330
0
100
AcDbDictionary
281
     1
  3
ACAD_COLOR
350
DF
  3
ACAD_GROUP
350
D
  3
ACAD_LAYOUT
350
19
  3
ACAD_MATERIAL
350
DE
  3
ACAD_MLINESTYLE
350
16
  3
ACAD_PLOTSETTINGS
350
18
  3
ACAD_PLOTSTYLENAME
350
E
  3
AcDbVariableDictionary
350
EA
  0
DICTIONARY
  5
A0
330
1E
100
AcDbDictionary
280
     1
281
     1
  3
ACAD_LAYOUTSELFREF
360
D4
  0
DICTIONARY
  5
A2
330
1A
100
AcDbDictionary
280
     1
281
     1
  3
ACAD_LAYOUTSELFREF
360
D3
  0
DICTIONARY
  5
DF
102
{ACAD_REACTORS
330
C
102
}
330
C
100
AcDbDictionary
281
     1
  0
DICTIONARY
  5
D
102
{ACAD_REACTORS
330
C
102
}
330
C
100
AcDbDictionary
281
     1
  0
DICTIONARY
  5
19
102
{ACAD_REACTORS
330
C
102
}
330
C
100
AcDbDictionary
281
     1
  3
Layout1
350
1D
  3
Model
350
21
  0
DICTIONARY
  5
DE
102
{ACAD_REACTORS
330
C
102
}
330
C
100
AcDbDictionary
281
     1
  0
DICTIONARY
  5
16
102
{ACAD_REACTORS
330
C
102
}
330
C
100
AcDbDictionary
281
     1
  3
Standard
350
17
  0
DICTIONARY
  5
18
102
{ACAD_REACTORS
330
C
102
}
330
C
100
AcDbDictionary
281
     1
  0
ACDBDICTIONARYWDFLT
  5
E
102
{ACAD_REACTORS
330
C
102
}
330
C
100
AcDbDictionary
281
     1
  3
Normal
350
F
100
AcDbDictionaryWithDefault
340
F
  0
DICTIONARY
  5
EA
102
{ACAD_REACTORS
330
C
102
}
330
C
100
AcDbDictionary
281
     1
  3
DIMASSOC
350
EB
  3
PROJECTNAME
350
EC
  0
XRECORD
  5
D4
102
{ACAD_REACTORS
330
A0
102
}
330
A0
100
AcDbXrecord
280
     1
340
1E
  0
XRECORD
  5
D3
102
{ACAD_REACTORS
330
A2
102
}
330
A2
100
AcDbXrecord
280
     1
340
1A
  0
LAYOUT
  5
1D
102
{ACAD_REACTORS
330
19
102
}
330
19
100
AcDbPlotSettings
  1

  2
\\NT_WORK01\HP LaserJet 5000 PCL 6
  4

  6

 40
0.0
 41
0.0
 42
0.0
 43
0.0
 44
0.0
 45
0.0
 46
0.0
 47
0.0
 48
0.0
 49
0.0
140
0.0
141
0.0
142
1.0
143
1.0
 70
   688
 72
     0
 73
     0
 74
     5
  7

 75
    16
147
1.0
 76
     0
 77
     2
 78
   300
148
0.0
149
0.0
100
AcDbLayout
  1
Layout1
 70
     0
 71
     1
 10
0.0
 20
0.0
 11
12.0
 21
9.0
 12
0.0
 22
0.0
 32
0.0
 14
1.000000000000000E+20
 24
1.000000000000000E+20
 34
1.000000000000000E+20
 15
-1.000000000000000E+20
 25
-1.000000000000000E+20
 35
-1.000000000000000E+20
146
0.0
 13
0.0
 23
0.0
 33
0.0
 16
1.0
 26
0.0
 36
0.0
 17
0.0
 27
1.0
 37
0.0
 76
     0
330
1A
  0
LAYOUT
  5
21
102
{ACAD_REACTORS
330
19
102
}
330
19
100
AcDbPlotSettings
  1

  2
none_device
  4
Letter_(8.50_x_11.00_Inches)
  6

 40
6.349999904632568
 41
6.349999904632568
 42
6.350006103515625
 43
6.350006103515625
 44
215.8999938964844
 45
279.3999938964844
 46
0.0
 47
0.0
 48
0.0
 49
0.0
140
0.0
141
0.0
142
1.0
143
1.0
 70
 11952
 72
     0
 73
     1
 74
     0
  7

 75
     0
147
1.0
 76
     0
 77
     2
 78
   300
148
2209.800000000002
149
0.0
100
AcDbLayout
  1
Model
 70
     1
 71
     0
 10
0.0
 20
0.0
 11
12.0
 21
9.0
 12
0.0
 22
0.0
 32
0.0
 14
0.0
 24
0.0
 34
0.0
 15
0.0
 25
0.0
 35
0.0
146
0.0
 13
0.0
 23
0.0
 33
0.0
 16
1.0
 26
0.0
 36
0.0
 17
0.0
 27
1.0
 37
0.0
 76
     0
330
1E
  0
MLINESTYLE
  5
17
102
{ACAD_REACTORS
330
16
102
}
330
16
100
AcDbMlineStyle
  2
STANDARD
 70
     0
  3

 62
   256
 51
90.0
 52
90.0
 71
     2
 49
0.5
 62
   256
  6
BYLAYER
 49
-0.5
 62
   256
  6
BYLAYER
  0
ACDBPLACEHOLDER
  5
F
102
{ACAD_REACTORS
330
E
102
}
330
E
  0
DICTIONARYVAR
  5
EB
102
{ACAD_REACTORS
330
EA
102
}
330
EA
100
DictionaryVariables
280
     0
  1
1
  0
DICTIONARYVAR
  5
EC
102
{ACAD_REACTORS
330
EA
102
}
330
EA
100
DictionaryVariables
280
     0
  1

  0
ENDSEC
  0
EOF
