  0
SECTION
  2
HEADER
  9
$ACADVER
  1
AC1018
  9
$ACADMAINTVER
 70
     2
  9
$DWGCODEPAGE
  3
ANSI_1252
  9
$INSBASE
 10
0.0
 20
0.0
 30
0.0
  9
$EXTMIN
 10
-0.0000000000001137
 20
-0.0000000000001137
 30
0.0
  9
$EXTMAX
 10
420.0
 20
594.0000000000002
 30
0.0
  9
$LIMMIN
 10
0.0
 20
0.0
  9
$LIMMAX
 10
419.9999999999999
 20
594.0
  9
$ORTHOMODE
 70
     1
  9
$REGENMODE
 70
     1
  9
$FILLMODE
 70
     1
  9
$QTEXTMODE
 70
     0
  9
$MIRRTEXT
 70
     1
  9
$LTSCALE
 40
20.0
  9
$ATTMODE
 70
     1
  9
$TEXTSIZE
 40
3.5
  9
$TRACEWID
 40
0.5
  9
$TEXTSTYLE
  7
STANDARD
  9
$CLAYER
  8
SCHRAFF
  9
$CELTYPE
  6
ByLayer
  9
$CECOLOR
 62
   256
  9
$CELTSCALE
 40
1.0
  9
$DISPSILH
 70
     0
  9
$DIMSCALE
 40
2.0
  9
$DIMASZ
 40
3.5
  9
$DIMEXO
 40
1.0
  9
$DIMDLI
 40
7.0
  9
$DIMRND
 40
0.0
  9
$DIMDLE
 40
0.0
  9
$DIMEXE
 40
1.0
  9
$DIMTP
 40
0.0
  9
$DIMTM
 40
0.0
  9
$DIMTXT
 40
3.5
  9
$DIMCEN
 40
1.5
  9
$DIMTSZ
 40
0.0
  9
$DIMTOL
 70
     0
  9
$DIMLIM
 70
     0
  9
$DIMTIH
 70
     0
  9
$DIMTOH
 70
     0
  9
$DIMSE1
 70
     0
  9
$DIMSE2
 70
     0
  9
$DIMTAD
 70
     1
  9
$DIMZIN
 70
     8
  9
$DIMBLK
  1

  9
$DIMASO
 70
     1
  9
$DIMSHO
 70
     0
  9
$DIMPOST
  1

  9
$DIMAPOST
  1

  9
$DIMALT
 70
     0
  9
$DIMALTD
 70
     2
  9
$DIMALTF
 40
25.4
  9
$DIMLFAC
 40
1.0
  9
$DIMTOFL
 70
     1
  9
$DIMTVP
 40
0.0
  9
$DIMTIX
 70
     0
  9
$DIMSOXD
 70
     0
  9
$DIMSAH
 70
     0
  9
$DIMBLK1
  1

  9
$DIMBLK2
  1

  9
$DIMSTYLE
  2
Standard
  9
$DIMCLRD
 70
     0
  9
$DIMCLRE
 70
     0
  9
$DIMCLRT
 70
     1
  9
$DIMTFAC
 40
0.5142857142857144
  9
$DIMGAP
 40
1.5
  9
$DIMJUST
 70
     0
  9
$DIMSD1
 70
     0
  9
$DIMSD2
 70
     0
  9
$DIMTOLJ
 70
     1
  9
$DIMTZIN
 70
     8
  9
$DIMALTZ
 70
     8
  9
$DIMALTTZ
 70
     8
  9
$DIMUPT
 70
     0
  9
$DIMDEC
 70
     2
  9
$DIMTDEC
 70
     2
  9
$DIMALTU
 70
     2
  9
$DIMALTTD
 70
     2
  9
$DIMTXSTY
  7
STANDARD
  9
$DIMAUNIT
 70
     0
  9
$DIMADEC
 70
     2
  9
$DIMALTRND
 40
0.0
  9
$DIMAZIN
 70
     2
  9
$DIMDSEP
 70
    46
  9
$DIMATFIT
 70
     3
  9
$DIMFRAC
 70
     0
  9
$DIMLDRBLK
  1

  9
$DIMLUNIT
 70
     2
  9
$DIMLWD
 70
    -2
  9
$DIMLWE
 70
    -2
  9
$DIMTMOVE
 70
     0
  9
$LUNITS
 70
     2
  9
$LUPREC
 70
     2
  9
$SKETCHINC
 40
1.0
  9
$FILLETRAD
 40
0.0
  9
$AUNITS
 70
     0
  9
$AUPREC
 70
     0
  9
$MENU
  1
ACAD
  9
$ELEVATION
 40
0.0
  9
$PELEVATION
 40
0.0
  9
$THICKNESS
 40
0.0
  9
$LIMCHECK
 70
     0
  9
$CHAMFERA
 40
0.0
  9
$CHAMFERB
 40
0.0
  9
$CHAMFERC
 40
0.0
  9
$CHAMFERD
 40
0.0
  9
$SKPOLY
 70
     0
  9
$TDCREATE
 40
2455397.823042361
  9
$TDUCREATE
 40
2455397.781375695
  9
$TDUPDATE
 40
2455593.607039155
  9
$TDUUPDATE
 40
2455593.565372488
  9
$TDINDWG
 40
0.0570888426
  9
$TDUSRTIMER
 40
0.0570888426
  9
$USRTIMER
 70
     1
  9
$ANGBASE
 50
0.0
  9
$ANGDIR
 70
     0
  9
$PDMODE
 70
     0
  9
$PDSIZE
 40
0.0
  9
$PLINEWID
 40
0.0
  9
$SPLFRAME
 70
     0
  9
$SPLINETYPE
 70
     6
  9
$SPLINESEGS
 70
     8
  9
$HANDSEED
  5
1150
  9
$SURFTAB1
 70
     6
  9
$SURFTAB2
 70
     6
  9
$SURFTYPE
 70
     6
  9
$SURFU
 70
     6
  9
$SURFV
 70
     6
  9
$UCSBASE
  2

  9
$UCSNAME
  2

  9
$UCSORG
 10
0.0
 20
0.0
 30
0.0
  9
$UCSXDIR
 10
1.0
 20
0.0
 30
0.0
  9
$UCSYDIR
 10
0.0
 20
1.0
 30
0.0
  9
$UCSORTHOREF
  2

  9
$UCSORTHOVIEW
 70
     0
  9
$UCSORGTOP
 10
0.0
 20
0.0
 30
0.0
  9
$UCSORGBOTTOM
 10
0.0
 20
0.0
 30
0.0
  9
$UCSORGLEFT
 10
0.0
 20
0.0
 30
0.0
  9
$UCSORGRIGHT
 10
0.0
 20
0.0
 30
0.0
  9
$UCSORGFRONT
 10
0.0
 20
0.0
 30
0.0
  9
$UCSORGBACK
 10
0.0
 20
0.0
 30
0.0
  9
$PUCSBASE
  2

  9
$PUCSNAME
  2

  9
$PUCSORG
 10
0.0
 20
0.0
 30
0.0
  9
$PUCSXDIR
 10
1.0
 20
0.0
 30
0.0
  9
$PUCSYDIR
 10
0.0
 20
1.0
 30
0.0
  9
$PUCSORTHOREF
  2

  9
$PUCSORTHOVIEW
 70
     0
  9
$PUCSORGTOP
 10
0.0
 20
0.0
 30
0.0
  9
$PUCSORGBOTTOM
 10
0.0
 20
0.0
 30
0.0
  9
$PUCSORGLEFT
 10
0.0
 20
0.0
 30
0.0
  9
$PUCSORGRIGHT
 10
0.0
 20
0.0
 30
0.0
  9
$PUCSORGFRONT
 10
0.0
 20
0.0
 30
0.0
  9
$PUCSORGBACK
 10
0.0
 20
0.0
 30
0.0
  9
$USERI1
 70
     0
  9
$USERI2
 70
     0
  9
$USERI3
 70
     0
  9
$USERI4
 70
     0
  9
$USERI5
 70
     0
  9
$USERR1
 40
0.0
  9
$USERR2
 40
0.0
  9
$USERR3
 40
0.0
  9
$USERR4
 40
0.0
  9
$USERR5
 40
0.0
  9
$WORLDVIEW
 70
     1
  9
$SHADEDGE
 70
     3
  9
$SHADEDIF
 70
    70
  9
$TILEMODE
 70
     1
  9
$MAXACTVP
 70
    16
  9
$PINSBASE
 10
0.0
 20
0.0
 30
0.0
  9
$PLIMCHECK
 70
     0
  9
$PEXTMIN
 10
1.000000000000000E+20
 20
1.000000000000000E+20
 30
1.000000000000000E+20
  9
$PEXTMAX
 10
-1.000000000000000E+20
 20
-1.000000000000000E+20
 30
-1.000000000000000E+20
  9
$PLIMMIN
 10
0.0
 20
0.0
  9
$PLIMMAX
 10
12.0
 20
9.0
  9
$UNITMODE
 70
     0
  9
$VISRETAIN
 70
     0
  9
$PLINEGEN
 70
     0
  9
$PSLTSCALE
 70
     0
  9
$TREEDEPTH
 70
  3020
  9
$CMLSTYLE
  2
Standard
  9
$CMLJUST
 70
     0
  9
$CMLSCALE
 40
1.0
  9
$PROXYGRAPHICS
 70
     1
  9
$MEASUREMENT
 70
     0
  9
$CELWEIGHT
370
    -1
  9
$ENDCAPS
280
     0
  9
$JOINSTYLE
280
     0
  9
$LWDISPLAY
290
     0
  9
$INSUNITS
 70
     0
  9
$HYPERLINKBASE
  1

  9
$STYLESHEET
  1

  9
$XEDIT
290
     1
  9
$CEPSNTYPE
380
     0
  9
$PSTYLEMODE
290
     1
  9
$FINGERPRINTGUID
  2
{D68B0D02-A558-11D7-B632-000102183313}
  9
$VERSIONGUID
  2
{261FDCF1-6138-41E4-9379-682905E41F55}
  9
$EXTNAMES
290
     1
  9
$PSVPSCALE
 40
0.0
  9
$OLESTARTUP
290
     0
  9
$SORTENTS
280
   127
  9
$INDEXCTL
280
     0
  9
$HIDETEXT
280
     0
  9
$XCLIPFRAME
290
     0
  9
$HALOGAP
280
     0
  9
$OBSCOLOR
 70
   257
  9
$OBSLTYPE
280
     0
  9
$INTERSECTIONDISPLAY
280
     0
  9
$INTERSECTIONCOLOR
 70
   257
  9
$DIMASSOC
280
     1
  9
$PROJECTNAME
  1

  0
ENDSEC
  0
SECTION
  2
CLASSES
  0
CLASS
  1
ACDBDICTIONARYWDFLT
  2
AcDbDictionaryWithDefault
  3
ObjectDBX Classes
 90
        0
 91
        1
280
     0
281
     0
  0
CLASS
  1
DICTIONARYVAR
  2
AcDbDictionaryVar
  3
ObjectDBX Classes
 90
        0
 91
        2
280
     0
281
     0
  0
ENDSEC
  0
SECTION
  2
TABLES
  0
TABLE
  2
VPORT
  5
8
330
0
100
AcDbSymbolTable
 70
     2
  0
VPORT
  5
114F
330
8
100
AcDbSymbolTableRecord
100
AcDbViewportTableRecord
  2
*Active
 70
     0
 10
0.0
 20
0.0
 11
1.0
 21
1.0
 12
210.0
 22
297.0
 13
0.0
 23
0.0
 14
1.0
 24
1.0
 15
10.0
 25
10.0
 16
0.0
 26
0.0
 36
1.0
 17
0.0
 27
0.0
 37
0.0
 40
594.3267658073604
 41
1.336927223719676
 42
50.0
 43
0.0
 44
0.0
 50
0.0
 51
0.0
 71
     0
 72
  1500
 73
     1
 74
     0
 75
     0
 76
     0
 77
     0
 78
     0
281
     0
 65
     1
110
0.0
120
0.0
130
0.0
111
1.0
121
0.0
131
0.0
112
0.0
122
1.0
132
0.0
 79
     0
146
0.0
  0
ENDTAB
  0
TABLE
  2
LTYPE
  5
5
330
0
100
AcDbSymbolTable
 70
     3
  0
LTYPE
  5
13
330
5
100
AcDbSymbolTableRecord
100
AcDbLinetypeTableRecord
  2
ByBlock
 70
     0
  3

 72
    65
 73
     0
 40
0.0
  0
LTYPE
  5
14
330
5
100
AcDbSymbolTableRecord
100
AcDbLinetypeTableRecord
  2
ByLayer
 70
     0
  3

 72
    65
 73
     0
 40
0.0
  0
LTYPE
  5
15
330
5
100
AcDbSymbolTableRecord
100
AcDbLinetypeTableRecord
  2
Continuous
 70
     0
  3
Solid line
 72
    65
 73
     0
 40
0.0
  0
LTYPE
  5
25
330
5
100
AcDbSymbolTableRecord
100
AcDbLinetypeTableRecord
  2
STRICHPUNKT
 70
     0
  3
__ . __ . __ . __ . __ . __ . __ . __ . __ . __
 72
    65
 73
     4
 40
1.0
 49
0.5
 74
     0
 49
-0.25
 74
     0
 49
0.0
 74
     0
 49
-0.25
 74
     0
  0
LTYPE
  5
32
330
5
100
AcDbSymbolTableRecord
100
AcDbLinetypeTableRecord
  2
AUSGEZOGEN
 70
     0
  3
Ausgezogene Linie
 72
    65
 73
     0
 40
0.0
  0
ENDTAB
  0
TABLE
  2
LAYER
  5
2
330
0
100
AcDbSymbolTable
 70
     9
  0
LAYER
  5
10
330
2
100
AcDbSymbolTableRecord
100
AcDbLayerTableRecord
  2
0
 70
     0
 62
     7
  6
Continuous
370
    -3
390
F
  0
LAYER
  5
2A
330
2
100
AcDbSymbolTableRecord
100
AcDbLayerTableRecord
  2
VOLL
 70
     0
 62
     1
  6
Continuous
370
    -3
390
F
  0
LAYER
  5
2B
330
2
100
AcDbSymbolTableRecord
100
AcDbLayerTableRecord
  2
HILF
 70
     0
 62
     2
  6
Continuous
370
    -3
390
F
  0
LAYER
  5
2C
330
2
100
AcDbSymbolTableRecord
100
AcDbLayerTableRecord
  2
MITTEL
 70
     0
 62
     2
  6
STRICHPUNKT
370
    -3
390
F
  0
LAYER
  5
2F
330
2
100
AcDbSymbolTableRecord
100
AcDbLayerTableRecord
  2
BEM
 70
     0
 62
     7
  6
Continuous
370
    -3
390
F
  0
LAYER
  5
30
330
2
100
AcDbSymbolTableRecord
100
AcDbLayerTableRecord
  2
STEMPEL
 70
     0
 62
     3
  6
Continuous
370
    -3
390
F
  0
LAYER
  5
31
330
2
100
AcDbSymbolTableRecord
100
AcDbLayerTableRecord
  2
TEXT
 70
     0
 62
     7
  6
Continuous
370
    -3
390
F
  0
LAYER
  5
4F0
330
2
100
AcDbSymbolTableRecord
100
AcDbLayerTableRecord
  2
DEFPOINTS
 70
     0
 62
     7
  6
AUSGEZOGEN
290
     0
370
    -3
390
F
  0
LAYER
  5
4F1
330
2
100
AcDbSymbolTableRecord
100
AcDbLayerTableRecord
  2
SCHRAFF
 70
     0
 62
     7
  6
AUSGEZOGEN
370
    -3
390
F
  0
ENDTAB
  0
TABLE
  2
STYLE
  5
3
330
0
100
AcDbSymbolTable
 70
     2
  0
STYLE
  5
11
330
3
100
AcDbSymbolTableRecord
100
AcDbTextStyleTableRecord
  2
STANDARD
 70
     0
 40
0.0
 41
0.8
 50
0.0
 71
     0
 42
3.5
  3
simplex.shx
  4

  0
STYLE
  5
24
330
3
100
AcDbSymbolTableRecord
100
AcDbTextStyleTableRecord
  2
GREEKS
 70
     0
 40
0.0
 41
0.8
 50
0.0
 71
     0
 42
2.5
  3
SIMPLEX.shx
  4

  0
ENDTAB
  0
TABLE
  2
VIEW
  5
6
330
0
100
AcDbSymbolTable
 70
     0
  0
ENDTAB
  0
TABLE
  2
UCS
  5
7
330
0
100
AcDbSymbolTable
 70
     0
  0
ENDTAB
  0
TABLE
  2
APPID
  5
9
330
0
100
AcDbSymbolTable
 70
     1
  0
APPID
  5
12
330
9
100
AcDbSymbolTableRecord
100
AcDbRegAppTableRecord
  2
ACAD
 70
     0
  0
ENDTAB
  0
TABLE
  2
DIMSTYLE
  5
A
330
0
100
AcDbSymbolTable
 70
     1
100
AcDbDimStyleTable
 71
     1
340
9D
  0
DIMSTYLE
105
9D
102
{ACAD_REACTORS
330
E66
330
E88
330
EC3
102
}
330
A
100
AcDbSymbolTableRecord
100
AcDbDimStyleTableRecord
  2
Standard
 70
     0
340
11
  0
ENDTAB
  0
TABLE
  2
BLOCK_RECORD
  5
1
330
0
100
AcDbSymbolTable
 70
     4
  0
BLOCK_RECORD
  5
1E
102
{ACAD_XDICTIONARY
360
A0
102
}
330
1
100
AcDbSymbolTableRecord
100
AcDbBlockTableRecord
  2
*Model_Space
340
21
  0
BLOCK_RECORD
  5
1A
102
{ACAD_XDICTIONARY
360
A2
102
}
330
1
100
AcDbSymbolTableRecord
100
AcDbBlockTableRecord
  2
*Paper_Space
340
1D
  0
BLOCK_RECORD
  5
22
330
1
100
AcDbSymbolTableRecord
100
AcDbBlockTableRecord
  2
LOGO
340
0
102
{BLKREFS
331
F91
102
}
  0
BLOCK_RECORD
  5
F92
330
1
100
AcDbSymbolTableRecord
100
AcDbBlockTableRecord
  2
*D1
340
0
  0
BLOCK_RECORD
  5
F9E
330
1
100
AcDbSymbolTableRecord
100
AcDbBlockTableRecord
  2
*D2
340
0
  0
BLOCK_RECORD
  5
FAA
330
1
100
AcDbSymbolTableRecord
100
AcDbBlockTableRecord
  2
*D3
340
0
  0
ENDTAB
  0
ENDSEC
  0
SECTION
  2
BLOCKS
  0
BLOCK
  5
35
330
1E
100
AcDbEntity
  8
0
100
AcDbBlockBegin
  2
*Model_Space
 70
     0
 10
0.0
 20
0.0
 30
0.0
  3
*Model_Space
  1

  0
ENDBLK
  5
36
330
1E
100
AcDbEntity
  8
0
100
AcDbBlockEnd
  0
BLOCK
  5
33
330
1A
100
AcDbEntity
 67
     1
  8
0
100
AcDbBlockBegin
  2
*Paper_Space
 70
     0
 10
0.0
 20
0.0
 30
0.0
  3
*Paper_Space
  1

  0
ENDBLK
  5
34
330
1A
100
AcDbEntity
 67
     1
  8
0
100
AcDbBlockEnd
  0
BLOCK
  5
37
330
22
100
AcDbEntity
  8
0
100
AcDbBlockBegin
  2
LOGO
 70
     0
 10
0.0
 20
0.0
 30
0.0
  3
LOGO
  1

  0
ARC
  5
38
330
22
100
AcDbEntity
  8
0
100
AcDbCircle
 10
11.59973089678112
 20
-9.271599258481501
 30
0.0
 40
4.5
100
AcDbArc
 50
270.0
 51
231.0575587310159
  0
LINE
  5
39
330
22
100
AcDbEntity
  8
0
100
AcDbLine
 10
3.599730896781125
 20
-4.771599258481529
 30
0.0
 11
3.599730896781153
 21
-11.77159925848133
 31
0.0
  0
LINE
  5
3A
330
22
100
AcDbEntity
  8
0
100
AcDbLine
 10
2.599730896781125
 20
-4.771599258481529
 30
0.0
 11
2.599730896781153
 21
-11.77159925848133
 31
0.0
  0
CIRCLE
  5
3B
330
22
100
AcDbEntity
  8
0
100
AcDbCircle
 10
11.59973089678112
 20
-9.271599258481501
 30
0.0
 40
3.5
  0
ARC
  5
3C
330
22
100
AcDbEntity
  8
0
100
AcDbCircle
 10
31.59973089678115
 20
-9.271599258481472
 30
0.0
 40
4.5
100
AcDbArc
 50
270.0
 51
231.0575587310182
  0
LINE
  5
3D
330
22
100
AcDbEntity
  8
0
100
AcDbLine
 10
17.59973089678112
 20
-4.771599258481472
 30
0.0
 11
17.59973089678115
 21
-13.77159925848147
 31
0.0
  0
ARC
  5
3E
330
22
100
AcDbEntity
  8
0
100
AcDbCircle
 10
22.59973089678116
 20
-7.271599258481472
 30
0.0
 40
2.5
100
AcDbArc
 50
293.1161887722295
 51
90.0
  0
CIRCLE
  5
3F
330
22
100
AcDbEntity
  8
0
100
AcDbCircle
 10
31.59973089678115
 20
-9.271599258481472
 30
0.0
 40
3.5
  0
ARC
  5
40
330
22
100
AcDbEntity
  8
0
100
AcDbCircle
 10
4.599730896781153
 20
-11.77159925848133
 30
0.0
 40
1.0
100
AcDbArc
 50
180.0
 51
270.0
  0
ARC
  5
41
330
22
100
AcDbEntity
  8
0
100
AcDbCircle
 10
4.599730896781153
 20
-11.77159925848133
 30
0.0
 40
2.0
100
AcDbArc
 50
179.9999999999992
 51
270.0
  0
LINE
  5
42
330
22
100
AcDbEntity
  8
0
100
AcDbLine
 10
11.59973089678115
 20
-13.77159925848144
 30
0.0
 11
4.599730896781153
 21
-13.77159925848147
 31
0.0
  0
LINE
  5
43
330
22
100
AcDbEntity
  8
0
100
AcDbLine
 10
8.771303772034769
 20
-12.77159925848136
 30
0.0
 11
4.599730896781153
 21
-12.77159925848133
 31
0.0
  0
LINE
  5
44
330
22
100
AcDbEntity
  8
0
100
AcDbLine
 10
31.59973089678115
 20
-13.77159925848147
 30
0.0
 11
23.6715276665056
 21
-13.77159925848144
 31
0.0
  0
LINE
  5
45
330
22
100
AcDbEntity
  8
0
100
AcDbLine
 10
23.56565672307022
 20
-9.51278021337896
 30
0.0
 11
24.4388546544846
 21
-12.77159925848144
 31
0.0
  0
LINE
  5
46
330
22
100
AcDbEntity
  8
0
100
AcDbLine
 10
22.59973089678116
 20
-9.771599258481472
 30
0.0
 11
18.59973089678112
 21
-9.771599258481472
 31
0.0
  0
LINE
  5
47
330
22
100
AcDbEntity
  8
0
100
AcDbLine
 10
18.59973089678115
 20
-13.77159925848144
 30
0.0
 11
17.59973089678115
 21
-13.77159925848144
 31
0.0
  0
LINE
  5
48
330
22
100
AcDbEntity
  8
0
100
AcDbLine
 10
18.59973089678115
 20
-9.771599258481472
 30
0.0
 11
18.59973089678115
 21
-13.77159925848144
 31
0.0
  0
LINE
  5
49
330
22
100
AcDbEntity
  8
0
100
AcDbLine
 10
22.59973089678116
 20
-9.771599258481472
 30
0.0
 11
23.67152766650562
 21
-13.77159925848147
 31
0.0
  0
ARC
  5
4A
330
22
100
AcDbEntity
  8
0
100
AcDbCircle
 10
22.59973089678116
 20
-7.271599258481472
 30
0.0
 40
2.5
100
AcDbArc
 50
270.0
 51
270.0000000000007
  0
LINE
  5
4B
330
22
100
AcDbEntity
  8
0
100
AcDbLine
 10
28.77130377203494
 20
-12.77159925848147
 30
0.0
 11
24.43885465448463
 21
-12.77159925848144
 31
0.0
  0
LINE
  5
4C
330
22
100
AcDbEntity
  8
0
100
AcDbLine
 10
3.599730896781125
 20
-4.771599258481472
 30
0.0
 11
2.599730896781125
 21
-4.771599258481472
 31
0.0
  0
LINE
  5
4D
330
22
100
AcDbEntity
  8
0
100
AcDbLine
 10
22.59973089678116
 20
-8.771599258481472
 30
0.0
 11
18.59973089678115
 21
-8.771599258481472
 31
0.0
  0
LINE
  5
4E
330
22
100
AcDbEntity
  8
0
100
AcDbLine
 10
22.59973089678116
 20
-5.771599258481472
 30
0.0
 11
18.59973089678115
 21
-5.771599258481472
 31
0.0
  0
LINE
  5
4F
330
22
100
AcDbEntity
  8
0
100
AcDbLine
 10
22.59973089678116
 20
-4.771599258481472
 30
0.0
 11
17.59973089678115
 21
-4.771599258481472
 31
0.0
  0
LINE
  5
50
330
22
100
AcDbEntity
  8
0
100
AcDbLine
 10
18.59973089678115
 20
-5.771599258481472
 30
0.0
 11
18.59973089678115
 21
-8.771599258481472
 31
0.0
  0
ARC
  5
51
330
22
100
AcDbEntity
  8
0
100
AcDbCircle
 10
22.59973089678116
 20
-7.271599258481472
 30
0.0
 40
1.5
100
AcDbArc
 50
270.0
 51
90.0
  0
ENDBLK
  5
52
330
22
100
AcDbEntity
  8
0
100
AcDbBlockEnd
  0
BLOCK
  5
F9C
330
F92
100
AcDbEntity
  8
0
100
AcDbBlockBegin
  2
*D1
 70
     1
 10
0.0
 20
0.0
 30
0.0
  3
*D1
  1

  0
LINE
  5
1086
330
F92
100
AcDbEntity
  8
BEM
 62
     0
370
    -2
100
AcDbLine
 10
89.89238441029693
 20
429.8598748750607
 30
0.0
 11
89.89238441029693
 21
470.1796679107087
 31
0.0
  0
LINE
  5
1087
330
F92
100
AcDbEntity
  8
BEM
 62
     0
370
    -2
100
AcDbLine
 10
334.8923844102974
 20
429.8598748750607
 30
0.0
 11
334.8923844102974
 21
470.1796679107087
 31
0.0
  0
LINE
  5
1088
330
F92
100
AcDbEntity
  8
BEM
 62
     0
370
    -2
100
AcDbLine
 10
96.89238441029694
 20
468.1796679107087
 30
0.0
 11
327.8923844102974
 21
468.1796679107087
 31
0.0
  0
SOLID
  5
1089
330
F92
100
AcDbEntity
  8
BEM
 62
     0
100
AcDbTrace
 10
96.89238441029694
 20
469.3463345773754
 30
0.0
 11
96.89238441029694
 21
467.013001244042
 31
0.0
 12
89.89238441029693
 22
468.1796679107087
 32
0.0
 13
89.89238441029693
 23
468.1796679107087
 33
0.0
  0
SOLID
  5
108A
330
F92
100
AcDbEntity
  8
BEM
 62
     0
100
AcDbTrace
 10
327.8923844102974
 20
469.3463345773754
 30
0.0
 11
327.8923844102974
 21
467.013001244042
 31
0.0
 12
334.8923844102974
 22
468.1796679107087
 32
0.0
 13
334.8923844102974
 23
468.1796679107087
 33
0.0
  0
MTEXT
  5
108B
330
F92
100
AcDbEntity
  8
BEM
 62
     1
100
AcDbMText
 10
212.3923844102971
 20
474.6796679107087
 30
0.0
 40
7.0
 41
0.0
 71
     5
 72
     1
  1
\A1;%%c245
 73
     1
 44
1.0
  0
POINT
  5
108C
330
F92
100
AcDbEntity
  8
DEFPOINTS
 62
     0
100
AcDbPoint
 10
89.89238441029693
 20
427.8598748750606
 30
0.0
  0
POINT
  5
108D
330
F92
100
AcDbEntity
  8
DEFPOINTS
 62
     0
100
AcDbPoint
 10
334.8923844102974
 20
427.8598748750606
 30
0.0
  0
POINT
  5
108E
330
F92
100
AcDbEntity
  8
DEFPOINTS
 62
     0
100
AcDbPoint
 10
334.8923844102974
 20
468.1796679107087
 30
0.0
  0
ENDBLK
  5
F9D
330
F92
100
AcDbEntity
  8
0
100
AcDbBlockEnd
  0
BLOCK
  5
FA8
330
F9E
100
AcDbEntity
  8
0
100
AcDbBlockBegin
  2
*D2
 70
     1
 10
0.0
 20
0.0
 30
0.0
  3
*D2
  1

  0
LINE
  5
1129
330
F9E
100
AcDbEntity
  8
BEM
 62
     0
370
    -2
100
AcDbLine
 10
174.3240979716121
 20
171.7992147032813
 30
0.0
 11
72.01150807080745
 21
171.7992147032813
 31
0.0
  0
LINE
  5
112A
330
F9E
100
AcDbEntity
  8
BEM
 62
     0
370
    -2
100
AcDbLine
 10
87.89238441029715
 20
431.7992147032813
 30
0.0
 11
72.0115080708075
 21
431.7992147032813
 31
0.0
  0
LINE
  5
112B
330
F9E
100
AcDbEntity
  8
BEM
 62
     0
370
    -2
100
AcDbLine
 10
74.01150807080745
 20
178.7992147032813
 30
0.0
 11
74.01150807080751
 21
424.7992147032814
 31
0.0
  0
SOLID
  5
112C
330
F9E
100
AcDbEntity
  8
BEM
 62
     0
100
AcDbTrace
 10
72.84484140414078
 20
178.7992147032813
 30
0.0
 11
75.17817473747412
 21
178.7992147032813
 31
0.0
 12
74.01150807080745
 22
171.7992147032813
 32
0.0
 13
74.01150807080745
 23
171.7992147032813
 33
0.0
  0
SOLID
  5
112D
330
F9E
100
AcDbEntity
  8
BEM
 62
     0
100
AcDbTrace
 10
72.84484140414083
 20
424.7992147032814
 30
0.0
 11
75.17817473747418
 21
424.7992147032814
 31
0.0
 12
74.01150807080751
 22
431.7992147032813
 32
0.0
 13
74.01150807080751
 23
431.7992147032813
 33
0.0
  0
MTEXT
  5
112E
330
F9E
100
AcDbEntity
  8
BEM
 62
     1
100
AcDbMText
 10
67.51150807080742
 20
301.7992147032814
 30
0.0
 40
7.0
 41
0.0
 71
     5
 72
     1
  1
\A1;260
 11
0.0000000000000001
 21
1.0
 31
0.0
 73
     1
 44
1.0
  0
POINT
  5
112F
330
F9E
100
AcDbEntity
  8
DEFPOINTS
 62
     0
100
AcDbPoint
 10
176.3240979716121
 20
171.7992147032813
 30
0.0
  0
POINT
  5
1130
330
F9E
100
AcDbEntity
  8
DEFPOINTS
 62
     0
100
AcDbPoint
 10
89.89238441029716
 20
431.7992147032813
 30
0.0
  0
POINT
  5
1131
330
F9E
100
AcDbEntity
  8
DEFPOINTS
 62
     0
100
AcDbPoint
 10
74.01150807080751
 20
431.7992147032813
 30
0.0
  0
ENDBLK
  5
FA9
330
F9E
100
AcDbEntity
  8
0
100
AcDbBlockEnd
  0
BLOCK
  5
FB4
330
FAA
100
AcDbEntity
  8
0
100
AcDbBlockBegin
  2
*D3
 70
     1
 10
0.0
 20
0.0
 30
0.0
  3
*D3
  1

  0
LINE
  5
FC8
330
FAA
100
AcDbEntity
  8
BEM
 62
     0
370
    -2
100
AcDbLine
 10
175.8923844102975
 20
174.7337232889193
 30
0.0
 11
175.8923844102975
 21
151.8770514881919
 31
0.0
  0
LINE
  5
FC9
330
FAA
100
AcDbEntity
  8
BEM
 62
     0
370
    -2
100
AcDbLine
 10
248.8923844102974
 20
174.7337232889192
 30
0.0
 11
248.8923844102974
 21
151.8770514881919
 31
0.0
  0
LINE
  5
FCA
330
FAA
100
AcDbEntity
  8
BEM
 62
     0
370
    -2
100
AcDbLine
 10
182.8923844102975
 20
153.8770514881919
 30
0.0
 11
241.8923844102974
 21
153.8770514881919
 31
0.0
  0
SOLID
  5
FCB
330
FAA
100
AcDbEntity
  8
BEM
 62
     0
100
AcDbTrace
 10
182.8923844102975
 20
155.0437181548586
 30
0.0
 11
182.8923844102975
 21
152.7103848215252
 31
0.0
 12
175.8923844102975
 22
153.8770514881919
 32
0.0
 13
175.8923844102975
 23
153.8770514881919
 33
0.0
  0
SOLID
  5
FCC
330
FAA
100
AcDbEntity
  8
BEM
 62
     0
100
AcDbTrace
 10
241.8923844102974
 20
155.0437181548586
 30
0.0
 11
241.8923844102974
 21
152.7103848215252
 31
0.0
 12
248.8923844102974
 22
153.8770514881919
 32
0.0
 13
248.8923844102974
 23
153.8770514881919
 33
0.0
  0
MTEXT
  5
FCD
330
FAA
100
AcDbEntity
  8
BEM
 62
     1
100
AcDbMText
 10
212.3923844102975
 20
160.3770514881919
 30
0.0
 40
7.0
 41
0.0
 71
     5
 72
     1
  1
\A1;%%c73
 73
     1
 44
1.0
  0
POINT
  5
FCE
330
FAA
100
AcDbEntity
  8
DEFPOINTS
 62
     0
100
AcDbPoint
 10
175.8923844102975
 20
176.7337232889193
 30
0.0
  0
POINT
  5
FCF
330
FAA
100
AcDbEntity
  8
DEFPOINTS
 62
     0
100
AcDbPoint
 10
248.8923844102974
 20
176.7337232889192
 30
0.0
  0
POINT
  5
FD0
330
FAA
100
AcDbEntity
  8
DEFPOINTS
 62
     0
100
AcDbPoint
 10
248.8923844102974
 20
153.8770514881919
 30
0.0
  0
ENDBLK
  5
FB5
330
FAA
100
AcDbEntity
  8
0
100
AcDbBlockEnd
  0
ENDSEC
  0
SECTION
  2
ENTITIES
  0
LINE
  5
57
330
1E
100
AcDbEntity
  8
STEMPEL
100
AcDbLine
 10
410.0
 20
110.0
 30
0.0
 11
29.99999999999997
 21
110.0
 31
0.0
  0
LINE
  5
5B
330
1E
100
AcDbEntity
  8
STEMPEL
100
AcDbLine
 10
145.9999999999999
 20
29.99999999999997
 30
0.0
 11
29.99999999999997
 21
29.99999999999997
 31
0.0
  0
LINE
  5
5E
330
1E
100
AcDbEntity
  8
VOLL
100
AcDbLine
 10
44.00000000000008
 20
110.0
 30
0.0
 11
43.99999999999997
 21
9.999999999999971
 31
0.0
  0
LINE
  5
5F
330
1E
100
AcDbEntity
  8
VOLL
100
AcDbLine
 10
104.0000000000001
 20
109.9999999999999
 30
0.0
 11
104.0
 21
9.999999999999971
 31
0.0
  0
LINE
  5
60
330
1E
100
AcDbEntity
  8
VOLL
100
AcDbLine
 10
124.0000000000001
 20
109.9999999999999
 30
0.0
 11
124.0
 21
9.999999999999971
 31
0.0
  0
LINE
  5
63
330
1E
100
AcDbEntity
  8
HILF
100
AcDbLine
 10
30.00000000000009
 20
100.0
 30
0.0
 11
146.0000000000001
 21
100.0
 31
0.0
  0
LINE
  5
64
330
1E
100
AcDbEntity
  8
HILF
100
AcDbLine
 10
30.00000000000009
 20
90.00000000000005
 30
0.0
 11
146.0000000000001
 21
90.00000000000005
 31
0.0
  0
LINE
  5
65
330
1E
100
AcDbEntity
  8
HILF
100
AcDbLine
 10
30.00000000000009
 20
79.99999999999994
 30
0.0
 11
146.0000000000001
 21
79.99999999999994
 31
0.0
  0
LINE
  5
66
330
1E
100
AcDbEntity
  8
HILF
100
AcDbLine
 10
30.00000000000009
 20
69.99999999999994
 30
0.0
 11
146.0000000000001
 21
69.99999999999994
 31
0.0
  0
LINE
  5
67
330
1E
100
AcDbEntity
  8
HILF
100
AcDbLine
 10
30.00000000000009
 20
59.99999999999997
 30
0.0
 11
146.0000000000001
 21
59.99999999999997
 31
0.0
  0
LINE
  5
68
330
1E
100
AcDbEntity
  8
HILF
100
AcDbLine
 10
30.00000000000009
 20
49.99999999999997
 30
0.0
 11
146.0000000000001
 21
49.99999999999997
 31
0.0
  0
LINE
  5
69
330
1E
100
AcDbEntity
  8
HILF
100
AcDbLine
 10
30.00000000000009
 20
39.99999999999997
 30
0.0
 11
146.0000000000001
 21
39.99999999999997
 31
0.0
  0
TEXT
  5
74
330
1E
100
AcDbEntity
  8
TEXT
100
AcDbText
 10
64.34071736793199
 20
18.67381894984132
 30
0.0
 40
4.0
  1
Änderung
 41
0.8
  7
GREEKS
 72
     1
 11
75.08357451078913
 21
18.67381894984132
 31
0.0
100
AcDbText
  0
TEXT
  5
7B
330
1E
100
AcDbEntity
  8
TEXT
100
AcDbText
 10
38.26641107045757
 20
13.65465846027192
 30
0.0
 40
4.0
  1
Index
 50
90.0
 41
0.8
  7
GREEKS
100
AcDbText
  0
TEXT
  5
7C
330
1E
100
AcDbEntity
  8
TEXT
100
AcDbText
 10
110.0934676075481
 20
18.6715626933981
 30
0.0
 40
4.0
  1
Tag
 41
0.8
  7
GREEKS
 72
     1
 11
113.8268009408814
 21
18.6715626933981
 31
0.0
100
AcDbText
  0
TEXT
  5
7D
330
1E
100
AcDbEntity
  8
TEXT
100
AcDbText
 10
129.0122744386592
 20
18.59324216966408
 30
0.0
 40
4.0
  1
Name
 41
0.8
  7
GREEKS
 72
     1
 11
135.3360839624688
 21
18.59324216966408
 31
0.0
100
AcDbText
  0
LINE
  5
83
330
1E
100
AcDbEntity
  8
STEMPEL
100
AcDbLine
 10
39.99999999999989
 20
10.0
 30
0.0
 11
410.0
 21
10.0
 31
0.0
  0
LINE
  5
85
330
1E
100
AcDbEntity
  8
STEMPEL
100
AcDbLine
 10
410.0
 20
10.0
 30
0.0
 11
29.99999999999989
 21
10.0
 31
0.0
  0
LINE
  5
86
330
1E
100
AcDbEntity
  8
STEMPEL
100
AcDbLine
 10
410.0
 20
10.0
 30
0.0
 11
410.0
 21
584.0
 31
0.0
  0
LINE
  5
87
330
1E
100
AcDbEntity
  8
STEMPEL
100
AcDbLine
 10
30.0
 20
10.0
 30
0.0
 11
29.99999999999989
 21
584.0
 31
0.0
  0
LINE
  5
88
330
1E
100
AcDbEntity
  8
STEMPEL
100
AcDbLine
 10
410.0
 20
584.0
 30
0.0
 11
29.99999999999989
 21
584.0
 31
0.0
  0
LINE
  5
89
330
1E
100
AcDbEntity
  8
HILF
100
AcDbLine
 10
0.0
 20
0.0
 30
0.0
 11
-0.0000000000001137
 21
594.0
 31
0.0
  0
LINE
  5
8A
330
1E
100
AcDbEntity
  8
HILF
100
AcDbLine
 10
419.9999999999999
 20
594.0000000000002
 30
0.0
 11
0.0
 21
594.0
 31
0.0
  0
LINE
  5
8B
330
1E
100
AcDbEntity
  8
HILF
100
AcDbLine
 10
420.0
 20
0.0
 30
0.0
 11
0.0
 21
0.0
 31
0.0
  0
LINE
  5
8C
330
1E
100
AcDbEntity
  8
HILF
100
AcDbLine
 10
31.08767135713856
 20
297.0
 30
0.0
 11
0.0000000000001137
 21
297.0
 31
0.0
  0
LINE
  5
8E
330
1E
100
AcDbEntity
  8
HILF
100
AcDbLine
 10
420.0
 20
-0.0000000000001137
 30
0.0
 11
419.9999999999999
 21
594.0
 31
0.0
  0
TEXT
  5
8F
330
1E
100
AcDbEntity
  8
VOLL
100
AcDbText
 10
78.07675471698113
 20
31.02594776470585
 30
0.0
 40
1.8
  1

  7
GREEKS
100
AcDbText
  0
TEXT
  5
90
330
1E
100
AcDbEntity
  8
TEXT
100
AcDbText
 10
31.85509950977675
 20
111.6719999999999
 30
0.0
 40
5.0
  1
Erstellt mit AUTOCAD 2004
 41
0.8
  7
GREEKS
100
AcDbText
  0
TEXT
  5
118
330
1E
100
AcDbEntity
  8
BEM
100
AcDbText
 10
417.3022923857165
 20
10.16790107998849
 30
0.0
 40
4.0
  1
Diese Zeichnung ist urheberrechtlich geschützt und bleibt unser Eigentum. Sie darf weder ganz noch teilweise verfielfältigt und nicht an Dritte weitergegeben werden.
 50
90.0
 41
0.8
  7
GREEKS
100
AcDbText
  0
HATCH
  5
E53
330
1E
100
AcDbEntity
  8
SCHRAFF
100
AcDbHatch
 10
0.0
 20
0.0
 30
0.0
210
0.0
220
0.0
230
1.0
  2
_USER
 70
     0
 71
     0
 91
        5
 92
        7
 72
     1
 73
     1
 93
        8
 10
122.3923844102971
 20
431.7992147032813
 42
0.0
 10
96.10989883156912
 20
431.7992147032813
 42
0.198912367379682
 10
92.22081153504291
 20
430.1883019998069
 42
0.0
 10
89.89238441029693
 20
427.8598748750606
 42
0.0
 10
91.3065979726698
 20
426.4456613126874
 42
0.0
 10
93.63502509741602
 20
428.7740884374338
 42
-0.1989123673796757
 10
96.10989883156879
 20
429.7992147032815
 42
0.0
 10
122.3923844102971
 20
429.7992147032813
 42
0.0
 97
        0
 92
        7
 72
     1
 73
     1
 93
        8
 10
153.8723001631625
 20
431.7992147032813
 42
0.0
 10
122.3923844102971
 20
431.7992147032813
 42
0.0
 10
122.3923844102971
 20
429.7992147032814
 42
0.0
 10
153.8723001631626
 20
429.7992147032811
 42
-0.2102773852970719
 10
158.2959641840231
 20
427.8527559489754
 42
0.0
 10
168.4246686107411
 20
416.7992147032814
 42
0.0
 10
169.8992232843615
 20
418.1503951185126
 42
0.0
 10
159.7705188576432
 20
429.2039363642069
 42
0.2102773852970734
 97
        0
 92
        7
 72
     1
 73
     1
 93
        8
 10
276.488750492307
 20
431.7992147032811
 42
0.0
 10
270.9124686574317
 20
431.7992147032811
 42
0.2102773852970754
 10
265.014249962951
 20
429.2039363642068
 42
0.0
 10
254.8855455362331
 20
418.1503951185126
 42
0.0
 10
256.3601002098531
 20
416.7992147032813
 42
0.0
 10
266.4888046365712
 20
427.8527559489754
 42
-0.2102773852970707
 10
270.9124686574317
 20
429.7992147032811
 42
0.0
 10
277.3397940029184
 20
429.7992147032811
 42
0.0
 97
        0
 92
        7
 72
     1
 73
     1
 93
        8
 10
328.6748699890252
 20
431.7992147032811
 42
0.0
 10
280.8669512870208
 20
431.7992147032811
 42
0.0
 10
281.4192890948096
 20
429.7992147032811
 42
0.0
 10
328.6748699890252
 20
429.7992147032815
 42
-0.1989123673797032
 10
331.1497437231783
 20
428.7740884374338
 42
0.0
 10
333.4781708479245
 20
426.4456613126875
 42
0.0
 10
334.8923844102974
 20
427.8598748750607
 42
0.0
 10
332.5639572855514
 20
430.1883019998069
 42
0.1989123673796793
 97
        0
 92
        7
 72
     0
 73
     1
 93
        4
 10
280.8669512870208
 20
431.7992147032811
 10
276.488750492307
 20
431.7992147032811
 10
277.3397940029183
 20
429.7992147032811
 10
281.4192890948095
 20
429.7992147032811
 97
        0
 75
     0
 76
     0
 52
135.0
 41
2.0
 77
     0
 78
     1
 53
135.0
 43
0.0
 44
0.0
 45
-1.414213562373095
 46
-1.414213562373094
 79
     0
 47
0.3635300364118316
 98
        5
 10
104.8071332138261
 20
431.0536656393171
 10
149.9152673707426
 20
430.690135482464
 10
271.4162064250131
 20
431.0536656393171
 10
311.7952595070246
 20
430.690135482464
 10
279.4192628855976
 20
431.0536656393171
  0
LINE
  5
E55
102
{ACAD_REACTORS
330
1146
102
}
330
1E
100
AcDbEntity
  8
STEMPEL
100
AcDbLine
 10
253.0254238826632
 20
431.7992147032811
 30
0.0
 11
334.8923844102972
 21
431.7992147032811
 31
0.0
  0
LINE
  5
E57
330
1E
100
AcDbEntity
  8
STEMPEL
100
AcDbLine
 10
252.5011493354432
 20
437.7992147032814
 30
0.0
 11
297.3923844102971
 21
437.7992147032813
 31
0.0
  0
HATCH
  5
E58
330
1E
100
AcDbEntity
  8
SCHRAFF
100
AcDbHatch
 10
0.0
 20
0.0
 30
0.0
210
0.0
220
0.0
230
1.0
  2
_USER
 70
     0
 71
     0
 91
        2
 92
        7
 72
     1
 73
     1
 93
        5
 10
170.5923844102975
 20
414.3939424891678
 42
0.0
 10
170.5923844102976
 20
417.3939424891679
 42
0.0
 10
169.8992232843615
 20
418.1503951185127
 42
0.0
 10
168.4246686107412
 20
416.7992147032814
 42
0.0
 10
167.6071641075155
 20
417.6913643173139
 42
0.4436072552952001
 97
        0
 92
        7
 72
     1
 73
     1
 93
        5
 10
254.8855455362331
 20
418.1503951185126
 42
0.0
 10
254.1923844102974
 20
417.3939424891682
 42
0.0
 10
254.1923844102974
 20
414.3939424891682
 42
0.4436072552951992
 10
257.1776047130794
 20
417.6913643173143
 42
0.0
 10
256.3601002098532
 20
416.7992147032813
 42
0.0
 97
        0
 75
     0
 76
     0
 52
0.0
 41
0.1
 77
     0
 78
     1
 53
0.0
 43
0.0
 44
0.0
 45
0.0
 46
0.1
 79
     0
 47
0.1418006302582077
 98
        2
 10
169.3791995595767
 20
415.8470373092913
 10
255.6587522139554
 20
416.2724397714215
  0
ARC
  5
E59
330
1E
100
AcDbEntity
  8
SCHRAFF
100
AcDbCircle
 10
254.1923844102973
 20
417.3939424891682
 30
0.0
 40
3.0
100
AcDbArc
 50
270.0
 51
5.689685104222522
  0
ARC
  5
E5A
330
1E
100
AcDbEntity
  8
SCHRAFF
100
AcDbCircle
 10
170.5923844102975
 20
417.3939424891679
 30
0.0
 40
3.0
100
AcDbArc
 50
174.3103148957775
 51
270.0
  0
LINE
  5
E5B
330
1E
100
AcDbEntity
  8
STEMPEL
100
AcDbLine
 10
265.0142499629511
 20
429.2039363642069
 30
0.0
 11
254.1923844102974
 21
417.3939424891683
 31
0.0
  0
LINE
  5
E5C
330
1E
100
AcDbEntity
  8
STEMPEL
100
AcDbLine
 10
159.7705188576432
 20
429.2039363642069
 30
0.0
 11
170.5923844102975
 21
417.3939424891679
 31
0.0
  0
LINE
  5
E5D
330
1E
100
AcDbEntity
  8
STEMPEL
100
AcDbLine
 10
168.4246686107411
 20
416.7992147032813
 30
0.0
 11
169.8992232843615
 21
418.1503951185126
 31
0.0
  0
LINE
  5
E5E
330
1E
100
AcDbEntity
  8
STEMPEL
100
AcDbLine
 10
158.2959641840231
 20
427.8527559489754
 30
0.0
 11
168.4246686107411
 21
416.7992147032813
 31
0.0
  0
ARC
  5
E5F
330
1E
100
AcDbEntity
  8
STEMPEL
100
AcDbCircle
 10
153.8723001631625
 20
423.7992147032811
 30
0.0
 40
6.0
100
AcDbArc
 50
42.49999999999978
 51
90.0
  0
ARC
  5
E60
330
1E
100
AcDbEntity
  8
STEMPEL
100
AcDbCircle
 10
153.8723001631625
 20
423.7992147032811
 30
0.0
 40
8.0
100
AcDbArc
 50
42.49999999999978
 51
90.0
  0
ARC
  5
E61
330
1E
100
AcDbEntity
  8
STEMPEL
100
AcDbCircle
 10
270.9124686574317
 20
423.7992147032811
 30
0.0
 40
8.0
100
AcDbArc
 50
90.0
 51
137.5000000000002
  0
ARC
  5
E62
330
1E
100
AcDbEntity
  8
STEMPEL
100
AcDbCircle
 10
270.9124686574317
 20
423.7992147032811
 30
0.0
 40
6.0
100
AcDbArc
 50
90.0
 51
137.5000000000002
  0
LINE
  5
E63
330
1E
100
AcDbEntity
  8
STEMPEL
100
AcDbLine
 10
256.3601002098532
 20
416.7992147032813
 30
0.0
 11
254.8855455362331
 21
418.1503951185126
 31
0.0
  0
LINE
  5
E64
330
1E
100
AcDbEntity
  8
STEMPEL
100
AcDbLine
 10
266.4888046365712
 20
427.8527559489754
 30
0.0
 11
256.3601002098532
 21
416.7992147032813
 31
0.0
  0
HATCH
  5
E65
330
1E
100
AcDbEntity
  8
SCHRAFF
100
AcDbHatch
 10
0.0
 20
0.0
 30
0.0
210
0.0
220
0.0
230
1.0
  2
_USER
 70
     0
 71
     0
 91
        4
 92
        7
 72
     1
 73
     1
 93
        4
 10
324.3923844102972
 20
443.7992147032822
 42
0.0
 10
308.8923844102972
 20
443.7992147032822
 42
0.0
 10
308.8923844102972
 20
437.7992147032812
 42
0.0
 10
324.3923844102972
 20
437.7992147032813
 42
1.0
 97
        0
 92
        7
 72
     1
 73
     1
 93
        4
 10
295.8923844102972
 20
443.7992147032822
 42
0.0
 10
277.8923844102969
 20
443.7992147032822
 42
1.0
 10
277.8923844102969
 20
437.7992147032813
 42
0.0
 10
295.8923844102971
 20
437.7992147032813
 42
0.0
 97
        0
 92
        7
 72
     1
 73
     1
 93
        4
 10
146.8923844102974
 20
443.799214703282
 42
0.0
 10
128.8923844102971
 20
443.799214703282
 42
0.0
 10
128.8923844102972
 20
437.7992147032814
 42
0.0
 10
146.8923844102974
 20
437.7992147032814
 42
1.0
 97
        0
 92
        7
 72
     1
 73
     1
 93
        4
 10
115.8923844102971
 20
443.799214703282
 42
0.0
 10
100.3923844102971
 20
443.799214703282
 42
1.0
 10
100.3923844102971
 20
437.7992147032814
 42
0.0
 10
115.8923844102971
 20
437.7992147032814
 42
0.0
 97
        0
 75
     0
 76
     0
 52
135.0
 41
5.0
 77
     0
 78
     1
 53
135.0
 43
0.0
 44
0.0
 45
-3.535533905932737
 46
-3.535533905932737
 79
     0
 47
0.3996542823765836
 98
        4
 10
311.9816294726866
 20
441.5275715622153
 10
289.9839941021214
 20
441.5275715622153
 10
138.0003340044918
 20
441.9272267368378
 10
111.6031724627805
 20
441.9272267368378
  0
DIMENSION
  5
E66
330
1E
100
AcDbEntity
  8
BEM
100
AcDbDimension
  2
*D1
 10
334.8923844102974
 20
468.1796679107087
 30
0.0
 11
212.3923844102971
 21
474.6796679107087
 31
0.0
 70
    32
  1
%%c<>
 71
     5
 42
245.0000000000005
  3
Standard
100
AcDbAlignedDimension
 13
89.89238441029693
 23
427.8598748750606
 33
0.0
 14
334.8923844102974
 24
427.8598748750606
 34
0.0
100
AcDbRotatedDimension
1001
ACAD
1000
DSTYLE
1002
{
1070
    40
1040
2.0
1070
    41
1040
3.5
1070
    42
1040
1.0
1070
    43
1040
7.0
1070
    44
1040
1.0
1070
    47
1040
0.7
1070
    48
1040
0.7
1070
    73
1070
     0
1070
    74
1070
     0
1070
    77
1070
     1
1070
    78
1070
     8
1070
    79
1070
     2
1070
   140
1040
3.5
1070
   141
1040
1.5
1070
   147
1040
1.5
1070
   172
1070
     1
1070
   178
1070
     1
1070
   179
1070
     2
1070
   279
1070
     0
1002
}
  0
TEXT
  5
E67
330
1E
100
AcDbEntity
  8
TEXT
 62
     1
100
AcDbText
 10
279.7029848482124
 20
376.1066251662269
 30
0.0
 40
7.0
  1
Dichtelement DN70
 41
0.8
  7
GREEKS
100
AcDbText
  0
TEXT
  5
E68
330
1E
100
AcDbEntity
  8
TEXT
 62
     1
100
AcDbText
 10
279.7029848482124
 20
363.0588530192476
 30
0.0
 40
7.0
  1
EDV-Art.Nr. 00911.070X
 41
0.8
  7
GREEKS
100
AcDbText
  0
LINE
  5
E69
330
1E
100
AcDbEntity
  8
TEXT
 62
     2
100
AcDbLine
 10
382.2516502777661
 20
372.4938568940333
 30
0.0
 11
277.8955044286905
 21
372.4938568940331
 31
0.0
  0
LINE
  5
E6A
102
{ACAD_REACTORS
330
FFF
102
}
330
1E
100
AcDbEntity
  8
STEMPEL
100
AcDbLine
 10
252.1207373145791
 20
419.3425877675269
 30
0.0
 11
251.7154154881335
 21
421.2818383481241
 31
0.0
  0
ARC
  5
E6B
102
{ACAD_REACTORS
330
FFF
102
}
330
1E
100
AcDbEntity
  8
STEMPEL
100
AcDbCircle
 10
246.3923844102948
 20
421.2992147032846
 30
0.0
 40
4.0
100
AcDbArc
 50
337.975687162958
 51
355.3175831377314
  0
LINE
  5
E6C
102
{ACAD_REACTORS
330
FFF
102
}
330
1E
100
AcDbEntity
  8
STEMPEL
100
AcDbLine
 10
252.6923844102949
 20
419.342587767527
 30
0.0
 11
249.8811680141126
 21
419.3425877675269
 31
0.0
  0
ARC
  5
E6D
102
{ACAD_REACTORS
330
FFF
102
}
330
1E
100
AcDbEntity
  8
STEMPEL
100
AcDbCircle
 10
251.05693557662
 20
421.0852849640184
 30
0.0
 40
0.6871892218815297
100
AcDbArc
 50
16.62013506254533
 51
189.4308509000651
  0
LINE
  5
E6E
102
{ACAD_REACTORS
330
FFF
102
}
330
1E
100
AcDbEntity
  8
STEMPEL
100
AcDbLine
 10
243.8923844102948
 20
418.7992147032846
 30
0.0
 11
243.8923844102948
 21
417.2992147032846
 31
0.0
  0
LINE
  5
E6F
330
1E
100
AcDbEntity
  8
TEXT
 62
     2
100
AcDbLine
 10
277.8955044286905
 20
372.4938568940331
 30
0.0
 11
250.7923844102949
 21
426.0006979338969
 31
0.0
  0
LINE
  5
E70
102
{ACAD_REACTORS
330
FFF
102
}
330
1E
100
AcDbEntity
  8
STEMPEL
100
AcDbLine
 10
248.8923844102948
 20
433.7992147032846
 30
0.0
 11
248.8923844102948
 21
423.7992147032846
 31
0.0
  0
ARC
  5
E71
102
{ACAD_REACTORS
330
FFF
102
}
330
1E
100
AcDbEntity
  8
STEMPEL
100
AcDbCircle
 10
246.3923844102948
 20
421.2992147032846
 30
0.0
 40
4.0
100
AcDbArc
 50
270.0
 51
337.975687162958
  0
ARC
  5
E72
102
{ACAD_REACTORS
330
FFF
102
}
330
1E
100
AcDbEntity
  8
STEMPEL
100
AcDbCircle
 10
243.8923844102948
 20
423.7992147032846
 30
0.0
 40
5.0
100
AcDbArc
 50
270.0
 51
0.0
  0
LINE
  5
E73
102
{ACAD_REACTORS
330
FFF
102
}
330
1E
100
AcDbEntity
  8
STEMPEL
100
AcDbLine
 10
254.1923844102949
 20
434.7992147032846
 30
0.0
 11
251.8577817385702
 21
434.7992147032846
 31
0.0
  0
LINE
  5
E74
102
{ACAD_REACTORS
330
FFF
102
}
330
1E
100
AcDbEntity
  8
STEMPEL
100
AcDbLine
 10
248.8923844102948
 20
433.7992147032846
 30
0.0
 11
249.8046381727107
 21
438.9728628809515
 31
0.0
  0
ARC
  5
E75
102
{ACAD_REACTORS
330
FFF
102
}
330
1E
100
AcDbEntity
  8
STEMPEL
100
AcDbCircle
 10
250.7894459257228
 20
438.7992147032846
 30
0.0
 40
1.0
100
AcDbArc
 50
29.41191366553184
 51
170.0000000000014
  0
LINE
  5
E76
102
{ACAD_REACTORS
330
FFF
102
}
330
1E
100
AcDbEntity
  8
STEMPEL
100
AcDbLine
 10
254.1923844102949
 20
434.7992147032846
 30
0.0
 11
251.6605576430722
 21
439.2902996001169
 31
0.0
  0
LINE
  5
E77
102
{ACAD_REACTORS
330
FFF
102
}
330
1E
100
AcDbEntity
  8
STEMPEL
100
AcDbLine
 10
175.8923844102947
 20
433.7992147032846
 30
0.0
 11
174.980130647879
 21
438.9728628809515
 31
0.0
  0
ARC
  5
E78
102
{ACAD_REACTORS
330
FFF
102
}
330
1E
100
AcDbEntity
  8
STEMPEL
100
AcDbCircle
 10
173.9953228948667
 20
438.7992147032846
 30
0.0
 40
1.0
100
AcDbArc
 50
9.999999999998609
 51
150.5880863344681
  0
LINE
  5
E79
102
{ACAD_REACTORS
330
FFF
102
}
330
1E
100
AcDbEntity
  8
STEMPEL
100
AcDbLine
 10
172.9269870820193
 20
434.7992147032846
 30
0.0
 11
170.5923844102948
 21
434.7992147032846
 31
0.0
  0
LINE
  5
E7A
102
{ACAD_REACTORS
330
FFF
102
}
330
1E
100
AcDbEntity
  8
STEMPEL
100
AcDbLine
 10
170.5923844102948
 20
434.7992147032846
 30
0.0
 11
173.1242111775174
 21
439.2902996001169
 31
0.0
  0
LINE
  5
E7B
330
1E
100
AcDbEntity
  8
STEMPEL
100
AcDbLine
 10
173.9953228948667
 20
439.7992147032846
 30
0.0
 11
250.7894459257228
 21
439.7992147032846
 31
0.0
  0
LINE
  5
E7C
330
1E
100
AcDbEntity
  8
STEMPEL
100
AcDbLine
 10
175.8923844102947
 20
433.7992147032846
 30
0.0
 11
248.8923844102948
 21
433.7992147032846
 31
0.0
  0
LINE
  5
E7D
102
{ACAD_REACTORS
330
FFF
102
}
330
1E
100
AcDbEntity
  8
STEMPEL
100
AcDbLine
 10
180.8923844102947
 20
418.7992147032846
 30
0.0
 11
180.8923844102947
 21
417.2992147032846
 31
0.0
  0
ARC
  5
E7E
102
{ACAD_REACTORS
330
FFF
102
}
330
1E
100
AcDbEntity
  8
STEMPEL
100
AcDbCircle
 10
178.3923844102947
 20
421.2992147032846
 30
0.0
 40
4.0
100
AcDbArc
 50
184.6824168622685
 51
202.0243128370421
  0
ARC
  5
E7F
102
{ACAD_REACTORS
330
FFF
102
}
330
1E
100
AcDbEntity
  8
STEMPEL
100
AcDbCircle
 10
178.3923844102947
 20
421.2992147032846
 30
0.0
 40
4.0
100
AcDbArc
 50
202.0243128370421
 51
270.0
  0
ARC
  5
E80
102
{ACAD_REACTORS
330
FFF
102
}
330
1E
100
AcDbEntity
  8
STEMPEL
100
AcDbCircle
 10
180.8923844102947
 20
423.7992147032846
 30
0.0
 40
5.0
100
AcDbArc
 50
180.0
 51
270.0
  0
LINE
  5
E81
102
{ACAD_REACTORS
330
FFF
102
}
330
1E
100
AcDbEntity
  8
STEMPEL
100
AcDbLine
 10
172.6640315060105
 20
419.3425877675269
 30
0.0
 11
173.0693533324562
 21
421.2818383481241
 31
0.0
  0
LINE
  5
E82
102
{ACAD_REACTORS
330
FFF
102
}
330
1E
100
AcDbEntity
  8
STEMPEL
100
AcDbLine
 10
172.0923844102948
 20
419.342587767527
 30
0.0
 11
174.9036008064771
 21
419.3425877675269
 31
0.0
  0
ARC
  5
E83
102
{ACAD_REACTORS
330
FFF
102
}
330
1E
100
AcDbEntity
  8
STEMPEL
100
AcDbCircle
 10
173.7278332439695
 20
421.0852849640184
 30
0.0
 40
0.6871892218815297
100
AcDbArc
 50
350.5691490999349
 51
163.3798649374546
  0
LINE
  5
E84
102
{ACAD_REACTORS
330
FFF
102
}
330
1E
100
AcDbEntity
  8
STEMPEL
100
AcDbLine
 10
175.8923844102947
 20
433.7992147032846
 30
0.0
 11
175.8923844102947
 21
423.7992147032846
 31
0.0
  0
LINE
  5
E86
330
1E
100
AcDbEntity
  8
STEMPEL
100
AcDbLine
 10
243.8923844102948
 20
418.7992147032846
 30
0.0
 11
180.8923844102947
 21
418.7992147032846
 31
0.0
  0
LINE
  5
E87
102
{ACAD_REACTORS
330
FFF
102
}
330
1E
100
AcDbEntity
  8
STEMPEL
100
AcDbLine
 10
246.3923844102948
 20
417.2992147032846
 30
0.0
 11
178.3923844102947
 21
417.2992147032846
 31
0.0
  0
DIMENSION
  5
E88
330
1E
100
AcDbEntity
  8
BEM
100
AcDbDimension
  2
*D2
 10
74.01150807080751
 20
431.7992147032813
 30
0.0
 11
67.51150807080742
 21
301.7992147032814
 31
0.0
 70
    32
 71
     5
 42
260.0
  3
Standard
100
AcDbAlignedDimension
 13
176.3240979716121
 23
171.7992147032813
 33
0.0
 14
89.89238441029716
 24
431.7992147032813
 34
0.0
 50
90.0
100
AcDbRotatedDimension
1001
ACAD
1000
DSTYLE
1002
{
1070
    40
1040
2.0
1070
    41
1040
3.5
1070
    42
1040
1.0
1070
    43
1040
7.0
1070
    44
1040
1.0
1070
    47
1040
2.0
1070
    48
1040
2.0
1070
    73
1070
     0
1070
    74
1070
     0
1070
    77
1070
     1
1070
    78
1070
     8
1070
    79
1070
     2
1070
   140
1040
3.5
1070
   141
1040
1.5
1070
   146
1040
0.5142857142857144
1070
   147
1040
1.5
1070
   172
1070
     1
1070
   178
1070
     1
1070
   179
1070
     2
1070
   279
1070
     0
1002
}
  0
LINE
  5
E89
330
1E
100
AcDbEntity
  8
STEMPEL
100
AcDbLine
 10
247.3923844102975
 20
176.7992147032897
 30
0.0
 11
246.9549410926671
 21
171.7992147032814
 31
0.0
  0
LINE
  5
E8A
330
1E
100
AcDbEntity
  8
STEMPEL
100
AcDbLine
 10
248.8866764574343
 20
176.6684810891599
 30
0.0
 11
248.4606708489821
 21
171.7992147032814
 31
0.0
  0
LINE
  5
E8B
330
1E
100
AcDbEntity
  8
STEMPEL
100
AcDbLine
 10
175.8923844102975
 20
176.7337232889193
 30
0.0
 11
176.3240979716121
 21
171.7992147032813
 31
0.0
  0
LINE
  5
E8C
330
1E
100
AcDbEntity
  8
STEMPEL
100
AcDbLine
 10
177.3923844102975
 20
176.7992147032814
 30
0.0
 11
177.8298277279272
 21
171.7992147032814
 31
0.0
  0
LINE
  5
E8D
330
1E
100
AcDbEntity
  8
HILF
100
AcDbLine
 10
245.8866546539817
 20
176.7992147032814
 30
0.0
 11
178.8981141666125
 21
176.7992147032814
 31
0.0
  0
LINE
  5
E8E
330
1E
100
AcDbEntity
  8
STEMPEL
100
AcDbLine
 10
328.6748699890252
 20
429.7992147032815
 30
0.0
 11
270.9124686574317
 21
429.7992147032811
 31
0.0
  0
LINE
  5
E8F
330
1E
100
AcDbEntity
  8
STEMPEL
100
AcDbLine
 10
96.10989883156912
 20
429.7992147032815
 30
0.0
 11
153.8723001631626
 21
429.7992147032811
 31
0.0
  0
LINE
  5
E90
330
1E
100
AcDbEntity
  8
STEMPEL
100
AcDbLine
 10
334.8923844102974
 20
427.8598748750606
 30
0.0
 11
333.4781708479245
 21
426.4456613126874
 31
0.0
  0
LINE
  5
E91
330
1E
100
AcDbEntity
  8
STEMPEL
100
AcDbLine
 10
334.8923844102974
 20
427.8598748750606
 30
0.0
 11
332.5639572855514
 21
430.1883019998069
 31
0.0
  0
ARC
  5
E92
330
1E
100
AcDbEntity
  8
STEMPEL
100
AcDbCircle
 10
328.6748699890252
 20
426.2992147032809
 30
0.0
 40
3.499999999999851
100
AcDbArc
 50
45.0
 51
90.0
  0
LINE
  5
E93
330
1E
100
AcDbEntity
  8
STEMPEL
100
AcDbLine
 10
333.4781708479243
 20
426.4456613126877
 30
0.0
 11
331.1497437231783
 21
428.7740884374338
 31
0.0
  0
ARC
  5
E94
330
1E
100
AcDbEntity
  8
STEMPEL
100
AcDbCircle
 10
328.6748699890252
 20
426.2992147032809
 30
0.0
 40
5.499999999999851
100
AcDbArc
 50
45.0
 51
90.0
  0
LINE
  5
E95
330
1E
100
AcDbEntity
  8
STEMPEL
100
AcDbLine
 10
265.1994399565477
 20
426.4456613126874
 30
0.0
 11
333.4781708479243
 21
426.4456613126874
 31
0.0
  0
LINE
  5
E96
330
1E
100
AcDbEntity
  8
STEMPEL
100
AcDbLine
 10
91.30659797267004
 20
426.4456613126877
 30
0.0
 11
93.63502509741602
 21
428.7740884374338
 31
0.0
  0
ARC
  5
E97
330
1E
100
AcDbEntity
  8
STEMPEL
100
AcDbCircle
 10
96.10989883156912
 20
426.2992147032809
 30
0.0
 40
5.499999999999851
100
AcDbArc
 50
90.0
 51
135.0
  0
ARC
  5
E98
330
1E
100
AcDbEntity
  8
STEMPEL
100
AcDbCircle
 10
96.10989883156912
 20
426.2992147032809
 30
0.0
 40
3.499999999999851
100
AcDbArc
 50
90.0
 51
135.0
  0
LINE
  5
E99
330
1E
100
AcDbEntity
  8
STEMPEL
100
AcDbLine
 10
89.89238441029693
 20
427.8598748750606
 30
0.0
 11
91.3065979726698
 21
426.4456613126874
 31
0.0
  0
LINE
  5
E9A
330
1E
100
AcDbEntity
  8
STEMPEL
100
AcDbLine
 10
89.89238441029693
 20
427.8598748750606
 30
0.0
 11
92.22081153504291
 21
430.1883019998069
 31
0.0
  0
LINE
  5
E9B
330
1E
100
AcDbEntity
  8
STEMPEL
100
AcDbLine
 10
159.5853288640466
 20
426.4456613126874
 30
0.0
 11
91.30659797267004
 21
426.4456613126874
 31
0.0
  0
TEXT
  5
E9C
330
1E
100
AcDbEntity
  8
TEXT
 62
     1
100
AcDbText
 10
202.6912518596838
 20
357.6015828159764
 30
0.0
 40
7.0
  1
DN70
 50
90.0
 41
0.8
  7
GREEKS
100
AcDbText
  0
LINE
  5
E9D
330
1E
100
AcDbEntity
  8
STEMPEL
  6
Continuous
100
AcDbLine
 10
254.1923844102973
 20
424.2502922961658
 30
0.0
 11
254.1923844102973
 21
408.737494751475
 31
0.0
  0
LINE
  5
E9E
102
{ACAD_REACTORS
330
FFF
102
}
330
1E
100
AcDbEntity
  8
STEMPEL
100
AcDbLine
 10
250.4978578988773
 20
434.1662793588552
 30
0.0
 11
251.8577817385728
 21
434.7992147032845
 31
0.0
  0
ARC
  5
E9F
102
{ACAD_REACTORS
330
FFF
102
}
330
1E
100
AcDbEntity
  8
STEMPEL
  6
Continuous
100
AcDbCircle
 10
229.1923844102973
 20
424.2502922961659
 30
0.0
 40
23.5
100
AcDbArc
 50
0.0
 51
24.95819631230951
  0
ARC
  5
EA0
330
1E
100
AcDbEntity
  8
STEMPEL
  6
Continuous
100
AcDbCircle
 10
263.6923844102973
 20
395.2992147032842
 30
0.0
 40
13.5
100
AcDbArc
 50
158.816845606963
 51
180.0
  0
ARC
  5
EA1
330
1E
100
AcDbEntity
  8
STEMPEL
  6
Continuous
100
AcDbCircle
 10
263.6923844102973
 20
395.2992147032842
 30
0.0
 40
12.0
100
AcDbArc
 50
158.816845606963
 51
180.0
  0
ARC
  5
EA2
330
1E
100
AcDbEntity
  8
STEMPEL
  6
Continuous
100
AcDbCircle
 10
229.1923844102973
 20
408.6692147032843
 30
0.0
 40
23.50009324312573
100
AcDbArc
 50
338.8168456069642
 51
0.1564859543343451
  0
LINE
  5
EA3
102
{ACAD_REACTORS
330
FFF
102
}
330
1E
100
AcDbEntity
  8
STEMPEL
  6
Continuous
100
AcDbLine
 10
252.6923844102973
 20
424.2502922961658
 30
0.0
 11
252.6923844102973
 21
408.6030147364934
 31
0.0
  0
ARC
  5
EA4
330
1E
100
AcDbEntity
  8
STEMPEL
  6
Continuous
100
AcDbCircle
 10
256.8923844102949
 20
309.9820604629631
 30
0.0
 40
9.499999999999602
100
AcDbArc
 50
149.3165828910248
 51
180.0
  0
ARC
  5
EA5
330
1E
100
AcDbEntity
  8
STEMPEL
  6
Continuous
100
AcDbCircle
 10
256.8923844102951
 20
309.9820604629631
 30
0.0
 40
7.999999999999658
100
AcDbArc
 50
149.3165828910248
 51
180.0
  0
ARC
  5
EA6
330
1E
100
AcDbEntity
  8
STEMPEL
  6
Continuous
100
AcDbCircle
 10
239.6923844102953
 20
320.1879411207013
 30
0.0
 40
10.5
100
AcDbArc
 50
329.3165828910248
 51
0.0
  0
ARC
  5
EA7
330
1E
100
AcDbEntity
  8
STEMPEL
  6
Continuous
100
AcDbCircle
 10
239.6923844102953
 20
320.1879411207013
 30
0.0
 40
12.0
100
AcDbArc
 50
329.3165828910248
 51
0.0
  0
LINE
  5
EA8
330
1E
100
AcDbEntity
  8
STEMPEL
  6
Continuous
100
AcDbLine
 10
251.6923844102973
 20
395.2992147032842
 30
0.0
 11
251.6923844102953
 21
320.1879411207013
 31
0.0
  0
LINE
  5
EA9
330
1E
100
AcDbEntity
  8
STEMPEL
  6
Continuous
100
AcDbLine
 10
250.1923844102973
 20
395.2992147032842
 30
0.0
 11
250.1923844102953
 21
320.1879411207013
 31
0.0
  0
ARC
  5
EAA
330
1E
100
AcDbEntity
  8
STEMPEL
  6
Continuous
100
AcDbCircle
 10
229.1923844102973
 20
408.6692147032843
 30
0.0
 40
25.00009324312574
100
AcDbArc
 50
338.8168456069642
 51
0.1564859543343451
  0
ARC
  5
EAB
330
1E
100
AcDbEntity
  8
STEMPEL
  6
Continuous
100
AcDbCircle
 10
229.1923844102973
 20
424.2502922961659
 30
0.0
 40
25.0
100
AcDbArc
 50
0.0
 51
24.95819631230951
  0
LINE
  5
EAC
102
{ACAD_REACTORS
330
FFF
102
}
330
1E
100
AcDbEntity
  8
STEMPEL
100
AcDbLine
 10
174.2869109217174
 20
434.1662793588552
 30
0.0
 11
172.9269870820219
 21
434.7992147032845
 31
0.0
  0
ARC
  5
EAD
102
{ACAD_REACTORS
330
FFF
102
}
330
1E
100
AcDbEntity
  8
STEMPEL
  6
Continuous
100
AcDbCircle
 10
195.5923844102974
 20
424.2502922961659
 30
0.0
 40
23.5
100
AcDbArc
 50
155.0418036876905
 51
180.0
  0
ARC
  5
EAE
330
1E
100
AcDbEntity
  8
STEMPEL
  6
Continuous
100
AcDbCircle
 10
161.0923844102974
 20
395.2992147032842
 30
0.0
 40
13.5
100
AcDbArc
 50
0.0
 51
21.183154393037
  0
ARC
  5
EAF
330
1E
100
AcDbEntity
  8
STEMPEL
  6
Continuous
100
AcDbCircle
 10
161.0923844102974
 20
395.2992147032842
 30
0.0
 40
12.0
100
AcDbArc
 50
0.0
 51
21.183154393037
  0
ARC
  5
EB0
330
1E
100
AcDbEntity
  8
STEMPEL
  6
Continuous
100
AcDbCircle
 10
195.5923844102974
 20
408.6692147032843
 30
0.0
 40
23.50009324312573
100
AcDbArc
 50
179.8435140456656
 51
201.1831543930358
  0
LINE
  5
EB1
102
{ACAD_REACTORS
330
FFF
102
}
330
1E
100
AcDbEntity
  8
STEMPEL
  6
Continuous
100
AcDbLine
 10
172.0923844102974
 20
424.2502922961658
 30
0.0
 11
172.0923844102974
 21
408.6030147364934
 31
0.0
  0
LINE
  5
EB2
330
1E
100
AcDbEntity
  8
STEMPEL
  6
Continuous
100
AcDbLine
 10
170.5923844102974
 20
424.2502922961658
 30
0.0
 11
170.5923844102974
 21
408.737494751475
 31
0.0
  0
ARC
  5
EB3
330
1E
100
AcDbEntity
  8
STEMPEL
  6
Continuous
100
AcDbCircle
 10
195.5923844102974
 20
408.6692147032843
 30
0.0
 40
25.00009324312574
100
AcDbArc
 50
179.8435140456656
 51
201.1831543930358
  0
ARC
  5
EB4
330
1E
100
AcDbEntity
  8
STEMPEL
  6
Continuous
100
AcDbCircle
 10
195.5923844102974
 20
424.2502922961659
 30
0.0
 40
25.0
100
AcDbArc
 50
155.0418036876905
 51
180.0
  0
ARC
  5
EB5
330
1E
100
AcDbEntity
  8
STEMPEL
  6
Continuous
100
AcDbCircle
 10
167.8923844102996
 20
309.9820604629631
 30
0.0
 40
9.499999999999602
100
AcDbArc
 50
0.0
 51
30.68341710897518
  0
ARC
  5
EB6
330
1E
100
AcDbEntity
  8
STEMPEL
  6
Continuous
100
AcDbCircle
 10
167.8923844102996
 20
309.9820604629631
 30
0.0
 40
7.999999999999658
100
AcDbArc
 50
0.0
 51
30.68341710897518
  0
ARC
  5
EB7
330
1E
100
AcDbEntity
  8
STEMPEL
  6
Continuous
100
AcDbCircle
 10
185.0923844102992
 20
320.1879411207013
 30
0.0
 40
12.0
100
AcDbArc
 50
180.0
 51
210.6834171089752
  0
ARC
  5
EB8
330
1E
100
AcDbEntity
  8
STEMPEL
  6
Continuous
100
AcDbCircle
 10
185.0923844102992
 20
320.1879411207013
 30
0.0
 40
10.5
100
AcDbArc
 50
180.0
 51
210.6834171089752
  0
LINE
  5
EB9
330
1E
100
AcDbEntity
  8
STEMPEL
  6
Continuous
100
AcDbLine
 10
173.0923844102974
 20
395.2992147032842
 30
0.0
 11
173.0923844102992
 21
320.1879411207013
 31
0.0
  0
LINE
  5
EBA
330
1E
100
AcDbEntity
  8
STEMPEL
  6
Continuous
100
AcDbLine
 10
174.5923844102974
 20
395.2992147032842
 30
0.0
 11
174.5923844102992
 21
320.1879411207013
 31
0.0
  0
LINE
  5
EBB
330
1E
100
AcDbEntity
  8
HILF
  6
Continuous
100
AcDbLine
 10
178.638649885939
 20
312.92268708934
 30
0.0
 11
246.1461189346594
 21
312.92268708934
 31
0.0
  0
LINE
  5
EBC
330
1E
100
AcDbEntity
  8
HILF
  6
Continuous
100
AcDbLine
 10
248.8990517472479
 20
397.7806071995159
 30
0.0
 11
175.8857170733469
 21
397.7806071995159
 31
0.0
  0
LINE
  5
EBD
330
1E
100
AcDbEntity
  8
HILF
  6
Continuous
100
AcDbLine
 10
176.8552559547728
 20
317.4444090130524
 30
0.0
 11
247.9295128658217
 21
317.4444090130524
 31
0.0
  0
LINE
  5
EBE
330
1E
100
AcDbEntity
  8
STEMPEL
  6
Continuous
100
AcDbLine
 10
177.3923844102993
 20
309.9820604629629
 30
0.0
 11
177.3923844102975
 21
176.7992147032814
 31
0.0
  0
LINE
  5
EBF
330
1E
100
AcDbEntity
  8
STEMPEL
  6
Continuous
100
AcDbLine
 10
175.8923844102993
 20
309.9820604629631
 30
0.0
 11
175.8923844102975
 21
176.7337232889193
 31
0.0
  0
LINE
  5
EC0
330
1E
100
AcDbEntity
  8
STEMPEL
  6
Continuous
100
AcDbLine
 10
247.3923844102994
 20
309.9820604629631
 30
0.0
 11
247.3923844102975
 21
176.7992147032897
 31
0.0
  0
LINE
  5
EC1
330
1E
100
AcDbEntity
  8
STEMPEL
  6
Continuous
100
AcDbLine
 10
248.8923844102994
 20
309.9820604629633
 30
0.0
 11
248.8923844102975
 21
176.7992147032814
 31
0.0
  0
LINE
  5
EC2
330
1E
100
AcDbEntity
  8
STEMPEL
100
AcDbLine
 10
248.4606708489821
 20
171.7992147032814
 30
0.0
 11
176.3240979716121
 21
171.7992147032813
 31
0.0
  0
DIMENSION
  5
EC3
330
1E
100
AcDbEntity
  8
BEM
100
AcDbDimension
  2
*D3
 10
248.8923844102974
 20
153.8770514881919
 30
0.0
 11
212.3923844102975
 21
160.3770514881919
 31
0.0
 70
    32
  1
%%c<>
 71
     5
 42
72.99999999999989
  3
Standard
100
AcDbAlignedDimension
 13
175.8923844102975
 23
176.7337232889193
 33
0.0
 14
248.8923844102974
 24
176.7337232889192
 34
0.0
100
AcDbRotatedDimension
1001
ACAD
1000
DSTYLE
1002
{
1070
    40
1040
2.0
1070
    41
1040
3.5
1070
    42
1040
1.0
1070
    43
1040
7.0
1070
    44
1040
1.0
1070
    47
1040
0.7
1070
    48
1040
0.7
1070
    73
1070
     0
1070
    74
1070
     0
1070
    77
1070
     1
1070
    78
1070
     8
1070
    79
1070
     2
1070
   140
1040
3.5
1070
   141
1040
1.5
1070
   147
1040
1.5
1070
   172
1070
     1
1070
   178
1070
     1
1070
   179
1070
     2
1070
   279
1070
     0
1002
}
  0
LINE
  5
EC4
330
1E
100
AcDbEntity
  8
MITTEL
100
AcDbLine
 10
212.3923844102971
 20
448.7992147032821
 30
0.0
 11
212.3923844102971
 21
166.7992147032814
 31
0.0
  0
TEXT
  5
EC5
330
1E
100
AcDbEntity
  8
TEXT
 62
     1
100
AcDbText
 10
70.51269092167263
 20
512.9829976678254
 30
0.0
 40
7.0
  1
Losflansch DN70
 41
0.8
100
AcDbText
  0
LINE
  5
EC7
330
1E
100
AcDbEntity
  8
TEXT
 62
     2
100
AcDbLine
 10
60.54733113225688
 20
510.4108740951881
 30
0.0
 11
103.6730068103599
 21
440.7992147032817
 31
0.0
  0
LINE
  5
ECB
330
1E
100
AcDbEntity
  8
TEXT
 62
     2
100
AcDbLine
 10
60.54733113225688
 20
510.4108740951881
 30
0.0
 11
176.039678949287
 21
510.4108740951881
 31
0.0
  0
TEXT
  5
ECC
330
1E
100
AcDbEntity
  8
TEXT
 62
     1
100
AcDbText
 10
70.24723715390178
 20
500.7025673868727
 30
0.0
 40
7.0
  1
EDV-Art.Nr. 21905.070X
 41
0.8
100
AcDbText
  0
LINE
  5
ECD
330
1E
100
AcDbEntity
  8
TEXT
 62
     2
100
AcDbLine
 10
288.9626983924786
 20
402.4847372538008
 30
0.0
 11
275.8504678593481
 21
433.2992147032821
 31
0.0
  0
TEXT
  5
ECF
330
1E
100
AcDbEntity
  8
TEXT
 62
     1
100
AcDbText
 10
290.9506087911955
 20
393.5490898449855
 30
0.0
 40
7.0
  1
EDV-Art.Nr. 21920.070X
 41
0.8
  7
GREEKS
100
AcDbText
  0
TEXT
  5
ED0
330
1E
100
AcDbEntity
  8
TEXT
 62
     1
100
AcDbText
 10
291.5575684037872
 20
405.6635895661509
 30
0.0
 40
7.0
  1
Kompressionsdichtung
 41
0.8
  7
GREEKS
100
AcDbText
  0
LINE
  5
ED1
330
1E
100
AcDbEntity
  8
TEXT
 62
     2
100
AcDbLine
 10
288.9626983924786
 20
402.4847372538008
 30
0.0
 11
394.5603508683089
 21
402.4847372538008
 31
0.0
  0
LINE
  5
ED3
330
1E
100
AcDbEntity
  8
STEMPEL
100
AcDbLine
 10
295.8923844102971
 20
443.799214703282
 30
0.0
 11
295.8923844102971
 21
437.7992147032814
 31
0.0
  0
LINE
  5
ED4
330
1E
100
AcDbEntity
  8
STEMPEL
100
AcDbLine
 10
308.8923844102972
 20
443.799214703282
 30
0.0
 11
308.8923844102972
 21
437.7992147032812
 31
0.0
  0
LINE
  5
ED5
102
{ACAD_REACTORS
330
1146
102
}
330
1E
100
AcDbEntity
  8
STEMPEL
100
AcDbLine
 10
308.8923844102972
 20
434.7992147032811
 30
0.0
 11
308.8923844102972
 21
431.7992147032813
 31
0.0
  0
LINE
  5
ED6
102
{ACAD_REACTORS
330
1146
102
}
330
1E
100
AcDbEntity
  8
STEMPEL
100
AcDbLine
 10
295.8923844102971
 20
434.7992147032812
 30
0.0
 11
295.8923844102971
 21
431.7992147032812
 31
0.0
  0
LINE
  5
ED7
102
{ACAD_REACTORS
330
1146
102
}
330
1E
100
AcDbEntity
  8
STEMPEL
100
AcDbLine
 10
128.8923844102972
 20
434.7992147032814
 30
0.0
 11
128.8923844102971
 21
431.7992147032812
 31
0.0
  0
LINE
  5
ED8
102
{ACAD_REACTORS
330
1146
102
}
330
1E
100
AcDbEntity
  8
STEMPEL
100
AcDbLine
 10
115.8923844102971
 20
434.7992147032813
 30
0.0
 11
115.8923844102971
 21
431.7992147032813
 31
0.0
  0
LINE
  5
ED9
330
1E
100
AcDbEntity
  8
STEMPEL
100
AcDbLine
 10
128.8923844102971
 20
443.799214703282
 30
0.0
 11
128.8923844102971
 21
437.7992147032814
 31
0.0
  0
LINE
  5
EDA
330
1E
100
AcDbEntity
  8
STEMPEL
100
AcDbLine
 10
115.8923844102971
 20
443.799214703282
 30
0.0
 11
115.8923844102971
 21
437.7992147032814
 31
0.0
  0
LINE
  5
EDB
330
1E
100
AcDbEntity
  8
MITTEL
100
AcDbLine
 10
302.3923844102973
 20
461.7992147032812
 30
0.0
 11
302.3923844102973
 21
431.7992147032812
 31
0.0
  0
LINE
  5
EF0
330
1E
100
AcDbEntity
  8
STEMPEL
100
AcDbLine
 10
307.3923844102972
 20
443.7992147032821
 30
0.0
 11
307.3923844102972
 21
431.7992147032813
 31
0.0
  0
LINE
  5
EF1
330
1E
100
AcDbEntity
  8
HILF
100
AcDbLine
 10
306.3923844102972
 20
443.7992147032821
 30
0.0
 11
306.3923844102972
 21
431.7992147032813
 31
0.0
  0
LINE
  5
EF2
330
1E
100
AcDbEntity
  8
HILF
100
AcDbLine
 10
298.3923844102972
 20
443.7992147032821
 30
0.0
 11
298.3923844102972
 21
431.7992147032814
 31
0.0
  0
LINE
  5
EF3
330
1E
100
AcDbEntity
  8
STEMPEL
100
AcDbLine
 10
297.3923844102971
 20
443.7992147032821
 30
0.0
 11
297.3923844102972
 21
431.7992147032814
 31
0.0
  0
LINE
  5
EF6
330
1E
100
AcDbEntity
  8
MITTEL
100
AcDbLine
 10
257.3923844102973
 20
461.7992147032813
 30
0.0
 11
257.3923844102973
 21
431.7992147032812
 31
0.0
  0
LINE
  5
F0D
330
1E
100
AcDbEntity
  8
HILF
100
AcDbLine
 10
261.3923844102973
 20
437.7992147032814
 30
0.0
 11
261.3923844102973
 21
434.7992147032813
 31
0.0
  0
LINE
  5
F0E
330
1E
100
AcDbEntity
  8
STEMPEL
100
AcDbLine
 10
262.3923844102973
 20
437.7992147032814
 30
0.0
 11
262.3923844102973
 21
434.7992147032813
 31
0.0
  0
LINE
  5
F1F
330
1E
100
AcDbEntity
  8
MITTEL
100
AcDbLine
 10
167.392384410297
 20
461.7992147032814
 30
0.0
 11
167.392384410297
 21
431.7992147032813
 31
0.0
  0
LINE
  5
F20
330
1E
100
AcDbEntity
  8
HILF
100
AcDbLine
 10
163.392384410297
 20
437.7992147032814
 30
0.0
 11
163.392384410297
 21
434.7992147032814
 31
0.0
  0
LINE
  5
F21
330
1E
100
AcDbEntity
  8
STEMPEL
100
AcDbLine
 10
162.392384410297
 20
437.7992147032814
 30
0.0
 11
162.392384410297
 21
434.7992147032814
 31
0.0
  0
LINE
  5
F29
330
1E
100
AcDbEntity
  8
STEMPEL
100
AcDbLine
 10
127.3923844102971
 20
455.7992147032813
 30
0.0
 11
126.3923844102971
 21
456.7992147032813
 31
0.0
  0
LINE
  5
F2A
330
1E
100
AcDbEntity
  8
STEMPEL
100
AcDbLine
 10
118.3923844102971
 20
456.7992147032813
 30
0.0
 11
117.3923844102971
 21
455.7992147032813
 31
0.0
  0
LINE
  5
F2B
330
1E
100
AcDbEntity
  8
STEMPEL
100
AcDbLine
 10
117.3923844102971
 20
455.7992147032813
 30
0.0
 11
127.3923844102969
 21
455.7992147032813
 31
0.0
  0
LINE
  5
F2C
330
1E
100
AcDbEntity
  8
STEMPEL
100
AcDbLine
 10
126.3923844102971
 20
456.7992147032813
 30
0.0
 11
118.3923844102971
 21
456.7992147032813
 31
0.0
  0
LINE
  5
F34
330
1E
100
AcDbEntity
  8
STEMPEL
100
AcDbLine
 10
117.3923844102971
 20
443.799214703282
 30
0.0
 11
117.3923844102971
 21
431.7992147032813
 31
0.0
  0
LINE
  5
F35
330
1E
100
AcDbEntity
  8
HILF
100
AcDbLine
 10
118.3923844102971
 20
443.799214703282
 30
0.0
 11
118.3923844102971
 21
431.7992147032813
 31
0.0
  0
LINE
  5
F36
330
1E
100
AcDbEntity
  8
HILF
100
AcDbLine
 10
126.3923844102971
 20
443.799214703282
 30
0.0
 11
126.3923844102971
 21
431.7992147032812
 31
0.0
  0
LINE
  5
F37
330
1E
100
AcDbEntity
  8
STEMPEL
100
AcDbLine
 10
127.3923844102971
 20
443.799214703282
 30
0.0
 11
127.3923844102971
 21
431.7992147032812
 31
0.0
  0
LINE
  5
F3D
330
1E
100
AcDbEntity
  8
MITTEL
100
AcDbLine
 10
122.3923844102971
 20
461.7992147032814
 30
0.0
 11
122.3923844102971
 21
431.7992147032813
 31
0.0
  0
LINE
  5
F3E
330
1E
100
AcDbEntity
  8
STEMPEL
100
AcDbLine
 10
117.3923844102971
 20
455.7992147032813
 30
0.0
 11
117.3923844102971
 21
453.799214703282
 31
0.0
  0
LINE
  5
F3F
330
1E
100
AcDbEntity
  8
HILF
100
AcDbLine
 10
118.3923844102971
 20
456.7992147032812
 30
0.0
 11
118.3923844102972
 21
453.799214703282
 31
0.0
  0
LINE
  5
F40
330
1E
100
AcDbEntity
  8
STEMPEL
100
AcDbLine
 10
127.3923844102971
 20
455.7992147032813
 30
0.0
 11
127.3923844102972
 21
453.799214703282
 31
0.0
  0
LINE
  5
F41
330
1E
100
AcDbEntity
  8
HILF
100
AcDbLine
 10
126.3923844102971
 20
456.7992147032813
 30
0.0
 11
126.3923844102972
 21
453.799214703282
 31
0.0
  0
LINE
  5
F43
330
1E
100
AcDbEntity
  8
TEXT
 62
     2
100
AcDbLine
 10
279.0203721151485
 20
215.1442816000928
 30
0.0
 11
247.9731149167697
 21
200.1342271401488
 31
0.0
  0
LINE
  5
F44
330
1E
100
AcDbEntity
  8
TEXT
 62
     2
100
AcDbLine
 10
279.0203721151485
 20
215.1442816000928
 30
0.0
 11
382.7148310481795
 21
215.1442816000928
 31
0.0
  0
TEXT
  5
F45
330
1E
100
AcDbEntity
  8
TEXT
 62
     1
100
AcDbText
 10
280.3717412633247
 20
217.9459765947647
 30
0.0
 40
7.0
  1
Unterteil DN70
 41
0.8
  7
GREEKS
100
AcDbText
  0
TEXT
  5
F46
330
1E
100
AcDbEntity
  8
TEXT
 62
     1
100
AcDbText
 10
279.764781650733
 20
204.1975781168448
 30
0.0
 40
7.0
  1
EDV-Art.Nr. 21971.070X
 41
0.8
  7
GREEKS
100
AcDbText
  0
LINE
  5
F47
102
{ACAD_REACTORS
330
1146
102
}
330
1E
100
AcDbEntity
  8
STEMPEL
100
AcDbLine
 10
274.8923844102971
 20
434.7992147032812
 30
0.0
 11
274.8923844102971
 21
431.7992147032813
 31
0.0
  0
ARC
  5
F49
330
1E
100
AcDbEntity
  8
STEMPEL
100
AcDbCircle
 10
206.0285409864571
 20
456.7992147032815
 30
0.0
 40
1.0
100
AcDbArc
 50
0.1659131358906188
 51
90.0
  0
ARC
  5
F4A
330
1E
100
AcDbEntity
  8
STEMPEL
100
AcDbCircle
 10
186.5833783544339
 20
456.7992147032811
 30
0.0
 40
1.0
100
AcDbArc
 50
90.0
 51
179.8340868641094
  0
LINE
  5
F4B
330
1E
100
AcDbEntity
  8
STEMPEL
100
AcDbLine
 10
207.0285367938325
 20
456.8021104297281
 30
0.0
 11
207.0519637758325
 21
448.711952671096
 31
0.0
  0
LWPOLYLINE
  5
F4C
330
1E
100
AcDbEntity
  8
STEMPEL
100
AcDbPolyline
 90
       10
 70
   128
 43
0.0
 10
-208.6096243989412
 20
443.7992147032821
 10
-208.3270921039372
 20
443.8771599593399
 10
-208.0554545355328
 20
444.1013732932895
 10
-207.8029652637888
 20
444.4650420964362
 10
-207.5772960474614
 20
444.9571164762216
 10
-207.3853037314946
 20
445.5626450016176
 10
-207.2328219052563
 20
446.2632289947924
 10
-207.1244836518771
 20
447.0375815656258
 10
-207.0635807743642
 20
447.8621744030944
 10
-207.0519637758325
 20
448.711952671096
210
0.0
220
0.0
230
-1.0
  0
LINE
  5
F4D
330
1E
100
AcDbEntity
  8
HILF
100
AcDbLine
 10
187.1966279556786
 20
457.7992147032812
 30
0.0
 11
187.1704378777525
 21
448.7119526710937
 31
0.0
  0
LWPOLYLINE
  5
F4E
330
1E
100
AcDbEntity
  8
HILF
100
AcDbPolyline
 90
       10
 70
   128
 43
0.0
 10
185.6127772546438
 20
443.7992147032798
 10
185.8953095496478
 20
443.8771599593376
 10
186.1669471180522
 20
444.1013732932872
 10
186.4194363897962
 20
444.4650420964339
 10
186.6451056061236
 20
444.9571164762193
 10
186.8370979220904
 20
445.5626450016153
 10
186.9895797483287
 20
446.2632289947901
 10
187.0979180017079
 20
447.0375815656236
 10
187.1588208792208
 20
447.8621744030922
 10
187.1704378777525
 20
448.7119526710937
  0
LINE
  5
F4F
330
1E
100
AcDbEntity
  8
HILF
100
AcDbLine
 10
205.70806546013
 20
448.711952671096
 30
0.0
 11
188.0196541281182
 21
448.711952671096
 31
0.0
  0
LINE
  5
F50
330
1E
100
AcDbEntity
  8
MITTEL
100
AcDbLine
 10
196.468188959449
 20
462.7992147032814
 30
0.0
 11
196.468188959449
 21
437.7992147032814
 31
0.0
  0
LWPOLYLINE
  5
F51
330
1E
100
AcDbEntity
  8
STEMPEL
100
AcDbPolyline
 90
       10
 70
   128
 43
0.0
 10
184.0022949419499
 20
443.7992147032821
 10
184.284827236954
 20
443.8771599593399
 10
184.5564648053584
 20
444.1013732932895
 10
184.8089540771024
 20
444.4650420964362
 10
185.0346232934297
 20
444.9571164762216
 10
185.2266156093965
 20
445.5626450016176
 10
185.3790974356348
 20
446.2632289947924
 10
185.487435689014
 20
447.0375815656258
 10
185.5483385665269
 20
447.8621744030944
 10
185.5599555650586
 20
448.711952671096
  0
LINE
  5
F52
330
1E
100
AcDbEntity
  8
STEMPEL
100
AcDbLine
 10
185.5833825470585
 20
456.8021104297279
 30
0.0
 11
185.5599555650586
 21
448.711952671096
 31
0.0
  0
LINE
  5
F53
330
1E
100
AcDbEntity
  8
STEMPEL
100
AcDbLine
 10
186.5833783544339
 20
457.7992147032812
 30
0.0
 11
206.0285409864571
 21
457.7992147032815
 31
0.0
  0
LINE
  5
F55
102
{ACAD_REACTORS
330
1146
102
}
330
1E
100
AcDbEntity
  8
STEMPEL
100
AcDbLine
 10
334.8923844102971
 20
434.7992147032812
 30
0.0
 11
334.8923844102972
 21
431.7992147032813
 31
0.0
  0
ARC
  5
F56
330
1E
100
AcDbEntity
  8
STEMPEL
100
AcDbCircle
 10
324.3923844102972
 20
440.799214703282
 30
0.0
 40
3.0
100
AcDbArc
 50
270.0
 51
90.0
  0
ARC
  5
F57
330
1E
100
AcDbEntity
  8
STEMPEL
100
AcDbCircle
 10
277.8923844102969
 20
440.7992147032822
 30
0.0
 40
3.0
100
AcDbArc
 50
90.0
 51
270.0
  0
LINE
  5
F5A
330
1E
100
AcDbEntity
  8
STEMPEL
100
AcDbLine
 10
307.3923844102972
 20
437.7992147032812
 30
0.0
 11
324.3923844102972
 21
437.7992147032812
 31
0.0
  0
ARC
  5
F5B
330
1E
100
AcDbEntity
  8
STEMPEL
100
AcDbCircle
 10
146.8923844102974
 20
440.7992147032822
 30
0.0
 40
3.0
100
AcDbArc
 50
270.0
 51
90.0
  0
LINE
  5
F5D
102
{ACAD_REACTORS
330
1146
102
}
330
1E
100
AcDbEntity
  8
STEMPEL
100
AcDbLine
 10
149.8923844102972
 20
434.7992147032814
 30
0.0
 11
149.8923844102971
 21
431.7992147032813
 31
0.0
  0
LINE
  5
F5E
330
1E
100
AcDbEntity
  8
STEMPEL
100
AcDbLine
 10
127.3923844102971
 20
437.7992147032814
 30
0.0
 11
172.2836194851465
 21
437.7992147032814
 31
0.0
  0
POINT
  5
F61
330
1E
100
AcDbEntity
  8
BEM
100
AcDbPoint
 10
97.39238441029716
 20
440.799214703282
 30
0.0
  0
ARC
  5
F62
330
1E
100
AcDbEntity
  8
STEMPEL
100
AcDbCircle
 10
100.3923844102971
 20
440.799214703282
 30
0.0
 40
3.0
100
AcDbArc
 50
90.0
 51
270.0
  0
LINE
  5
F63
330
1E
100
AcDbEntity
  8
STEMPEL
100
AcDbLine
 10
100.3923844102971
 20
443.799214703282
 30
0.0
 11
324.3923844102972
 21
443.7992147032822
 31
0.0
  0
LINE
  5
F65
102
{ACAD_REACTORS
330
1146
102
}
330
1E
100
AcDbEntity
  8
STEMPEL
100
AcDbLine
 10
89.89238441029716
 20
434.7992147032813
 30
0.0
 11
89.89238441029716
 21
431.7992147032813
 31
0.0
  0
LINE
  5
F66
330
1E
100
AcDbEntity
  8
STEMPEL
100
AcDbLine
 10
100.3923844102971
 20
437.7992147032814
 30
0.0
 11
117.3923844102971
 21
437.7992147032814
 31
0.0
  0
LINE
  5
F69
102
{ACAD_REACTORS
330
1146
102
}
330
1E
100
AcDbEntity
  8
STEMPEL
100
AcDbLine
 10
89.89238441029716
 20
431.7992147032813
 30
0.0
 11
171.7593449379315
 21
431.7992147032813
 31
0.0
  0
TEXT
  5
F6B
330
1E
100
AcDbEntity
  8
TEXT
 62
     1
100
AcDbText
 10
344.0541866240674
 20
88.14901428913959
 30
0.0
 40
7.0
  1
21991070XW
 41
0.8
  7
GREEKS
 72
     1
 11
369.6541866240674
 21
88.14901428913959
 31
0.0
100
AcDbText
  0
LINE
  5
F6C
330
1E
100
AcDbEntity
  8
STEMPEL
100
AcDbLine
 10
332.0
 20
109.9999999999997
 30
0.0
 11
332.0
 21
40.0
 31
0.0
  0
TEXT
  5
F6D
330
1E
100
AcDbEntity
  8
TEXT
100
AcDbText
 10
234.877940380901
 20
102.5489328011779
 30
0.0
 40
5.0
  1
Benennung
 41
0.8
  7
GREEKS
100
AcDbText
  0
TEXT
  5
F6E
330
1E
100
AcDbEntity
  8
TEXT
100
AcDbText
 10
234.742238391136
 20
30.8456057019306
 30
0.0
 40
5.0
  1
Bauvorhaben
 41
0.8
  7
GREEKS
100
AcDbText
  0
TEXT
  5
F6F
330
1E
100
AcDbEntity
  8
TEXT
100
AcDbText
 10
234.9837501577827
 20
42.62974153022628
 30
0.0
 40
4.0
  1
21991070W.DWG
 41
0.8
  7
GREEKS
100
AcDbText
  0
LINE
  5
F70
330
1E
100
AcDbEntity
  8
STEMPEL
100
AcDbLine
 10
230.0
 20
110.0
 30
0.0
 11
230.0
 21
10.0
 31
0.0
  0
LINE
  5
F71
330
1E
100
AcDbEntity
  8
HILF
100
AcDbLine
 10
234.7736801096947
 20
84.03758247564139
 30
0.0
 11
324.8353916556311
 21
84.03758247564139
 31
0.0
  0
LINE
  5
F72
330
1E
100
AcDbEntity
  8
HILF
100
AcDbLine
 10
234.7736801096947
 20
70.0
 30
0.0
 11
324.835391655631
 21
70.0
 31
0.0
  0
LINE
  5
F73
330
1E
100
AcDbEntity
  8
HILF
100
AcDbLine
 10
234.7736801096947
 20
60.0
 30
0.0
 11
324.835391655631
 21
60.0
 31
0.0
  0
LINE
  5
F74
330
1E
100
AcDbEntity
  8
HILF
100
AcDbLine
 10
234.7736801096947
 20
50.0
 30
0.0
 11
324.835391655631
 21
50.0
 31
0.0
  0
TEXT
  5
F75
330
1E
100
AcDbEntity
  8
TEXT
 62
     1
100
AcDbText
 10
234.7710897819973
 20
87.41748789253779
 30
0.0
 40
7.0
  1
Unterteileinheit DN70
 41
0.8
  7
GREEKS
100
AcDbText
  0
TEXT
  5
F76
330
1E
100
AcDbEntity
  8
TEXT
100
AcDbText
 10
235.1296391125315
 20
51.64011943042158
 30
0.0
 40
5.0
  1
EDV-Art.Nr. 21991.070X
 41
0.8
  7
GREEKS
100
AcDbText
  0
LINE
  5
F77
330
1E
100
AcDbEntity
  8
VOLL
100
AcDbLine
 10
332.0
 20
60.0
 30
0.0
 11
410.0
 21
60.0
 31
0.0
  0
LINE
  5
F78
330
1E
100
AcDbEntity
  8
HILF
100
AcDbLine
 10
336.7238616296993
 20
83.77983636955827
 30
0.0
 11
404.8588839326728
 21
83.77983636955827
 31
0.0
  0
LINE
  5
F79
330
1E
100
AcDbEntity
  8
HILF
100
AcDbLine
 10
233.4909699289885
 20
14.89398258028314
 30
0.0
 11
404.8588839326728
 21
14.89398258028314
 31
0.0
  0
TEXT
  5
F7A
330
1E
100
AcDbEntity
  8
TEXT
100
AcDbText
 10
336.178754957634
 20
102.3132034537136
 30
0.0
 40
5.0
  1
Zeichnungs Nr.
 41
0.8
  7
GREEKS
100
AcDbText
  0
TEXT
  5
F7B
330
1E
100
AcDbEntity
  8
TEXT
100
AcDbText
 10
336.7238616296993
 20
73.1811823709997
 30
0.0
 40
5.0
  1
Ersatz für:
 41
0.8
  7
GREEKS
100
AcDbText
  0
TEXT
  5
F7C
330
1E
100
AcDbEntity
  8
TEXT
100
AcDbText
 10
337.2400861497006
 20
52.07416177878599
 30
0.0
 40
5.0
  1
ersetzt durch:
 41
0.8
  7
GREEKS
100
AcDbText
  0
LINE
  5
F7D
330
1E
100
AcDbEntity
  8
VOLL
100
AcDbLine
 10
190.0000000000001
 20
109.9999999999998
 30
0.0
 11
190.0
 21
40.0
 31
0.0
  0
TEXT
  5
F7E
330
1E
100
AcDbEntity
  8
TEXT
100
AcDbText
 10
148.622109822104
 20
73.14025471151666
 30
0.0
 40
4.0
  1
2011
 41
0.8
  7
GREEKS
100
AcDbText
  0
TEXT
  5
F7F
330
1E
100
AcDbEntity
  8
TEXT
100
AcDbText
 10
153.5163572150377
 20
102.4620895087088
 30
0.0
 40
5.0
  1
Maßstab
 41
0.8
  7
GREEKS
100
AcDbText
  0
TEXT
  5
F80
330
1E
100
AcDbEntity
  8
TEXT
 62
     1
100
AcDbText
 10
160.5006306481887
 20
88.14901428913959
 30
0.0
 40
7.0
  1
1:2
 41
0.8
  7
GREEKS
100
AcDbText
  0
TEXT
  5
F81
330
1E
100
AcDbEntity
  8
TEXT
100
AcDbText
 10
147.5515086571672
 20
53.68926291428374
 30
0.0
 40
4.0
  1
Gepr.
 41
0.8
  7
GREEKS
100
AcDbText
  0
TEXT
  5
F82
330
1E
100
AcDbEntity
  8
TEXT
100
AcDbText
 10
147.6006777387303
 20
43.5294638964981
 30
0.0
 40
4.0
  1
Norm.
 41
0.8
  7
GREEKS
100
AcDbText
  0
LINE
  5
F83
330
1E
100
AcDbEntity
  8
VOLL
100
AcDbLine
 10
164.0000000000001
 20
79.99999999999994
 30
0.0
 11
164.0000000000001
 21
40.0
 31
0.0
  0
TEXT
  5
F84
330
1E
100
AcDbEntity
  8
TEXT
100
AcDbText
 10
147.5836127167615
 20
63.62990369617967
 30
0.0
 40
4.0
  1
Gez.
 41
0.8
  7
GREEKS
100
AcDbText
  0
TEXT
  5
F85
330
1E
100
AcDbEntity
  8
TEXT
100
AcDbText
 10
172.331167315365
 20
73.31880501229926
 30
0.0
 40
4.0
  1
Tag
 41
0.8
  7
GREEKS
100
AcDbText
  0
TEXT
  5
F86
330
1E
100
AcDbEntity
  8
TEXT
100
AcDbText
 10
171.0085209177598
 20
63.10765040825732
 30
0.0
 40
4.0
  1
31.01.
 41
0.8
  7
GREEKS
 72
     1
 11
177.4085209177598
 21
63.10765040825732
 31
0.0
100
AcDbText
  0
LINE
  5
F87
330
1E
100
AcDbEntity
  8
STEMPEL
100
AcDbLine
 10
146.0000000000001
 20
109.9999999999999
 30
0.0
 11
146.0
 21
10.0
 31
0.0
  0
LINE
  5
F88
330
1E
100
AcDbEntity
  8
STEMPEL
100
AcDbLine
 10
410.0
 20
40.0
 30
0.0
 11
146.0000000000001
 21
40.0
 31
0.0
  0
LINE
  5
F89
330
1E
100
AcDbEntity
  8
STEMPEL
100
AcDbLine
 10
410.0
 20
80.0
 30
0.0
 11
146.0000000000001
 21
79.99999999999994
 31
0.0
  0
LINE
  5
F8A
330
1E
100
AcDbEntity
  8
HILF
100
AcDbLine
 10
146.0000000000001
 20
70.0
 30
0.0
 11
230.0
 21
70.0
 31
0.0
  0
LINE
  5
F8B
330
1E
100
AcDbEntity
  8
HILF
100
AcDbLine
 10
146.0000000000001
 20
60.0
 30
0.0
 11
230.0
 21
60.0
 31
0.0
  0
LINE
  5
F8C
330
1E
100
AcDbEntity
  8
HILF
100
AcDbLine
 10
146.0000000000001
 20
50.0
 30
0.0
 11
230.0
 21
50.0
 31
0.0
  0
TEXT
  5
F8D
330
1E
100
AcDbEntity
  8
TEXT
100
AcDbText
 10
194.2858954734051
 20
102.4184168434819
 30
0.0
 40
5.0
  1
Zul. Abw.
 41
0.8
  7
GREEKS
100
AcDbText
  0
TEXT
  5
F8E
330
1E
100
AcDbEntity
  8
TEXT
100
AcDbText
 10
202.4626584226295
 20
73.30961091915225
 30
0.0
 40
4.0
  1
Name
 41
0.8
  7
GREEKS
100
AcDbText
  0
TEXT
  5
F8F
330
1E
100
AcDbEntity
  8
TEXT
100
AcDbText
 10
204.4216048581257
 20
63.0896391972351
 30
0.0
 40
4.0
  1
Koeh
 41
0.8
  7
GREEKS
 72
     1
 11
209.6787477152686
 21
63.0896391972351
 31
0.0
100
AcDbText
  0
TEXT
  5
F90
330
1E
100
AcDbEntity
  8
TEXT
100
AcDbText
 10
192.626132208084
 20
90.76363841023022
 30
0.0
 40
4.0
  1
DIN EN1124-3
 41
0.8
  7
GREEKS
 72
     1
 11
209.6166083985602
 21
90.76363841023022
 31
0.0
100
AcDbText
  0
INSERT
  5
F91
330
1E
100
AcDbEntity
  8
STEMPEL
100
AcDbBlockReference
  2
LOGO
 10
150.9955485457794
 20
45.02105276448321
 30
0.0
 41
2.0
 42
2.0
 43
2.0
  0
HATCH
  5
FFF
330
1E
100
AcDbEntity
  8
SCHRAFF
100
AcDbHatch
 10
0.0
 20
0.0
 30
0.0
210
0.0
220
0.0
230
1.0
  2
NET
 70
     0
 71
     1
 91
        2
 92
        7
 72
     1
 73
     1
 93
       16
 10
250.4978578988772
 20
434.1662793588551
 42
0.0
 10
251.8577817385729
 20
434.7992147032846
 42
0.0
 10
254.192384410295
 20
434.7992147032846
 42
0.0
 10
251.6605576430722
 20
439.2902996001169
 42
0.7040385315423427
 10
249.8046381727107
 20
438.9728628809515
 42
0.0
 10
248.8923844102947
 20
433.7992147032845
 42
0.0
 10
248.8923844102948
 20
423.7992147032846
 42
-0.4142135623730951
 10
243.8923844102948
 20
418.7992147032846
 42
0.0
 10
243.8923844102948
 20
417.2992147032846
 42
0.0
 10
246.3923844102948
 20
417.2992147032846
 42
0.3056146845806997
 10
250.1004836538426
 20
419.7992147032846
 42
0.0758130451094089
 10
250.3790343521968
 20
420.9726840910398
 42
-1.021524369172015
 10
251.7390161867903
 20
421.1689214865427
 42
0.0
 10
252.120737314579
 20
419.3425877675271
 42
0.0
 10
252.6923844102973
 20
419.3425877675269
 42
0.0
 10
252.6923844102973
 20
424.2502922961658
 42
0.109333224602049
 97
       16
330
E9E
330
E73
330
E76
330
E75
330
E74
330
E70
330
E72
330
E6E
330
E87
330
E71
330
E6B
330
E6D
330
E6A
330
E6C
330
EA3
330
E9F
 92
        7
 72
     1
 73
     1
 93
       16
 10
175.8923844102947
 20
433.7992147032847
 42
0.0
 10
174.980130647879
 20
438.9728628809515
 42
0.7040385315425915
 10
173.1242111775174
 20
439.2902996001169
 42
0.0
 10
170.5923844102948
 20
434.7992147032845
 42
0.0
 10
172.9269870820218
 20
434.7992147032846
 42
0.0
 10
174.2869109217174
 20
434.1662793588552
 42
0.109333224602045
 10
172.0923844102974
 20
424.2502922961661
 42
0.0
 10
172.0923844102974
 20
419.342587767527
 42
0.0
 10
172.6640315060105
 20
419.3425877675269
 42
0.0
 10
173.0457526337989
 20
421.1689214865406
 42
-1.021524369173789
 10
174.4057344683927
 20
420.9726840910397
 42
0.0758130451093985
 10
174.6842851667469
 20
419.7992147032846
 42
0.3056146845806996
 10
178.3923844102947
 20
417.2992147032846
 42
0.0
 10
180.8923844102947
 20
417.2992147032846
 42
0.0
 10
180.8923844102947
 20
418.7992147032846
 42
-0.4142135623730951
 10
175.8923844102947
 20
423.7992147032846
 42
0.0
 97
       16
330
E77
330
E78
330
E7A
330
E79
330
EAC
330
EAD
330
EB1
330
E82
330
E81
330
E83
330
E7E
330
E7F
330
E87
330
E7D
330
E80
330
E84
 75
     0
 76
     1
 52
45.0
 41
15.0
 77
     0
 78
     2
 53
45.0
 43
0.0
 44
0.0
 45
-1.325825214724776
 46
1.325825214724776
 79
     0
 53
135.0
 43
0.0
 44
0.0
 45
-1.325825214724776
 46
-1.325825214724776
 79
     0
 47
0.2572070584757965
 98
        2
 10
249.8633383436936
 20
428.663243085348
 10
174.4501234082245
 20
429.4348646496839
  0
HATCH
  5
107B
330
1E
100
AcDbEntity
  8
SCHRAFF
100
AcDbHatch
 10
0.0
 20
0.0
 30
0.0
210
0.0
220
0.0
230
1.0
  2
_USER
 70
     0
 71
     0
 91
        2
 92
        7
 72
     1
 73
     1
 93
       20
 10
251.6923844102973
 20
395.2992147032842
 42
-0.0926930603363638
 10
252.5032234187392
 20
399.6354199918971
 42
0.0920044384191113
 10
254.1923844102973
 20
408.6009346550976
 42
0.0
 10
254.1923844102973
 20
424.2502922961658
 42
0.1093332246020759
 10
251.8577817385728
 20
434.7992147032845
 42
0.0
 10
250.4978578988773
 20
434.1662793588552
 42
-0.1093332246020449
 10
252.6923844102973
 20
424.2502922961661
 42
0.0
 10
252.6923844102973
 20
408.7354146700659
 42
-0.09340341087299
 10
251.1045782947942
 20
400.1774456529734
 42
0.092693060336346
 10
250.1923844102973
 20
395.2992147032849
 42
0.0
 10
250.1923844102953
 20
320.1879411207013
 42
-0.1346873523285341
 10
248.7223844102954
 20
314.8298537753887
 42
0.1346873523285088
 10
247.3923844102994
 20
309.9820604629631
 42
0.0
 10
247.3923844102975
 20
176.7992147032903
 42
0.0
 10
246.9549410926671
 20
171.7992147032814
 42
0.0
 10
248.4606708489821
 20
171.7992147032814
 42
0.0
 10
248.8923844102975
 20
176.7337232889272
 42
0.0
 10
248.8923844102994
 20
309.9820604629633
 42
-0.1346873523284958
 10
250.0123844102954
 20
314.0644127260582
 42
0.1346873523285353
 10
251.6923844102953
 20
320.1879411207013
 42
0.0
 97
        0
 92
        7
 72
     1
 73
     1
 93
       20
 10
174.5923844102974
 20
395.2992147032842
 42
0.0926930603363578
 10
173.6801905258005
 20
400.1774456529734
 42
-0.0934034108733116
 10
172.0923844102974
 20
408.7354146700959
 42
0.0
 10
172.0923844102974
 20
424.2502922961658
 42
-0.1093332246020489
 10
174.2869109217175
 20
434.1662793588551
 42
0.0
 10
172.9269870820219
 20
434.7992147032845
 42
0.1093332246020707
 10
170.5923844102974
 20
424.2502922961663
 42
0.0
 10
170.5923844102974
 20
408.6009346551079
 42
0.0920044384192177
 10
172.2815454018556
 20
399.6354199918969
 42
-0.0926930603363502
 10
173.0923844102974
 20
395.2992147032846
 42
0.0
 10
173.0923844102992
 20
320.1879411207013
 42
0.1346873523285349
 10
174.7723844102993
 20
314.0644127260583
 42
-0.1346873523285446
 10
175.8923844102993
 20
309.9820604629629
 42
0.0
 10
175.8923844102973
 20
176.7337232889188
 42
0.0
 10
176.3240979716121
 20
171.7992147032813
 42
0.0
 10
177.8298277279272
 20
171.7992147032813
 42
0.0
 10
177.3923844102975
 20
176.7992147032807
 42
0.0
 10
177.3923844102993
 20
309.9820604629629
 42
0.1346873523285383
 10
176.0623844102993
 20
314.8298537753885
 42
-0.1346873523285391
 10
174.5923844102992
 20
320.1879411207013
 42
0.0
 97
        0
 75
     0
 76
     0
 52
45.0
 41
2.0
 77
     0
 78
     1
 53
45.0
 43
-300.8298951794686
 44
0.0
 45
-1.414213562373094
 46
1.414213562373095
 79
     0
 47
0.5525947063543892
 98
        2
 10
250.723849867401
 20
380.5579347721664
 10
173.8606496219176
 20
344.0866831197236
  0
ARC
  5
10AD
330
1E
100
AcDbEntity
  8
STEMPEL
100
AcDbCircle
 10
122.3923844102971
 20
423.4883255708271
 30
0.0
 40
30.31088913245485
100
AcDbArc
 50
81.78678929826139
 51
98.2132107017378
  0
ARC
  5
10AE
330
1E
100
AcDbEntity
  8
STEMPEL
100
AcDbCircle
 10
115.8971938819138
 20
446.1049089954975
 30
0.0
 40
7.694305707784447
100
AcDbArc
 50
73.65710669401501
 51
106.342893305985
  0
ARC
  5
10AF
330
1E
100
AcDbEntity
  8
STEMPEL
100
AcDbCircle
 10
128.8875749386804
 20
446.1049089954975
 30
0.0
 40
7.694305707784447
100
AcDbArc
 50
73.65710669401501
 51
106.342893305985
  0
ARC
  5
10B0
330
1E
100
AcDbEntity
  8
HILF
100
AcDbCircle
 10
122.3923844102971
 20
423.9007536556207
 30
0.0
 40
22.41111549782308
100
AcDbArc
 50
78.85962783890537
 51
101.1403721610946
  0
ARC
  5
10B1
330
1E
100
AcDbEntity
  8
HILF
100
AcDbCircle
 10
128.8875749386804
 20
440.5507285537523
 30
0.0
 40
5.761140599691502
100
AcDbArc
 50
67.92594526326206
 51
112.0740547367379
  0
ARC
  5
10B2
330
1E
100
AcDbEntity
  8
HILF
100
AcDbCircle
 10
115.8971938819138
 20
440.5507285537523
 30
0.0
 40
5.761140599691502
100
AcDbArc
 50
67.92594526326206
 51
112.0740547367379
  0
POINT
  5
10B3
330
1E
100
AcDbEntity
  8
0
100
AcDbPoint
 10
122.3923844102971
 20
443.799214703282
 30
0.0
210
0.0000000000000001
220
1.0
230
0.0
  0
LINE
  5
10B4
330
1E
100
AcDbEntity
  8
STEMPEL
100
AcDbLine
 10
114.8923844102972
 20
453.799214703282
 30
0.0
 11
129.8923844102971
 21
453.799214703282
 31
0.0
  0
LINE
  5
10B5
330
1E
100
AcDbEntity
  8
STEMPEL
100
AcDbLine
 10
131.0526384481415
 20
445.8895712194818
 30
0.0
 11
131.0526384481415
 21
453.4883255708266
 31
0.0
  0
LINE
  5
10B6
330
1E
100
AcDbEntity
  8
STEMPEL
100
AcDbLine
 10
126.7225114292193
 20
445.8895712194818
 30
0.0
 11
126.7225114292193
 21
453.4883255708266
 31
0.0
  0
LINE
  5
10B7
330
1E
100
AcDbEntity
  8
STEMPEL
100
AcDbLine
 10
118.0622573913749
 20
445.8895712194818
 30
0.0
 11
118.0622573913749
 21
453.4883255708266
 31
0.0
  0
LINE
  5
10B8
330
1E
100
AcDbEntity
  8
STEMPEL
100
AcDbLine
 10
132.7988995177914
 20
445.2539841688714
 30
0.0
 11
111.9858693028029
 21
445.2539841688714
 31
0.0
  0
LINE
  5
10B9
330
1E
100
AcDbEntity
  8
STEMPEL
100
AcDbLine
 10
132.5423844102971
 20
443.799214703282
 30
0.0
 11
112.2423844102971
 21
443.799214703282
 31
0.0
  0
LINE
  5
10BA
330
1E
100
AcDbEntity
  8
STEMPEL
100
AcDbLine
 10
113.7321303724527
 20
445.8895712194818
 30
0.0
 11
113.7321303724527
 21
453.4883255708266
 31
0.0
  0
LINE
  5
10BB
330
1E
100
AcDbEntity
  8
STEMPEL
100
AcDbLine
 10
114.8923844102972
 20
453.799214703282
 30
0.0
 11
113.7321303724527
 21
453.4883255708266
 31
0.0
  0
LINE
  5
10BC
330
1E
100
AcDbEntity
  8
STEMPEL
100
AcDbLine
 10
131.0526384481415
 20
453.4883255708266
 30
0.0
 11
129.8923844102971
 21
453.799214703282
 31
0.0
  0
LINE
  5
10BD
330
1E
100
AcDbEntity
  8
STEMPEL
100
AcDbLine
 10
132.7988995177914
 20
445.2539841688714
 30
0.0
 11
131.0526384481415
 21
445.8895712194818
 31
0.0
  0
LINE
  5
10BE
330
1E
100
AcDbEntity
  8
STEMPEL
100
AcDbLine
 10
113.7321303724527
 20
445.8895712194818
 30
0.0
 11
111.9858693028029
 21
445.2539841688714
 31
0.0
  0
ARC
  5
10BF
330
1E
100
AcDbEntity
  8
STEMPEL
100
AcDbCircle
 10
112.2423844102971
 20
444.549214703282
 30
0.0
 40
0.7500000000000013
100
AcDbArc
 50
109.9999999999995
 51
269.9999991462263
  0
ARC
  5
10C0
330
1E
100
AcDbEntity
  8
STEMPEL
100
AcDbCircle
 10
132.5423844102971
 20
444.549214703282
 30
0.0
 40
0.750000000000001
100
AcDbArc
 50
269.9999991462263
 51
70.00000000000047
  0
ARC
  5
10C1
330
1E
100
AcDbEntity
  8
STEMPEL
100
AcDbCircle
 10
177.542384410297
 20
444.549214703282
 30
0.0
 40
0.750000000000001
100
AcDbArc
 50
269.9999991462263
 51
70.00000000000047
  0
ARC
  5
10C2
330
1E
100
AcDbEntity
  8
STEMPEL
100
AcDbCircle
 10
157.242384410297
 20
444.549214703282
 30
0.0
 40
0.7500000000000013
100
AcDbArc
 50
109.9999999999995
 51
269.9999991462263
  0
LINE
  5
10C3
330
1E
100
AcDbEntity
  8
STEMPEL
100
AcDbLine
 10
158.7321303724527
 20
445.8895712194818
 30
0.0
 11
156.9858693028028
 21
445.2539841688714
 31
0.0
  0
LINE
  5
10C4
330
1E
100
AcDbEntity
  8
STEMPEL
100
AcDbLine
 10
177.7988995177913
 20
445.2539841688714
 30
0.0
 11
176.0526384481414
 21
445.8895712194818
 31
0.0
  0
LINE
  5
10C5
330
1E
100
AcDbEntity
  8
STEMPEL
100
AcDbLine
 10
176.0526384481414
 20
453.4883255708266
 30
0.0
 11
174.892384410297
 21
453.799214703282
 31
0.0
  0
LINE
  5
10C6
330
1E
100
AcDbEntity
  8
STEMPEL
100
AcDbLine
 10
159.892384410297
 20
453.799214703282
 30
0.0
 11
158.7321303724527
 21
453.4883255708266
 31
0.0
  0
LINE
  5
10C7
330
1E
100
AcDbEntity
  8
STEMPEL
100
AcDbLine
 10
158.7321303724527
 20
445.8895712194818
 30
0.0
 11
158.7321303724527
 21
453.4883255708266
 31
0.0
  0
LINE
  5
10C8
330
1E
100
AcDbEntity
  8
STEMPEL
100
AcDbLine
 10
177.542384410297
 20
443.799214703282
 30
0.0
 11
157.242384410297
 21
443.799214703282
 31
0.0
  0
LINE
  5
10C9
330
1E
100
AcDbEntity
  8
STEMPEL
100
AcDbLine
 10
177.7988995177913
 20
445.2539841688714
 30
0.0
 11
156.9858693028028
 21
445.2539841688714
 31
0.0
  0
LINE
  5
10CA
330
1E
100
AcDbEntity
  8
STEMPEL
100
AcDbLine
 10
163.0622573913748
 20
445.8895712194818
 30
0.0
 11
163.0622573913748
 21
453.4883255708266
 31
0.0
  0
LINE
  5
10CB
330
1E
100
AcDbEntity
  8
STEMPEL
100
AcDbLine
 10
171.7225114292192
 20
445.8895712194818
 30
0.0
 11
171.7225114292192
 21
453.4883255708266
 31
0.0
  0
LINE
  5
10CC
330
1E
100
AcDbEntity
  8
STEMPEL
100
AcDbLine
 10
176.0526384481414
 20
445.8895712194818
 30
0.0
 11
176.0526384481414
 21
453.4883255708266
 31
0.0
  0
LINE
  5
10CD
330
1E
100
AcDbEntity
  8
STEMPEL
100
AcDbLine
 10
159.892384410297
 20
453.799214703282
 30
0.0
 11
174.892384410297
 21
453.799214703282
 31
0.0
  0
POINT
  5
10CE
330
1E
100
AcDbEntity
  8
0
100
AcDbPoint
 10
167.392384410297
 20
443.799214703282
 30
0.0
210
0.0000000000000001
220
1.0
230
0.0
  0
ARC
  5
10CF
330
1E
100
AcDbEntity
  8
HILF
100
AcDbCircle
 10
160.8971938819137
 20
440.5507285537523
 30
0.0
 40
5.761140599691502
100
AcDbArc
 50
67.92594526326206
 51
112.0740547367379
  0
ARC
  5
10D0
330
1E
100
AcDbEntity
  8
HILF
100
AcDbCircle
 10
173.8875749386803
 20
440.5507285537523
 30
0.0
 40
5.761140599691502
100
AcDbArc
 50
67.92594526326206
 51
112.0740547367379
  0
ARC
  5
10D1
330
1E
100
AcDbEntity
  8
HILF
100
AcDbCircle
 10
167.392384410297
 20
423.9007536556207
 30
0.0
 40
22.41111549782308
100
AcDbArc
 50
78.85962783890537
 51
101.1403721610946
  0
ARC
  5
10D2
330
1E
100
AcDbEntity
  8
STEMPEL
100
AcDbCircle
 10
173.8875749386803
 20
446.1049089954975
 30
0.0
 40
7.694305707784447
100
AcDbArc
 50
73.65710669401501
 51
106.342893305985
  0
ARC
  5
10D3
330
1E
100
AcDbEntity
  8
STEMPEL
100
AcDbCircle
 10
160.8971938819137
 20
446.1049089954975
 30
0.0
 40
7.694305707784447
100
AcDbArc
 50
73.65710669401501
 51
106.342893305985
  0
ARC
  5
10D4
330
1E
100
AcDbEntity
  8
STEMPEL
100
AcDbCircle
 10
167.392384410297
 20
423.4883255708271
 30
0.0
 40
30.31088913245485
100
AcDbArc
 50
81.78678929826139
 51
98.2132107017378
  0
LINE
  5
10D5
330
1E
100
AcDbEntity
  8
HILF
100
AcDbLine
 10
171.392384410297
 20
456.7992147032813
 30
0.0
 11
171.3923844102971
 21
453.799214703282
 31
0.0
  0
LINE
  5
10D6
330
1E
100
AcDbEntity
  8
STEMPEL
100
AcDbLine
 10
172.392384410297
 20
455.7992147032813
 30
0.0
 11
172.3923844102971
 21
453.799214703282
 31
0.0
  0
LINE
  5
10D7
330
1E
100
AcDbEntity
  8
HILF
100
AcDbLine
 10
163.392384410297
 20
456.7992147032812
 30
0.0
 11
163.3923844102971
 21
453.799214703282
 31
0.0
  0
LINE
  5
10D8
330
1E
100
AcDbEntity
  8
STEMPEL
100
AcDbLine
 10
162.392384410297
 20
455.7992147032813
 30
0.0
 11
162.392384410297
 21
453.799214703282
 31
0.0
  0
LINE
  5
10D9
330
1E
100
AcDbEntity
  8
STEMPEL
100
AcDbLine
 10
171.392384410297
 20
456.7992147032813
 30
0.0
 11
163.392384410297
 21
456.7992147032813
 31
0.0
  0
LINE
  5
10DA
330
1E
100
AcDbEntity
  8
STEMPEL
100
AcDbLine
 10
162.392384410297
 20
455.7992147032813
 30
0.0
 11
172.3923844102968
 21
455.7992147032813
 31
0.0
  0
LINE
  5
10DB
330
1E
100
AcDbEntity
  8
STEMPEL
100
AcDbLine
 10
163.392384410297
 20
456.7992147032813
 30
0.0
 11
162.392384410297
 21
455.7992147032813
 31
0.0
  0
LINE
  5
10DC
330
1E
100
AcDbEntity
  8
STEMPEL
100
AcDbLine
 10
172.392384410297
 20
455.7992147032813
 30
0.0
 11
171.392384410297
 21
456.7992147032813
 31
0.0
  0
ARC
  5
10DD
330
1E
100
AcDbEntity
  8
STEMPEL
100
AcDbCircle
 10
267.5423844102974
 20
444.5492147032819
 30
0.0
 40
0.750000000000001
100
AcDbArc
 50
269.9999991462263
 51
70.00000000000047
  0
ARC
  5
10DE
330
1E
100
AcDbEntity
  8
STEMPEL
100
AcDbCircle
 10
247.2423844102973
 20
444.5492147032819
 30
0.0
 40
0.7500000000000013
100
AcDbArc
 50
109.9999999999995
 51
269.9999991462263
  0
LINE
  5
10DF
330
1E
100
AcDbEntity
  8
STEMPEL
100
AcDbLine
 10
248.732130372453
 20
445.8895712194817
 30
0.0
 11
246.9858693028031
 21
445.2539841688713
 31
0.0
  0
LINE
  5
10E0
330
1E
100
AcDbEntity
  8
STEMPEL
100
AcDbLine
 10
267.7988995177916
 20
445.2539841688713
 30
0.0
 11
266.0526384481417
 21
445.8895712194817
 31
0.0
  0
LINE
  5
10E1
330
1E
100
AcDbEntity
  8
STEMPEL
100
AcDbLine
 10
266.0526384481417
 20
453.4883255708265
 30
0.0
 11
264.8923844102973
 21
453.7992147032818
 31
0.0
  0
LINE
  5
10E2
330
1E
100
AcDbEntity
  8
STEMPEL
100
AcDbLine
 10
249.8923844102974
 20
453.7992147032818
 30
0.0
 11
248.732130372453
 21
453.4883255708265
 31
0.0
  0
LINE
  5
10E3
330
1E
100
AcDbEntity
  8
STEMPEL
100
AcDbLine
 10
248.732130372453
 20
445.8895712194817
 30
0.0
 11
248.732130372453
 21
453.4883255708265
 31
0.0
  0
LINE
  5
10E4
330
1E
100
AcDbEntity
  8
STEMPEL
100
AcDbLine
 10
267.5423844102974
 20
443.7992147032819
 30
0.0
 11
247.2423844102973
 21
443.7992147032819
 31
0.0
  0
LINE
  5
10E5
330
1E
100
AcDbEntity
  8
STEMPEL
100
AcDbLine
 10
267.7988995177916
 20
445.2539841688713
 30
0.0
 11
246.985869302803
 21
445.2539841688713
 31
0.0
  0
LINE
  5
10E6
330
1E
100
AcDbEntity
  8
STEMPEL
100
AcDbLine
 10
253.0622573913751
 20
445.8895712194817
 30
0.0
 11
253.0622573913751
 21
453.4883255708265
 31
0.0
  0
LINE
  5
10E7
330
1E
100
AcDbEntity
  8
STEMPEL
100
AcDbLine
 10
261.7225114292196
 20
445.8895712194817
 30
0.0
 11
261.7225114292196
 21
453.4883255708265
 31
0.0
  0
LINE
  5
10E8
330
1E
100
AcDbEntity
  8
STEMPEL
100
AcDbLine
 10
266.0526384481417
 20
445.8895712194817
 30
0.0
 11
266.0526384481417
 21
453.4883255708265
 31
0.0
  0
LINE
  5
10E9
330
1E
100
AcDbEntity
  8
STEMPEL
100
AcDbLine
 10
249.8923844102974
 20
453.7992147032818
 30
0.0
 11
264.8923844102973
 21
453.7992147032818
 31
0.0
  0
POINT
  5
10EA
330
1E
100
AcDbEntity
  8
0
100
AcDbPoint
 10
257.3923844102973
 20
443.7992147032819
 30
0.0
210
0.0000000000000001
220
1.0
230
0.0
  0
ARC
  5
10EB
330
1E
100
AcDbEntity
  8
HILF
100
AcDbCircle
 10
250.897193881914
 20
440.5507285537522
 30
0.0
 40
5.761140599691502
100
AcDbArc
 50
67.92594526326206
 51
112.0740547367379
  0
ARC
  5
10EC
330
1E
100
AcDbEntity
  8
HILF
100
AcDbCircle
 10
263.8875749386806
 20
440.5507285537522
 30
0.0
 40
5.761140599691502
100
AcDbArc
 50
67.92594526326206
 51
112.0740547367379
  0
ARC
  5
10ED
330
1E
100
AcDbEntity
  8
HILF
100
AcDbCircle
 10
257.3923844102973
 20
423.9007536556206
 30
0.0
 40
22.41111549782308
100
AcDbArc
 50
78.85962783890537
 51
101.1403721610946
  0
ARC
  5
10EE
330
1E
100
AcDbEntity
  8
STEMPEL
100
AcDbCircle
 10
263.8875749386806
 20
446.1049089954975
 30
0.0
 40
7.694305707784447
100
AcDbArc
 50
73.65710669401501
 51
106.342893305985
  0
ARC
  5
10EF
330
1E
100
AcDbEntity
  8
STEMPEL
100
AcDbCircle
 10
250.897193881914
 20
446.1049089954975
 30
0.0
 40
7.694305707784447
100
AcDbArc
 50
73.65710669401501
 51
106.342893305985
  0
ARC
  5
10F0
330
1E
100
AcDbEntity
  8
STEMPEL
100
AcDbCircle
 10
257.3923844102973
 20
423.488325570827
 30
0.0
 40
30.31088913245485
100
AcDbArc
 50
81.78678929826139
 51
98.2132107017378
  0
LINE
  5
10F1
330
1E
100
AcDbEntity
  8
HILF
100
AcDbLine
 10
261.3923844102973
 20
456.7992147032812
 30
0.0
 11
261.3923844102974
 21
453.7992147032818
 31
0.0
  0
LINE
  5
10F2
330
1E
100
AcDbEntity
  8
STEMPEL
100
AcDbLine
 10
262.3923844102973
 20
455.7992147032812
 30
0.0
 11
262.3923844102974
 21
453.7992147032818
 31
0.0
  0
LINE
  5
10F3
330
1E
100
AcDbEntity
  8
HILF
100
AcDbLine
 10
253.3923844102973
 20
456.7992147032811
 30
0.0
 11
253.3923844102974
 21
453.7992147032818
 31
0.0
  0
LINE
  5
10F4
330
1E
100
AcDbEntity
  8
STEMPEL
100
AcDbLine
 10
252.3923844102973
 20
455.7992147032813
 30
0.0
 11
252.3923844102973
 21
453.7992147032818
 31
0.0
  0
LINE
  5
10F5
330
1E
100
AcDbEntity
  8
STEMPEL
100
AcDbLine
 10
261.3923844102973
 20
456.7992147032812
 30
0.0
 11
253.3923844102973
 21
456.7992147032812
 31
0.0
  0
LINE
  5
10F6
330
1E
100
AcDbEntity
  8
STEMPEL
100
AcDbLine
 10
252.3923844102973
 20
455.7992147032813
 30
0.0
 11
262.3923844102971
 21
455.7992147032813
 31
0.0
  0
LINE
  5
10F7
330
1E
100
AcDbEntity
  8
STEMPEL
100
AcDbLine
 10
253.3923844102973
 20
456.7992147032812
 30
0.0
 11
252.3923844102973
 21
455.7992147032813
 31
0.0
  0
LINE
  5
10F8
330
1E
100
AcDbEntity
  8
STEMPEL
100
AcDbLine
 10
262.3923844102973
 20
455.7992147032813
 30
0.0
 11
261.3923844102973
 21
456.7992147032812
 31
0.0
  0
ARC
  5
10F9
330
1E
100
AcDbEntity
  8
STEMPEL
100
AcDbCircle
 10
312.5423844102972
 20
444.5492147032818
 30
0.0
 40
0.750000000000001
100
AcDbArc
 50
269.9999991462263
 51
70.00000000000047
  0
ARC
  5
10FA
330
1E
100
AcDbEntity
  8
STEMPEL
100
AcDbCircle
 10
292.2423844102973
 20
444.5492147032818
 30
0.0
 40
0.7500000000000013
100
AcDbArc
 50
109.9999999999995
 51
269.9999991462263
  0
LINE
  5
10FB
330
1E
100
AcDbEntity
  8
STEMPEL
100
AcDbLine
 10
293.7321303724529
 20
445.8895712194816
 30
0.0
 11
291.9858693028031
 21
445.2539841688713
 31
0.0
  0
LINE
  5
10FC
330
1E
100
AcDbEntity
  8
STEMPEL
100
AcDbLine
 10
312.7988995177915
 20
445.2539841688713
 30
0.0
 11
311.0526384481417
 21
445.8895712194816
 31
0.0
  0
LINE
  5
10FD
330
1E
100
AcDbEntity
  8
STEMPEL
100
AcDbLine
 10
311.0526384481417
 20
453.4883255708265
 30
0.0
 11
309.8923844102973
 21
453.7992147032818
 31
0.0
  0
LINE
  5
10FE
330
1E
100
AcDbEntity
  8
STEMPEL
100
AcDbLine
 10
294.8923844102973
 20
453.7992147032818
 30
0.0
 11
293.7321303724529
 21
453.4883255708265
 31
0.0
  0
LINE
  5
10FF
330
1E
100
AcDbEntity
  8
STEMPEL
100
AcDbLine
 10
293.7321303724529
 20
445.8895712194816
 30
0.0
 11
293.7321303724529
 21
453.4883255708265
 31
0.0
  0
LINE
  5
1100
330
1E
100
AcDbEntity
  8
STEMPEL
100
AcDbLine
 10
312.5423844102972
 20
443.7992147032818
 30
0.0
 11
292.2423844102973
 21
443.7992147032818
 31
0.0
  0
LINE
  5
1101
330
1E
100
AcDbEntity
  8
STEMPEL
100
AcDbLine
 10
312.7988995177915
 20
445.2539841688713
 30
0.0
 11
291.985869302803
 21
445.2539841688713
 31
0.0
  0
LINE
  5
1102
330
1E
100
AcDbEntity
  8
STEMPEL
100
AcDbLine
 10
298.062257391375
 20
445.8895712194816
 30
0.0
 11
298.062257391375
 21
453.4883255708265
 31
0.0
  0
LINE
  5
1103
330
1E
100
AcDbEntity
  8
STEMPEL
100
AcDbLine
 10
306.7225114292195
 20
445.8895712194816
 30
0.0
 11
306.7225114292195
 21
453.4883255708265
 31
0.0
  0
LINE
  5
1104
330
1E
100
AcDbEntity
  8
STEMPEL
100
AcDbLine
 10
311.0526384481417
 20
445.8895712194816
 30
0.0
 11
311.0526384481417
 21
453.4883255708265
 31
0.0
  0
LINE
  5
1105
330
1E
100
AcDbEntity
  8
STEMPEL
100
AcDbLine
 10
294.8923844102973
 20
453.7992147032818
 30
0.0
 11
309.8923844102973
 21
453.7992147032818
 31
0.0
  0
POINT
  5
1106
330
1E
100
AcDbEntity
  8
0
100
AcDbPoint
 10
302.3923844102973
 20
443.7992147032818
 30
0.0
210
0.0000000000000001
220
1.0
230
0.0
  0
ARC
  5
1107
330
1E
100
AcDbEntity
  8
HILF
100
AcDbCircle
 10
295.8971938819139
 20
440.5507285537522
 30
0.0
 40
5.761140599691502
100
AcDbArc
 50
67.92594526326206
 51
112.0740547367379
  0
ARC
  5
1108
330
1E
100
AcDbEntity
  8
HILF
100
AcDbCircle
 10
308.8875749386806
 20
440.5507285537522
 30
0.0
 40
5.761140599691502
100
AcDbArc
 50
67.92594526326206
 51
112.0740547367379
  0
ARC
  5
1109
330
1E
100
AcDbEntity
  8
HILF
100
AcDbCircle
 10
302.3923844102973
 20
423.9007536556205
 30
0.0
 40
22.41111549782308
100
AcDbArc
 50
78.85962783890537
 51
101.1403721610946
  0
ARC
  5
110A
330
1E
100
AcDbEntity
  8
STEMPEL
100
AcDbCircle
 10
308.8875749386806
 20
446.1049089954974
 30
0.0
 40
7.694305707784447
100
AcDbArc
 50
73.65710669401501
 51
106.342893305985
  0
ARC
  5
110B
330
1E
100
AcDbEntity
  8
STEMPEL
100
AcDbCircle
 10
295.8971938819139
 20
446.1049089954974
 30
0.0
 40
7.694305707784447
100
AcDbArc
 50
73.65710669401501
 51
106.342893305985
  0
ARC
  5
110C
330
1E
100
AcDbEntity
  8
STEMPEL
100
AcDbCircle
 10
302.3923844102973
 20
423.4883255708269
 30
0.0
 40
30.31088913245485
100
AcDbArc
 50
81.78678929826139
 51
98.2132107017378
  0
LINE
  5
110D
330
1E
100
AcDbEntity
  8
HILF
100
AcDbLine
 10
306.3923844102973
 20
456.7992147032811
 30
0.0
 11
306.3923844102973
 21
453.7992147032818
 31
0.0
  0
LINE
  5
110E
330
1E
100
AcDbEntity
  8
STEMPEL
100
AcDbLine
 10
307.3923844102973
 20
455.7992147032811
 30
0.0
 11
307.3923844102973
 21
453.7992147032818
 31
0.0
  0
LINE
  5
110F
330
1E
100
AcDbEntity
  8
HILF
100
AcDbLine
 10
298.3923844102973
 20
456.7992147032811
 30
0.0
 11
298.3923844102973
 21
453.7992147032818
 31
0.0
  0
LINE
  5
1110
330
1E
100
AcDbEntity
  8
STEMPEL
100
AcDbLine
 10
297.3923844102973
 20
455.7992147032812
 30
0.0
 11
297.3923844102973
 21
453.7992147032818
 31
0.0
  0
LINE
  5
1111
330
1E
100
AcDbEntity
  8
STEMPEL
100
AcDbLine
 10
306.3923844102973
 20
456.7992147032811
 30
0.0
 11
298.3923844102973
 21
456.7992147032811
 31
0.0
  0
LINE
  5
1112
330
1E
100
AcDbEntity
  8
STEMPEL
100
AcDbLine
 10
297.3923844102973
 20
455.7992147032812
 30
0.0
 11
307.392384410297
 21
455.7992147032812
 31
0.0
  0
LINE
  5
1113
330
1E
100
AcDbEntity
  8
STEMPEL
100
AcDbLine
 10
298.3923844102973
 20
456.7992147032811
 30
0.0
 11
297.3923844102973
 21
455.7992147032812
 31
0.0
  0
LINE
  5
1114
330
1E
100
AcDbEntity
  8
STEMPEL
100
AcDbLine
 10
307.3923844102973
 20
455.7992147032812
 30
0.0
 11
306.3923844102973
 21
456.7992147032811
 31
0.0
  0
LINE
  5
111E
102
{ACAD_REACTORS
330
1146
102
}
330
1E
100
AcDbEntity
  8
STEMPEL
100
AcDbLine
 10
253.0254238826632
 20
434.7992147032812
 30
0.0
 11
297.3923844102971
 21
434.7992147032811
 31
0.0
  0
LINE
  5
111F
102
{ACAD_REACTORS
330
1146
102
}
330
1E
100
AcDbEntity
  8
STEMPEL
100
AcDbLine
 10
307.3923844102973
 20
434.7992147032813
 30
0.0
 11
334.8923844102971
 21
434.7992147032812
 31
0.0
  0
LINE
  5
1132
102
{ACAD_REACTORS
330
1146
102
}
330
1E
100
AcDbEntity
  8
STEMPEL
100
AcDbLine
 10
89.89238441029716
 20
434.7992147032813
 30
0.0
 11
117.3923844102971
 21
434.7992147032813
 31
0.0
  0
LINE
  5
1133
102
{ACAD_REACTORS
330
1146
102
}
330
1E
100
AcDbEntity
  8
STEMPEL
100
AcDbLine
 10
127.3923844102971
 20
434.7992147032814
 30
0.0
 11
171.7593449379315
 21
434.7992147032813
 31
0.0
  0
HATCH
  5
1146
330
1E
100
AcDbEntity
  8
SCHRAFF
100
AcDbHatch
 10
0.0
 20
0.0
 30
0.0
210
0.0
220
0.0
230
1.0
  2
NET
 70
     0
 71
     1
 91
        4
 92
        7
 72
     0
 73
     1
 93
        4
 10
334.892384410297
 20
434.7992147032812
 10
308.8923844102972
 20
434.7992147032811
 10
308.8923844102971
 20
431.7992147032811
 10
334.8923844102972
 20
431.7992147032811
 97
        4
330
111F
330
ED5
330
E55
330
F55
 92
        7
 72
     0
 73
     1
 93
        4
 10
295.8923844102971
 20
434.7992147032811
 10
274.8923844102971
 20
434.7992147032812
 10
274.8923844102971
 20
431.7992147032811
 10
295.8923844102971
 20
431.7992147032811
 97
        4
330
111E
330
F47
330
E55
330
ED6
 92
        7
 72
     0
 73
     1
 93
        4
 10
149.8923844102972
 20
434.7992147032814
 10
128.8923844102972
 20
434.7992147032814
 10
128.8923844102971
 20
431.7992147032813
 10
149.8923844102971
 20
431.7992147032813
 97
        4
330
1133
330
ED7
330
F69
330
F5D
 92
        7
 72
     0
 73
     1
 93
        4
 10
115.8923844102971
 20
434.7992147032813
 10
89.89238441029714
 20
434.7992147032813
 10
89.89238441029716
 20
431.7992147032814
 10
115.8923844102971
 20
431.7992147032813
 97
        4
330
1132
330
F65
330
F69
330
ED8
 75
     0
 76
     1
 52
45.0
 41
15.0
 77
     0
 78
     2
 53
45.0
 43
0.0
 44
0.0
 45
-1.325825214724776
 46
1.325825214724776
 79
     0
 53
135.0
 43
0.0
 44
0.0
 45
-1.325825214724776
 46
-1.325825214724776
 79
     0
 47
0.3122569881655028
 98
        4
 10
311.6776321685288
 20
432.5997271879775
 10
290.4369529556561
 20
433.2242406921311
 10
134.567843946696
 20
434.1610109483615
 10
108.0169943443902
 20
432.9119839400544
  0
ENDSEC
  0
SECTION
  2
OBJECTS
  0
DICTIONARY
  5
C
330
0
100
AcDbDictionary
281
     1
  3
ACAD_COLOR
350
DF
  3
ACAD_GROUP
350
D
  3
ACAD_LAYOUT
350
19
  3
ACAD_MATERIAL
350
DE
  3
ACAD_MLINESTYLE
350
16
  3
ACAD_PLOTSETTINGS
350
18
  3
ACAD_PLOTSTYLENAME
350
E
  3
AcDbVariableDictionary
350
EA
  0
DICTIONARY
  5
A0
330
1E
100
AcDbDictionary
280
     1
281
     1
  3
ACAD_LAYOUTSELFREF
360
D4
  0
DICTIONARY
  5
A2
330
1A
100
AcDbDictionary
280
     1
281
     1
  3
ACAD_LAYOUTSELFREF
360
D3
  0
DICTIONARY
  5
DF
102
{ACAD_REACTORS
330
C
102
}
330
C
100
AcDbDictionary
281
     1
  0
DICTIONARY
  5
D
102
{ACAD_REACTORS
330
C
102
}
330
C
100
AcDbDictionary
281
     1
  0
DICTIONARY
  5
19
102
{ACAD_REACTORS
330
C
102
}
330
C
100
AcDbDictionary
281
     1
  3
Layout1
350
1D
  3
Model
350
21
  0
DICTIONARY
  5
DE
102
{ACAD_REACTORS
330
C
102
}
330
C
100
AcDbDictionary
281
     1
  0
DICTIONARY
  5
16
102
{ACAD_REACTORS
330
C
102
}
330
C
100
AcDbDictionary
281
     1
  3
Standard
350
17
  0
DICTIONARY
  5
18
102
{ACAD_REACTORS
330
C
102
}
330
C
100
AcDbDictionary
281
     1
  0
ACDBDICTIONARYWDFLT
  5
E
102
{ACAD_REACTORS
330
C
102
}
330
C
100
AcDbDictionary
281
     1
  3
Normal
350
F
100
AcDbDictionaryWithDefault
340
F
  0
DICTIONARY
  5
EA
102
{ACAD_REACTORS
330
C
102
}
330
C
100
AcDbDictionary
281
     1
  3
DIMASSOC
350
EB
  3
PROJECTNAME
350
EC
  0
XRECORD
  5
D4
102
{ACAD_REACTORS
330
A0
102
}
330
A0
100
AcDbXrecord
280
     1
340
1E
  0
XRECORD
  5
D3
102
{ACAD_REACTORS
330
A2
102
}
330
A2
100
AcDbXrecord
280
     1
340
1A
  0
LAYOUT
  5
1D
102
{ACAD_REACTORS
330
19
102
}
330
19
100
AcDbPlotSettings
  1

  2
\\NT_WORK01\HP LaserJet 5000 PCL 6
  4

  6

 40
0.0
 41
0.0
 42
0.0
 43
0.0
 44
0.0
 45
0.0
 46
0.0
 47
0.0
 48
0.0
 49
0.0
140
0.0
141
0.0
142
1.0
143
1.0
 70
   688
 72
     0
 73
     0
 74
     5
  7

 75
    16
147
1.0
 76
     0
 77
     2
 78
   300
148
0.0
149
0.0
100
AcDbLayout
  1
Layout1
 70
     0
 71
     1
 10
0.0
 20
0.0
 11
12.0
 21
9.0
 12
0.0
 22
0.0
 32
0.0
 14
1.000000000000000E+20
 24
1.000000000000000E+20
 34
1.000000000000000E+20
 15
-1.000000000000000E+20
 25
-1.000000000000000E+20
 35
-1.000000000000000E+20
146
0.0
 13
0.0
 23
0.0
 33
0.0
 16
1.0
 26
0.0
 36
0.0
 17
0.0
 27
1.0
 37
0.0
 76
     0
330
1A
  0
LAYOUT
  5
21
102
{ACAD_REACTORS
330
19
102
}
330
19
100
AcDbPlotSettings
  1

  2
\\NT_WORK01\HP LaserJet 5000 PCL 6
  4

  6

 40
0.0
 41
0.0
 42
0.0
 43
0.0
 44
0.0
 45
0.0
 46
0.0
 47
0.0
 48
0.0
 49
0.0
140
0.0
141
0.0
142
1.0
143
1.0
 70
  1712
 72
     0
 73
     0
 74
     0
  7

 75
     0
147
1.0
 76
     0
 77
     2
 78
   300
148
0.0
149
0.0
100
AcDbLayout
  1
Model
 70
     1
 71
     0
 10
0.0
 20
0.0
 11
12.0
 21
9.0
 12
0.0
 22
0.0
 32
0.0
 14
0.0
 24
0.0
 34
0.0
 15
0.0
 25
0.0
 35
0.0
146
0.0
 13
0.0
 23
0.0
 33
0.0
 16
1.0
 26
0.0
 36
0.0
 17
0.0
 27
1.0
 37
0.0
 76
     0
330
1E
  0
MLINESTYLE
  5
17
102
{ACAD_REACTORS
330
16
102
}
330
16
100
AcDbMlineStyle
  2
STANDARD
 70
     0
  3

 62
   256
 51
90.0
 52
90.0
 71
     2
 49
0.5
 62
   256
  6
BYLAYER
 49
-0.5
 62
   256
  6
BYLAYER
  0
ACDBPLACEHOLDER
  5
F
102
{ACAD_REACTORS
330
E
102
}
330
E
  0
DICTIONARYVAR
  5
EB
102
{ACAD_REACTORS
330
EA
102
}
330
EA
100
DictionaryVariables
280
     0
  1
1
  0
DICTIONARYVAR
  5
EC
102
{ACAD_REACTORS
330
EA
102
}
330
EA
100
DictionaryVariables
280
     0
  1

  0
ENDSEC
  0
EOF
