  0
SECTION
  2
HEADER
  9
$ACADVER
  1
AC1018
  9
$ACADMAINTVER
 70
   104
  9
$DWGCODEPAGE
  3
ANSI_1252
  9
$LASTSAVEDBY
  1
w.koehlhoff
  9
$INSBASE
 10
0.0
 20
0.0
 30
0.0
  9
$EXTMIN
 10
-0.0093036336007799
 20
-0.0222083442329222
 30
-0.0000000000000129
  9
$EXTMAX
 10
420.0126953933486
 20
594.0382924635378
 30
0.0000000000000023
  9
$LIMMIN
 10
0.0
 20
0.0
  9
$LIMMAX
 10
419.9999999999999
 20
594.0
  9
$ORTHOMODE
 70
     1
  9
$REGENMODE
 70
     1
  9
$FILLMODE
 70
     1
  9
$QTEXTMODE
 70
     0
  9
$MIRRTEXT
 70
     1
  9
$LTSCALE
 40
20.0
  9
$ATTMODE
 70
     1
  9
$TEXTSIZE
 40
2.5
  9
$TRACEWID
 40
0.5
  9
$TEXTSTYLE
  7
GREEKS
  9
$CLAYER
  8
SCHRAFF
  9
$CELTYPE
  6
BYLAYER
  9
$CECOLOR
 62
   256
  9
$CELTSCALE
 40
1.0
  9
$DISPSILH
 70
     0
  9
$DIMSCALE
 40
2.0
  9
$DIMASZ
 40
3.5
  9
$DIMEXO
 40
1.0
  9
$DIMDLI
 40
8.0
  9
$DIMRND
 40
0.0
  9
$DIMDLE
 40
0.0
  9
$DIMEXE
 40
1.5
  9
$DIMTP
 40
2.0
  9
$DIMTM
 40
2.0
  9
$DIMTXT
 40
3.5
  9
$DIMCEN
 40
1.5
  9
$DIMTSZ
 40
0.0
  9
$DIMTOL
 70
     0
  9
$DIMLIM
 70
     0
  9
$DIMTIH
 70
     0
  9
$DIMTOH
 70
     0
  9
$DIMSE1
 70
     0
  9
$DIMSE2
 70
     0
  9
$DIMTAD
 70
     1
  9
$DIMZIN
 70
     8
  9
$DIMBLK
  1

  9
$DIMASO
 70
     1
  9
$DIMSHO
 70
     0
  9
$DIMPOST
  1

  9
$DIMAPOST
  1

  9
$DIMALT
 70
     0
  9
$DIMALTD
 70
     2
  9
$DIMALTF
 40
25.4
  9
$DIMLFAC
 40
1.0
  9
$DIMTOFL
 70
     1
  9
$DIMTVP
 40
0.0
  9
$DIMTIX
 70
     0
  9
$DIMSOXD
 70
     0
  9
$DIMSAH
 70
     0
  9
$DIMBLK1
  1

  9
$DIMBLK2
  1

  9
$DIMSTYLE
  2
STANDARD
  9
$DIMCLRD
 70
     0
  9
$DIMCLRE
 70
     0
  9
$DIMCLRT
 70
     1
  9
$DIMTFAC
 40
1.0
  9
$DIMGAP
 40
1.5
  9
$DIMJUST
 70
     0
  9
$DIMSD1
 70
     0
  9
$DIMSD2
 70
     0
  9
$DIMTOLJ
 70
     1
  9
$DIMTZIN
 70
     8
  9
$DIMALTZ
 70
     8
  9
$DIMALTTZ
 70
     8
  9
$DIMUPT
 70
     0
  9
$DIMDEC
 70
     1
  9
$DIMTDEC
 70
     2
  9
$DIMALTU
 70
     2
  9
$DIMALTTD
 70
     2
  9
$DIMTXSTY
  7
GREEKS
  9
$DIMAUNIT
 70
     0
  9
$DIMADEC
 70
     0
  9
$DIMALTRND
 40
0.0
  9
$DIMAZIN
 70
     0
  9
$DIMDSEP
 70
    46
  9
$DIMATFIT
 70
     0
  9
$DIMFRAC
 70
     0
  9
$DIMLDRBLK
  1

  9
$DIMLUNIT
 70
     2
  9
$DIMLWD
 70
    -2
  9
$DIMLWE
 70
    -2
  9
$DIMTMOVE
 70
     0
  9
$LUNITS
 70
     2
  9
$LUPREC
 70
     2
  9
$SKETCHINC
 40
1.0
  9
$FILLETRAD
 40
13.5
  9
$AUNITS
 70
     0
  9
$AUPREC
 70
     0
  9
$MENU
  1
ACAD
  9
$ELEVATION
 40
0.0
  9
$PELEVATION
 40
0.0
  9
$THICKNESS
 40
0.0
  9
$LIMCHECK
 70
     0
  9
$CHAMFERA
 40
0.0
  9
$CHAMFERB
 40
0.0
  9
$CHAMFERC
 40
0.0
  9
$CHAMFERD
 40
0.0
  9
$SKPOLY
 70
     0
  9
$TDCREATE
 40
2452389.674061226
  9
$TDUCREATE
 40
2452389.590727894
  9
$TDUPDATE
 40
2456532.565942685
  9
$TDUUPDATE
 40
2456532.482609352
  9
$TDINDWG
 40
1.5344937384
  9
$TDUSRTIMER
 40
1.5344937384
  9
$USRTIMER
 70
     1
  9
$ANGBASE
 50
0.0
  9
$ANGDIR
 70
     0
  9
$PDMODE
 70
     0
  9
$PDSIZE
 40
0.0
  9
$PLINEWID
 40
0.0
  9
$SPLFRAME
 70
     0
  9
$SPLINETYPE
 70
     6
  9
$SPLINESEGS
 70
     8
  9
$HANDSEED
  5
2401
  9
$SURFTAB1
 70
     6
  9
$SURFTAB2
 70
     6
  9
$SURFTYPE
 70
     6
  9
$SURFU
 70
     6
  9
$SURFV
 70
     6
  9
$UCSBASE
  2

  9
$UCSNAME
  2

  9
$UCSORG
 10
0.0
 20
0.0
 30
0.0
  9
$UCSXDIR
 10
1.0
 20
0.0
 30
0.0
  9
$UCSYDIR
 10
0.0
 20
1.0
 30
0.0
  9
$UCSORTHOREF
  2

  9
$UCSORTHOVIEW
 70
     0
  9
$UCSORGTOP
 10
0.0
 20
0.0
 30
0.0
  9
$UCSORGBOTTOM
 10
0.0
 20
0.0
 30
0.0
  9
$UCSORGLEFT
 10
0.0
 20
0.0
 30
0.0
  9
$UCSORGRIGHT
 10
0.0
 20
0.0
 30
0.0
  9
$UCSORGFRONT
 10
0.0
 20
0.0
 30
0.0
  9
$UCSORGBACK
 10
0.0
 20
0.0
 30
0.0
  9
$PUCSBASE
  2

  9
$PUCSNAME
  2

  9
$PUCSORG
 10
0.0
 20
0.0
 30
0.0
  9
$PUCSXDIR
 10
1.0
 20
0.0
 30
0.0
  9
$PUCSYDIR
 10
0.0
 20
1.0
 30
0.0
  9
$PUCSORTHOREF
  2

  9
$PUCSORTHOVIEW
 70
     0
  9
$PUCSORGTOP
 10
0.0
 20
0.0
 30
0.0
  9
$PUCSORGBOTTOM
 10
0.0
 20
0.0
 30
0.0
  9
$PUCSORGLEFT
 10
0.0
 20
0.0
 30
0.0
  9
$PUCSORGRIGHT
 10
0.0
 20
0.0
 30
0.0
  9
$PUCSORGFRONT
 10
0.0
 20
0.0
 30
0.0
  9
$PUCSORGBACK
 10
0.0
 20
0.0
 30
0.0
  9
$USERI1
 70
     0
  9
$USERI2
 70
     0
  9
$USERI3
 70
     0
  9
$USERI4
 70
     0
  9
$USERI5
 70
     0
  9
$USERR1
 40
0.0
  9
$USERR2
 40
0.0
  9
$USERR3
 40
0.0
  9
$USERR4
 40
0.0
  9
$USERR5
 40
0.0
  9
$WORLDVIEW
 70
     1
  9
$SHADEDGE
 70
     3
  9
$SHADEDIF
 70
    70
  9
$TILEMODE
 70
     1
  9
$MAXACTVP
 70
    16
  9
$PINSBASE
 10
2.245140564963854
 20
50.00000000000001
 30
-1.032422173993944
  9
$PLIMCHECK
 70
     0
  9
$PEXTMIN
 10
1.000000000000000E+20
 20
1.000000000000000E+20
 30
1.000000000000000E+20
  9
$PEXTMAX
 10
-1.000000000000000E+20
 20
-1.000000000000000E+20
 30
-1.000000000000000E+20
  9
$PLIMMIN
 10
0.0
 20
0.0
  9
$PLIMMAX
 10
12.0
 20
9.0
  9
$UNITMODE
 70
     0
  9
$VISRETAIN
 70
     0
  9
$PLINEGEN
 70
     0
  9
$PSLTSCALE
 70
     0
  9
$TREEDEPTH
 70
  3020
  9
$CMLSTYLE
  2
STANDARD
  9
$CMLJUST
 70
     0
  9
$CMLSCALE
 40
1.0
  9
$PROXYGRAPHICS
 70
     1
  9
$MEASUREMENT
 70
     0
  9
$CELWEIGHT
370
    -1
  9
$ENDCAPS
280
     0
  9
$JOINSTYLE
280
     0
  9
$LWDISPLAY
290
     0
  9
$INSUNITS
 70
     0
  9
$HYPERLINKBASE
  1

  9
$STYLESHEET
  1
monochrome1.ctb
  9
$XEDIT
290
     1
  9
$CEPSNTYPE
380
     0
  9
$PSTYLEMODE
290
     1
  9
$FINGERPRINTGUID
  2
{68457F4B-03E9-4735-8395-1C9740B72853}
  9
$VERSIONGUID
  2
{3885BBDC-648D-42EF-8210-ACB8862A9EFD}
  9
$EXTNAMES
290
     1
  9
$PSVPSCALE
 40
0.0
  9
$OLESTARTUP
290
     0
  9
$SORTENTS
280
    96
  9
$INDEXCTL
280
     0
  9
$HIDETEXT
280
     0
  9
$XCLIPFRAME
290
     0
  9
$HALOGAP
280
     0
  9
$OBSCOLOR
 70
   257
  9
$OBSLTYPE
280
     0
  9
$INTERSECTIONDISPLAY
280
     0
  9
$INTERSECTIONCOLOR
 70
   257
  9
$DIMASSOC
280
     1
  9
$PROJECTNAME
  1

  0
ENDSEC
  0
SECTION
  2
CLASSES
  0
CLASS
  1
DICTIONARYVAR
  2
AcDbDictionaryVar
  3
ObjectDBX Classes
 90
        0
 91
        8
280
     0
281
     0
  0
CLASS
  1
ACDBDICTIONARYWDFLT
  2
AcDbDictionaryWithDefault
  3
ObjectDBX Classes
 90
        0
 91
        1
280
     1
281
     0
  0
CLASS
  1
MATERIAL
  2
AcDbMaterial
  3
ObjectDBX Classes
 90
     1153
 91
        3
280
     0
281
     0
  0
CLASS
  1
VISUALSTYLE
  2
AcDbVisualStyle
  3
ObjectDBX Classes
 90
     4095
 91
       24
280
     0
281
     0
  0
CLASS
  1
TABLESTYLE
  2
AcDbTableStyle
  3
ObjectDBX Classes
 90
     4095
 91
        1
280
     0
281
     0
  0
CLASS
  1
SCALE
  2
AcDbScale
  3
ObjectDBX Classes
 90
     1153
 91
       17
280
     0
281
     0
  0
CLASS
  1
MLEADERSTYLE
  2
AcDbMLeaderStyle
  3
ACDB_MLEADERSTYLE_CLASS
 90
     4095
 91
        1
280
     0
281
     0
  0
CLASS
  1
ACDBSECTIONVIEWSTYLE
  2
AcDbSectionViewStyle
  3
ObjectDBX Classes
 90
     1025
 91
        1
280
     0
281
     0
  0
CLASS
  1
ACDBDETAILVIEWSTYLE
  2
AcDbDetailViewStyle
  3
ObjectDBX Classes
 90
     1025
 91
        1
280
     0
281
     0
  0
CLASS
  1
SORTENTSTABLE
  2
AcDbSortentsTable
  3
ObjectDBX Classes
 90
        0
 91
        1
280
     0
281
     0
  0
CLASS
  1
CELLSTYLEMAP
  2
AcDbCellStyleMap
  3
ObjectDBX Classes
 90
     1152
 91
        3
280
     0
281
     0
  0
ENDSEC
  0
SECTION
  2
TABLES
  0
TABLE
  2
VPORT
  5
16
102
{ACAD_XDICTIONARY
360
22EB
102
}
330
0
100
AcDbSymbolTable
 70
     1
  0
VPORT
  5
21B7
330
16
100
AcDbSymbolTableRecord
100
AcDbViewportTableRecord
  2
*Active
 70
     0
 10
0.0
 20
0.0
 11
1.0
 21
1.0
 12
210.0016958798739
 22
297.0080420596525
 13
0.0
 23
0.0
 14
1.0
 24
1.0
 15
20.0
 25
20.0
 16
0.0
 26
0.0
 36
1.0
 17
0.0
 27
0.0
 37
0.0
 40
598.0699080123226
 41
1.70045045045045
 42
50.0
 43
0.0
 44
0.0
 50
0.0
 51
0.0
 71
     0
 72
  1500
 73
     1
 74
     0
 75
     0
 76
     0
 77
     0
 78
     0
281
     0
 65
     1
110
0.0
120
0.0
130
0.0
111
1.0
121
0.0
131
0.0
112
0.0
122
1.0
132
0.0
 79
     0
146
0.0
1001
ACAD_NAV_VCDISPLAY
1070
     3
  0
ENDTAB
  0
TABLE
  2
LTYPE
  5
11
330
0
100
AcDbSymbolTable
 70
     5
  0
LTYPE
  5
12
330
11
100
AcDbSymbolTableRecord
100
AcDbLinetypeTableRecord
  2
BYBLOCK
 70
     0
  3

 72
    65
 73
     0
 40
0.0
  0
LTYPE
  5
13
330
11
100
AcDbSymbolTableRecord
100
AcDbLinetypeTableRecord
  2
BYLAYER
 70
     0
  3

 72
    65
 73
     0
 40
0.0
  0
LTYPE
  5
7
330
11
100
AcDbSymbolTableRecord
100
AcDbLinetypeTableRecord
  2
AUSGEZOGEN
 70
     0
  3
Ausgezogene Linie
 72
    65
 73
     0
 40
0.0
  0
LTYPE
  5
102
330
11
100
AcDbSymbolTableRecord
100
AcDbLinetypeTableRecord
  2
STRICHPUNKT
 70
     0
  3
__ . __ . __ . __ . __ . __ . __ . __ . __ . __
 72
    65
 73
     4
 40
1.0
 49
0.5
 74
     0
 49
-0.25
 74
     0
 49
0.0
 74
     0
 49
-0.25
 74
     0
  0
LTYPE
  5
742
330
11
100
AcDbSymbolTableRecord
100
AcDbLinetypeTableRecord
  2
Continuous
 70
     0
  3
Solid line
 72
    65
 73
     0
 40
0.0
  0
LTYPE
  5
2201
330
11
100
AcDbSymbolTableRecord
100
AcDbLinetypeTableRecord
  2
PHANTOM2
 70
     0
  3
Phantom (.5x) ___ _ _ ___ _ _ ___ _ _ ___ _ _
 72
    65
 73
     6
 40
1.25
 49
0.625
 74
     0
 49
-0.125
 74
     0
 49
0.125
 74
     0
 49
-0.125
 74
     0
 49
0.125
 74
     0
 49
-0.125
 74
     0
  0
ENDTAB
  0
TABLE
  2
LAYER
  5
E
102
{ACAD_XDICTIONARY
360
232C
102
}
330
0
100
AcDbSymbolTable
 70
     9
  0
LAYER
  5
6
102
{ACAD_XDICTIONARY
360
22D8
102
}
330
E
100
AcDbSymbolTableRecord
100
AcDbLayerTableRecord
  2
0
 70
     0
 62
     7
  6
AUSGEZOGEN
370
    -3
390
5BB
  0
LAYER
  5
CE
102
{ACAD_XDICTIONARY
360
22DA
102
}
330
E
100
AcDbSymbolTableRecord
100
AcDbLayerTableRecord
  2
VOLL
 70
     0
 62
     1
  6
AUSGEZOGEN
370
    -3
390
5BB
  0
LAYER
  5
36
102
{ACAD_XDICTIONARY
360
22DC
102
}
330
E
100
AcDbSymbolTableRecord
100
AcDbLayerTableRecord
  2
HILF
 70
     0
 62
     2
  6
AUSGEZOGEN
370
    -3
390
5BB
  0
LAYER
  5
101
102
{ACAD_XDICTIONARY
360
22DE
102
}
330
E
100
AcDbSymbolTableRecord
100
AcDbLayerTableRecord
  2
MITTEL
 70
     0
 62
     2
  6
STRICHPUNKT
370
    -3
390
5BB
  0
LAYER
  5
25
102
{ACAD_XDICTIONARY
360
22E0
102
}
330
E
100
AcDbSymbolTableRecord
100
AcDbLayerTableRecord
  2
BEM
 70
     0
 62
     7
  6
AUSGEZOGEN
370
    -3
390
5BB
  0
LAYER
  5
39
102
{ACAD_XDICTIONARY
360
22E2
102
}
330
E
100
AcDbSymbolTableRecord
100
AcDbLayerTableRecord
  2
STEMPEL
 70
     0
 62
     3
  6
AUSGEZOGEN
370
    -3
390
5BB
  0
LAYER
  5
2E
330
E
100
AcDbSymbolTableRecord
100
AcDbLayerTableRecord
  2
DEFPOINTS
 70
     0
 62
     7
  6
AUSGEZOGEN
290
     0
370
    -3
390
5BB
  0
LAYER
  5
1F
102
{ACAD_XDICTIONARY
360
22E4
102
}
330
E
100
AcDbSymbolTableRecord
100
AcDbLayerTableRecord
  2
SCHRAFF
 70
     0
 62
     7
  6
AUSGEZOGEN
370
    -3
390
5BB
  0
LAYER
  5
D3E
102
{ACAD_XDICTIONARY
360
22E6
102
}
330
E
100
AcDbSymbolTableRecord
100
AcDbLayerTableRecord
  2
TEXT
 70
     0
 62
     7
  6
Continuous
370
    -3
390
5BB
  0
ENDTAB
  0
TABLE
  2
STYLE
  5
F
330
0
100
AcDbSymbolTable
 70
     3
  0
STYLE
  5
10
330
F
100
AcDbSymbolTableRecord
100
AcDbTextStyleTableRecord
  2
STANDARD
 70
     0
 40
0.0
 41
0.8
 50
0.0
 71
     0
 42
3.5
  3
simplex.shx
  4

  0
STYLE
  5
20
330
F
100
AcDbSymbolTableRecord
100
AcDbTextStyleTableRecord
  2
GREEKS
 70
     0
 40
0.0
 41
0.8
 50
0.0
 71
     0
 42
2.5
  3
SIMPLEX.shx
  4

  0
ENDTAB
  0
TABLE
  2
VIEW
  5
14
330
0
100
AcDbSymbolTable
 70
     0
  0
ENDTAB
  0
TABLE
  2
UCS
  5
15
330
0
100
AcDbSymbolTable
 70
     0
  0
ENDTAB
  0
TABLE
  2
APPID
  5
18
330
0
100
AcDbSymbolTable
 70
     6
  0
APPID
  5
19
330
18
100
AcDbSymbolTableRecord
100
AcDbRegAppTableRecord
  2
ACAD
 70
     0
  0
APPID
  5
2221
330
18
100
AcDbSymbolTableRecord
100
AcDbRegAppTableRecord
  2
ACAD_NAV_VCDISPLAY
 70
     0
  0
APPID
  5
22CF
330
18
100
AcDbSymbolTableRecord
100
AcDbRegAppTableRecord
  2
GradientColor1ACI
 70
     0
  0
APPID
  5
22D0
330
18
100
AcDbSymbolTableRecord
100
AcDbRegAppTableRecord
  2
GradientColor2ACI
 70
     0
  0
APPID
  5
22D2
330
18
100
AcDbSymbolTableRecord
100
AcDbRegAppTableRecord
  2
ACAD_EXEMPT_FROM_CAD_STANDARDS
 70
     0
  0
APPID
  5
2321
330
18
100
AcDbSymbolTableRecord
100
AcDbRegAppTableRecord
  2
ACAD_MLEADERVER
 70
     0
  0
ENDTAB
  0
TABLE
  2
DIMSTYLE
  5
1A
330
0
100
AcDbSymbolTable
 70
     2
100
AcDbDimStyleTable
 71
     1
340
22
  0
DIMSTYLE
105
22
102
{ACAD_REACTORS
330
1D63
330
1D72
330
1D60
330
2039
330
2248
330
224C
102
}
330
1A
100
AcDbSymbolTableRecord
100
AcDbDimStyleTableRecord
  2
STANDARD
 70
     0
 40
2.0
 41
3.5
 42
1.0
 43
8.0
 44
1.5
 47
2.0
 48
2.0
 73
     0
 74
     0
 77
     1
 78
     8
140
3.5
141
1.5
147
1.5
172
     1
178
     1
271
     1
272
     2
284
     8
285
     8
286
     8
289
     0
340
20
  0
ENDTAB
  0
TABLE
  2
BLOCK_RECORD
  5
1
330
0
100
AcDbSymbolTable
 70
     8
  0
BLOCK_RECORD
  5
2
102
{ACAD_XDICTIONARY
360
3
102
}
330
1
100
AcDbSymbolTableRecord
100
AcDbBlockTableRecord
  2
*MODEL_SPACE
340
5C0
  0
BLOCK_RECORD
  5
9
102
{ACAD_XDICTIONARY
360
A
102
}
330
1
100
AcDbSymbolTableRecord
100
AcDbBlockTableRecord
  2
*PAPER_SPACE
340
5C1
  0
BLOCK_RECORD
  5
5B
330
1
100
AcDbSymbolTableRecord
100
AcDbBlockTableRecord
  2
LOGO
340
0
102
{BLKREFS
331
1D69
102
}
  0
BLOCK_RECORD
  5
1EB1
330
1
100
AcDbSymbolTableRecord
100
AcDbBlockTableRecord
  2
*D1
340
0
  0
BLOCK_RECORD
  5
1EBC
330
1
100
AcDbSymbolTableRecord
100
AcDbBlockTableRecord
  2
*D2
340
0
  0
BLOCK_RECORD
  5
1EC8
330
1
100
AcDbSymbolTableRecord
100
AcDbBlockTableRecord
  2
*D3
340
0
  0
BLOCK_RECORD
  5
2052
330
1
100
AcDbSymbolTableRecord
100
AcDbBlockTableRecord
  2
*D4
340
0
  0
BLOCK_RECORD
  5
225F
330
1
100
AcDbSymbolTableRecord
100
AcDbBlockTableRecord
  2
*D5
340
0
  0
BLOCK_RECORD
  5
226B
330
1
100
AcDbSymbolTableRecord
100
AcDbBlockTableRecord
  2
*D6
340
0
  0
ENDTAB
  0
ENDSEC
  0
SECTION
  2
BLOCKS
  0
BLOCK
  5
5
330
2
100
AcDbEntity
  8
0
100
AcDbBlockBegin
  2
*MODEL_SPACE
 70
     0
 10
0.0
 20
0.0
 30
0.0
  3
*MODEL_SPACE
  1

  0
ENDBLK
  5
8
330
2
100
AcDbEntity
  8
0
100
AcDbBlockEnd
  0
BLOCK
  5
C
330
9
100
AcDbEntity
 67
     1
  8
0
100
AcDbBlockBegin
  2
*PAPER_SPACE
 70
     0
 10
0.0
 20
0.0
 30
0.0
  3
*PAPER_SPACE
  1

  0
ENDBLK
  5
D
330
9
100
AcDbEntity
 67
     1
  8
0
100
AcDbBlockEnd
  0
BLOCK
  5
76
330
5B
100
AcDbEntity
  8
0
100
AcDbBlockBegin
  2
LOGO
 70
     0
 10
0.0
 20
0.0
 30
0.0
  3
LOGO
  1

  0
ARC
  5
5C
330
5B
100
AcDbEntity
  8
0
100
AcDbCircle
 10
11.59973089678112
 20
-9.271599258481501
 30
0.0
 40
4.5
100
AcDbArc
 50
270.0
 51
231.0575587310159
  0
LINE
  5
5D
330
5B
100
AcDbEntity
  8
0
100
AcDbLine
 10
3.599730896781125
 20
-4.771599258481529
 30
0.0
 11
3.599730896781153
 21
-11.77159925848133
 31
0.0
  0
LINE
  5
5E
330
5B
100
AcDbEntity
  8
0
100
AcDbLine
 10
2.599730896781125
 20
-4.771599258481529
 30
0.0
 11
2.599730896781153
 21
-11.77159925848133
 31
0.0
  0
CIRCLE
  5
5F
330
5B
100
AcDbEntity
  8
0
100
AcDbCircle
 10
11.59973089678112
 20
-9.271599258481501
 30
0.0
 40
3.5
  0
ARC
  5
60
330
5B
100
AcDbEntity
  8
0
100
AcDbCircle
 10
31.59973089678115
 20
-9.271599258481472
 30
0.0
 40
4.5
100
AcDbArc
 50
270.0
 51
231.0575587310182
  0
LINE
  5
61
330
5B
100
AcDbEntity
  8
0
100
AcDbLine
 10
17.59973089678112
 20
-4.771599258481472
 30
0.0
 11
17.59973089678115
 21
-13.77159925848147
 31
0.0
  0
ARC
  5
62
330
5B
100
AcDbEntity
  8
0
100
AcDbCircle
 10
22.59973089678116
 20
-7.271599258481472
 30
0.0
 40
2.5
100
AcDbArc
 50
293.1161887722295
 51
90.0
  0
CIRCLE
  5
63
330
5B
100
AcDbEntity
  8
0
100
AcDbCircle
 10
31.59973089678115
 20
-9.271599258481472
 30
0.0
 40
3.5
  0
ARC
  5
64
330
5B
100
AcDbEntity
  8
0
100
AcDbCircle
 10
4.599730896781153
 20
-11.77159925848133
 30
0.0
 40
1.0
100
AcDbArc
 50
180.0
 51
270.0
  0
ARC
  5
65
330
5B
100
AcDbEntity
  8
0
100
AcDbCircle
 10
4.599730896781153
 20
-11.77159925848133
 30
0.0
 40
2.0
100
AcDbArc
 50
179.9999999999992
 51
270.0
  0
LINE
  5
66
330
5B
100
AcDbEntity
  8
0
100
AcDbLine
 10
11.59973089678115
 20
-13.77159925848144
 30
0.0
 11
4.599730896781153
 21
-13.77159925848147
 31
0.0
  0
LINE
  5
67
330
5B
100
AcDbEntity
  8
0
100
AcDbLine
 10
8.771303772034769
 20
-12.77159925848136
 30
0.0
 11
4.599730896781153
 21
-12.77159925848133
 31
0.0
  0
LINE
  5
68
330
5B
100
AcDbEntity
  8
0
100
AcDbLine
 10
31.59973089678115
 20
-13.77159925848147
 30
0.0
 11
23.6715276665056
 21
-13.77159925848144
 31
0.0
  0
LINE
  5
69
330
5B
100
AcDbEntity
  8
0
100
AcDbLine
 10
23.56565672307022
 20
-9.51278021337896
 30
0.0
 11
24.4388546544846
 21
-12.77159925848144
 31
0.0
  0
LINE
  5
6A
330
5B
100
AcDbEntity
  8
0
100
AcDbLine
 10
22.59973089678116
 20
-9.771599258481472
 30
0.0
 11
18.59973089678112
 21
-9.771599258481472
 31
0.0
  0
LINE
  5
6B
330
5B
100
AcDbEntity
  8
0
100
AcDbLine
 10
18.59973089678115
 20
-13.77159925848144
 30
0.0
 11
17.59973089678115
 21
-13.77159925848144
 31
0.0
  0
LINE
  5
6C
330
5B
100
AcDbEntity
  8
0
100
AcDbLine
 10
18.59973089678115
 20
-9.771599258481472
 30
0.0
 11
18.59973089678115
 21
-13.77159925848144
 31
0.0
  0
LINE
  5
6D
330
5B
100
AcDbEntity
  8
0
100
AcDbLine
 10
22.59973089678116
 20
-9.771599258481472
 30
0.0
 11
23.67152766650562
 21
-13.77159925848147
 31
0.0
  0
ARC
  5
6E
330
5B
100
AcDbEntity
  8
0
100
AcDbCircle
 10
22.59973089678116
 20
-7.271599258481472
 30
0.0
 40
2.5
100
AcDbArc
 50
270.0
 51
270.0000000000007
  0
LINE
  5
6F
330
5B
100
AcDbEntity
  8
0
100
AcDbLine
 10
28.77130377203494
 20
-12.77159925848147
 30
0.0
 11
24.43885465448463
 21
-12.77159925848144
 31
0.0
  0
LINE
  5
70
330
5B
100
AcDbEntity
  8
0
100
AcDbLine
 10
3.599730896781125
 20
-4.771599258481472
 30
0.0
 11
2.599730896781125
 21
-4.771599258481472
 31
0.0
  0
LINE
  5
71
330
5B
100
AcDbEntity
  8
0
100
AcDbLine
 10
22.59973089678116
 20
-8.771599258481472
 30
0.0
 11
18.59973089678115
 21
-8.771599258481472
 31
0.0
  0
LINE
  5
72
330
5B
100
AcDbEntity
  8
0
100
AcDbLine
 10
22.59973089678116
 20
-5.771599258481472
 30
0.0
 11
18.59973089678115
 21
-5.771599258481472
 31
0.0
  0
LINE
  5
73
330
5B
100
AcDbEntity
  8
0
100
AcDbLine
 10
22.59973089678116
 20
-4.771599258481472
 30
0.0
 11
17.59973089678115
 21
-4.771599258481472
 31
0.0
  0
LINE
  5
74
330
5B
100
AcDbEntity
  8
0
100
AcDbLine
 10
18.59973089678115
 20
-5.771599258481472
 30
0.0
 11
18.59973089678115
 21
-8.771599258481472
 31
0.0
  0
ARC
  5
75
330
5B
100
AcDbEntity
  8
0
100
AcDbCircle
 10
22.59973089678116
 20
-7.271599258481472
 30
0.0
 40
1.5
100
AcDbArc
 50
270.0
 51
90.0
  0
ENDBLK
  5
77
330
5B
100
AcDbEntity
  8
0
100
AcDbBlockEnd
  0
BLOCK
  5
1EBA
330
1EB1
100
AcDbEntity
  8
0
100
AcDbBlockBegin
  2
*D1
 70
     1
 10
0.0
 20
0.0
 30
0.0
  3
*D1
  1

  0
LINE
  5
20BE
330
1EB1
100
AcDbEntity
  8
BEM
 62
     0
440
 16777216
370
    -2
100
AcDbLine
 10
86.02780547011041
 20
435.8349684112704
 30
0.0
 11
86.02780547011041
 21
493.9257056023481
 31
0.0
  0
LINE
  5
20BF
330
1EB1
100
AcDbEntity
  8
BEM
 62
     0
440
 16777216
370
    -2
100
AcDbLine
 10
331.0278054701105
 20
435.8349684112704
 30
0.0
 11
331.0278054701105
 21
493.9257056023481
 31
0.0
  0
LINE
  5
20C0
330
1EB1
100
AcDbEntity
  8
BEM
 62
     0
440
 16777216
370
    -2
100
AcDbLine
 10
93.02780547011042
 20
490.9257056023481
 30
0.0
 11
324.0278054701105
 21
490.9257056023481
 31
0.0
  0
SOLID
  5
20C1
330
1EB1
100
AcDbEntity
  8
BEM
 62
     0
440
 16777216
100
AcDbTrace
 10
93.02780547011042
 20
492.0923722690147
 30
0.0
 11
93.02780547011042
 21
489.7590389356814
 31
0.0
 12
86.02780547011041
 22
490.9257056023481
 32
0.0
 13
86.02780547011041
 23
490.9257056023481
 33
0.0
  0
SOLID
  5
20C2
330
1EB1
100
AcDbEntity
  8
BEM
 62
     0
440
 16777216
100
AcDbTrace
 10
324.0278054701105
 20
492.0923722690147
 30
0.0
 11
324.0278054701105
 21
489.7590389356814
 31
0.0
 12
331.0278054701105
 22
490.9257056023481
 32
0.0
 13
331.0278054701105
 23
490.9257056023481
 33
0.0
  0
MTEXT
  5
20C3
330
1EB1
100
AcDbEntity
  8
BEM
 62
     1
440
 16777216
100
AcDbMText
 10
208.5278054701105
 20
497.4257056023481
 30
0.0
 40
7.0
 41
0.0
 71
     5
 72
     1
  1
\A1;%%c245
  7
GREEKS
 73
     1
 44
1.0
  0
POINT
  5
20C4
330
1EB1
100
AcDbEntity
  8
DEFPOINTS
 62
     0
440
 16777216
100
AcDbPoint
 10
86.02780547011041
 20
433.8349684112705
 30
0.0
  0
POINT
  5
20C5
330
1EB1
100
AcDbEntity
  8
DEFPOINTS
 62
     0
440
 16777216
100
AcDbPoint
 10
331.0278054701105
 20
433.8349684112705
 30
0.0
  0
POINT
  5
20C6
330
1EB1
100
AcDbEntity
  8
DEFPOINTS
 62
     0
440
 16777216
100
AcDbPoint
 10
331.0278054701105
 20
490.9257056023481
 30
0.0
  0
ENDBLK
  5
1EBB
330
1EB1
100
AcDbEntity
  8
0
100
AcDbBlockEnd
  0
BLOCK
  5
1EC6
330
1EBC
100
AcDbEntity
  8
0
100
AcDbBlockBegin
  2
*D2
 70
     1
 10
0.0
 20
0.0
 30
0.0
  3
*D2
  1

  0
LINE
  5
1EDC
330
1EBC
100
AcDbEntity
  8
BEM
 62
     0
440
 16777216
370
    -2
100
AcDbLine
 10
172.0278054701107
 20
180.7088168251285
 30
0.0
 11
172.0278054701107
 21
155.9391797108119
 31
0.0
  0
LINE
  5
1EDD
330
1EBC
100
AcDbEntity
  8
BEM
 62
     0
440
 16777216
370
    -2
100
AcDbLine
 10
245.0278054701107
 20
180.7088168251284
 30
0.0
 11
245.0278054701107
 21
155.9391797108119
 31
0.0
  0
LINE
  5
1EDE
330
1EBC
100
AcDbEntity
  8
BEM
 62
     0
440
 16777216
370
    -2
100
AcDbLine
 10
179.0278054701107
 20
157.9391797108119
 30
0.0
 11
238.0278054701107
 21
157.9391797108119
 31
0.0
  0
SOLID
  5
1EDF
330
1EBC
100
AcDbEntity
  8
BEM
 62
     0
440
 16777216
100
AcDbTrace
 10
179.0278054701107
 20
159.1058463774785
 30
0.0
 11
179.0278054701107
 21
156.7725130441452
 31
0.0
 12
172.0278054701107
 22
157.9391797108119
 32
0.0
 13
172.0278054701107
 23
157.9391797108119
 33
0.0
  0
SOLID
  5
1EE0
330
1EBC
100
AcDbEntity
  8
BEM
 62
     0
440
 16777216
100
AcDbTrace
 10
238.0278054701107
 20
159.1058463774785
 30
0.0
 11
238.0278054701107
 21
156.7725130441452
 31
0.0
 12
245.0278054701107
 22
157.9391797108119
 32
0.0
 13
245.0278054701107
 23
157.9391797108119
 33
0.0
  0
MTEXT
  5
1EE1
330
1EBC
100
AcDbEntity
  8
BEM
 62
     1
440
 16777216
100
AcDbMText
 10
208.5278054701107
 20
164.4391797108119
 30
0.0
 40
7.0
 41
0.0
 71
     5
 72
     1
  1
\A1;%%c73
  7
GREEKS
 73
     1
 44
1.0
  0
POINT
  5
1EE2
330
1EBC
100
AcDbEntity
  8
DEFPOINTS
 62
     0
440
 16777216
100
AcDbPoint
 10
172.0278054701107
 20
182.7088168251285
 30
0.0
  0
POINT
  5
1EE3
330
1EBC
100
AcDbEntity
  8
DEFPOINTS
 62
     0
440
 16777216
100
AcDbPoint
 10
245.0278054701107
 20
182.7088168251284
 30
0.0
  0
POINT
  5
1EE4
330
1EBC
100
AcDbEntity
  8
DEFPOINTS
 62
     0
440
 16777216
100
AcDbPoint
 10
245.0278054701107
 20
157.9391797108119
 30
0.0
  0
ENDBLK
  5
1EC7
330
1EBC
100
AcDbEntity
  8
0
100
AcDbBlockEnd
  0
BLOCK
  5
1ED2
330
1EC8
100
AcDbEntity
  8
0
100
AcDbBlockBegin
  2
*D3
 70
     1
 10
0.0
 20
0.0
 30
0.0
  3
*D3
  1

  0
LINE
  5
2110
330
1EC8
100
AcDbEntity
  8
BEM
 62
     0
440
 16777216
370
    -2
100
AcDbLine
 10
170.5527066705396
 20
177.7730136857635
 30
0.0
 11
61.53995174542814
 21
177.7730136857635
 31
0.0
  0
LINE
  5
2111
330
1EC8
100
AcDbEntity
  8
BEM
 62
     0
440
 16777216
370
    -2
100
AcDbLine
 10
84.02780547011035
 20
437.7743082394911
 30
0.0
 11
61.5399517454282
 21
437.7743082394911
 31
0.0
  0
LINE
  5
2112
330
1EC8
100
AcDbEntity
  8
BEM
 62
     0
440
 16777216
370
    -2
100
AcDbLine
 10
63.53995174542814
 20
184.7730136857635
 30
0.0
 11
63.53995174542819
 21
430.7743082394911
 31
0.0
  0
SOLID
  5
2113
330
1EC8
100
AcDbEntity
  8
BEM
 62
     0
440
 16777216
100
AcDbTrace
 10
62.37328507876148
 20
184.7730136857635
 30
0.0
 11
64.70661841209481
 21
184.7730136857635
 31
0.0
 12
63.53995174542814
 22
177.7730136857635
 32
0.0
 13
63.53995174542814
 23
177.7730136857635
 33
0.0
  0
SOLID
  5
2114
330
1EC8
100
AcDbEntity
  8
BEM
 62
     0
440
 16777216
100
AcDbTrace
 10
62.37328507876153
 20
430.7743082394911
 30
0.0
 11
64.70661841209487
 21
430.7743082394911
 31
0.0
 12
63.5399517454282
 22
437.7743082394911
 32
0.0
 13
63.5399517454282
 23
437.7743082394911
 33
0.0
  0
MTEXT
  5
2115
330
1EC8
100
AcDbEntity
  8
BEM
 62
     1
440
 16777216
100
AcDbMText
 10
57.03995174542812
 20
307.7736609626274
 30
0.0
 40
7.0
 41
0.0
 71
     5
 72
     1
  1
\A1;260
  7
GREEKS
 11
0.0000000000000001
 21
1.0
 31
0.0
 73
     1
 44
1.0
  0
POINT
  5
2116
330
1EC8
100
AcDbEntity
  8
DEFPOINTS
 62
     0
440
 16777216
100
AcDbPoint
 10
172.5527066705396
 20
177.7730136857635
 30
0.0
  0
POINT
  5
2117
330
1EC8
100
AcDbEntity
  8
DEFPOINTS
 62
     0
440
 16777216
100
AcDbPoint
 10
86.02780547011034
 20
437.7743082394911
 30
0.0
  0
POINT
  5
2118
330
1EC8
100
AcDbEntity
  8
DEFPOINTS
 62
     0
440
 16777216
100
AcDbPoint
 10
63.5399517454282
 20
437.7743082394911
 30
0.0
  0
ENDBLK
  5
1ED3
330
1EC8
100
AcDbEntity
  8
0
100
AcDbBlockEnd
  0
BLOCK
  5
205C
330
2052
100
AcDbEntity
  8
0
100
AcDbBlockBegin
  2
*D4
 70
     1
 10
0.0
 20
0.0
 30
0.0
  3
*D4
  1

  0
LINE
  5
20C7
330
2052
100
AcDbEntity
  8
BEM
 62
     0
440
 16777216
370
    -2
100
AcDbLine
 10
133.5278054701105
 20
437.7743082394907
 30
0.0
 11
133.5278054701105
 21
479.3083262421876
 31
0.0
  0
LINE
  5
20C8
330
2052
100
AcDbEntity
  8
BEM
 62
     0
440
 16777216
370
    -2
100
AcDbLine
 10
283.5278054701108
 20
437.7743082394911
 30
0.0
 11
283.5278054701108
 21
479.3083262421876
 31
0.0
  0
LINE
  5
20C9
330
2052
100
AcDbEntity
  8
BEM
 62
     0
440
 16777216
370
    -2
100
AcDbLine
 10
140.5278054701105
 20
477.3083262421876
 30
0.0
 11
276.5278054701108
 21
477.3083262421876
 31
0.0
  0
SOLID
  5
20CA
330
2052
100
AcDbEntity
  8
BEM
 62
     0
440
 16777216
100
AcDbTrace
 10
140.5278054701105
 20
478.4749929088543
 30
0.0
 11
140.5278054701105
 21
476.141659575521
 31
0.0
 12
133.5278054701105
 22
477.3083262421876
 32
0.0
 13
133.5278054701105
 23
477.3083262421876
 33
0.0
  0
SOLID
  5
20CB
330
2052
100
AcDbEntity
  8
BEM
 62
     0
440
 16777216
100
AcDbTrace
 10
276.5278054701108
 20
478.4749929088543
 30
0.0
 11
276.5278054701108
 21
476.141659575521
 31
0.0
 12
283.5278054701108
 22
477.3083262421876
 32
0.0
 13
283.5278054701108
 23
477.3083262421876
 33
0.0
  0
MTEXT
  5
20CC
330
2052
100
AcDbEntity
  8
BEM
 62
     1
440
 16777216
100
AcDbMText
 10
208.5278054701107
 20
483.8083262421876
 30
0.0
 40
7.0
 41
0.0
 71
     5
 72
     1
  1
\A1;%%c150
  7
GREEKS
 73
     1
 44
1.0
  0
POINT
  5
20CD
330
2052
100
AcDbEntity
  8
DEFPOINTS
 62
     0
440
 16777216
100
AcDbPoint
 10
133.5278054701105
 20
435.7743082394907
 30
0.0
  0
POINT
  5
20CE
330
2052
100
AcDbEntity
  8
DEFPOINTS
 62
     0
440
 16777216
100
AcDbPoint
 10
283.5278054701108
 20
435.774308239491
 30
0.0
  0
POINT
  5
20CF
330
2052
100
AcDbEntity
  8
DEFPOINTS
 62
     0
440
 16777216
100
AcDbPoint
 10
283.5278054701108
 20
477.3083262421876
 30
0.0
  0
ENDBLK
  5
205D
330
2052
100
AcDbEntity
  8
0
100
AcDbBlockEnd
  0
BLOCK
  5
2260
330
225F
100
AcDbEntity
  8
0
100
AcDbBlockBegin
  2
*D5
 70
     1
 10
0.0
 20
0.0
 30
0.0
  3
*D5
  1

  0
LINE
  5
2292
330
225F
100
AcDbEntity
  8
BEM
 62
     0
440
 16777216
370
    -2
100
AcDbLine
 10
90.24531989138234
 20
435.7743082394912
 30
0.0
 11
77.10721752556715
 21
435.7743082394912
 31
0.0
  0
LINE
  5
2293
330
225F
100
AcDbEntity
  8
BEM
 62
     0
440
 16777216
370
    -2
100
AcDbLine
 10
141.5302608355888
 20
275.7743082394906
 30
0.0
 11
77.10721752556711
 21
275.7743082394906
 31
0.0
  0
LINE
  5
2294
330
225F
100
AcDbEntity
  8
BEM
 62
     0
440
 16777216
370
    -2
100
AcDbLine
 10
79.10721752556715
 20
428.7743082394912
 30
0.0
 11
79.1072175255671
 21
282.7743082394906
 31
0.0
  0
SOLID
  5
2295
330
225F
100
AcDbEntity
  8
BEM
 62
     0
440
 16777216
100
AcDbTrace
 10
77.94055085890048
 20
428.7743082394912
 30
0.0
 11
80.27388419223383
 21
428.7743082394912
 31
0.0
 12
79.10721752556715
 22
435.7743082394912
 32
0.0
 13
79.10721752556715
 23
435.7743082394912
 33
0.0
  0
SOLID
  5
2296
330
225F
100
AcDbEntity
  8
BEM
 62
     0
440
 16777216
100
AcDbTrace
 10
77.94055085890043
 20
282.7743082394906
 30
0.0
 11
80.27388419223377
 21
282.7743082394906
 31
0.0
 12
79.1072175255671
 22
275.7743082394906
 32
0.0
 13
79.1072175255671
 23
275.7743082394906
 33
0.0
  0
MTEXT
  5
2297
330
225F
100
AcDbEntity
  8
BEM
 62
     1
440
 16777216
100
AcDbMText
 10
72.60721752556708
 20
355.7743082394909
 30
0.0
 40
7.0
 41
0.0
 71
     5
 72
     1
  1
\A1;160
  7
GREEKS
 11
0.0000000000000001
 21
1.0
 31
0.0
 73
     1
 44
1.0
  0
POINT
  5
2298
330
225F
100
AcDbEntity
  8
DEFPOINTS
 62
     0
440
 16777216
100
AcDbPoint
 10
92.24531989138233
 20
435.7743082394912
 30
0.0
  0
POINT
  5
2299
330
225F
100
AcDbEntity
  8
DEFPOINTS
 62
     0
440
 16777216
100
AcDbPoint
 10
143.5302608355888
 20
275.7743082394906
 30
0.0
  0
POINT
  5
229A
330
225F
100
AcDbEntity
  8
DEFPOINTS
 62
     0
440
 16777216
100
AcDbPoint
 10
79.1072175255671
 20
275.7743082394906
 30
0.0
  0
ENDBLK
  5
2261
330
225F
100
AcDbEntity
  8
0
100
AcDbBlockEnd
  0
BLOCK
  5
226C
330
226B
100
AcDbEntity
  8
0
100
AcDbBlockBegin
  2
*D6
 70
     1
 10
0.0
 20
0.0
 30
0.0
  3
*D6
  1

  0
LINE
  5
229B
330
226B
100
AcDbEntity
  8
BEM
 62
     0
440
 16777216
370
    -2
100
AcDbLine
 10
143.5302608355888
 20
273.7743082394906
 30
0.0
 11
143.5302608355888
 21
254.3415532812511
 31
0.0
  0
LINE
  5
229C
330
226B
100
AcDbEntity
  8
BEM
 62
     0
440
 16777216
370
    -2
100
AcDbLine
 10
273.5253501046321
 20
273.7743082394889
 30
0.0
 11
273.5253501046321
 21
254.3415532812511
 31
0.0
  0
LINE
  5
229D
330
226B
100
AcDbEntity
  8
BEM
 62
     0
440
 16777216
370
    -2
100
AcDbLine
 10
150.5302608355888
 20
256.3415532812511
 30
0.0
 11
266.5253501046322
 21
256.3415532812511
 31
0.0
  0
SOLID
  5
229E
330
226B
100
AcDbEntity
  8
BEM
 62
     0
440
 16777216
100
AcDbTrace
 10
150.5302608355888
 20
257.5082199479179
 30
0.0
 11
150.5302608355888
 21
255.1748866145845
 31
0.0
 12
143.5302608355888
 22
256.3415532812511
 32
0.0
 13
143.5302608355888
 23
256.3415532812511
 33
0.0
  0
SOLID
  5
229F
330
226B
100
AcDbEntity
  8
BEM
 62
     0
440
 16777216
100
AcDbTrace
 10
266.5253501046322
 20
257.5082199479179
 30
0.0
 11
266.5253501046322
 21
255.1748866145845
 31
0.0
 12
273.5253501046321
 22
256.3415532812511
 32
0.0
 13
273.5253501046321
 23
256.3415532812511
 33
0.0
  0
MTEXT
  5
22A0
330
226B
100
AcDbEntity
  8
BEM
 62
     1
440
 16777216
100
AcDbMText
 10
208.5278054701105
 20
262.8415532812511
 30
0.0
 40
7.0
 41
0.0
 71
     5
 72
     1
  1
\A1;%%c130
  7
GREEKS
 73
     1
 44
1.0
  0
POINT
  5
22A1
330
226B
100
AcDbEntity
  8
DEFPOINTS
 62
     0
440
 16777216
100
AcDbPoint
 10
143.5302608355888
 20
275.7743082394906
 30
0.0
  0
POINT
  5
22A2
330
226B
100
AcDbEntity
  8
DEFPOINTS
 62
     0
440
 16777216
100
AcDbPoint
 10
273.5253501046321
 20
275.7743082394888
 30
0.0
  0
POINT
  5
22A3
330
226B
100
AcDbEntity
  8
DEFPOINTS
 62
     0
440
 16777216
100
AcDbPoint
 10
273.5253501046321
 20
256.3415532812511
 30
0.0
  0
ENDBLK
  5
226D
330
226B
100
AcDbEntity
  8
0
100
AcDbBlockEnd
  0
ENDSEC
  0
SECTION
  2
ENTITIES
  0
LINE
  5
4F
330
2
100
AcDbEntity
  8
HILF
100
AcDbLine
 10
420.0
 20
0.0
 30
0.0
 11
0.0
 21
0.0
 31
0.0
  0
LINE
  5
55
330
2
100
AcDbEntity
  8
HILF
100
AcDbLine
 10
419.9999999999999
 20
594.0000000000002
 30
0.0
 11
0.0
 21
594.0
 31
0.0
  0
LINE
  5
56
330
2
100
AcDbEntity
  8
STEMPEL
100
AcDbLine
 10
410.0
 20
584.0
 30
0.0
 11
39.99999999999989
 21
584.0
 31
0.0
  0
LINE
  5
B2
330
2
100
AcDbEntity
  8
HILF
100
AcDbLine
 10
0.0
 20
0.0
 30
0.0
 11
-0.0000000000001137
 21
594.0
 31
0.0
  0
LINE
  5
B3
330
2
100
AcDbEntity
  8
STEMPEL
100
AcDbLine
 10
40.0
 20
10.0
 30
0.0
 11
39.99999999999989
 21
584.0
 31
0.0
  0
LINE
  5
D0
330
2
100
AcDbEntity
  8
HILF
100
AcDbLine
 10
31.08767135713856
 20
297.0
 30
0.0
 11
0.0000000000001137
 21
297.0
 31
0.0
  0
LINE
  5
161
330
2
100
AcDbEntity
  8
HILF
100
AcDbLine
 10
420.0
 20
-0.0000000000001137
 30
0.0
 11
419.9999999999999
 21
594.0
 31
0.0
  0
LINE
  5
162
330
2
100
AcDbEntity
  8
STEMPEL
100
AcDbLine
 10
410.0
 20
10.0
 30
0.0
 11
410.0
 21
584.0
 31
0.0
  0
TEXT
  5
10B0
330
2
100
AcDbEntity
  8
VOLL
100
AcDbText
 10
622.9741474529065
 20
35.6955048462093
 30
0.0
 40
1.8
  1

  7
GREEKS
100
AcDbText
  0
HATCH
  5
1D4E
330
2
100
AcDbEntity
  8
SCHRAFF
100
AcDbHatch
 10
0.0
 20
0.0
 30
0.0
210
0.0
220
0.0
230
1.0
  2
_USER
 70
     0
 71
     0
 91
        3
 92
        7
 72
     1
 73
     1
 93
       20
 10
173.5278054701125
 20
380.9558594454433
 42
0.1346873523285381
 10
172.1978054701125
 20
385.8036527578692
 42
-0.1346873523285368
 10
170.7278054701125
 20
391.1617401031818
 42
0.0
 10
170.7278054701096
 20
401.2730136857643
 42
0.092693060336358
 10
169.8156115856126
 20
406.1512446354535
 42
-0.0934034108731078
 10
168.2278054701096
 20
414.7092136525571
 42
0.0
 10
168.2278054701096
 20
430.2240912786459
 42
-0.1169090814653122
 10
170.7285141475771
 20
440.7730136857646
 42
0.0
 10
169.0624081418341
 20
440.7730136857646
 42
0.1093332246020707
 10
166.7278054701096
 20
430.2240912786464
 42
0.0
 10
166.7278054701096
 20
414.5747336375622
 42
0.0920044384189583
 10
168.4169664616679
 20
405.6092189743769
 42
-0.092693060336282
 10
169.2278054701096
 20
401.273013685768
 42
0.0
 10
169.2278054701126
 20
391.1617401031818
 42
0.1346873523285354
 10
170.9078054701125
 20
385.0382117085388
 42
-0.1346873523285393
 10
172.0278054701125
 20
380.9558594454434
 42
0.0
 10
172.0278054701107
 20
182.708816825128
 42
0.0
 10
172.4595190314253
 20
177.774308239491
 42
0.0
 10
173.9652487877403
 20
177.774308239491
 42
0.0
 10
173.5278054701106
 20
182.7743082394913
 42
0.0
 97
        0
 92
        7
 72
     1
 73
     1
 93
       18
 10
245.0278054701125
 20
380.9558594454438
 42
-0.1346873523285018
 10
246.1478054701089
 20
385.0382117085388
 42
0.1346873523285353
 10
247.8278054701088
 20
391.1617401031818
 42
0.0
 10
247.8278054701095
 20
401.2730136857643
 42
-0.0926930603363638
 10
248.6386444785514
 20
405.6092189743772
 42
0.0920044384190542
 10
250.3278054701095
 20
414.574733637572
 42
0.0
 10
250.3278054701095
 20
415.2063040395851
 42
0.0
 10
248.8278054701095
 20
416.8806292870346
 42
0.0
 10
248.8278054701095
 20
414.7092136525574
 42
-0.0934034108731172
 10
247.2399993546063
 20
406.151244635453
 42
0.0926930603363286
 10
246.3278054701095
 20
401.2730136857654
 42
0.0
 10
246.3278054701088
 20
391.1617401031818
 42
-0.1346873523285341
 10
244.8578054701089
 20
385.8036527578692
 42
0.1346873523285235
 10
243.5278054701125
 20
380.9558594454432
 42
0.0
 10
243.5278054701105
 20
182.7743082394972
 42
0.0
 10
243.0903621524802
 20
177.774308239491
 42
0.0
 10
244.5960919087951
 20
177.774308239491
 42
0.0
 10
245.0278054701105
 20
182.7088168251373
 42
0.0
 97
        0
 92
        7
 72
     1
 73
     1
 93
        6
 10
250.3278054701095
 20
430.2240912786459
 42
0.1093332246020487
 10
247.9932027983864
 20
440.7730136857622
 42
0.0
 10
246.3270967926432
 20
440.7730136857623
 42
-0.1169090814652836
 10
248.8278054701095
 20
430.224091278646
 42
0.0
 10
248.8278054701095
 20
416.8806292870347
 42
0.0
 10
250.3278054701095
 20
415.206304039585
 42
0.0
 97
        0
 75
     0
 76
     0
 52
135.0
 41
2.0
 77
     0
 78
     1
 53
135.0
 43
0.0
 44
0.0
 45
-1.414213562373095
 46
-1.414213562373094
 79
     0
 47
0.5811582209846494
 98
        3
 10
172.4422325757095
 20
361.0405711904968
 10
244.5528714048446
 20
348.2550902507737
 10
249.7867071914988
 20
429.6172413081554
  0
HATCH
  5
1D4F
330
2
100
AcDbEntity
  8
SCHRAFF
100
AcDbHatch
 10
0.0
 20
0.0
 30
0.0
210
0.0
220
0.0
230
1.0
  2
_USER
 70
     0
 71
     0
 91
        6
 92
        7
 72
     1
 73
     1
 93
        8
 10
298.5278054701104
 20
437.7743082394909
 42
0.0
 10
298.5278054701104
 20
435.7743082394911
 42
0.0
 10
324.8102910488384
 20
435.7743082394912
 42
-0.1989123673797018
 10
327.2851647829915
 20
434.7491819736434
 42
0.0
 10
329.6135919077378
 20
432.4207548488972
 42
0.0
 10
331.0278054701107
 20
433.8349684112704
 42
0.0
 10
328.6993783453646
 20
436.1633955360166
 42
0.1989123673796616
 10
324.8102910488388
 20
437.7743082394909
 42
0.0
 97
        0
 92
        7
 72
     0
 73
     1
 93
        4
 10
298.5278054701104
 20
435.774308239491
 10
298.5278054701104
 20
437.7743082394909
 10
278.64933008193
 20
437.774308239491
 10
279.995019972849
 20
435.774308239491
 97
        0
 92
        7
 72
     0
 73
     1
 93
        4
 10
279.9950199728489
 20
435.7743082394908
 10
278.6493300819298
 20
437.7743082394909
 10
272.8531423606642
 20
437.7743082394909
 10
274.5876492436695
 20
435.7743082394908
 97
        0
 92
        7
 72
     1
 73
     1
 93
        8
 10
266.8428085228227
 20
437.774308239491
 42
0.1989123673796415
 10
261.1859542733307
 20
435.4311624889837
 42
0.0
 10
250.3278054701095
 20
424.573013685764
 42
0.0
 10
251.7420190324826
 20
423.1588001233906
 42
0.0
 10
262.6001678357035
 20
434.0169489266104
 42
-0.1989123673796406
 10
266.8428085228224
 20
435.7743082394908
 42
0.0
 10
274.5876492436695
 20
435.7743082394908
 42
0.0
 10
272.8531423606642
 20
437.7743082394908
 42
0.0
 97
        0
 92
        7
 72
     1
 73
     1
 93
        8
 10
150.2128024173982
 20
435.7743082394907
 42
-0.1989123673796406
 10
154.4554431045172
 20
434.0169489266102
 42
0.0
 10
165.313591907738
 20
423.1588001233907
 42
0.0
 10
166.727805470111
 20
424.5730136857641
 42
0.0
 10
155.86965666689
 20
435.4311624889838
 42
0.198912367379644
 10
150.212802417398
 20
437.7743082394912
 42
0.0
 10
118.5278054701104
 20
437.7743082394911
 42
0.0
 10
118.5278054701104
 20
435.7743082394909
 42
0.0
 97
        0
 92
        7
 72
     1
 73
     1
 93
        8
 10
118.5278054701104
 20
435.774308239491
 42
0.0
 10
118.5278054701104
 20
437.7743082394911
 42
0.0
 10
92.24531989138226
 20
437.7743082394911
 42
0.1989123673796816
 10
88.35623259485613
 20
436.1633955360166
 42
0.0
 10
86.02780547011013
 20
433.8349684112704
 42
0.0
 10
87.44201903248301
 20
432.4207548488971
 42
0.0
 10
89.77044615722922
 20
434.7491819736434
 42
-0.1989123673796754
 10
92.24531989138197
 20
435.7743082394912
 42
0.0
 97
        0
 75
     0
 76
     0
 52
45.0
 41
2.0
 77
     0
 78
     1
 53
45.0
 43
0.0
 44
0.0
 45
-1.414213562373094
 46
1.414213562373095
 79
     0
 47
0.3232001408662376
 98
        6
 10
315.9194239528024
 20
437.0358350571753
 10
281.9612651861662
 20
436.7126338185783
 10
275.4930453046936
 20
436.7126338185783
 10
267.4077704528527
 20
437.0358350571753
 10
150.3329800648266
 20
436.7126338185783
 10
102.7915599859884
 20
436.3894339631221
  0
HATCH
  5
1D50
330
2
100
AcDbEntity
  8
SCHRAFF
100
AcDbHatch
 10
0.0
 20
0.0
 30
0.0
210
0.0
220
0.0
230
1.0
  2
_USER
 70
     0
 71
     1
 91
        2
 92
        7
 72
     1
 73
     1
 93
        4
 10
166.7278054701096
 20
424.5730136857627
 42
0.0
 10
165.313591907738
 20
423.1588001233906
 42
0.0
 10
164.8899950911522
 20
423.5823969399764
 42
0.5060585653210789
 10
166.7278054701096
 20
419.7844151524147
 42
0.0
 97
        4
330
1DE3
330
1DD6
330
1DE2
330
1DE1
 92
        7
 72
     1
 73
     1
 93
        4
 10
250.3278054701095
 20
419.7844151524145
 42
0.5060585653212329
 10
252.1656158490683
 20
423.5823969399763
 42
0.0
 10
251.7420190324826
 20
423.1588001233906
 42
0.0
 10
250.3278054701095
 20
424.573013685764
 42
0.0
 97
        4
330
1E50
330
1E59
330
1E5A
330
1E58
 75
     0
 76
     0
 52
0.0
 41
0.1
 77
     0
 78
     1
 53
0.0
 43
0.0
 44
0.0
 45
0.0
 46
0.1
 79
     0
 47
0.1311116258125368
 98
        2
 10
165.9677321702934
 20
421.9565689019557
 10
251.1147000598549
 20
422.0876809522242
  0
LINE
  5
1D51
330
2
100
AcDbEntity
  8
HILF
  6
Continuous
100
AcDbLine
 10
174.7740709457523
 20
383.8964860718205
 30
0.0
 11
242.2815399944727
 21
383.8964860718205
 31
0.0
  0
LINE
  5
1D52
330
2
100
AcDbEntity
  8
HILF
  6
Continuous
100
AcDbLine
 10
245.0344728070602
 20
403.754406181996
 30
0.0
 11
172.0211381331592
 21
403.754406181996
 31
0.0
  0
LINE
  5
1D53
330
2
100
AcDbEntity
  8
HILF
  6
Continuous
100
AcDbLine
 10
172.9906770145862
 20
388.418207995533
 30
0.0
 11
244.0649339256351
 21
388.418207995533
 31
0.0
  0
LINE
  5
1D59
102
{ACAD_REACTORS
330
1F09
102
}
330
2
100
AcDbEntity
  8
STEMPEL
100
AcDbLine
 10
94.02780547011037
 20
449.2743082394909
 30
0.0
 11
323.0278054701104
 21
449.2743082394913
 31
0.0
  0
LINE
  5
1D5B
330
2
100
AcDbEntity
  8
TEXT
 62
     2
100
AcDbLine
 10
112.0659734074486
 20
525.1305589297976
 30
0.0
 11
219.345715839012
 21
525.1305589297976
 31
0.0
  0
TEXT
  5
1D5C
330
2
100
AcDbEntity
  8
TEXT
 62
     1
100
AcDbText
 10
114.3551730240293
 20
515.4222522214822
 30
0.0
 40
7.0
  1
EDV-Art.Nr. 21905.070X
 41
0.8
100
AcDbText
  0
DIMENSION
  5
1D60
330
2
100
AcDbEntity
  8
BEM
100
AcDbDimension
  2
*D1
 10
331.0278054701105
 20
490.9257056023481
 30
0.0
 11
208.5278054701105
 21
497.4257056023481
 31
0.0
 70
    32
  1
%%c<>
 71
     5
 42
245.0000000000001
  3
STANDARD
100
AcDbAlignedDimension
 13
86.02780547011041
 23
433.8349684112705
 33
0.0
 14
331.0278054701105
 24
433.8349684112705
 34
0.0
100
AcDbRotatedDimension
  0
LINE
  5
1D61
330
2
100
AcDbEntity
  8
HILF
100
AcDbLine
 10
242.022075713795
 20
182.774308239491
 30
0.0
 11
175.0335352264256
 21
182.774308239491
 31
0.0
  0
LINE
  5
1D62
330
2
100
AcDbEntity
  8
STEMPEL
100
AcDbLine
 10
244.5029042696812
 20
177.7730136857635
 30
0.0
 11
172.5527066705396
 21
177.7730136857635
 31
0.0
  0
DIMENSION
  5
1D63
330
2
100
AcDbEntity
  8
BEM
100
AcDbDimension
  2
*D2
 10
245.0278054701107
 20
157.9391797108119
 30
0.0
 11
208.5278054701107
 21
164.4391797108119
 31
0.0
 70
    32
  1
%%c<>
 71
     5
 42
73.0
  3
STANDARD
100
AcDbAlignedDimension
 13
172.0278054701107
 23
182.7088168251285
 33
0.0
 14
245.0278054701107
 24
182.7088168251284
 34
0.0
100
AcDbRotatedDimension
1001
ACAD
1000
DSTYLE
1002
{
1070
    40
1040
2.0
1070
    41
1040
3.5
1070
    42
1040
1.0
1070
    43
1040
7.0
1070
    44
1040
1.0
1070
    47
1040
2.0
1070
    48
1040
2.0
1070
    73
1070
     0
1070
    74
1070
     0
1070
    77
1070
     1
1070
    78
1070
     8
1070
    79
1070
     2
1070
   140
1040
3.5
1070
   141
1040
1.5
1070
   146
1040
0.5142857142857144
1070
   147
1040
1.5
1070
   172
1070
     1
1070
   178
1070
     1
1070
   179
1070
     2
1070
   279
1070
     0
1002
}
  0
LINE
  5
1D64
330
2
100
AcDbEntity
  8
STEMPEL
100
AcDbLine
 10
244.5960919087952
 20
177.774308239491
 30
0.0
 11
172.4595190314253
 21
177.774308239491
 31
0.0
  0
TEXT
  5
1D65
330
2
100
AcDbEntity
  8
TEXT
100
AcDbText
 10
202.4626584226295
 20
73.30961091915225
 30
0.0
 40
4.0
  1
Name
 41
0.8
  7
GREEKS
100
AcDbText
  0
TEXT
  5
1D66
330
2
100
AcDbEntity
  8
TEXT
100
AcDbText
 10
192.626132208084
 20
90.76363841023022
 30
0.0
 40
4.0
  1
DIN EN1124-3
 41
0.8
  7
GREEKS
 72
     1
 11
209.6166083985602
 21
90.76363841023022
 31
0.0
100
AcDbText
  0
TEXT
  5
1D67
330
2
100
AcDbEntity
  8
TEXT
100
AcDbText
 10
194.2858954734051
 20
102.4184168434819
 30
0.0
 40
5.0
  1
Zul. Abw.
 41
0.8
  7
GREEKS
100
AcDbText
  0
TEXT
  5
1D68
330
2
100
AcDbEntity
  8
TEXT
100
AcDbText
 10
204.4216048581257
 20
63.0896391972351
 30
0.0
 40
4.0
  1
Koeh
 41
0.8
  7
GREEKS
 72
     1
 11
209.6787477152686
 21
63.0896391972351
 31
0.0
100
AcDbText
  0
INSERT
  5
1D69
330
2
100
AcDbEntity
  8
STEMPEL
100
AcDbBlockReference
  2
LOGO
 10
150.9955485457794
 20
45.02105276448321
 30
0.0
 41
2.0
 42
2.0
 43
2.0
  0
LINE
  5
1D6A
330
2
100
AcDbEntity
  8
STEMPEL
100
AcDbLine
 10
410.0
 20
10.0
 30
0.0
 11
39.99999999999989
 21
10.0
 31
0.0
  0
LINE
  5
1D6B
330
2
100
AcDbEntity
  8
STEMPEL
100
AcDbLine
 10
49.99999999999989
 20
10.0
 30
0.0
 11
410.0
 21
10.0
 31
0.0
  0
LINE
  5
1D6C
330
2
100
AcDbEntity
  8
HILF
100
AcDbLine
 10
146.0000000000001
 20
50.0
 30
0.0
 11
230.0
 21
50.0
 31
0.0
  0
LINE
  5
1D6D
330
2
100
AcDbEntity
  8
HILF
100
AcDbLine
 10
146.0000000000001
 20
60.0
 30
0.0
 11
230.0
 21
60.0
 31
0.0
  0
LINE
  5
1D6E
330
2
100
AcDbEntity
  8
HILF
100
AcDbLine
 10
146.0000000000001
 20
70.0
 30
0.0
 11
230.0
 21
70.0
 31
0.0
  0
LINE
  5
1D6F
330
2
100
AcDbEntity
  8
STEMPEL
100
AcDbLine
 10
410.0
 20
80.0
 30
0.0
 11
146.0000000000001
 21
79.99999999999994
 31
0.0
  0
LINE
  5
1D70
330
2
100
AcDbEntity
  8
STEMPEL
100
AcDbLine
 10
410.0
 20
40.0
 30
0.0
 11
146.0000000000001
 21
40.0
 31
0.0
  0
LINE
  5
1D71
330
2
100
AcDbEntity
  8
STEMPEL
100
AcDbLine
 10
410.0
 20
110.0
 30
0.0
 11
40.0
 21
110.0
 31
0.0
  0
DIMENSION
  5
1D72
330
2
100
AcDbEntity
  8
BEM
100
AcDbDimension
  2
*D3
 10
63.5399517454282
 20
437.7743082394911
 30
0.0
 11
57.03995174542812
 21
307.7736609626274
 31
0.0
 70
    32
 71
     5
 42
260.0012945537276
  3
STANDARD
100
AcDbAlignedDimension
 13
172.5527066705396
 23
177.7730136857635
 33
0.0
 14
86.02780547011034
 24
437.7743082394911
 34
0.0
 50
90.0
100
AcDbRotatedDimension
1001
ACAD
1000
DSTYLE
1002
{
1070
    40
1040
2.0
1070
    41
1040
3.5
1070
    42
1040
1.0
1070
    43
1040
7.0
1070
    44
1040
1.0
1070
    47
1040
2.0
1070
    48
1040
2.0
1070
    73
1070
     0
1070
    74
1070
     0
1070
    77
1070
     1
1070
    78
1070
     8
1070
    79
1070
     2
1070
   140
1040
3.5
1070
   141
1040
1.5
1070
   146
1040
0.5142857142857144
1070
   147
1040
1.5
1070
   172
1070
     1
1070
   178
1070
     1
1070
   179
1070
     2
1070
   279
1070
     0
1002
}
  0
LINE
  5
1D73
330
2
100
AcDbEntity
  8
MITTEL
100
AcDbLine
 10
208.5278054701104
 20
454.2743082394911
 30
0.0
 11
208.5278054701103
 21
268.4445082182569
 31
0.0
  0
LINE
  5
1D74
102
{ACAD_REACTORS
330
22D1
102
}
330
2
100
AcDbEntity
  8
STEMPEL
  6
Continuous
100
AcDbLine
 10
172.0278054701125
 20
380.9558594454434
 30
0.0
 11
172.0278054701107
 21
182.7088168251285
 31
0.0
  0
LINE
  5
1D75
330
2
100
AcDbEntity
  8
STEMPEL
  6
Continuous
100
AcDbLine
 10
173.5278054701125
 20
380.9558594454433
 30
0.0
 11
173.5278054701106
 21
182.774308239491
 31
0.0
  0
TEXT
  5
1D76
330
2
100
AcDbEntity
  8
TEXT
100
AcDbText
 10
41.85509950977677
 20
111.6719999999999
 30
0.0
 40
5.0
  1
Erstellt mit AUTOCAD 2004
 41
0.8
  7
GREEKS
100
AcDbText
  0
LINE
  5
1D77
330
2
100
AcDbEntity
  8
HILF
100
AcDbLine
 10
40.00000000000011
 20
40.0
 30
0.0
 11
146.0000000000001
 21
40.0
 31
0.0
  0
LINE
  5
1D78
330
2
100
AcDbEntity
  8
HILF
100
AcDbLine
 10
40.00000000000011
 20
50.0
 30
0.0
 11
146.0000000000001
 21
50.0
 31
0.0
  0
LINE
  5
1D79
330
2
100
AcDbEntity
  8
HILF
100
AcDbLine
 10
40.00000000000011
 20
60.0
 30
0.0
 11
146.0000000000001
 21
60.0
 31
0.0
  0
LINE
  5
1D7A
330
2
100
AcDbEntity
  8
HILF
100
AcDbLine
 10
40.00000000000011
 20
70.0
 30
0.0
 11
146.0000000000001
 21
70.0
 31
0.0
  0
LINE
  5
1D7B
330
2
100
AcDbEntity
  8
HILF
100
AcDbLine
 10
40.00000000000011
 20
79.99999999999994
 30
0.0
 11
146.0000000000001
 21
79.99999999999994
 31
0.0
  0
LINE
  5
1D7C
330
2
100
AcDbEntity
  8
HILF
100
AcDbLine
 10
40.00000000000011
 20
90.00000000000005
 30
0.0
 11
146.0000000000001
 21
90.00000000000005
 31
0.0
  0
LINE
  5
1D7D
330
2
100
AcDbEntity
  8
HILF
100
AcDbLine
 10
40.00000000000011
 20
100.0
 30
0.0
 11
146.0000000000001
 21
100.0
 31
0.0
  0
LINE
  5
1D7E
330
2
100
AcDbEntity
  8
STEMPEL
100
AcDbLine
 10
145.9999999999999
 20
30.0
 30
0.0
 11
40.0
 21
30.0
 31
0.0
  0
TEXT
  5
1D7F
330
2
100
AcDbEntity
  8
TEXT
100
AcDbText
 10
68.27487448348687
 20
18.65070855089147
 30
0.0
 40
4.0
  1
Änderung
 41
0.8
  7
GREEKS
 72
     4
 11
79.01773162634402
 21
20.36499426517719
 31
0.0
100
AcDbText
  0
LINE
  5
1D80
330
2
100
AcDbEntity
  8
VOLL
100
AcDbLine
 10
54.00000000000011
 20
110.0
 30
0.0
 11
54.0
 21
10.0
 31
0.0
  0
TEXT
  5
1D81
330
2
100
AcDbEntity
  8
TEXT
100
AcDbText
 10
48.26641107045759
 20
13.65465846027189
 30
0.0
 40
4.0
  1
Index
 50
90.0
 41
0.8
  7
GREEKS
100
AcDbText
  0
TEXT
  5
1D82
330
2
100
AcDbEntity
  8
TEXT
100
AcDbText
 10
128.696099283182
 20
18.36499426517718
 30
0.0
 40
4.0
  1
Name
 41
0.8
  7
GREEKS
 72
     4
 11
135.0199088069915
 21
20.36499426517719
 31
0.0
100
AcDbText
  0
TEXT
  5
1D83
330
2
100
AcDbEntity
  8
TEXT
100
AcDbText
 10
109.9011283970591
 20
19.03166093184385
 30
0.0
 40
4.0
  1
Tag
 41
0.8
  7
GREEKS
 72
     4
 11
113.6344617303924
 21
20.36499426517719
 31
0.0
100
AcDbText
  0
LINE
  5
1D84
330
2
100
AcDbEntity
  8
VOLL
100
AcDbLine
 10
124.0000000000001
 20
109.9999999999999
 30
0.0
 11
124.0
 21
10.0
 31
0.0
  0
LINE
  5
1D85
330
2
100
AcDbEntity
  8
VOLL
100
AcDbLine
 10
104.0000000000001
 20
109.9999999999999
 30
0.0
 11
104.0
 21
10.0
 31
0.0
  0
LINE
  5
1D86
330
2
100
AcDbEntity
  8
STEMPEL
100
AcDbLine
 10
146.0000000000001
 20
109.9999999999999
 30
0.0
 11
146.0
 21
10.0
 31
0.0
  0
TEXT
  5
1D87
330
2
100
AcDbEntity
  8
TEXT
100
AcDbText
 10
170.398997108236
 20
63.10765040825732
 30
0.0
 40
4.0
  1
27.08.
 41
0.8
  7
GREEKS
 72
     1
 11
177.4085209177598
 21
63.10765040825732
 31
0.0
100
AcDbText
  0
TEXT
  5
1D88
330
2
100
AcDbEntity
  8
TEXT
100
AcDbText
 10
172.331167315365
 20
73.31880501229926
 30
0.0
 40
4.0
  1
Tag
 41
0.8
  7
GREEKS
100
AcDbText
  0
TEXT
  5
1D89
330
2
100
AcDbEntity
  8
TEXT
100
AcDbText
 10
153.5163572150377
 20
102.4620895087088
 30
0.0
 40
5.0
  1
Maßstab
 41
0.8
  7
GREEKS
100
AcDbText
  0
TEXT
  5
1D8A
330
2
100
AcDbEntity
  8
TEXT
100
AcDbText
 10
147.5836127167615
 20
63.62990369617967
 30
0.0
 40
4.0
  1
Gez.
 41
0.8
  7
GREEKS
100
AcDbText
  0
LINE
  5
1D8B
330
2
100
AcDbEntity
  8
VOLL
100
AcDbLine
 10
164.0000000000001
 20
79.99999999999994
 30
0.0
 11
164.0000000000001
 21
40.0
 31
0.0
  0
TEXT
  5
1D8C
330
2
100
AcDbEntity
  8
TEXT
100
AcDbText
 10
147.5515086571672
 20
53.68926291428374
 30
0.0
 40
4.0
  1
Gepr.
 41
0.8
  7
GREEKS
100
AcDbText
  0
TEXT
  5
1D8D
330
2
100
AcDbEntity
  8
TEXT
100
AcDbText
 10
147.6006777387303
 20
43.5294638964981
 30
0.0
 40
4.0
  1
Norm.
 41
0.8
  7
GREEKS
100
AcDbText
  0
TEXT
  5
1D8E
330
2
100
AcDbEntity
  8
TEXT
 62
     1
100
AcDbText
 10
160.5006306481887
 20
92.93941591526186
 30
0.0
 40
7.0
  1
1:2
 41
0.8
  7
GREEKS
100
AcDbText
  0
TEXT
  5
1D8F
330
2
100
AcDbEntity
  8
TEXT
100
AcDbText
 10
148.622109822104
 20
73.14025471151666
 30
0.0
 40
4.0
  1
2013
 41
0.8
  7
GREEKS
100
AcDbText
  0
LINE
  5
1D90
330
2
100
AcDbEntity
  8
VOLL
100
AcDbLine
 10
190.0000000000001
 20
109.9999999999998
 30
0.0
 11
190.0
 21
40.0
 31
0.0
  0
LINE
  5
1D91
330
2
100
AcDbEntity
  8
STEMPEL
100
AcDbLine
 10
172.0278054701107
 20
182.7088168251285
 30
0.0
 11
172.4595190314253
 21
177.774308239491
 31
0.0
  0
LINE
  5
1D92
330
2
100
AcDbEntity
  8
STEMPEL
100
AcDbLine
 10
173.5278054701106
 20
182.774308239491
 30
0.0
 11
173.9652487877403
 21
177.774308239491
 31
0.0
  0
ARC
  5
1D95
102
{ACAD_REACTORS
330
1F09
102
}
330
2
100
AcDbEntity
  8
STEMPEL
100
AcDbCircle
 10
143.0278054701103
 20
446.2743082394911
 30
0.0
 40
3.0
100
AcDbArc
 50
270.0
 51
90.0
  0
LINE
  5
1D96
102
{ACAD_REACTORS
330
1F09
102
}
330
2
100
AcDbEntity
  8
STEMPEL
100
AcDbLine
 10
123.5278054701106
 20
443.2743082394907
 30
0.0
 11
168.1378978307123
 21
443.2743082394908
 31
0.0
  0
LINE
  5
1D97
102
{ACAD_REACTORS
330
212D
102
}
330
2
100
AcDbEntity
  8
STEMPEL
100
AcDbLine
 10
123.5278054701106
 20
440.7743082394909
 30
0.0
 11
168.6238370663745
 21
440.774308239491
 31
0.0
  0
LINE
  5
1D99
102
{ACAD_REACTORS
330
22D1
102
}
330
2
100
AcDbEntity
  8
STEMPEL
100
AcDbLine
 10
92.24531989138233
 20
435.7743082394912
 30
0.0
 11
150.2128024173982
 21
435.7743082394907
 31
0.0
  0
LINE
  5
1D9A
330
2
100
AcDbEntity
  8
STEMPEL
100
AcDbLine
 10
133.8422011004787
 20
432.4207548488971
 30
0.0
 11
87.44201903248324
 21
432.4207548488971
 31
0.0
  0
LINE
  5
1D9B
102
{ACAD_REACTORS
330
212D
102
}
330
2
100
AcDbEntity
  8
STEMPEL
100
AcDbLine
 10
86.02780547011034
 20
437.7743082394911
 30
0.0
 11
167.8951760758492
 21
437.7743082394912
 31
0.0
  0
LINE
  5
1D9C
102
{ACAD_REACTORS
330
1F09
102
}
330
2
100
AcDbEntity
  8
STEMPEL
100
AcDbLine
 10
94.02780547011033
 20
443.2743082394908
 30
0.0
 11
113.5278054701106
 21
443.2743082394907
 31
0.0
  0
LINE
  5
1D9E
102
{ACAD_REACTORS
330
212D
102
}
330
2
100
AcDbEntity
  8
STEMPEL
100
AcDbLine
 10
86.02780547011034
 20
440.774308239491
 30
0.0
 11
113.5278054701106
 21
440.7743082394907
 31
0.0
  0
ARC
  5
1DA3
330
2
100
AcDbEntity
  8
STEMPEL
100
AcDbCircle
 10
92.24531989138233
 20
432.2743082394906
 30
0.0
 40
5.499999999999851
100
AcDbArc
 50
90.0
 51
135.0
  0
LINE
  5
1DA4
330
2
100
AcDbEntity
  8
STEMPEL
100
AcDbLine
 10
86.02780547011013
 20
433.8349684112704
 30
0.0
 11
87.44201903248301
 21
432.4207548488971
 31
0.0
  0
LINE
  5
1DA5
330
2
100
AcDbEntity
  8
STEMPEL
100
AcDbLine
 10
86.02780547011013
 20
433.8349684112704
 30
0.0
 11
88.35623259485613
 21
436.1633955360166
 31
0.0
  0
ARC
  5
1DA6
330
2
100
AcDbEntity
  8
STEMPEL
100
AcDbCircle
 10
92.24531989138233
 20
432.2743082394906
 30
0.0
 40
3.499999999999851
100
AcDbArc
 50
90.0
 51
135.0
  0
LINE
  5
1DA7
330
2
100
AcDbEntity
  8
STEMPEL
100
AcDbLine
 10
87.44201903248324
 20
432.4207548488973
 30
0.0
 11
89.77044615722922
 21
434.7491819736434
 31
0.0
  0
ARC
  5
1DA8
102
{ACAD_REACTORS
330
1F09
102
}
330
2
100
AcDbEntity
  8
STEMPEL
100
AcDbCircle
 10
94.02780547011037
 20
446.2743082394909
 30
0.0
 40
3.0
100
AcDbArc
 50
90.0
 51
270.0
  0
LINE
  5
1DA9
102
{ACAD_REACTORS
330
212D
102
}
330
2
100
AcDbEntity
  8
STEMPEL
100
AcDbLine
 10
86.02780547011034
 20
440.774308239491
 30
0.0
 11
86.02780547011034
 21
437.7743082394911
 31
0.0
  0
LINE
  5
1DAB
330
2
100
AcDbEntity
  8
TEXT
 62
     2
100
AcDbLine
 10
112.0659734074486
 20
525.1305589297976
 30
0.0
 11
106.003287881008
 21
493.1448280294195
 31
0.0
  0
LINE
  5
1DAE
330
2
100
AcDbEntity
  8
MITTEL
100
AcDbLine
 10
118.5278054701104
 20
467.774308239491
 30
0.0
 11
118.5278054701104
 21
432.7743082394907
 31
0.0
  0
LINE
  5
1DAF
330
2
100
AcDbEntity
  8
HILF
100
AcDbLine
 10
122.5278054701106
 20
462.7743082394911
 30
0.0
 11
122.5278054701106
 21
459.274308239491
 31
0.0
  0
LINE
  5
1DB0
330
2
100
AcDbEntity
  8
STEMPEL
100
AcDbLine
 10
123.5278054701106
 20
461.774308239491
 30
0.0
 11
123.5278054701105
 21
459.274308239491
 31
0.0
  0
LINE
  5
1DB1
330
2
100
AcDbEntity
  8
HILF
100
AcDbLine
 10
114.5278054701106
 20
462.774308239491
 30
0.0
 11
114.5278054701106
 21
459.274308239491
 31
0.0
  0
LINE
  5
1DB2
330
2
100
AcDbEntity
  8
STEMPEL
100
AcDbLine
 10
113.5278054701106
 20
461.7743082394911
 30
0.0
 11
113.5278054701106
 21
459.274308239491
 31
0.0
  0
LINE
  5
1DB5
330
2
100
AcDbEntity
  8
HILF
100
AcDbLine
 10
114.5278054701106
 20
449.2743082394913
 30
0.0
 11
114.5278054701106
 21
437.7743082394911
 31
0.0
  0
LINE
  5
1DB6
330
2
100
AcDbEntity
  8
STEMPEL
100
AcDbLine
 10
113.5278054701106
 20
449.2743082394913
 30
0.0
 11
113.5278054701106
 21
437.7743082394911
 31
0.0
  0
LINE
  5
1DB7
102
{ACAD_REACTORS
330
1F09
102
}
330
2
100
AcDbEntity
  8
STEMPEL
100
AcDbLine
 10
112.0278054701106
 20
449.2743082394913
 30
0.0
 11
112.0278054701106
 21
443.2743082394908
 31
0.0
  0
LINE
  5
1DB8
102
{ACAD_REACTORS
330
212D
102
}
330
2
100
AcDbEntity
  8
STEMPEL
100
AcDbLine
 10
112.0278054701106
 20
440.7743082394907
 30
0.0
 11
112.0278054701106
 21
437.774308239491
 31
0.0
  0
LINE
  5
1DBA
330
2
100
AcDbEntity
  8
STEMPEL
100
AcDbLine
 10
123.5278054701106
 20
449.2743082394913
 30
0.0
 11
123.5278054701106
 21
437.774308239491
 31
0.0
  0
LINE
  5
1DBB
330
2
100
AcDbEntity
  8
HILF
100
AcDbLine
 10
122.5278054701106
 20
449.2743082394913
 30
0.0
 11
122.5278054701106
 21
437.774308239491
 31
0.0
  0
LINE
  5
1DBC
102
{ACAD_REACTORS
330
1F09
102
}
330
2
100
AcDbEntity
  8
STEMPEL
100
AcDbLine
 10
125.0278054701106
 20
449.2743082394913
 30
0.0
 11
125.0278054701106
 21
443.2743082394907
 31
0.0
  0
LINE
  5
1DBD
102
{ACAD_REACTORS
330
212D
102
}
330
2
100
AcDbEntity
  8
STEMPEL
100
AcDbLine
 10
125.0278054701106
 20
440.774308239491
 30
0.0
 11
125.0278054701106
 21
437.774308239491
 31
0.0
  0
LINE
  5
1DC2
330
2
100
AcDbEntity
  8
STEMPEL
100
AcDbLine
 10
122.5278054701106
 20
462.7743082394911
 30
0.0
 11
114.5278054701106
 21
462.7743082394911
 31
0.0
  0
LINE
  5
1DC3
330
2
100
AcDbEntity
  8
STEMPEL
100
AcDbLine
 10
113.5278054701106
 20
461.7743082394911
 30
0.0
 11
123.5278054701103
 21
461.7743082394911
 31
0.0
  0
LINE
  5
1DC4
330
2
100
AcDbEntity
  8
STEMPEL
100
AcDbLine
 10
122.5278054701104
 20
462.7743082394911
 30
0.0
 11
114.5278054701104
 21
462.7743082394911
 31
0.0
  0
LINE
  5
1DC5
330
2
100
AcDbEntity
  8
STEMPEL
100
AcDbLine
 10
113.5278054701104
 20
461.7743082394911
 30
0.0
 11
123.5278054701102
 21
461.7743082394911
 31
0.0
  0
LINE
  5
1DC6
330
2
100
AcDbEntity
  8
STEMPEL
100
AcDbLine
 10
114.5278054701106
 20
462.7743082394911
 30
0.0
 11
113.5278054701106
 21
461.7743082394911
 31
0.0
  0
LINE
  5
1DC7
330
2
100
AcDbEntity
  8
STEMPEL
100
AcDbLine
 10
114.5278054701104
 20
462.7743082394911
 30
0.0
 11
113.5278054701104
 21
461.7743082394911
 31
0.0
  0
LINE
  5
1DC8
330
2
100
AcDbEntity
  8
STEMPEL
100
AcDbLine
 10
123.5278054701106
 20
461.7743082394911
 30
0.0
 11
122.5278054701106
 21
462.7743082394911
 31
0.0
  0
LINE
  5
1DC9
330
2
100
AcDbEntity
  8
STEMPEL
100
AcDbLine
 10
123.5278054701105
 20
461.7743082394911
 30
0.0
 11
122.5278054701104
 21
462.7743082394911
 31
0.0
  0
ARC
  5
1DCB
330
2
100
AcDbEntity
  8
STEMPEL
  6
Continuous
100
AcDbCircle
 10
181.2278054701125
 20
391.1617401031818
 30
0.0
 40
10.5
100
AcDbArc
 50
180.0
 51
210.6834171089752
  0
ARC
  5
1DCC
330
2
100
AcDbEntity
  8
STEMPEL
  6
Continuous
100
AcDbCircle
 10
181.2278054701125
 20
391.1617401031818
 30
0.0
 40
12.0
100
AcDbArc
 50
180.0
 51
210.6834171089752
  0
ARC
  5
1DCD
330
2
100
AcDbEntity
  8
STEMPEL
  6
Continuous
100
AcDbCircle
 10
164.0278054701125
 20
380.9558594454434
 30
0.0
 40
9.5
100
AcDbArc
 50
0.0
 51
30.68341710897518
  0
ARC
  5
1DCE
330
2
100
AcDbEntity
  8
STEMPEL
  6
Continuous
100
AcDbCircle
 10
164.0278054701125
 20
380.9558594454435
 30
0.0
 40
8.0
100
AcDbArc
 50
0.0
 51
30.68341710897518
  0
TEXT
  5
1DCF
330
2
100
AcDbEntity
  8
TEXT
 62
     1
100
AcDbText
 10
201.9190907403711
 20
356.0223834527081
 30
0.0
 40
7.0
  1
DN70
 50
90.0
 41
0.8
  7
GREEKS
100
AcDbText
  0
ARC
  5
1DD0
330
2
100
AcDbEntity
  8
STEMPEL
100
AcDbCircle
 10
150.212802417398
 20
429.7743082394911
 30
0.0
 40
8.0
100
AcDbArc
 50
45.0000000000023
 51
90.0
  0
ARC
  5
1DD1
330
2
100
AcDbEntity
  8
STEMPEL
  6
Continuous
100
AcDbCircle
 10
191.7278054701096
 20
430.224091278646
 30
0.0
 40
25.0
100
AcDbArc
 50
155.0418036876905
 51
180.0
  0
ARC
  5
1DD2
102
{ACAD_REACTORS
330
1FEA
102
}
330
2
100
AcDbEntity
  8
STEMPEL
  6
Continuous
100
AcDbCircle
 10
191.7278054701096
 20
430.224091278646
 30
0.0
 40
23.5
100
AcDbArc
 50
153.3274900100915
 51
180.0
  0
LINE
  5
1DD4
330
2
100
AcDbEntity
  8
MITTEL
100
AcDbLine
 10
163.5278054701102
 20
467.7743082394909
 30
0.0
 11
163.5278054701102
 21
432.7743082394906
 31
0.0
  0
LINE
  5
1DD5
330
2
100
AcDbEntity
  8
STEMPEL
100
AcDbLine
 10
155.86965666689
 20
435.4311624889838
 30
0.0
 11
166.727805470111
 21
424.5730136857641
 31
0.0
  0
LINE
  5
1DD6
102
{ACAD_REACTORS
330
1D50
102
}
330
2
100
AcDbEntity
  8
STEMPEL
100
AcDbLine
 10
154.4554431045172
 20
434.0169489266102
 30
0.0
 11
165.3135919077381
 21
423.1588001233907
 31
0.0
  0
ARC
  5
1DD7
330
2
100
AcDbEntity
  8
STEMPEL
100
AcDbCircle
 10
150.2128024173981
 20
429.7743082394907
 30
0.0
 40
6.0
100
AcDbArc
 50
45.0000000000023
 51
90.0
  0
ARC
  5
1DD8
330
2
100
AcDbEntity
  8
STEMPEL
  6
Continuous
100
AcDbCircle
 10
191.7278054701096
 20
414.6430136857644
 30
0.0
 40
25.00009324312574
100
AcDbArc
 50
179.8435140456656
 51
201.183154393037
  0
ARC
  5
1DD9
330
2
100
AcDbEntity
  8
STEMPEL
  6
Continuous
100
AcDbCircle
 10
191.7278054701096
 20
414.6430136857644
 30
0.0
 40
23.50009324312573
100
AcDbArc
 50
179.8435140456656
 51
201.183154393037
  0
ARC
  5
1DDA
330
2
100
AcDbEntity
  8
STEMPEL
  6
Continuous
100
AcDbCircle
 10
157.2278054701096
 20
401.2730136857643
 30
0.0
 40
12.0
100
AcDbArc
 50
0.0
 51
21.183154393037
  0
ARC
  5
1DDB
330
2
100
AcDbEntity
  8
STEMPEL
  6
Continuous
100
AcDbCircle
 10
157.2278054701096
 20
401.2730136857643
 30
0.0
 40
13.5
100
AcDbArc
 50
0.0
 51
21.183154393037
  0
LINE
  5
1DDC
330
2
100
AcDbEntity
  8
STEMPEL
  6
Continuous
100
AcDbLine
 10
169.2278054701096
 20
401.2730136857643
 30
0.0
 11
169.2278054701126
 21
391.1617401031818
 31
0.0
  0
LINE
  5
1DDD
330
2
100
AcDbEntity
  8
STEMPEL
  6
Continuous
100
AcDbLine
 10
170.7278054701096
 20
401.2730136857643
 30
0.0
 11
170.7278054701125
 21
391.1617401031818
 31
0.0
  0
LINE
  5
1DE0
102
{ACAD_REACTORS
330
1FEA
102
}
330
2
100
AcDbEntity
  8
STEMPEL
  6
Continuous
100
AcDbLine
 10
168.2278054701096
 20
430.2240912786459
 30
0.0
 11
168.2278054701096
 21
414.5768137189735
 31
0.0
  0
LINE
  5
1DE1
102
{ACAD_REACTORS
330
1D50
102
}
330
2
100
AcDbEntity
  8
STEMPEL
  6
Continuous
100
AcDbLine
 10
166.7278054701096
 20
430.2240912786459
 30
0.0
 11
166.7278054701096
 21
414.7112937339551
 31
0.0
  0
ARC
  5
1DE2
102
{ACAD_REACTORS
330
1D50
102
}
330
2
100
AcDbEntity
  8
SCHRAFF
100
AcDbCircle
 10
167.2046560310543
 20
422.3588001233917
 30
0.0
 40
2.618175784065105
100
AcDbArc
 50
152.1377726768269
 51
259.5060999885398
  0
LINE
  5
1DE3
102
{ACAD_REACTORS
330
1D50
102
}
330
2
100
AcDbEntity
  8
STEMPEL
100
AcDbLine
 10
166.727805470111
 20
424.573013685764
 30
0.0
 11
165.3135919077381
 21
423.1588001233907
 31
0.0
  0
LINE
  5
1DEA
330
2
100
AcDbEntity
  8
STEMPEL
100
AcDbLine
 10
167.5278054701101
 20
462.7743082394911
 30
0.0
 11
159.5278054701101
 21
462.7743082394911
 31
0.0
  0
LINE
  5
1DEF
330
2
100
AcDbEntity
  8
STEMPEL
100
AcDbLine
 10
158.5278054701101
 20
461.7743082394911
 30
0.0
 11
168.5278054701099
 21
461.7743082394911
 31
0.0
  0
LINE
  5
1DF0
330
2
100
AcDbEntity
  8
STEMPEL
100
AcDbLine
 10
158.5278054701104
 20
461.7743082394911
 30
0.0
 11
168.5278054701102
 21
461.7743082394911
 31
0.0
  0
LINE
  5
1DF1
330
2
100
AcDbEntity
  8
STEMPEL
100
AcDbLine
 10
167.5278054701105
 20
462.7743082394911
 30
0.0
 11
159.5278054701104
 21
462.7743082394911
 31
0.0
  0
LINE
  5
1DF2
330
2
100
AcDbEntity
  8
HILF
100
AcDbLine
 10
159.5278054701101
 20
462.774308239491
 30
0.0
 11
159.5278054701101
 21
459.274308239491
 31
0.0
  0
LINE
  5
1DF3
330
2
100
AcDbEntity
  8
STEMPEL
100
AcDbLine
 10
158.5278054701101
 20
461.7743082394911
 30
0.0
 11
158.5278054701101
 21
459.274308239491
 31
0.0
  0
LINE
  5
1DF4
102
{ACAD_REACTORS
330
212D
102
}
330
2
100
AcDbEntity
  8
STEMPEL
100
AcDbLine
 10
146.0278054701103
 20
440.774308239491
 30
0.0
 11
146.0278054701103
 21
437.7743082394911
 31
0.0
  0
LINE
  5
1DFB
330
2
100
AcDbEntity
  8
STEMPEL
100
AcDbLine
 10
159.5278054701101
 20
462.7743082394911
 30
0.0
 11
158.5278054701101
 21
461.7743082394911
 31
0.0
  0
LINE
  5
1DFC
330
2
100
AcDbEntity
  8
STEMPEL
100
AcDbLine
 10
159.5278054701104
 20
462.7743082394911
 30
0.0
 11
158.5278054701104
 21
461.7743082394911
 31
0.0
  0
LINE
  5
1DFD
330
2
100
AcDbEntity
  8
HILF
100
AcDbLine
 10
167.5278054701101
 20
462.7743082394911
 30
0.0
 11
167.5278054701101
 21
459.274308239491
 31
0.0
  0
LINE
  5
1DFE
330
2
100
AcDbEntity
  8
STEMPEL
100
AcDbLine
 10
168.5278054701101
 20
461.774308239491
 30
0.0
 11
168.5278054701101
 21
459.274308239491
 31
0.0
  0
LINE
  5
1E00
102
{ACAD_REACTORS
330
1FEA
102
}
330
2
100
AcDbEntity
  8
STEMPEL
100
AcDbLine
 10
166.7278054701103
 20
440.7730136857622
 30
0.0
 11
170.7285141475758
 21
440.7730136857622
 31
0.0
  0
LINE
  5
1E09
330
2
100
AcDbEntity
  8
STEMPEL
100
AcDbLine
 10
168.5278054701101
 20
461.7743082394911
 30
0.0
 11
167.5278054701101
 21
462.7743082394911
 31
0.0
  0
LINE
  5
1E0A
330
2
100
AcDbEntity
  8
STEMPEL
100
AcDbLine
 10
168.5278054701105
 20
461.7743082394911
 30
0.0
 11
167.5278054701105
 21
462.7743082394911
 31
0.0
  0
LINE
  5
1E0B
330
2
100
AcDbEntity
  8
STEMPEL
100
AcDbLine
 10
182.7187994142472
 20
463.2743082394902
 30
0.0
 11
202.1639620462703
 21
463.2743082394904
 31
0.0
  0
LINE
  5
1E0C
330
2
100
AcDbEntity
  8
HILF
100
AcDbLine
 10
201.8434865199432
 20
454.187046207305
 30
0.0
 11
184.1550751879314
 21
454.187046207305
 31
0.0
  0
LINE
  5
1E0D
330
2
100
AcDbEntity
  8
HILF
100
AcDbLine
 10
183.3320490154918
 20
463.2743082394902
 30
0.0
 11
183.3058589375657
 21
454.1870462073027
 31
0.0
  0
LINE
  5
1E0E
330
2
100
AcDbEntity
  8
STEMPEL
100
AcDbLine
 10
181.7188036068718
 20
462.2772039659369
 30
0.0
 11
181.6953766248719
 21
454.187046207305
 31
0.0
  0
LINE
  5
1E0F
330
2
100
AcDbEntity
  8
MITTEL
100
AcDbLine
 10
192.6036100192622
 20
470.7431710193382
 30
0.0
 11
192.6036100192622
 21
446.8205563185406
 31
0.0
  0
LWPOLYLINE
  5
1E10
330
2
100
AcDbEntity
  8
STEMPEL
100
AcDbPolyline
 90
       10
 70
   128
 43
0.0
 10
180.1377160017631
 20
449.2743082394911
 10
180.4202482967672
 20
449.3522534955489
 10
180.6918858651717
 20
449.5764668294985
 10
180.9443751369156
 20
449.9401356326451
 10
181.170044353243
 20
450.4322100124306
 10
181.3620366692097
 20
451.0377385378267
 10
181.5145184954481
 20
451.7383225310013
 10
181.6228567488273
 20
452.5126751018349
 10
181.6837596263401
 20
453.3372679393035
 10
181.6953766248719
 20
454.187046207305
  0
LWPOLYLINE
  5
1E11
330
2
100
AcDbEntity
  8
HILF
100
AcDbPolyline
 90
       10
 70
   128
 43
0.0
 10
181.748198314457
 20
449.2743082394888
 10
182.0307306094611
 20
449.3522534955467
 10
182.3023681778655
 20
449.5764668294962
 10
182.5548574496094
 20
449.9401356326429
 10
182.7805266659369
 20
450.4322100124283
 10
182.9725189819036
 20
451.0377385378244
 10
183.1250008081419
 20
451.7383225309991
 10
183.2333390615211
 20
452.5126751018325
 10
183.294241939034
 20
453.3372679393012
 10
183.3058589375657
 20
454.1870462073027
  0
ARC
  5
1E12
330
2
100
AcDbEntity
  8
STEMPEL
100
AcDbCircle
 10
182.7187994142472
 20
462.2743082394902
 30
0.0
 40
1.0
100
AcDbArc
 50
90.0
 51
179.8340868641094
  0
LINE
  5
1E13
330
2
100
AcDbEntity
  8
STEMPEL
100
AcDbLine
 10
203.1639578536457
 20
462.2772039659372
 30
0.0
 11
203.1873848356457
 21
454.187046207305
 31
0.0
  0
LWPOLYLINE
  5
1E14
330
2
100
AcDbEntity
  8
STEMPEL
100
AcDbPolyline
 90
       10
 70
   128
 43
0.0
 10
-204.7450454587545
 20
449.2743082394911
 10
-204.4625131637504
 20
449.3522534955489
 10
-204.190875595346
 20
449.5764668294985
 10
-203.938386323602
 20
449.9401356326451
 10
-203.7127171072746
 20
450.4322100124306
 10
-203.5207247913078
 20
451.0377385378267
 10
-203.3682429650695
 20
451.7383225310013
 10
-203.2599047116903
 20
452.5126751018349
 10
-203.1990018341775
 20
453.3372679393035
 10
-203.1873848356457
 20
454.187046207305
210
0.0
220
0.0
230
-1.0
  0
ARC
  5
1E15
330
2
100
AcDbEntity
  8
STEMPEL
100
AcDbCircle
 10
202.1639620462703
 20
462.2743082394904
 30
0.0
 40
1.0
100
AcDbArc
 50
0.1659131358906188
 51
90.0
  0
TEXT
  5
1E16
330
2
100
AcDbEntity
  8
TEXT
 62
     1
100
AcDbText
 10
114.6206267918002
 20
527.7026825024349
 30
0.0
 40
7.0
  1
Losflansch DN70
 41
0.8
100
AcDbText
  0
TEXT
  5
1E17
330
2
100
AcDbEntity
  8
TEXT
100
AcDbText
 10
416.5811541437437
 20
12.148048153383
 30
0.0
 40
4.0
  1
Diese Zeichnung ist urheberrechtlich geschützt und bleibt unser Eigentum. Sie darf weder ganz noch teilweise vervielfältigt und nicht an Dritte weitergegeben werden.
 50
90.0
 41
0.8
  7
GREEKS
100
AcDbText
  0
LINE
  5
1E18
102
{ACAD_REACTORS
330
22D1
102
}
330
2
100
AcDbEntity
  8
STEMPEL
  6
Continuous
100
AcDbLine
 10
245.0278054701125
 20
380.9558594454438
 30
0.0
 11
245.0278054701106
 21
182.7088168251377
 31
0.0
  0
LINE
  5
1E19
330
2
100
AcDbEntity
  8
STEMPEL
  6
Continuous
100
AcDbLine
 10
243.5278054701125
 20
380.9558594454437
 30
0.0
 11
243.5278054701105
 21
182.7743082394971
 31
0.0
  0
LINE
  5
1E1A
330
2
100
AcDbEntity
  8
TEXT
 62
     2
100
AcDbLine
 10
275.075062668489
 20
229.9126477486386
 30
0.0
 11
402.5412352983471
 21
229.9126477486386
 31
0.0
  0
TEXT
  5
1E1B
330
2
100
AcDbEntity
  8
TEXT
 62
     1
100
AcDbText
 10
276.4264318166652
 20
233.0414681138707
 30
0.0
 40
7.0
  1
Ablaufkörper mit Muffe DN70
 41
0.8
  7
GREEKS
100
AcDbText
  0
TEXT
  5
1E1C
330
2
100
AcDbEntity
  8
TEXT
 62
     1
100
AcDbText
 10
275.8194722040735
 20
220.2634460108602
 30
0.0
 40
7.0
  1
EDV-Art.Nr. 21968.070X
 41
0.8
  7
GREEKS
100
AcDbText
  0
TEXT
  5
1E1D
330
2
100
AcDbEntity
  8
TEXT
100
AcDbText
 10
336.7238616296993
 20
73.1811823709997
 30
0.0
 40
5.0
  1
Ersatz für:
 41
0.8
  7
GREEKS
100
AcDbText
  0
TEXT
  5
1E1E
330
2
100
AcDbEntity
  8
TEXT
100
AcDbText
 10
337.2400861497006
 20
52.07416177878599
 30
0.0
 40
5.0
  1
ersetzt durch:
 41
0.8
  7
GREEKS
100
AcDbText
  0
TEXT
  5
1E1F
330
2
100
AcDbEntity
  8
TEXT
100
AcDbText
 10
336.178754957634
 20
102.3132034537136
 30
0.0
 40
5.0
  1
Zeichnungs Nr.
 41
0.8
  7
GREEKS
100
AcDbText
  0
LINE
  5
1E20
330
2
100
AcDbEntity
  8
HILF
100
AcDbLine
 10
336.7238616296993
 20
83.77983636955827
 30
0.0
 11
404.8588839326728
 21
83.77983636955827
 31
0.0
  0
LINE
  5
1E21
330
2
100
AcDbEntity
  8
VOLL
100
AcDbLine
 10
332.0
 20
60.0
 30
0.0
 11
410.0
 21
60.0
 31
0.0
  0
LINE
  5
1E22
330
2
100
AcDbEntity
  8
HILF
100
AcDbLine
 10
233.4909699289885
 20
14.89398258028314
 30
0.0
 11
404.8588839326728
 21
14.89398258028314
 31
0.0
  0
TEXT
  5
1E23
330
2
100
AcDbEntity
  8
TEXT
100
AcDbText
 10
235.1296391125315
 20
71.64011943042158
 30
0.0
 40
5.0
  1
Grundeinheit DN70
 41
0.8
  7
GREEKS
100
AcDbText
  0
LINE
  5
1E24
330
2
100
AcDbEntity
  8
HILF
100
AcDbLine
 10
234.7736801096947
 20
50.0
 30
0.0
 11
324.835391655631
 21
50.0
 31
0.0
  0
LINE
  5
1E25
330
2
100
AcDbEntity
  8
HILF
100
AcDbLine
 10
234.7736801096947
 20
60.0
 30
0.0
 11
324.835391655631
 21
60.0
 31
0.0
  0
LINE
  5
1E26
330
2
100
AcDbEntity
  8
HILF
100
AcDbLine
 10
234.7736801096947
 20
70.0
 30
0.0
 11
324.835391655631
 21
70.0
 31
0.0
  0
LINE
  5
1E27
330
2
100
AcDbEntity
  8
HILF
100
AcDbLine
 10
234.7736801096947
 20
84.03758247564139
 30
0.0
 11
324.8353916556311
 21
84.03758247564139
 31
0.0
  0
TEXT
  5
1E28
330
2
100
AcDbEntity
  8
TEXT
 62
     1
100
AcDbText
 10
234.7736801096947
 20
87.41748789253779
 30
0.0
 40
7.0
  1
Drainlet Rohrdurchführungen
 41
0.6
  7
GREEKS
100
AcDbText
  0
TEXT
  5
1E29
330
2
100
AcDbEntity
  8
TEXT
100
AcDbText
 10
235.1296391125315
 20
51.64011943042158
 30
0.0
 40
5.0
  1
EDV-Art.Nr. 21909.070X
 41
0.8
  7
GREEKS
100
AcDbText
  0
LINE
  5
1E2A
330
2
100
AcDbEntity
  8
STEMPEL
100
AcDbLine
 10
230.0
 20
110.0
 30
0.0
 11
230.0
 21
10.0
 31
0.0
  0
TEXT
  5
1E2B
330
2
100
AcDbEntity
  8
TEXT
100
AcDbText
 10
234.742238391136
 20
30.8456057019306
 30
0.0
 40
5.0
  1
Bauvorhaben
 41
0.8
  7
GREEKS
100
AcDbText
  0
TEXT
  5
1E2C
330
2
100
AcDbEntity
  8
TEXT
100
AcDbText
 10
234.9837501577827
 20
42.62974153022628
 30
0.0
 40
4.0
  1
21909070W.DWG
 41
0.8
  7
GREEKS
100
AcDbText
  0
TEXT
  5
1E2D
330
2
100
AcDbEntity
  8
TEXT
100
AcDbText
 10
234.877940380901
 20
102.5489328011779
 30
0.0
 40
5.0
  1
Benennung
 41
0.8
  7
GREEKS
100
AcDbText
  0
LINE
  5
1E2E
330
2
100
AcDbEntity
  8
STEMPEL
100
AcDbLine
 10
332.0
 20
109.9999999999997
 30
0.0
 11
332.0
 21
40.0
 31
0.0
  0
LINE
  5
1E2F
330
2
100
AcDbEntity
  8
STEMPEL
100
AcDbLine
 10
243.5278054701105
 20
182.7743082394971
 30
0.0
 11
243.0903621524802
 21
177.774308239491
 31
0.0
  0
LINE
  5
1E30
330
2
100
AcDbEntity
  8
STEMPEL
100
AcDbLine
 10
245.0278054701106
 20
182.7088168251377
 30
0.0
 11
244.5960919087952
 21
177.774308239491
 31
0.0
  0
LINE
  5
1E31
330
2
100
AcDbEntity
  8
TEXT
 62
     2
100
AcDbLine
 10
275.075062668489
 20
229.9126477486386
 30
0.0
 11
244.0278054701102
 21
214.9025932886946
 31
0.0
  0
TEXT
  5
1E33
330
2
100
AcDbEntity
  8
TEXT
 62
     1
100
AcDbText
 10
344.6774058327488
 20
88.14901428913959
 30
0.0
 40
7.0
  1
21909070W
 41
0.8
  7
GREEKS
 72
     1
 11
368.1440724994155
 21
88.14901428913959
 31
0.0
100
AcDbText
  0
TEXT
  5
1E34
330
2
100
AcDbEntity
  8
TEXT
 62
     1
100
AcDbText
 10
298.5155217240098
 20
367.4594469226914
 30
0.0
 40
7.0
  1
EDV-Art.Nr. 00911.070X
 41
0.8
  7
GREEKS
100
AcDbText
  0
TEXT
  5
1E35
330
2
100
AcDbEntity
  8
TEXT
 62
     1
100
AcDbText
 10
299.1224813366015
 20
379.5739466438568
 30
0.0
 40
7.0
  1
Dichtelement DN70
 41
0.8
  7
GREEKS
100
AcDbText
  0
LINE
  5
1E36
330
2
100
AcDbEntity
  8
TEXT
 62
     2
100
AcDbLine
 10
297.7711121884253
 20
376.3950943315068
 30
0.0
 11
403.7560302726319
 21
376.3950943315068
 31
0.0
  0
TEXT
  5
1E37
330
2
100
AcDbEntity
  8
TEXT
 62
     1
100
AcDbText
 10
299.4542600709136
 20
399.0241833811945
 30
0.0
 40
7.0
  1
EDV-Art.Nr. 21920.070X
 41
0.8
  7
GREEKS
100
AcDbText
  0
TEXT
  5
1E38
330
2
100
AcDbEntity
  8
TEXT
 62
     1
100
AcDbText
 10
300.0612196835053
 20
411.1386831023599
 30
0.0
 40
7.0
  1
Kompressionsdichtung
 41
0.8
  7
GREEKS
100
AcDbText
  0
LINE
  5
1E39
330
2
100
AcDbEntity
  8
TEXT
 62
     2
100
AcDbLine
 10
298.7098505353291
 20
407.9598307900099
 30
0.0
 11
404.8959235264927
 21
407.9598307900099
 31
0.0
  0
LINE
  5
1E3B
102
{ACAD_REACTORS
330
1F09
102
}
330
2
100
AcDbEntity
  8
STEMPEL
100
AcDbLine
 10
248.9177131095083
 20
443.2743082394909
 30
0.0
 11
293.5278054701101
 21
443.2743082394911
 31
0.0
  0
LINE
  5
1E3C
102
{ACAD_REACTORS
330
212D
102
}
330
2
100
AcDbEntity
  8
STEMPEL
100
AcDbLine
 10
249.16043486437
 20
437.774308239491
 30
0.0
 11
331.0278054701104
 21
437.7743082394909
 31
0.0
  0
LINE
  5
1E3E
330
2
100
AcDbEntity
  8
TEXT
 62
     2
100
AcDbLine
 10
244.614662954654
 20
423.6012452666334
 30
0.0
 11
297.7711121884253
 21
376.3950943315068
 31
0.0
  0
LINE
  5
1E3F
330
2
100
AcDbEntity
  8
TEXT
 62
     2
100
AcDbLine
 10
298.7098505353291
 20
407.9598307900099
 30
0.0
 11
273.5392900315418
 21
438.7743082394911
 31
0.0
  0
LINE
  5
1E41
102
{ACAD_REACTORS
330
22D1
102
}
330
2
100
AcDbEntity
  8
STEMPEL
100
AcDbLine
 10
324.8102910488384
 20
435.7743082394912
 30
0.0
 11
266.8428085228224
 21
435.7743082394908
 31
0.0
  0
LINE
  5
1E42
330
2
100
AcDbEntity
  8
STEMPEL
100
AcDbLine
 10
283.2134098397425
 20
432.4207548488971
 30
0.0
 11
329.6135919077375
 21
432.4207548488971
 31
0.0
  0
ARC
  5
1E43
330
2
100
AcDbEntity
  8
STEMPEL
  6
Continuous
100
AcDbCircle
 10
235.8278054701088
 20
391.1617401031818
 30
0.0
 40
10.5
100
AcDbArc
 50
329.3165828910248
 51
0.0
  0
ARC
  5
1E44
330
2
100
AcDbEntity
  8
STEMPEL
  6
Continuous
100
AcDbCircle
 10
235.8278054701088
 20
391.1617401031818
 30
0.0
 40
12.0
100
AcDbArc
 50
329.3165828910248
 51
0.0
  0
ARC
  5
1E45
330
2
100
AcDbEntity
  8
STEMPEL
  6
Continuous
100
AcDbCircle
 10
253.0278054701082
 20
380.9558594454436
 30
0.0
 40
9.499999999999602
100
AcDbArc
 50
149.3165828910248
 51
180.0
  0
ARC
  5
1E46
330
2
100
AcDbEntity
  8
STEMPEL
  6
Continuous
100
AcDbCircle
 10
253.0278054701087
 20
380.9558594454437
 30
0.0
 40
7.999999999999658
100
AcDbArc
 50
149.3165828910248
 51
180.0
  0
ARC
  5
1E4B
330
2
100
AcDbEntity
  8
STEMPEL
100
AcDbCircle
 10
266.8428085228226
 20
429.774308239491
 30
0.0
 40
8.0
100
AcDbArc
 50
90.0
 51
134.9999999999977
  0
ARC
  5
1E4C
330
2
100
AcDbEntity
  8
STEMPEL
  6
Continuous
100
AcDbCircle
 10
225.3278054701095
 20
430.224091278646
 30
0.0
 40
25.0
100
AcDbArc
 50
0.0
 51
24.95819631230951
  0
ARC
  5
1E4D
102
{ACAD_REACTORS
330
1FEA
102
}
330
2
100
AcDbEntity
  8
STEMPEL
  6
Continuous
100
AcDbCircle
 10
225.3278054701095
 20
430.224091278646
 30
0.0
 40
23.5
100
AcDbArc
 50
0.0
 51
26.67250998990116
  0
LINE
  5
1E4F
330
2
100
AcDbEntity
  8
MITTEL
100
AcDbLine
 10
253.5278054701105
 20
467.7743082394909
 30
0.0
 11
253.5278054701105
 21
432.7743082394906
 31
0.0
  0
LINE
  5
1E50
102
{ACAD_REACTORS
330
1D50
102
}
330
2
100
AcDbEntity
  8
STEMPEL
100
AcDbLine
 10
262.6001678357035
 20
434.0169489266104
 30
0.0
 11
251.7420190324824
 21
423.1588001233904
 31
0.0
  0
LINE
  5
1E51
330
2
100
AcDbEntity
  8
STEMPEL
100
AcDbLine
 10
261.1859542733307
 20
435.4311624889837
 30
0.0
 11
250.3278054701095
 21
424.5730136857641
 31
0.0
  0
ARC
  5
1E52
330
2
100
AcDbEntity
  8
STEMPEL
  6
Continuous
100
AcDbCircle
 10
225.3278054701095
 20
414.6430136857644
 30
0.0
 40
23.50009324312573
100
AcDbArc
 50
338.816845606963
 51
0.1564859543343451
  0
ARC
  5
1E53
330
2
100
AcDbEntity
  8
STEMPEL
  6
Continuous
100
AcDbCircle
 10
225.3278054701095
 20
414.6430136857644
 30
0.0
 40
25.00009324312574
100
AcDbArc
 50
338.816845606963
 51
0.1564859543343451
  0
ARC
  5
1E54
330
2
100
AcDbEntity
  8
STEMPEL
  6
Continuous
100
AcDbCircle
 10
259.8278054701095
 20
401.2730136857643
 30
0.0
 40
12.0
100
AcDbArc
 50
158.816845606963
 51
180.0
  0
ARC
  5
1E55
330
2
100
AcDbEntity
  8
STEMPEL
  6
Continuous
100
AcDbCircle
 10
259.8278054701095
 20
401.2730136857643
 30
0.0
 40
13.5
100
AcDbArc
 50
158.816845606963
 51
180.0
  0
LINE
  5
1E56
330
2
100
AcDbEntity
  8
STEMPEL
  6
Continuous
100
AcDbLine
 10
246.3278054701095
 20
401.2730136857643
 30
0.0
 11
246.3278054701088
 21
391.1617401031818
 31
0.0
  0
LINE
  5
1E57
330
2
100
AcDbEntity
  8
STEMPEL
  6
Continuous
100
AcDbLine
 10
247.8278054701095
 20
401.2730136857643
 30
0.0
 11
247.8278054701088
 21
391.1617401031818
 31
0.0
  0
ARC
  5
1E58
102
{ACAD_REACTORS
330
1D50
102
}
330
2
100
AcDbEntity
  8
SCHRAFF
100
AcDbCircle
 10
249.8509549091661
 20
422.3588001233917
 30
0.0
 40
2.61817578406513
100
AcDbArc
 50
280.4939000114302
 51
27.86222732317308
  0
LINE
  5
1E59
102
{ACAD_REACTORS
330
1D50
102
}
330
2
100
AcDbEntity
  8
STEMPEL
100
AcDbLine
 10
250.3278054701095
 20
424.573013685764
 30
0.0
 11
251.7420190324824
 21
423.1588001233907
 31
0.0
  0
LINE
  5
1E5A
102
{ACAD_REACTORS
330
1D50
102
}
330
2
100
AcDbEntity
  8
STEMPEL
  6
Continuous
100
AcDbLine
 10
250.3278054701095
 20
430.2240912786459
 30
0.0
 11
250.3278054701095
 21
414.7112937339551
 31
0.0
  0
LINE
  5
1E5B
102
{ACAD_REACTORS
330
1FEA
102
}
330
2
100
AcDbEntity
  8
STEMPEL
  6
Continuous
100
AcDbLine
 10
248.8278054701095
 20
430.2240912786459
 30
0.0
 11
248.8278054701095
 21
414.5768137189735
 31
0.0
  0
ARC
  5
1E61
330
2
100
AcDbEntity
  8
STEMPEL
100
AcDbCircle
 10
266.8428085228225
 20
429.7743082394909
 30
0.0
 40
6.0
100
AcDbArc
 50
90.0
 51
134.9999999999977
  0
LINE
  5
1E66
330
2
100
AcDbEntity
  8
HILF
100
AcDbLine
 10
257.5278054701106
 20
462.774308239491
 30
0.0
 11
257.5278054701106
 21
459.2743082394912
 31
0.0
  0
LINE
  5
1E67
330
2
100
AcDbEntity
  8
STEMPEL
100
AcDbLine
 10
258.5278054701106
 20
461.7743082394911
 30
0.0
 11
258.5278054701106
 21
459.2743082394912
 31
0.0
  0
LINE
  5
1E68
330
2
100
AcDbEntity
  8
HILF
100
AcDbLine
 10
249.5278054701106
 20
462.7743082394911
 30
0.0
 11
249.5278054701106
 21
459.2743082394912
 31
0.0
  0
LINE
  5
1E69
330
2
100
AcDbEntity
  8
STEMPEL
100
AcDbLine
 10
248.5278054701106
 20
461.774308239491
 30
0.0
 11
248.5278054701106
 21
459.2743082394912
 31
0.0
  0
LINE
  5
1E76
330
2
100
AcDbEntity
  8
STEMPEL
100
AcDbLine
 10
258.5278054701106
 20
461.7743082394911
 30
0.0
 11
248.5278054701108
 21
461.7743082394911
 31
0.0
  0
LINE
  5
1E77
330
2
100
AcDbEntity
  8
STEMPEL
100
AcDbLine
 10
249.5278054701106
 20
462.7743082394911
 30
0.0
 11
257.5278054701106
 21
462.7743082394911
 31
0.0
  0
LINE
  5
1E78
330
2
100
AcDbEntity
  8
STEMPEL
100
AcDbLine
 10
257.5278054701105
 20
462.7743082394911
 30
0.0
 11
249.5278054701105
 21
462.7743082394911
 31
0.0
  0
LINE
  5
1E79
330
2
100
AcDbEntity
  8
STEMPEL
100
AcDbLine
 10
248.5278054701105
 20
461.774308239491
 30
0.0
 11
258.5278054701102
 21
461.774308239491
 31
0.0
  0
LINE
  5
1E7A
330
2
100
AcDbEntity
  8
STEMPEL
100
AcDbLine
 10
248.5278054701106
 20
461.7743082394911
 30
0.0
 11
249.5278054701106
 21
462.7743082394911
 31
0.0
  0
LINE
  5
1E7B
330
2
100
AcDbEntity
  8
STEMPEL
100
AcDbLine
 10
249.5278054701105
 20
462.7743082394911
 30
0.0
 11
248.5278054701105
 21
461.774308239491
 31
0.0
  0
LINE
  5
1E7C
330
2
100
AcDbEntity
  8
STEMPEL
100
AcDbLine
 10
257.5278054701106
 20
462.7743082394911
 30
0.0
 11
258.5278054701106
 21
461.7743082394911
 31
0.0
  0
LINE
  5
1E7D
330
2
100
AcDbEntity
  8
STEMPEL
100
AcDbLine
 10
258.5278054701105
 20
461.774308239491
 30
0.0
 11
257.5278054701105
 21
462.7743082394911
 31
0.0
  0
ARC
  5
1E80
102
{ACAD_REACTORS
330
1F09
102
}
330
2
100
AcDbEntity
  8
STEMPEL
100
AcDbCircle
 10
274.0278054701104
 20
446.2743082394911
 30
0.0
 40
3.0
100
AcDbArc
 50
90.0
 51
270.0
  0
LINE
  5
1E81
102
{ACAD_REACTORS
330
212D
102
}
330
2
100
AcDbEntity
  8
STEMPEL
100
AcDbLine
 10
271.0278054701104
 20
440.7743082394913
 30
0.0
 11
271.0278054701104
 21
437.7743082394909
 31
0.0
  0
LINE
  5
1E84
102
{ACAD_REACTORS
330
1F09
102
}
330
2
100
AcDbEntity
  8
STEMPEL
100
AcDbLine
 10
323.0278054701104
 20
443.2743082394908
 30
0.0
 11
303.5278054701101
 21
443.2743082394907
 31
0.0
  0
LINE
  5
1E87
330
2
100
AcDbEntity
  8
MITTEL
100
AcDbLine
 10
298.5278054701102
 20
467.7743082394909
 30
0.0
 11
298.5278054701105
 21
432.7743082394907
 31
0.0
  0
LINE
  5
1E8B
102
{ACAD_REACTORS
330
1F09
102
}
330
2
100
AcDbEntity
  8
STEMPEL
100
AcDbLine
 10
292.0278054701102
 20
449.2743082394913
 30
0.0
 11
292.0278054701102
 21
443.2743082394911
 31
0.0
  0
LINE
  5
1E8C
102
{ACAD_REACTORS
330
212D
102
}
330
2
100
AcDbEntity
  8
STEMPEL
100
AcDbLine
 10
292.0278054701102
 20
440.7743082394914
 30
0.0
 11
292.0278054701102
 21
437.774308239491
 31
0.0
  0
LINE
  5
1E8F
330
2
100
AcDbEntity
  8
HILF
100
AcDbLine
 10
302.5278054701102
 20
462.774308239491
 30
0.0
 11
302.5278054701102
 21
459.2743082394912
 31
0.0
  0
LINE
  5
1E90
330
2
100
AcDbEntity
  8
STEMPEL
100
AcDbLine
 10
303.5278054701101
 20
461.7743082394911
 30
0.0
 11
303.5278054701101
 21
459.2743082394912
 31
0.0
  0
LINE
  5
1E91
330
2
100
AcDbEntity
  8
HILF
100
AcDbLine
 10
294.5278054701102
 20
462.7743082394911
 30
0.0
 11
294.5278054701102
 21
459.2743082394912
 31
0.0
  0
LINE
  5
1E92
330
2
100
AcDbEntity
  8
STEMPEL
100
AcDbLine
 10
293.5278054701101
 20
461.774308239491
 30
0.0
 11
293.5278054701101
 21
459.2743082394912
 31
0.0
  0
LINE
  5
1E95
330
2
100
AcDbEntity
  8
HILF
100
AcDbLine
 10
294.5278054701102
 20
449.2743082394913
 30
0.0
 11
294.5278054701102
 21
437.774308239491
 31
0.0
  0
LINE
  5
1E96
330
2
100
AcDbEntity
  8
STEMPEL
100
AcDbLine
 10
293.5278054701101
 20
449.2743082394913
 30
0.0
 11
293.5278054701101
 21
437.774308239491
 31
0.0
  0
LINE
  5
1E98
330
2
100
AcDbEntity
  8
HILF
100
AcDbLine
 10
302.5278054701102
 20
449.2743082394913
 30
0.0
 11
302.5278054701102
 21
437.7743082394911
 31
0.0
  0
LINE
  5
1E99
330
2
100
AcDbEntity
  8
STEMPEL
100
AcDbLine
 10
303.5278054701101
 20
449.2743082394913
 30
0.0
 11
303.5278054701101
 21
437.7743082394911
 31
0.0
  0
LINE
  5
1E9A
102
{ACAD_REACTORS
330
1F09
102
}
330
2
100
AcDbEntity
  8
STEMPEL
100
AcDbLine
 10
305.0278054701101
 20
449.2743082394913
 30
0.0
 11
305.0278054701101
 21
443.2743082394908
 31
0.0
  0
LINE
  5
1E9B
102
{ACAD_REACTORS
330
212D
102
}
330
2
100
AcDbEntity
  8
STEMPEL
100
AcDbLine
 10
305.0278054701101
 20
440.7743082394908
 30
0.0
 11
305.0278054701101
 21
437.774308239491
 31
0.0
  0
LINE
  5
1EA0
330
2
100
AcDbEntity
  8
STEMPEL
100
AcDbLine
 10
294.5278054701102
 20
462.7743082394911
 30
0.0
 11
302.5278054701102
 21
462.7743082394911
 31
0.0
  0
LINE
  5
1EA1
330
2
100
AcDbEntity
  8
STEMPEL
100
AcDbLine
 10
303.5278054701101
 20
461.7743082394911
 30
0.0
 11
293.5278054701104
 21
461.7743082394911
 31
0.0
  0
LINE
  5
1EA2
330
2
100
AcDbEntity
  8
STEMPEL
100
AcDbLine
 10
302.5278054701102
 20
462.7743082394916
 30
0.0
 11
294.5278054701102
 21
462.7743082394916
 31
0.0
  0
LINE
  5
1EA3
330
2
100
AcDbEntity
  8
STEMPEL
100
AcDbLine
 10
293.5278054701102
 20
461.7743082394916
 30
0.0
 11
303.5278054701103
 21
461.7743082394916
 31
0.0
  0
LINE
  5
1EA4
330
2
100
AcDbEntity
  8
STEMPEL
100
AcDbLine
 10
293.5278054701101
 20
461.7743082394911
 30
0.0
 11
294.5278054701102
 21
462.7743082394911
 31
0.0
  0
LINE
  5
1EA5
330
2
100
AcDbEntity
  8
STEMPEL
100
AcDbLine
 10
294.5278054701102
 20
462.7743082394916
 30
0.0
 11
293.5278054701102
 21
461.7743082394916
 31
0.0
  0
LINE
  5
1EA6
330
2
100
AcDbEntity
  8
STEMPEL
100
AcDbLine
 10
302.5278054701102
 20
462.7743082394911
 30
0.0
 11
303.5278054701101
 21
461.7743082394911
 31
0.0
  0
LINE
  5
1EA7
330
2
100
AcDbEntity
  8
STEMPEL
100
AcDbLine
 10
303.5278054701103
 20
461.7743082394916
 30
0.0
 11
302.5278054701102
 21
462.7743082394916
 31
0.0
  0
ARC
  5
1EA8
330
2
100
AcDbEntity
  8
STEMPEL
100
AcDbCircle
 10
324.8102910488384
 20
432.2743082394906
 30
0.0
 40
5.499999999999851
100
AcDbArc
 50
45.0
 51
90.0
  0
ARC
  5
1EA9
330
2
100
AcDbEntity
  8
STEMPEL
100
AcDbCircle
 10
324.8102910488384
 20
432.2743082394906
 30
0.0
 40
3.499999999999851
100
AcDbArc
 50
45.0
 51
90.0
  0
LINE
  5
1EAA
330
2
100
AcDbEntity
  8
STEMPEL
100
AcDbLine
 10
331.0278054701106
 20
433.8349684112704
 30
0.0
 11
328.6993783453646
 21
436.1633955360166
 31
0.0
  0
LINE
  5
1EAB
330
2
100
AcDbEntity
  8
STEMPEL
100
AcDbLine
 10
329.6135919077375
 20
432.4207548488973
 30
0.0
 11
327.2851647829915
 21
434.7491819736434
 31
0.0
  0
LINE
  5
1EAC
330
2
100
AcDbEntity
  8
STEMPEL
100
AcDbLine
 10
331.0278054701106
 20
433.8349684112704
 30
0.0
 11
329.6135919077377
 21
432.4207548488971
 31
0.0
  0
ARC
  5
1EAD
102
{ACAD_REACTORS
330
1F09
102
}
330
2
100
AcDbEntity
  8
STEMPEL
100
AcDbCircle
 10
323.0278054701104
 20
446.2743082394909
 30
0.0
 40
3.0
100
AcDbArc
 50
270.0
 51
90.0
  0
LINE
  5
1EAF
102
{ACAD_REACTORS
330
212D
102
}
330
2
100
AcDbEntity
  8
STEMPEL
100
AcDbLine
 10
331.0278054701104
 20
440.7743082394909
 30
0.0
 11
331.0278054701104
 21
437.7743082394909
 31
0.0
  0
HATCH
  5
1F09
330
2
100
AcDbEntity
  8
SCHRAFF
100
AcDbHatch
 10
0.0
 20
0.0
 30
0.0
210
0.0
220
0.0
230
1.0
  2
_USER
 70
     0
 71
     1
 91
        4
 92
        7
 72
     1
 73
     1
 93
        4
 10
323.0278054701104
 20
449.2743082394913
 42
0.0
 10
305.0278054701101
 20
449.2743082394913
 42
0.0
 10
305.0278054701101
 20
443.2743082394907
 42
0.0
 10
323.0278054701104
 20
443.2743082394908
 42
1.0
 97
        4
330
1D59
330
1E9A
330
1E84
330
1EAD
 92
        7
 72
     1
 73
     1
 93
        4
 10
292.0278054701101
 20
449.2743082394913
 42
0.0
 10
274.0278054701104
 20
449.2743082394913
 42
1.0
 10
274.0278054701104
 20
443.274308239491
 42
0.0
 10
292.0278054701101
 20
443.2743082394911
 42
0.0
 97
        4
330
1D59
330
1E80
330
1E3B
330
1E8B
 92
        7
 72
     1
 73
     1
 93
        4
 10
143.0278054701103
 20
449.274308239491
 42
0.0
 10
125.0278054701106
 20
449.2743082394911
 42
0.0
 10
125.0278054701106
 20
443.2743082394906
 42
0.0
 10
143.0278054701103
 20
443.2743082394907
 42
1.0
 97
        4
330
1D59
330
1DBC
330
1D96
330
1D95
 92
        7
 72
     1
 73
     1
 93
        4
 10
112.0278054701106
 20
449.274308239491
 42
0.0
 10
94.02780547011037
 20
449.2743082394909
 42
1.0
 10
94.02780547011033
 20
443.2743082394908
 42
0.0
 10
112.0278054701106
 20
443.2743082394908
 42
0.0
 97
        4
330
1D59
330
1DA8
330
1D9C
330
1DB7
 75
     0
 76
     0
 52
45.0
 41
5.0
 77
     0
 78
     1
 53
45.0
 43
0.0
 44
0.0
 45
-3.535533905932737
 46
3.535533905932737
 79
     0
 47
0.2810612888884925
 98
        4
 10
312.0856013599155
 20
447.1896464627753
 10
283.1193189233641
 20
447.1896464627753
 10
141.3813886116682
 20
446.346462060895
 10
107.0718130116443
 20
445.5032790558457
  0
LINE
  5
1F90
102
{ACAD_REACTORS
330
1FEA
102
}
330
2
100
AcDbEntity
  8
STEMPEL
100
AcDbLine
 10
250.3278054701104
 20
440.7730136857622
 30
0.0
 11
246.3270967926433
 21
440.7730136857622
 31
0.0
  0
LINE
  5
1F91
102
{ACAD_REACTORS
330
1FEA
102
}
330
2
100
AcDbEntity
  8
STEMPEL
100
AcDbLine
 10
250.3278054701104
 20
440.7730136857622
 30
0.0
 11
247.7959787028877
 21
445.2640985825945
 31
0.0
  0
ARC
  5
1F92
102
{ACAD_REACTORS
330
1FEA
102
}
330
2
100
AcDbEntity
  8
STEMPEL
100
AcDbCircle
 10
246.9248669855384
 20
444.7730136857622
 30
0.0
 40
1.0
100
AcDbArc
 50
29.411913665529
 51
169.9999999999981
  0
LINE
  5
1F95
102
{ACAD_REACTORS
330
1FEA
102
}
330
2
100
AcDbEntity
  8
STEMPEL
100
AcDbLine
 10
245.0278054701104
 20
439.7730136857622
 30
0.0
 11
245.9400592325262
 21
444.9466618634291
 31
0.0
  0
LINE
  5
1FA0
102
{ACAD_REACTORS
330
1FEA
102
}
330
2
100
AcDbEntity
  8
STEMPEL
100
AcDbLine
 10
245.0278054701104
 20
439.7730136857622
 30
0.0
 11
245.0278054701104
 21
429.7730136857622
 31
0.0
  0
LINE
  5
1FA3
102
{ACAD_REACTORS
330
1FEA
102
}
330
2
100
AcDbEntity
  8
STEMPEL
100
AcDbLine
 10
242.5278054701104
 20
423.2730136857622
 30
0.0
 11
174.5278054701103
 21
423.2730136857622
 31
0.0
  0
LINE
  5
1FA6
102
{ACAD_REACTORS
330
1FEA
102
}
330
2
100
AcDbEntity
  8
STEMPEL
100
AcDbLine
 10
172.0278054701103
 20
439.7730136857622
 30
0.0
 11
171.1155517076945
 21
444.9466618634291
 31
0.0
  0
LINE
  5
1FA8
102
{ACAD_REACTORS
330
1FEA
102
}
330
2
100
AcDbEntity
  8
STEMPEL
100
AcDbLine
 10
166.7278054701103
 20
440.7730136857622
 30
0.0
 11
169.259632237333
 21
445.2640985825945
 31
0.0
  0
ARC
  5
1FAB
102
{ACAD_REACTORS
330
1FEA
102
}
330
2
100
AcDbEntity
  8
STEMPEL
100
AcDbCircle
 10
170.1307439546823
 20
444.7730136857622
 30
0.0
 40
1.0
100
AcDbArc
 50
10.00000000000181
 51
150.588086334471
  0
ARC
  5
1FAC
102
{ACAD_REACTORS
330
1FEA
102
}
330
2
100
AcDbEntity
  8
STEMPEL
100
AcDbCircle
 10
174.5278054701103
 20
427.2730136857622
 30
0.0
 40
4.0
100
AcDbArc
 50
184.6824168622685
 51
202.0243128370421
  0
ARC
  5
1FAD
102
{ACAD_REACTORS
330
1FEA
102
}
330
2
100
AcDbEntity
  8
STEMPEL
100
AcDbCircle
 10
177.0278054701103
 20
429.7730136857622
 30
0.0
 40
5.0
100
AcDbArc
 50
180.0
 51
270.0
  0
LINE
  5
1FB2
102
{ACAD_REACTORS
330
1FEA
102
}
330
2
100
AcDbEntity
  8
STEMPEL
100
AcDbLine
 10
168.8675582058655
 20
425.7730136857622
 30
0.0
 11
169.1501167868078
 21
427.300453638361
 31
0.0
  0
LINE
  5
1FB3
102
{ACAD_REACTORS
330
1FEA
102
}
330
2
100
AcDbEntity
  8
STEMPEL
100
AcDbLine
 10
168.2278054701096
 20
425.7730136857621
 30
0.0
 11
168.8675582058655
 21
425.7730136857622
 31
0.0
  0
ARC
  5
1FB5
102
{ACAD_REACTORS
330
1FEA
102
}
330
2
100
AcDbEntity
  8
STEMPEL
100
AcDbCircle
 10
169.8264544466174
 20
427.0480877858426
 30
0.0
 40
0.7218872166717143
100
AcDbArc
 50
351.9088253989429
 51
159.5376500935362
  0
LINE
  5
1FB6
330
2
100
AcDbEntity
  8
STEMPEL
100
AcDbLine
 10
168.8675582058655
 20
425.7730136857622
 30
0.0
 11
170.8197062265625
 21
425.7730136857622
 31
0.0
  0
LINE
  5
1FB7
102
{ACAD_REACTORS
330
1FEA
102
}
330
2
100
AcDbEntity
  8
STEMPEL
100
AcDbLine
 10
172.0278054701103
 20
439.7730136857622
 30
0.0
 11
172.0278054701103
 21
429.7730136857622
 31
0.0
  0
LINE
  5
1FB9
102
{ACAD_REACTORS
330
1FEA
102
}
330
2
100
AcDbEntity
  8
STEMPEL
100
AcDbLine
 10
177.0278054701103
 20
424.7730136857622
 30
0.0
 11
177.0278054701103
 21
423.2730136857622
 31
0.0
  0
ARC
  5
1FBA
102
{ACAD_REACTORS
330
1FEA
102
}
330
2
100
AcDbEntity
  8
STEMPEL
100
AcDbCircle
 10
174.5278054701103
 20
427.2730136857622
 30
0.0
 40
4.0
100
AcDbArc
 50
202.0243128370421
 51
270.0
  0
LINE
  5
1FBC
330
2
100
AcDbEntity
  8
STEMPEL
100
AcDbLine
 10
246.9248669855384
 20
445.7730136857622
 30
0.0
 11
170.1307439546823
 21
445.7730136857622
 31
0.0
  0
LINE
  5
1FBE
102
{ACAD_REACTORS
330
1FEA
102
}
330
2
100
AcDbEntity
  8
STEMPEL
100
AcDbLine
 10
240.0278054701104
 20
423.2730136857622
 30
0.0
 11
174.5278054701103
 21
423.2730136857622
 31
0.0
  0
LINE
  5
1FBF
330
2
100
AcDbEntity
  8
STEMPEL
100
AcDbLine
 10
240.0278054701104
 20
424.7730136857622
 30
0.0
 11
177.0278054701103
 21
424.7730136857622
 31
0.0
  0
LINE
  5
1FC4
102
{ACAD_REACTORS
330
1FEA
102
}
330
2
100
AcDbEntity
  8
STEMPEL
100
AcDbLine
 10
248.1880527343553
 20
425.7730136857624
 30
0.0
 11
247.905494153413
 21
427.3004536383612
 31
0.0
  0
LINE
  5
1FC5
330
2
100
AcDbEntity
  8
STEMPEL
100
AcDbLine
 10
248.1880527343553
 20
425.7730136857624
 30
0.0
 11
246.2359047136583
 21
425.7730136857624
 31
0.0
  0
LINE
  5
1FC6
102
{ACAD_REACTORS
330
1FEA
102
}
330
2
100
AcDbEntity
  8
STEMPEL
100
AcDbLine
 10
248.8278054701113
 20
425.7730136857623
 30
0.0
 11
248.1880527343553
 21
425.7730136857624
 31
0.0
  0
LINE
  5
1FC7
102
{ACAD_REACTORS
330
1FEA
102
}
330
2
100
AcDbEntity
  8
STEMPEL
100
AcDbLine
 10
240.0278054701105
 20
424.7730136857623
 30
0.0
 11
240.0278054701105
 21
423.2730136857624
 31
0.0
  0
ARC
  5
1FC8
102
{ACAD_REACTORS
330
1FEA
102
}
330
2
100
AcDbEntity
  8
STEMPEL
100
AcDbCircle
 10
240.0278054701105
 20
429.7730136857623
 30
0.0
 40
5.0
100
AcDbArc
 50
270.0000000000002
 51
0.0000000000002575
  0
ARC
  5
1FC9
102
{ACAD_REACTORS
330
1FEA
102
}
330
2
100
AcDbEntity
  8
STEMPEL
100
AcDbCircle
 10
242.5278054701105
 20
427.2730136857624
 30
0.0
 40
4.0
100
AcDbArc
 50
270.0000000000002
 51
337.9756871629582
  0
ARC
  5
1FCA
102
{ACAD_REACTORS
330
1FEA
102
}
330
2
100
AcDbEntity
  8
STEMPEL
100
AcDbCircle
 10
247.2291564936034
 20
427.0480877858428
 30
0.0
 40
0.7218872166717143
100
AcDbArc
 50
20.46234990646404
 51
188.0911746010573
  0
ARC
  5
1FCB
102
{ACAD_REACTORS
330
1FEA
102
}
330
2
100
AcDbEntity
  8
STEMPEL
100
AcDbCircle
 10
242.5278054701105
 20
427.2730136857624
 30
0.0
 40
4.0
100
AcDbArc
 50
337.9756871629582
 51
355.3175831377317
  0
HATCH
  5
1FEA
330
2
100
AcDbEntity
  8
SCHRAFF
100
AcDbHatch
 10
0.0
 20
0.0
 30
0.0
210
0.0
220
0.0
230
1.0
  2
NET
 70
     0
 71
     1
 91
        2
 92
        7
 72
     1
 73
     1
 93
       15
 10
245.0278054701104
 20
429.7730136857622
 42
-0.4142135623730852
 10
240.0278054701105
 20
424.7730136857622
 42
0.0
 10
240.0278054701105
 20
423.2730136857622
 42
0.0
 10
242.5278054701104
 20
423.2730136857622
 42
0.3056146845807172
 10
246.2359047136583
 20
425.7730136857624
 42
0.0758130451093946
 10
246.5144554120125
 20
426.9464830735175
 42
-0.8974757342186277
 10
247.905494153413
 20
427.3004536383612
 42
0.0
 10
248.1880527343553
 20
425.7730136857624
 42
0.0
 10
248.8278054701095
 20
425.7730136857624
 42
0.0
 10
248.8278054701095
 20
430.2240912786459
 42
0.1169090814652842
 10
246.3270967926433
 20
440.7730136857622
 42
0.0
 10
250.3278054701104
 20
440.7730136857623
 42
0.0
 10
247.7959787028877
 20
445.2640985825945
 42
0.704038531542393
 10
245.9400592325262
 20
444.9466618634291
 42
0.0
 10
245.0278054701104
 20
439.7730136857621
 42
0.0
 97
       15
330
1F90
330
1F91
330
1F92
330
1F95
330
1FA0
330
1FC8
330
1FC7
330
1FA3
330
1FC9
330
1FCB
330
1FCA
330
1FC4
330
1FC6
330
1E5B
330
1E4D
 92
        7
 72
     1
 73
     1
 93
       15
 10
172.0278054701103
 20
439.7730136857622
 42
0.0
 10
171.1155517076945
 20
444.9466618634291
 42
0.704038531542393
 10
169.259632237333
 20
445.2640985825945
 42
0.0
 10
166.7278054701103
 20
440.7730136857622
 42
0.0
 10
170.7285141475758
 20
440.7730136857622
 42
0.1169090814652814
 10
168.2278054701096
 20
430.224091278646
 42
0.0
 10
168.2278054701096
 20
425.7730136857622
 42
0.0
 10
168.8675582058655
 20
425.7730136857621
 42
0.0
 10
169.1501167868078
 20
427.300453638361
 42
-0.8974757342187078
 10
170.5411555282084
 20
426.9464830735173
 42
0.0758130451093977
 10
170.8197062265625
 20
425.7730136857622
 42
0.3056146845806996
 10
174.5278054701103
 20
423.2730136857622
 42
0.0
 10
177.0278054701103
 20
423.2730136857623
 42
0.0
 10
177.0278054701103
 20
424.7730136857622
 42
-0.4142135623730951
 10
172.0278054701103
 20
429.7730136857622
 42
0.0
 97
       15
330
1FA6
330
1FAB
330
1FA8
330
1E00
330
1DD2
330
1DE0
330
1FB3
330
1FB2
330
1FB5
330
1FAC
330
1FBA
330
1FBE
330
1FB9
330
1FAD
330
1FB7
 75
     0
 76
     1
 52
45.0
 41
15.0
 77
     0
 78
     2
 53
45.0
 43
0.0
 44
0.0
 45
-1.325825214724776
 46
1.325825214724776
 79
     0
 53
135.0
 43
0.0
 44
0.0
 45
-1.325825214724776
 46
-1.325825214724776
 79
     0
 47
0.1836930009674835
 98
        2
 10
246.1345304658526
 20
431.1668995166237
 10
170.408646639752
 20
434.6570659043257
  0
LINE
  5
1FEC
330
2
100
AcDbEntity
  8
STEMPEL
100
AcDbLine
 10
245.0278054701104
 20
439.7730136857622
 30
0.0
 11
172.0278054701103
 21
439.7730136857622
 31
0.0
  0
DIMENSION
  5
2039
330
2
100
AcDbEntity
  8
BEM
100
AcDbDimension
  2
*D4
 10
283.5278054701108
 20
477.3083262421876
 30
0.0
 11
208.5278054701107
 21
483.8083262421876
 31
0.0
 70
    32
  1
%%c<>
 71
     5
 42
150.0000000000002
  3
STANDARD
100
AcDbAlignedDimension
 13
133.5278054701105
 23
435.7743082394907
 33
0.0
 14
283.5278054701108
 24
435.774308239491
 34
0.0
100
AcDbRotatedDimension
1001
ACAD
1000
DSTYLE
1002
{
1070
    40
1040
2.0
1070
    41
1040
3.5
1070
    42
1040
1.0
1070
    43
1040
7.0
1070
    44
1040
1.0
1070
    73
1070
     0
1070
    74
1070
     0
1070
    77
1070
     1
1070
    78
1070
     8
1070
    79
1070
     2
1070
   140
1040
3.5
1070
   141
1040
1.5
1070
   146
1040
0.5
1070
   147
1040
1.5
1070
   172
1070
     1
1070
   178
1070
     1
1070
   179
1070
     2
1070
   271
1070
     2
1070
   272
1070
     2
1070
   284
1070
     8
1070
   285
1070
     8
1070
   286
1070
     8
1070
   340
1005
20
1002
}
  0
LINE
  5
203E
330
2
100
AcDbEntity
  8
STEMPEL
100
AcDbLine
 10
262.0278054701108
 20
425.7743082394909
 30
0.0
 11
254.357527148583
 21
425.7743082394909
 31
0.0
  0
LINE
  5
2048
330
2
100
AcDbEntity
  8
STEMPEL
100
AcDbLine
 10
155.0278054701108
 20
405.7743082394906
 30
0.0
 11
155.0278054701105
 21
425.7743082394908
 31
0.0
  0
LINE
  5
2049
330
2
100
AcDbEntity
  8
STEMPEL
100
AcDbLine
 10
143.5278054701105
 20
435.7743082394908
 30
0.0
 11
155.0278054701105
 21
425.7743082394908
 31
0.0
  0
LINE
  5
2050
330
2
100
AcDbEntity
  8
STEMPEL
100
AcDbLine
 10
273.5278054701106
 20
435.7743082394908
 30
0.0
 11
262.0278054701106
 21
425.7743082394908
 31
0.0
  0
LINE
  5
2051
330
2
100
AcDbEntity
  8
STEMPEL
100
AcDbLine
 10
262.0278054701103
 20
405.7743082394906
 30
0.0
 11
262.0278054701106
 21
425.7743082394908
 31
0.0
  0
LINE
  5
20D0
330
2
100
AcDbEntity
  8
TEXT
 62
     2
100
AcDbLine
 10
104.8702270481987
 20
487.1669855808976
 30
0.0
 11
97.08267871680995
 21
446.0811624394606
 31
0.0
  0
LINE
  5
20D1
330
2
100
AcDbEntity
  8
TEXT
 62
     2
100
AcDbLine
 10
298.7098505353291
 20
338.0646658591448
 30
0.0
 11
272.3359370203222
 21
355.4917214011868
 31
0.0
  0
TEXT
  5
20D2
330
2
100
AcDbEntity
  8
TEXT
 62
     1
100
AcDbText
 10
299.4542600709136
 20
329.1290184503294
 30
0.0
 40
7.0
  1
EDV-Art.Nr. 19842.070X
 41
0.8
  7
GREEKS
100
AcDbText
  0
TEXT
  5
20D3
330
2
100
AcDbEntity
  8
TEXT
 62
     1
100
AcDbText
 10
300.0612196835053
 20
341.2435181714948
 30
0.0
 40
7.0
  1
Wärmedämmung
 41
0.8
  7
GREEKS
100
AcDbText
  0
LINE
  5
20D4
330
2
100
AcDbEntity
  8
TEXT
 62
     2
100
AcDbLine
 10
298.7098505353291
 20
338.0646658591448
 30
0.0
 11
406.3040323654243
 21
338.0646658591448
 31
0.0
  0
LINE
  5
20F7
330
2
100
AcDbEntity
  8
STEMPEL
100
AcDbLine
 10
162.6980837916376
 20
425.7743082394909
 30
0.0
 11
155.0278054701105
 21
425.7743082394908
 31
0.0
  0
LINE
  5
2105
330
2
100
AcDbEntity
  8
MITTEL
100
AcDbLine
 10
208.5278054701103
 20
254.8560731443522
 30
0.0
 11
208.5278054701102
 21
172.774308239491
 31
0.0
  0
TEXT
  5
2106
330
2
100
AcDbEntity
  8
TEXT
100
AcDbText
 10
235.1296391125315
 20
61.64011943042158
 30
0.0
 40
5.0
  1
mit Wärmedämmung
 41
0.8
  7
GREEKS
100
AcDbText
  0
LINE
  5
210C
102
{ACAD_REACTORS
330
212D
102
}
330
2
100
AcDbEntity
  8
STEMPEL
100
AcDbLine
 10
248.4317738738445
 20
440.7743082394913
 30
0.0
 11
293.5278054701101
 21
440.7743082394913
 31
0.0
  0
LINE
  5
210D
102
{ACAD_REACTORS
330
212D
102
}
330
2
100
AcDbEntity
  8
STEMPEL
100
AcDbLine
 10
331.0278054701104
 20
440.7743082394909
 30
0.0
 11
303.5278054701101
 21
440.7743082394907
 31
0.0
  0
HATCH
  5
212D
330
2
100
AcDbEntity
  8
SCHRAFF
100
AcDbHatch
 10
0.0
 20
0.0
 30
0.0
210
0.0
220
0.0
230
1.0
  2
NET
 70
     0
 71
     1
 91
        4
 92
        7
 72
     0
 73
     1
 93
        4
 10
305.0278054701102
 20
440.7743082394908
 10
305.0278054701101
 20
437.7743082394909
 10
331.0278054701104
 20
437.774308239491
 10
331.0278054701104
 20
440.7743082394909
 97
        4
330
210D
330
1E9B
330
1E3C
330
1EAF
 92
        7
 72
     0
 73
     1
 93
        4
 10
292.0278054701101
 20
437.7743082394909
 10
292.0278054701101
 20
440.7743082394913
 10
271.0278054701104
 20
440.7743082394913
 10
271.0278054701104
 20
437.774308239491
 97
        4
330
210C
330
1E81
330
1E3C
330
1E8C
 92
        7
 72
     0
 73
     1
 93
        4
 10
146.0278054701103
 20
437.7743082394912
 10
146.0278054701103
 20
440.7743082394911
 10
125.0278054701106
 20
440.7743082394908
 10
125.0278054701106
 20
437.7743082394912
 97
        4
330
1D97
330
1DBD
330
1D9B
330
1DF4
 92
        7
 72
     0
 73
     1
 93
        4
 10
112.0278054701106
 20
437.7743082394912
 10
112.0278054701106
 20
440.7743082394907
 10
86.02780547011034
 20
440.774308239491
 10
86.02780547011034
 20
437.7743082394912
 97
        4
330
1D9E
330
1DA9
330
1D9B
330
1DB8
 75
     0
 76
     1
 52
45.0
 41
15.0
 77
     0
 78
     2
 53
45.0
 43
0.0
 44
0.0
 45
-1.325825214724776
 46
1.325825214724776
 79
     0
 53
135.0
 43
0.0
 44
0.0
 45
-1.325825214724776
 46
-1.325825214724776
 79
     0
 47
0.2631556586344129
 98
        4
 10
310.8733209930528
 20
439.881756958804
 10
285.6018568409304
 20
439.0922908746547
 10
137.6584974478178
 20
438.8291345911682
 10
103.4367232217164
 20
438.8291345911682
  0
TEXT
  5
2149
330
2
100
AcDbEntity
  8
VOLL
100
AcDbText
 10
329.997159326644
 20
535.7512177150603
 30
0.0
 40
1.8
  1

  7
GREEKS
100
AcDbText
  0
ARC
  5
215F
330
2
100
AcDbEntity
  8
STEMPEL
100
AcDbCircle
 10
125.0229959984937
 20
451.5800025317065
 30
0.0
 40
7.694305707784447
100
AcDbArc
 50
73.65710669401501
 51
106.342893305985
  0
ARC
  5
2160
330
2
100
AcDbEntity
  8
HILF
100
AcDbCircle
 10
125.0229959984937
 20
446.0258220899613
 30
0.0
 40
5.761140599691502
100
AcDbArc
 50
67.92594526326206
 51
112.0740547367379
  0
LINE
  5
2161
330
2
100
AcDbEntity
  8
STEMPEL
100
AcDbLine
 10
111.0278054701104
 20
459.274308239491
 30
0.0
 11
126.0278054701104
 21
459.274308239491
 31
0.0
  0
LINE
  5
2162
330
2
100
AcDbEntity
  8
STEMPEL
100
AcDbLine
 10
128.9343205776047
 20
450.7290777050804
 30
0.0
 11
108.1212903626161
 21
450.7290777050804
 31
0.0
  0
LINE
  5
2163
330
2
100
AcDbEntity
  8
STEMPEL
100
AcDbLine
 10
128.6778054701104
 20
449.274308239491
 30
0.0
 11
108.3778054701104
 21
449.274308239491
 31
0.0
  0
ARC
  5
2164
330
2
100
AcDbEntity
  8
STEMPEL
100
AcDbCircle
 10
108.3778054701104
 20
450.0243082394909
 30
0.0
 40
0.7500000000000013
100
AcDbArc
 50
109.9999999999995
 51
269.9999991462263
  0
ARC
  5
2165
330
2
100
AcDbEntity
  8
STEMPEL
100
AcDbCircle
 10
118.5278054701104
 20
428.9634191070361
 30
0.0
 40
30.31088913245485
100
AcDbArc
 50
81.78678929826221
 51
98.2132107017378
  0
ARC
  5
2166
330
2
100
AcDbEntity
  8
HILF
100
AcDbCircle
 10
118.5278054701104
 20
429.3758471918297
 30
0.0
 40
22.41111549782308
100
AcDbArc
 50
78.85962783890615
 51
101.1403721610938
  0
LINE
  5
2167
330
2
100
AcDbEntity
  8
STEMPEL
100
AcDbLine
 10
114.1976784511882
 20
451.3646647556908
 30
0.0
 11
114.1976784511882
 21
458.9634191070356
 31
0.0
  0
LINE
  5
2168
330
2
100
AcDbEntity
  8
STEMPEL
100
AcDbLine
 10
109.867551432266
 20
451.3646647556908
 30
0.0
 11
109.867551432266
 21
458.9634191070356
 31
0.0
  0
ARC
  5
2169
330
2
100
AcDbEntity
  8
HILF
100
AcDbCircle
 10
112.0326149417271
 20
446.0258220899613
 30
0.0
 40
5.761140599691502
100
AcDbArc
 50
67.92594526326206
 51
112.0740547367379
  0
LINE
  5
216A
330
2
100
AcDbEntity
  8
STEMPEL
100
AcDbLine
 10
109.867551432266
 20
451.3646647556908
 30
0.0
 11
108.1212903626162
 21
450.7290777050804
 31
0.0
  0
ARC
  5
216B
330
2
100
AcDbEntity
  8
STEMPEL
100
AcDbCircle
 10
112.0326149417271
 20
451.5800025317065
 30
0.0
 40
7.694305707784447
100
AcDbArc
 50
73.65710669401501
 51
106.342893305985
  0
LINE
  5
216C
330
2
100
AcDbEntity
  8
STEMPEL
100
AcDbLine
 10
111.0278054701104
 20
459.274308239491
 30
0.0
 11
109.867551432266
 21
458.9634191070356
 31
0.0
  0
LINE
  5
216D
330
2
100
AcDbEntity
  8
STEMPEL
100
AcDbLine
 10
122.8579324890326
 20
451.3646647556908
 30
0.0
 11
122.8579324890326
 21
458.9634191070356
 31
0.0
  0
POINT
  5
216E
330
2
100
AcDbEntity
  8
0
100
AcDbPoint
 10
118.5278054701104
 20
449.274308239491
 30
0.0
210
0.0000000000000001
220
1.0
230
0.0
  0
LINE
  5
216F
330
2
100
AcDbEntity
  8
STEMPEL
100
AcDbLine
 10
127.1880595079548
 20
451.3646647556908
 30
0.0
 11
127.1880595079548
 21
458.9634191070356
 31
0.0
  0
LINE
  5
2170
330
2
100
AcDbEntity
  8
STEMPEL
100
AcDbLine
 10
128.9343205776047
 20
450.7290777050804
 30
0.0
 11
127.1880595079548
 21
451.3646647556908
 31
0.0
  0
ARC
  5
2171
330
2
100
AcDbEntity
  8
STEMPEL
100
AcDbCircle
 10
128.6778054701104
 20
450.0243082394909
 30
0.0
 40
0.750000000000001
100
AcDbArc
 50
269.9999991462263
 51
70.00000000000047
  0
LINE
  5
2172
330
2
100
AcDbEntity
  8
STEMPEL
100
AcDbLine
 10
127.1880595079548
 20
458.9634191070356
 30
0.0
 11
126.0278054701104
 21
459.274308239491
 31
0.0
  0
ARC
  5
2173
330
2
100
AcDbEntity
  8
STEMPEL
100
AcDbCircle
 10
170.0229959984936
 20
451.5800025317066
 30
0.0
 40
7.694305707784447
100
AcDbArc
 50
73.65710669401501
 51
106.342893305985
  0
ARC
  5
2174
330
2
100
AcDbEntity
  8
HILF
100
AcDbCircle
 10
170.0229959984936
 20
446.0258220899614
 30
0.0
 40
5.761140599691502
100
AcDbArc
 50
67.92594526326206
 51
112.0740547367379
  0
LINE
  5
2175
330
2
100
AcDbEntity
  8
STEMPEL
100
AcDbLine
 10
156.0278054701102
 20
459.274308239491
 30
0.0
 11
171.0278054701102
 21
459.274308239491
 31
0.0
  0
LINE
  5
2176
330
2
100
AcDbEntity
  8
STEMPEL
100
AcDbLine
 10
173.9343205776045
 20
450.7290777050804
 30
0.0
 11
153.121290362616
 21
450.7290777050804
 31
0.0
  0
LINE
  5
2177
330
2
100
AcDbEntity
  8
STEMPEL
100
AcDbLine
 10
173.6778054701102
 20
449.274308239491
 30
0.0
 11
153.3778054701103
 21
449.274308239491
 31
0.0
  0
ARC
  5
2178
330
2
100
AcDbEntity
  8
STEMPEL
100
AcDbCircle
 10
153.3778054701103
 20
450.024308239491
 30
0.0
 40
0.7500000000000013
100
AcDbArc
 50
109.9999999999995
 51
269.9999991462263
  0
ARC
  5
2179
330
2
100
AcDbEntity
  8
STEMPEL
100
AcDbCircle
 10
163.5278054701102
 20
428.9634191070361
 30
0.0
 40
30.31088913245485
100
AcDbArc
 50
81.78678929826221
 51
98.2132107017378
  0
ARC
  5
217A
330
2
100
AcDbEntity
  8
HILF
100
AcDbCircle
 10
163.5278054701102
 20
429.3758471918298
 30
0.0
 40
22.41111549782308
100
AcDbArc
 50
78.85962783890615
 51
101.1403721610938
  0
LINE
  5
217B
330
2
100
AcDbEntity
  8
STEMPEL
100
AcDbLine
 10
159.197678451188
 20
451.3646647556909
 30
0.0
 11
159.197678451188
 21
458.9634191070357
 31
0.0
  0
LINE
  5
217C
330
2
100
AcDbEntity
  8
STEMPEL
100
AcDbLine
 10
154.8675514322659
 20
451.3646647556909
 30
0.0
 11
154.8675514322659
 21
458.9634191070357
 31
0.0
  0
ARC
  5
217D
330
2
100
AcDbEntity
  8
HILF
100
AcDbCircle
 10
157.032614941727
 20
446.0258220899614
 30
0.0
 40
5.761140599691502
100
AcDbArc
 50
67.92594526326206
 51
112.0740547367379
  0
LINE
  5
217E
330
2
100
AcDbEntity
  8
STEMPEL
100
AcDbLine
 10
154.8675514322659
 20
451.3646647556909
 30
0.0
 11
153.121290362616
 21
450.7290777050804
 31
0.0
  0
ARC
  5
217F
330
2
100
AcDbEntity
  8
STEMPEL
100
AcDbCircle
 10
157.032614941727
 20
451.5800025317066
 30
0.0
 40
7.694305707784447
100
AcDbArc
 50
73.65710669401501
 51
106.342893305985
  0
LINE
  5
2180
330
2
100
AcDbEntity
  8
STEMPEL
100
AcDbLine
 10
156.0278054701102
 20
459.274308239491
 30
0.0
 11
154.8675514322659
 21
458.9634191070357
 31
0.0
  0
LINE
  5
2181
330
2
100
AcDbEntity
  8
STEMPEL
100
AcDbLine
 10
167.8579324890324
 20
451.3646647556909
 30
0.0
 11
167.8579324890324
 21
458.9634191070357
 31
0.0
  0
POINT
  5
2182
330
2
100
AcDbEntity
  8
0
100
AcDbPoint
 10
163.5278054701102
 20
449.274308239491
 30
0.0
210
0.0000000000000001
220
1.0
230
0.0
  0
LINE
  5
2183
330
2
100
AcDbEntity
  8
STEMPEL
100
AcDbLine
 10
172.1880595079546
 20
451.3646647556909
 30
0.0
 11
172.1880595079546
 21
458.9634191070357
 31
0.0
  0
LINE
  5
2184
330
2
100
AcDbEntity
  8
STEMPEL
100
AcDbLine
 10
173.9343205776045
 20
450.7290777050804
 30
0.0
 11
172.1880595079546
 21
451.3646647556909
 31
0.0
  0
ARC
  5
2185
330
2
100
AcDbEntity
  8
STEMPEL
100
AcDbCircle
 10
173.6778054701102
 20
450.024308239491
 30
0.0
 40
0.750000000000001
100
AcDbArc
 50
269.9999991462263
 51
70.00000000000047
  0
LINE
  5
2186
330
2
100
AcDbEntity
  8
STEMPEL
100
AcDbLine
 10
172.1880595079546
 20
458.9634191070357
 30
0.0
 11
171.0278054701102
 21
459.274308239491
 31
0.0
  0
ARC
  5
2187
330
2
100
AcDbEntity
  8
STEMPEL
100
AcDbCircle
 10
260.0229959984938
 20
451.5800025317068
 30
0.0
 40
7.694305707784447
100
AcDbArc
 50
73.65710669401501
 51
106.342893305985
  0
ARC
  5
2188
330
2
100
AcDbEntity
  8
HILF
100
AcDbCircle
 10
260.0229959984938
 20
446.0258220899616
 30
0.0
 40
5.761140599691502
100
AcDbArc
 50
67.92594526326206
 51
112.0740547367379
  0
LINE
  5
2189
330
2
100
AcDbEntity
  8
STEMPEL
100
AcDbLine
 10
246.0278054701105
 20
459.2743082394912
 30
0.0
 11
261.0278054701105
 21
459.2743082394912
 31
0.0
  0
LINE
  5
218A
330
2
100
AcDbEntity
  8
STEMPEL
100
AcDbLine
 10
263.9343205776047
 20
450.7290777050807
 30
0.0
 11
243.1212903626162
 21
450.7290777050807
 31
0.0
  0
LINE
  5
218B
330
2
100
AcDbEntity
  8
STEMPEL
100
AcDbLine
 10
263.6778054701105
 20
449.2743082394913
 30
0.0
 11
243.3778054701105
 21
449.2743082394913
 31
0.0
  0
ARC
  5
218C
330
2
100
AcDbEntity
  8
STEMPEL
100
AcDbCircle
 10
243.3778054701105
 20
450.0243082394913
 30
0.0
 40
0.7500000000000013
100
AcDbArc
 50
109.9999999999995
 51
269.9999991462263
  0
ARC
  5
218D
330
2
100
AcDbEntity
  8
STEMPEL
100
AcDbCircle
 10
253.5278054701105
 20
428.9634191070364
 30
0.0
 40
30.31088913245485
100
AcDbArc
 50
81.78678929826221
 51
98.2132107017378
  0
ARC
  5
218E
330
2
100
AcDbEntity
  8
HILF
100
AcDbCircle
 10
253.5278054701105
 20
429.3758471918301
 30
0.0
 40
22.41111549782308
100
AcDbArc
 50
78.85962783890615
 51
101.1403721610938
  0
LINE
  5
218F
330
2
100
AcDbEntity
  8
STEMPEL
100
AcDbLine
 10
249.1976784511883
 20
451.364664755691
 30
0.0
 11
249.1976784511883
 21
458.9634191070358
 31
0.0
  0
LINE
  5
2190
330
2
100
AcDbEntity
  8
STEMPEL
100
AcDbLine
 10
244.8675514322661
 20
451.364664755691
 30
0.0
 11
244.8675514322661
 21
458.9634191070358
 31
0.0
  0
ARC
  5
2191
330
2
100
AcDbEntity
  8
HILF
100
AcDbCircle
 10
247.0326149417272
 20
446.0258220899616
 30
0.0
 40
5.761140599691502
100
AcDbArc
 50
67.92594526326206
 51
112.0740547367379
  0
LINE
  5
2192
330
2
100
AcDbEntity
  8
STEMPEL
100
AcDbLine
 10
244.8675514322661
 20
451.364664755691
 30
0.0
 11
243.1212903626163
 21
450.7290777050807
 31
0.0
  0
ARC
  5
2193
330
2
100
AcDbEntity
  8
STEMPEL
100
AcDbCircle
 10
247.0326149417272
 20
451.5800025317068
 30
0.0
 40
7.694305707784447
100
AcDbArc
 50
73.65710669401501
 51
106.342893305985
  0
LINE
  5
2194
330
2
100
AcDbEntity
  8
STEMPEL
100
AcDbLine
 10
246.0278054701105
 20
459.2743082394912
 30
0.0
 11
244.8675514322661
 21
458.9634191070358
 31
0.0
  0
LINE
  5
2195
330
2
100
AcDbEntity
  8
STEMPEL
100
AcDbLine
 10
257.8579324890327
 20
451.364664755691
 30
0.0
 11
257.8579324890327
 21
458.9634191070358
 31
0.0
  0
POINT
  5
2196
330
2
100
AcDbEntity
  8
0
100
AcDbPoint
 10
253.5278054701105
 20
449.2743082394913
 30
0.0
210
0.0000000000000001
220
1.0
230
0.0
  0
LINE
  5
2197
330
2
100
AcDbEntity
  8
STEMPEL
100
AcDbLine
 10
262.1880595079549
 20
451.364664755691
 30
0.0
 11
262.1880595079549
 21
458.9634191070358
 31
0.0
  0
LINE
  5
2198
330
2
100
AcDbEntity
  8
STEMPEL
100
AcDbLine
 10
263.9343205776047
 20
450.7290777050807
 30
0.0
 11
262.1880595079549
 21
451.364664755691
 31
0.0
  0
ARC
  5
2199
330
2
100
AcDbEntity
  8
STEMPEL
100
AcDbCircle
 10
263.6778054701105
 20
450.0243082394913
 30
0.0
 40
0.750000000000001
100
AcDbArc
 50
269.9999991462263
 51
70.00000000000047
  0
LINE
  5
219A
330
2
100
AcDbEntity
  8
STEMPEL
100
AcDbLine
 10
262.1880595079549
 20
458.9634191070358
 30
0.0
 11
261.0278054701105
 21
459.2743082394912
 31
0.0
  0
ARC
  5
219B
330
2
100
AcDbEntity
  8
STEMPEL
100
AcDbCircle
 10
305.0229959984937
 20
451.5800025317068
 30
0.0
 40
7.694305707784447
100
AcDbArc
 50
73.65710669401501
 51
106.342893305985
  0
ARC
  5
219C
330
2
100
AcDbEntity
  8
HILF
100
AcDbCircle
 10
305.0229959984937
 20
446.0258220899617
 30
0.0
 40
5.761140599691502
100
AcDbArc
 50
67.92594526326206
 51
112.0740547367379
  0
LINE
  5
219D
330
2
100
AcDbEntity
  8
STEMPEL
100
AcDbLine
 10
291.0278054701104
 20
459.2743082394913
 30
0.0
 11
306.0278054701104
 21
459.2743082394913
 31
0.0
  0
LINE
  5
219E
330
2
100
AcDbEntity
  8
STEMPEL
100
AcDbLine
 10
308.9343205776046
 20
450.7290777050807
 30
0.0
 11
288.1212903626161
 21
450.7290777050807
 31
0.0
  0
LINE
  5
219F
330
2
100
AcDbEntity
  8
STEMPEL
100
AcDbLine
 10
308.6778054701103
 20
449.2743082394913
 30
0.0
 11
288.3778054701104
 21
449.2743082394913
 31
0.0
  0
ARC
  5
21A0
330
2
100
AcDbEntity
  8
STEMPEL
100
AcDbCircle
 10
288.3778054701104
 20
450.0243082394913
 30
0.0
 40
0.7500000000000013
100
AcDbArc
 50
109.9999999999995
 51
269.9999991462263
  0
ARC
  5
21A1
330
2
100
AcDbEntity
  8
STEMPEL
100
AcDbCircle
 10
298.5278054701104
 20
428.9634191070365
 30
0.0
 40
30.31088913245485
100
AcDbArc
 50
81.78678929826221
 51
98.2132107017378
  0
ARC
  5
21A2
330
2
100
AcDbEntity
  8
HILF
100
AcDbCircle
 10
298.5278054701104
 20
429.3758471918301
 30
0.0
 40
22.41111549782308
100
AcDbArc
 50
78.85962783890615
 51
101.1403721610938
  0
LINE
  5
21A3
330
2
100
AcDbEntity
  8
STEMPEL
100
AcDbLine
 10
294.1976784511881
 20
451.3646647556911
 30
0.0
 11
294.1976784511881
 21
458.9634191070359
 31
0.0
  0
LINE
  5
21A4
330
2
100
AcDbEntity
  8
STEMPEL
100
AcDbLine
 10
289.867551432266
 20
451.3646647556911
 30
0.0
 11
289.867551432266
 21
458.9634191070359
 31
0.0
  0
ARC
  5
21A5
330
2
100
AcDbEntity
  8
HILF
100
AcDbCircle
 10
292.0326149417271
 20
446.0258220899617
 30
0.0
 40
5.761140599691502
100
AcDbArc
 50
67.92594526326206
 51
112.0740547367379
  0
LINE
  5
21A6
330
2
100
AcDbEntity
  8
STEMPEL
100
AcDbLine
 10
289.867551432266
 20
451.3646647556911
 30
0.0
 11
288.1212903626162
 21
450.7290777050807
 31
0.0
  0
ARC
  5
21A7
330
2
100
AcDbEntity
  8
STEMPEL
100
AcDbCircle
 10
292.0326149417271
 20
451.5800025317068
 30
0.0
 40
7.694305707784447
100
AcDbArc
 50
73.65710669401501
 51
106.342893305985
  0
LINE
  5
21A8
330
2
100
AcDbEntity
  8
STEMPEL
100
AcDbLine
 10
291.0278054701104
 20
459.2743082394913
 30
0.0
 11
289.867551432266
 21
458.9634191070359
 31
0.0
  0
LINE
  5
21A9
330
2
100
AcDbEntity
  8
STEMPEL
100
AcDbLine
 10
302.8579324890326
 20
451.3646647556911
 30
0.0
 11
302.8579324890326
 21
458.9634191070359
 31
0.0
  0
POINT
  5
21AA
330
2
100
AcDbEntity
  8
0
100
AcDbPoint
 10
298.5278054701104
 20
449.2743082394913
 30
0.0
210
0.0000000000000001
220
1.0
230
0.0
  0
LINE
  5
21AB
330
2
100
AcDbEntity
  8
STEMPEL
100
AcDbLine
 10
307.1880595079548
 20
451.3646647556911
 30
0.0
 11
307.1880595079548
 21
458.9634191070359
 31
0.0
  0
LINE
  5
21AC
330
2
100
AcDbEntity
  8
STEMPEL
100
AcDbLine
 10
308.9343205776046
 20
450.7290777050807
 30
0.0
 11
307.1880595079548
 21
451.3646647556911
 31
0.0
  0
ARC
  5
21AD
330
2
100
AcDbEntity
  8
STEMPEL
100
AcDbCircle
 10
308.6778054701103
 20
450.0243082394913
 30
0.0
 40
0.750000000000001
100
AcDbArc
 50
269.9999991462263
 51
70.00000000000047
  0
LINE
  5
21AE
330
2
100
AcDbEntity
  8
STEMPEL
100
AcDbLine
 10
307.1880595079548
 20
458.9634191070359
 30
0.0
 11
306.0278054701104
 21
459.2743082394913
 31
0.0
  0
LINE
  5
2243
102
{ACAD_REACTORS
330
22D1
102
}
330
2
100
AcDbEntity
  8
STEMPEL
100
AcDbLine
 10
262.0278054701103
 20
371.7743082394904
 30
0.0
 11
262.0278054701106
 21
425.7743082394906
 31
0.0
  0
LINE
  5
2244
102
{ACAD_REACTORS
330
22D1
102
}
330
2
100
AcDbEntity
  8
STEMPEL
100
AcDbLine
 10
273.5278054701106
 20
435.7743082394907
 30
0.0
 11
262.0278054701106
 21
425.7743082394906
 31
0.0
  0
LINE
  5
2245
102
{ACAD_REACTORS
330
22D1
102
}
330
2
100
AcDbEntity
  8
STEMPEL
100
AcDbLine
 10
283.5278054701106
 20
435.7743082394905
 30
0.0
 11
273.7036095414564
 21
278.5871733810234
 31
0.0
  0
LINE
  5
2246
102
{ACAD_REACTORS
330
22D1
102
}
330
2
100
AcDbEntity
  8
STEMPEL
100
AcDbLine
 10
143.5278054701106
 20
435.7743082394907
 30
0.0
 11
155.0278054701106
 21
425.7743082394906
 31
0.0
  0
LINE
  5
2247
102
{ACAD_REACTORS
330
22D1
102
}
330
2
100
AcDbEntity
  8
STEMPEL
100
AcDbLine
 10
155.0278054701108
 20
371.7743082394904
 30
0.0
 11
155.0278054701106
 21
425.7743082394906
 31
0.0
  0
DIMENSION
  5
2248
330
2
100
AcDbEntity
  8
BEM
100
AcDbDimension
  2
*D5
 10
79.1072175255671
 20
275.7743082394906
 30
0.0
 11
72.60721752556708
 21
355.7743082394909
 31
0.0
 70
    32
 71
     5
 42
160.0000000000006
  3
STANDARD
100
AcDbAlignedDimension
 13
92.24531989138233
 23
435.7743082394912
 33
0.0
 14
143.5302608355888
 24
275.7743082394906
 34
0.0
 50
90.0
100
AcDbRotatedDimension
1001
ACAD
1000
DSTYLE
1002
{
1070
    40
1040
2.0
1070
    41
1040
3.5
1070
    42
1040
1.0
1070
    43
1040
7.0
1070
    44
1040
1.0
1070
    73
1070
     0
1070
    74
1070
     0
1070
    77
1070
     1
1070
    78
1070
     8
1070
    79
1070
     2
1070
   140
1040
3.5
1070
   141
1040
1.5
1070
   146
1040
0.5
1070
   147
1040
1.5
1070
   172
1070
     1
1070
   178
1070
     1
1070
   179
1070
     2
1070
   271
1070
     2
1070
   272
1070
     2
1070
   284
1070
     8
1070
   285
1070
     8
1070
   286
1070
     8
1070
   340
1005
20
1002
}
  0
LINE
  5
2249
102
{ACAD_REACTORS
330
22D1
102
}
330
2
100
AcDbEntity
  8
STEMPEL
100
AcDbLine
 10
133.5278054701106
 20
435.7743082394905
 30
0.0
 11
143.3520013987647
 21
278.587173381025
 31
0.0
  0
LINE
  5
224A
330
2
100
AcDbEntity
  8
STEMPEL
100
AcDbLine
 10
262.0278054701101
 20
371.7743082394907
 30
0.0
 11
245.0278054701124
 21
371.7743082394907
 31
0.0
  0
LINE
  5
224B
330
2
100
AcDbEntity
  8
STEMPEL
100
AcDbLine
 10
262.0278054701108
 20
425.7743082394908
 30
0.0
 11
254.3575271485829
 21
425.7743082394908
 31
0.0
  0
DIMENSION
  5
224C
330
2
100
AcDbEntity
  8
BEM
100
AcDbDimension
  2
*D6
 10
273.5253501046321
 20
256.3415532812511
 30
0.0
 11
208.5278054701105
 21
262.8415532812511
 31
0.0
 70
    32
  1
%%c<>
 71
     5
 42
129.9950892690433
  3
STANDARD
100
AcDbAlignedDimension
 13
143.5302608355888
 23
275.7743082394906
 33
0.0
 14
273.5253501046321
 24
275.7743082394888
 34
0.0
100
AcDbRotatedDimension
1001
ACAD
1000
DSTYLE
1002
{
1070
    40
1040
2.0
1070
    41
1040
3.5
1070
    42
1040
1.0
1070
    43
1040
7.0
1070
    44
1040
1.0
1070
    73
1070
     0
1070
    74
1070
     0
1070
    77
1070
     1
1070
    78
1070
     8
1070
    79
1070
     2
1070
   140
1040
3.5
1070
   141
1040
1.5
1070
   146
1040
0.5
1070
   147
1040
1.5
1070
   172
1070
     1
1070
   178
1070
     1
1070
   179
1070
     2
1070
   271
1070
     2
1070
   272
1070
     2
1070
   284
1070
     8
1070
   285
1070
     8
1070
   286
1070
     8
1070
   340
1005
20
1002
}
  0
LINE
  5
224D
102
{ACAD_REACTORS
330
22D1
102
}
330
2
100
AcDbEntity
  8
STEMPEL
100
AcDbLine
 10
270.7094518060077
 20
275.7743082394889
 30
0.0
 11
245.0278054701115
 21
275.7743082394892
 31
0.0
  0
LINE
  5
224E
102
{ACAD_REACTORS
330
22D1
102
}
330
2
100
AcDbEntity
  8
STEMPEL
100
AcDbLine
 10
256.0278054701106
 20
365.7743082394909
 30
0.0
 11
256.0278054701107
 21
299.774308239489
 31
0.0
  0
LINE
  5
224F
102
{ACAD_REACTORS
330
22D1
102
}
330
2
100
AcDbEntity
  8
STEMPEL
100
AcDbLine
 10
245.0278054701116
 20
284.1909749061581
 30
0.0
 11
256.0278054701107
 21
299.774308239489
 31
0.0
  0
LINE
  5
2250
330
2
100
AcDbEntity
  8
STEMPEL
100
AcDbLine
 10
256.0278054701106
 20
299.7743082394889
 30
0.0
 11
245.0278054701117
 21
299.7743082394891
 31
0.0
  0
LINE
  5
2251
330
2
100
AcDbEntity
  8
STEMPEL
100
AcDbLine
 10
256.0278054701107
 20
365.7743082394909
 30
0.0
 11
245.0278054701124
 21
365.7743082394908
 31
0.0
  0
LINE
  5
2252
102
{ACAD_REACTORS
330
22D1
102
}
330
2
100
AcDbEntity
  8
STEMPEL
100
AcDbLine
 10
256.0278054701106
 20
365.7743082394909
 30
0.0
 11
262.0278054701103
 21
371.7743082394907
 31
0.0
  0
LINE
  5
2253
102
{ACAD_REACTORS
330
22D1
102
}
330
2
100
AcDbEntity
  8
STEMPEL
100
AcDbLine
 10
172.0278054701116
 20
284.1909749061559
 30
0.0
 11
161.0278054701108
 21
299.7743082394887
 31
0.0
  0
LINE
  5
2254
102
{ACAD_REACTORS
330
22D1
102
}
330
2
100
AcDbEntity
  8
STEMPEL
100
AcDbLine
 10
161.0278054701103
 20
365.7743082394905
 30
0.0
 11
161.0278054701108
 21
299.7743082394887
 31
0.0
  0
LINE
  5
2255
102
{ACAD_REACTORS
330
22D1
102
}
330
2
100
AcDbEntity
  8
STEMPEL
100
AcDbLine
 10
161.0278054701103
 20
365.7743082394905
 30
0.0
 11
155.0278054701105
 21
371.7743082394904
 31
0.0
  0
LINE
  5
2256
102
{ACAD_REACTORS
330
22D1
102
}
330
2
100
AcDbEntity
  8
STEMPEL
100
AcDbLine
 10
251.0278054701109
 20
277.7743082394892
 30
0.0
 11
245.0278054701115
 21
277.7743082394892
 31
0.0
  0
LINE
  5
2257
102
{ACAD_REACTORS
330
22D1
102
}
330
2
100
AcDbEntity
  8
STEMPEL
100
AcDbLine
 10
166.0278054701108
 20
277.7743082394902
 30
0.0
 11
166.0278054701108
 21
275.7743082394903
 31
0.0
  0
LINE
  5
2258
102
{ACAD_REACTORS
330
22D1
102
}
330
2
100
AcDbEntity
  8
STEMPEL
100
AcDbLine
 10
251.0278054701108
 20
277.7743082394891
 30
0.0
 11
251.0278054701108
 21
275.7743082394891
 31
0.0
  0
ARC
  5
2259
102
{ACAD_REACTORS
330
22D1
102
}
330
2
100
AcDbEntity
  8
STEMPEL
100
AcDbCircle
 10
270.7094518060078
 20
278.7743082394889
 30
0.0
 40
3.0
100
AcDbArc
 50
270.0
 51
356.4236656250018
  0
ARC
  5
225A
102
{ACAD_REACTORS
330
22D1
102
}
330
2
100
AcDbEntity
  8
STEMPEL
100
AcDbCircle
 10
146.3461591342133
 20
278.7743082394905
 30
0.0
 40
3.0
100
AcDbArc
 50
183.5763343749981
 51
270.0
  0
LINE
  5
22A4
330
2
100
AcDbEntity
  8
STEMPEL
100
AcDbLine
 10
172.0278054701124
 20
371.7743082394904
 30
0.0
 11
155.0278054701108
 21
371.7743082394904
 31
0.0
  0
LINE
  5
22A6
330
2
100
AcDbEntity
  8
STEMPEL
100
AcDbLine
 10
172.0278054701124
 20
365.7743082394907
 30
0.0
 11
161.0278054701103
 21
365.7743082394907
 31
0.0
  0
LINE
  5
22A7
330
2
100
AcDbEntity
  8
STEMPEL
100
AcDbLine
 10
162.6980837916378
 20
425.7743082394907
 30
0.0
 11
155.0278054701106
 21
425.7743082394906
 31
0.0
  0
LINE
  5
22A8
330
2
100
AcDbEntity
  8
STEMPEL
100
AcDbLine
 10
172.0278054701118
 20
299.7743082394903
 30
0.0
 11
161.0278054701108
 21
299.7743082394904
 31
0.0
  0
LINE
  5
22A9
102
{ACAD_REACTORS
330
22D1
102
}
330
2
100
AcDbEntity
  8
STEMPEL
100
AcDbLine
 10
172.0278054701115
 20
277.7743082394902
 30
0.0
 11
166.0278054701108
 21
277.7743082394902
 31
0.0
  0
LINE
  5
22AA
102
{ACAD_REACTORS
330
22D1
102
}
330
2
100
AcDbEntity
  8
STEMPEL
100
AcDbLine
 10
172.0278054701115
 20
275.7743082394902
 30
0.0
 11
146.3461591342133
 21
275.7743082394906
 31
0.0
  0
HATCH
  5
22D1
330
2
100
AcDbEntity
  8
SCHRAFF
100
AcDbHatch
 10
0.0
 20
0.0
 30
0.0
210
0.0
220
0.0
230
1.0
  2
HONEY
 70
     0
 71
     1
 91
        2
 92
        7
 72
     1
 73
     1
 93
       12
 10
283.5278054701106
 20
435.774308239491
 42
0.0
 10
273.5278054701109
 20
435.7743082394909
 42
0.0
 10
262.0278054701106
 20
425.7743082394906
 42
0.0
 10
262.0278054701103
 20
371.7743082394907
 42
0.0
 10
256.0278054701106
 20
365.7743082394909
 42
0.0
 10
256.0278054701107
 20
299.774308239489
 42
0.0
 10
245.0278054701116
 20
284.1909749061581
 42
0.0
 10
245.0278054701115
 20
277.7743082394893
 42
0.0
 10
251.0278054701108
 20
277.7743082394892
 42
0.0
 10
251.0278054701108
 20
275.7743082394891
 42
0.0
 10
270.7094518060078
 20
275.7743082394889
 42
0.3960474615044525
 10
273.7036095414564
 20
278.5871733810234
 42
0.0
 97
       12
330
1E41
330
2244
330
2243
330
2252
330
224E
330
224F
330
1E18
330
2256
330
2258
330
224D
330
2259
330
2245
 92
        7
 72
     1
 73
     1
 93
       12
 10
155.0278054701106
 20
425.7743082394906
 42
0.0
 10
143.5278054701105
 20
435.7743082394907
 42
0.0
 10
133.5278054701106
 20
435.7743082394908
 42
0.0
 10
143.3520013987647
 20
278.587173381025
 42
0.3960474615044455
 10
146.3461591342133
 20
275.7743082394906
 42
0.0
 10
166.0278054701108
 20
275.7743082394902
 42
0.0
 10
166.0278054701108
 20
277.7743082394902
 42
0.0
 10
172.0278054701116
 20
277.7743082394902
 42
0.0
 10
172.0278054701116
 20
284.1909749061559
 42
0.0
 10
161.0278054701109
 20
299.7743082394887
 42
0.0
 10
161.0278054701103
 20
365.7743082394905
 42
0.0
 10
155.0278054701108
 20
371.7743082394901
 42
0.0
 97
       12
330
2246
330
1D99
330
2249
330
225A
330
22AA
330
2257
330
22A9
330
1D74
330
2253
330
2254
330
2255
330
2247
 75
     1
 76
     1
 52
0.0
 41
30.0
 77
     0
 78
     3
 53
0.0
 43
0.0
 44
0.0
 45
5.625
 46
3.247595264191644
 79
     2
 49
3.75
 49
-7.5
 53
120.0
 43
0.0
 44
0.0
 45
-5.624999999999998
 46
3.247595264191645
 79
     2
 49
3.749999999999999
 49
-7.499999999999999
 53
60.0
 43
0.0
 44
0.0
 45
0.0000000000000012
 46
6.49519052838329
 79
     2
 49
-7.5
 49
3.75
 47
0.4212036597592826
 98
        2
 10
271.3102034393669
 20
411.7686796047455
 10
145.3119283932728
 20
405.0294215682365
1001
GradientColor1ACI
1070
     5
1001
GradientColor2ACI
1070
     2
1001
ACAD
1010
0.0
1020
0.0
1030
0.0
  0
ENDSEC
  0
SECTION
  2
OBJECTS
  0
DICTIONARY
  5
1E
330
0
100
AcDbDictionary
281
     1
  3
ACAD_CIP_PREVIOUS_PRODUCT_INFO
350
2207
  3
ACAD_COLOR
350
5BD
  3
ACAD_DETAILVIEWSTYLE
350
2203
  3
ACAD_GROUP
350
1C
  3
ACAD_LAYOUT
350
5BE
  3
ACAD_MATERIAL
350
5BC
  3
ACAD_MLEADERSTYLE
350
21FE
  3
ACAD_MLINESTYLE
350
1D
  3
ACAD_PLOTSETTINGS
350
5BF
  3
ACAD_PLOTSTYLENAME
350
5BA
  3
ACAD_SCALELIST
350
21EC
  3
ACAD_SECTIONVIEWSTYLE
350
2200
  3
ACAD_TABLESTYLE
350
21EA
  3
ACAD_VISUALSTYLE
350
21D1
  3
ACDB_RECOMPOSE_DATA
350
23CA
  3
ACDBVARIABLEDICTIONARY
350
545
  0
DICTIONARY
  5
22EB
330
16
100
AcDbDictionary
280
     1
281
     1
  0
DICTIONARY
  5
232C
330
E
100
AcDbDictionary
280
     1
281
     1
  3
ACAD_LAYERSTATES
360
232D
  0
DICTIONARY
  5
22D8
330
6
100
AcDbDictionary
280
     1
281
     1
  3
ADSK_XREC_LAYER_RECONCILED
360
22D9
  0
DICTIONARY
  5
22DA
330
CE
100
AcDbDictionary
280
     1
281
     1
  3
ADSK_XREC_LAYER_RECONCILED
360
22DB
  0
DICTIONARY
  5
22DC
330
36
100
AcDbDictionary
280
     1
281
     1
  3
ADSK_XREC_LAYER_RECONCILED
360
22DD
  0
DICTIONARY
  5
22DE
330
101
100
AcDbDictionary
280
     1
281
     1
  3
ADSK_XREC_LAYER_RECONCILED
360
22DF
  0
DICTIONARY
  5
22E0
330
25
100
AcDbDictionary
280
     1
281
     1
  3
ADSK_XREC_LAYER_RECONCILED
360
22E1
  0
DICTIONARY
  5
22E2
330
39
100
AcDbDictionary
280
     1
281
     1
  3
ADSK_XREC_LAYER_RECONCILED
360
22E3
  0
DICTIONARY
  5
22E4
330
1F
100
AcDbDictionary
280
     1
281
     1
  3
ADSK_XREC_LAYER_RECONCILED
360
22E5
  0
DICTIONARY
  5
22E6
330
D3E
100
AcDbDictionary
280
     1
281
     1
  3
ADSK_XREC_LAYER_RECONCILED
360
22E7
  0
DICTIONARY
  5
3
330
2
100
AcDbDictionary
280
     1
281
     1
  3
ACAD_LAYOUTSELFREF
360
4
  3
ACAD_SORTENTS
360
22A5
  0
DICTIONARY
  5
A
330
9
100
AcDbDictionary
280
     1
281
     1
  3
ACAD_LAYOUTSELFREF
360
B
  0
XRECORD
  5
2207
102
{ACAD_REACTORS
330
1E
102
}
330
1E
100
AcDbXrecord
280
     1
300
ACD
300
2013
300
ACD_F_S
  0
DICTIONARY
  5
5BD
102
{ACAD_REACTORS
330
1E
102
}
330
1E
100
AcDbDictionary
281
     1
  0
DICTIONARY
  5
2203
102
{ACAD_REACTORS
330
1E
102
}
330
1E
100
AcDbDictionary
281
     1
  3
Imperial24
350
2204
  0
DICTIONARY
  5
1C
102
{ACAD_REACTORS
330
1E
102
}
330
1E
100
AcDbDictionary
281
     1
  0
DICTIONARY
  5
5BE
102
{ACAD_REACTORS
330
1E
102
}
330
1E
100
AcDbDictionary
281
     1
  3
Layout1
350
5C1
  3
Model
350
5C0
  0
DICTIONARY
  5
5BC
102
{ACAD_REACTORS
330
1E
102
}
330
1E
100
AcDbDictionary
281
     1
  3
ByBlock
350
21C1
  3
ByLayer
350
21B9
  3
Global
350
21C9
  0
DICTIONARY
  5
21FE
102
{ACAD_REACTORS
330
1E
102
}
330
1E
100
AcDbDictionary
281
     1
  3
Standard
350
21FF
  0
DICTIONARY
  5
1D
102
{ACAD_REACTORS
330
1E
102
}
330
1E
100
AcDbDictionary
281
     1
  3
STANDARD
350
21
  0
DICTIONARY
  5
5BF
102
{ACAD_REACTORS
330
1E
102
}
330
1E
100
AcDbDictionary
281
     1
  0
ACDBDICTIONARYWDFLT
  5
5BA
102
{ACAD_REACTORS
330
1E
102
}
330
1E
100
AcDbDictionary
281
     1
  3
Normal
350
5BB
100
AcDbDictionaryWithDefault
340
5BB
  0
DICTIONARY
  5
21EC
102
{ACAD_REACTORS
330
1E
102
}
330
1E
100
AcDbDictionary
281
     1
  3
A0
350
21ED
  3
A1
350
21EE
  3
A2
350
21EF
  3
A3
350
21F0
  3
A4
350
21F1
  3
A5
350
21F2
  3
A6
350
21F3
  3
A7
350
21F4
  3
A8
350
21F5
  3
A9
350
21F6
  3
B0
350
21F7
  3
B1
350
21F8
  3
B2
350
21F9
  3
B3
350
21FA
  3
B4
350
21FB
  3
B5
350
21FC
  3
B6
350
21FD
  0
DICTIONARY
  5
2200
102
{ACAD_REACTORS
330
1E
102
}
330
1E
100
AcDbDictionary
281
     1
  3
Imperial24
350
2202
  0
DICTIONARY
  5
21EA
102
{ACAD_REACTORS
330
1E
102
}
330
1E
100
AcDbDictionary
281
     1
  3
Standard
350
21EB
  0
DICTIONARY
  5
21D1
102
{ACAD_REACTORS
330
1E
102
}
330
1E
100
AcDbDictionary
281
     1
  3
2dWireframe
350
21D7
  3
Basic
350
21D6
  3
Brighten
350
21DD
  3
ColorChange
350
21E1
  3
Conceptual
350
21DA
  3
Dim
350
21DC
  3
EdgeColorOff
350
21E9
  3
Facepattern
350
21E0
  3
Flat
350
21D2
  3
FlatWithEdges
350
21D3
  3
Gouraud
350
21D4
  3
GouraudWithEdges
350
21D5
  3
Hidden
350
21D9
  3
JitterOff
350
21E7
  3
Linepattern
350
21DF
  3
OverhangOff
350
21E8
  3
Realistic
350
21DB
  3
Shaded
350
21E6
  3
Shaded with edges
350
21E5
  3
Shades of Gray
350
21E2
  3
Sketchy
350
21E3
  3
Thicken
350
21DE
  3
Wireframe
350
21D8
  3
X-Ray
350
21E4
  0
XRECORD
  5
23CA
102
{ACAD_REACTORS
330
1E
102
}
330
1E
100
AcDbXrecord
280
     1
 90
        1
330
21EB
  0
DICTIONARY
  5
545
102
{ACAD_REACTORS
330
1E
102
}
330
1E
100
AcDbDictionary
281
     1
  3
CANNOSCALE
350
2328
  3
CMLEADERSTYLE
350
2325
  3
CTABLESTYLE
350
2324
  3
CVIEWDETAILSTYLE
350
2326
  3
CVIEWSECTIONSTYLE
350
2327
  3
DIMASSOC
350
B28
  3
PROJECTNAME
350
B29
  3
SORTENTS
350
546
  0
DICTIONARY
  5
232D
102
{ACAD_REACTORS
330
232C
102
}
330
232C
100
AcDbDictionary
281
     1
  0
XRECORD
  5
22D9
102
{ACAD_REACTORS
330
22D8
102
}
330
22D8
100
AcDbXrecord
280
     1
290
     1
  0
XRECORD
  5
22DB
102
{ACAD_REACTORS
330
22DA
102
}
330
22DA
100
AcDbXrecord
280
     1
290
     1
  0
XRECORD
  5
22DD
102
{ACAD_REACTORS
330
22DC
102
}
330
22DC
100
AcDbXrecord
280
     1
290
     1
  0
XRECORD
  5
22DF
102
{ACAD_REACTORS
330
22DE
102
}
330
22DE
100
AcDbXrecord
280
     1
290
     1
  0
XRECORD
  5
22E1
102
{ACAD_REACTORS
330
22E0
102
}
330
22E0
100
AcDbXrecord
280
     1
290
     1
  0
XRECORD
  5
22E3
102
{ACAD_REACTORS
330
22E2
102
}
330
22E2
100
AcDbXrecord
280
     1
290
     1
  0
XRECORD
  5
22E5
102
{ACAD_REACTORS
330
22E4
102
}
330
22E4
100
AcDbXrecord
280
     1
290
     1
  0
XRECORD
  5
22E7
102
{ACAD_REACTORS
330
22E6
102
}
330
22E6
100
AcDbXrecord
280
     1
290
     1
  0
XRECORD
  5
4
102
{ACAD_REACTORS
330
3
102
}
330
3
100
AcDbXrecord
280
     1
340
2
  0
SORTENTSTABLE
  5
22A5
102
{ACAD_REACTORS
330
3
102
}
330
3
100
AcDbSortentsTable
330
2
331
1E1F
  5
1E23
331
1E1B
  5
1E1F
331
1FB7
  5
1FBE
331
1E95
  5
1E9A
331
1E56
  5
1E5A
331
2105
  5
212D
331
1FB3
  5
1FB9
331
1E91
  5
1E98
331
1E17
  5
1E1B
331
1E52
  5
1E56
331
1E13
  5
1E17
331
2164
  5
2168
331
1FAB
  5
1FB3
331
2160
  5
2164
331
1DA7
  5
1DAE
331
1DA3
  5
1DA7
331
224E
  5
2255
331
21A4
  5
21A8
331
1D64
  5
1D66
331
224A
  5
224E
331
21A0
  5
21A4
331
1D60
  5
1D62
331
1D9B
  5
1DA4
331
1DDA
  5
1DE0
331
219C
  5
21A0
331
2246
  5
224A
331
2198
  5
219C
331
B3
  5
B3
331
1E0F
  5
1E13
331
203E
  5
2051
331
1E0B
  5
1E0F
331
1FA3
  5
1FAC
331
1E81
  5
1E8C
331
1E46
  5
1E4F
331
20D1
  5
20F7
331
1E7D
  5
1E87
331
1E42
  5
1E46
331
1E79
  5
1E7D
331
1D5C
  5
1D61
331
1DD6
  5
1DDA
331
1D97
  5
1D9C
331
1DD2
  5
1DD7
331
2194
  5
2198
331
1DCE
  5
1DD2
331
1D8F
  5
1D95
331
2190
  5
2194
331
1D8B
  5
1D8F
331
1D50
  5
1D52
331
218C
  5
2190
331
2188
  5
218C
331
1E3E
  5
1E43
331
1DFB
  5
1E00
331
1FEA
  5
1FEF
331
1E36
  5
1E3B
331
1DF3
  5
1DFD
331
1EAC
  5
1F90
331
1FCA
  5
1FED
331
1E69
  5
1E79
331
1EA8
  5
1EAC
331
1DC6
  5
1DCB
331
1D87
  5
1D8B
331
161
  5
161
331
1DC2
  5
1DC6
331
1D83
  5
1D87
331
2184
  5
2188
331
1D7F
  5
1D83
331
2180
  5
2184
331
10B0
  5
10B0
331
1D7B
  5
1D7F
331
1DBA
  5
1DC2
331
217C
  5
2180
331
2178
  5
217C
331
1E2E
  5
1E33
331
1DEF
  5
1DF3
331
1FC6
  5
1FCA
331
1EA4
  5
1EA8
331
1E2A
  5
1E2E
331
1EA0
  5
1EA4
331
1E61
  5
1E69
331
1E26
  5
1E2A
331
1E22
  5
1E26
331
1FBE
  5
1FC6
331
1DE3
  5
1DF1
331
1FBA
  5
1FC4
331
210C
  5
215F
331
1E59
  5
1E66
331
1E98
  5
1EA0
331
2051
  5
20D3
331
22A8
  5
2258
331
1D77
  5
1D7B
331
1DB6
  5
1DBB
331
1DB2
  5
1DB8
331
1D73
  5
1D75
331
2174
  5
2178
331
1DAE
  5
1DB2
331
1D6F
  5
1D71
331
2259
  5
22AF
331
2170
  5
2174
331
1D6B
  5
1D6D
331
21AB
  5
21AF
331
216C
  5
2170
331
2255
  5
225E
331
2168
  5
216C
331
2251
  5
2259
331
4F
  5
4F
331
1E1E
  5
1E22
331
1E1A
  5
1E1E
331
1FB6
  5
1FBC
331
1E55
  5
1E59
331
1E90
  5
1E96
331
1E16
  5
1E1A
331
1FB2
  5
1FB7
331
1E51
  5
1E55
331
1E8C
  5
1E92
331
1E12
  5
1E16
331
2167
  5
216B
331
2163
  5
2167
331
2049
  5
20D1
331
1DA6
  5
1DAB
331
21A7
  5
21AB
331
1D67
  5
1D69
331
224D
  5
2253
331
21A3
  5
21A7
331
1DDD
  5
1DE3
331
1D9E
  5
1DA6
331
1D63
  5
1D65
331
2249
  5
224D
331
219F
  5
21A3
331
1D9A
  5
1DA3
331
1DD9
  5
1DDD
331
219B
  5
219F
331
22A4
  5
224F
331
2245
  5
2249
331
B2
  5
B2
331
1E0E
  5
1E12
331
1E4D
  5
1E52
331
1E0A
  5
1E0E
331
1E84
  5
1E8F
331
1FA6
  5
1FAD
331
215F
  5
2163
331
1E80
  5
1E8B
331
1E45
  5
1E4D
331
20D4
  5
210C
331
2039
  5
2050
331
1E7C
  5
1E84
331
1E41
  5
1E45
331
20D0
  5
20D4
331
1E78
  5
1E7C
331
1F92
  5
1FA6
331
1DD5
  5
1DD9
331
1D96
  5
1D9B
331
1D5B
  5
1D60
331
2197
  5
219B
331
1DD1
  5
1DD6
331
1D92
  5
1D99
331
2193
  5
2197
331
1DCD
  5
1DD1
331
1D8E
  5
1D92
331
1D53
  5
1D5B
331
218F
  5
2193
331
1D8A
  5
1D8E
331
1DC9
  5
1DCE
331
218B
  5
218F
331
1DFE
  5
1E0B
331
1E39
  5
1E3F
331
1EAF
  5
1F92
331
1E35
  5
1E39
331
1E31
  5
1E36
331
1DF2
  5
1DFC
331
1EAB
  5
1F09
331
1E68
  5
1E78
331
1FC9
  5
1FEC
331
1D4F
  5
1D51
331
1DC5
  5
1DC9
331
1D86
  5
1D8A
331
2187
  5
218B
331
1D82
  5
1D86
331
2183
  5
2187
331
1DBD
  5
1DC5
331
1D7E
  5
1D82
331
217F
  5
2183
331
1D7A
  5
1D7E
331
217B
  5
217F
331
1E2D
  5
1E31
331
1EA7
  5
1EAB
331
1DEA
  5
1DF2
331
1EA3
  5
1EA7
331
1E29
  5
1E2D
331
1FC5
  5
1FC9
331
1E25
  5
1E29
331
1E21
  5
1E25
331
1DE2
  5
1DF0
331
1E9B
  5
1EA3
331
1E58
  5
1E61
331
1FB9
  5
1FBF
331
2050
  5
20D2
331
1DB5
  5
1DBA
331
1D76
  5
1D7A
331
2177
  5
217B
331
D0
  5
D0
331
1DB1
  5
1DB7
331
1D72
  5
1D74
331
2173
  5
2177
331
1D6E
  5
1D70
331
21AE
  5
21B2
331
2258
  5
22AE
331
216F
  5
2173
331
1D6A
  5
1D6C
331
1DA9
  5
1DB0
331
21AA
  5
21AE
331
216B
  5
216F
331
2254
  5
225D
331
56
  5
56
331
2250
  5
2257
331
1E1D
  5
1E21
331
1FB5
  5
1FBA
331
1E19
  5
1E1D
331
1E54
  5
1E58
331
1E8F
  5
1E95
331
1E15
  5
1E19
331
1E50
  5
1E54
331
2166
  5
216A
331
20F7
  5
210D
331
1FAD
  5
1FB6
331
1E8B
  5
1E91
331
1E11
  5
1E15
331
2162
  5
2166
331
2048
  5
20D0
331
1DA5
  5
1DA9
331
21A6
  5
21AA
331
1D66
  5
1D68
331
224C
  5
2252
331
21A2
  5
21A6
331
1D62
  5
1D64
331
1DDC
  5
1DE2
331
2248
  5
224C
331
22A7
  5
2251
331
219E
  5
21A2
331
1D99
  5
1D9E
331
1DD8
  5
1DDC
331
219A
  5
219E
331
2244
  5
2248
331
1E0D
  5
1E11
331
1E87
  5
1E90
331
1E4C
  5
1E51
331
1E09
  5
1E0D
331
20D3
  5
2106
331
1E44
  5
1E4C
331
1F95
  5
1FA8
331
1E7B
  5
1E81
331
1F91
  5
1FA3
331
1DD4
  5
1DD8
331
1D95
  5
1D9A
331
2196
  5
219A
331
1DD0
  5
1DD5
331
1D91
  5
1D97
331
2192
  5
2196
331
1DCC
  5
1DD0
331
1D8D
  5
1D91
331
1D52
  5
1D59
331
218E
  5
2192
331
1D89
  5
1D8D
331
1DC8
  5
1DCD
331
218A
  5
218E
331
1DFD
  5
1E0A
331
1E77
  5
1E7B
331
1E3C
  5
1E42
331
1FEC
  5
1FF0
331
1E38
  5
1E3E
331
1F09
  5
1F95
331
1E34
  5
1E38
331
1E30
  5
1E35
331
1DF1
  5
1DFB
331
1EAA
  5
1EAF
331
1FC8
  5
1FEA
331
1D4E
  5
1D50
331
1DC4
  5
1DC8
331
1D85
  5
1D89
331
2186
  5
218A
331
1D81
  5
1D85
331
2182
  5
2186
331
1DBC
  5
1DC4
331
1D7D
  5
1D81
331
217E
  5
2182
331
1D79
  5
1D7D
331
1DB8
  5
1DBD
331
217A
  5
217E
331
1E2C
  5
1E30
331
1EA6
  5
1EAA
331
1E67
  5
1E77
331
1FC4
  5
1FC8
331
1EA2
  5
1EA6
331
1E28
  5
1E2C
331
1E24
  5
1E28
331
1E20
  5
1E24
331
1DE1
  5
1DEF
331
1FBC
  5
1FC5
331
1E5B
  5
1E68
331
1E9A
  5
1EA2
331
22AA
  5
2254
331
1D75
  5
1D79
331
2176
  5
217A
331
1DB0
  5
1DB6
331
1D71
  5
1D73
331
2172
  5
2176
331
1D6D
  5
1D6F
331
21AD
  5
21B1
331
216E
  5
2172
331
2257
  5
22AC
331
1D69
  5
1D6B
331
1DA8
  5
1DAF
331
21A9
  5
21AD
331
216A
  5
216E
331
2253
  5
225C
331
55
  5
55
331
1E1C
  5
1E20
331
1E96
  5
1E9B
331
1E57
  5
1E5B
331
2106
  5
2149
331
1E92
  5
1E99
331
1E18
  5
1E1C
331
1E53
  5
1E57
331
1E14
  5
1E18
331
2165
  5
2169
331
1FAC
  5
1FB5
331
1E10
  5
1E14
331
2161
  5
2165
331
1FA8
  5
1FB2
331
1DA4
  5
1DA8
331
21A5
  5
21A9
331
224F
  5
2256
331
1D65
  5
1D67
331
224B
  5
2250
331
21A1
  5
21A5
331
1D61
  5
1D63
331
1D9C
  5
1DA5
331
1DDB
  5
1DE1
331
22A6
  5
225A
331
2247
  5
224B
331
219D
  5
21A1
331
2199
  5
219D
331
2243
  5
2247
331
1E4F
  5
1E53
331
1E0C
  5
1E10
331
1E4B
  5
1E50
331
20D2
  5
2105
331
1FA0
  5
1FAB
331
1E43
  5
1E4B
331
1E7A
  5
1E80
331
1E00
  5
1E0C
331
2149
  5
2162
331
1F90
  5
1FA0
331
1DD7
  5
1DDB
331
1D59
  5
1D5C
331
2195
  5
2199
331
1DCF
  5
1DD4
331
1D90
  5
1D96
331
2191
  5
2195
331
1D51
  5
1D53
331
1D8C
  5
1D90
331
1DCB
  5
1DCF
331
218D
  5
2191
331
1D88
  5
1D8C
331
2189
  5
218D
331
1E3F
  5
1E44
331
1DFC
  5
1E09
331
1E76
  5
1E7A
331
1E3B
  5
1E41
331
212D
  5
2161
331
1E37
  5
1E3C
331
1E33
  5
1E37
331
1EAD
  5
1F91
331
1DF4
  5
1DFE
331
1DF0
  5
1DF4
331
1FCB
  5
1FEE
331
1EA9
  5
1EAD
331
22D1
  5
1D77
331
1DC7
  5
1DCC
331
162
  5
162
331
1DC3
  5
1DC7
331
1D84
  5
1D88
331
2185
  5
2189
331
1D80
  5
1D84
331
2181
  5
2185
331
1DBB
  5
1DC3
331
1D7C
  5
1D80
331
217D
  5
2181
331
1D78
  5
1D7C
331
2179
  5
217D
331
1E2F
  5
1E34
331
1EA5
  5
1EA9
331
1FC7
  5
1FCB
331
1E66
  5
1E76
331
1E2B
  5
1E2F
331
1EA1
  5
1EA5
331
1E27
  5
1E2B
331
1FBF
  5
1FC7
331
1E23
  5
1E27
331
1DE0
  5
1DEA
331
210D
  5
2160
331
1E5A
  5
1E67
331
1E99
  5
1EA1
331
22A9
  5
22A6
331
1DB7
  5
1DBC
331
1D74
  5
1D78
331
2175
  5
2179
331
1DAF
  5
1DB5
331
1D70
  5
1D72
331
225A
  5
22B0
331
2171
  5
2175
331
1DAB
  5
1DB1
331
1D6C
  5
1D6E
331
21AC
  5
21B0
331
216D
  5
2171
331
2256
  5
22A4
331
1D68
  5
1D6A
331
21A8
  5
21AC
331
2169
  5
216D
331
2252
  5
225B
  0
XRECORD
  5
B
102
{ACAD_REACTORS
330
A
102
}
330
A
100
AcDbXrecord
280
     1
340
9
  0
ACDBDETAILVIEWSTYLE
  5
2204
102
{ACAD_REACTORS
330
2203
102
}
330
2203
100
AcDbModelDocViewStyle
 70
     0
  3
Imperial24
290
     0
100
AcDbDetailViewStyle
 70
     0
 71
     0
 90
        3
 71
     1
340
10
 62
   256
 40
0.24
340
0
 62
   256
 40
0.24
300

 40
0.36
280
     3
 71
     2
340
7
 90
       25
 62
   256
 71
     3
340
10
 62
   256
 40
0.24
 90
        1
 40
0.75
 90
        1
300
%<\AcVar ViewType \f "%tc1">% %<\AcVar ViewDetailId>%\PVARIA %<\AcVar ViewScale \f "%sn">%
 71
     4
340
7
 90
       25
 62
   256
340
7
 90
       25
 62
   256
280
     0
  0
LAYOUT
  5
5C1
102
{ACAD_REACTORS
330
5BE
102
}
330
5BE
100
AcDbPlotSettings
  1

  2
RICOH Aficio 2027 PCL 6
  4

  6

 40
0.0
 41
0.0
 42
0.0
 43
0.0
 44
0.0
 45
0.0
 46
0.0
 47
0.0
 48
0.0
 49
0.0
140
0.0
141
0.0
142
1.0
143
1.0
 70
   688
 72
     0
 73
     0
 74
     5
  7
monochrome1.ctb
 75
    16
147
1.0
 76
     0
 77
     2
 78
   300
148
0.0
149
0.0
100
AcDbLayout
  1
Layout1
 70
     0
 71
     1
 10
0.0
 20
0.0
 11
12.0
 21
9.0
 12
2.245140564963854
 22
50.00000000000001
 32
-1.032422173993944
 14
1.000000000000000E+20
 24
1.000000000000000E+20
 34
1.000000000000000E+20
 15
-1.000000000000000E+20
 25
-1.000000000000000E+20
 35
-1.000000000000000E+20
146
0.0
 13
0.0
 23
0.0
 33
0.0
 16
1.0
 26
0.0
 36
0.0
 17
0.0
 27
1.0
 37
0.0
 76
     0
330
9
  0
LAYOUT
  5
5C0
102
{ACAD_XDICTIONARY
360
234B
102
}
102
{ACAD_REACTORS
330
5BE
102
}
330
5BE
100
AcDbPlotSettings
  1

  2
RICOH Aficio 2027 PCL 6
  4
A4
  6

 40
5.027083
 41
5.027084999999999
 42
5.027084
 43
5.027069
 44
209.973328
 45
296.925995
 46
0.0
 47
2.06
 48
1143.007452
 49
420.250739
140
1563.007452
141
717.2507389999999
142
1.0
143
2.100849152723284
 70
 11956
 72
     1
 73
     0
 74
     2
  7
monochrome1.ctb
 75
     0
147
0.4759980023809526
 76
     1
 77
     2
 78
   300
148
0.0
149
0.0
100
AcDbLayout
  1
Model
 70
     1
 71
     0
 10
0.0
 20
0.0
 11
12.0
 21
9.0
 12
0.0
 22
0.0
 32
0.0
 14
0.0
 24
0.0
 34
0.0
 15
0.0
 25
0.0
 35
0.0
146
0.0
 13
0.0
 23
0.0
 33
0.0
 16
1.0
 26
0.0
 36
0.0
 17
0.0
 27
1.0
 37
0.0
 76
     0
330
2
331
21B7
  0
MATERIAL
  5
21C1
102
{ACAD_XDICTIONARY
360
21C2
102
}
102
{ACAD_REACTORS
330
5BC
102
}
330
5BC
100
AcDbMaterial
  1
ByBlock
 72
     0
 43
0.0208333333333333
 43
0.0
 43
0.0
 43
0.0
 43
0.0
 43
0.0208333333333333
 43
0.0
 43
0.0
 43
0.0
 43
0.0
 43
1.0
 43
0.0
 43
0.0
 43
0.0
 43
0.0
 43
1.0
 77
     0
 47
0.0208333333333333
 47
0.0
 47
0.0
 47
0.0
 47
0.0
 47
0.0208333333333333
 47
0.0
 47
0.0
 47
0.0
 47
0.0
 47
1.0
 47
0.0
 47
0.0
 47
0.0
 47
0.0
 47
1.0
171
     0
 49
0.0208333333333333
 49
0.0
 49
0.0
 49
0.0
 49
0.0
 49
0.0208333333333333
 49
0.0
 49
0.0
 49
0.0
 49
0.0
 49
1.0
 49
0.0
 49
0.0
 49
0.0
 49
0.0
 49
1.0
175
     0
142
0.0208333333333333
142
0.0
142
0.0
142
0.0
142
0.0
142
0.0208333333333333
142
0.0
142
0.0
142
0.0
142
0.0
142
1.0
142
0.0
142
0.0
142
0.0
142
0.0
142
1.0
179
     0
144
0.0208333333333333
144
0.0
144
0.0
144
0.0
144
0.0
144
0.0208333333333333
144
0.0
144
0.0
144
0.0
144
0.0
144
1.0
144
0.0
144
0.0
144
0.0
144
0.0
144
1.0
147
0.0208333333333333
147
0.0
147
0.0
147
0.0
147
0.0
147
0.0208333333333333
147
0.0
147
0.0
147
0.0
147
0.0
147
1.0
147
0.0
147
0.0
147
0.0
147
0.0
147
1.0
  0
MATERIAL
  5
21B9
102
{ACAD_XDICTIONARY
360
21BA
102
}
102
{ACAD_REACTORS
330
5BC
102
}
330
5BC
100
AcDbMaterial
  1
ByLayer
 72
     0
 43
0.0208333333333333
 43
0.0
 43
0.0
 43
0.0
 43
0.0
 43
0.0208333333333333
 43
0.0
 43
0.0
 43
0.0
 43
0.0
 43
1.0
 43
0.0
 43
0.0
 43
0.0
 43
0.0
 43
1.0
 77
     0
 47
0.0208333333333333
 47
0.0
 47
0.0
 47
0.0
 47
0.0
 47
0.0208333333333333
 47
0.0
 47
0.0
 47
0.0
 47
0.0
 47
1.0
 47
0.0
 47
0.0
 47
0.0
 47
0.0
 47
1.0
171
     0
 49
0.0208333333333333
 49
0.0
 49
0.0
 49
0.0
 49
0.0
 49
0.0208333333333333
 49
0.0
 49
0.0
 49
0.0
 49
0.0
 49
1.0
 49
0.0
 49
0.0
 49
0.0
 49
0.0
 49
1.0
175
     0
142
0.0208333333333333
142
0.0
142
0.0
142
0.0
142
0.0
142
0.0208333333333333
142
0.0
142
0.0
142
0.0
142
0.0
142
1.0
142
0.0
142
0.0
142
0.0
142
0.0
142
1.0
179
     0
144
0.0208333333333333
144
0.0
144
0.0
144
0.0
144
0.0
144
0.0208333333333333
144
0.0
144
0.0
144
0.0
144
0.0
144
1.0
144
0.0
144
0.0
144
0.0
144
0.0
144
1.0
147
0.0208333333333333
147
0.0
147
0.0
147
0.0
147
0.0
147
0.0208333333333333
147
0.0
147
0.0
147
0.0
147
0.0
147
1.0
147
0.0
147
0.0
147
0.0
147
0.0
147
1.0
  0
MATERIAL
  5
21C9
102
{ACAD_XDICTIONARY
360
21CA
102
}
102
{ACAD_REACTORS
330
5BC
102
}
330
5BC
100
AcDbMaterial
  1
Global
 72
     0
 43
0.0208333333333333
 43
0.0
 43
0.0
 43
0.0
 43
0.0
 43
0.0208333333333333
 43
0.0
 43
0.0
 43
0.0
 43
0.0
 43
1.0
 43
0.0
 43
0.0
 43
0.0
 43
0.0
 43
1.0
 77
     0
 47
0.0208333333333333
 47
0.0
 47
0.0
 47
0.0
 47
0.0
 47
0.0208333333333333
 47
0.0
 47
0.0
 47
0.0
 47
0.0
 47
1.0
 47
0.0
 47
0.0
 47
0.0
 47
0.0
 47
1.0
171
     0
 49
0.0208333333333333
 49
0.0
 49
0.0
 49
0.0
 49
0.0
 49
0.0208333333333333
 49
0.0
 49
0.0
 49
0.0
 49
0.0
 49
1.0
 49
0.0
 49
0.0
 49
0.0
 49
0.0
 49
1.0
175
     0
142
0.0208333333333333
142
0.0
142
0.0
142
0.0
142
0.0
142
0.0208333333333333
142
0.0
142
0.0
142
0.0
142
0.0
142
1.0
142
0.0
142
0.0
142
0.0
142
0.0
142
1.0
179
     0
144
0.0208333333333333
144
0.0
144
0.0
144
0.0
144
0.0
144
0.0208333333333333
144
0.0
144
0.0
144
0.0
144
0.0
144
1.0
144
0.0
144
0.0
144
0.0
144
0.0
144
1.0
147
0.0208333333333333
147
0.0
147
0.0
147
0.0
147
0.0
147
0.0208333333333333
147
0.0
147
0.0
147
0.0
147
0.0
147
1.0
147
0.0
147
0.0
147
0.0
147
0.0
147
1.0
  0
MLEADERSTYLE
  5
21FF
102
{ACAD_XDICTIONARY
360
23FF
102
}
102
{ACAD_REACTORS
330
21FE
102
}
330
21FE
100
AcDbMLeaderStyle
170
     2
171
     1
172
     0
 90
        2
 40
0.0
 41
0.0
173
     1
 91
-1056964608
340
12
 92
       -2
290
     1
 42
0.09
291
     1
 43
0.36
  3
Standard
 44
0.18
300

342
10
174
     1
178
     6
175
     1
176
     0
 93
-1056964608
 45
0.18
292
     0
297
     0
 46
0.18
 94
-1056964608
 47
1.0
 49
1.0
140
1.0
293
     1
141
0.0
294
     1
177
     0
142
1.0
295
     0
296
     0
143
0.125
1001
ACAD_MLEADERVER
1070
     2
  0
MLINESTYLE
  5
21
102
{ACAD_REACTORS
330
1D
102
}
330
1D
100
AcDbMlineStyle
  2
STANDARD
 70
     0
  3

 62
   256
 51
90.0
 52
90.0
 71
     2
 49
0.5
 62
   256
  6
BYLAYER
 49
-0.5
 62
   256
  6
BYLAYER
  0
ACDBPLACEHOLDER
  5
5BB
102
{ACAD_REACTORS
330
5BA
102
}
330
5BA
  0
SCALE
  5
21ED
102
{ACAD_REACTORS
330
21EC
102
}
330
21EC
100
AcDbScale
 70
     0
300
1:1
140
1.0
141
1.0
290
     1
  0
SCALE
  5
21EE
102
{ACAD_REACTORS
330
21EC
102
}
330
21EC
100
AcDbScale
 70
     0
300
1/128" = 1'-0"
140
0.0078125
141
12.0
290
     0
  0
SCALE
  5
21EF
102
{ACAD_REACTORS
330
21EC
102
}
330
21EC
100
AcDbScale
 70
     0
300
1/64" = 1'-0"
140
0.015625
141
12.0
290
     0
  0
SCALE
  5
21F0
102
{ACAD_REACTORS
330
21EC
102
}
330
21EC
100
AcDbScale
 70
     0
300
1/32" = 1'-0"
140
0.03125
141
12.0
290
     0
  0
SCALE
  5
21F1
102
{ACAD_REACTORS
330
21EC
102
}
330
21EC
100
AcDbScale
 70
     0
300
1/16" = 1'-0"
140
0.0625
141
12.0
290
     0
  0
SCALE
  5
21F2
102
{ACAD_REACTORS
330
21EC
102
}
330
21EC
100
AcDbScale
 70
     0
300
3/32" = 1'-0"
140
0.09375
141
12.0
290
     0
  0
SCALE
  5
21F3
102
{ACAD_REACTORS
330
21EC
102
}
330
21EC
100
AcDbScale
 70
     0
300
1/8" = 1'-0"
140
0.125
141
12.0
290
     0
  0
SCALE
  5
21F4
102
{ACAD_REACTORS
330
21EC
102
}
330
21EC
100
AcDbScale
 70
     0
300
3/16" = 1'-0"
140
0.1875
141
12.0
290
     0
  0
SCALE
  5
21F5
102
{ACAD_REACTORS
330
21EC
102
}
330
21EC
100
AcDbScale
 70
     0
300
1/4" = 1'-0"
140
0.25
141
12.0
290
     0
  0
SCALE
  5
21F6
102
{ACAD_REACTORS
330
21EC
102
}
330
21EC
100
AcDbScale
 70
     0
300
3/8" = 1'-0"
140
0.375
141
12.0
290
     0
  0
SCALE
  5
21F7
102
{ACAD_REACTORS
330
21EC
102
}
330
21EC
100
AcDbScale
 70
     0
300
1/2" = 1'-0"
140
0.5
141
12.0
290
     0
  0
SCALE
  5
21F8
102
{ACAD_REACTORS
330
21EC
102
}
330
21EC
100
AcDbScale
 70
     0
300
3/4" = 1'-0"
140
0.75
141
12.0
290
     0
  0
SCALE
  5
21F9
102
{ACAD_REACTORS
330
21EC
102
}
330
21EC
100
AcDbScale
 70
     0
300
1" = 1'-0"
140
1.0
141
12.0
290
     0
  0
SCALE
  5
21FA
102
{ACAD_REACTORS
330
21EC
102
}
330
21EC
100
AcDbScale
 70
     0
300
1-1/2" = 1'-0"
140
1.5
141
12.0
290
     0
  0
SCALE
  5
21FB
102
{ACAD_REACTORS
330
21EC
102
}
330
21EC
100
AcDbScale
 70
     0
300
3" = 1'-0"
140
3.0
141
12.0
290
     0
  0
SCALE
  5
21FC
102
{ACAD_REACTORS
330
21EC
102
}
330
21EC
100
AcDbScale
 70
     0
300
6" = 1'-0"
140
6.0
141
12.0
290
     0
  0
SCALE
  5
21FD
102
{ACAD_REACTORS
330
21EC
102
}
330
21EC
100
AcDbScale
 70
     0
300
1'-0" = 1'-0"
140
12.0
141
12.0
290
     0
  0
ACDBSECTIONVIEWSTYLE
  5
2202
102
{ACAD_REACTORS
330
2200
102
}
330
2200
100
AcDbModelDocViewStyle
 70
     0
  3
Imperial24
290
     0
100
AcDbSectionViewStyle
 70
     0
 71
     0
 90
       78
 71
     1
340
10
 62
   256
 40
0.24
340
0
340
0
 62
   256
 40
0.24
300
I, O, Q, S, X, Z
 40
0.48
 90
        3
 40
0.18
 90
        1
 71
     2
340
2201
 90
       25
 62
   256
340
7
 90
       50
 62
   256
 40
0.24
 40
0.0
 40
0.24
 71
     3
340
10
 62
   256
 40
0.24
 90
        1
 40
0.75
 90
        1
300
%<\AcVar ViewType \f "%tc1">% %<\AcVar ViewSectionStartId>%-%<\AcVar ViewSectionEndId>%\PVARIA %<\AcVar ViewScale \f "%sn">%
 71
     4
 62
   256
 62
   257
300
ANSI31
 40
1.0
 90
        0
290
     0
290
     0
 90
        6
 40
0.0
 40
1.570796326794896
 40
0.2617993877991494
 40
1.308996938995747
 40
-0.2617993877991494
 40
1.832595714594046
  0
TABLESTYLE
  5
21EB
102
{ACAD_XDICTIONARY
360
22E8
102
}
102
{ACAD_REACTORS
330
21EA
102
}
330
21EA
100
AcDbTableStyle
  3
Standard
 70
     0
 71
     0
 40
0.06
 41
0.06
280
     0
281
     0
  7
STANDARD
140
0.18
170
     2
 62
     0
 63
     7
283
     0
274
    -2
284
     1
 64
     0
275
    -2
285
     1
 65
     0
276
    -2
286
     1
 66
     0
277
    -2
287
     1
 67
     0
278
    -2
288
     1
 68
     0
279
    -2
289
     1
 69
     0
  7
STANDARD
140
0.25
170
     5
 62
     0
 63
     7
283
     0
274
    -2
284
     1
 64
     0
275
    -2
285
     1
 65
     0
276
    -2
286
     1
 66
     0
277
    -2
287
     1
 67
     0
278
    -2
288
     1
 68
     0
279
    -2
289
     1
 69
     0
  7
STANDARD
140
0.18
170
     5
 62
     0
 63
     7
283
     0
274
    -2
284
     1
 64
     0
275
    -2
285
     1
 65
     0
276
    -2
286
     1
 66
     0
277
    -2
287
     1
 67
     0
278
    -2
288
     1
 68
     0
279
    -2
289
     1
 69
     0
  0
VISUALSTYLE
  5
21D7
102
{ACAD_XDICTIONARY
360
23D8
102
}
102
{ACAD_REACTORS
330
21D1
102
}
330
21D1
100
AcDbVisualStyle
  2
2dWireframe
 70
     4
 71
     0
 72
     2
 73
     0
 90
        0
 40
-0.6
 41
-30.0
 62
     5
 63
     7
421
 16777215
 74
     1
 91
        4
 64
     7
 65
   257
 75
     1
175
     1
 42
1.0
 92
        0
 66
   257
 43
1.0
 76
     1
 77
     6
 78
     2
 67
     7
 79
     5
170
     0
171
     0
290
     0
174
     0
 93
        1
 44
0.0
173
     0
291
     0
 45
0.0
1001
ACAD
1000
AcDbSavedByObjectVersion
1070
     0
  0
VISUALSTYLE
  5
21D6
102
{ACAD_XDICTIONARY
360
23D6
102
}
102
{ACAD_REACTORS
330
21D1
102
}
330
21D1
100
AcDbVisualStyle
  2
Basic
 70
     7
 71
     1
 72
     0
 73
     1
 90
        0
 40
-0.6
 41
-30.0
 62
     5
 63
     7
421
 16777215
 74
     0
 91
        4
 64
     7
 65
   257
 75
     1
175
     1
 42
1.0
 92
        8
 66
     7
 43
1.0
 76
     1
 77
     6
 78
     2
 67
     7
 79
     5
170
     0
171
     0
290
     0
174
     0
 93
        1
 44
0.0
173
     0
291
     1
 45
0.0
1001
ACAD
1000
AcDbSavedByObjectVersion
1070
     0
  0
VISUALSTYLE
  5
21DD
102
{ACAD_XDICTIONARY
360
23E4
102
}
102
{ACAD_REACTORS
330
21D1
102
}
330
21D1
100
AcDbVisualStyle
  2
Brighten
 70
    12
 71
     2
 72
     2
 73
     0
 90
        0
 40
-0.6
 41
-30.0
 62
     5
 63
     7
421
 16777215
 74
     1
 91
        4
 64
     7
 65
   257
 75
     1
175
     1
 42
1.0
 92
        8
 66
     7
 43
1.0
 76
     1
 77
     6
 78
     2
 67
     7
 79
     5
170
     0
171
     0
290
     0
174
     0
 93
        1
 44
50.0
173
     0
291
     1
 45
0.0
1001
ACAD
1000
AcDbSavedByObjectVersion
1070
     0
  0
VISUALSTYLE
  5
21E1
102
{ACAD_XDICTIONARY
360
23EC
102
}
102
{ACAD_REACTORS
330
21D1
102
}
330
21D1
100
AcDbVisualStyle
  2
ColorChange
 70
    16
 71
     2
 72
     2
 73
     3
 90
        0
 40
-0.6
 41
-30.0
 62
     5
 63
     8
421
  8421504
 74
     1
 91
        4
 64
     7
 65
   257
 75
     1
175
     1
 42
1.0
 92
        8
 66
     8
424
  8421504
 43
1.0
 76
     1
 77
     6
 78
     2
 67
     7
 79
     5
170
     0
171
     0
290
     0
174
     0
 93
        1
 44
0.0
173
     0
291
     1
 45
0.0
1001
ACAD
1000
AcDbSavedByObjectVersion
1070
     0
  0
VISUALSTYLE
  5
21DA
102
{ACAD_XDICTIONARY
360
23DE
102
}
102
{ACAD_REACTORS
330
21D1
102
}
330
21D1
100
AcDbVisualStyle
  2
Conceptual
 70
     9
 71
     3
 72
     2
 73
     0
 90
        0
 40
-0.6
 41
-30.0
 62
     5
 63
     7
421
 16777215
 74
     2
 91
        2
 64
     7
 65
   257
 75
     1
175
     1
 42
179.0
 92
        8
 66
     7
 43
1.0
 76
     1
 77
     6
 78
     2
 67
     7
 79
     3
170
     0
171
     0
290
     0
174
     0
 93
        1
 44
0.0
173
     0
291
     0
 45
0.0
1001
ACAD
1000
AcDbSavedByObjectVersion
1070
     0
  0
VISUALSTYLE
  5
21DC
102
{ACAD_XDICTIONARY
360
23E2
102
}
102
{ACAD_REACTORS
330
21D1
102
}
330
21D1
100
AcDbVisualStyle
  2
Dim
 70
    11
 71
     2
 72
     2
 73
     0
 90
        0
 40
-0.6
 41
-30.0
 62
     5
 63
     7
421
 16777215
 74
     1
 91
        4
 64
     7
 65
   257
 75
     1
175
     1
 42
1.0
 92
        8
 66
     7
 43
1.0
 76
     1
 77
     6
 78
     2
 67
     7
 79
     5
170
     0
171
     0
290
     0
174
     0
 93
        1
 44
-50.0
173
     0
291
     1
 45
0.0
1001
ACAD
1000
AcDbSavedByObjectVersion
1070
     0
  0
VISUALSTYLE
  5
21E9
102
{ACAD_XDICTIONARY
360
23FC
102
}
102
{ACAD_REACTORS
330
21D1
102
}
330
21D1
100
AcDbVisualStyle
  2
EdgeColorOff
 70
    22
 71
     2
 72
     2
 73
     0
 90
        0
 40
-0.6
 41
-30.0
 62
     5
 63
     7
421
 16777215
 74
     1
 91
        4
 64
     7
 65
   257
 75
     1
175
     1
 42
1.0
 92
        8
 66
     7
 43
1.0
 76
     1
 77
     6
 78
     2
 67
     7
 79
     5
170
     0
171
     0
290
     0
174
     0
 93
        1
 44
0.0
173
     0
291
     1
 45
0.0
1001
ACAD
1000
AcDbSavedByObjectVersion
1070
     0
  0
VISUALSTYLE
  5
21E0
102
{ACAD_XDICTIONARY
360
23EA
102
}
102
{ACAD_REACTORS
330
21D1
102
}
330
21D1
100
AcDbVisualStyle
  2
Facepattern
 70
    15
 71
     2
 72
     2
 73
     0
 90
        0
 40
-0.6
 41
-30.0
 62
     5
 63
     7
421
 16777215
 74
     1
 91
        4
 64
     7
 65
   257
 75
     1
175
     1
 42
1.0
 92
        8
 66
     7
 43
1.0
 76
     1
 77
     6
 78
     2
 67
     7
 79
     5
170
     0
171
     0
290
     0
174
     0
 93
        1
 44
0.0
173
     0
291
     1
 45
0.0
1001
ACAD
1000
AcDbSavedByObjectVersion
1070
     0
  0
VISUALSTYLE
  5
21D2
102
{ACAD_XDICTIONARY
360
23CE
102
}
102
{ACAD_REACTORS
330
21D1
102
}
330
21D1
100
AcDbVisualStyle
  2
Flat
 70
     0
 71
     2
 72
     1
 73
     1
 90
        2
 40
-0.6
 41
30.0
 62
     5
 63
     7
421
 16777215
 74
     0
 91
        0
 64
     7
 65
   257
 75
     1
175
     1
 42
1.0
 92
        8
 66
     7
 43
1.0
 76
     1
 77
     6
 78
     2
 67
     7
 79
     5
170
     0
171
     0
290
     0
174
     0
 93
       13
 44
0.0
173
     0
291
     1
 45
0.0
1001
ACAD
1000
AcDbSavedByObjectVersion
1070
     0
  0
VISUALSTYLE
  5
21D3
102
{ACAD_XDICTIONARY
360
23D0
102
}
102
{ACAD_REACTORS
330
21D1
102
}
330
21D1
100
AcDbVisualStyle
  2
FlatWithEdges
 70
     1
 71
     2
 72
     1
 73
     1
 90
        2
 40
-0.6
 41
30.0
 62
     5
 63
     7
421
 16777215
 74
     1
 91
        0
 64
     7
 65
   257
 75
     1
175
     1
 42
1.0
 92
        0
 66
   257
 43
1.0
 76
     1
 77
     6
 78
     2
 67
     7
 79
     5
170
     0
171
     0
290
     0
174
     0
 93
       13
 44
0.0
173
     0
291
     1
 45
0.0
1001
ACAD
1000
AcDbSavedByObjectVersion
1070
     0
  0
VISUALSTYLE
  5
21D4
102
{ACAD_XDICTIONARY
360
23D2
102
}
102
{ACAD_REACTORS
330
21D1
102
}
330
21D1
100
AcDbVisualStyle
  2
Gouraud
 70
     2
 71
     2
 72
     2
 73
     1
 90
        2
 40
-0.6
 41
30.0
 62
     5
 63
     7
421
 16777215
 74
     0
 91
        0
 64
     7
 65
   257
 75
     1
175
     1
 42
1.0
 92
        0
 66
     7
 43
1.0
 76
     1
 77
     6
 78
     2
 67
     7
 79
     5
170
     0
171
     0
290
     0
174
     0
 93
       13
 44
0.0
173
     0
291
     1
 45
0.0
1001
ACAD
1000
AcDbSavedByObjectVersion
1070
     0
  0
VISUALSTYLE
  5
21D5
102
{ACAD_XDICTIONARY
360
23D4
102
}
102
{ACAD_REACTORS
330
21D1
102
}
330
21D1
100
AcDbVisualStyle
  2
GouraudWithEdges
 70
     3
 71
     2
 72
     2
 73
     1
 90
        2
 40
-0.6
 41
30.0
 62
     5
 63
     7
421
 16777215
 74
     1
 91
        0
 64
     7
 65
   257
 75
     1
175
     1
 42
1.0
 92
        0
 66
   257
 43
1.0
 76
     1
 77
     6
 78
     2
 67
     7
 79
     5
170
     0
171
     0
290
     0
174
     0
 93
       13
 44
0.0
173
     0
291
     1
 45
0.0
1001
ACAD
1000
AcDbSavedByObjectVersion
1070
     0
  0
VISUALSTYLE
  5
21D9
102
{ACAD_XDICTIONARY
360
23DC
102
}
102
{ACAD_REACTORS
330
21D1
102
}
330
21D1
100
AcDbVisualStyle
  2
Hidden
 70
     6
 71
     1
 72
     2
 73
     2
 90
        0
 40
-0.6
 41
-30.0
 62
     5
 63
     7
421
 16777215
 74
     2
 91
        2
 64
     7
 65
   257
 75
     2
175
     1
 42
40.0
 92
        0
 66
   257
 43
1.0
 76
     1
 77
     6
 78
     2
 67
     7
 79
     3
170
     0
171
     0
290
     0
174
     0
 93
        1
 44
0.0
173
     0
291
     0
 45
0.0
1001
ACAD
1000
AcDbSavedByObjectVersion
1070
     0
  0
VISUALSTYLE
  5
21E7
102
{ACAD_XDICTIONARY
360
23F8
102
}
102
{ACAD_REACTORS
330
21D1
102
}
330
21D1
100
AcDbVisualStyle
  2
JitterOff
 70
    20
 71
     2
 72
     2
 73
     0
 90
        0
 40
-0.6
 41
-30.0
 62
     5
 63
     7
421
 16777215
 74
     1
 91
        4
 64
     7
 65
   257
 75
     1
175
     1
 42
1.0
 92
       10
 66
     7
 43
1.0
 76
     1
 77
     6
 78
     2
 67
     7
 79
     5
170
     0
171
     0
290
     0
174
     0
 93
        1
 44
0.0
173
     0
291
     1
 45
0.0
1001
ACAD
1000
AcDbSavedByObjectVersion
1070
     0
  0
VISUALSTYLE
  5
21DF
102
{ACAD_XDICTIONARY
360
23E8
102
}
102
{ACAD_REACTORS
330
21D1
102
}
330
21D1
100
AcDbVisualStyle
  2
Linepattern
 70
    14
 71
     2
 72
     2
 73
     0
 90
        0
 40
-0.6
 41
-30.0
 62
     5
 63
     7
421
 16777215
 74
     1
 91
        4
 64
     7
 65
   257
 75
     7
175
     7
 42
1.0
 92
        8
 66
     7
 43
1.0
 76
     1
 77
     6
 78
     2
 67
     7
 79
     5
170
     0
171
     0
290
     0
174
     0
 93
        1
 44
0.0
173
     0
291
     1
 45
0.0
1001
ACAD
1000
AcDbSavedByObjectVersion
1070
     0
  0
VISUALSTYLE
  5
21E8
102
{ACAD_XDICTIONARY
360
23FA
102
}
102
{ACAD_REACTORS
330
21D1
102
}
330
21D1
100
AcDbVisualStyle
  2
OverhangOff
 70
    21
 71
     2
 72
     2
 73
     0
 90
        0
 40
-0.6
 41
-30.0
 62
     5
 63
     7
421
 16777215
 74
     1
 91
        4
 64
     7
 65
   257
 75
     1
175
     1
 42
1.0
 92
        9
 66
     7
 43
1.0
 76
     1
 77
     6
 78
     2
 67
     7
 79
     5
170
     0
171
     0
290
     0
174
     0
 93
        1
 44
0.0
173
     0
291
     1
 45
0.0
1001
ACAD
1000
AcDbSavedByObjectVersion
1070
     0
  0
VISUALSTYLE
  5
21DB
102
{ACAD_XDICTIONARY
360
23E0
102
}
102
{ACAD_REACTORS
330
21D1
102
}
330
21D1
100
AcDbVisualStyle
  2
Realistic
 70
     8
 71
     2
 72
     2
 73
     0
 90
        2
 40
-0.6
 41
30.0
 62
     5
 63
     7
421
 16777215
 74
     0
 91
        0
 64
     7
 65
   257
 75
     1
175
     1
 42
1.0
 92
        8
 66
   257
 43
1.0
 76
     1
 77
     6
 78
     2
 67
     7
 79
     3
170
     0
171
     0
290
     0
174
     0
 93
       13
 44
0.0
173
     0
291
     0
 45
0.0
1001
ACAD
1000
AcDbSavedByObjectVersion
1070
     0
  0
VISUALSTYLE
  5
21E6
102
{ACAD_XDICTIONARY
360
23F6
102
}
102
{ACAD_REACTORS
330
21D1
102
}
330
21D1
100
AcDbVisualStyle
  2
Shaded
 70
    27
 71
     2
 72
     2
 73
     1
 90
        2
 40
-0.6
 41
30.0
 62
     5
 63
     7
421
 16777215
 74
     0
 91
        4
 64
     7
 65
   257
 75
     1
175
     1
 42
1.0
 92
        8
 66
   257
 43
1.0
 76
     1
 77
     6
 78
     2
 67
     8
425
  7895160
 79
     3
170
     0
171
     0
290
     0
174
     0
 93
        5
 44
0.0
173
     0
291
     0
 45
0.0
1001
ACAD
1000
AcDbSavedByObjectVersion
1070
     0
  0
VISUALSTYLE
  5
21E5
102
{ACAD_XDICTIONARY
360
23F4
102
}
102
{ACAD_REACTORS
330
21D1
102
}
330
21D1
100
AcDbVisualStyle
  2
Shaded with edges
 70
    26
 71
     2
 72
     2
 73
     1
 90
        2
 40
-0.6
 41
30.0
 62
     5
 63
     7
421
 16777215
 74
     1
 91
       10
 64
     7
 65
   257
 75
     2
175
     1
 42
1.0
 92
        8
 66
   257
 43
1.0
 76
     1
 77
     6
 78
     2
 67
     7
 79
     3
170
     0
171
     0
290
     0
174
     0
 93
        5
 44
0.0
173
     0
291
     0
 45
0.0
1001
ACAD
1000
AcDbSavedByObjectVersion
1070
     0
  0
VISUALSTYLE
  5
21E2
102
{ACAD_XDICTIONARY
360
23EE
102
}
102
{ACAD_REACTORS
330
21D1
102
}
330
21D1
100
AcDbVisualStyle
  2
Shades of Gray
 70
    23
 71
     2
 72
     2
 73
     3
 90
        0
 40
-0.6
 41
-30.0
 62
     5
 63
     7
421
 16777215
 74
     2
 91
        2
 64
     7
 65
     7
 75
     1
175
     1
 42
40.0
 92
        8
 66
     7
 43
1.0
 76
     1
 77
     6
 78
     2
 67
     7
 79
     3
170
     0
171
     0
290
     0
174
     0
 93
        1
 44
0.0
173
     0
291
     0
 45
0.0
1001
ACAD
1000
AcDbSavedByObjectVersion
1070
     0
  0
VISUALSTYLE
  5
21E3
102
{ACAD_XDICTIONARY
360
23F0
102
}
102
{ACAD_REACTORS
330
21D1
102
}
330
21D1
100
AcDbVisualStyle
  2
Sketchy
 70
    24
 71
     1
 72
     2
 73
     2
 90
        0
 40
-0.6
 41
-30.0
 62
     5
 63
     7
421
 16777215
 74
     2
 91
        2
 64
     7
 65
     7
 75
     1
175
     1
 42
40.0
 92
       11
 66
     7
 43
1.0
 76
     1
 77
     6
 78
     2
 67
     7
 79
     6
170
     0
171
     0
290
     0
174
     0
 93
        1
 44
0.0
173
     0
291
     0
 45
0.0
1001
ACAD
1000
AcDbSavedByObjectVersion
1070
     0
  0
VISUALSTYLE
  5
21DE
102
{ACAD_XDICTIONARY
360
23E6
102
}
102
{ACAD_REACTORS
330
21D1
102
}
330
21D1
100
AcDbVisualStyle
  2
Thicken
 70
    13
 71
     2
 72
     2
 73
     0
 90
        0
 40
-0.6
 41
-30.0
 62
     5
 63
     7
421
 16777215
 74
     1
 91
        4
 64
     7
 65
   257
 75
     1
175
     1
 42
1.0
 92
       12
 66
     7
 43
1.0
 76
     1
 77
     6
 78
     2
 67
     7
 79
     5
170
     0
171
     0
290
     0
174
     0
 93
        1
 44
0.0
173
     0
291
     1
 45
0.0
1001
ACAD
1000
AcDbSavedByObjectVersion
1070
     0
  0
VISUALSTYLE
  5
21D8
102
{ACAD_XDICTIONARY
360
23DA
102
}
102
{ACAD_REACTORS
330
21D1
102
}
330
21D1
100
AcDbVisualStyle
  2
Wireframe
 70
     5
 71
     0
 72
     2
 73
     0
 90
        0
 40
-0.6
 41
-30.0
 62
     5
 63
     7
421
 16777215
 74
     1
 91
        4
 64
     7
 65
   257
 75
     1
175
     1
 42
1.0
 92
        0
 66
   257
 43
1.0
 76
     1
 77
     6
 78
     2
 67
     7
 79
     3
170
     0
171
     0
290
     0
174
     0
 93
        1
 44
0.0
173
     0
291
     0
 45
0.0
1001
ACAD
1000
AcDbSavedByObjectVersion
1070
     0
  0
VISUALSTYLE
  5
21E4
102
{ACAD_XDICTIONARY
360
23F2
102
}
102
{ACAD_REACTORS
330
21D1
102
}
330
21D1
100
AcDbVisualStyle
  2
X-Ray
 70
    25
 71
     2
 72
     2
 73
     1
 90
        1
 40
0.5
 41
-30.0
 62
     5
 63
     7
421
 16777215
 74
     1
 91
        0
 64
     7
 65
   257
 75
     1
175
     1
 42
1.0
 92
        8
 66
     7
 43
1.0
 76
     1
 77
     6
 78
     2
 67
     7
 79
     3
170
     0
171
     0
290
     0
174
     0
 93
       13
 44
0.0
173
     0
291
     0
 45
0.0
1001
ACAD
1000
AcDbSavedByObjectVersion
1070
     0
  0
DICTIONARYVAR
  5
2328
102
{ACAD_REACTORS
330
545
102
}
330
545
100
DictionaryVariables
280
     0
  1
1:1
  0
DICTIONARYVAR
  5
2325
102
{ACAD_REACTORS
330
545
102
}
330
545
100
DictionaryVariables
280
     0
  1
STANDARD
  0
DICTIONARYVAR
  5
2324
102
{ACAD_REACTORS
330
545
102
}
330
545
100
DictionaryVariables
280
     0
  1
STANDARD
  0
DICTIONARYVAR
  5
2326
102
{ACAD_REACTORS
330
545
102
}
330
545
100
DictionaryVariables
280
     0
  1
Imperial24
  0
DICTIONARYVAR
  5
2327
102
{ACAD_REACTORS
330
545
102
}
330
545
100
DictionaryVariables
280
     0
  1
Imperial24
  0
DICTIONARYVAR
  5
B28
102
{ACAD_REACTORS
330
545
102
}
330
545
100
DictionaryVariables
280
     0
  1
1
  0
DICTIONARYVAR
  5
B29
102
{ACAD_REACTORS
330
545
102
}
330
545
100
DictionaryVariables
280
     0
  1

  0
DICTIONARYVAR
  5
546
102
{ACAD_REACTORS
330
545
102
}
330
545
100
DictionaryVariables
280
     0
  1
96
  0
DICTIONARY
  5
234B
330
5C0
100
AcDbDictionary
280
     1
281
     1
  3
ADSK_XREC_LAYOUTTHUMBNAIL
360
234C
  0
DICTIONARY
  5
21C2
330
21C1
100
AcDbDictionary
280
     1
281
     1
  3
ACAD_XREC_ROUNDTRIP
360
23CC
  3
BUMPTILE
360
21C4
  3
DIFFUSETILE
360
21C3
  3
OPACITYTILE
360
21C7
  3
REFLECTIONTILE
360
21C6
  3
REFRACTIONTILE
360
21C8
  3
SPECULARTILE
360
21C5
  0
DICTIONARY
  5
21BA
330
21B9
100
AcDbDictionary
280
     1
281
     1
  3
ACAD_XREC_ROUNDTRIP
360
23CB
  3
BUMPTILE
360
21BC
  3
DIFFUSETILE
360
21BB
  3
OPACITYTILE
360
21BF
  3
REFLECTIONTILE
360
21BE
  3
REFRACTIONTILE
360
21C0
  3
SPECULARTILE
360
21BD
  0
DICTIONARY
  5
21CA
330
21C9
100
AcDbDictionary
280
     1
281
     1
  3
ACAD_XREC_ROUNDTRIP
360
23CD
  3
BUMPTILE
360
21CC
  3
DIFFUSETILE
360
21CB
  3
OPACITYTILE
360
21CF
  3
REFLECTIONTILE
360
21CE
  3
REFRACTIONTILE
360
21D0
  3
SPECULARTILE
360
21CD
  0
DICTIONARY
  5
23FF
330
21FF
100
AcDbDictionary
280
     1
281
     1
  3
ACAD_XREC_ROUNDTRIP
360
2400
  0
DICTIONARY
  5
22E8
330
21EB
100
AcDbDictionary
280
     1
281
     1
  3
ACAD_ROUNDTRIP_2008_TABLESTYLE_CELLSTYLEMAP
360
23C9
  3
ACAD_XREC_ROUNDTRIP
360
23FE
  0
DICTIONARY
  5
23D8
330
21D7
100
AcDbDictionary
280
     1
281
     1
  3
ACAD_XREC_ROUNDTRIP
360
23D9
  0
DICTIONARY
  5
23D6
330
21D6
100
AcDbDictionary
280
     1
281
     1
  3
ACAD_XREC_ROUNDTRIP
360
23D7
  0
DICTIONARY
  5
23E4
330
21DD
100
AcDbDictionary
280
     1
281
     1
  3
ACAD_XREC_ROUNDTRIP
360
23E5
  0
DICTIONARY
  5
23EC
330
21E1
100
AcDbDictionary
280
     1
281
     1
  3
ACAD_XREC_ROUNDTRIP
360
23ED
  0
DICTIONARY
  5
23DE
330
21DA
100
AcDbDictionary
280
     1
281
     1
  3
ACAD_XREC_ROUNDTRIP
360
23DF
  0
DICTIONARY
  5
23E2
330
21DC
100
AcDbDictionary
280
     1
281
     1
  3
ACAD_XREC_ROUNDTRIP
360
23E3
  0
DICTIONARY
  5
23FC
330
21E9
100
AcDbDictionary
280
     1
281
     1
  3
ACAD_XREC_ROUNDTRIP
360
23FD
  0
DICTIONARY
  5
23EA
330
21E0
100
AcDbDictionary
280
     1
281
     1
  3
ACAD_XREC_ROUNDTRIP
360
23EB
  0
DICTIONARY
  5
23CE
330
21D2
100
AcDbDictionary
280
     1
281
     1
  3
ACAD_XREC_ROUNDTRIP
360
23CF
  0
DICTIONARY
  5
23D0
330
21D3
100
AcDbDictionary
280
     1
281
     1
  3
ACAD_XREC_ROUNDTRIP
360
23D1
  0
DICTIONARY
  5
23D2
330
21D4
100
AcDbDictionary
280
     1
281
     1
  3
ACAD_XREC_ROUNDTRIP
360
23D3
  0
DICTIONARY
  5
23D4
330
21D5
100
AcDbDictionary
280
     1
281
     1
  3
ACAD_XREC_ROUNDTRIP
360
23D5
  0
DICTIONARY
  5
23DC
330
21D9
100
AcDbDictionary
280
     1
281
     1
  3
ACAD_XREC_ROUNDTRIP
360
23DD
  0
DICTIONARY
  5
23F8
330
21E7
100
AcDbDictionary
280
     1
281
     1
  3
ACAD_XREC_ROUNDTRIP
360
23F9
  0
DICTIONARY
  5
23E8
330
21DF
100
AcDbDictionary
280
     1
281
     1
  3
ACAD_XREC_ROUNDTRIP
360
23E9
  0
DICTIONARY
  5
23FA
330
21E8
100
AcDbDictionary
280
     1
281
     1
  3
ACAD_XREC_ROUNDTRIP
360
23FB
  0
DICTIONARY
  5
23E0
330
21DB
100
AcDbDictionary
280
     1
281
     1
  3
ACAD_XREC_ROUNDTRIP
360
23E1
  0
DICTIONARY
  5
23F6
330
21E6
100
AcDbDictionary
280
     1
281
     1
  3
ACAD_XREC_ROUNDTRIP
360
23F7
  0
DICTIONARY
  5
23F4
330
21E5
100
AcDbDictionary
280
     1
281
     1
  3
ACAD_XREC_ROUNDTRIP
360
23F5
  0
DICTIONARY
  5
23EE
330
21E2
100
AcDbDictionary
280
     1
281
     1
  3
ACAD_XREC_ROUNDTRIP
360
23EF
  0
DICTIONARY
  5
23F0
330
21E3
100
AcDbDictionary
280
     1
281
     1
  3
ACAD_XREC_ROUNDTRIP
360
23F1
  0
DICTIONARY
  5
23E6
330
21DE
100
AcDbDictionary
280
     1
281
     1
  3
ACAD_XREC_ROUNDTRIP
360
23E7
  0
DICTIONARY
  5
23DA
330
21D8
100
AcDbDictionary
280
     1
281
     1
  3
ACAD_XREC_ROUNDTRIP
360
23DB
  0
DICTIONARY
  5
23F2
330
21E4
100
AcDbDictionary
280
     1
281
     1
  3
ACAD_XREC_ROUNDTRIP
360
23F3
  0
XRECORD
  5
234C
102
{ACAD_REACTORS
330
234B
102
}
330
234B
100
AcDbXrecord
280
     1
310
280000000001000096000000010008000000000000960000010000000100000000010000000000000000000000000040C8C8C8FF000000FF000000FF000000FF000000FF000000FF000000FF000000FF000000FF330000FF660000FF990000FFCC0000FFFF0000FF003300FF333300FF663300FF993300FFCC3300FFFF3300
310
FF006600FF336600FF666600FF996600FFCC6600FFFF6600FF009900FF339900FF669900FF999900FFCC9900FFFF9900FF00CC00FF33CC00FF66CC00FF99CC00FFCCCC00FFFFCC00FF00FF00FF33FF00FF66FF00FF99FF00FFCCFF00FFFFFF00FF000033FF330033FF660033FF990033FFCC0033FFFF0033FF003333FF3333
310
33FF663333FF993333FFCC3333FFFF3333FF006633FF336633FF666633FF996633FFCC6633FFFF6633FF009933FF339933FF669933FF999933FFCC9933FFFF9933FF00CC33FF33CC33FF66CC33FF99CC33FFCCCC33FFFFCC33FF00FF33FF33FF33FF66FF33FF99FF33FFCCFF33FFFFFF33FF000066FF330066FF660066FF99
310
0066FFCC0066FFFF0066FF003366FF333366FF663366FF993366FFCC3366FFFF3366FF006666FF336666FF666666FF996666FFCC6666FFFF6666FF009966FF339966FF669966FF999966FFCC9966FFFF9966FF00CC66FF33CC66FF66CC66FF99CC66FFCCCC66FFFFCC66FF00FF66FF33FF66FF66FF66FF99FF66FFCCFF66FF
310
FFFF66FF000099FF330099FF660099FF990099FFCC0099FFFF0099FF003399FF333399FF663399FF993399FFCC3399FFFF3399FF006699FF336699FF666699FF996699FFCC6699FFFF6699FF009999FF339999FF669999FF999999FFCC9999FFFF9999FF00CC99FF33CC99FF66CC99FF99CC99FFCCCC99FFFFCC99FF00FF99
310
FF33FF99FF66FF99FF99FF99FFCCFF99FFFFFF99FF0000CCFF3300CCFF6600CCFF9900CCFFCC00CCFFFF00CCFF0033CCFF3333CCFF6633CCFF9933CCFFCC33CCFFFF33CCFF0066CCFF3366CCFF6666CCFF9966CCFFCC66CCFFFF66CCFF0099CCFF3399CCFF6699CCFF9999CCFFCC99CCFFFF99CCFF00CCCCFF33CCCCFF66CC
310
CCFF99CCCCFFCCCCCCFFFFCCCCFF00FFCCFF33FFCCFF66FFCCFF99FFCCFFCCFFCCFFFFFFCCFF0000FFFF3300FFFF6600FFFF9900FFFFCC00FFFFFF00FFFF0033FFFF3333FFFF6633FFFF9933FFFFCC33FFFFFF33FFFF0066FFFF3366FFFF6666FFFF9966FFFFCC66FFFFFF66FFFF0099FFFF3399FFFF6699FFFF9999FFFFCC
310
99FFFFFF99FFFF00CCFFFF33CCFFFF66CCFFFF99CCFFFFCCCCFFFFFFCCFFFF00FFFFFF33FFFFFF66FFFFFF99FFFFFFCCFFFFFFFFFFFFFF000000FF0D0D0DFF1A1A1AFF282828FF353535FF434343FF505050FF5D5D5DFF6B6B6BFF787878FF868686FF939393FFA1A1A1FFAEAEAEFFBBBBBBFFC9C9C9FFD6D6D6FFE4E4E4FF
310
F1F1F1FFFFFFFFFF000000FF000000FF000000FF000000FF000000FF000000FF000000FF000000FF000000FF000000FF00000000000000000000000000000000000000000000000000000000000000000000000000000000000000000000000000000000000000000000000000000000000000000000000000000000000000
310
00000000000000000000000000000000000000000000000000000000000000000000000000000000000000000000000000000000000000000000000000000000000000000000000000000000000000000000000000000000000000000000000000000000000000000000000000000000000000000000000000000000000000
310
0000000000000000000000000000000000000000000000000000000000000000000000000000000000000000000000000000000000000000000000000000000000000000000000000000000000000000000000000000000000000000000000000000000000000000000000000000000000000000000000000000000000DCDC
310
DCDCDCDCDCDCDCDCDCDCDCDCDCDCDCDCDCDCDCDCDCDCDCDCDCDCDCDCDCDCDCDCDCDCDCDCDCDCDCDCDCDCDCDCDCDCDCDCDCDCDCDCDCDCDCDCDCDCDCDCDCDCDCDCDCDCDCDCDCDCDCDCDCDCDCDCDCDCDCDCDCDCDCDCDCDCDCDCDCDCDCDCDCDCDCDCDCDCDCDCDCDCDCDC0000000000000000000000000000000000000000000000
310
00000000000000000000000000000000000000000000000000000000000000000000000000000000000000000000000000000000000000000000000000000000000000000000000000000000000000000000000000000000000000000000000000000000000000000000000000000000000000000000000000000000000000
310
DC0000000000000000000000000000000000000000000000000000000000000000000000000000000000000000000000000000000000000000000000000000000000000000000000000000000000000000000000000000000000000000000000000000000000000000DC000000000000000000000000000000000000000000
310
00000000000000000000000000000000000000000000000000000000000000000000000000000000000000000000000000000000000000000000000000000000000000000000000000000000000000000000000000000000000000000000000000000000000000000000000000000000000000000000000000000000000000
310
0000DC000000000000000000282828BE282828282828282828282828BE28282828BE28282828282828282828282828282828282828282828282828282828282828282828282828282828282828282828282828282828282828282828282828282828282828282828282800DC00000000000000000000000000000000000000
310
00000000000000000000000000000000000000000000000000000000000000000000000000000000000000000000000000000000000000000000000000000000000000000000000000000000000000000000000000000000000000000000000000000000000000000000000000000000000000000000000000000000000000
310
00000000DC00000000000000000028F5F5BE000000000000000000000000BE00000000BE000000002800000000000000000000000000000000000000000028DCDCDCDCDCDCDCDCDCDCDCDCDCDCDCDCDCDCDCDCDCDCDCDCDCDCDCDCDCDCDCDCDCDCDCDCDCDCDCDCDCDCDC00F5F5DC0000000000000000000000000000000000
310
00000000000000000000000000000000000000000000000000000000000000000000000000000000000000000000000000000000000000000000000000000000000000000000000000000000000000000000000000000000000000000000000000000000000000000000000000000000000000000000000000000000000000
310
000000000000DC00000000000000000028F5F5BE000000F5F5F5F5F5F5000000BE00F5F500BEF5F5F5F52800002828282828282800280000282828282828000028000000000000000000000000000000000000000000000000000000000000000000000000000000000000000028F5DC000000000000000000000000000000
310
00000000000000000000000000000000000000000000000000000000000000000000000000000000000000000000000000000000000000000000000000000000000000000000000000000000000000000000000000000000000000000000000000000000000000000000000000000000000000000000000000000000000000
310
0000000000000000DC00000000000000000028F5F5BE000000F5F5F5F5F5F5000000BEF5F5F500BEF5F5F5F52800002828282828282828280000282828282828280028000000000000000000000000000000000000000000000000000000000000000000000000000000000000000028F5DC00000000000000000000000000
310
00000000000000000000000000000000000000000000000000000000000000000000000000000000000000000000000000000000000000000000000000000000000000000000000000000000000000000000000000000000000000000000000000000000000000000000000000000000000000000000000000000000000000
310
00000000000000000000DC00000000000000000028F5F5BE000000000000000000000000BE00000000BE0000000028000028282828000028282828282828280000282800280000000000000000000000000000000000000000000000000000000000000000000000000000000000000000F5F5DC0000000000000000000000
310
00000000000000000000000000000000000000000000000000000000000000000000000000000000000000000000000000000000000000000000000000000000000000000000000000000000000000000000000000000000000000000000000000000000000000000000000000000000000000000000000000000000000000
310
000000000000000000000000DC000000000000000000282828BE282828282828282828282828BE28282828BE282828282800002828282800002828280000282828000028280028F5F5F5F5F5F5F5F5F5F500000000000000000000000000000000000000000000000000000000000000000000F5F5DC000000000000000000
310
00000000000000000000000000000000000000000000000000000000000000000000000000000000000000000000000000000000000000000000000000000000000000000000000000000000000000000000000000000000000000000000000000000000000000000000000000000000000000000000000000000000000000
310
0000000000000000000000000000DC00000000000000000028F5F5BE0000F5F5F5F5F5F5F5F50000F5F5F5F5F5BEF5F5F5F52800002828002828282800282828280028282828000028F5F5F5F5F5F5F5F5F5F500000000000000000000000000000000000000000000000000000000000000000000F5F5DC00000000000000
310
00000000000000000000000000000000000000000000000000000000000000000000000000000000000000000000000000000000000000000000000000000000000000000000000000000000000000000000000000000000000000000000000000000000000000000000000000000000000000000000000000000000000000
310
00000000000000000000000000000000DC000000000000000000DCDCF5BEDCDCF5F5DCDCF5F5F5F5DCDCF5F5F5F5F5BEF5F5DCF52828282828BE2828282828BE28282828282828282828282828282828282828282828282828282828282828282828282828282828282828282828282828282828282828F5F5DC0000000000
310
00000000000000000000000000000000000000000000000000000000000000000000000000000000000000000000000000000000000000000000000000000000000000000000000000000000000000000000000000000000000000000000000000000000000000000000000000000000000000000000000000000000000000
310
000000000000000000000000000000000000DC00000000000000000028F5F5BE0000F5F5F5F5F5F5F5F50000F5F5F5F5F5BEF5F5F5F528F5F5F5F5BEF5F5F5F5F5F5000000F5F5F5F500000028F5F5F5F5F5F5F5F5F5F5F500000000000000000000000000280000000000000000000000000000000000000028F5DC000000
310
00000000000000000000000000000000000000000000000000000000000000000000000000000000000000000000000000000000000000000000000000000000000000000000000000000000000000000000000000000000000000000000000000000000000000000000000000000000000000000000000000000000000000
310
0000000000000000000000000000000000000000DC00000000000000000028F5F5BE0000F5F5F5F5F5F5F5F50000F5F5F5F5F5BEF5F5F5F528F5F5F5F5BEF5F5F5F5F5F5000000F5F5F5F500000028F5F5F5F5F5F5F5F5F5F5F500000000000000000000000000280000000000000000000000000000000000000028F5DC00
310
00000000000000000000000000000000000000000000000000000000000000000000000000000000000000000000000000000000000000000000000000000000000000000000000000000000000000000000000000000000000000000000000000000000000000000000000000000000000000000000000000000000000000
310
00000000000000000000000000000000000000000000DC000000000000000000DCDCDCBEDCDCDCDCDCDCDCDCDCDCDCDCBEDCDCDCDCBEDCDCDCDC28DCDCDCDCBEDCDCDCDCDCBEDCDCDCDCDCDCDCDCDCDC28F5F5F5DCF5F5F5F5F5DCF5F5F5F5F5F5F5F5F5DCDCDCDC002800F5F5F5F5F500F5F5F5F5F50000000000000028F5
310
F5000000000000000000000000000000000000000000000000000000000000000000000000000000000000000000000000000000000000000000000000000000000000000000000000000000000000000000000000000000000000000000000000000000000000000000000000000000000000000000000000000000000000
310
000000000000000000000000000000000000000000000000DC00000000000000000028F5F5BEF5F5F5F5F5F5F5F5F5F5F5F5F5F5F5F5F5BEF5F5F5F528F5F5F5F5BE0000000000BE0000000000000000000028F5F5F5F5F5F5F5F5F500F5F5F5F5F5F5F5F5F5000000000028F5F5F5F5F5F500F5F5F5F5F500000000000000
310
F5F5DC00000000000000000000000000000000000000000000000000000000000000000000000000000000000000000000000000000000000000000000000000000000000000000000000000000000000000000000000000000000000000000000000000000000000000000000000000000000000000000000000000000000
310
0000000000000000000000000000000000000000000000000000DC000000000000000000DCF5F5BEF5F5F5F5F5F5F5F5F5F5F5F5F5F5F5F5F5BEF5F5DCF528F5F5F5DCBEDCDCDCDCDCBEDCDCDCDCDCDCDCDCDCDC28F5F5F5DCF5DCF5F5DCDCF5F5F5F5F5F5F5F5F5DCDCDCDC0028BEBEBEBEBEBEBEBEBEBEBEBEBEBEBEBEBE
310
BEBEBEF5DC0000000000000000000000000000000000000000000000000000000000000000000000000000000000000000000000000000000000000000000000000000000000000000000000000000000000000000000000000000000000000000000000000000000000000000000000000000000000000000000000000000
310
00000000000000000000000000000000000000000000000000000000DC000000000000000000280000BE000000000000000000000000BE00000000BE0000000028F5F5F500BE00F5F5F5F5BE00000000F5F50000000028F5F5F5F5F5F5F5F5F5F5F5F5F5F5F5F500000000000000002800BEBEBEBEBEBEBEBEBEBEBEBEBEBE
310
BE00000028F5DC000000000000000000000000000000000000000000000000000000000000000000000000000000000000000000000000000000000000000000000000000000000000000000000000000000000000000000000000000000000000000000000000000000000000000000000000000000000000000000000000
310
000000000000000000000000000000000000000000000000000000000000DC000000000000000000280000BE000000000000000000000000BE00000000BE0000000028F5F5F500BE00F5F5F500BE00000000F5F50000000028F5F5F5F5F5F5F5F5F5F5F5F5F5F5F5F50000000000000000280000BEBEBEBEBEBEBEBEBEBE00
310
BEBEBE00000028F5DC00000000000000000000000000000000000000000000000000000000000000000000000000000000000000000000000000000000000000000000000000000000000000000000000000000000000000000000000000000000000000000000000000000000000000000000000000000000000000000000
310
0000000000000000000000000000000000000000000000000000000000000000DC000000000000000000DCDCDCBEDCDCDCDCDCDCDCDCDCDCDCDCBEDCDCDCDCBEDCDCDCDC28DCDCDCDCBEDCDCDCF5DCBEDCDCDCDCDCDCDCDCDCDC28DCDCDCDCDCDCDCDCDCDCDCDCDCDCDCDCDCDCDCDCDCDCDC002800BEBEBEBEBEBEBEBEBEBE
310
BEBEBEBEBE000000F5F5DC0000000000000000000000000000000000000000000000000000000000000000000000000000000000000000000000000000000000000000000000000000000000000000000000000000000000000000000000000000000000000000000000000000000000000000000000000000000000000000
310
00000000000000000000000000000000000000000000000000000000000000000000DC000000000000000000280000BE000000000000000000000000BE00000000BE0000000028F5F5F5F5BE00F5F5F500BE000000F5F5F5F500000028F5F5F5F5F5F5F5F5F5F5F5F5F5F5F500000000000000000028F5F5F5F5F5F5F5F5F5
310
00000000000000000000F5F5DC000000000000000000000000000000000000000000000000000000000000000000000000000000000000000000000000000000000000000000000000000000000000000000000000000000000000000000000000000000000000000000000000000000000000000000000000000000000000
310
000000000000000000000000000000000000000000000000000000000000000000000000DC000000000000000000DCDCDCBEDCDCDCDCDCDCDCDCDCDCDCDCBEDCDCDCDCBEDCDCDCDC28F5F5F5F5BE28F5F52828BE2828282828282828282828F5282828F5F5F528F5F5F5F5F5F5F528282828282828282828F5F5F5F5F5F5F5
310
F5F52828282828282828282828F5DC00000000000000000000000000000000000000000000000000000000000000000000000000000000000000000000000000000000000000000000000000000000000000000000000000000000000000000000000000000000000000000000000000000000000000000000000000000000
310
0000000000000000000000000000000000000000000000000000000000000000000000000000DC000000000000000000280000BE000000000000000000000000BE00000000BE000000002800000000000000000000BE0000000000000000000028DCDCDCDCDCDCDCDCDCDCDCDCDCDCDCDCDCDCDCDCDCDCDC0028DCDCDCDCDC
310
DCDCDCDCDCDCDCDCDCDCDCDCDC0028F5DC0000000000000000000000000000000000000000000000000000000000000000000000000000000000000000000000000000000000000000000000000000000000000000000000000000000000000000000000000000000000000000000000000000000000000000000000000000
310
00000000000000000000000000000000000000000000000000000000000000000000000000000000DC000000000000000000280000BE000000000000000000000000BE00000000BE000000002800000000000000000000BE0000000000000000000028BEBEBEBEBEBE00BEBEBEBEBEBEBEBEBEBEBEBEBEBEBEBE002800BEBE
310
BEBEBE00BEBEBE00BEBEBE00BE00000028F5DC000000000000000000000000000000000000000000000000000000000000000000000000000000000000000000000000000000000000000000000000000000000000000000000000000000000000000000000000000000000000000000000000000000000000000000000000
310
000000000000000000000000000000000000000000000000000000000000000000000000000000000000DC000000000000000000DCDCDCBEDCDCDCDCDCDCDCDCDCDCDCDCBEDCDCDCDCBEDCDCDCDC2800000000000000000000BEF5F5F5F5F5F5F5F5F5F528BEBEBEBEBEBE00BEBEBEBEBEBEBEBEBEBEBEBEBEBEBEBE002800
310
00BEBEBEBEBEBEBE00BEBE00BEBEBE000000F5F5DC00000000000000000000000000000000000000000000000000000000000000000000000000000000000000000000000000000000000000000000000000000000000000000000000000000000000000000000000000000000000000000000000000000000000000000000
310
0000000000000000000000000000000000000000000000000000000000000000000000000000000000000000DC000000000000000000280000BE000000000000000000000000BE00000000BE0000000028000000BEBEBEBE000000BEF5F5F5F5F5F5F5F5F5F528BE00BE00BEBE00BE00BE00BE0000BEBEBE00000000000000
310
2800BEBEBEBEBEBEBEBEBEBEBEBEBEBEBE000000F5F5DC0000000000000000000000000000000000000000000000000000000000000000000000000000000000000000000000000000000000000000000000000000000000000000000000000000000000000000000000000000000000000000000000000000000000000000
310
00000000000000000000000000000000000000000000000000000000000000000000000000000000000000000000DC000000000000000000DCDCDCBEDCDCDCDCDCDCDCDCDCDCDCDCBEDCDCDCDCBEDCDCDCDC28000000BEBEBEBE000000BE000000000000000000002800000000000000000000000000000000000000000000
310
00002800000000000000000000000000000000000000F5F5DC000000000000000000000000000000000000000000000000000000000000000000000000000000000000000000000000000000000000000000000000000000000000000000000000000000000000000000000000000000000000000000000000000000000000
310
000000000000000000000000000000000000000000000000000000000000000000000000000000000000000000000000DC000000000000000000280000BE000000000000000000000000BE00000000BE000000002800F5F5F5F5F5F5F50000BE00F5F5F5F5F5F5F5000028F5F5F5F5F5F5F5F5F50000000000000000000000
310
0000000028F5F5F5F5F5F5F5F5F5F5F5F50000000000000028F5DC00000000000000000000000000000000000000000000000000000000000000000000000000000000000000000000000000000000000000000000000000000000000000000000000000000000000000000000000000000000000000000000000000000000
310
0000000000000000000000000000000000000000000000000000000000000000000000000000000000000000000000000000DC000000000000000000280000BE000000000000000000000000BE00000000BE000000002800F5F5F5F5F5F5F50000BE00F5F50000F5F5F5000028F5F5F5F5F5F5F5F5F5000000000000000000
310
00000000000028F5F5F5F5F5F5F5F5F5F5F5F50000000000000028F5F50000000000000000000000000000000000000000000000000000000000000000000000000000000000000000000000000000000000000000000000000000000000000000000000000000000000000000000000000000000000000000000000000000
310
00000000000000000000000000000000000000000000000000000000000000000000000000000000000000000000000000000000DC000000000000000000F5F5F5BEF5F528F5F5F5F5F5F5F5F5F5BE28F5F5F5BE282828282828282828282828282828BE282828282828282828282828282828282828282828282828282828
310
2828282828282828282828282828282828282828282828282828282828F5DC000000000000000000000000000000000000000000000000000000000000000000000000000000000000000000000000000000000000000000000000000000000000000000000000000000000000000000000000000000000000000000000000
310
000000000000000000000000000000000000000000000000000000000000000000000000000000000000000000000000000000000000DC000000000000000000F5F5F5F5F5F500F5F5F5F5F5F5F5F5F5F5F5F5F5F5F50000000000000000000000000000000000000000000000000000000000000000000000000000000000
310
000000000000000000000000000000000000000000000000000000000000F5F5DC00000000000000000000000000000000000000000000000000000000000000000000000000000000000000000000000000000000000000000000000000000000000000000000000000000000000000000000000000000000000000000000
310
0000000000000000000000000000000000000000000000000000000000000000000000000000000000000000000000000000000000000000DC000000000000000000F5F500F5F5F50000F5F5F5F5F5F5F5F5F500F5F5F5F5000000000000000000000000000000000000000000000000000000000000000000000000000000
310
0000000000000000000000000000000000000000000000000000000000000000F5F5DC0000000000000000000000000000000000000000000000000000000000000000000000000000000000000000000000000000000000000000000000000000000000000000000000000000000000000000000000000000000000000000
310
00000000000000000000000000000000000000000000000000000000000000000000000000000000000000000000000000000000000000000000DC0000000000000000002800000000000000000000000000000000000000000000000000000000000000000000000000000000000000000000000000000000000000000000
310
00000000000000000000000000000000000000000000000000000000000000000000F5F5DC000000000000000000000000000000000000000000000000000000000000000000000000000000000000000000000000000000000000000000000000000000000000000000000000000000000000000000000000000000000000
310
000000000000000000000000000000000000000000000000000000000000000000000000000000000000000000000000000000000000000000000000DC000000000000000000280000000000000000000000000000000000000000000000000000000000000000000000000000000000000000000000000000000000000000
310
000000000000000000000000000000000000000000000000000000000000000000000000F5F5DC00000000000000000000000000000000000000000000000000000000000000000000000000000000000000000000000000000000000000000000000000000000000000000000000000000000000000000000000000000000
310
0000000000000000000000000000000000000000000000000000000000000000000000000000000000000000000000000000000000000000000000000000DC00000000000000000028000000000000000000000000000000000000000000000000000000000000000000000000000000000000000000000000000000000000
310
000000000000000000000000000000000000000000000000000000000000000000000000000028F5DC0000000000000000000000000000000000000000000000000000000000000000000000000000000000000000000000000000000000000000000000000000000000000000000000000000000000000000000000000000
310
00000000000000000000000000000000000000000000000000000000000000000000000000000000000000000000000000000000000000000000000000000000DC0000000000000000002800000000000000000000000000000000000000000000000000000000000000000000000000000000000000000000000000000000
310
0000000000000000000000000000000000000000000000000000000000000000000000000000000028F5DC000000000000000000000000000000000000000000000000000000000000000000000000000000000000000000000000000000000000000000000000000000000000000000000000000000000000000000000000
310
000000000000000000000000000000000000000000000000000000000000000000000000000000000000000000000000000000000000000000000000000000000000DC000000000000000000280000000000000000000000000000000000000000000000000000000000000000000000000000000000000000000000000000
310
000000000000000000000000000000000000000000000000000000000000000000000000000000000000F5F5DC00000000000000000000000000000000000000000000000000000000000000000000000000000000000000000000000000000000000000000000000000000000000000000000000000000000000000000000
310
0000000000000000000000000000000000000000000000000000000000000000000000000000000000000000000000000000000000000000000000000000000000000000DC00000000000000000028000000000000000000000000000000000000000000000000000000000000000000000000000000000000000000000000
310
0000000000000000000000000000000000000000000000000000000000000000000000000000000000000000F5F5DC0000000000000000000000000000000000000000000000000000000000000000000000000000000000000000000000000000000000000000000000000000000000000000000000000000000000000000
310
00000000000000000000000000000000000000000000000000000000000000000000000000000000000000000000000000000000000000000000000000000000000000000000DC0000000000000000002800000000000000000000000000000000000000000000000000000000000000000000000000000000000000000000
310
00000000000000000000000000000000000000000000000000000000000000000000000000000000000000000000F5F5DC000000000000000000000000000000000000000000000000000000000000000000000000000000000000000000000000000000000000000000000000000000000000000000000000000000000000
310
000000000000000000000000000000000000000000000000000000000000000000000000000000000000000000000000000000000000000000000000000000000000000000000000DC000000000000000000280000000000000000000000000000000000000000000000000000000000000000000000000000000000000000
310
000000000000000000000000000000000000000000000000000000000000000000000000000000000000000000000000F5F5DC00000000000000000000000000000000000000000000000000000000000000000000000000000000000000000000000000000000000000000000000000000000000000000000000000000000
310
0000000000000000000000000000000000000000000000000000000000000000000000000000000000000000000000000000000000000000000000000000000000000000000000000000DC000000000000000000280000000000000000000000000000000000000000000000000000000000000000F5000000000000000000
310
0000000000000000F50000000000000000000000000000000000000000000000000000000000000000000000000000000000F5F5DC0000000000000000000000000000000000000000000000000000000000000000000000000000000000000000000000000000000000000000000000000000000000000000000000000000
310
00000000000000000000000000000000000000000000000000000000000000000000000000000000000000000000000000000000000000000000000000000000000000000000000000000000DC000000000000000000280000000000000000000000000000000000000000000000000000000000000000F5F5F5F5F5F5F5F5
310
F5F5F5F5F5F5F5F5F5F5F5000000000000000000000000000000000000000000000000000000000000000000000000000000000028F5DC000000000000000000000000000000000000000000000000000000000000000000000000000000000000000000000000000000000000000000000000000000000000000000000000
310
000000000000000000000000000000000000000000000000000000000000000000000000000000000000000000000000000000000000000000000000000000000000000000000000000000000000DC000000000000000000280000000000000000000000000000000000000000000000000000000000000000F50000000000
310
00BEBEBEBEBE000000000000F5000000000000000000000000000000000000000000000000000000000000000000000000000000000028F5DC00000000000000000000000000000000000000000000000000000000000000000000000000000000000000000000000000000000000000000000000000000000000000000000
310
0000000000000000000000000000000000000000000000000000000000000000000000000000000000000000000000000000000000000000000000000000000000000000000000000000000000000000DC000000000000000000280000000000000000000000000000000000000000000000000000000000000000F5000000
310
000000BEBEBEBEBE000000000000F5000000000000000000000000000000000000000000000000000000000000000000000000000000000028F5DC0000000000000000000000000000000000000000000000000000000000000000000000000000000000000000000000000000000000000000000000000000000000000000
310
00000000000000000000000000000000000000000000000000000000000000000000000000000000000000000000000000000000000000000000000000000000000000000000000000000000000000000000DC000000000000000000280000000000000000000000000000000000000000000000000000000000000000F500
310
00000000000000000000000000000000F5000000000000000000000000000000000000000000000000000000000000000000000000000000000028F5DC000000000000000000000000000000000000000000000000000000000000000000000000000000000000000000000000000000000000000000000000000000000000
310
000000000000000000000000000000000000000000000000000000000000000000000000000000000000000000000000000000000000000000000000000000000000000000000000000000000000000000000000DC000000000000000000280000000000000000000000000000000000000000000000000000000000000000
310
F50000000000000000DC0000000000000000F50000000000000000000000000000000000000000000000000000000000000000000000000000000000F5F5DC00000000000000000000000000000000000000000000000000000000000000000000000000000000000000000000000000000000000000000000000000000000
310
0000000000000000000000000000000000000000000000000000000000000000000000000000000000000000000000000000000000000000000000000000000000000000000000000000000000000000000000000000DC0000000000000000002800000000F5F5F5F5F5F5F5F5F5F5F5F5F5F5F5F5F5F5F5F5F5F5F5F5F5F5
310
F5F5282828282828282828DC2828282828282828280000000000000000000000000000000000000000000000000000000000000000000000000000000000F5F5F50000000000000000000000000000000000000000000000000000000000000000000000000000000000000000000000000000000000000000000000000000
310
00000000000000000000000000000000000000000000000000000000000000000000000000000000000000000000000000000000000000000000000000000000000000000000000000000000000000000000000000000000DC000000000000000000280000000000F500000000000000000000000000000000000000000000
310
0000000028DCDCDCDCDCDCDCDCDCDCDCDCDCDCDCDCDC28000000000000000000000000000000000000000000000000000000000000000000000000000000000028F5F5000000000000000000000000000000000000000000000000000000000000000000000000000000000000000000000000000000000000000000000000
310
000000000000000000000000000000000000000000000000000000000000000000000000000000000000000000000000000000000000000000000000000000000000000000000000000000000000000000000000000000000000DC0000000000000000002800000000F5F50000000000000000000000000000000000000000
310
000000000000280000000000000000000000000000000000280000000000000000000000000000000000000000000000000000000000000000000000000000000000F5F5DC00000000000000000000000000000000000000000000000000000000000000000000000000000000000000000000000000000000000000000000
310
0000000000000000000000000000000000000000000000000000000000000000000000000000000000000000000000000000000000000000000000000000000000000000000000000000000000000000000000000000000000000000DC000000000000000000280000000000F5000000000000000000000000000000000000
310
0000000000000000280000000000000000DC000000000000000028000000000000000000000000000000000000000000000000000000000000000000000000000000000028F5DC0000000000000000000000000000000000000000000000000000000000000000000000000000000000000000000000000000000000000000
310
00000000000000000000000000000000000000000000000000000000000000000000000000000000000000000000000000000000000000000000000000000000000000000000000000000000000000000000000000000000000000000000DC000000000000000000280000000000F500000000000000000000000000000000
310
00000000000000000000280000000000000000DC000000000000000028000000000000000000000000000000000000000000000000000000000000000000000000000000000028F5DC000000000000000000000000000000000000000000000000000000000000000000000000000000000000000000000000000000000000
310
000000000000000000000000000000000000000000000000000000000000000000000000000000000000000000000000000000000000000000000000000000000000000000000000000000000000000000000000000000000000000000000000DC000000000000000000280000000000F50000000000000000000000000000
310
000000000000000000000000280000000000000000DC000000000000000028000000000000000000000000000000000000000000000000000000000000000000000000000000000028F5DC00000000000000000000000000000000000000000000000000000000000000000000000000000000000000000000000000000000
310
0000000000000000000000000000000000000000000000000000000000000000000000000000000000000000000000000000000000000000000000000000000000000000000000000000000000000000000000000000000000000000000000000000DC000000000000000000280000000000F5000000000000000000000000
310
0000000000000000000000000000280000000000000000DC0000000000000000280000000000000000000000000000000000000000000000000000000000000000000000000000000000F5F5DC0000000000000000000000000000000000000000000000000000000000000000000000000000000000000000000000000000
310
00000000000000000000000000000000000000000000000000000000000000000000000000000000000000000000000000000000000000000000000000000000000000000000000000000000000000000000000000000000000000000000000000000000DC000000000000000000280000000000F500000000000000000000
310
00000000000000000000000000000000280000000000000000000000000000000000280000000000000000000000000000000000000000000000000000000000000000000000000000000000F5F5DC000000000000000000000000000000000000000000000000000000000000000000000000000000000000000000000000
310
000000000000000000000000000000000000000000000000000000000000000000000000000000000000000000000000000000000000000000000000000000000000000000000000000000000000000000000000000000000000000000000000000000000000DC000000000000000000280000000000F50000000000000000
310
000000000000000000000000000000000000280000000000000000DC000000000000000028000000000000000000000000000000000000000000000000000000000000000000000000000000000028F5DC00000000000000000000000000000000000000000000000000000000000000000000000000000000000000000000
310
0000000000000000000000000000000000000000000000000000000000000000000000000000000000000000000000000000000000000000000000000000000000000000000000000000000000000000000000000000000000000000000000000000000000000000DC000000000000000000280000000000F5000000000000
310
0000000000000000000000000000000000000000280000000000000000DC0000000000000000DC0000000000000000000000000000000000000000000000000000000000000000000000000000000000F5F5DC0000000000000000000000000000000000000000000000000000000000000000000000000000000000000000
310
00000000000000000000000000000000000000000000000000000000000000000000000000000000000000000000000000000000000000000000000000000000000000000000000000000000000000000000000000000000000000000000000000000000000000000000DC000000000000000000280000000000F500000000
310
00000000000000000000000000000000000000000000280000000000000000DC000000000000000028DCDC0000000000BEBEBEBE0000BEBEBEBEBEBEBE00BEBEBEBEBEBEBEBEBEBEBEBEBE00000000000000F5F5DC000000000000000000000000000000000000000000000000000000000000000000000000000000000000
310
000000000000000000000000000000000000000000000000000000000000000000000000000000000000000000000000000000000000000000000000000000000000000000000000000000000000000000000000000000000000000000000000000000000000000000000000DC000000000000000000280000000000F50000
310
000000000000000000000000000000000000000000000000280000000000000000DC0000000000000000280000DCDC000000BEBEBEBEBEBEBEBEBEBEBEBEBE0000BEBEBEBEBEBEBEBEBEBEBEBE00000000000000F5F5DC00000000000000000000000000000000000000000000000000000000000000000000000000000000
310
0000000000000000000000000000000000000000000000000000000000000000000000000000000000000000000000000000000000000000000000000000000000000000000000000000000000000000000000000000000000000000000000000000000000000000000000000000DC000000000000000000280000000000F5
310
00000000000000000000000000000000000000000000000000002800000000000000000000000000000000002800000000DCDC00BEBEBEBEBE00BEBEBEBEBEBEBE00BEBEBEBEBEBEBEBEBEBEBEBEBE0000000000000028F5DC0000000000000000000000000000000000000000000000000000000000000000000000000000
310
00000000000000000000000000000000000000000000000000000000000000000000000000000000000000000000000000000000000000000000000000000000000000000000000000000000000000000000000000000000000000000000000000000000000000000000000000000000DC0000000000000000002800000000
310
00F50000000000000000000000000000000000000000000000000000280000000000000000DC000000000000000028000000000000DCDCDCDCDCDCDCDCDCDCDCBEDCDCDCDCDCDCDCDCDCDCDCDCDCDCDCDCDCDCDCDCDCDC00F5F5DC000000000000000000000000000000000000000000000000000000000000000000000000
310
000000000000000000000000000000000000000000000000000000000000000000000000000000000000000000000000000000000000000000000000000000000000000000000000000000000000000000000000000000000000000000000000000000000000000000000000000000000000DC000000000000000000280000
310
000000F50000000000000000000000000000000000000000000000000000280000000000000000DC00000000000000002800000000000000BEBEBEBEBEBEBEBEBEBEBEBEBEBE00BEBEBEBEBEBEBEBEBEBEBEBEBEBEBEBEBEBE0028F5DC00000000000000000000000000000000000000000000000000000000000000000000
310
0000000000000000000000000000000000000000000000000000000000000000000000000000000000000000000000000000000000000000000000000000000000000000000000000000000000000000000000000000000000000000000000000000000000000000000000000000000000000000DC00000000000000000028
310
0000000000F50000000000000000000000000000000000000000000000000000280000000000000000DC0000000000000000280000000000000000BEBEBEBEBEBEBEBEBEBEBEBEBE00BEBEBEBEBEBEBEBEBEBEBEBEBEBEBEBEBEBE0028F5DC0000000000000000000000000000000000000000000000000000000000000000
310
00000000000000000000000000000000000000000000000000000000000000000000000000000000000000000000000000000000000000000000000000000000000000000000000000000000000000000000000000000000000000000000000000000000000000000000000000000000000000000000DC0000000000000000
310
00280000000000F50000000000000000000000000000000000000000000000000000280000000000000000DC000000000000000028000000000000000000000000000000000000000000000000000000000000000000000000000000000028F5F5000000000000000000000000000000000000000000000000000000000000
310
000000000000000000000000000000000000000000000000000000000000000000000000000000000000000000000000000000000000000000000000000000000000000000000000000000000000000000000000000000000000000000000000000000000000000000000000000000000000000000000000DC000000000000
310
000000280000000000F50000000000000000000000000000000000000000000000000000280000000000000000DC000000000000000028000000000000000000000000000000000000000000000000000000000000000000000000000000000028F5DC00000000000000000000000000000000000000000000000000000000
310
0000000000000000000000000000000000000000000000000000000000000000000000000000000000000000000000000000000000000000000000000000000000000000000000000000000000000000000000000000000000000000000000000000000000000000000000000000000000000000000000000000DC00000000
310
0000000000280000000000F50000000000000000000000000000000000000000000000000000280000000000000000DC000000000000000028000000000000000000000000000000000000000000000000000000000000000000000000000000000028F5DC0000000000000000000000000000000000000000000000000000
310
00000000000000000000000000000000000000000000000000000000000000000000000000000000000000000000000000000000000000000000000000000000000000000000000000000000000000000000000000000000000000000000000000000000000000000000000000000000000000000000000000000000DC0000
310
00000000000000280000000000F500000000000000000000000000000000000000F5F5F5F5F5F5F5F5F5F5F5F5F5F5F5F5F5F5F5F5F5F5F5F5F5F5F5F5F5F5F5F5F50000000000000000000000000000000000000000000000000000000000000000000028F5DC000000000000000000000000000000000000000000000000
310
000000000000000000000000000000000000000000000000000000000000000000000000000000000000000000000000000000000000000000000000000000000000000000000000000000000000000000000000000000000000000000000000000000000000000000000000000000000000000000000000000000000000DC
310
000000000000000000280000000000F500000000000000000000000000000000000000F5F5F50000000028000000000000BEBEBEBEBE000000000000280000000000F5F50000000000000000000000000000000000000000000000000000000000000000000028F5DC00000000000000000000000000000000000000000000
310
00000000000000000000000000000000000000000000000000000000000000000000000000000000000000000000000000000000000000000000000000000000000000000000000000000000000000000000000000000000000000000000000000000000000000000000000000000000000000000000000000000000000000
310
00DC000000000000000000280000000000F500000000000000000000000000000000000000F500000000000028000000000000BEBE00BEBE00000000000028000000000000F500000000000000000000000000000000000000000000000000000000000000000000F5F5DC0000000000000000000000000000000000000000
310
00000000000000000000000000000000000000000000000000000000000000000000000000000000000000000000000000000000000000000000000000000000000000000000000000000000000000000000000000000000000000000000000000000000000000000000000000000000000000000000000000000000000000
310
000000DC000000000000000000280000000000F500000000000000000000000000000000000000F500000000000028000000000000BEBEBEBEBE00000000000028000000000000F50000000000000000000000000000000000000000000000000000000000000000000028F5DC000000000000000000000000000000000000
310
00000000000000000000000000000000000000000000000000000000000000000000000000000000000000000000000000000000000000000000000000000000000000000000000000000000000000000000000000000000000000000000000000000000000000000000000000000000000000000000000000000000000000
310
0000000000DC000000000000000000280000000000F500000000000000000000000000000000000000F5000000000000280000000000000000DC000000000000000028000000000000F500000000000000000000000000000000000000000000000000000000000000000000F5F5DC00000000000000000000000000000000
310
00000000000000000000000000000000000000000000000000000000000000000000000000000000000000000000000000000000000000000000000000000000000000000000000000000000000000000000000000000000000000000000000000000000000000000000000000000000000000000000000000000000000000
310
00000000000000DC000000000000000000280000000000F50000F5F5F5F5F5F5F5F5F5F5F5F5F5F5F5F5F528282828282828280000000000000000DC0000000000000000282828282828282800000000000000000000000000000000000000000000000000000000000000000000F5F5DC0000000000000000000000000000
310
00000000000000000000000000000000000000000000000000000000000000000000000000000000000000000000000000000000000000000000000000000000000000000000000000000000000000000000000000000000000000000000000000000000000000000000000000000000000000000000000000000000000000
310
000000000000000000DC000000000000000000280000000000F5000000F500000000000000000000000000000028F500F5F5282828000000000000000000000000000000000028282800F5F500280000000000000000000000000000000000000000000000000000000000000000000028F5DC000000000000000000000000
310
00000000000000000000000000000000000000000000000000000000000000000000000000000000000000000000000000000000000000000000000000000000000000000000000000000000000000000000000000000000000000000000000000000000000000000000000000000000000000000000000000000000000000
310
0000000000000000000000DC000000000000000000280000000000F50000F5F50000000000000000000000000000002800F5F500F5F5280000000000000000DC00000000000000002800F5F500F5F52800000000000000000000000000000000000000000000000000000000000000000000F5F5DC00000000000000000000
310
00000000000000000000000000000000000000000000000000000000000000000000000000000000000000000000000000000000000000000000000000000000000000000000000000000000000000000000000000000000000000000000000000000000000000000000000000000000000000000000000000000000000000
310
00000000000000000000000000DC000000000000000000280000000000F5000000F500000000000000000000000000000028F500F5F50028280000000000000000DC00000000000000002828F500F5F50028F500000000000000000000000000000000000000000000000000000000000000000028F5DC0000000000000000
310
00000000000000000000000000000000000000000000000000000000000000000000000000000000000000000000000000000000000000000000000000000000000000000000000000000000000000000000000000000000000000000000000000000000000000000000000000000000000000000000000000000000000000
310
000000000000000000000000000000DC000000000000000000280000000000F5000000F500000000000000000000000000000028F5F5F5F5F528280000000000000000DC0000000000000000280028F5F5F5F528F500000000000000000000000000000000000000000000000000000000000000000028F5DC000000000000
310
00000000000000000000000000000000000000000000000000000000000000000000000000000000000000000000000000000000000000000000000000000000000000000000000000000000000000000000000000000000000000000000000000000000000000000000000000000000000000000000000000000000000000
310
0000000000000000000000000000000000DCDCDCDCDCDCDCDCDC00280000000000F5000000F50000000000000000000000000000002800F5F5002800280000000000000000DC0000000000000000280028F500F5F528F500000000000000000000000000000000000000000000000000000000000000000028F5DC00000000
310
00000000000000000000000000000000000000000000000000000000000000000000000000000000000000000000000000000000000000000000000000000000000000000000000000000000000000000000000000000000000000000000000000000000000000000000000000000000000000000000000000000000000000
310
00000000000000000000000000000000000000DC00000000000000000028000000BEBEF5000000F500000000000000000000000000000028F500F528282828000000000000000000000000000000000028282828F5F500280000000000000000000000000000000000000000000000000000000000000000000028F5DC0000
310
00000000000000000000000000000000000000000000000000000000000000000000000000000000000000000000000000000000000000000000000000000000000000000000000000000000000000000000000000000000000000000000000000000000000000000000000000000000000000000000000000000000000000
310
000000000000000000000000000000000000000000DC000000000000000000280000BEBEBEF5000000F50000000000000000000000000000F52800F5F5280000280000000000000000DC00000000000000002800002800F5F528F5000000000000000000000000000000000000000000000000000000000000000000F5F5DC
310
00000000000000000000000000000000000000000000000000000000000000000000000000000000000000000000000000000000000000000000000000000000000000000000000000000000000000000000000000000000000000000000000000000000000000000000000000000000000000000000000000000000000000
310
0000000000000000000000000000000000000000000000DC000000000000000000280000BEBEBEF5000000F5000000000000000000000000000028F5F5F5F5280000280000000000000000DC000000000000000028000028F5F5F5F528000000000000000000000000000000000000000000000000000000000000000000F5
310
F5DC0000000000000000000000000000000000000000000000000000000000000000000000000000000000000000000000000000000000000000000000000000000000000000000000000000000000000000000000000000000000000000000000000000000000000000000000000000000000000000000000000000000000
310
00000000000000000000000000000000000000000000000000DC000000000000000000280000BEBEBEF5000000F500000000000000000000000000002800F500F5280000280000000000000000DC000000000000000028000028F5F500F5280000000000000000000000000000000000000000000000000000000000000000
310
00F5F5DC000000000000000000000000000000000000000000000000000000000000000000000000000000000000000000000000000000000000000000000000000000000000000000000000000000000000000000000000000000000000000000000000000000000000000000000000000000000000000000000000000000
310
000000000000000000000000000000000000000000000000000000DC000000000000000000280000BEBEBEF5000000F5000000000000000000000000000028F500F5F5280000280000000000000000DC00000000000000002800002800F5F50028000000000000000000000000000000000000000000000000000000000000
310
000000F5F5F500000000000000000000000000000000000000000000000000000000000000000000000000000000000000000000000000000000000000000000000000000000000000000000000000000000000000000000000000000000000000000000000000000000000000000000000000000000000000000000000000
310
0000000000000000000000000000000000000000000000000000000000DC000000000000000000280000000000F5000000F500000000000000000000000000002800F500F528000028000000000000000000000000000000000028000028F5F500F52800000000000000000000000000000000000000000000000000000000
310
0000000000F5F5F50000000000000000000000000000000000000000000000000000000000000000000000000000000000000000000000000000000000000000000000000000000000000000000000000000000000000000000000000000000000000000000000000000000000000000000000000000000000000000000000
310
00000000000000000000000000000000000000000000000000000000000000DC000000000000000000280000000000F5000000F5000000000000000000000000000028F5F5F5F5280000280000000000000000DC000000000000000028000028F5F5F5F5280000000000000000000000000000000000000000000000000000
310
0000000000000028F5DC000000000000000000000000000000000000000000000000000000000000000000000000000000000000000000000000000000000000000000000000000000000000000000000000000000000000000000000000000000000000000000000000000000000000000000000000000000000000000000
310
000000000000000000000000000000000000000000000000000000000000000000DC000000000000000000280000000000F5000000F5000000000000000000000000000028F500F5F5280000280000000000000000DC00000000000000002800002800F5F50028000000000000000000000000000000000000000000000000
310
00000000000000000028F5DC00000000000000000000000000000000000000000000000000000000000000000000000000000000000000000000000000000000000000000000000000000000000000000000000000000000000000000000000000000000000000000000000000000000000000000000000000000000000000
310
0000000000000000000000000000000000000000000000000000000000000000000000DC000000000000000000280000000000F5000000F500000000000000000000000000002800F500F5280000280000000000000000DC000000000000000028000028F5F500F5280000000000BEBEBEBEBEBEBEBEBEBEBEBEBE00BEBEBE
310
BEBEBEBEBEBEBEBEBEBE00F5F5DC0000000000000000000000000000000000000000000000000000000000000000000000000000000000000000000000000000000000000000000000000000000000000000000000000000000000000000000000000000000000000000000000000000000000000000000000000000000000
310
00000000000000000000000000000000000000000000000000000000000000000000000000DC000000000000000000280000000000F5000000F5000000000000000000000000000028F500F5F5280000280000000000000000DC00000000000000002800002800F5F500280000000000BEBEBEBEBE00BEBEBE00BEBEBE00BE
310
BEBEBEBEBEBEBEBEBEBEBEBE0028F5DC000000000000000000000000000000000000000000000000000000000000000000000000000000000000000000000000000000000000000000000000000000000000000000000000000000000000000000000000000000000000000000000000000000000000000000000000000000
310
000000000000000000000000000000000000000000000000000000000000000000000000000000DC000000000000000000280000000000F5000000F5000000000000000000000000000028F5F5F5F528000028000000000000000000000000000000000028000028F5F5F5F5280000000000DCDCDCDCDCDCDCDCDCDCDCDCDC
310
DCDCDCDCDCDCDCDCDCDCDCDCDCDCDCF5F5DC00000000000000000000000000000000000000000000000000000000000000000000000000000000000000000000000000000000000000000000000000000000000000000000000000000000000000000000000000000000000000000000000000000000000000000000000000
310
0000000000000000000000000000000000000000000000000000000000000000000000000000000000DC000000000000000000280000000000F5000000F500000000000000000000000000002800F500F5280000280000000000000000DC000000000000000028000028F5F500F528000000DCDCBEBEBEBEBEBEBEBEBEBEBE
310
BEBEBEBEBEBEBE00000000000000000000F5F5DC0000000000000000000000000000000000000000000000000000000000000000000000000000000000000000000000000000000000000000000000000000000000000000000000000000000000000000000000000000000000000000000000000000000000000000000000
310
00000000000000000000000000000000000000000000000000000000000000000000000000000000000000DC000000000000000000280000000000F500BE00F5000000000000000000000000000028F500F5F5280000280000000000000000DC00000000000000002800002800F5F50028F5DCDC0000BEBEBEBEBEBEBEBEBE
310
BEBEBEBEBEBEBEBEBE00000000000000000000F5F5DC000000000000000000000000000000000000000000000000000000000000000000000000000000000000000000000000000000000000000000000000000000000000000000000000000000000000000000000000000000000000000000000000000000000000000000
310
000000000000000000000000000000000000000000000000000000000000000000000000000000000000000000DC000000000000000000280000000000F5BEBEBEF500000000000000000000000000002800F500F5280000280000000000000000DC000000000000000028000028F5F500F528DC0000000000000000000000
310
00000000000000000000000000000000000000000028F5DC00000000000000000000000000000000000000000000000000000000000000000000000000000000000000000000000000000000000000000000000000000000000000000000000000000000000000000000000000000000000000000000000000000000000000
310
0000000000000000000000000000000000000000000000000000000000000000000000000000000000000000000000DC000000000000000000280000000000F5BEBEBEF5000000000000000000000000000028F500F5F5280000280000000000BEBE00DC00000000000000002800002800F5F5DC28F5000000000000000000
310
000000000000000000000000000000000000000000000028F5DC0000000000000000000000000000000000000000000000000000000000000000000000000000000000000000000000000000000000000000000000000000000000000000000000000000000000000000000000000000000000000000000000000000000000
310
00000000000000000000000000000000000000000000000000000000000000000000000000000000000000000000000000DC000000000000000000280000000000F5BEBEBEF50000000000000000000000000028F5F5F5F5F5280000280000000000BEBE0000000000000000000028000028F5F5F5F5F52800000000000000
310
00000000000000000000000000000000000000000000000000F5F5DC000000000000000000000000000000000000000000000000000000000000000000000000000000000000000000000000000000000000000000000000000000000000000000000000000000000000000000000000000000000000000000000000000000
310
000000000000000000000000000000000000000000000000000000000000000000000000000000000000000000000000000000DC000000000000000000280000000000F5BEBEBEF50000000000000000000000000028F500F500F5280000280000000000BEBE00DC000000000000000028000028F5F500F500280000000000
310
000000000000000000000000000000000000000000000000000000F5F5DC00000000000000000000000000000000000000000000000000000000000000000000000000000000000000000000000000000000000000000000000000000000000000000000000000000000000000000000000000000000000000000000000000
310
0000000000000000000000000000000000000000000000000000000000000000000000000000000000000000000000000000000000DC000000000000000000280000000000F5000000F50000000000000000000000000028F5F500F5F5282828280000000000BEBE00DC00000000000000002828282800F5F500F528000000
310
00BEBEBEBE00BE00BEBEBEBEBEBE00BEBEBEBEBEBEBEBEBEBEBEBE0000F5F5DC0000000000000000000000000000000000000000000000000000000000000000000000000000000000000000000000000000000000000000000000000000000000000000000000000000000000000000000000000000000000000000000000
310
00000000000000000000000000000000000000000000000000000000000000000000000000000000000000000000000000000000000000DC000000000000000000280000000000F5000000F50000000000000000000000000028F500F50028282828280000000000BEBE00DC000000000000000028282828282800F5002800
310
000000BEBEBEBEBEBEBEBEBEBEBEBE0000BEBEBEBEBEBEBEBE00BEBEBE000028F5DC000000000000000000000000000000000000000000000000000000000000000000000000000000000000000000000000000000000000000000000000000000000000000000000000000000000000000000000000000000000000000000
310
000000000000000000000000000000000000000000000000000000000000000000000000000000000000000000000000000000000000000000DC000000000000000000280000000000F5000000F50000000000000000000000000028F5F5F5F528000000280000000000BEBE00DC0000000000000000280000000028F5F5F5
310
2800000000DCDCDCDCDCDCDCDCDCDCDCDCDCDCDCDCDCDCDCDCDCDCDCDCDCDCDC0028F5DC00000000000000000000000000000000000000000000000000000000000000000000000000000000000000000000000000000000000000000000000000000000000000000000000000000000000000000000000000000000000000
310
0000000000000000000000000000000000000000000000000000000000000000000000000000000000000000000000000000000000000000000000DC000000000000000000280000000000F5000000F50000000000000000000000000028F5F500F528000000280000000000000000000000000000000000280000000028F5
310
00F528000000DCBEBEBEBEBEBEBEBEBEBEBEBEBEBE00BEBEBEBEBEBE0000000000000028F5DC0000000000000000000000000000000000000000000000000000000000000000000000000000000000000000000000000000000000000000000000000000000000000000000000000000000000000000000000000000000000
310
00000000000000000000000000000000000000000000000000000000000000000000000000000000000000000000000000000000000000000000000000DC000000000000000000280000000000F5000000F50000000000000000000000000028F500F5002800000028DCDCDCDCDCDCDCDCDCDCDCDCDCDCDCDCDC2828000000
310
2800F500280000DC00BEBEBEBEBEBEBEBEBEBEBEBEBEBE00BEBEBE00BEBE00000000000000F5F5DC000000000000000000000000000000000000000000000000000000000000000000000000000000000000000000000000000000000000000000000000000000000000000000000000000000000000000000000000000000
310
000000000000000000000000000000000000000000000000000000000000000000000000000000000000000000000000000000000000000000000000000000DC000000000000000000280000000000F5000000F50000000000000000000000000028F5F500F52800002828DCDCDCDCDCDCDCDCDCDCDCDCDCDCDCDCDC282800
310
000028F500F528DCDC0000BEBE00BEBE00BE000000000000BE00BEBEBEBEBEBE0000000000000028F5DC00000000000000000000000000000000000000000000000000000000000000000000000000000000000000000000000000000000000000000000000000000000000000000000000000000000000000000000000000
310
0000000000000000000000000000000000000000000000000000000000000000000000000000000000000000000000000000000000000000000000000000000000DC000000000000000000280000000000F5000000F50000000000000000000000000028F5F5F5F528000028280000000000000000DC000000000000000000
310
2800000028F5F5F528000000000000000000000000000000000000000000000000000000000000000028F5F50000000000000000000000000000000000000000000000000000000000000000000000000000000000000000000000000000000000000000000000000000000000000000000000000000000000000000000000
310
00000000000000000000000000000000000000000000000000000000000000000000000000000000000000000000000000000000000000000000000000000000000000DC000000000000000000280000000000F5000000F50000000000000000000000000028F500F50028000028280000000000000000DC00000000000000
310
0000280000002800F5DC28000000000000000000000000000000000000000000000000000000000000000028F5F5000000000000000000000000000000000000000000000000000000000000000000000000000000000000000000000000000000000000000000000000000000000000000000000000000000000000000000
310
000000000000000000000000000000000000000000000000000000000000000000000000000000000000000000000000000000000000000000000000000000000000000000DC000000000000000000280000000000F5000000F50000000000000000000000000028F5F500F528000028280000000000000000DC0000000000
310
000000002800000028F5DCF52800000000BEBEBEBE0000BEBEBEBEBEBEBE00BEBEBEBEBEBEBEBEBEBEBEBEBE00F5F5DC00000000000000000000000000000000000000000000000000000000000000000000000000000000000000000000000000000000000000000000000000000000000000000000000000000000000000
310
0000000000000000000000000000000000000000000000000000000000000000000000000000000000000000000000000000000000000000000000000000000000000000000000DC000000000000000000280000000000F5000000F50000000000000000000000000028F500F5002800002828DCDCDCDCDCDCDCDCDCDCDCDC
310
DCDCDCDCDCDC2800000028DCF5002800000000BEBEBEBEBEBEBEBEBE00BEBEBE00BEBEBEBEBEBEBEBEBEBEBEBEBE0028F5DC0000000000000000000000000000000000000000000000000000000000000000000000000000000000000000000000000000000000000000000000000000000000000000000000000000000000
310
00000000000000000000000000000000000000000000000000000000000000000000000000000000000000000000000000000000000000000000000000000000000000000000000000DC000000000000000000280000000000F5000000F50000000000000000000000000028F5F5F5F528000028000000000000000000DC00
310
00000000000000002800000028F5F5F528F5000000DCDCDCDCDCDCDCDCDCDCDCDCDCDCDCDCDCDCDCDCDCDCDCDCDCDCDC0028F5DC000000000000000000000000000000000000000000000000000000000000000000000000000000000000000000000000000000000000000000000000000000000000000000000000000000
310
000000000000000000000000000000000000000000000000000000000000000000000000000000000000000000000000000000000000000000000000000000000000000000000000000000DC000000000000000000280000000000F5000000F50000000000000000000000002800F5F500F528000028000000000000000000
310
DC0000000000000000002828DCDC28F500F5F5280000DCBEBEBEBEBEBEBEBEBEBEBEBEBEBEBEBEBEBEBEBEBEBEBEBE0000000028F5DC00000000000000000000000000000000000000000000000000000000000000000000000000000000000000000000000000000000000000000000000000000000000000000000000000
310
0000000000000000000000000000000000000000000000000000000000000000000000000000000000000000000000000000000000000000000000000000000000000000000000000000000000DC000000000000000000280000000000F5000000F500000000000000000000000028F5F500F5002800002800000000000000
310
0000DC000000000000000000282800002800F500F52800DC00BEBEBEBEBEBEBEBEBEBEBEBEBEBEBEBEBEBEBEBEBEBEBEBE0000000028F5DC0000000000000000000000000000000000000000000000000000000000000000000000000000000000000000000000000000000000000000000000000000000000000000000000
310
00000000000000000000000000000000000000000000000000000000000000000000000000000000000000000000000000000000000000000000000000000000000000000000000000000000000000DC000000000000000000280000000000F5000000F500000000000000000000000028F5F5F500F52800F5F50000000000
310
00000000DC00000000000000000028F5000028F500F5F528DC0000BEBE0000000000000000BEBE000000BEBE00BEBE000000000000000028F5DC000000000000000000000000000000000000000000000000000000000000000000000000000000000000000000000000000000000000000000000000000000000000000000
310
000000000000000000000000000000000000000000000000000000000000000000000000000000000000000000000000000000000000000000000000000000000000000000000000000000000000000000DC000000000000000000280000000000F5000000F500000000000000000000000028F5F5F5F5F52800F5F5F5F528
310
2828282828282828282828282828F5F528F5000028F5F5F5F528DC000000000000000000000000000000000000000000000000000000000000F5F5DC00000000000000000000000000000000000000000000000000000000000000000000000000000000000000000000000000000000000000000000000000000000000000
310
0000000000000000000000000000000000000000000000000000000000000000000000000000000000000000000000000000000000000000000000000000000000000000000000000000000000000000000000DC000000000000000000280000000000F50000F5F500000000000000000000000028F5F500F500282828F5F5
310
0000000000000000DC0000000000000000F5F52828282800F500F5280000000000000000000000000000000000000000000000000000000000000028F5DC0000000000000000000000000000000000000000000000000000000000000000000000000000000000000000000000000000000000000000000000000000000000
310
00000000000000000000000000000000000000000000000000000000000000000000000000000000000000000000000000000000000000000000000000000000000000000000000000000000000000000000000000DC0000000000000000002800000000F5F5000000F5002828282828282828DC28282800F5F52828F528DC
310
F5F50000000000000000DC0000000000000000F5F5282828002800F5DC28282828DC2828282828282800000000000000000000000000000000000000002800DC000000000000000000000000000000000000000000000000000000000000000000000000000000000000000000000000000000000000000000000000000000
310
000000000000000000000000000000000000000000000000000000000000000000000000000000000000000000000000000000000000000000000000000000000000000000000000000000000000000000000000000000DC000000000000000000280000000000F50000F5F5F5F5F5282828282828DC282828282828282828
310
00DCF5F50000000000000000DC0000000000000000F5F5DC0028282828282828282828DC2828282828282828000000000000000000000000000000000000002800DC00000000000000000000000000000000000000000000000000000000000000000000000000000000000000000000000000000000000000000000000000
310
0000000000000000000000000000000000000000000000000000000000000000000000000000000000000000000000000000000000000000000000000000000000000000000000000000000000000000000000000000000000DC0000000000000000002800000000F5F5F5F5F5F5F5F5F5F5F5F5F5F5DCDCF5F5F5F5F5F528
310
282828DCF528282828282828282828282828282828282828282828282828F5F5F5F5F5F5DCDCF5F5F5F5F5F5F5F5000000000000000000000000000000000000002800DC0000000000000000000000000000000000000000000000000000000000000000000000000000000000000000000000000000000000000000000000
310
00000000000000000000000000000000000000000000000000000000000000000000000000000000000000000000000000000000000000000000000000000000000000000000000000000000000000000000000000000000000000DC0000000000000000002800000000000000000000F500F5F528F528F5DCDCF528F528F5
310
2828282828DCF5F50000000000000000000000000000000000F5F5DC28282828F528F5F5F528DCDC28F528F528F528F5000000000000000000000000000000000000002800DC000000000000000000000000000000000000000000000000000000000000000000000000000000000000000000000000000000000000000000
310
000000000000000000000000000000000000000000000000000000000000000000000000000000000000000000000000000000000000000000000000000000000000000000000000000000000000000000000000000000000000000000DC0000000000000000002800000000000000000000F50028DCF5F5282828F52828F5
310
F528F528282828F5282828282828282828282828282828282828282828F52828282828F5F5F5282828F52828F5F5F5F5F5F5000000000000000000000000000000000000002800DC00000000000000000000000000000000000000000000000000000000000000000000000000000000000000000000000000000000000000
310
0000000000000000000000000000000000000000000000000000000000000000000000000000000000000000000000000000000000000000000000000000000000000000000000000000000000000000000000000000000000000000000000DC0000000000000000002800000000000000000000F50000DC000028DCDCDC28
310
28F5000000002828DCDC28282828DC00DC000028DC000000000000000028DCDCDC282800000000F52828DCDC28280000000000F5000000000000000000000000000000000000002800DC0000000000000000000000000000000000000000000000000000000000000000000000000000000000000000000000000000000000
310
00000000000000000000000000000000000000000000000000000000000000000000000000000000000000000000000000000000000000000000000000000000000000000000000000000000000000000000000000000000000000000000000000DC0000000000000000002800000000000000000000F50000DC0000282800
310
DC2828F500000000002828DC28280028DCDCDCDCDC28DC00000000000000002828DC00282800000000F5002828DC28280000000000F5000000000000000000000000000000000000002800DC000000000000000000000000000000000000000000000000000000000000000000000000000000000000000000000000000000
310
000000000000000000000000000000000000000000000000000000000000000000000000000000000000000000000000000000000000000000000000000000000000000000000000000000000000000000000000000000000000000000000000000000DC0000000000000000002800000000000000000000F5000000DC0028
310
2828282828F5000000000028282828280028DC00DC00002800000000000000000028282828282800000000F50028282828280000000000F5000000000000000000000000000000000000002800DC00000000000000000000000000000000000000000000000000000000000000000000000000000000000000000000000000
310
0000000000000000000000000000000000000000000000000000000000000000000000000000000000000000000000000000000000000000000000000000000000000000000000000000000000000000000000000000000000000000000000000000000000DC0000000000000000002800000000000000000000F5000000DC
310
00002828282800F50000000000002828280000282828DC28282800000000000000000000282828280000000000F50028282828000000000000F5000000000000000000000000000000000000002800DC0000000000000000000000000000000000000000000000000000000000000000000000000000000000000000000000
310
00000000000000000000000000000000000000000000000000000000000000000000000000000000000000000000000000000000000000000000000000000000000000000000000000000000000000000000000000000000000000000000000000000000000000DC0000000000000000002800000000000000000000F50000
310
00DC00000000DC0000F500000000000000DC000000000000DC0000000000000000000000000000DC00000000000000F5000000DC00000000000000F5000000000000000000000000000000000000002800DC000000000000000000000000000000000000000000000000000000000000000000000000000000000000000000
310
000000000000000000000000000000000000000000000000000000000000000000000000000000000000000000000000000000000000000000000000000000000000000000000000000000000000000000000000000000000000000000000000000000000000000000DC0000000000000000002800000000000000000000F5
310
000000DC00000000000000F50000000000000000000000000000DC00000000000000000000000000000000000000000000F50000000000000000000000F5000000000000000000000000000000000000002800DC00000000000000000000000000000000000000000000000000000000000000000000000000000000000000
310
0000000000000000000000000000000000000000000000000000000000000000000000000000000000000000000000000000000000000000000000000000000000000000000000000000000000000000000000000000000000000000000000000000000000000000000000DC00000000000000000028000000000000000000
310
00F5000000DC00000000000000F5F5F5F5F5F5F5F5F5F5F5F5F5F5F5F5F5F5F5F5F5F5F5F5F5F5F5F5F5F5F5F5F5F5F5F5F5F5F50000000000000000000000F5000000000000000000000000000000000000002800DC0000000000000000000000000000000000000000000000000000000000000000000000000000000000
310
00000000000000000000000000000000000000000000000000000000000000000000000000000000000000000000000000000000000000000000000000000000000000000000000000000000000000000000000000000000000000000000000000000000000000000000000000DC0000000000000000002800000000000000
310
000000F500000000DC000000000000F5F5F50000000000000000000000000000BEBEBEBEBE0000000000000000000000000000F5F5F50000000000000000000000F5000000000000000000000000000000000000002800DC000000000000000000000000000000000000000000000000000000000000000000000000000000
310
000000000000000000000000000000000000000000000000000000000000000000000000000000000000000000000000000000000000000000000000000000000000000000000000000000000000000000000000000000000000000000000000000000000000000000000000000000DC000000000000000000280000000000
310
0000000000F500000000DC0000000000000000000000000000000000000000000000BEBEBEBEBE00000000000000000000000000000000000000000000000000000000F5000000000000000000000000000000000000002800DC00000000000000000000000000000000000000000000000000000000000000000000000000
310
0000000000000000000000000000000000000000000000000000000000000000000000000000000000000000000000000000000000000000000000000000000000000000000000000000000000000000000000000000000000000000000000000000000000000000000000000000000000DC00000000000000000028000000
310
00000000000000F500000000DC0000000000000000000000000000000000000000000000BEBEBEBEBE00000000000000000000000000000000000000000000000000000000F5000000000000000000000000000000000000002800DC0000000000000000000000000000000000000000000000000000000000000000000000
310
00000000000000000000000000000000000000000000000000000000000000000000000000000000000000000000000000000000000000000000000000000000000000000000000000000000000000000000000000000000000000000000000000000000000000000000000000000000000000DC0000000000000000002800
310
000000000000000000F5F5F5F5F5DCF5F5F5F5F5F5F5F5F5F5F5F5F5F5F5F5F5F5F5F5F5F5F5F5F5F5F5F5F5F5F5F5F5F5F5F5F5F5F5F5F5F5F5F5F5F5F5F5F5F5F5F5F5F5F5F5F5000000000000000000000000000000000000002800DC000000000000000000000000000000000000000000000000000000000000000000
310
000000000000000000000000000000000000000000000000000000000000000000000000000000000000000000000000000000000000000000000000000000000000000000000000000000000000000000000000000000000000000000000000000000000000000000000000000000000000000000DC000000000000000000
310
2800000000000000000000F500000000DC0000000000000000000000000000000000000000000000BEBEBEBEBEBE000000000000000000000000000000000000000000000000000000F5000000000000000000000000000000000000002800DC00000000000000000000000000000000000000000000000000000000000000
310
0000000000000000000000000000000000000000000000000000000000000000000000000000000000000000000000000000000000000000000000000000000000000000000000000000000000000000000000000000000000000000000000000000000000000000000000000000000000000000000000DC00000000000000
310
00002800000000000000000000000000000000DC00000000000000000000000000000000000000000000BEBEBEBEBE0000000000000000000000000000000000000000000000000000000000000000000000000000000000000000000000002800DC0000000000000000000000000000000000000000000000000000000000
310
00000000000000000000000000000000000000000000000000000000000000000000000000000000000000000000000000000000000000000000000000000000000000000000000000000000000000000000000000000000000000000000000000000000000000000000000000000000000000000000000000DC0000000000
310
000000002800000000000000000000000000000000DC0000000000000000000000000000000000000000000000000000000000000000000000000000000000000000000000000000000000000000000000000000000000000000000000000000002800DC000000000000000000000000000000000000000000000000000000
310
000000000000000000000000000000000000000000000000000000000000000000000000000000000000000000000000000000000000000000000000000000000000000000000000000000000000000000000000000000000000000000000000000000000000000000000000000000000000000000000000000000DC000000
310
0000000000002800000000000000000000000000000000DC0000000000000000000000000000000000000000000000000000000000000000000000000000000000000000000000000000000000000000000000000000000000000000000000000000002800DC00000000000000000000000000000000000000000000000000
310
0000000000000000000000000000000000000000000000000000000000000000000000000000000000000000000000000000000000000000000000000000000000000000000000000000000000000000000000000000000000000000000000000000000000000000000000000000000000000000000000000000000000DC00
310
00000000000000002800000000000000000000000000000000DC0000000000000000000000000000000000000000000000000000000000000000000000000000000000000000000000000000000000000000000000000000000000000000000000000000002800DC0000000000000000000000000000000000000000000000
310
00000000000000000000000000000000000000000000000000000000000000000000000000000000000000000000000000000000000000000000000000000000000000000000000000000000000000000000000000000000000000000000000000000000000000000000000000000000000000000000000000000000000000
310
DC000000000000000000280000000000000000000000000000000000DCBEBEBEBE00BEBEBEBEBEBEBEBEBEBEBEBEBEBEBEBEBEBEBEBEBEBE00000000000000000000000000000000000000000000000000000000000000000000000000000000000000000000002800DC000000000000000000000000000000000000000000
310
00000000000000000000000000000000000000000000000000000000000000000000000000000000000000000000000000000000000000000000000000000000000000000000000000000000000000000000000000000000000000000000000000000000000000000000000000000000000000000000000000000000000000
310
0000DC000000000000000000280000000000000000000000000000000000DCBEBEBEBEBEBEBEBEBEBEBEBE0000BEBEBEBEBEBEBEBEBEBEBE00BE00000000000000000000000000000000000000000000000000000000000000000000000000000000000000000000002800DC00000000000000000000000000000000000000
310
00000000000000000000000000000000000000000000000000000000000000000000000000000000000000000000000000000000000000000000000000000000000000000000000000000000000000000000000000000000000000000000000000000000000000000000000000000000000000000000000000000000000000
310
00000000DC000000000000000000280000000000000000000000000000000000DCBEBEBEBEDCDCBEDCBEBEBEDCDCDCBEBEBEBEBEBEDCBEBEBEBEBEBE00000000000000000000000000000000000000000000000000000000000000000000000000000000000000000000002800DC0000000000000000000000000000000000
310
00000000000000000000000000000000000000000000000000000000000000000000000000000000000000000000000000000000000000000000000000000000000000000000000000000000000000000000000000000000000000000000000000000000000000000000000000000000000000000000000000000000000000
310
000000000000DC00000000000000000028000000000000000000000000000000000000BEBEBEBEBEBEBEBEBEBEBE00BEBEBEBEBEBE00000000000000000000000000000000000000000000000000000000000000000000000000000000000000000000000000000000000000002800DC000000000000000000000000000000
310
00000000000000000000000000000000000000000000000000000000000000000000000000000000000000000000000000000000000000000000000000000000000000000000000000000000000000000000000000000000000000000000000000000000000000000000000000000000000000000000000000000000000000
310
0000000000000000DC00000000000000000028000000000000000000000000000000000000BEBEBEBEBEBEBEBEBEBEBE00BEBEBE00BEBE00000000000000000000000000000000000000000000000000000000000000000000000000000000000000000000000000000000000000002800DC00000000000000000000000000
310
00000000000000000000000000000000000000000000000000000000000000000000000000000000000000000000000000000000000000000000000000000000000000000000000000000000000000000000000000000000000000000000000000000000000000000000000000000000000000000000000000000000000000
310
00000000000000000000DC00000000000000000028000000000000000000000000000000000000BE0000BEBE00000000BE0000BEBEBEBEBEBE00000000000000000000000000000000000000000000000000000000000000000000000000000000000000000000000000000000000000002800DC0000000000000000000000
310
00000000000000000000000000000000000000000000000000000000000000000000000000000000000000000000000000000000000000000000000000000000000000000000000000000000000000000000000000000000000000000000000000000000000000000000000000000000000000000000000000000000000000
310
000000000000000000000000DC0000000000000000002800000000000000000000000000000000000000000000000000000000000000000000000000000000000000000000000000000000000000000000000000000000000000000000000000000000000000000000000000000000000000002800DC000000000000000000
310
00000000000000000000000000000000000000000000000000000000000000000000000000000000000000000000000000000000000000000000000000000000000000000000000000000000000000000000000000000000000000000000000000000000000000000000000000000000000000000000000000000000000000
310
0000000000000000000000000000DC0000000000000000002800000000000000000000000000000000000000000000000000000000000000000000000000000000000000000000000000000000000000000000000000000000000000000000000000000000000000000000000000000000000000002800DC00000000000000
310
00000000000000000000000000000000000000000000000000000000000000000000000000000000000000000000000000000000000000000000000000000000000000000000000000000000000000000000000000000000000000000000000000000000000000000000000000000000000000000000000000000000000000
310
00000000000000000000000000000000DC0000000000000000002800000000000000000000000000000000000000000000000000000000000000000000000000000000000000000000000000000000000000000000000000000000000000000000000000000000000000000000000000000000000000002800DC0000000000
310
00000000000000000000000000000000000000000000000000000000000000000000000000000000000000000000000000000000000000000000000000000000000000000000000000000000000000000000000000000000000000000000000000000000000000000000000000000000000000000000000000000000000000
310
000000000000000000000000000000000000DC0000000000000000002800000000000000000000000000000000000000000000000000000000000000000000000000000000000000000000000000000000000000000000000000000000000000000000000000000000000000000000000000000000000000002800DC000000
310
00000000000000000000000000000000000000000000000000000000000000000000000000000000000000000000000000000000000000000000000000000000000000000000000000000000000000000000000000000000000000000000000000000000000000000000000000000000000000000000000000000000000000
310
0000000000000000000000000000000000000000DC0000000000000000002800000000000000000000000000000000000000000000000000000000000000000000000000000000000000000000000000000000000000000000000000000000000000000000000000000000000000000000000000000000000000002800DC00
310
00000000000000000000000000000000000000000000000000000000000000000000000000000000000000000000000000000000000000000000000000000000000000000000000000000000000000000000000000000000000000000000000000000000000000000000000000000000000000000000000000000000000000
310
00000000000000000000000000000000000000000000DC0000000000000000002800000000000000000000000000000000000000000000000000000000000000000000000000000000000000000000000000000000000000000000000000000000000000000000000000000000000000000000000000000000000000002800
310
DC000000000000000000000000000000000000000000000000000000000000000000000000000000000000000000000000000000000000000000000000000000000000000000000000000000000000000000000000000000000000000000000000000000000000000000000000000000000000000000000000000000000000
310
000000000000000000000000000000000000000000000000DC000000000000000000280000000000000000000000000000000000000000000000000000000000000000000000000000000000000000000000000000000000000000000000000000000000000000000000000000000000000000000000000000000000000000
310
2800DC00000000000000000000000000000000000000000000000000000000000000000000000000000000000000000000000000000000000000000000000000000000000000000000000000000000000000000000000000000000000000000000000000000000000000000000000000000000000000000000000000000000
310
0000000000000000000000000000000000000000000000000000DC00000000000000000028000000000000000000000000000000000000000000000000000000000000000000000000000000000000000000000000000000000000000000000000000000000000000000000000000000000000000000000000000000000000
310
00002800DC0000000000000000000000000000000000000000000000000000000000000000000000000000000000000000000000000000000000000000000000000000000000000000000000000000000000000000000000000000000000000000000000000000000000000000000000000000000000000000000000000000
310
00000000000000000000000000000000000000000000000000000000DC0000000000000000002800000000000000000000000000000000000000000000000000000000000000000000000000000000000000000000000000000000000000000000000000000000000000000000000000000000000000000000000000000000
310
000000002800DC000000000000000000000000000000000000000000000000000000000000000000000000000000000000000000000000000000000000000000000000000000000000000000000000000000000000000000000000000000000000000000000000000000000000000000000000000000000000000000000000
310
000000000000000000000000000000000000000000000000000000000000DC000000000000000000280000000000000000000000000000000000000000000000000000000000000000000000000000000000000000000000000000000000000000000000000000000000000000000000000000000000000000000000000000
310
0000000000002800DC00000000000000000000000000000000000000000000000000000000000000000000000000000000000000000000000000000000000000000000000000000000000000000000000000000000000000000000000000000000000000000000000000000000000000000000000000000000000000000000
310
0000000000000000000000000000000000000000000000000000000000000000DC00000000000000000028000000000000000000000000000000000000000000000000000000000000000000000000000000000000000000000000000000000000000000000000000000000000000000000000000000000000000000000000
310
00000000000000002800DC0000000000000000000000000000000000000000000000000000000000000000000000000000000000000000000000000000000000000000000000000000000000000000000000000000000000000000000000000000000000000000000000000000000000000000000000000000000000000000
310
00000000000000000000000000000000000000000000000000000000000000000000DC0000000000000000002828282828282828282828282828282828282828282828282828282828282828282828282828282828282828282828282828282828282828282828282828282828282828282828282828282828282828282828
310
282828282828282828282800DC000000000000000000000000000000000000000000000000000000000000000000000000000000000000000000000000000000000000000000000000000000000000000000000000000000000000000000000000000000000000000000000000000000000000000000000000000000000000
310
000000000000000000000000000000000000000000000000000000000000000000000000DC000000000000000000000000000000000000000000000000000000000000000000000000000000000000000000000000000000000000000000000000000000000000000000000000000000000000000000000000000000000000
310
0000000000000000000000000000DC00000000000000000000000000000000000000000000000000000000000000000000000000000000000000000000000000000000000000000000000000000000000000000000000000000000000000000000000000000000000000000000000000000000000000000000000000000000
310
0000000000000000000000000000000000000000000000000000000000000000000000000000DCDCDCDCDCDCDCDCDCDCDCDCDCDCDCDCDCDCDCDCDCDCDCDCDCDCDCDCDCDCDCDCDCDCDCDCDCDCDCDCDCDCDCDCDCDCDCDCDCDCDCDCDCDCDCDCDCDCDCDCDCDCDCDCDCDCDCDCDCDCDCDCDCDCDCDCDCDCDCDCDCDCDCDCDCDCDCDCDC
310
DCDCDCDCDCDCDCDCDCDCDCDCDCDCDCDCDC0000000000000000000000000000000000000000000000000000000000000000000000000000000000000000000000000000000000000000000000000000000000000000000000000000000000000000000000000000000000000000000000000000000000000000000000000000
310
00000000000000000000000000000000000000000000000000000000000000000000000000000000000000000000000000000000000000000000000000000000000000000000000000000000000000000000000000000000000000000000000000000000000000000000000000000000000000000000000000000000000000
310
00000000000000000000000000000000000000000000000000000000000000000000000000000000000000000000000000000000000000000000000000000000000000000000000000000000000000000000000000000000000000000000
  0
XRECORD
  5
23CC
102
{ACAD_REACTORS
330
21C2
102
}
330
21C2
100
AcDbXrecord
280
     1
102
MATERIAL
148
0.0
149
0.0
149
0.0
 93
        0
 94
      127
282
     0
 72
     0
 77
     0
171
     0
175
     0
179
     0
273
     0
  0
XRECORD
  5
21C4
102
{ACAD_REACTORS
330
21C2
102
}
330
21C2
100
AcDbXrecord
280
     1
270
     1
271
     1
  0
XRECORD
  5
21C3
102
{ACAD_REACTORS
330
21C2
102
}
330
21C2
100
AcDbXrecord
280
     1
270
     1
271
     1
  0
XRECORD
  5
21C7
102
{ACAD_REACTORS
330
21C2
102
}
330
21C2
100
AcDbXrecord
280
     1
270
     1
271
     1
  0
XRECORD
  5
21C6
102
{ACAD_REACTORS
330
21C2
102
}
330
21C2
100
AcDbXrecord
280
     1
270
     1
271
     1
  0
XRECORD
  5
21C8
102
{ACAD_REACTORS
330
21C2
102
}
330
21C2
100
AcDbXrecord
280
     1
270
     1
271
     1
  0
XRECORD
  5
21C5
102
{ACAD_REACTORS
330
21C2
102
}
330
21C2
100
AcDbXrecord
280
     1
270
     1
271
     1
  0
XRECORD
  5
23CB
102
{ACAD_REACTORS
330
21BA
102
}
330
21BA
100
AcDbXrecord
280
     1
102
MATERIAL
148
0.0
149
0.0
149
0.0
 93
        0
 94
      127
282
     0
 72
     0
 77
     0
171
     0
175
     0
179
     0
273
     0
  0
XRECORD
  5
21BC
102
{ACAD_REACTORS
330
21BA
102
}
330
21BA
100
AcDbXrecord
280
     1
270
     1
271
     1
  0
XRECORD
  5
21BB
102
{ACAD_REACTORS
330
21BA
102
}
330
21BA
100
AcDbXrecord
280
     1
270
     1
271
     1
  0
XRECORD
  5
21BF
102
{ACAD_REACTORS
330
21BA
102
}
330
21BA
100
AcDbXrecord
280
     1
270
     1
271
     1
  0
XRECORD
  5
21BE
102
{ACAD_REACTORS
330
21BA
102
}
330
21BA
100
AcDbXrecord
280
     1
270
     1
271
     1
  0
XRECORD
  5
21C0
102
{ACAD_REACTORS
330
21BA
102
}
330
21BA
100
AcDbXrecord
280
     1
270
     1
271
     1
  0
XRECORD
  5
21BD
102
{ACAD_REACTORS
330
21BA
102
}
330
21BA
100
AcDbXrecord
280
     1
270
     1
271
     1
  0
XRECORD
  5
23CD
102
{ACAD_REACTORS
330
21CA
102
}
330
21CA
100
AcDbXrecord
280
     1
102
MATERIAL
148
0.0
149
0.0
149
0.0
 93
        0
 94
      127
282
     0
 72
     0
 77
     0
171
     0
175
     0
179
     0
273
     0
  0
XRECORD
  5
21CC
102
{ACAD_REACTORS
330
21CA
102
}
330
21CA
100
AcDbXrecord
280
     1
270
     1
271
     1
  0
XRECORD
  5
21CB
102
{ACAD_REACTORS
330
21CA
102
}
330
21CA
100
AcDbXrecord
280
     1
270
     1
271
     1
  0
XRECORD
  5
21CF
102
{ACAD_REACTORS
330
21CA
102
}
330
21CA
100
AcDbXrecord
280
     1
270
     1
271
     1
  0
XRECORD
  5
21CE
102
{ACAD_REACTORS
330
21CA
102
}
330
21CA
100
AcDbXrecord
280
     1
270
     1
271
     1
  0
XRECORD
  5
21D0
102
{ACAD_REACTORS
330
21CA
102
}
330
21CA
100
AcDbXrecord
280
     1
270
     1
271
     1
  0
XRECORD
  5
21CD
102
{ACAD_REACTORS
330
21CA
102
}
330
21CA
100
AcDbXrecord
280
     1
270
     1
271
     1
  0
XRECORD
  5
2400
102
{ACAD_REACTORS
330
23FF
102
}
330
23FF
100
AcDbXrecord
280
     1
102
ACAD_ROUNDTRIP_2012_MLEADER_STYLE
298
     1
  0
CELLSTYLEMAP
  5
23C9
102
{ACAD_REACTORS
330
22E8
102
}
330
22E8
100
AcDbCellStyleMap
 90
        3
300
CELLSTYLE
  1
TABLEFORMAT_BEGIN
 90
        5
170
     1
 91
        0
 92
    32768
 62
   257
 93
        1
300
CONTENTFORMAT
  1
CONTENTFORMAT_BEGIN
 90
        0
 91
        0
 92
      512
 93
        0
300

 40
0.0
140
1.0
 94
        5
 62
     0
340
10
144
0.25
309
CONTENTFORMAT_END
171
     0
 94
        0
309
TABLEFORMAT_END
  1
CELLSTYLE_BEGIN
 90
        1
 91
        1
300
_TITLE
309
CELLSTYLE_END
300
CELLSTYLE
  1
TABLEFORMAT_BEGIN
 90
        5
170
     1
 91
        0
 92
        0
 62
   257
 93
        1
300
CONTENTFORMAT
  1
CONTENTFORMAT_BEGIN
 90
        0
 91
        0
 92
      512
 93
        0
300

 40
0.0
140
1.0
 94
        5
 62
     0
340
10
144
0.18
309
CONTENTFORMAT_END
171
     0
 94
        0
309
TABLEFORMAT_END
  1
CELLSTYLE_BEGIN
 90
        2
 91
        1
300
_HEADER
309
CELLSTYLE_END
300
CELLSTYLE
  1
TABLEFORMAT_BEGIN
 90
        5
170
     1
 91
        0
 92
        0
 62
   257
 93
        1
300
CONTENTFORMAT
  1
CONTENTFORMAT_BEGIN
 90
        0
 91
        0
 92
      512
 93
        0
300

 40
0.0
140
1.0
 94
        2
 62
     0
340
10
144
0.18
309
CONTENTFORMAT_END
171
     0
 94
        0
309
TABLEFORMAT_END
  1
CELLSTYLE_BEGIN
 90
        3
 91
        2
300
_DATA
309
CELLSTYLE_END
  0
XRECORD
  5
23FE
102
{ACAD_REACTORS
330
22E8
102
}
330
22E8
100
AcDbXrecord
280
     1
102
ACAD_ROUNDTRIP_PRE2007_TABLESTYLE
 90
      512
 91
        0
  1

 92
      512
 93
        0
  2

 94
      512
 95
        0
  3

  0
XRECORD
  5
23D9
102
{ACAD_REACTORS
330
23D8
102
}
330
23D8
100
AcDbXrecord
280
     1
102
RTVSPost2010Prop28
280
     1
102
RTVSPost2010PropOp28
 70
     1
102
RTVSPost2010Prop29
280
     1
102
RTVSPost2010PropOp29
 70
     1
102
RTVSPost2010Prop30
280
     0
102
RTVSPost2010PropOp30
 70
     1
102
RTVSPost2010Prop31
280
     0
102
RTVSPost2010PropOp31
 70
     1
102
RTVSPost2010Prop32
280
     0
102
RTVSPost2010PropOp32
 70
     1
102
RTVSPost2010Prop33
280
     0
102
RTVSPost2010PropOp33
 70
     1
102
RTVSPost2010Prop34
280
     0
102
RTVSPost2010PropOp34
 70
     1
102
RTVSPost2010Prop35
280
     0
102
RTVSPost2010PropOp35
 70
     1
102
RTVSPost2010Prop36
280
     0
102
RTVSPost2010PropOp36
 70
     1
102
RTVSPost2010Prop37
 90
       50
102
RTVSPost2010PropOp37
 70
     1
102
RTVSPost2010Prop38
140
0.0
102
RTVSPost2010PropOp38
 70
     1
102
RTVSPost2010Prop39
140
1.0
102
RTVSPost2010PropOp39
 70
     1
102
RTVSPost2010Prop40
 90
        0
102
RTVSPost2010PropOp40
 70
     1
102
RTVSPost2010Prop41ColorIndex
 90
       18
102
RTVSPost2010Prop41ColorRGB
 90
        0
102
RTVSPost2010PropOp41
 70
     1
102
RTVSPost2010Prop42
 90
       50
102
RTVSPost2010PropOp42
 70
     1
102
RTVSPost2010Prop43
 90
        3
102
RTVSPost2010PropOp43
 70
     1
102
RTVSPost2010Prop44ColorIndex
 90
        5
102
RTVSPost2010Prop44ColorRGB
 90
      255
102
RTVSPost2010PropOp44
 70
     1
102
RTVSPost2010Prop45
280
     0
102
RTVSPost2010PropOp45
 70
     1
102
RTVSPost2010Prop46
 90
       50
102
RTVSPost2010PropOp46
 70
     1
102
RTVSPost2010Prop47
 90
       50
102
RTVSPost2010PropOp47
 70
     1
102
RTVSPost2010Prop48
 90
       50
102
RTVSPost2010PropOp48
 70
     1
102
RTVSPost2010Prop49
280
     0
102
RTVSPost2010PropOp49
 70
     1
102
RTVSPost2010Prop50
 90
       50
102
RTVSPost2010PropOp50
 70
     1
102
RTVSPost2010Prop51ColorIndex
 90
      256
102
RTVSPost2010Prop51ColorRGB
 90
-16777216
102
RTVSPost2010PropOp51
 70
     0
102
RTVSPost2010Prop52
140
1.0
102
RTVSPost2010PropOp52
 70
     0
102
RTVSPost2010Prop53
 90
        2
102
RTVSPost2010PropOp53
 70
     1
102
RTVSPost2010Prop54
  1
strokes_ogs.tif
102
RTVSPost2010PropOp54
 70
     1
102
RTVSPost2010Prop55
280
     0
102
RTVSPost2010PropOp55
 70
     1
102
RTVSPost2010Prop56
140
1.0
102
RTVSPost2010PropOp56
 70
     1
102
RTVSPost2010Prop57
140
1.0
102
RTVSPost2010PropOp57
 70
     1
102
RTVSPropertyOp0
 70
     1
102
RTVSPropertyOp1
 70
     1
102
RTVSPropertyOp2
 70
     1
102
RTVSPropertyOp3
 70
     1
102
RTVSPropertyOp4
 70
     1
102
RTVSPropertyOp5
 70
     1
102
RTVSPropertyOp6
 70
     1
102
RTVSPropertyOp7
 70
     1
102
RTVSPropertyOp8
 70
     1
102
RTVSPropertyOp9
 70
     1
102
RTVSPropertyOp10
 70
     1
102
RTVSPropertyOp11
 70
     1
102
RTVSPropertyOp12
 70
     1
102
RTVSPropertyOp13
 70
     1
102
RTVSPropertyOp14
 70
     1
102
RTVSPropertyOp15
 70
     1
102
RTVSPropertyOp16
 70
     1
102
RTVSPropertyOp17
 70
     1
102
RTVSPropertyOp18
 70
     1
102
RTVSPropertyOp19
 70
     1
102
RTVSPropertyOp20
 70
     1
102
RTVSPropertyOp21
 70
     1
102
RTVSPropertyOp22
 70
     1
102
RTVSPropertyOp23
 70
     1
102
RTVSPropertyOp24
 70
     1
102
RTVSPropertyOp25
 70
     1
102
RTVSPropertyOp26
 70
     1
102
RTVSPropertyOp27
 70
     1
102
RTVSPropertyOp28
 70
     1
102
RTVSPropertyOp29
 70
     1
102
RTVSPropertyOp30
 70
     1
102
RTVSPropertyOp31
 70
     1
102
RTVSPropertyOp32
 70
     1
102
RTVSPropertyOp33
 70
     1
102
RTVSPropertyOp34
 70
     1
102
RTVSPropertyOp35
 70
     1
102
RTVSPropertyOp36
 70
     1
102
RTVSPropertyOp37
 70
     1
102
RTVSPropertyOp38
 70
     1
102
RTVSPropertyOp39
 70
     1
102
RTVSPropertyOp40
 70
     1
102
RTVSPropertyOp41
 70
     1
102
RTVSPropertyOp42
 70
     1
102
RTVSPropertyOp43
 70
     1
102
RTVSPropertyOp44
 70
     1
102
RTVSPropertyOp45
 70
     1
102
RTVSPropertyOp46
 70
     1
102
RTVSPropertyOp47
 70
     1
102
RTVSPropertyOp48
 70
     1
102
RTVSPropertyOp49
 70
     1
102
RTVSPropertyOp50
 70
     1
102
RTVSPropertyOp51
 70
     0
102
RTVSPropertyOp52
 70
     0
102
RTVSPropertyOp53
 70
     1
102
RTVSPropertyOp54
 70
     1
102
RTVSPropertyOp55
 70
     1
102
RTVSPropertyOp56
 70
     1
102
RTVSPropertyOp57
 70
     1
102
RTVSPropertyOp58
 70
     1
102
RTVSPropertyOp59
 70
     1
102
RTVSPropertyOp60
 70
     1
102
RTVSPropertyOp61
 70
     1
102
RTVSPropertyOp62
 70
     1
  0
XRECORD
  5
23D7
102
{ACAD_REACTORS
330
23D6
102
}
330
23D6
100
AcDbXrecord
280
     1
102
RTVSPost2010Prop28
280
     0
102
RTVSPost2010PropOp28
 70
     1
102
RTVSPost2010Prop29
280
     1
102
RTVSPost2010PropOp29
 70
     1
102
RTVSPost2010Prop30
280
     1
102
RTVSPost2010PropOp30
 70
     1
102
RTVSPost2010Prop31
280
     0
102
RTVSPost2010PropOp31
 70
     1
102
RTVSPost2010Prop32
280
     0
102
RTVSPost2010PropOp32
 70
     1
102
RTVSPost2010Prop33
280
     0
102
RTVSPost2010PropOp33
 70
     1
102
RTVSPost2010Prop34
280
     0
102
RTVSPost2010PropOp34
 70
     1
102
RTVSPost2010Prop35
280
     0
102
RTVSPost2010PropOp35
 70
     1
102
RTVSPost2010Prop36
280
     0
102
RTVSPost2010PropOp36
 70
     1
102
RTVSPost2010Prop37
 90
       50
102
RTVSPost2010PropOp37
 70
     1
102
RTVSPost2010Prop38
140
0.0
102
RTVSPost2010PropOp38
 70
     1
102
RTVSPost2010Prop39
140
1.0
102
RTVSPost2010PropOp39
 70
     1
102
RTVSPost2010Prop40
 90
        0
102
RTVSPost2010PropOp40
 70
     1
102
RTVSPost2010Prop41ColorIndex
 90
       18
102
RTVSPost2010Prop41ColorRGB
 90
        0
102
RTVSPost2010PropOp41
 70
     1
102
RTVSPost2010Prop42
 90
       50
102
RTVSPost2010PropOp42
 70
     1
102
RTVSPost2010Prop43
 90
        3
102
RTVSPost2010PropOp43
 70
     1
102
RTVSPost2010Prop44ColorIndex
 90
        5
102
RTVSPost2010Prop44ColorRGB
 90
      255
102
RTVSPost2010PropOp44
 70
     1
102
RTVSPost2010Prop45
280
     0
102
RTVSPost2010PropOp45
 70
     1
102
RTVSPost2010Prop46
 90
       50
102
RTVSPost2010PropOp46
 70
     1
102
RTVSPost2010Prop47
 90
       50
102
RTVSPost2010PropOp47
 70
     1
102
RTVSPost2010Prop48
 90
       50
102
RTVSPost2010PropOp48
 70
     1
102
RTVSPost2010Prop49
280
     0
102
RTVSPost2010PropOp49
 70
     1
102
RTVSPost2010Prop50
 90
       50
102
RTVSPost2010PropOp50
 70
     1
102
RTVSPost2010Prop51ColorIndex
 90
      256
102
RTVSPost2010Prop51ColorRGB
 90
-16777216
102
RTVSPost2010PropOp51
 70
     0
102
RTVSPost2010Prop52
140
1.0
102
RTVSPost2010PropOp52
 70
     0
102
RTVSPost2010Prop53
 90
        2
102
RTVSPost2010PropOp53
 70
     1
102
RTVSPost2010Prop54
  1
strokes_ogs.tif
102
RTVSPost2010PropOp54
 70
     1
102
RTVSPost2010Prop55
280
     0
102
RTVSPost2010PropOp55
 70
     1
102
RTVSPost2010Prop56
140
1.0
102
RTVSPost2010PropOp56
 70
     1
102
RTVSPost2010Prop57
140
1.0
102
RTVSPost2010PropOp57
 70
     1
102
RTVSPropertyOp0
 70
     1
102
RTVSPropertyOp1
 70
     1
102
RTVSPropertyOp2
 70
     1
102
RTVSPropertyOp3
 70
     1
102
RTVSPropertyOp4
 70
     1
102
RTVSPropertyOp5
 70
     1
102
RTVSPropertyOp6
 70
     1
102
RTVSPropertyOp7
 70
     1
102
RTVSPropertyOp8
 70
     1
102
RTVSPropertyOp9
 70
     1
102
RTVSPropertyOp10
 70
     1
102
RTVSPropertyOp11
 70
     1
102
RTVSPropertyOp12
 70
     1
102
RTVSPropertyOp13
 70
     1
102
RTVSPropertyOp14
 70
     1
102
RTVSPropertyOp15
 70
     1
102
RTVSPropertyOp16
 70
     1
102
RTVSPropertyOp17
 70
     1
102
RTVSPropertyOp18
 70
     1
102
RTVSPropertyOp19
 70
     1
102
RTVSPropertyOp20
 70
     1
102
RTVSPropertyOp21
 70
     1
102
RTVSPropertyOp22
 70
     1
102
RTVSPropertyOp23
 70
     1
102
RTVSPropertyOp24
 70
     1
102
RTVSPropertyOp25
 70
     1
102
RTVSPropertyOp26
 70
     1
102
RTVSPropertyOp27
 70
     1
102
RTVSPropertyOp28
 70
     1
102
RTVSPropertyOp29
 70
     1
102
RTVSPropertyOp30
 70
     1
102
RTVSPropertyOp31
 70
     1
102
RTVSPropertyOp32
 70
     1
102
RTVSPropertyOp33
 70
     1
102
RTVSPropertyOp34
 70
     1
102
RTVSPropertyOp35
 70
     1
102
RTVSPropertyOp36
 70
     1
102
RTVSPropertyOp37
 70
     1
102
RTVSPropertyOp38
 70
     1
102
RTVSPropertyOp39
 70
     1
102
RTVSPropertyOp40
 70
     1
102
RTVSPropertyOp41
 70
     1
102
RTVSPropertyOp42
 70
     1
102
RTVSPropertyOp43
 70
     1
102
RTVSPropertyOp44
 70
     1
102
RTVSPropertyOp45
 70
     1
102
RTVSPropertyOp46
 70
     1
102
RTVSPropertyOp47
 70
     1
102
RTVSPropertyOp48
 70
     1
102
RTVSPropertyOp49
 70
     1
102
RTVSPropertyOp50
 70
     1
102
RTVSPropertyOp51
 70
     0
102
RTVSPropertyOp52
 70
     0
102
RTVSPropertyOp53
 70
     1
102
RTVSPropertyOp54
 70
     1
102
RTVSPropertyOp55
 70
     1
102
RTVSPropertyOp56
 70
     1
102
RTVSPropertyOp57
 70
     1
102
RTVSPropertyOp58
 70
     1
102
RTVSPropertyOp59
 70
     1
102
RTVSPropertyOp60
 70
     1
102
RTVSPropertyOp61
 70
     1
102
RTVSPropertyOp62
 70
     1
  0
XRECORD
  5
23E5
102
{ACAD_REACTORS
330
23E4
102
}
330
23E4
100
AcDbXrecord
280
     1
102
RTVSPost2010Prop28
280
     0
102
RTVSPost2010PropOp28
 70
     1
102
RTVSPost2010Prop29
280
     1
102
RTVSPost2010PropOp29
 70
     1
102
RTVSPost2010Prop30
280
     1
102
RTVSPost2010PropOp30
 70
     1
102
RTVSPost2010Prop31
280
     0
102
RTVSPost2010PropOp31
 70
     1
102
RTVSPost2010Prop32
280
     0
102
RTVSPost2010PropOp32
 70
     1
102
RTVSPost2010Prop33
280
     0
102
RTVSPost2010PropOp33
 70
     1
102
RTVSPost2010Prop34
280
     0
102
RTVSPost2010PropOp34
 70
     1
102
RTVSPost2010Prop35
280
     0
102
RTVSPost2010PropOp35
 70
     1
102
RTVSPost2010Prop36
280
     0
102
RTVSPost2010PropOp36
 70
     1
102
RTVSPost2010Prop37
 90
       50
102
RTVSPost2010PropOp37
 70
     1
102
RTVSPost2010Prop38
140
0.0
102
RTVSPost2010PropOp38
 70
     1
102
RTVSPost2010Prop39
140
1.0
102
RTVSPost2010PropOp39
 70
     1
102
RTVSPost2010Prop40
 90
        0
102
RTVSPost2010PropOp40
 70
     1
102
RTVSPost2010Prop41ColorIndex
 90
       18
102
RTVSPost2010Prop41ColorRGB
 90
        0
102
RTVSPost2010PropOp41
 70
     1
102
RTVSPost2010Prop42
 90
       50
102
RTVSPost2010PropOp42
 70
     1
102
RTVSPost2010Prop43
 90
        3
102
RTVSPost2010PropOp43
 70
     1
102
RTVSPost2010Prop44ColorIndex
 90
        5
102
RTVSPost2010Prop44ColorRGB
 90
      255
102
RTVSPost2010PropOp44
 70
     1
102
RTVSPost2010Prop45
280
     0
102
RTVSPost2010PropOp45
 70
     1
102
RTVSPost2010Prop46
 90
       50
102
RTVSPost2010PropOp46
 70
     1
102
RTVSPost2010Prop47
 90
       50
102
RTVSPost2010PropOp47
 70
     1
102
RTVSPost2010Prop48
 90
       50
102
RTVSPost2010PropOp48
 70
     1
102
RTVSPost2010Prop49
280
     0
102
RTVSPost2010PropOp49
 70
     1
102
RTVSPost2010Prop50
 90
       50
102
RTVSPost2010PropOp50
 70
     1
102
RTVSPost2010Prop51ColorIndex
 90
      256
102
RTVSPost2010Prop51ColorRGB
 90
-16777216
102
RTVSPost2010PropOp51
 70
     0
102
RTVSPost2010Prop52
140
1.0
102
RTVSPost2010PropOp52
 70
     0
102
RTVSPost2010Prop53
 90
        2
102
RTVSPost2010PropOp53
 70
     1
102
RTVSPost2010Prop54
  1
strokes_ogs.tif
102
RTVSPost2010PropOp54
 70
     1
102
RTVSPost2010Prop55
280
     0
102
RTVSPost2010PropOp55
 70
     1
102
RTVSPost2010Prop56
140
1.0
102
RTVSPost2010PropOp56
 70
     1
102
RTVSPost2010Prop57
140
1.0
102
RTVSPost2010PropOp57
 70
     1
102
RTVSPropertyOp0
 70
     1
102
RTVSPropertyOp1
 70
     1
102
RTVSPropertyOp2
 70
     1
102
RTVSPropertyOp3
 70
     1
102
RTVSPropertyOp4
 70
     1
102
RTVSPropertyOp5
 70
     1
102
RTVSPropertyOp6
 70
     1
102
RTVSPropertyOp7
 70
     1
102
RTVSPropertyOp8
 70
     1
102
RTVSPropertyOp9
 70
     1
102
RTVSPropertyOp10
 70
     1
102
RTVSPropertyOp11
 70
     1
102
RTVSPropertyOp12
 70
     1
102
RTVSPropertyOp13
 70
     1
102
RTVSPropertyOp14
 70
     1
102
RTVSPropertyOp15
 70
     1
102
RTVSPropertyOp16
 70
     1
102
RTVSPropertyOp17
 70
     1
102
RTVSPropertyOp18
 70
     1
102
RTVSPropertyOp19
 70
     1
102
RTVSPropertyOp20
 70
     1
102
RTVSPropertyOp21
 70
     1
102
RTVSPropertyOp22
 70
     1
102
RTVSPropertyOp23
 70
     1
102
RTVSPropertyOp24
 70
     1
102
RTVSPropertyOp25
 70
     1
102
RTVSPropertyOp26
 70
     1
102
RTVSPropertyOp27
 70
     1
102
RTVSPropertyOp28
 70
     1
102
RTVSPropertyOp29
 70
     1
102
RTVSPropertyOp30
 70
     1
102
RTVSPropertyOp31
 70
     1
102
RTVSPropertyOp32
 70
     1
102
RTVSPropertyOp33
 70
     1
102
RTVSPropertyOp34
 70
     1
102
RTVSPropertyOp35
 70
     1
102
RTVSPropertyOp36
 70
     1
102
RTVSPropertyOp37
 70
     1
102
RTVSPropertyOp38
 70
     1
102
RTVSPropertyOp39
 70
     1
102
RTVSPropertyOp40
 70
     1
102
RTVSPropertyOp41
 70
     1
102
RTVSPropertyOp42
 70
     1
102
RTVSPropertyOp43
 70
     1
102
RTVSPropertyOp44
 70
     1
102
RTVSPropertyOp45
 70
     1
102
RTVSPropertyOp46
 70
     1
102
RTVSPropertyOp47
 70
     1
102
RTVSPropertyOp48
 70
     1
102
RTVSPropertyOp49
 70
     1
102
RTVSPropertyOp50
 70
     1
102
RTVSPropertyOp51
 70
     0
102
RTVSPropertyOp52
 70
     0
102
RTVSPropertyOp53
 70
     1
102
RTVSPropertyOp54
 70
     1
102
RTVSPropertyOp55
 70
     1
102
RTVSPropertyOp56
 70
     1
102
RTVSPropertyOp57
 70
     1
102
RTVSPropertyOp58
 70
     1
102
RTVSPropertyOp59
 70
     1
102
RTVSPropertyOp60
 70
     1
102
RTVSPropertyOp61
 70
     1
102
RTVSPropertyOp62
 70
     1
  0
XRECORD
  5
23ED
102
{ACAD_REACTORS
330
23EC
102
}
330
23EC
100
AcDbXrecord
280
     1
102
RTVSPost2010Prop28
280
     0
102
RTVSPost2010PropOp28
 70
     1
102
RTVSPost2010Prop29
280
     1
102
RTVSPost2010PropOp29
 70
     1
102
RTVSPost2010Prop30
280
     1
102
RTVSPost2010PropOp30
 70
     1
102
RTVSPost2010Prop31
280
     0
102
RTVSPost2010PropOp31
 70
     1
102
RTVSPost2010Prop32
280
     0
102
RTVSPost2010PropOp32
 70
     1
102
RTVSPost2010Prop33
280
     0
102
RTVSPost2010PropOp33
 70
     1
102
RTVSPost2010Prop34
280
     0
102
RTVSPost2010PropOp34
 70
     1
102
RTVSPost2010Prop35
280
     0
102
RTVSPost2010PropOp35
 70
     1
102
RTVSPost2010Prop36
280
     0
102
RTVSPost2010PropOp36
 70
     1
102
RTVSPost2010Prop37
 90
       50
102
RTVSPost2010PropOp37
 70
     1
102
RTVSPost2010Prop38
140
0.0
102
RTVSPost2010PropOp38
 70
     1
102
RTVSPost2010Prop39
140
1.0
102
RTVSPost2010PropOp39
 70
     1
102
RTVSPost2010Prop40
 90
        0
102
RTVSPost2010PropOp40
 70
     1
102
RTVSPost2010Prop41ColorIndex
 90
       18
102
RTVSPost2010Prop41ColorRGB
 90
        0
102
RTVSPost2010PropOp41
 70
     1
102
RTVSPost2010Prop42
 90
       50
102
RTVSPost2010PropOp42
 70
     1
102
RTVSPost2010Prop43
 90
        3
102
RTVSPost2010PropOp43
 70
     1
102
RTVSPost2010Prop44ColorIndex
 90
        5
102
RTVSPost2010Prop44ColorRGB
 90
      255
102
RTVSPost2010PropOp44
 70
     1
102
RTVSPost2010Prop45
280
     0
102
RTVSPost2010PropOp45
 70
     1
102
RTVSPost2010Prop46
 90
       50
102
RTVSPost2010PropOp46
 70
     1
102
RTVSPost2010Prop47
 90
       50
102
RTVSPost2010PropOp47
 70
     1
102
RTVSPost2010Prop48
 90
       50
102
RTVSPost2010PropOp48
 70
     1
102
RTVSPost2010Prop49
280
     0
102
RTVSPost2010PropOp49
 70
     1
102
RTVSPost2010Prop50
 90
       50
102
RTVSPost2010PropOp50
 70
     1
102
RTVSPost2010Prop51ColorIndex
 90
      256
102
RTVSPost2010Prop51ColorRGB
 90
-16777216
102
RTVSPost2010PropOp51
 70
     0
102
RTVSPost2010Prop52
140
1.0
102
RTVSPost2010PropOp52
 70
     0
102
RTVSPost2010Prop53
 90
        2
102
RTVSPost2010PropOp53
 70
     1
102
RTVSPost2010Prop54
  1
strokes_ogs.tif
102
RTVSPost2010PropOp54
 70
     1
102
RTVSPost2010Prop55
280
     0
102
RTVSPost2010PropOp55
 70
     1
102
RTVSPost2010Prop56
140
1.0
102
RTVSPost2010PropOp56
 70
     1
102
RTVSPost2010Prop57
140
1.0
102
RTVSPost2010PropOp57
 70
     1
102
RTVSPropertyOp0
 70
     1
102
RTVSPropertyOp1
 70
     1
102
RTVSPropertyOp2
 70
     1
102
RTVSPropertyOp3
 70
     1
102
RTVSPropertyOp4
 70
     1
102
RTVSPropertyOp5
 70
     1
102
RTVSPropertyOp6
 70
     1
102
RTVSPropertyOp7
 70
     1
102
RTVSPropertyOp8
 70
     1
102
RTVSPropertyOp9
 70
     1
102
RTVSPropertyOp10
 70
     1
102
RTVSPropertyOp11
 70
     1
102
RTVSPropertyOp12
 70
     1
102
RTVSPropertyOp13
 70
     1
102
RTVSPropertyOp14
 70
     1
102
RTVSPropertyOp15
 70
     1
102
RTVSPropertyOp16
 70
     1
102
RTVSPropertyOp17
 70
     1
102
RTVSPropertyOp18
 70
     1
102
RTVSPropertyOp19
 70
     1
102
RTVSPropertyOp20
 70
     1
102
RTVSPropertyOp21
 70
     1
102
RTVSPropertyOp22
 70
     1
102
RTVSPropertyOp23
 70
     1
102
RTVSPropertyOp24
 70
     1
102
RTVSPropertyOp25
 70
     1
102
RTVSPropertyOp26
 70
     1
102
RTVSPropertyOp27
 70
     1
102
RTVSPropertyOp28
 70
     1
102
RTVSPropertyOp29
 70
     1
102
RTVSPropertyOp30
 70
     1
102
RTVSPropertyOp31
 70
     1
102
RTVSPropertyOp32
 70
     1
102
RTVSPropertyOp33
 70
     1
102
RTVSPropertyOp34
 70
     1
102
RTVSPropertyOp35
 70
     1
102
RTVSPropertyOp36
 70
     1
102
RTVSPropertyOp37
 70
     1
102
RTVSPropertyOp38
 70
     1
102
RTVSPropertyOp39
 70
     1
102
RTVSPropertyOp40
 70
     1
102
RTVSPropertyOp41
 70
     1
102
RTVSPropertyOp42
 70
     1
102
RTVSPropertyOp43
 70
     1
102
RTVSPropertyOp44
 70
     1
102
RTVSPropertyOp45
 70
     1
102
RTVSPropertyOp46
 70
     1
102
RTVSPropertyOp47
 70
     1
102
RTVSPropertyOp48
 70
     1
102
RTVSPropertyOp49
 70
     1
102
RTVSPropertyOp50
 70
     1
102
RTVSPropertyOp51
 70
     0
102
RTVSPropertyOp52
 70
     0
102
RTVSPropertyOp53
 70
     1
102
RTVSPropertyOp54
 70
     1
102
RTVSPropertyOp55
 70
     1
102
RTVSPropertyOp56
 70
     1
102
RTVSPropertyOp57
 70
     1
102
RTVSPropertyOp58
 70
     1
102
RTVSPropertyOp59
 70
     1
102
RTVSPropertyOp60
 70
     1
102
RTVSPropertyOp61
 70
     1
102
RTVSPropertyOp62
 70
     1
  0
XRECORD
  5
23DF
102
{ACAD_REACTORS
330
23DE
102
}
330
23DE
100
AcDbXrecord
280
     1
102
RTVSPost2010Prop28
280
     0
102
RTVSPost2010PropOp28
 70
     1
102
RTVSPost2010Prop29
280
     1
102
RTVSPost2010PropOp29
 70
     1
102
RTVSPost2010Prop30
280
     1
102
RTVSPost2010PropOp30
 70
     1
102
RTVSPost2010Prop31
280
     0
102
RTVSPost2010PropOp31
 70
     1
102
RTVSPost2010Prop32
280
     0
102
RTVSPost2010PropOp32
 70
     1
102
RTVSPost2010Prop33
280
     0
102
RTVSPost2010PropOp33
 70
     1
102
RTVSPost2010Prop34
280
     0
102
RTVSPost2010PropOp34
 70
     1
102
RTVSPost2010Prop35
280
     0
102
RTVSPost2010PropOp35
 70
     1
102
RTVSPost2010Prop36
280
     0
102
RTVSPost2010PropOp36
 70
     1
102
RTVSPost2010Prop37
 90
       50
102
RTVSPost2010PropOp37
 70
     1
102
RTVSPost2010Prop38
140
0.0
102
RTVSPost2010PropOp38
 70
     1
102
RTVSPost2010Prop39
140
1.0
102
RTVSPost2010PropOp39
 70
     1
102
RTVSPost2010Prop40
 90
        0
102
RTVSPost2010PropOp40
 70
     1
102
RTVSPost2010Prop41ColorIndex
 90
       18
102
RTVSPost2010Prop41ColorRGB
 90
        0
102
RTVSPost2010PropOp41
 70
     1
102
RTVSPost2010Prop42
 90
       50
102
RTVSPost2010PropOp42
 70
     1
102
RTVSPost2010Prop43
 90
        3
102
RTVSPost2010PropOp43
 70
     1
102
RTVSPost2010Prop44ColorIndex
 90
        5
102
RTVSPost2010Prop44ColorRGB
 90
      255
102
RTVSPost2010PropOp44
 70
     1
102
RTVSPost2010Prop45
280
     0
102
RTVSPost2010PropOp45
 70
     1
102
RTVSPost2010Prop46
 90
       50
102
RTVSPost2010PropOp46
 70
     1
102
RTVSPost2010Prop47
 90
       50
102
RTVSPost2010PropOp47
 70
     1
102
RTVSPost2010Prop48
 90
       50
102
RTVSPost2010PropOp48
 70
     1
102
RTVSPost2010Prop49
280
     0
102
RTVSPost2010PropOp49
 70
     1
102
RTVSPost2010Prop50
 90
       50
102
RTVSPost2010PropOp50
 70
     1
102
RTVSPost2010Prop51ColorIndex
 90
      256
102
RTVSPost2010Prop51ColorRGB
 90
-16777216
102
RTVSPost2010PropOp51
 70
     0
102
RTVSPost2010Prop52
140
1.0
102
RTVSPost2010PropOp52
 70
     0
102
RTVSPost2010Prop53
 90
        2
102
RTVSPost2010PropOp53
 70
     1
102
RTVSPost2010Prop54
  1
strokes_ogs.tif
102
RTVSPost2010PropOp54
 70
     1
102
RTVSPost2010Prop55
280
     0
102
RTVSPost2010PropOp55
 70
     1
102
RTVSPost2010Prop56
140
1.0
102
RTVSPost2010PropOp56
 70
     1
102
RTVSPost2010Prop57
140
1.0
102
RTVSPost2010PropOp57
 70
     1
102
RTVSPropertyOp0
 70
     1
102
RTVSPropertyOp1
 70
     1
102
RTVSPropertyOp2
 70
     1
102
RTVSPropertyOp3
 70
     1
102
RTVSPropertyOp4
 70
     1
102
RTVSPropertyOp5
 70
     1
102
RTVSPropertyOp6
 70
     1
102
RTVSPropertyOp7
 70
     1
102
RTVSPropertyOp8
 70
     1
102
RTVSPropertyOp9
 70
     1
102
RTVSPropertyOp10
 70
     1
102
RTVSPropertyOp11
 70
     1
102
RTVSPropertyOp12
 70
     1
102
RTVSPropertyOp13
 70
     1
102
RTVSPropertyOp14
 70
     1
102
RTVSPropertyOp15
 70
     1
102
RTVSPropertyOp16
 70
     1
102
RTVSPropertyOp17
 70
     1
102
RTVSPropertyOp18
 70
     1
102
RTVSPropertyOp19
 70
     1
102
RTVSPropertyOp20
 70
     1
102
RTVSPropertyOp21
 70
     1
102
RTVSPropertyOp22
 70
     1
102
RTVSPropertyOp23
 70
     1
102
RTVSPropertyOp24
 70
     1
102
RTVSPropertyOp25
 70
     1
102
RTVSPropertyOp26
 70
     1
102
RTVSPropertyOp27
 70
     1
102
RTVSPropertyOp28
 70
     1
102
RTVSPropertyOp29
 70
     1
102
RTVSPropertyOp30
 70
     1
102
RTVSPropertyOp31
 70
     1
102
RTVSPropertyOp32
 70
     1
102
RTVSPropertyOp33
 70
     1
102
RTVSPropertyOp34
 70
     1
102
RTVSPropertyOp35
 70
     1
102
RTVSPropertyOp36
 70
     1
102
RTVSPropertyOp37
 70
     1
102
RTVSPropertyOp38
 70
     1
102
RTVSPropertyOp39
 70
     1
102
RTVSPropertyOp40
 70
     1
102
RTVSPropertyOp41
 70
     1
102
RTVSPropertyOp42
 70
     1
102
RTVSPropertyOp43
 70
     1
102
RTVSPropertyOp44
 70
     1
102
RTVSPropertyOp45
 70
     1
102
RTVSPropertyOp46
 70
     1
102
RTVSPropertyOp47
 70
     1
102
RTVSPropertyOp48
 70
     1
102
RTVSPropertyOp49
 70
     1
102
RTVSPropertyOp50
 70
     1
102
RTVSPropertyOp51
 70
     0
102
RTVSPropertyOp52
 70
     0
102
RTVSPropertyOp53
 70
     1
102
RTVSPropertyOp54
 70
     1
102
RTVSPropertyOp55
 70
     1
102
RTVSPropertyOp56
 70
     1
102
RTVSPropertyOp57
 70
     1
102
RTVSPropertyOp58
 70
     1
102
RTVSPropertyOp59
 70
     1
102
RTVSPropertyOp60
 70
     1
102
RTVSPropertyOp61
 70
     1
102
RTVSPropertyOp62
 70
     1
  0
XRECORD
  5
23E3
102
{ACAD_REACTORS
330
23E2
102
}
330
23E2
100
AcDbXrecord
280
     1
102
RTVSPost2010Prop28
280
     0
102
RTVSPost2010PropOp28
 70
     1
102
RTVSPost2010Prop29
280
     1
102
RTVSPost2010PropOp29
 70
     1
102
RTVSPost2010Prop30
280
     1
102
RTVSPost2010PropOp30
 70
     1
102
RTVSPost2010Prop31
280
     0
102
RTVSPost2010PropOp31
 70
     1
102
RTVSPost2010Prop32
280
     0
102
RTVSPost2010PropOp32
 70
     1
102
RTVSPost2010Prop33
280
     0
102
RTVSPost2010PropOp33
 70
     1
102
RTVSPost2010Prop34
280
     0
102
RTVSPost2010PropOp34
 70
     1
102
RTVSPost2010Prop35
280
     0
102
RTVSPost2010PropOp35
 70
     1
102
RTVSPost2010Prop36
280
     0
102
RTVSPost2010PropOp36
 70
     1
102
RTVSPost2010Prop37
 90
       50
102
RTVSPost2010PropOp37
 70
     1
102
RTVSPost2010Prop38
140
0.0
102
RTVSPost2010PropOp38
 70
     1
102
RTVSPost2010Prop39
140
1.0
102
RTVSPost2010PropOp39
 70
     1
102
RTVSPost2010Prop40
 90
        0
102
RTVSPost2010PropOp40
 70
     1
102
RTVSPost2010Prop41ColorIndex
 90
       18
102
RTVSPost2010Prop41ColorRGB
 90
        0
102
RTVSPost2010PropOp41
 70
     1
102
RTVSPost2010Prop42
 90
       50
102
RTVSPost2010PropOp42
 70
     1
102
RTVSPost2010Prop43
 90
        3
102
RTVSPost2010PropOp43
 70
     1
102
RTVSPost2010Prop44ColorIndex
 90
        5
102
RTVSPost2010Prop44ColorRGB
 90
      255
102
RTVSPost2010PropOp44
 70
     1
102
RTVSPost2010Prop45
280
     0
102
RTVSPost2010PropOp45
 70
     1
102
RTVSPost2010Prop46
 90
       50
102
RTVSPost2010PropOp46
 70
     1
102
RTVSPost2010Prop47
 90
       50
102
RTVSPost2010PropOp47
 70
     1
102
RTVSPost2010Prop48
 90
       50
102
RTVSPost2010PropOp48
 70
     1
102
RTVSPost2010Prop49
280
     0
102
RTVSPost2010PropOp49
 70
     1
102
RTVSPost2010Prop50
 90
       50
102
RTVSPost2010PropOp50
 70
     1
102
RTVSPost2010Prop51ColorIndex
 90
      256
102
RTVSPost2010Prop51ColorRGB
 90
-16777216
102
RTVSPost2010PropOp51
 70
     0
102
RTVSPost2010Prop52
140
1.0
102
RTVSPost2010PropOp52
 70
     0
102
RTVSPost2010Prop53
 90
        2
102
RTVSPost2010PropOp53
 70
     1
102
RTVSPost2010Prop54
  1
strokes_ogs.tif
102
RTVSPost2010PropOp54
 70
     1
102
RTVSPost2010Prop55
280
     0
102
RTVSPost2010PropOp55
 70
     1
102
RTVSPost2010Prop56
140
1.0
102
RTVSPost2010PropOp56
 70
     1
102
RTVSPost2010Prop57
140
1.0
102
RTVSPost2010PropOp57
 70
     1
102
RTVSPropertyOp0
 70
     1
102
RTVSPropertyOp1
 70
     1
102
RTVSPropertyOp2
 70
     1
102
RTVSPropertyOp3
 70
     1
102
RTVSPropertyOp4
 70
     1
102
RTVSPropertyOp5
 70
     1
102
RTVSPropertyOp6
 70
     1
102
RTVSPropertyOp7
 70
     1
102
RTVSPropertyOp8
 70
     1
102
RTVSPropertyOp9
 70
     1
102
RTVSPropertyOp10
 70
     1
102
RTVSPropertyOp11
 70
     1
102
RTVSPropertyOp12
 70
     1
102
RTVSPropertyOp13
 70
     1
102
RTVSPropertyOp14
 70
     1
102
RTVSPropertyOp15
 70
     1
102
RTVSPropertyOp16
 70
     1
102
RTVSPropertyOp17
 70
     1
102
RTVSPropertyOp18
 70
     1
102
RTVSPropertyOp19
 70
     1
102
RTVSPropertyOp20
 70
     1
102
RTVSPropertyOp21
 70
     1
102
RTVSPropertyOp22
 70
     1
102
RTVSPropertyOp23
 70
     1
102
RTVSPropertyOp24
 70
     1
102
RTVSPropertyOp25
 70
     1
102
RTVSPropertyOp26
 70
     1
102
RTVSPropertyOp27
 70
     1
102
RTVSPropertyOp28
 70
     1
102
RTVSPropertyOp29
 70
     1
102
RTVSPropertyOp30
 70
     1
102
RTVSPropertyOp31
 70
     1
102
RTVSPropertyOp32
 70
     1
102
RTVSPropertyOp33
 70
     1
102
RTVSPropertyOp34
 70
     1
102
RTVSPropertyOp35
 70
     1
102
RTVSPropertyOp36
 70
     1
102
RTVSPropertyOp37
 70
     1
102
RTVSPropertyOp38
 70
     1
102
RTVSPropertyOp39
 70
     1
102
RTVSPropertyOp40
 70
     1
102
RTVSPropertyOp41
 70
     1
102
RTVSPropertyOp42
 70
     1
102
RTVSPropertyOp43
 70
     1
102
RTVSPropertyOp44
 70
     1
102
RTVSPropertyOp45
 70
     1
102
RTVSPropertyOp46
 70
     1
102
RTVSPropertyOp47
 70
     1
102
RTVSPropertyOp48
 70
     1
102
RTVSPropertyOp49
 70
     1
102
RTVSPropertyOp50
 70
     1
102
RTVSPropertyOp51
 70
     0
102
RTVSPropertyOp52
 70
     0
102
RTVSPropertyOp53
 70
     1
102
RTVSPropertyOp54
 70
     1
102
RTVSPropertyOp55
 70
     1
102
RTVSPropertyOp56
 70
     1
102
RTVSPropertyOp57
 70
     1
102
RTVSPropertyOp58
 70
     1
102
RTVSPropertyOp59
 70
     1
102
RTVSPropertyOp60
 70
     1
102
RTVSPropertyOp61
 70
     1
102
RTVSPropertyOp62
 70
     1
  0
XRECORD
  5
23FD
102
{ACAD_REACTORS
330
23FC
102
}
330
23FC
100
AcDbXrecord
280
     1
102
RTVSPost2010Prop28
280
     0
102
RTVSPost2010PropOp28
 70
     0
102
RTVSPost2010Prop29
280
     1
102
RTVSPost2010PropOp29
 70
     0
102
RTVSPost2010Prop30
280
     1
102
RTVSPost2010PropOp30
 70
     0
102
RTVSPost2010Prop31
280
     0
102
RTVSPost2010PropOp31
 70
     0
102
RTVSPost2010Prop32
280
     0
102
RTVSPost2010PropOp32
 70
     0
102
RTVSPost2010Prop33
280
     0
102
RTVSPost2010PropOp33
 70
     0
102
RTVSPost2010Prop34
280
     0
102
RTVSPost2010PropOp34
 70
     0
102
RTVSPost2010Prop35
280
     0
102
RTVSPost2010PropOp35
 70
     0
102
RTVSPost2010Prop36
280
     0
102
RTVSPost2010PropOp36
 70
     0
102
RTVSPost2010Prop37
 90
       50
102
RTVSPost2010PropOp37
 70
     0
102
RTVSPost2010Prop38
140
0.0
102
RTVSPost2010PropOp38
 70
     0
102
RTVSPost2010Prop39
140
1.0
102
RTVSPost2010PropOp39
 70
     0
102
RTVSPost2010Prop40
 90
        0
102
RTVSPost2010PropOp40
 70
     0
102
RTVSPost2010Prop41ColorIndex
 90
       18
102
RTVSPost2010Prop41ColorRGB
 90
        0
102
RTVSPost2010PropOp41
 70
     0
102
RTVSPost2010Prop42
 90
       50
102
RTVSPost2010PropOp42
 70
     0
102
RTVSPost2010Prop43
 90
        3
102
RTVSPost2010PropOp43
 70
     0
102
RTVSPost2010Prop44ColorIndex
 90
        5
102
RTVSPost2010Prop44ColorRGB
 90
      255
102
RTVSPost2010PropOp44
 70
     0
102
RTVSPost2010Prop45
280
     0
102
RTVSPost2010PropOp45
 70
     0
102
RTVSPost2010Prop46
 90
       50
102
RTVSPost2010PropOp46
 70
     0
102
RTVSPost2010Prop47
 90
       50
102
RTVSPost2010PropOp47
 70
     0
102
RTVSPost2010Prop48
 90
       50
102
RTVSPost2010PropOp48
 70
     0
102
RTVSPost2010Prop49
280
     0
102
RTVSPost2010PropOp49
 70
     0
102
RTVSPost2010Prop50
 90
       50
102
RTVSPost2010PropOp50
 70
     0
102
RTVSPost2010Prop51ColorIndex
 90
      256
102
RTVSPost2010Prop51ColorRGB
 90
-16777216
102
RTVSPost2010PropOp51
 70
     0
102
RTVSPost2010Prop52
140
1.0
102
RTVSPost2010PropOp52
 70
     0
102
RTVSPost2010Prop53
 90
        2
102
RTVSPost2010PropOp53
 70
     0
102
RTVSPost2010Prop54
  1
strokes_ogs.tif
102
RTVSPost2010PropOp54
 70
     0
102
RTVSPost2010Prop55
280
     0
102
RTVSPost2010PropOp55
 70
     0
102
RTVSPost2010Prop56
140
1.0
102
RTVSPost2010PropOp56
 70
     0
102
RTVSPost2010Prop57
140
1.0
102
RTVSPost2010PropOp57
 70
     0
102
RTVSPropertyOp0
 70
     0
102
RTVSPropertyOp1
 70
     0
102
RTVSPropertyOp2
 70
     0
102
RTVSPropertyOp3
 70
     0
102
RTVSPropertyOp4
 70
     0
102
RTVSPropertyOp5
 70
     0
102
RTVSPropertyOp6
 70
     0
102
RTVSPropertyOp7
 70
     0
102
RTVSPropertyOp8
 70
     0
102
RTVSPropertyOp9
 70
     0
102
RTVSPropertyOp10
 70
     0
102
RTVSPropertyOp11
 70
     0
102
RTVSPropertyOp12
 70
     0
102
RTVSPropertyOp13
 70
     0
102
RTVSPropertyOp14
 70
     2
102
RTVSPropertyOp15
 70
     0
102
RTVSPropertyOp16
 70
     0
102
RTVSPropertyOp17
 70
     0
102
RTVSPropertyOp18
 70
     0
102
RTVSPropertyOp19
 70
     0
102
RTVSPropertyOp20
 70
     0
102
RTVSPropertyOp21
 70
     0
102
RTVSPropertyOp22
 70
     0
102
RTVSPropertyOp23
 70
     0
102
RTVSPropertyOp24
 70
     0
102
RTVSPropertyOp25
 70
     0
102
RTVSPropertyOp26
 70
     0
102
RTVSPropertyOp27
 70
     0
102
RTVSPropertyOp28
 70
     0
102
RTVSPropertyOp29
 70
     0
102
RTVSPropertyOp30
 70
     0
102
RTVSPropertyOp31
 70
     0
102
RTVSPropertyOp32
 70
     0
102
RTVSPropertyOp33
 70
     0
102
RTVSPropertyOp34
 70
     0
102
RTVSPropertyOp35
 70
     0
102
RTVSPropertyOp36
 70
     0
102
RTVSPropertyOp37
 70
     0
102
RTVSPropertyOp38
 70
     0
102
RTVSPropertyOp39
 70
     0
102
RTVSPropertyOp40
 70
     0
102
RTVSPropertyOp41
 70
     0
102
RTVSPropertyOp42
 70
     0
102
RTVSPropertyOp43
 70
     0
102
RTVSPropertyOp44
 70
     0
102
RTVSPropertyOp45
 70
     0
102
RTVSPropertyOp46
 70
     0
102
RTVSPropertyOp47
 70
     0
102
RTVSPropertyOp48
 70
     0
102
RTVSPropertyOp49
 70
     0
102
RTVSPropertyOp50
 70
     0
102
RTVSPropertyOp51
 70
     0
102
RTVSPropertyOp52
 70
     0
102
RTVSPropertyOp53
 70
     0
102
RTVSPropertyOp54
 70
     0
102
RTVSPropertyOp55
 70
     0
102
RTVSPropertyOp56
 70
     0
102
RTVSPropertyOp57
 70
     0
102
RTVSPropertyOp58
 70
     0
102
RTVSPropertyOp59
 70
     0
102
RTVSPropertyOp60
 70
     0
102
RTVSPropertyOp61
 70
     0
102
RTVSPropertyOp62
 70
     0
  0
XRECORD
  5
23EB
102
{ACAD_REACTORS
330
23EA
102
}
330
23EA
100
AcDbXrecord
280
     1
102
RTVSPost2010Prop28
280
     0
102
RTVSPost2010PropOp28
 70
     1
102
RTVSPost2010Prop29
280
     1
102
RTVSPost2010PropOp29
 70
     1
102
RTVSPost2010Prop30
280
     1
102
RTVSPost2010PropOp30
 70
     1
102
RTVSPost2010Prop31
280
     0
102
RTVSPost2010PropOp31
 70
     1
102
RTVSPost2010Prop32
280
     0
102
RTVSPost2010PropOp32
 70
     1
102
RTVSPost2010Prop33
280
     0
102
RTVSPost2010PropOp33
 70
     1
102
RTVSPost2010Prop34
280
     0
102
RTVSPost2010PropOp34
 70
     1
102
RTVSPost2010Prop35
280
     0
102
RTVSPost2010PropOp35
 70
     1
102
RTVSPost2010Prop36
280
     0
102
RTVSPost2010PropOp36
 70
     1
102
RTVSPost2010Prop37
 90
       50
102
RTVSPost2010PropOp37
 70
     1
102
RTVSPost2010Prop38
140
0.0
102
RTVSPost2010PropOp38
 70
     1
102
RTVSPost2010Prop39
140
1.0
102
RTVSPost2010PropOp39
 70
     1
102
RTVSPost2010Prop40
 90
        0
102
RTVSPost2010PropOp40
 70
     1
102
RTVSPost2010Prop41ColorIndex
 90
       18
102
RTVSPost2010Prop41ColorRGB
 90
        0
102
RTVSPost2010PropOp41
 70
     1
102
RTVSPost2010Prop42
 90
       50
102
RTVSPost2010PropOp42
 70
     1
102
RTVSPost2010Prop43
 90
        3
102
RTVSPost2010PropOp43
 70
     1
102
RTVSPost2010Prop44ColorIndex
 90
        5
102
RTVSPost2010Prop44ColorRGB
 90
      255
102
RTVSPost2010PropOp44
 70
     1
102
RTVSPost2010Prop45
280
     0
102
RTVSPost2010PropOp45
 70
     1
102
RTVSPost2010Prop46
 90
       50
102
RTVSPost2010PropOp46
 70
     1
102
RTVSPost2010Prop47
 90
       50
102
RTVSPost2010PropOp47
 70
     1
102
RTVSPost2010Prop48
 90
       50
102
RTVSPost2010PropOp48
 70
     1
102
RTVSPost2010Prop49
280
     0
102
RTVSPost2010PropOp49
 70
     1
102
RTVSPost2010Prop50
 90
       50
102
RTVSPost2010PropOp50
 70
     1
102
RTVSPost2010Prop51ColorIndex
 90
      256
102
RTVSPost2010Prop51ColorRGB
 90
-16777216
102
RTVSPost2010PropOp51
 70
     0
102
RTVSPost2010Prop52
140
1.0
102
RTVSPost2010PropOp52
 70
     0
102
RTVSPost2010Prop53
 90
        2
102
RTVSPost2010PropOp53
 70
     1
102
RTVSPost2010Prop54
  1
strokes_ogs.tif
102
RTVSPost2010PropOp54
 70
     1
102
RTVSPost2010Prop55
280
     0
102
RTVSPost2010PropOp55
 70
     1
102
RTVSPost2010Prop56
140
1.0
102
RTVSPost2010PropOp56
 70
     1
102
RTVSPost2010Prop57
140
1.0
102
RTVSPost2010PropOp57
 70
     1
102
RTVSPropertyOp0
 70
     1
102
RTVSPropertyOp1
 70
     1
102
RTVSPropertyOp2
 70
     1
102
RTVSPropertyOp3
 70
     1
102
RTVSPropertyOp4
 70
     1
102
RTVSPropertyOp5
 70
     1
102
RTVSPropertyOp6
 70
     1
102
RTVSPropertyOp7
 70
     1
102
RTVSPropertyOp8
 70
     1
102
RTVSPropertyOp9
 70
     1
102
RTVSPropertyOp10
 70
     1
102
RTVSPropertyOp11
 70
     1
102
RTVSPropertyOp12
 70
     1
102
RTVSPropertyOp13
 70
     1
102
RTVSPropertyOp14
 70
     1
102
RTVSPropertyOp15
 70
     1
102
RTVSPropertyOp16
 70
     1
102
RTVSPropertyOp17
 70
     1
102
RTVSPropertyOp18
 70
     1
102
RTVSPropertyOp19
 70
     1
102
RTVSPropertyOp20
 70
     1
102
RTVSPropertyOp21
 70
     1
102
RTVSPropertyOp22
 70
     1
102
RTVSPropertyOp23
 70
     1
102
RTVSPropertyOp24
 70
     1
102
RTVSPropertyOp25
 70
     1
102
RTVSPropertyOp26
 70
     1
102
RTVSPropertyOp27
 70
     1
102
RTVSPropertyOp28
 70
     1
102
RTVSPropertyOp29
 70
     1
102
RTVSPropertyOp30
 70
     1
102
RTVSPropertyOp31
 70
     1
102
RTVSPropertyOp32
 70
     1
102
RTVSPropertyOp33
 70
     1
102
RTVSPropertyOp34
 70
     1
102
RTVSPropertyOp35
 70
     1
102
RTVSPropertyOp36
 70
     1
102
RTVSPropertyOp37
 70
     1
102
RTVSPropertyOp38
 70
     1
102
RTVSPropertyOp39
 70
     1
102
RTVSPropertyOp40
 70
     1
102
RTVSPropertyOp41
 70
     1
102
RTVSPropertyOp42
 70
     1
102
RTVSPropertyOp43
 70
     1
102
RTVSPropertyOp44
 70
     1
102
RTVSPropertyOp45
 70
     1
102
RTVSPropertyOp46
 70
     1
102
RTVSPropertyOp47
 70
     1
102
RTVSPropertyOp48
 70
     1
102
RTVSPropertyOp49
 70
     1
102
RTVSPropertyOp50
 70
     1
102
RTVSPropertyOp51
 70
     0
102
RTVSPropertyOp52
 70
     0
102
RTVSPropertyOp53
 70
     1
102
RTVSPropertyOp54
 70
     1
102
RTVSPropertyOp55
 70
     1
102
RTVSPropertyOp56
 70
     1
102
RTVSPropertyOp57
 70
     1
102
RTVSPropertyOp58
 70
     1
102
RTVSPropertyOp59
 70
     1
102
RTVSPropertyOp60
 70
     1
102
RTVSPropertyOp61
 70
     1
102
RTVSPropertyOp62
 70
     1
  0
XRECORD
  5
23CF
102
{ACAD_REACTORS
330
23CE
102
}
330
23CE
100
AcDbXrecord
280
     1
102
RTVSPost2010Prop28
280
     0
102
RTVSPost2010PropOp28
 70
     1
102
RTVSPost2010Prop29
280
     1
102
RTVSPost2010PropOp29
 70
     1
102
RTVSPost2010Prop30
280
     1
102
RTVSPost2010PropOp30
 70
     1
102
RTVSPost2010Prop31
280
     0
102
RTVSPost2010PropOp31
 70
     1
102
RTVSPost2010Prop32
280
     0
102
RTVSPost2010PropOp32
 70
     1
102
RTVSPost2010Prop33
280
     0
102
RTVSPost2010PropOp33
 70
     1
102
RTVSPost2010Prop34
280
     0
102
RTVSPost2010PropOp34
 70
     1
102
RTVSPost2010Prop35
280
     0
102
RTVSPost2010PropOp35
 70
     1
102
RTVSPost2010Prop36
280
     0
102
RTVSPost2010PropOp36
 70
     1
102
RTVSPost2010Prop37
 90
       50
102
RTVSPost2010PropOp37
 70
     1
102
RTVSPost2010Prop38
140
0.0
102
RTVSPost2010PropOp38
 70
     1
102
RTVSPost2010Prop39
140
1.0
102
RTVSPost2010PropOp39
 70
     1
102
RTVSPost2010Prop40
 90
        0
102
RTVSPost2010PropOp40
 70
     1
102
RTVSPost2010Prop41ColorIndex
 90
       18
102
RTVSPost2010Prop41ColorRGB
 90
        0
102
RTVSPost2010PropOp41
 70
     1
102
RTVSPost2010Prop42
 90
       50
102
RTVSPost2010PropOp42
 70
     1
102
RTVSPost2010Prop43
 90
        3
102
RTVSPost2010PropOp43
 70
     1
102
RTVSPost2010Prop44ColorIndex
 90
        5
102
RTVSPost2010Prop44ColorRGB
 90
      255
102
RTVSPost2010PropOp44
 70
     1
102
RTVSPost2010Prop45
280
     0
102
RTVSPost2010PropOp45
 70
     1
102
RTVSPost2010Prop46
 90
       50
102
RTVSPost2010PropOp46
 70
     1
102
RTVSPost2010Prop47
 90
       50
102
RTVSPost2010PropOp47
 70
     1
102
RTVSPost2010Prop48
 90
       50
102
RTVSPost2010PropOp48
 70
     1
102
RTVSPost2010Prop49
280
     0
102
RTVSPost2010PropOp49
 70
     1
102
RTVSPost2010Prop50
 90
       50
102
RTVSPost2010PropOp50
 70
     1
102
RTVSPost2010Prop51ColorIndex
 90
      256
102
RTVSPost2010Prop51ColorRGB
 90
-16777216
102
RTVSPost2010PropOp51
 70
     0
102
RTVSPost2010Prop52
140
1.0
102
RTVSPost2010PropOp52
 70
     0
102
RTVSPost2010Prop53
 90
        2
102
RTVSPost2010PropOp53
 70
     1
102
RTVSPost2010Prop54
  1
strokes_ogs.tif
102
RTVSPost2010PropOp54
 70
     1
102
RTVSPost2010Prop55
280
     0
102
RTVSPost2010PropOp55
 70
     1
102
RTVSPost2010Prop56
140
1.0
102
RTVSPost2010PropOp56
 70
     1
102
RTVSPost2010Prop57
140
1.0
102
RTVSPost2010PropOp57
 70
     1
102
RTVSPropertyOp0
 70
     1
102
RTVSPropertyOp1
 70
     1
102
RTVSPropertyOp2
 70
     1
102
RTVSPropertyOp3
 70
     1
102
RTVSPropertyOp4
 70
     1
102
RTVSPropertyOp5
 70
     1
102
RTVSPropertyOp6
 70
     1
102
RTVSPropertyOp7
 70
     1
102
RTVSPropertyOp8
 70
     1
102
RTVSPropertyOp9
 70
     1
102
RTVSPropertyOp10
 70
     1
102
RTVSPropertyOp11
 70
     1
102
RTVSPropertyOp12
 70
     1
102
RTVSPropertyOp13
 70
     1
102
RTVSPropertyOp14
 70
     1
102
RTVSPropertyOp15
 70
     1
102
RTVSPropertyOp16
 70
     1
102
RTVSPropertyOp17
 70
     1
102
RTVSPropertyOp18
 70
     1
102
RTVSPropertyOp19
 70
     1
102
RTVSPropertyOp20
 70
     1
102
RTVSPropertyOp21
 70
     1
102
RTVSPropertyOp22
 70
     1
102
RTVSPropertyOp23
 70
     1
102
RTVSPropertyOp24
 70
     1
102
RTVSPropertyOp25
 70
     1
102
RTVSPropertyOp26
 70
     1
102
RTVSPropertyOp27
 70
     1
102
RTVSPropertyOp28
 70
     1
102
RTVSPropertyOp29
 70
     1
102
RTVSPropertyOp30
 70
     1
102
RTVSPropertyOp31
 70
     1
102
RTVSPropertyOp32
 70
     1
102
RTVSPropertyOp33
 70
     1
102
RTVSPropertyOp34
 70
     1
102
RTVSPropertyOp35
 70
     1
102
RTVSPropertyOp36
 70
     1
102
RTVSPropertyOp37
 70
     1
102
RTVSPropertyOp38
 70
     1
102
RTVSPropertyOp39
 70
     1
102
RTVSPropertyOp40
 70
     1
102
RTVSPropertyOp41
 70
     1
102
RTVSPropertyOp42
 70
     1
102
RTVSPropertyOp43
 70
     1
102
RTVSPropertyOp44
 70
     1
102
RTVSPropertyOp45
 70
     1
102
RTVSPropertyOp46
 70
     1
102
RTVSPropertyOp47
 70
     1
102
RTVSPropertyOp48
 70
     1
102
RTVSPropertyOp49
 70
     1
102
RTVSPropertyOp50
 70
     1
102
RTVSPropertyOp51
 70
     0
102
RTVSPropertyOp52
 70
     0
102
RTVSPropertyOp53
 70
     1
102
RTVSPropertyOp54
 70
     1
102
RTVSPropertyOp55
 70
     1
102
RTVSPropertyOp56
 70
     1
102
RTVSPropertyOp57
 70
     1
102
RTVSPropertyOp58
 70
     1
102
RTVSPropertyOp59
 70
     1
102
RTVSPropertyOp60
 70
     1
102
RTVSPropertyOp61
 70
     1
102
RTVSPropertyOp62
 70
     1
  0
XRECORD
  5
23D1
102
{ACAD_REACTORS
330
23D0
102
}
330
23D0
100
AcDbXrecord
280
     1
102
RTVSPost2010Prop28
280
     0
102
RTVSPost2010PropOp28
 70
     1
102
RTVSPost2010Prop29
280
     1
102
RTVSPost2010PropOp29
 70
     1
102
RTVSPost2010Prop30
280
     1
102
RTVSPost2010PropOp30
 70
     1
102
RTVSPost2010Prop31
280
     0
102
RTVSPost2010PropOp31
 70
     1
102
RTVSPost2010Prop32
280
     0
102
RTVSPost2010PropOp32
 70
     1
102
RTVSPost2010Prop33
280
     0
102
RTVSPost2010PropOp33
 70
     1
102
RTVSPost2010Prop34
280
     0
102
RTVSPost2010PropOp34
 70
     1
102
RTVSPost2010Prop35
280
     0
102
RTVSPost2010PropOp35
 70
     1
102
RTVSPost2010Prop36
280
     0
102
RTVSPost2010PropOp36
 70
     1
102
RTVSPost2010Prop37
 90
       50
102
RTVSPost2010PropOp37
 70
     1
102
RTVSPost2010Prop38
140
0.0
102
RTVSPost2010PropOp38
 70
     1
102
RTVSPost2010Prop39
140
1.0
102
RTVSPost2010PropOp39
 70
     1
102
RTVSPost2010Prop40
 90
        0
102
RTVSPost2010PropOp40
 70
     1
102
RTVSPost2010Prop41ColorIndex
 90
       18
102
RTVSPost2010Prop41ColorRGB
 90
        0
102
RTVSPost2010PropOp41
 70
     1
102
RTVSPost2010Prop42
 90
       50
102
RTVSPost2010PropOp42
 70
     1
102
RTVSPost2010Prop43
 90
        3
102
RTVSPost2010PropOp43
 70
     1
102
RTVSPost2010Prop44ColorIndex
 90
        5
102
RTVSPost2010Prop44ColorRGB
 90
      255
102
RTVSPost2010PropOp44
 70
     1
102
RTVSPost2010Prop45
280
     0
102
RTVSPost2010PropOp45
 70
     1
102
RTVSPost2010Prop46
 90
       50
102
RTVSPost2010PropOp46
 70
     1
102
RTVSPost2010Prop47
 90
       50
102
RTVSPost2010PropOp47
 70
     1
102
RTVSPost2010Prop48
 90
       50
102
RTVSPost2010PropOp48
 70
     1
102
RTVSPost2010Prop49
280
     0
102
RTVSPost2010PropOp49
 70
     1
102
RTVSPost2010Prop50
 90
       50
102
RTVSPost2010PropOp50
 70
     1
102
RTVSPost2010Prop51ColorIndex
 90
      256
102
RTVSPost2010Prop51ColorRGB
 90
-16777216
102
RTVSPost2010PropOp51
 70
     0
102
RTVSPost2010Prop52
140
1.0
102
RTVSPost2010PropOp52
 70
     0
102
RTVSPost2010Prop53
 90
        2
102
RTVSPost2010PropOp53
 70
     1
102
RTVSPost2010Prop54
  1
strokes_ogs.tif
102
RTVSPost2010PropOp54
 70
     1
102
RTVSPost2010Prop55
280
     0
102
RTVSPost2010PropOp55
 70
     1
102
RTVSPost2010Prop56
140
1.0
102
RTVSPost2010PropOp56
 70
     1
102
RTVSPost2010Prop57
140
1.0
102
RTVSPost2010PropOp57
 70
     1
102
RTVSPropertyOp0
 70
     1
102
RTVSPropertyOp1
 70
     1
102
RTVSPropertyOp2
 70
     1
102
RTVSPropertyOp3
 70
     1
102
RTVSPropertyOp4
 70
     1
102
RTVSPropertyOp5
 70
     1
102
RTVSPropertyOp6
 70
     1
102
RTVSPropertyOp7
 70
     1
102
RTVSPropertyOp8
 70
     1
102
RTVSPropertyOp9
 70
     1
102
RTVSPropertyOp10
 70
     1
102
RTVSPropertyOp11
 70
     1
102
RTVSPropertyOp12
 70
     1
102
RTVSPropertyOp13
 70
     1
102
RTVSPropertyOp14
 70
     1
102
RTVSPropertyOp15
 70
     1
102
RTVSPropertyOp16
 70
     1
102
RTVSPropertyOp17
 70
     1
102
RTVSPropertyOp18
 70
     1
102
RTVSPropertyOp19
 70
     1
102
RTVSPropertyOp20
 70
     1
102
RTVSPropertyOp21
 70
     1
102
RTVSPropertyOp22
 70
     1
102
RTVSPropertyOp23
 70
     1
102
RTVSPropertyOp24
 70
     1
102
RTVSPropertyOp25
 70
     1
102
RTVSPropertyOp26
 70
     1
102
RTVSPropertyOp27
 70
     1
102
RTVSPropertyOp28
 70
     1
102
RTVSPropertyOp29
 70
     1
102
RTVSPropertyOp30
 70
     1
102
RTVSPropertyOp31
 70
     1
102
RTVSPropertyOp32
 70
     1
102
RTVSPropertyOp33
 70
     1
102
RTVSPropertyOp34
 70
     1
102
RTVSPropertyOp35
 70
     1
102
RTVSPropertyOp36
 70
     1
102
RTVSPropertyOp37
 70
     1
102
RTVSPropertyOp38
 70
     1
102
RTVSPropertyOp39
 70
     1
102
RTVSPropertyOp40
 70
     1
102
RTVSPropertyOp41
 70
     1
102
RTVSPropertyOp42
 70
     1
102
RTVSPropertyOp43
 70
     1
102
RTVSPropertyOp44
 70
     1
102
RTVSPropertyOp45
 70
     1
102
RTVSPropertyOp46
 70
     1
102
RTVSPropertyOp47
 70
     1
102
RTVSPropertyOp48
 70
     1
102
RTVSPropertyOp49
 70
     1
102
RTVSPropertyOp50
 70
     1
102
RTVSPropertyOp51
 70
     0
102
RTVSPropertyOp52
 70
     0
102
RTVSPropertyOp53
 70
     1
102
RTVSPropertyOp54
 70
     1
102
RTVSPropertyOp55
 70
     1
102
RTVSPropertyOp56
 70
     1
102
RTVSPropertyOp57
 70
     1
102
RTVSPropertyOp58
 70
     1
102
RTVSPropertyOp59
 70
     1
102
RTVSPropertyOp60
 70
     1
102
RTVSPropertyOp61
 70
     1
102
RTVSPropertyOp62
 70
     1
  0
XRECORD
  5
23D3
102
{ACAD_REACTORS
330
23D2
102
}
330
23D2
100
AcDbXrecord
280
     1
102
RTVSPost2010Prop28
280
     0
102
RTVSPost2010PropOp28
 70
     1
102
RTVSPost2010Prop29
280
     1
102
RTVSPost2010PropOp29
 70
     1
102
RTVSPost2010Prop30
280
     1
102
RTVSPost2010PropOp30
 70
     1
102
RTVSPost2010Prop31
280
     0
102
RTVSPost2010PropOp31
 70
     1
102
RTVSPost2010Prop32
280
     0
102
RTVSPost2010PropOp32
 70
     1
102
RTVSPost2010Prop33
280
     0
102
RTVSPost2010PropOp33
 70
     1
102
RTVSPost2010Prop34
280
     0
102
RTVSPost2010PropOp34
 70
     1
102
RTVSPost2010Prop35
280
     0
102
RTVSPost2010PropOp35
 70
     1
102
RTVSPost2010Prop36
280
     0
102
RTVSPost2010PropOp36
 70
     1
102
RTVSPost2010Prop37
 90
       50
102
RTVSPost2010PropOp37
 70
     1
102
RTVSPost2010Prop38
140
0.0
102
RTVSPost2010PropOp38
 70
     1
102
RTVSPost2010Prop39
140
1.0
102
RTVSPost2010PropOp39
 70
     1
102
RTVSPost2010Prop40
 90
        0
102
RTVSPost2010PropOp40
 70
     1
102
RTVSPost2010Prop41ColorIndex
 90
       18
102
RTVSPost2010Prop41ColorRGB
 90
        0
102
RTVSPost2010PropOp41
 70
     1
102
RTVSPost2010Prop42
 90
       50
102
RTVSPost2010PropOp42
 70
     1
102
RTVSPost2010Prop43
 90
        3
102
RTVSPost2010PropOp43
 70
     1
102
RTVSPost2010Prop44ColorIndex
 90
        5
102
RTVSPost2010Prop44ColorRGB
 90
      255
102
RTVSPost2010PropOp44
 70
     1
102
RTVSPost2010Prop45
280
     0
102
RTVSPost2010PropOp45
 70
     1
102
RTVSPost2010Prop46
 90
       50
102
RTVSPost2010PropOp46
 70
     1
102
RTVSPost2010Prop47
 90
       50
102
RTVSPost2010PropOp47
 70
     1
102
RTVSPost2010Prop48
 90
       50
102
RTVSPost2010PropOp48
 70
     1
102
RTVSPost2010Prop49
280
     0
102
RTVSPost2010PropOp49
 70
     1
102
RTVSPost2010Prop50
 90
       50
102
RTVSPost2010PropOp50
 70
     1
102
RTVSPost2010Prop51ColorIndex
 90
      256
102
RTVSPost2010Prop51ColorRGB
 90
-16777216
102
RTVSPost2010PropOp51
 70
     0
102
RTVSPost2010Prop52
140
1.0
102
RTVSPost2010PropOp52
 70
     0
102
RTVSPost2010Prop53
 90
        2
102
RTVSPost2010PropOp53
 70
     1
102
RTVSPost2010Prop54
  1
strokes_ogs.tif
102
RTVSPost2010PropOp54
 70
     1
102
RTVSPost2010Prop55
280
     0
102
RTVSPost2010PropOp55
 70
     1
102
RTVSPost2010Prop56
140
1.0
102
RTVSPost2010PropOp56
 70
     1
102
RTVSPost2010Prop57
140
1.0
102
RTVSPost2010PropOp57
 70
     1
102
RTVSPropertyOp0
 70
     1
102
RTVSPropertyOp1
 70
     1
102
RTVSPropertyOp2
 70
     1
102
RTVSPropertyOp3
 70
     1
102
RTVSPropertyOp4
 70
     1
102
RTVSPropertyOp5
 70
     1
102
RTVSPropertyOp6
 70
     1
102
RTVSPropertyOp7
 70
     1
102
RTVSPropertyOp8
 70
     1
102
RTVSPropertyOp9
 70
     1
102
RTVSPropertyOp10
 70
     1
102
RTVSPropertyOp11
 70
     1
102
RTVSPropertyOp12
 70
     1
102
RTVSPropertyOp13
 70
     1
102
RTVSPropertyOp14
 70
     1
102
RTVSPropertyOp15
 70
     1
102
RTVSPropertyOp16
 70
     1
102
RTVSPropertyOp17
 70
     1
102
RTVSPropertyOp18
 70
     1
102
RTVSPropertyOp19
 70
     1
102
RTVSPropertyOp20
 70
     1
102
RTVSPropertyOp21
 70
     1
102
RTVSPropertyOp22
 70
     1
102
RTVSPropertyOp23
 70
     1
102
RTVSPropertyOp24
 70
     1
102
RTVSPropertyOp25
 70
     1
102
RTVSPropertyOp26
 70
     1
102
RTVSPropertyOp27
 70
     1
102
RTVSPropertyOp28
 70
     1
102
RTVSPropertyOp29
 70
     1
102
RTVSPropertyOp30
 70
     1
102
RTVSPropertyOp31
 70
     1
102
RTVSPropertyOp32
 70
     1
102
RTVSPropertyOp33
 70
     1
102
RTVSPropertyOp34
 70
     1
102
RTVSPropertyOp35
 70
     1
102
RTVSPropertyOp36
 70
     1
102
RTVSPropertyOp37
 70
     1
102
RTVSPropertyOp38
 70
     1
102
RTVSPropertyOp39
 70
     1
102
RTVSPropertyOp40
 70
     1
102
RTVSPropertyOp41
 70
     1
102
RTVSPropertyOp42
 70
     1
102
RTVSPropertyOp43
 70
     1
102
RTVSPropertyOp44
 70
     1
102
RTVSPropertyOp45
 70
     1
102
RTVSPropertyOp46
 70
     1
102
RTVSPropertyOp47
 70
     1
102
RTVSPropertyOp48
 70
     1
102
RTVSPropertyOp49
 70
     1
102
RTVSPropertyOp50
 70
     1
102
RTVSPropertyOp51
 70
     0
102
RTVSPropertyOp52
 70
     0
102
RTVSPropertyOp53
 70
     1
102
RTVSPropertyOp54
 70
     1
102
RTVSPropertyOp55
 70
     1
102
RTVSPropertyOp56
 70
     1
102
RTVSPropertyOp57
 70
     1
102
RTVSPropertyOp58
 70
     1
102
RTVSPropertyOp59
 70
     1
102
RTVSPropertyOp60
 70
     1
102
RTVSPropertyOp61
 70
     1
102
RTVSPropertyOp62
 70
     1
  0
XRECORD
  5
23D5
102
{ACAD_REACTORS
330
23D4
102
}
330
23D4
100
AcDbXrecord
280
     1
102
RTVSPost2010Prop28
280
     0
102
RTVSPost2010PropOp28
 70
     1
102
RTVSPost2010Prop29
280
     1
102
RTVSPost2010PropOp29
 70
     1
102
RTVSPost2010Prop30
280
     1
102
RTVSPost2010PropOp30
 70
     1
102
RTVSPost2010Prop31
280
     0
102
RTVSPost2010PropOp31
 70
     1
102
RTVSPost2010Prop32
280
     0
102
RTVSPost2010PropOp32
 70
     1
102
RTVSPost2010Prop33
280
     0
102
RTVSPost2010PropOp33
 70
     1
102
RTVSPost2010Prop34
280
     0
102
RTVSPost2010PropOp34
 70
     1
102
RTVSPost2010Prop35
280
     0
102
RTVSPost2010PropOp35
 70
     1
102
RTVSPost2010Prop36
280
     0
102
RTVSPost2010PropOp36
 70
     1
102
RTVSPost2010Prop37
 90
       50
102
RTVSPost2010PropOp37
 70
     1
102
RTVSPost2010Prop38
140
0.0
102
RTVSPost2010PropOp38
 70
     1
102
RTVSPost2010Prop39
140
1.0
102
RTVSPost2010PropOp39
 70
     1
102
RTVSPost2010Prop40
 90
        0
102
RTVSPost2010PropOp40
 70
     1
102
RTVSPost2010Prop41ColorIndex
 90
       18
102
RTVSPost2010Prop41ColorRGB
 90
        0
102
RTVSPost2010PropOp41
 70
     1
102
RTVSPost2010Prop42
 90
       50
102
RTVSPost2010PropOp42
 70
     1
102
RTVSPost2010Prop43
 90
        3
102
RTVSPost2010PropOp43
 70
     1
102
RTVSPost2010Prop44ColorIndex
 90
        5
102
RTVSPost2010Prop44ColorRGB
 90
      255
102
RTVSPost2010PropOp44
 70
     1
102
RTVSPost2010Prop45
280
     0
102
RTVSPost2010PropOp45
 70
     1
102
RTVSPost2010Prop46
 90
       50
102
RTVSPost2010PropOp46
 70
     1
102
RTVSPost2010Prop47
 90
       50
102
RTVSPost2010PropOp47
 70
     1
102
RTVSPost2010Prop48
 90
       50
102
RTVSPost2010PropOp48
 70
     1
102
RTVSPost2010Prop49
280
     0
102
RTVSPost2010PropOp49
 70
     1
102
RTVSPost2010Prop50
 90
       50
102
RTVSPost2010PropOp50
 70
     1
102
RTVSPost2010Prop51ColorIndex
 90
      256
102
RTVSPost2010Prop51ColorRGB
 90
-16777216
102
RTVSPost2010PropOp51
 70
     0
102
RTVSPost2010Prop52
140
1.0
102
RTVSPost2010PropOp52
 70
     0
102
RTVSPost2010Prop53
 90
        2
102
RTVSPost2010PropOp53
 70
     1
102
RTVSPost2010Prop54
  1
strokes_ogs.tif
102
RTVSPost2010PropOp54
 70
     1
102
RTVSPost2010Prop55
280
     0
102
RTVSPost2010PropOp55
 70
     1
102
RTVSPost2010Prop56
140
1.0
102
RTVSPost2010PropOp56
 70
     1
102
RTVSPost2010Prop57
140
1.0
102
RTVSPost2010PropOp57
 70
     1
102
RTVSPropertyOp0
 70
     1
102
RTVSPropertyOp1
 70
     1
102
RTVSPropertyOp2
 70
     1
102
RTVSPropertyOp3
 70
     1
102
RTVSPropertyOp4
 70
     1
102
RTVSPropertyOp5
 70
     1
102
RTVSPropertyOp6
 70
     1
102
RTVSPropertyOp7
 70
     1
102
RTVSPropertyOp8
 70
     1
102
RTVSPropertyOp9
 70
     1
102
RTVSPropertyOp10
 70
     1
102
RTVSPropertyOp11
 70
     1
102
RTVSPropertyOp12
 70
     1
102
RTVSPropertyOp13
 70
     1
102
RTVSPropertyOp14
 70
     1
102
RTVSPropertyOp15
 70
     1
102
RTVSPropertyOp16
 70
     1
102
RTVSPropertyOp17
 70
     1
102
RTVSPropertyOp18
 70
     1
102
RTVSPropertyOp19
 70
     1
102
RTVSPropertyOp20
 70
     1
102
RTVSPropertyOp21
 70
     1
102
RTVSPropertyOp22
 70
     1
102
RTVSPropertyOp23
 70
     1
102
RTVSPropertyOp24
 70
     1
102
RTVSPropertyOp25
 70
     1
102
RTVSPropertyOp26
 70
     1
102
RTVSPropertyOp27
 70
     1
102
RTVSPropertyOp28
 70
     1
102
RTVSPropertyOp29
 70
     1
102
RTVSPropertyOp30
 70
     1
102
RTVSPropertyOp31
 70
     1
102
RTVSPropertyOp32
 70
     1
102
RTVSPropertyOp33
 70
     1
102
RTVSPropertyOp34
 70
     1
102
RTVSPropertyOp35
 70
     1
102
RTVSPropertyOp36
 70
     1
102
RTVSPropertyOp37
 70
     1
102
RTVSPropertyOp38
 70
     1
102
RTVSPropertyOp39
 70
     1
102
RTVSPropertyOp40
 70
     1
102
RTVSPropertyOp41
 70
     1
102
RTVSPropertyOp42
 70
     1
102
RTVSPropertyOp43
 70
     1
102
RTVSPropertyOp44
 70
     1
102
RTVSPropertyOp45
 70
     1
102
RTVSPropertyOp46
 70
     1
102
RTVSPropertyOp47
 70
     1
102
RTVSPropertyOp48
 70
     1
102
RTVSPropertyOp49
 70
     1
102
RTVSPropertyOp50
 70
     1
102
RTVSPropertyOp51
 70
     0
102
RTVSPropertyOp52
 70
     0
102
RTVSPropertyOp53
 70
     1
102
RTVSPropertyOp54
 70
     1
102
RTVSPropertyOp55
 70
     1
102
RTVSPropertyOp56
 70
     1
102
RTVSPropertyOp57
 70
     1
102
RTVSPropertyOp58
 70
     1
102
RTVSPropertyOp59
 70
     1
102
RTVSPropertyOp60
 70
     1
102
RTVSPropertyOp61
 70
     1
102
RTVSPropertyOp62
 70
     1
  0
XRECORD
  5
23DD
102
{ACAD_REACTORS
330
23DC
102
}
330
23DC
100
AcDbXrecord
280
     1
102
RTVSPost2010Prop28
280
     0
102
RTVSPost2010PropOp28
 70
     1
102
RTVSPost2010Prop29
280
     1
102
RTVSPost2010PropOp29
 70
     1
102
RTVSPost2010Prop30
280
     1
102
RTVSPost2010PropOp30
 70
     1
102
RTVSPost2010Prop31
280
     0
102
RTVSPost2010PropOp31
 70
     1
102
RTVSPost2010Prop32
280
     0
102
RTVSPost2010PropOp32
 70
     1
102
RTVSPost2010Prop33
280
     0
102
RTVSPost2010PropOp33
 70
     1
102
RTVSPost2010Prop34
280
     0
102
RTVSPost2010PropOp34
 70
     1
102
RTVSPost2010Prop35
280
     0
102
RTVSPost2010PropOp35
 70
     1
102
RTVSPost2010Prop36
280
     0
102
RTVSPost2010PropOp36
 70
     1
102
RTVSPost2010Prop37
 90
       50
102
RTVSPost2010PropOp37
 70
     1
102
RTVSPost2010Prop38
140
0.0
102
RTVSPost2010PropOp38
 70
     1
102
RTVSPost2010Prop39
140
1.0
102
RTVSPost2010PropOp39
 70
     1
102
RTVSPost2010Prop40
 90
        0
102
RTVSPost2010PropOp40
 70
     1
102
RTVSPost2010Prop41ColorIndex
 90
       18
102
RTVSPost2010Prop41ColorRGB
 90
        0
102
RTVSPost2010PropOp41
 70
     1
102
RTVSPost2010Prop42
 90
       50
102
RTVSPost2010PropOp42
 70
     1
102
RTVSPost2010Prop43
 90
        3
102
RTVSPost2010PropOp43
 70
     1
102
RTVSPost2010Prop44ColorIndex
 90
        5
102
RTVSPost2010Prop44ColorRGB
 90
      255
102
RTVSPost2010PropOp44
 70
     1
102
RTVSPost2010Prop45
280
     0
102
RTVSPost2010PropOp45
 70
     1
102
RTVSPost2010Prop46
 90
       50
102
RTVSPost2010PropOp46
 70
     1
102
RTVSPost2010Prop47
 90
       50
102
RTVSPost2010PropOp47
 70
     1
102
RTVSPost2010Prop48
 90
       50
102
RTVSPost2010PropOp48
 70
     1
102
RTVSPost2010Prop49
280
     0
102
RTVSPost2010PropOp49
 70
     1
102
RTVSPost2010Prop50
 90
       50
102
RTVSPost2010PropOp50
 70
     1
102
RTVSPost2010Prop51ColorIndex
 90
      256
102
RTVSPost2010Prop51ColorRGB
 90
-16777216
102
RTVSPost2010PropOp51
 70
     0
102
RTVSPost2010Prop52
140
1.0
102
RTVSPost2010PropOp52
 70
     0
102
RTVSPost2010Prop53
 90
        2
102
RTVSPost2010PropOp53
 70
     1
102
RTVSPost2010Prop54
  1
strokes_ogs.tif
102
RTVSPost2010PropOp54
 70
     1
102
RTVSPost2010Prop55
280
     0
102
RTVSPost2010PropOp55
 70
     1
102
RTVSPost2010Prop56
140
1.0
102
RTVSPost2010PropOp56
 70
     1
102
RTVSPost2010Prop57
140
1.0
102
RTVSPost2010PropOp57
 70
     1
102
RTVSPropertyOp0
 70
     1
102
RTVSPropertyOp1
 70
     1
102
RTVSPropertyOp2
 70
     1
102
RTVSPropertyOp3
 70
     1
102
RTVSPropertyOp4
 70
     1
102
RTVSPropertyOp5
 70
     1
102
RTVSPropertyOp6
 70
     1
102
RTVSPropertyOp7
 70
     1
102
RTVSPropertyOp8
 70
     1
102
RTVSPropertyOp9
 70
     1
102
RTVSPropertyOp10
 70
     1
102
RTVSPropertyOp11
 70
     1
102
RTVSPropertyOp12
 70
     1
102
RTVSPropertyOp13
 70
     1
102
RTVSPropertyOp14
 70
     1
102
RTVSPropertyOp15
 70
     1
102
RTVSPropertyOp16
 70
     1
102
RTVSPropertyOp17
 70
     1
102
RTVSPropertyOp18
 70
     1
102
RTVSPropertyOp19
 70
     1
102
RTVSPropertyOp20
 70
     1
102
RTVSPropertyOp21
 70
     1
102
RTVSPropertyOp22
 70
     1
102
RTVSPropertyOp23
 70
     1
102
RTVSPropertyOp24
 70
     1
102
RTVSPropertyOp25
 70
     1
102
RTVSPropertyOp26
 70
     1
102
RTVSPropertyOp27
 70
     1
102
RTVSPropertyOp28
 70
     1
102
RTVSPropertyOp29
 70
     1
102
RTVSPropertyOp30
 70
     1
102
RTVSPropertyOp31
 70
     1
102
RTVSPropertyOp32
 70
     1
102
RTVSPropertyOp33
 70
     1
102
RTVSPropertyOp34
 70
     1
102
RTVSPropertyOp35
 70
     1
102
RTVSPropertyOp36
 70
     1
102
RTVSPropertyOp37
 70
     1
102
RTVSPropertyOp38
 70
     1
102
RTVSPropertyOp39
 70
     1
102
RTVSPropertyOp40
 70
     1
102
RTVSPropertyOp41
 70
     1
102
RTVSPropertyOp42
 70
     1
102
RTVSPropertyOp43
 70
     1
102
RTVSPropertyOp44
 70
     1
102
RTVSPropertyOp45
 70
     1
102
RTVSPropertyOp46
 70
     1
102
RTVSPropertyOp47
 70
     1
102
RTVSPropertyOp48
 70
     1
102
RTVSPropertyOp49
 70
     1
102
RTVSPropertyOp50
 70
     1
102
RTVSPropertyOp51
 70
     0
102
RTVSPropertyOp52
 70
     0
102
RTVSPropertyOp53
 70
     1
102
RTVSPropertyOp54
 70
     1
102
RTVSPropertyOp55
 70
     1
102
RTVSPropertyOp56
 70
     1
102
RTVSPropertyOp57
 70
     1
102
RTVSPropertyOp58
 70
     1
102
RTVSPropertyOp59
 70
     1
102
RTVSPropertyOp60
 70
     1
102
RTVSPropertyOp61
 70
     1
102
RTVSPropertyOp62
 70
     1
  0
XRECORD
  5
23F9
102
{ACAD_REACTORS
330
23F8
102
}
330
23F8
100
AcDbXrecord
280
     1
102
RTVSPost2010Prop28
280
     0
102
RTVSPost2010PropOp28
 70
     0
102
RTVSPost2010Prop29
280
     1
102
RTVSPost2010PropOp29
 70
     0
102
RTVSPost2010Prop30
280
     1
102
RTVSPost2010PropOp30
 70
     0
102
RTVSPost2010Prop31
280
     0
102
RTVSPost2010PropOp31
 70
     0
102
RTVSPost2010Prop32
280
     0
102
RTVSPost2010PropOp32
 70
     0
102
RTVSPost2010Prop33
280
     0
102
RTVSPost2010PropOp33
 70
     0
102
RTVSPost2010Prop34
280
     0
102
RTVSPost2010PropOp34
 70
     0
102
RTVSPost2010Prop35
280
     0
102
RTVSPost2010PropOp35
 70
     0
102
RTVSPost2010Prop36
280
     0
102
RTVSPost2010PropOp36
 70
     0
102
RTVSPost2010Prop37
 90
       50
102
RTVSPost2010PropOp37
 70
     0
102
RTVSPost2010Prop38
140
0.0
102
RTVSPost2010PropOp38
 70
     0
102
RTVSPost2010Prop39
140
1.0
102
RTVSPost2010PropOp39
 70
     0
102
RTVSPost2010Prop40
 90
        0
102
RTVSPost2010PropOp40
 70
     0
102
RTVSPost2010Prop41ColorIndex
 90
       18
102
RTVSPost2010Prop41ColorRGB
 90
        0
102
RTVSPost2010PropOp41
 70
     0
102
RTVSPost2010Prop42
 90
       50
102
RTVSPost2010PropOp42
 70
     0
102
RTVSPost2010Prop43
 90
        3
102
RTVSPost2010PropOp43
 70
     0
102
RTVSPost2010Prop44ColorIndex
 90
        5
102
RTVSPost2010Prop44ColorRGB
 90
      255
102
RTVSPost2010PropOp44
 70
     0
102
RTVSPost2010Prop45
280
     0
102
RTVSPost2010PropOp45
 70
     0
102
RTVSPost2010Prop46
 90
       50
102
RTVSPost2010PropOp46
 70
     0
102
RTVSPost2010Prop47
 90
       50
102
RTVSPost2010PropOp47
 70
     0
102
RTVSPost2010Prop48
 90
       50
102
RTVSPost2010PropOp48
 70
     0
102
RTVSPost2010Prop49
280
     0
102
RTVSPost2010PropOp49
 70
     0
102
RTVSPost2010Prop50
 90
       50
102
RTVSPost2010PropOp50
 70
     0
102
RTVSPost2010Prop51ColorIndex
 90
      256
102
RTVSPost2010Prop51ColorRGB
 90
-16777216
102
RTVSPost2010PropOp51
 70
     0
102
RTVSPost2010Prop52
140
1.0
102
RTVSPost2010PropOp52
 70
     0
102
RTVSPost2010Prop53
 90
        2
102
RTVSPost2010PropOp53
 70
     0
102
RTVSPost2010Prop54
  1
strokes_ogs.tif
102
RTVSPost2010PropOp54
 70
     0
102
RTVSPost2010Prop55
280
     0
102
RTVSPost2010PropOp55
 70
     0
102
RTVSPost2010Prop56
140
1.0
102
RTVSPost2010PropOp56
 70
     0
102
RTVSPost2010Prop57
140
1.0
102
RTVSPost2010PropOp57
 70
     0
102
RTVSPropertyOp0
 70
     0
102
RTVSPropertyOp1
 70
     0
102
RTVSPropertyOp2
 70
     0
102
RTVSPropertyOp3
 70
     0
102
RTVSPropertyOp4
 70
     0
102
RTVSPropertyOp5
 70
     0
102
RTVSPropertyOp6
 70
     0
102
RTVSPropertyOp7
 70
     0
102
RTVSPropertyOp8
 70
     0
102
RTVSPropertyOp9
 70
     0
102
RTVSPropertyOp10
 70
     0
102
RTVSPropertyOp11
 70
     0
102
RTVSPropertyOp12
 70
     0
102
RTVSPropertyOp13
 70
     0
102
RTVSPropertyOp14
 70
     2
102
RTVSPropertyOp15
 70
     0
102
RTVSPropertyOp16
 70
     0
102
RTVSPropertyOp17
 70
     0
102
RTVSPropertyOp18
 70
     0
102
RTVSPropertyOp19
 70
     0
102
RTVSPropertyOp20
 70
     0
102
RTVSPropertyOp21
 70
     0
102
RTVSPropertyOp22
 70
     0
102
RTVSPropertyOp23
 70
     0
102
RTVSPropertyOp24
 70
     0
102
RTVSPropertyOp25
 70
     0
102
RTVSPropertyOp26
 70
     0
102
RTVSPropertyOp27
 70
     0
102
RTVSPropertyOp28
 70
     0
102
RTVSPropertyOp29
 70
     0
102
RTVSPropertyOp30
 70
     0
102
RTVSPropertyOp31
 70
     0
102
RTVSPropertyOp32
 70
     0
102
RTVSPropertyOp33
 70
     0
102
RTVSPropertyOp34
 70
     0
102
RTVSPropertyOp35
 70
     0
102
RTVSPropertyOp36
 70
     0
102
RTVSPropertyOp37
 70
     0
102
RTVSPropertyOp38
 70
     0
102
RTVSPropertyOp39
 70
     0
102
RTVSPropertyOp40
 70
     0
102
RTVSPropertyOp41
 70
     0
102
RTVSPropertyOp42
 70
     0
102
RTVSPropertyOp43
 70
     0
102
RTVSPropertyOp44
 70
     0
102
RTVSPropertyOp45
 70
     0
102
RTVSPropertyOp46
 70
     0
102
RTVSPropertyOp47
 70
     0
102
RTVSPropertyOp48
 70
     0
102
RTVSPropertyOp49
 70
     0
102
RTVSPropertyOp50
 70
     0
102
RTVSPropertyOp51
 70
     0
102
RTVSPropertyOp52
 70
     0
102
RTVSPropertyOp53
 70
     0
102
RTVSPropertyOp54
 70
     0
102
RTVSPropertyOp55
 70
     0
102
RTVSPropertyOp56
 70
     0
102
RTVSPropertyOp57
 70
     0
102
RTVSPropertyOp58
 70
     0
102
RTVSPropertyOp59
 70
     0
102
RTVSPropertyOp60
 70
     0
102
RTVSPropertyOp61
 70
     0
102
RTVSPropertyOp62
 70
     0
  0
XRECORD
  5
23E9
102
{ACAD_REACTORS
330
23E8
102
}
330
23E8
100
AcDbXrecord
280
     1
102
RTVSPost2010Prop28
280
     0
102
RTVSPost2010PropOp28
 70
     1
102
RTVSPost2010Prop29
280
     1
102
RTVSPost2010PropOp29
 70
     1
102
RTVSPost2010Prop30
280
     1
102
RTVSPost2010PropOp30
 70
     1
102
RTVSPost2010Prop31
280
     0
102
RTVSPost2010PropOp31
 70
     1
102
RTVSPost2010Prop32
280
     0
102
RTVSPost2010PropOp32
 70
     1
102
RTVSPost2010Prop33
280
     0
102
RTVSPost2010PropOp33
 70
     1
102
RTVSPost2010Prop34
280
     0
102
RTVSPost2010PropOp34
 70
     1
102
RTVSPost2010Prop35
280
     0
102
RTVSPost2010PropOp35
 70
     1
102
RTVSPost2010Prop36
280
     0
102
RTVSPost2010PropOp36
 70
     1
102
RTVSPost2010Prop37
 90
       50
102
RTVSPost2010PropOp37
 70
     1
102
RTVSPost2010Prop38
140
0.0
102
RTVSPost2010PropOp38
 70
     1
102
RTVSPost2010Prop39
140
1.0
102
RTVSPost2010PropOp39
 70
     1
102
RTVSPost2010Prop40
 90
        0
102
RTVSPost2010PropOp40
 70
     1
102
RTVSPost2010Prop41ColorIndex
 90
       18
102
RTVSPost2010Prop41ColorRGB
 90
        0
102
RTVSPost2010PropOp41
 70
     1
102
RTVSPost2010Prop42
 90
       50
102
RTVSPost2010PropOp42
 70
     1
102
RTVSPost2010Prop43
 90
        3
102
RTVSPost2010PropOp43
 70
     1
102
RTVSPost2010Prop44ColorIndex
 90
        5
102
RTVSPost2010Prop44ColorRGB
 90
      255
102
RTVSPost2010PropOp44
 70
     1
102
RTVSPost2010Prop45
280
     0
102
RTVSPost2010PropOp45
 70
     1
102
RTVSPost2010Prop46
 90
       50
102
RTVSPost2010PropOp46
 70
     1
102
RTVSPost2010Prop47
 90
       50
102
RTVSPost2010PropOp47
 70
     1
102
RTVSPost2010Prop48
 90
       50
102
RTVSPost2010PropOp48
 70
     1
102
RTVSPost2010Prop49
280
     0
102
RTVSPost2010PropOp49
 70
     1
102
RTVSPost2010Prop50
 90
       50
102
RTVSPost2010PropOp50
 70
     1
102
RTVSPost2010Prop51ColorIndex
 90
      256
102
RTVSPost2010Prop51ColorRGB
 90
-16777216
102
RTVSPost2010PropOp51
 70
     0
102
RTVSPost2010Prop52
140
1.0
102
RTVSPost2010PropOp52
 70
     0
102
RTVSPost2010Prop53
 90
        2
102
RTVSPost2010PropOp53
 70
     1
102
RTVSPost2010Prop54
  1
strokes_ogs.tif
102
RTVSPost2010PropOp54
 70
     1
102
RTVSPost2010Prop55
280
     0
102
RTVSPost2010PropOp55
 70
     1
102
RTVSPost2010Prop56
140
1.0
102
RTVSPost2010PropOp56
 70
     1
102
RTVSPost2010Prop57
140
1.0
102
RTVSPost2010PropOp57
 70
     1
102
RTVSPropertyOp0
 70
     1
102
RTVSPropertyOp1
 70
     1
102
RTVSPropertyOp2
 70
     1
102
RTVSPropertyOp3
 70
     1
102
RTVSPropertyOp4
 70
     1
102
RTVSPropertyOp5
 70
     1
102
RTVSPropertyOp6
 70
     1
102
RTVSPropertyOp7
 70
     1
102
RTVSPropertyOp8
 70
     1
102
RTVSPropertyOp9
 70
     1
102
RTVSPropertyOp10
 70
     1
102
RTVSPropertyOp11
 70
     1
102
RTVSPropertyOp12
 70
     1
102
RTVSPropertyOp13
 70
     1
102
RTVSPropertyOp14
 70
     1
102
RTVSPropertyOp15
 70
     1
102
RTVSPropertyOp16
 70
     1
102
RTVSPropertyOp17
 70
     1
102
RTVSPropertyOp18
 70
     1
102
RTVSPropertyOp19
 70
     1
102
RTVSPropertyOp20
 70
     1
102
RTVSPropertyOp21
 70
     1
102
RTVSPropertyOp22
 70
     1
102
RTVSPropertyOp23
 70
     1
102
RTVSPropertyOp24
 70
     1
102
RTVSPropertyOp25
 70
     1
102
RTVSPropertyOp26
 70
     1
102
RTVSPropertyOp27
 70
     1
102
RTVSPropertyOp28
 70
     1
102
RTVSPropertyOp29
 70
     1
102
RTVSPropertyOp30
 70
     1
102
RTVSPropertyOp31
 70
     1
102
RTVSPropertyOp32
 70
     1
102
RTVSPropertyOp33
 70
     1
102
RTVSPropertyOp34
 70
     1
102
RTVSPropertyOp35
 70
     1
102
RTVSPropertyOp36
 70
     1
102
RTVSPropertyOp37
 70
     1
102
RTVSPropertyOp38
 70
     1
102
RTVSPropertyOp39
 70
     1
102
RTVSPropertyOp40
 70
     1
102
RTVSPropertyOp41
 70
     1
102
RTVSPropertyOp42
 70
     1
102
RTVSPropertyOp43
 70
     1
102
RTVSPropertyOp44
 70
     1
102
RTVSPropertyOp45
 70
     1
102
RTVSPropertyOp46
 70
     1
102
RTVSPropertyOp47
 70
     1
102
RTVSPropertyOp48
 70
     1
102
RTVSPropertyOp49
 70
     1
102
RTVSPropertyOp50
 70
     1
102
RTVSPropertyOp51
 70
     0
102
RTVSPropertyOp52
 70
     0
102
RTVSPropertyOp53
 70
     1
102
RTVSPropertyOp54
 70
     1
102
RTVSPropertyOp55
 70
     1
102
RTVSPropertyOp56
 70
     1
102
RTVSPropertyOp57
 70
     1
102
RTVSPropertyOp58
 70
     1
102
RTVSPropertyOp59
 70
     1
102
RTVSPropertyOp60
 70
     1
102
RTVSPropertyOp61
 70
     1
102
RTVSPropertyOp62
 70
     1
  0
XRECORD
  5
23FB
102
{ACAD_REACTORS
330
23FA
102
}
330
23FA
100
AcDbXrecord
280
     1
102
RTVSPost2010Prop28
280
     0
102
RTVSPost2010PropOp28
 70
     0
102
RTVSPost2010Prop29
280
     1
102
RTVSPost2010PropOp29
 70
     0
102
RTVSPost2010Prop30
280
     1
102
RTVSPost2010PropOp30
 70
     0
102
RTVSPost2010Prop31
280
     0
102
RTVSPost2010PropOp31
 70
     0
102
RTVSPost2010Prop32
280
     0
102
RTVSPost2010PropOp32
 70
     0
102
RTVSPost2010Prop33
280
     0
102
RTVSPost2010PropOp33
 70
     0
102
RTVSPost2010Prop34
280
     0
102
RTVSPost2010PropOp34
 70
     0
102
RTVSPost2010Prop35
280
     0
102
RTVSPost2010PropOp35
 70
     0
102
RTVSPost2010Prop36
280
     0
102
RTVSPost2010PropOp36
 70
     0
102
RTVSPost2010Prop37
 90
       50
102
RTVSPost2010PropOp37
 70
     0
102
RTVSPost2010Prop38
140
0.0
102
RTVSPost2010PropOp38
 70
     0
102
RTVSPost2010Prop39
140
1.0
102
RTVSPost2010PropOp39
 70
     0
102
RTVSPost2010Prop40
 90
        0
102
RTVSPost2010PropOp40
 70
     0
102
RTVSPost2010Prop41ColorIndex
 90
       18
102
RTVSPost2010Prop41ColorRGB
 90
        0
102
RTVSPost2010PropOp41
 70
     0
102
RTVSPost2010Prop42
 90
       50
102
RTVSPost2010PropOp42
 70
     0
102
RTVSPost2010Prop43
 90
        3
102
RTVSPost2010PropOp43
 70
     0
102
RTVSPost2010Prop44ColorIndex
 90
        5
102
RTVSPost2010Prop44ColorRGB
 90
      255
102
RTVSPost2010PropOp44
 70
     0
102
RTVSPost2010Prop45
280
     0
102
RTVSPost2010PropOp45
 70
     0
102
RTVSPost2010Prop46
 90
       50
102
RTVSPost2010PropOp46
 70
     0
102
RTVSPost2010Prop47
 90
       50
102
RTVSPost2010PropOp47
 70
     0
102
RTVSPost2010Prop48
 90
       50
102
RTVSPost2010PropOp48
 70
     0
102
RTVSPost2010Prop49
280
     0
102
RTVSPost2010PropOp49
 70
     0
102
RTVSPost2010Prop50
 90
       50
102
RTVSPost2010PropOp50
 70
     0
102
RTVSPost2010Prop51ColorIndex
 90
      256
102
RTVSPost2010Prop51ColorRGB
 90
-16777216
102
RTVSPost2010PropOp51
 70
     0
102
RTVSPost2010Prop52
140
1.0
102
RTVSPost2010PropOp52
 70
     0
102
RTVSPost2010Prop53
 90
        2
102
RTVSPost2010PropOp53
 70
     0
102
RTVSPost2010Prop54
  1
strokes_ogs.tif
102
RTVSPost2010PropOp54
 70
     0
102
RTVSPost2010Prop55
280
     0
102
RTVSPost2010PropOp55
 70
     0
102
RTVSPost2010Prop56
140
1.0
102
RTVSPost2010PropOp56
 70
     0
102
RTVSPost2010Prop57
140
1.0
102
RTVSPost2010PropOp57
 70
     0
102
RTVSPropertyOp0
 70
     0
102
RTVSPropertyOp1
 70
     0
102
RTVSPropertyOp2
 70
     0
102
RTVSPropertyOp3
 70
     0
102
RTVSPropertyOp4
 70
     0
102
RTVSPropertyOp5
 70
     0
102
RTVSPropertyOp6
 70
     0
102
RTVSPropertyOp7
 70
     0
102
RTVSPropertyOp8
 70
     0
102
RTVSPropertyOp9
 70
     0
102
RTVSPropertyOp10
 70
     0
102
RTVSPropertyOp11
 70
     0
102
RTVSPropertyOp12
 70
     0
102
RTVSPropertyOp13
 70
     0
102
RTVSPropertyOp14
 70
     2
102
RTVSPropertyOp15
 70
     0
102
RTVSPropertyOp16
 70
     0
102
RTVSPropertyOp17
 70
     0
102
RTVSPropertyOp18
 70
     0
102
RTVSPropertyOp19
 70
     0
102
RTVSPropertyOp20
 70
     0
102
RTVSPropertyOp21
 70
     0
102
RTVSPropertyOp22
 70
     0
102
RTVSPropertyOp23
 70
     0
102
RTVSPropertyOp24
 70
     0
102
RTVSPropertyOp25
 70
     0
102
RTVSPropertyOp26
 70
     0
102
RTVSPropertyOp27
 70
     0
102
RTVSPropertyOp28
 70
     0
102
RTVSPropertyOp29
 70
     0
102
RTVSPropertyOp30
 70
     0
102
RTVSPropertyOp31
 70
     0
102
RTVSPropertyOp32
 70
     0
102
RTVSPropertyOp33
 70
     0
102
RTVSPropertyOp34
 70
     0
102
RTVSPropertyOp35
 70
     0
102
RTVSPropertyOp36
 70
     0
102
RTVSPropertyOp37
 70
     0
102
RTVSPropertyOp38
 70
     0
102
RTVSPropertyOp39
 70
     0
102
RTVSPropertyOp40
 70
     0
102
RTVSPropertyOp41
 70
     0
102
RTVSPropertyOp42
 70
     0
102
RTVSPropertyOp43
 70
     0
102
RTVSPropertyOp44
 70
     0
102
RTVSPropertyOp45
 70
     0
102
RTVSPropertyOp46
 70
     0
102
RTVSPropertyOp47
 70
     0
102
RTVSPropertyOp48
 70
     0
102
RTVSPropertyOp49
 70
     0
102
RTVSPropertyOp50
 70
     0
102
RTVSPropertyOp51
 70
     0
102
RTVSPropertyOp52
 70
     0
102
RTVSPropertyOp53
 70
     0
102
RTVSPropertyOp54
 70
     0
102
RTVSPropertyOp55
 70
     0
102
RTVSPropertyOp56
 70
     0
102
RTVSPropertyOp57
 70
     0
102
RTVSPropertyOp58
 70
     0
102
RTVSPropertyOp59
 70
     0
102
RTVSPropertyOp60
 70
     0
102
RTVSPropertyOp61
 70
     0
102
RTVSPropertyOp62
 70
     0
  0
XRECORD
  5
23E1
102
{ACAD_REACTORS
330
23E0
102
}
330
23E0
100
AcDbXrecord
280
     1
102
RTVSPost2010Prop28
280
     0
102
RTVSPost2010PropOp28
 70
     1
102
RTVSPost2010Prop29
280
     1
102
RTVSPost2010PropOp29
 70
     1
102
RTVSPost2010Prop30
280
     1
102
RTVSPost2010PropOp30
 70
     1
102
RTVSPost2010Prop31
280
     0
102
RTVSPost2010PropOp31
 70
     1
102
RTVSPost2010Prop32
280
     0
102
RTVSPost2010PropOp32
 70
     1
102
RTVSPost2010Prop33
280
     0
102
RTVSPost2010PropOp33
 70
     1
102
RTVSPost2010Prop34
280
     0
102
RTVSPost2010PropOp34
 70
     1
102
RTVSPost2010Prop35
280
     0
102
RTVSPost2010PropOp35
 70
     1
102
RTVSPost2010Prop36
280
     0
102
RTVSPost2010PropOp36
 70
     1
102
RTVSPost2010Prop37
 90
       50
102
RTVSPost2010PropOp37
 70
     1
102
RTVSPost2010Prop38
140
0.0
102
RTVSPost2010PropOp38
 70
     1
102
RTVSPost2010Prop39
140
1.0
102
RTVSPost2010PropOp39
 70
     1
102
RTVSPost2010Prop40
 90
        0
102
RTVSPost2010PropOp40
 70
     1
102
RTVSPost2010Prop41ColorIndex
 90
       18
102
RTVSPost2010Prop41ColorRGB
 90
        0
102
RTVSPost2010PropOp41
 70
     1
102
RTVSPost2010Prop42
 90
       50
102
RTVSPost2010PropOp42
 70
     1
102
RTVSPost2010Prop43
 90
        3
102
RTVSPost2010PropOp43
 70
     1
102
RTVSPost2010Prop44ColorIndex
 90
        5
102
RTVSPost2010Prop44ColorRGB
 90
      255
102
RTVSPost2010PropOp44
 70
     1
102
RTVSPost2010Prop45
280
     0
102
RTVSPost2010PropOp45
 70
     1
102
RTVSPost2010Prop46
 90
       50
102
RTVSPost2010PropOp46
 70
     1
102
RTVSPost2010Prop47
 90
       50
102
RTVSPost2010PropOp47
 70
     1
102
RTVSPost2010Prop48
 90
       50
102
RTVSPost2010PropOp48
 70
     1
102
RTVSPost2010Prop49
280
     0
102
RTVSPost2010PropOp49
 70
     1
102
RTVSPost2010Prop50
 90
       50
102
RTVSPost2010PropOp50
 70
     1
102
RTVSPost2010Prop51ColorIndex
 90
      256
102
RTVSPost2010Prop51ColorRGB
 90
-16777216
102
RTVSPost2010PropOp51
 70
     0
102
RTVSPost2010Prop52
140
1.0
102
RTVSPost2010PropOp52
 70
     0
102
RTVSPost2010Prop53
 90
        2
102
RTVSPost2010PropOp53
 70
     1
102
RTVSPost2010Prop54
  1
strokes_ogs.tif
102
RTVSPost2010PropOp54
 70
     1
102
RTVSPost2010Prop55
280
     0
102
RTVSPost2010PropOp55
 70
     1
102
RTVSPost2010Prop56
140
1.0
102
RTVSPost2010PropOp56
 70
     1
102
RTVSPost2010Prop57
140
1.0
102
RTVSPost2010PropOp57
 70
     1
102
RTVSPropertyOp0
 70
     1
102
RTVSPropertyOp1
 70
     1
102
RTVSPropertyOp2
 70
     1
102
RTVSPropertyOp3
 70
     1
102
RTVSPropertyOp4
 70
     1
102
RTVSPropertyOp5
 70
     1
102
RTVSPropertyOp6
 70
     1
102
RTVSPropertyOp7
 70
     1
102
RTVSPropertyOp8
 70
     1
102
RTVSPropertyOp9
 70
     1
102
RTVSPropertyOp10
 70
     1
102
RTVSPropertyOp11
 70
     1
102
RTVSPropertyOp12
 70
     1
102
RTVSPropertyOp13
 70
     1
102
RTVSPropertyOp14
 70
     1
102
RTVSPropertyOp15
 70
     1
102
RTVSPropertyOp16
 70
     1
102
RTVSPropertyOp17
 70
     1
102
RTVSPropertyOp18
 70
     1
102
RTVSPropertyOp19
 70
     1
102
RTVSPropertyOp20
 70
     1
102
RTVSPropertyOp21
 70
     1
102
RTVSPropertyOp22
 70
     1
102
RTVSPropertyOp23
 70
     1
102
RTVSPropertyOp24
 70
     1
102
RTVSPropertyOp25
 70
     1
102
RTVSPropertyOp26
 70
     1
102
RTVSPropertyOp27
 70
     1
102
RTVSPropertyOp28
 70
     1
102
RTVSPropertyOp29
 70
     1
102
RTVSPropertyOp30
 70
     1
102
RTVSPropertyOp31
 70
     1
102
RTVSPropertyOp32
 70
     1
102
RTVSPropertyOp33
 70
     1
102
RTVSPropertyOp34
 70
     1
102
RTVSPropertyOp35
 70
     1
102
RTVSPropertyOp36
 70
     1
102
RTVSPropertyOp37
 70
     1
102
RTVSPropertyOp38
 70
     1
102
RTVSPropertyOp39
 70
     1
102
RTVSPropertyOp40
 70
     1
102
RTVSPropertyOp41
 70
     1
102
RTVSPropertyOp42
 70
     1
102
RTVSPropertyOp43
 70
     1
102
RTVSPropertyOp44
 70
     1
102
RTVSPropertyOp45
 70
     1
102
RTVSPropertyOp46
 70
     1
102
RTVSPropertyOp47
 70
     1
102
RTVSPropertyOp48
 70
     1
102
RTVSPropertyOp49
 70
     1
102
RTVSPropertyOp50
 70
     1
102
RTVSPropertyOp51
 70
     0
102
RTVSPropertyOp52
 70
     0
102
RTVSPropertyOp53
 70
     1
102
RTVSPropertyOp54
 70
     1
102
RTVSPropertyOp55
 70
     1
102
RTVSPropertyOp56
 70
     1
102
RTVSPropertyOp57
 70
     1
102
RTVSPropertyOp58
 70
     1
102
RTVSPropertyOp59
 70
     1
102
RTVSPropertyOp60
 70
     1
102
RTVSPropertyOp61
 70
     1
102
RTVSPropertyOp62
 70
     1
  0
XRECORD
  5
23F7
102
{ACAD_REACTORS
330
23F6
102
}
330
23F6
100
AcDbXrecord
280
     1
102
RTVSPost2010Prop28
280
     0
102
RTVSPost2010PropOp28
 70
     1
102
RTVSPost2010Prop29
280
     1
102
RTVSPost2010PropOp29
 70
     1
102
RTVSPost2010Prop30
280
     1
102
RTVSPost2010PropOp30
 70
     1
102
RTVSPost2010Prop31
280
     0
102
RTVSPost2010PropOp31
 70
     1
102
RTVSPost2010Prop32
280
     0
102
RTVSPost2010PropOp32
 70
     1
102
RTVSPost2010Prop33
280
     0
102
RTVSPost2010PropOp33
 70
     1
102
RTVSPost2010Prop34
280
     0
102
RTVSPost2010PropOp34
 70
     1
102
RTVSPost2010Prop35
280
     0
102
RTVSPost2010PropOp35
 70
     1
102
RTVSPost2010Prop36
280
     0
102
RTVSPost2010PropOp36
 70
     1
102
RTVSPost2010Prop37
 90
       50
102
RTVSPost2010PropOp37
 70
     1
102
RTVSPost2010Prop38
140
0.0
102
RTVSPost2010PropOp38
 70
     1
102
RTVSPost2010Prop39
140
1.0
102
RTVSPost2010PropOp39
 70
     1
102
RTVSPost2010Prop40
 90
        0
102
RTVSPost2010PropOp40
 70
     1
102
RTVSPost2010Prop41ColorIndex
 90
       18
102
RTVSPost2010Prop41ColorRGB
 90
        0
102
RTVSPost2010PropOp41
 70
     1
102
RTVSPost2010Prop42
 90
       50
102
RTVSPost2010PropOp42
 70
     1
102
RTVSPost2010Prop43
 90
        3
102
RTVSPost2010PropOp43
 70
     1
102
RTVSPost2010Prop44ColorIndex
 90
        5
102
RTVSPost2010Prop44ColorRGB
 90
      255
102
RTVSPost2010PropOp44
 70
     1
102
RTVSPost2010Prop45
280
     0
102
RTVSPost2010PropOp45
 70
     1
102
RTVSPost2010Prop46
 90
       50
102
RTVSPost2010PropOp46
 70
     1
102
RTVSPost2010Prop47
 90
       50
102
RTVSPost2010PropOp47
 70
     1
102
RTVSPost2010Prop48
 90
       50
102
RTVSPost2010PropOp48
 70
     1
102
RTVSPost2010Prop49
280
     0
102
RTVSPost2010PropOp49
 70
     1
102
RTVSPost2010Prop50
 90
       50
102
RTVSPost2010PropOp50
 70
     1
102
RTVSPost2010Prop51ColorIndex
 90
      256
102
RTVSPost2010Prop51ColorRGB
 90
-16777216
102
RTVSPost2010PropOp51
 70
     0
102
RTVSPost2010Prop52
140
1.0
102
RTVSPost2010PropOp52
 70
     0
102
RTVSPost2010Prop53
 90
        2
102
RTVSPost2010PropOp53
 70
     1
102
RTVSPost2010Prop54
  1
strokes_ogs.tif
102
RTVSPost2010PropOp54
 70
     1
102
RTVSPost2010Prop55
280
     0
102
RTVSPost2010PropOp55
 70
     1
102
RTVSPost2010Prop56
140
1.0
102
RTVSPost2010PropOp56
 70
     1
102
RTVSPost2010Prop57
140
1.0
102
RTVSPost2010PropOp57
 70
     1
102
RTVSPropertyOp0
 70
     1
102
RTVSPropertyOp1
 70
     1
102
RTVSPropertyOp2
 70
     1
102
RTVSPropertyOp3
 70
     1
102
RTVSPropertyOp4
 70
     1
102
RTVSPropertyOp5
 70
     1
102
RTVSPropertyOp6
 70
     1
102
RTVSPropertyOp7
 70
     1
102
RTVSPropertyOp8
 70
     1
102
RTVSPropertyOp9
 70
     1
102
RTVSPropertyOp10
 70
     1
102
RTVSPropertyOp11
 70
     1
102
RTVSPropertyOp12
 70
     1
102
RTVSPropertyOp13
 70
     1
102
RTVSPropertyOp14
 70
     1
102
RTVSPropertyOp15
 70
     1
102
RTVSPropertyOp16
 70
     1
102
RTVSPropertyOp17
 70
     1
102
RTVSPropertyOp18
 70
     1
102
RTVSPropertyOp19
 70
     1
102
RTVSPropertyOp20
 70
     1
102
RTVSPropertyOp21
 70
     1
102
RTVSPropertyOp22
 70
     1
102
RTVSPropertyOp23
 70
     1
102
RTVSPropertyOp24
 70
     1
102
RTVSPropertyOp25
 70
     1
102
RTVSPropertyOp26
 70
     1
102
RTVSPropertyOp27
 70
     1
102
RTVSPropertyOp28
 70
     1
102
RTVSPropertyOp29
 70
     1
102
RTVSPropertyOp30
 70
     1
102
RTVSPropertyOp31
 70
     1
102
RTVSPropertyOp32
 70
     1
102
RTVSPropertyOp33
 70
     1
102
RTVSPropertyOp34
 70
     1
102
RTVSPropertyOp35
 70
     1
102
RTVSPropertyOp36
 70
     1
102
RTVSPropertyOp37
 70
     1
102
RTVSPropertyOp38
 70
     1
102
RTVSPropertyOp39
 70
     1
102
RTVSPropertyOp40
 70
     1
102
RTVSPropertyOp41
 70
     1
102
RTVSPropertyOp42
 70
     1
102
RTVSPropertyOp43
 70
     1
102
RTVSPropertyOp44
 70
     1
102
RTVSPropertyOp45
 70
     1
102
RTVSPropertyOp46
 70
     1
102
RTVSPropertyOp47
 70
     1
102
RTVSPropertyOp48
 70
     1
102
RTVSPropertyOp49
 70
     1
102
RTVSPropertyOp50
 70
     1
102
RTVSPropertyOp51
 70
     0
102
RTVSPropertyOp52
 70
     0
102
RTVSPropertyOp53
 70
     1
102
RTVSPropertyOp54
 70
     1
102
RTVSPropertyOp55
 70
     1
102
RTVSPropertyOp56
 70
     1
102
RTVSPropertyOp57
 70
     1
102
RTVSPropertyOp58
 70
     1
102
RTVSPropertyOp59
 70
     1
102
RTVSPropertyOp60
 70
     1
102
RTVSPropertyOp61
 70
     1
102
RTVSPropertyOp62
 70
     1
  0
XRECORD
  5
23F5
102
{ACAD_REACTORS
330
23F4
102
}
330
23F4
100
AcDbXrecord
280
     1
102
RTVSPost2010Prop28
280
     0
102
RTVSPost2010PropOp28
 70
     1
102
RTVSPost2010Prop29
280
     1
102
RTVSPost2010PropOp29
 70
     1
102
RTVSPost2010Prop30
280
     1
102
RTVSPost2010PropOp30
 70
     1
102
RTVSPost2010Prop31
280
     0
102
RTVSPost2010PropOp31
 70
     1
102
RTVSPost2010Prop32
280
     0
102
RTVSPost2010PropOp32
 70
     1
102
RTVSPost2010Prop33
280
     0
102
RTVSPost2010PropOp33
 70
     1
102
RTVSPost2010Prop34
280
     0
102
RTVSPost2010PropOp34
 70
     1
102
RTVSPost2010Prop35
280
     0
102
RTVSPost2010PropOp35
 70
     1
102
RTVSPost2010Prop36
280
     0
102
RTVSPost2010PropOp36
 70
     1
102
RTVSPost2010Prop37
 90
       50
102
RTVSPost2010PropOp37
 70
     1
102
RTVSPost2010Prop38
140
0.0
102
RTVSPost2010PropOp38
 70
     1
102
RTVSPost2010Prop39
140
1.0
102
RTVSPost2010PropOp39
 70
     1
102
RTVSPost2010Prop40
 90
        0
102
RTVSPost2010PropOp40
 70
     1
102
RTVSPost2010Prop41ColorIndex
 90
       18
102
RTVSPost2010Prop41ColorRGB
 90
        0
102
RTVSPost2010PropOp41
 70
     1
102
RTVSPost2010Prop42
 90
       50
102
RTVSPost2010PropOp42
 70
     1
102
RTVSPost2010Prop43
 90
        3
102
RTVSPost2010PropOp43
 70
     1
102
RTVSPost2010Prop44ColorIndex
 90
        5
102
RTVSPost2010Prop44ColorRGB
 90
      255
102
RTVSPost2010PropOp44
 70
     1
102
RTVSPost2010Prop45
280
     0
102
RTVSPost2010PropOp45
 70
     1
102
RTVSPost2010Prop46
 90
       50
102
RTVSPost2010PropOp46
 70
     1
102
RTVSPost2010Prop47
 90
       50
102
RTVSPost2010PropOp47
 70
     1
102
RTVSPost2010Prop48
 90
       50
102
RTVSPost2010PropOp48
 70
     1
102
RTVSPost2010Prop49
280
     0
102
RTVSPost2010PropOp49
 70
     1
102
RTVSPost2010Prop50
 90
       50
102
RTVSPost2010PropOp50
 70
     1
102
RTVSPost2010Prop51ColorIndex
 90
      256
102
RTVSPost2010Prop51ColorRGB
 90
-16777216
102
RTVSPost2010PropOp51
 70
     0
102
RTVSPost2010Prop52
140
1.0
102
RTVSPost2010PropOp52
 70
     0
102
RTVSPost2010Prop53
 90
        2
102
RTVSPost2010PropOp53
 70
     1
102
RTVSPost2010Prop54
  1
strokes_ogs.tif
102
RTVSPost2010PropOp54
 70
     1
102
RTVSPost2010Prop55
280
     0
102
RTVSPost2010PropOp55
 70
     1
102
RTVSPost2010Prop56
140
1.0
102
RTVSPost2010PropOp56
 70
     1
102
RTVSPost2010Prop57
140
1.0
102
RTVSPost2010PropOp57
 70
     1
102
RTVSPropertyOp0
 70
     1
102
RTVSPropertyOp1
 70
     1
102
RTVSPropertyOp2
 70
     1
102
RTVSPropertyOp3
 70
     1
102
RTVSPropertyOp4
 70
     1
102
RTVSPropertyOp5
 70
     1
102
RTVSPropertyOp6
 70
     1
102
RTVSPropertyOp7
 70
     1
102
RTVSPropertyOp8
 70
     1
102
RTVSPropertyOp9
 70
     1
102
RTVSPropertyOp10
 70
     1
102
RTVSPropertyOp11
 70
     1
102
RTVSPropertyOp12
 70
     1
102
RTVSPropertyOp13
 70
     1
102
RTVSPropertyOp14
 70
     1
102
RTVSPropertyOp15
 70
     1
102
RTVSPropertyOp16
 70
     1
102
RTVSPropertyOp17
 70
     1
102
RTVSPropertyOp18
 70
     1
102
RTVSPropertyOp19
 70
     1
102
RTVSPropertyOp20
 70
     1
102
RTVSPropertyOp21
 70
     1
102
RTVSPropertyOp22
 70
     1
102
RTVSPropertyOp23
 70
     1
102
RTVSPropertyOp24
 70
     1
102
RTVSPropertyOp25
 70
     1
102
RTVSPropertyOp26
 70
     1
102
RTVSPropertyOp27
 70
     1
102
RTVSPropertyOp28
 70
     1
102
RTVSPropertyOp29
 70
     1
102
RTVSPropertyOp30
 70
     1
102
RTVSPropertyOp31
 70
     1
102
RTVSPropertyOp32
 70
     1
102
RTVSPropertyOp33
 70
     1
102
RTVSPropertyOp34
 70
     1
102
RTVSPropertyOp35
 70
     1
102
RTVSPropertyOp36
 70
     1
102
RTVSPropertyOp37
 70
     1
102
RTVSPropertyOp38
 70
     1
102
RTVSPropertyOp39
 70
     1
102
RTVSPropertyOp40
 70
     1
102
RTVSPropertyOp41
 70
     1
102
RTVSPropertyOp42
 70
     1
102
RTVSPropertyOp43
 70
     1
102
RTVSPropertyOp44
 70
     1
102
RTVSPropertyOp45
 70
     1
102
RTVSPropertyOp46
 70
     1
102
RTVSPropertyOp47
 70
     1
102
RTVSPropertyOp48
 70
     1
102
RTVSPropertyOp49
 70
     1
102
RTVSPropertyOp50
 70
     1
102
RTVSPropertyOp51
 70
     0
102
RTVSPropertyOp52
 70
     0
102
RTVSPropertyOp53
 70
     1
102
RTVSPropertyOp54
 70
     1
102
RTVSPropertyOp55
 70
     1
102
RTVSPropertyOp56
 70
     1
102
RTVSPropertyOp57
 70
     1
102
RTVSPropertyOp58
 70
     1
102
RTVSPropertyOp59
 70
     1
102
RTVSPropertyOp60
 70
     1
102
RTVSPropertyOp61
 70
     1
102
RTVSPropertyOp62
 70
     1
  0
XRECORD
  5
23EF
102
{ACAD_REACTORS
330
23EE
102
}
330
23EE
100
AcDbXrecord
280
     1
102
RTVSPost2010Prop28
280
     0
102
RTVSPost2010PropOp28
 70
     1
102
RTVSPost2010Prop29
280
     1
102
RTVSPost2010PropOp29
 70
     1
102
RTVSPost2010Prop30
280
     1
102
RTVSPost2010PropOp30
 70
     1
102
RTVSPost2010Prop31
280
     0
102
RTVSPost2010PropOp31
 70
     1
102
RTVSPost2010Prop32
280
     0
102
RTVSPost2010PropOp32
 70
     1
102
RTVSPost2010Prop33
280
     0
102
RTVSPost2010PropOp33
 70
     1
102
RTVSPost2010Prop34
280
     0
102
RTVSPost2010PropOp34
 70
     1
102
RTVSPost2010Prop35
280
     0
102
RTVSPost2010PropOp35
 70
     1
102
RTVSPost2010Prop36
280
     0
102
RTVSPost2010PropOp36
 70
     1
102
RTVSPost2010Prop37
 90
       50
102
RTVSPost2010PropOp37
 70
     1
102
RTVSPost2010Prop38
140
0.0
102
RTVSPost2010PropOp38
 70
     1
102
RTVSPost2010Prop39
140
1.0
102
RTVSPost2010PropOp39
 70
     1
102
RTVSPost2010Prop40
 90
        0
102
RTVSPost2010PropOp40
 70
     1
102
RTVSPost2010Prop41ColorIndex
 90
       18
102
RTVSPost2010Prop41ColorRGB
 90
        0
102
RTVSPost2010PropOp41
 70
     1
102
RTVSPost2010Prop42
 90
       50
102
RTVSPost2010PropOp42
 70
     1
102
RTVSPost2010Prop43
 90
        3
102
RTVSPost2010PropOp43
 70
     1
102
RTVSPost2010Prop44ColorIndex
 90
        5
102
RTVSPost2010Prop44ColorRGB
 90
      255
102
RTVSPost2010PropOp44
 70
     1
102
RTVSPost2010Prop45
280
     0
102
RTVSPost2010PropOp45
 70
     1
102
RTVSPost2010Prop46
 90
       50
102
RTVSPost2010PropOp46
 70
     1
102
RTVSPost2010Prop47
 90
       50
102
RTVSPost2010PropOp47
 70
     1
102
RTVSPost2010Prop48
 90
       50
102
RTVSPost2010PropOp48
 70
     1
102
RTVSPost2010Prop49
280
     0
102
RTVSPost2010PropOp49
 70
     1
102
RTVSPost2010Prop50
 90
       50
102
RTVSPost2010PropOp50
 70
     1
102
RTVSPost2010Prop51ColorIndex
 90
      256
102
RTVSPost2010Prop51ColorRGB
 90
-16777216
102
RTVSPost2010PropOp51
 70
     0
102
RTVSPost2010Prop52
140
1.0
102
RTVSPost2010PropOp52
 70
     0
102
RTVSPost2010Prop53
 90
        2
102
RTVSPost2010PropOp53
 70
     1
102
RTVSPost2010Prop54
  1
strokes_ogs.tif
102
RTVSPost2010PropOp54
 70
     1
102
RTVSPost2010Prop55
280
     0
102
RTVSPost2010PropOp55
 70
     1
102
RTVSPost2010Prop56
140
1.0
102
RTVSPost2010PropOp56
 70
     1
102
RTVSPost2010Prop57
140
1.0
102
RTVSPost2010PropOp57
 70
     1
102
RTVSPropertyOp0
 70
     1
102
RTVSPropertyOp1
 70
     1
102
RTVSPropertyOp2
 70
     1
102
RTVSPropertyOp3
 70
     1
102
RTVSPropertyOp4
 70
     1
102
RTVSPropertyOp5
 70
     1
102
RTVSPropertyOp6
 70
     1
102
RTVSPropertyOp7
 70
     1
102
RTVSPropertyOp8
 70
     1
102
RTVSPropertyOp9
 70
     1
102
RTVSPropertyOp10
 70
     1
102
RTVSPropertyOp11
 70
     1
102
RTVSPropertyOp12
 70
     1
102
RTVSPropertyOp13
 70
     1
102
RTVSPropertyOp14
 70
     1
102
RTVSPropertyOp15
 70
     1
102
RTVSPropertyOp16
 70
     1
102
RTVSPropertyOp17
 70
     1
102
RTVSPropertyOp18
 70
     1
102
RTVSPropertyOp19
 70
     1
102
RTVSPropertyOp20
 70
     1
102
RTVSPropertyOp21
 70
     1
102
RTVSPropertyOp22
 70
     1
102
RTVSPropertyOp23
 70
     1
102
RTVSPropertyOp24
 70
     1
102
RTVSPropertyOp25
 70
     1
102
RTVSPropertyOp26
 70
     1
102
RTVSPropertyOp27
 70
     1
102
RTVSPropertyOp28
 70
     1
102
RTVSPropertyOp29
 70
     1
102
RTVSPropertyOp30
 70
     1
102
RTVSPropertyOp31
 70
     1
102
RTVSPropertyOp32
 70
     1
102
RTVSPropertyOp33
 70
     1
102
RTVSPropertyOp34
 70
     1
102
RTVSPropertyOp35
 70
     1
102
RTVSPropertyOp36
 70
     1
102
RTVSPropertyOp37
 70
     1
102
RTVSPropertyOp38
 70
     1
102
RTVSPropertyOp39
 70
     1
102
RTVSPropertyOp40
 70
     1
102
RTVSPropertyOp41
 70
     1
102
RTVSPropertyOp42
 70
     1
102
RTVSPropertyOp43
 70
     1
102
RTVSPropertyOp44
 70
     1
102
RTVSPropertyOp45
 70
     1
102
RTVSPropertyOp46
 70
     1
102
RTVSPropertyOp47
 70
     1
102
RTVSPropertyOp48
 70
     1
102
RTVSPropertyOp49
 70
     1
102
RTVSPropertyOp50
 70
     1
102
RTVSPropertyOp51
 70
     0
102
RTVSPropertyOp52
 70
     0
102
RTVSPropertyOp53
 70
     1
102
RTVSPropertyOp54
 70
     1
102
RTVSPropertyOp55
 70
     1
102
RTVSPropertyOp56
 70
     1
102
RTVSPropertyOp57
 70
     1
102
RTVSPropertyOp58
 70
     1
102
RTVSPropertyOp59
 70
     1
102
RTVSPropertyOp60
 70
     1
102
RTVSPropertyOp61
 70
     1
102
RTVSPropertyOp62
 70
     1
  0
XRECORD
  5
23F1
102
{ACAD_REACTORS
330
23F0
102
}
330
23F0
100
AcDbXrecord
280
     1
102
RTVSPost2010Prop28
280
     0
102
RTVSPost2010PropOp28
 70
     1
102
RTVSPost2010Prop29
280
     1
102
RTVSPost2010PropOp29
 70
     1
102
RTVSPost2010Prop30
280
     1
102
RTVSPost2010PropOp30
 70
     1
102
RTVSPost2010Prop31
280
     0
102
RTVSPost2010PropOp31
 70
     1
102
RTVSPost2010Prop32
280
     0
102
RTVSPost2010PropOp32
 70
     1
102
RTVSPost2010Prop33
280
     0
102
RTVSPost2010PropOp33
 70
     1
102
RTVSPost2010Prop34
280
     0
102
RTVSPost2010PropOp34
 70
     1
102
RTVSPost2010Prop35
280
     0
102
RTVSPost2010PropOp35
 70
     1
102
RTVSPost2010Prop36
280
     0
102
RTVSPost2010PropOp36
 70
     1
102
RTVSPost2010Prop37
 90
       50
102
RTVSPost2010PropOp37
 70
     1
102
RTVSPost2010Prop38
140
0.0
102
RTVSPost2010PropOp38
 70
     1
102
RTVSPost2010Prop39
140
1.0
102
RTVSPost2010PropOp39
 70
     1
102
RTVSPost2010Prop40
 90
        0
102
RTVSPost2010PropOp40
 70
     1
102
RTVSPost2010Prop41ColorIndex
 90
       18
102
RTVSPost2010Prop41ColorRGB
 90
        0
102
RTVSPost2010PropOp41
 70
     1
102
RTVSPost2010Prop42
 90
       50
102
RTVSPost2010PropOp42
 70
     1
102
RTVSPost2010Prop43
 90
        3
102
RTVSPost2010PropOp43
 70
     1
102
RTVSPost2010Prop44ColorIndex
 90
        5
102
RTVSPost2010Prop44ColorRGB
 90
      255
102
RTVSPost2010PropOp44
 70
     1
102
RTVSPost2010Prop45
280
     0
102
RTVSPost2010PropOp45
 70
     1
102
RTVSPost2010Prop46
 90
       50
102
RTVSPost2010PropOp46
 70
     1
102
RTVSPost2010Prop47
 90
       50
102
RTVSPost2010PropOp47
 70
     1
102
RTVSPost2010Prop48
 90
       50
102
RTVSPost2010PropOp48
 70
     1
102
RTVSPost2010Prop49
280
     0
102
RTVSPost2010PropOp49
 70
     1
102
RTVSPost2010Prop50
 90
       50
102
RTVSPost2010PropOp50
 70
     1
102
RTVSPost2010Prop51ColorIndex
 90
      256
102
RTVSPost2010Prop51ColorRGB
 90
-16777216
102
RTVSPost2010PropOp51
 70
     0
102
RTVSPost2010Prop52
140
1.0
102
RTVSPost2010PropOp52
 70
     0
102
RTVSPost2010Prop53
 90
        2
102
RTVSPost2010PropOp53
 70
     1
102
RTVSPost2010Prop54
  1
strokes_ogs.tif
102
RTVSPost2010PropOp54
 70
     1
102
RTVSPost2010Prop55
280
     0
102
RTVSPost2010PropOp55
 70
     1
102
RTVSPost2010Prop56
140
1.0
102
RTVSPost2010PropOp56
 70
     1
102
RTVSPost2010Prop57
140
1.0
102
RTVSPost2010PropOp57
 70
     1
102
RTVSPropertyOp0
 70
     1
102
RTVSPropertyOp1
 70
     1
102
RTVSPropertyOp2
 70
     1
102
RTVSPropertyOp3
 70
     1
102
RTVSPropertyOp4
 70
     1
102
RTVSPropertyOp5
 70
     1
102
RTVSPropertyOp6
 70
     1
102
RTVSPropertyOp7
 70
     1
102
RTVSPropertyOp8
 70
     1
102
RTVSPropertyOp9
 70
     1
102
RTVSPropertyOp10
 70
     1
102
RTVSPropertyOp11
 70
     1
102
RTVSPropertyOp12
 70
     1
102
RTVSPropertyOp13
 70
     1
102
RTVSPropertyOp14
 70
     1
102
RTVSPropertyOp15
 70
     1
102
RTVSPropertyOp16
 70
     1
102
RTVSPropertyOp17
 70
     1
102
RTVSPropertyOp18
 70
     1
102
RTVSPropertyOp19
 70
     1
102
RTVSPropertyOp20
 70
     1
102
RTVSPropertyOp21
 70
     1
102
RTVSPropertyOp22
 70
     1
102
RTVSPropertyOp23
 70
     1
102
RTVSPropertyOp24
 70
     1
102
RTVSPropertyOp25
 70
     1
102
RTVSPropertyOp26
 70
     1
102
RTVSPropertyOp27
 70
     1
102
RTVSPropertyOp28
 70
     1
102
RTVSPropertyOp29
 70
     1
102
RTVSPropertyOp30
 70
     1
102
RTVSPropertyOp31
 70
     1
102
RTVSPropertyOp32
 70
     1
102
RTVSPropertyOp33
 70
     1
102
RTVSPropertyOp34
 70
     1
102
RTVSPropertyOp35
 70
     1
102
RTVSPropertyOp36
 70
     1
102
RTVSPropertyOp37
 70
     1
102
RTVSPropertyOp38
 70
     1
102
RTVSPropertyOp39
 70
     1
102
RTVSPropertyOp40
 70
     1
102
RTVSPropertyOp41
 70
     1
102
RTVSPropertyOp42
 70
     1
102
RTVSPropertyOp43
 70
     1
102
RTVSPropertyOp44
 70
     1
102
RTVSPropertyOp45
 70
     1
102
RTVSPropertyOp46
 70
     1
102
RTVSPropertyOp47
 70
     1
102
RTVSPropertyOp48
 70
     1
102
RTVSPropertyOp49
 70
     1
102
RTVSPropertyOp50
 70
     1
102
RTVSPropertyOp51
 70
     0
102
RTVSPropertyOp52
 70
     0
102
RTVSPropertyOp53
 70
     1
102
RTVSPropertyOp54
 70
     1
102
RTVSPropertyOp55
 70
     1
102
RTVSPropertyOp56
 70
     1
102
RTVSPropertyOp57
 70
     1
102
RTVSPropertyOp58
 70
     1
102
RTVSPropertyOp59
 70
     1
102
RTVSPropertyOp60
 70
     1
102
RTVSPropertyOp61
 70
     1
102
RTVSPropertyOp62
 70
     1
  0
XRECORD
  5
23E7
102
{ACAD_REACTORS
330
23E6
102
}
330
23E6
100
AcDbXrecord
280
     1
102
RTVSPost2010Prop28
280
     0
102
RTVSPost2010PropOp28
 70
     1
102
RTVSPost2010Prop29
280
     1
102
RTVSPost2010PropOp29
 70
     1
102
RTVSPost2010Prop30
280
     1
102
RTVSPost2010PropOp30
 70
     1
102
RTVSPost2010Prop31
280
     0
102
RTVSPost2010PropOp31
 70
     1
102
RTVSPost2010Prop32
280
     0
102
RTVSPost2010PropOp32
 70
     1
102
RTVSPost2010Prop33
280
     0
102
RTVSPost2010PropOp33
 70
     1
102
RTVSPost2010Prop34
280
     0
102
RTVSPost2010PropOp34
 70
     1
102
RTVSPost2010Prop35
280
     0
102
RTVSPost2010PropOp35
 70
     1
102
RTVSPost2010Prop36
280
     0
102
RTVSPost2010PropOp36
 70
     1
102
RTVSPost2010Prop37
 90
       50
102
RTVSPost2010PropOp37
 70
     1
102
RTVSPost2010Prop38
140
0.0
102
RTVSPost2010PropOp38
 70
     1
102
RTVSPost2010Prop39
140
1.0
102
RTVSPost2010PropOp39
 70
     1
102
RTVSPost2010Prop40
 90
        0
102
RTVSPost2010PropOp40
 70
     1
102
RTVSPost2010Prop41ColorIndex
 90
       18
102
RTVSPost2010Prop41ColorRGB
 90
        0
102
RTVSPost2010PropOp41
 70
     1
102
RTVSPost2010Prop42
 90
       50
102
RTVSPost2010PropOp42
 70
     1
102
RTVSPost2010Prop43
 90
        3
102
RTVSPost2010PropOp43
 70
     1
102
RTVSPost2010Prop44ColorIndex
 90
        5
102
RTVSPost2010Prop44ColorRGB
 90
      255
102
RTVSPost2010PropOp44
 70
     1
102
RTVSPost2010Prop45
280
     0
102
RTVSPost2010PropOp45
 70
     1
102
RTVSPost2010Prop46
 90
       50
102
RTVSPost2010PropOp46
 70
     1
102
RTVSPost2010Prop47
 90
       50
102
RTVSPost2010PropOp47
 70
     1
102
RTVSPost2010Prop48
 90
       50
102
RTVSPost2010PropOp48
 70
     1
102
RTVSPost2010Prop49
280
     0
102
RTVSPost2010PropOp49
 70
     1
102
RTVSPost2010Prop50
 90
       50
102
RTVSPost2010PropOp50
 70
     1
102
RTVSPost2010Prop51ColorIndex
 90
      256
102
RTVSPost2010Prop51ColorRGB
 90
-16777216
102
RTVSPost2010PropOp51
 70
     0
102
RTVSPost2010Prop52
140
1.0
102
RTVSPost2010PropOp52
 70
     0
102
RTVSPost2010Prop53
 90
        2
102
RTVSPost2010PropOp53
 70
     1
102
RTVSPost2010Prop54
  1
strokes_ogs.tif
102
RTVSPost2010PropOp54
 70
     1
102
RTVSPost2010Prop55
280
     0
102
RTVSPost2010PropOp55
 70
     1
102
RTVSPost2010Prop56
140
1.0
102
RTVSPost2010PropOp56
 70
     1
102
RTVSPost2010Prop57
140
1.0
102
RTVSPost2010PropOp57
 70
     1
102
RTVSPropertyOp0
 70
     1
102
RTVSPropertyOp1
 70
     1
102
RTVSPropertyOp2
 70
     1
102
RTVSPropertyOp3
 70
     1
102
RTVSPropertyOp4
 70
     1
102
RTVSPropertyOp5
 70
     1
102
RTVSPropertyOp6
 70
     1
102
RTVSPropertyOp7
 70
     1
102
RTVSPropertyOp8
 70
     1
102
RTVSPropertyOp9
 70
     1
102
RTVSPropertyOp10
 70
     1
102
RTVSPropertyOp11
 70
     1
102
RTVSPropertyOp12
 70
     1
102
RTVSPropertyOp13
 70
     1
102
RTVSPropertyOp14
 70
     1
102
RTVSPropertyOp15
 70
     1
102
RTVSPropertyOp16
 70
     1
102
RTVSPropertyOp17
 70
     1
102
RTVSPropertyOp18
 70
     1
102
RTVSPropertyOp19
 70
     1
102
RTVSPropertyOp20
 70
     1
102
RTVSPropertyOp21
 70
     1
102
RTVSPropertyOp22
 70
     1
102
RTVSPropertyOp23
 70
     1
102
RTVSPropertyOp24
 70
     1
102
RTVSPropertyOp25
 70
     1
102
RTVSPropertyOp26
 70
     1
102
RTVSPropertyOp27
 70
     1
102
RTVSPropertyOp28
 70
     1
102
RTVSPropertyOp29
 70
     1
102
RTVSPropertyOp30
 70
     1
102
RTVSPropertyOp31
 70
     1
102
RTVSPropertyOp32
 70
     1
102
RTVSPropertyOp33
 70
     1
102
RTVSPropertyOp34
 70
     1
102
RTVSPropertyOp35
 70
     1
102
RTVSPropertyOp36
 70
     1
102
RTVSPropertyOp37
 70
     1
102
RTVSPropertyOp38
 70
     1
102
RTVSPropertyOp39
 70
     1
102
RTVSPropertyOp40
 70
     1
102
RTVSPropertyOp41
 70
     1
102
RTVSPropertyOp42
 70
     1
102
RTVSPropertyOp43
 70
     1
102
RTVSPropertyOp44
 70
     1
102
RTVSPropertyOp45
 70
     1
102
RTVSPropertyOp46
 70
     1
102
RTVSPropertyOp47
 70
     1
102
RTVSPropertyOp48
 70
     1
102
RTVSPropertyOp49
 70
     1
102
RTVSPropertyOp50
 70
     1
102
RTVSPropertyOp51
 70
     0
102
RTVSPropertyOp52
 70
     0
102
RTVSPropertyOp53
 70
     1
102
RTVSPropertyOp54
 70
     1
102
RTVSPropertyOp55
 70
     1
102
RTVSPropertyOp56
 70
     1
102
RTVSPropertyOp57
 70
     1
102
RTVSPropertyOp58
 70
     1
102
RTVSPropertyOp59
 70
     1
102
RTVSPropertyOp60
 70
     1
102
RTVSPropertyOp61
 70
     1
102
RTVSPropertyOp62
 70
     1
  0
XRECORD
  5
23DB
102
{ACAD_REACTORS
330
23DA
102
}
330
23DA
100
AcDbXrecord
280
     1
102
RTVSPost2010Prop28
280
     0
102
RTVSPost2010PropOp28
 70
     1
102
RTVSPost2010Prop29
280
     1
102
RTVSPost2010PropOp29
 70
     1
102
RTVSPost2010Prop30
280
     1
102
RTVSPost2010PropOp30
 70
     1
102
RTVSPost2010Prop31
280
     0
102
RTVSPost2010PropOp31
 70
     1
102
RTVSPost2010Prop32
280
     0
102
RTVSPost2010PropOp32
 70
     1
102
RTVSPost2010Prop33
280
     0
102
RTVSPost2010PropOp33
 70
     1
102
RTVSPost2010Prop34
280
     0
102
RTVSPost2010PropOp34
 70
     1
102
RTVSPost2010Prop35
280
     0
102
RTVSPost2010PropOp35
 70
     1
102
RTVSPost2010Prop36
280
     0
102
RTVSPost2010PropOp36
 70
     1
102
RTVSPost2010Prop37
 90
       50
102
RTVSPost2010PropOp37
 70
     1
102
RTVSPost2010Prop38
140
0.0
102
RTVSPost2010PropOp38
 70
     1
102
RTVSPost2010Prop39
140
1.0
102
RTVSPost2010PropOp39
 70
     1
102
RTVSPost2010Prop40
 90
        0
102
RTVSPost2010PropOp40
 70
     1
102
RTVSPost2010Prop41ColorIndex
 90
       18
102
RTVSPost2010Prop41ColorRGB
 90
        0
102
RTVSPost2010PropOp41
 70
     1
102
RTVSPost2010Prop42
 90
       50
102
RTVSPost2010PropOp42
 70
     1
102
RTVSPost2010Prop43
 90
        3
102
RTVSPost2010PropOp43
 70
     1
102
RTVSPost2010Prop44ColorIndex
 90
        5
102
RTVSPost2010Prop44ColorRGB
 90
      255
102
RTVSPost2010PropOp44
 70
     1
102
RTVSPost2010Prop45
280
     0
102
RTVSPost2010PropOp45
 70
     1
102
RTVSPost2010Prop46
 90
       50
102
RTVSPost2010PropOp46
 70
     1
102
RTVSPost2010Prop47
 90
       50
102
RTVSPost2010PropOp47
 70
     1
102
RTVSPost2010Prop48
 90
       50
102
RTVSPost2010PropOp48
 70
     1
102
RTVSPost2010Prop49
280
     0
102
RTVSPost2010PropOp49
 70
     1
102
RTVSPost2010Prop50
 90
       50
102
RTVSPost2010PropOp50
 70
     1
102
RTVSPost2010Prop51ColorIndex
 90
      256
102
RTVSPost2010Prop51ColorRGB
 90
-16777216
102
RTVSPost2010PropOp51
 70
     0
102
RTVSPost2010Prop52
140
1.0
102
RTVSPost2010PropOp52
 70
     0
102
RTVSPost2010Prop53
 90
        2
102
RTVSPost2010PropOp53
 70
     1
102
RTVSPost2010Prop54
  1
strokes_ogs.tif
102
RTVSPost2010PropOp54
 70
     1
102
RTVSPost2010Prop55
280
     0
102
RTVSPost2010PropOp55
 70
     1
102
RTVSPost2010Prop56
140
1.0
102
RTVSPost2010PropOp56
 70
     1
102
RTVSPost2010Prop57
140
1.0
102
RTVSPost2010PropOp57
 70
     1
102
RTVSPropertyOp0
 70
     1
102
RTVSPropertyOp1
 70
     1
102
RTVSPropertyOp2
 70
     1
102
RTVSPropertyOp3
 70
     1
102
RTVSPropertyOp4
 70
     1
102
RTVSPropertyOp5
 70
     1
102
RTVSPropertyOp6
 70
     1
102
RTVSPropertyOp7
 70
     1
102
RTVSPropertyOp8
 70
     1
102
RTVSPropertyOp9
 70
     1
102
RTVSPropertyOp10
 70
     1
102
RTVSPropertyOp11
 70
     1
102
RTVSPropertyOp12
 70
     1
102
RTVSPropertyOp13
 70
     1
102
RTVSPropertyOp14
 70
     1
102
RTVSPropertyOp15
 70
     1
102
RTVSPropertyOp16
 70
     1
102
RTVSPropertyOp17
 70
     1
102
RTVSPropertyOp18
 70
     1
102
RTVSPropertyOp19
 70
     1
102
RTVSPropertyOp20
 70
     1
102
RTVSPropertyOp21
 70
     1
102
RTVSPropertyOp22
 70
     1
102
RTVSPropertyOp23
 70
     1
102
RTVSPropertyOp24
 70
     1
102
RTVSPropertyOp25
 70
     1
102
RTVSPropertyOp26
 70
     1
102
RTVSPropertyOp27
 70
     1
102
RTVSPropertyOp28
 70
     1
102
RTVSPropertyOp29
 70
     1
102
RTVSPropertyOp30
 70
     1
102
RTVSPropertyOp31
 70
     1
102
RTVSPropertyOp32
 70
     1
102
RTVSPropertyOp33
 70
     1
102
RTVSPropertyOp34
 70
     1
102
RTVSPropertyOp35
 70
     1
102
RTVSPropertyOp36
 70
     1
102
RTVSPropertyOp37
 70
     1
102
RTVSPropertyOp38
 70
     1
102
RTVSPropertyOp39
 70
     1
102
RTVSPropertyOp40
 70
     1
102
RTVSPropertyOp41
 70
     1
102
RTVSPropertyOp42
 70
     1
102
RTVSPropertyOp43
 70
     1
102
RTVSPropertyOp44
 70
     1
102
RTVSPropertyOp45
 70
     1
102
RTVSPropertyOp46
 70
     1
102
RTVSPropertyOp47
 70
     1
102
RTVSPropertyOp48
 70
     1
102
RTVSPropertyOp49
 70
     1
102
RTVSPropertyOp50
 70
     1
102
RTVSPropertyOp51
 70
     0
102
RTVSPropertyOp52
 70
     0
102
RTVSPropertyOp53
 70
     1
102
RTVSPropertyOp54
 70
     1
102
RTVSPropertyOp55
 70
     1
102
RTVSPropertyOp56
 70
     1
102
RTVSPropertyOp57
 70
     1
102
RTVSPropertyOp58
 70
     1
102
RTVSPropertyOp59
 70
     1
102
RTVSPropertyOp60
 70
     1
102
RTVSPropertyOp61
 70
     1
102
RTVSPropertyOp62
 70
     1
  0
XRECORD
  5
23F3
102
{ACAD_REACTORS
330
23F2
102
}
330
23F2
100
AcDbXrecord
280
     1
102
RTVSPost2010Prop28
280
     0
102
RTVSPost2010PropOp28
 70
     1
102
RTVSPost2010Prop29
280
     1
102
RTVSPost2010PropOp29
 70
     1
102
RTVSPost2010Prop30
280
     1
102
RTVSPost2010PropOp30
 70
     1
102
RTVSPost2010Prop31
280
     0
102
RTVSPost2010PropOp31
 70
     1
102
RTVSPost2010Prop32
280
     0
102
RTVSPost2010PropOp32
 70
     1
102
RTVSPost2010Prop33
280
     0
102
RTVSPost2010PropOp33
 70
     1
102
RTVSPost2010Prop34
280
     0
102
RTVSPost2010PropOp34
 70
     1
102
RTVSPost2010Prop35
280
     0
102
RTVSPost2010PropOp35
 70
     1
102
RTVSPost2010Prop36
280
     0
102
RTVSPost2010PropOp36
 70
     1
102
RTVSPost2010Prop37
 90
       50
102
RTVSPost2010PropOp37
 70
     1
102
RTVSPost2010Prop38
140
0.0
102
RTVSPost2010PropOp38
 70
     1
102
RTVSPost2010Prop39
140
1.0
102
RTVSPost2010PropOp39
 70
     1
102
RTVSPost2010Prop40
 90
        0
102
RTVSPost2010PropOp40
 70
     1
102
RTVSPost2010Prop41ColorIndex
 90
       18
102
RTVSPost2010Prop41ColorRGB
 90
        0
102
RTVSPost2010PropOp41
 70
     1
102
RTVSPost2010Prop42
 90
       50
102
RTVSPost2010PropOp42
 70
     1
102
RTVSPost2010Prop43
 90
        3
102
RTVSPost2010PropOp43
 70
     1
102
RTVSPost2010Prop44ColorIndex
 90
        5
102
RTVSPost2010Prop44ColorRGB
 90
      255
102
RTVSPost2010PropOp44
 70
     1
102
RTVSPost2010Prop45
280
     0
102
RTVSPost2010PropOp45
 70
     1
102
RTVSPost2010Prop46
 90
       50
102
RTVSPost2010PropOp46
 70
     1
102
RTVSPost2010Prop47
 90
       50
102
RTVSPost2010PropOp47
 70
     1
102
RTVSPost2010Prop48
 90
       50
102
RTVSPost2010PropOp48
 70
     1
102
RTVSPost2010Prop49
280
     0
102
RTVSPost2010PropOp49
 70
     1
102
RTVSPost2010Prop50
 90
       50
102
RTVSPost2010PropOp50
 70
     1
102
RTVSPost2010Prop51ColorIndex
 90
      256
102
RTVSPost2010Prop51ColorRGB
 90
-16777216
102
RTVSPost2010PropOp51
 70
     0
102
RTVSPost2010Prop52
140
1.0
102
RTVSPost2010PropOp52
 70
     0
102
RTVSPost2010Prop53
 90
        2
102
RTVSPost2010PropOp53
 70
     1
102
RTVSPost2010Prop54
  1
strokes_ogs.tif
102
RTVSPost2010PropOp54
 70
     1
102
RTVSPost2010Prop55
280
     0
102
RTVSPost2010PropOp55
 70
     1
102
RTVSPost2010Prop56
140
1.0
102
RTVSPost2010PropOp56
 70
     1
102
RTVSPost2010Prop57
140
1.0
102
RTVSPost2010PropOp57
 70
     1
102
RTVSPropertyOp0
 70
     1
102
RTVSPropertyOp1
 70
     1
102
RTVSPropertyOp2
 70
     1
102
RTVSPropertyOp3
 70
     1
102
RTVSPropertyOp4
 70
     1
102
RTVSPropertyOp5
 70
     1
102
RTVSPropertyOp6
 70
     1
102
RTVSPropertyOp7
 70
     1
102
RTVSPropertyOp8
 70
     1
102
RTVSPropertyOp9
 70
     1
102
RTVSPropertyOp10
 70
     1
102
RTVSPropertyOp11
 70
     1
102
RTVSPropertyOp12
 70
     1
102
RTVSPropertyOp13
 70
     1
102
RTVSPropertyOp14
 70
     1
102
RTVSPropertyOp15
 70
     1
102
RTVSPropertyOp16
 70
     1
102
RTVSPropertyOp17
 70
     1
102
RTVSPropertyOp18
 70
     1
102
RTVSPropertyOp19
 70
     1
102
RTVSPropertyOp20
 70
     1
102
RTVSPropertyOp21
 70
     1
102
RTVSPropertyOp22
 70
     1
102
RTVSPropertyOp23
 70
     1
102
RTVSPropertyOp24
 70
     1
102
RTVSPropertyOp25
 70
     1
102
RTVSPropertyOp26
 70
     1
102
RTVSPropertyOp27
 70
     1
102
RTVSPropertyOp28
 70
     1
102
RTVSPropertyOp29
 70
     1
102
RTVSPropertyOp30
 70
     1
102
RTVSPropertyOp31
 70
     1
102
RTVSPropertyOp32
 70
     1
102
RTVSPropertyOp33
 70
     1
102
RTVSPropertyOp34
 70
     1
102
RTVSPropertyOp35
 70
     1
102
RTVSPropertyOp36
 70
     1
102
RTVSPropertyOp37
 70
     1
102
RTVSPropertyOp38
 70
     1
102
RTVSPropertyOp39
 70
     1
102
RTVSPropertyOp40
 70
     1
102
RTVSPropertyOp41
 70
     1
102
RTVSPropertyOp42
 70
     1
102
RTVSPropertyOp43
 70
     1
102
RTVSPropertyOp44
 70
     1
102
RTVSPropertyOp45
 70
     1
102
RTVSPropertyOp46
 70
     1
102
RTVSPropertyOp47
 70
     1
102
RTVSPropertyOp48
 70
     1
102
RTVSPropertyOp49
 70
     1
102
RTVSPropertyOp50
 70
     1
102
RTVSPropertyOp51
 70
     0
102
RTVSPropertyOp52
 70
     0
102
RTVSPropertyOp53
 70
     1
102
RTVSPropertyOp54
 70
     1
102
RTVSPropertyOp55
 70
     1
102
RTVSPropertyOp56
 70
     1
102
RTVSPropertyOp57
 70
     1
102
RTVSPropertyOp58
 70
     1
102
RTVSPropertyOp59
 70
     1
102
RTVSPropertyOp60
 70
     1
102
RTVSPropertyOp61
 70
     1
102
RTVSPropertyOp62
 70
     1
  0
ENDSEC
  0
EOF
