  0
SECTION
  2
HEADER
  9
$ACADVER
  1
AC1018
  9
$ACADMAINTVER
 70
     2
  9
$DWGCODEPAGE
  3
ANSI_1252
  9
$INSBASE
 10
0.0
 20
0.0
 30
0.0
  9
$EXTMIN
 10
-0.0000000000001137
 20
-0.0000000000001137
 30
0.0
  9
$EXTMAX
 10
420.0
 20
594.0000000000002
 30
0.0
  9
$LIMMIN
 10
0.0
 20
0.0
  9
$LIMMAX
 10
419.9999999999999
 20
594.0
  9
$ORTHOMODE
 70
     0
  9
$REGENMODE
 70
     1
  9
$FILLMODE
 70
     1
  9
$QTEXTMODE
 70
     0
  9
$MIRRTEXT
 70
     1
  9
$LTSCALE
 40
20.0
  9
$ATTMODE
 70
     1
  9
$TEXTSIZE
 40
3.5
  9
$TRACEWID
 40
0.5
  9
$TEXTSTYLE
  7
STANDARD
  9
$CLAYER
  8
VOLL
  9
$CELTYPE
  6
ByLayer
  9
$CECOLOR
 62
   256
  9
$CELTSCALE
 40
1.0
  9
$DISPSILH
 70
     0
  9
$DIMSCALE
 40
2.0
  9
$DIMASZ
 40
3.5
  9
$DIMEXO
 40
1.0
  9
$DIMDLI
 40
7.0
  9
$DIMRND
 40
0.0
  9
$DIMDLE
 40
0.0
  9
$DIMEXE
 40
1.0
  9
$DIMTP
 40
0.0
  9
$DIMTM
 40
0.0
  9
$DIMTXT
 40
3.5
  9
$DIMCEN
 40
1.5
  9
$DIMTSZ
 40
0.0
  9
$DIMTOL
 70
     0
  9
$DIMLIM
 70
     0
  9
$DIMTIH
 70
     0
  9
$DIMTOH
 70
     0
  9
$DIMSE1
 70
     0
  9
$DIMSE2
 70
     0
  9
$DIMTAD
 70
     1
  9
$DIMZIN
 70
     8
  9
$DIMBLK
  1

  9
$DIMASO
 70
     1
  9
$DIMSHO
 70
     0
  9
$DIMPOST
  1

  9
$DIMAPOST
  1

  9
$DIMALT
 70
     0
  9
$DIMALTD
 70
     2
  9
$DIMALTF
 40
25.4
  9
$DIMLFAC
 40
1.0
  9
$DIMTOFL
 70
     1
  9
$DIMTVP
 40
0.0
  9
$DIMTIX
 70
     0
  9
$DIMSOXD
 70
     0
  9
$DIMSAH
 70
     0
  9
$DIMBLK1
  1

  9
$DIMBLK2
  1

  9
$DIMSTYLE
  2
Standard
  9
$DIMCLRD
 70
     0
  9
$DIMCLRE
 70
     0
  9
$DIMCLRT
 70
     1
  9
$DIMTFAC
 40
0.5142857142857144
  9
$DIMGAP
 40
1.5
  9
$DIMJUST
 70
     0
  9
$DIMSD1
 70
     0
  9
$DIMSD2
 70
     0
  9
$DIMTOLJ
 70
     1
  9
$DIMTZIN
 70
     8
  9
$DIMALTZ
 70
     8
  9
$DIMALTTZ
 70
     8
  9
$DIMUPT
 70
     0
  9
$DIMDEC
 70
     2
  9
$DIMTDEC
 70
     2
  9
$DIMALTU
 70
     2
  9
$DIMALTTD
 70
     2
  9
$DIMTXSTY
  7
STANDARD
  9
$DIMAUNIT
 70
     0
  9
$DIMADEC
 70
     2
  9
$DIMALTRND
 40
0.0
  9
$DIMAZIN
 70
     2
  9
$DIMDSEP
 70
    46
  9
$DIMATFIT
 70
     3
  9
$DIMFRAC
 70
     0
  9
$DIMLDRBLK
  1

  9
$DIMLUNIT
 70
     2
  9
$DIMLWD
 70
    -2
  9
$DIMLWE
 70
    -2
  9
$DIMTMOVE
 70
     0
  9
$LUNITS
 70
     2
  9
$LUPREC
 70
     2
  9
$SKETCHINC
 40
1.0
  9
$FILLETRAD
 40
0.0
  9
$AUNITS
 70
     0
  9
$AUPREC
 70
     0
  9
$MENU
  1
ACAD
  9
$ELEVATION
 40
0.0
  9
$PELEVATION
 40
0.0
  9
$THICKNESS
 40
0.0
  9
$LIMCHECK
 70
     0
  9
$CHAMFERA
 40
0.0
  9
$CHAMFERB
 40
0.0
  9
$CHAMFERC
 40
0.0
  9
$CHAMFERD
 40
0.0
  9
$SKPOLY
 70
     0
  9
$TDCREATE
 40
2455397.823042361
  9
$TDUCREATE
 40
2455397.781375695
  9
$TDUPDATE
 40
2455502.414081331
  9
$TDUUPDATE
 40
2455502.372414664
  9
$TDINDWG
 40
0.0719013657
  9
$TDUSRTIMER
 40
0.0719013657
  9
$USRTIMER
 70
     1
  9
$ANGBASE
 50
0.0
  9
$ANGDIR
 70
     0
  9
$PDMODE
 70
     0
  9
$PDSIZE
 40
0.0
  9
$PLINEWID
 40
0.0
  9
$SPLFRAME
 70
     0
  9
$SPLINETYPE
 70
     6
  9
$SPLINESEGS
 70
     8
  9
$HANDSEED
  5
EAE
  9
$SURFTAB1
 70
     6
  9
$SURFTAB2
 70
     6
  9
$SURFTYPE
 70
     6
  9
$SURFU
 70
     6
  9
$SURFV
 70
     6
  9
$UCSBASE
  2

  9
$UCSNAME
  2

  9
$UCSORG
 10
0.0
 20
0.0
 30
0.0
  9
$UCSXDIR
 10
1.0
 20
0.0
 30
0.0
  9
$UCSYDIR
 10
0.0
 20
1.0
 30
0.0
  9
$UCSORTHOREF
  2

  9
$UCSORTHOVIEW
 70
     0
  9
$UCSORGTOP
 10
0.0
 20
0.0
 30
0.0
  9
$UCSORGBOTTOM
 10
0.0
 20
0.0
 30
0.0
  9
$UCSORGLEFT
 10
0.0
 20
0.0
 30
0.0
  9
$UCSORGRIGHT
 10
0.0
 20
0.0
 30
0.0
  9
$UCSORGFRONT
 10
0.0
 20
0.0
 30
0.0
  9
$UCSORGBACK
 10
0.0
 20
0.0
 30
0.0
  9
$PUCSBASE
  2

  9
$PUCSNAME
  2

  9
$PUCSORG
 10
0.0
 20
0.0
 30
0.0
  9
$PUCSXDIR
 10
1.0
 20
0.0
 30
0.0
  9
$PUCSYDIR
 10
0.0
 20
1.0
 30
0.0
  9
$PUCSORTHOREF
  2

  9
$PUCSORTHOVIEW
 70
     0
  9
$PUCSORGTOP
 10
0.0
 20
0.0
 30
0.0
  9
$PUCSORGBOTTOM
 10
0.0
 20
0.0
 30
0.0
  9
$PUCSORGLEFT
 10
0.0
 20
0.0
 30
0.0
  9
$PUCSORGRIGHT
 10
0.0
 20
0.0
 30
0.0
  9
$PUCSORGFRONT
 10
0.0
 20
0.0
 30
0.0
  9
$PUCSORGBACK
 10
0.0
 20
0.0
 30
0.0
  9
$USERI1
 70
     0
  9
$USERI2
 70
     0
  9
$USERI3
 70
     0
  9
$USERI4
 70
     0
  9
$USERI5
 70
     0
  9
$USERR1
 40
0.0
  9
$USERR2
 40
0.0
  9
$USERR3
 40
0.0
  9
$USERR4
 40
0.0
  9
$USERR5
 40
0.0
  9
$WORLDVIEW
 70
     1
  9
$SHADEDGE
 70
     3
  9
$SHADEDIF
 70
    70
  9
$TILEMODE
 70
     1
  9
$MAXACTVP
 70
    16
  9
$PINSBASE
 10
0.0
 20
0.0
 30
0.0
  9
$PLIMCHECK
 70
     0
  9
$PEXTMIN
 10
1.000000000000000E+20
 20
1.000000000000000E+20
 30
1.000000000000000E+20
  9
$PEXTMAX
 10
-1.000000000000000E+20
 20
-1.000000000000000E+20
 30
-1.000000000000000E+20
  9
$PLIMMIN
 10
0.0
 20
0.0
  9
$PLIMMAX
 10
12.0
 20
9.0
  9
$UNITMODE
 70
     0
  9
$VISRETAIN
 70
     0
  9
$PLINEGEN
 70
     0
  9
$PSLTSCALE
 70
     0
  9
$TREEDEPTH
 70
  3020
  9
$CMLSTYLE
  2
Standard
  9
$CMLJUST
 70
     0
  9
$CMLSCALE
 40
1.0
  9
$PROXYGRAPHICS
 70
     1
  9
$MEASUREMENT
 70
     0
  9
$CELWEIGHT
370
    -1
  9
$ENDCAPS
280
     0
  9
$JOINSTYLE
280
     0
  9
$LWDISPLAY
290
     0
  9
$INSUNITS
 70
     0
  9
$HYPERLINKBASE
  1

  9
$STYLESHEET
  1

  9
$XEDIT
290
     1
  9
$CEPSNTYPE
380
     0
  9
$PSTYLEMODE
290
     1
  9
$FINGERPRINTGUID
  2
{D68B0D02-A558-11D7-B632-000102183313}
  9
$VERSIONGUID
  2
{7379C0A5-846E-4B34-BB4F-B7ECF6D93A4C}
  9
$EXTNAMES
290
     1
  9
$PSVPSCALE
 40
0.0
  9
$OLESTARTUP
290
     0
  9
$SORTENTS
280
   127
  9
$INDEXCTL
280
     0
  9
$HIDETEXT
280
     0
  9
$XCLIPFRAME
290
     0
  9
$HALOGAP
280
     0
  9
$OBSCOLOR
 70
   257
  9
$OBSLTYPE
280
     0
  9
$INTERSECTIONDISPLAY
280
     0
  9
$INTERSECTIONCOLOR
 70
   257
  9
$DIMASSOC
280
     1
  9
$PROJECTNAME
  1

  0
ENDSEC
  0
SECTION
  2
CLASSES
  0
CLASS
  1
ACDBDICTIONARYWDFLT
  2
AcDbDictionaryWithDefault
  3
ObjectDBX Classes
 90
        0
 91
        1
280
     0
281
     0
  0
CLASS
  1
DICTIONARYVAR
  2
AcDbDictionaryVar
  3
ObjectDBX Classes
 90
        0
 91
        2
280
     0
281
     0
  0
ENDSEC
  0
SECTION
  2
TABLES
  0
TABLE
  2
VPORT
  5
8
330
0
100
AcDbSymbolTable
 70
     2
  0
VPORT
  5
EAD
330
8
100
AcDbSymbolTableRecord
100
AcDbViewportTableRecord
  2
*Active
 70
     0
 10
0.0
 20
0.0
 11
1.0
 21
1.0
 12
220.4070080862533
 22
297.0
 13
0.0
 23
0.0
 14
1.0
 24
1.0
 15
10.0
 25
10.0
 16
0.0
 26
0.0
 36
1.0
 17
0.0
 27
0.0
 37
0.0
 40
594.18004911509
 41
1.336927223719676
 42
50.0
 43
0.0
 44
0.0
 50
0.0
 51
0.0
 71
     0
 72
  1500
 73
     1
 74
     0
 75
     0
 76
     0
 77
     0
 78
     0
281
     0
 65
     1
110
0.0
120
0.0
130
0.0
111
1.0
121
0.0
131
0.0
112
0.0
122
1.0
132
0.0
 79
     0
146
0.0
  0
ENDTAB
  0
TABLE
  2
LTYPE
  5
5
330
0
100
AcDbSymbolTable
 70
     3
  0
LTYPE
  5
13
330
5
100
AcDbSymbolTableRecord
100
AcDbLinetypeTableRecord
  2
ByBlock
 70
     0
  3

 72
    65
 73
     0
 40
0.0
  0
LTYPE
  5
14
330
5
100
AcDbSymbolTableRecord
100
AcDbLinetypeTableRecord
  2
ByLayer
 70
     0
  3

 72
    65
 73
     0
 40
0.0
  0
LTYPE
  5
15
330
5
100
AcDbSymbolTableRecord
100
AcDbLinetypeTableRecord
  2
Continuous
 70
     0
  3
Solid line
 72
    65
 73
     0
 40
0.0
  0
LTYPE
  5
25
330
5
100
AcDbSymbolTableRecord
100
AcDbLinetypeTableRecord
  2
STRICHPUNKT
 70
     0
  3
__ . __ . __ . __ . __ . __ . __ . __ . __ . __
 72
    65
 73
     4
 40
1.0
 49
0.5
 74
     0
 49
-0.25
 74
     0
 49
0.0
 74
     0
 49
-0.25
 74
     0
  0
LTYPE
  5
32
330
5
100
AcDbSymbolTableRecord
100
AcDbLinetypeTableRecord
  2
AUSGEZOGEN
 70
     0
  3
Ausgezogene Linie
 72
    65
 73
     0
 40
0.0
  0
ENDTAB
  0
TABLE
  2
LAYER
  5
2
330
0
100
AcDbSymbolTable
 70
     9
  0
LAYER
  5
10
330
2
100
AcDbSymbolTableRecord
100
AcDbLayerTableRecord
  2
0
 70
     0
 62
     7
  6
Continuous
370
    -3
390
F
  0
LAYER
  5
2A
330
2
100
AcDbSymbolTableRecord
100
AcDbLayerTableRecord
  2
VOLL
 70
     0
 62
     1
  6
Continuous
370
    -3
390
F
  0
LAYER
  5
2B
330
2
100
AcDbSymbolTableRecord
100
AcDbLayerTableRecord
  2
HILF
 70
     0
 62
     2
  6
Continuous
370
    -3
390
F
  0
LAYER
  5
2C
330
2
100
AcDbSymbolTableRecord
100
AcDbLayerTableRecord
  2
MITTEL
 70
     0
 62
     2
  6
STRICHPUNKT
370
    -3
390
F
  0
LAYER
  5
2F
330
2
100
AcDbSymbolTableRecord
100
AcDbLayerTableRecord
  2
BEM
 70
     0
 62
     7
  6
Continuous
370
    -3
390
F
  0
LAYER
  5
30
330
2
100
AcDbSymbolTableRecord
100
AcDbLayerTableRecord
  2
STEMPEL
 70
     0
 62
     3
  6
Continuous
370
    -3
390
F
  0
LAYER
  5
31
330
2
100
AcDbSymbolTableRecord
100
AcDbLayerTableRecord
  2
TEXT
 70
     0
 62
     7
  6
Continuous
370
    -3
390
F
  0
LAYER
  5
474
330
2
100
AcDbSymbolTableRecord
100
AcDbLayerTableRecord
  2
DEFPOINTS
 70
     0
 62
     7
  6
AUSGEZOGEN
290
     0
370
    -3
390
F
  0
LAYER
  5
475
330
2
100
AcDbSymbolTableRecord
100
AcDbLayerTableRecord
  2
SCHRAFF
 70
     0
 62
     7
  6
AUSGEZOGEN
370
    -3
390
F
  0
ENDTAB
  0
TABLE
  2
STYLE
  5
3
330
0
100
AcDbSymbolTable
 70
     2
  0
STYLE
  5
11
330
3
100
AcDbSymbolTableRecord
100
AcDbTextStyleTableRecord
  2
STANDARD
 70
     0
 40
0.0
 41
0.8
 50
0.0
 71
     0
 42
3.5
  3
simplex.shx
  4

  0
STYLE
  5
24
330
3
100
AcDbSymbolTableRecord
100
AcDbTextStyleTableRecord
  2
GREEKS
 70
     0
 40
0.0
 41
0.8
 50
0.0
 71
     0
 42
2.5
  3
SIMPLEX.shx
  4

  0
ENDTAB
  0
TABLE
  2
VIEW
  5
6
330
0
100
AcDbSymbolTable
 70
     0
  0
ENDTAB
  0
TABLE
  2
UCS
  5
7
330
0
100
AcDbSymbolTable
 70
     0
  0
ENDTAB
  0
TABLE
  2
APPID
  5
9
330
0
100
AcDbSymbolTable
 70
     1
  0
APPID
  5
12
330
9
100
AcDbSymbolTableRecord
100
AcDbRegAppTableRecord
  2
ACAD
 70
     0
  0
ENDTAB
  0
TABLE
  2
DIMSTYLE
  5
A
330
0
100
AcDbSymbolTable
 70
     1
100
AcDbDimStyleTable
 71
     1
340
9D
  0
DIMSTYLE
105
9D
102
{ACAD_REACTORS
330
ADD
330
ADE
330
AF0
330
D66
330
D67
330
D68
102
}
330
A
100
AcDbSymbolTableRecord
100
AcDbDimStyleTableRecord
  2
Standard
 70
     0
340
11
  0
ENDTAB
  0
TABLE
  2
BLOCK_RECORD
  5
1
330
0
100
AcDbSymbolTable
 70
     7
  0
BLOCK_RECORD
  5
1E
102
{ACAD_XDICTIONARY
360
A0
102
}
330
1
100
AcDbSymbolTableRecord
100
AcDbBlockTableRecord
  2
*Model_Space
340
21
  0
BLOCK_RECORD
  5
1A
102
{ACAD_XDICTIONARY
360
A2
102
}
330
1
100
AcDbSymbolTableRecord
100
AcDbBlockTableRecord
  2
*Paper_Space
340
1D
  0
BLOCK_RECORD
  5
22
330
1
100
AcDbSymbolTableRecord
100
AcDbBlockTableRecord
  2
LOGO
340
0
102
{BLKREFS
331
AE6
102
}
  0
BLOCK_RECORD
  5
BE8
330
1
100
AcDbSymbolTableRecord
100
AcDbBlockTableRecord
  2
*D1
340
0
  0
BLOCK_RECORD
  5
BF4
330
1
100
AcDbSymbolTableRecord
100
AcDbBlockTableRecord
  2
*D2
340
0
  0
BLOCK_RECORD
  5
C00
330
1
100
AcDbSymbolTableRecord
100
AcDbBlockTableRecord
  2
*D3
340
0
  0
BLOCK_RECORD
  5
D76
330
1
100
AcDbSymbolTableRecord
100
AcDbBlockTableRecord
  2
*D4
340
0
  0
BLOCK_RECORD
  5
D82
330
1
100
AcDbSymbolTableRecord
100
AcDbBlockTableRecord
  2
*D5
340
0
  0
BLOCK_RECORD
  5
D8E
330
1
100
AcDbSymbolTableRecord
100
AcDbBlockTableRecord
  2
*D6
340
0
  0
ENDTAB
  0
ENDSEC
  0
SECTION
  2
BLOCKS
  0
BLOCK
  5
35
330
1E
100
AcDbEntity
  8
0
100
AcDbBlockBegin
  2
*Model_Space
 70
     0
 10
0.0
 20
0.0
 30
0.0
  3
*Model_Space
  1

  0
ENDBLK
  5
36
330
1E
100
AcDbEntity
  8
0
100
AcDbBlockEnd
  0
BLOCK
  5
33
330
1A
100
AcDbEntity
 67
     1
  8
0
100
AcDbBlockBegin
  2
*Paper_Space
 70
     0
 10
0.0
 20
0.0
 30
0.0
  3
*Paper_Space
  1

  0
ENDBLK
  5
34
330
1A
100
AcDbEntity
 67
     1
  8
0
100
AcDbBlockEnd
  0
BLOCK
  5
37
330
22
100
AcDbEntity
  8
0
100
AcDbBlockBegin
  2
LOGO
 70
     0
 10
0.0
 20
0.0
 30
0.0
  3
LOGO
  1

  0
ARC
  5
38
330
22
100
AcDbEntity
  8
0
100
AcDbCircle
 10
11.59973089678112
 20
-9.271599258481501
 30
0.0
 40
4.5
100
AcDbArc
 50
270.0
 51
231.0575587310159
  0
LINE
  5
39
330
22
100
AcDbEntity
  8
0
100
AcDbLine
 10
3.599730896781125
 20
-4.771599258481529
 30
0.0
 11
3.599730896781153
 21
-11.77159925848133
 31
0.0
  0
LINE
  5
3A
330
22
100
AcDbEntity
  8
0
100
AcDbLine
 10
2.599730896781125
 20
-4.771599258481529
 30
0.0
 11
2.599730896781153
 21
-11.77159925848133
 31
0.0
  0
CIRCLE
  5
3B
330
22
100
AcDbEntity
  8
0
100
AcDbCircle
 10
11.59973089678112
 20
-9.271599258481501
 30
0.0
 40
3.5
  0
ARC
  5
3C
330
22
100
AcDbEntity
  8
0
100
AcDbCircle
 10
31.59973089678115
 20
-9.271599258481472
 30
0.0
 40
4.5
100
AcDbArc
 50
270.0
 51
231.0575587310182
  0
LINE
  5
3D
330
22
100
AcDbEntity
  8
0
100
AcDbLine
 10
17.59973089678112
 20
-4.771599258481472
 30
0.0
 11
17.59973089678115
 21
-13.77159925848147
 31
0.0
  0
ARC
  5
3E
330
22
100
AcDbEntity
  8
0
100
AcDbCircle
 10
22.59973089678116
 20
-7.271599258481472
 30
0.0
 40
2.5
100
AcDbArc
 50
293.1161887722295
 51
90.0
  0
CIRCLE
  5
3F
330
22
100
AcDbEntity
  8
0
100
AcDbCircle
 10
31.59973089678115
 20
-9.271599258481472
 30
0.0
 40
3.5
  0
ARC
  5
40
330
22
100
AcDbEntity
  8
0
100
AcDbCircle
 10
4.599730896781153
 20
-11.77159925848133
 30
0.0
 40
1.0
100
AcDbArc
 50
180.0
 51
270.0
  0
ARC
  5
41
330
22
100
AcDbEntity
  8
0
100
AcDbCircle
 10
4.599730896781153
 20
-11.77159925848133
 30
0.0
 40
2.0
100
AcDbArc
 50
179.9999999999992
 51
270.0
  0
LINE
  5
42
330
22
100
AcDbEntity
  8
0
100
AcDbLine
 10
11.59973089678115
 20
-13.77159925848144
 30
0.0
 11
4.599730896781153
 21
-13.77159925848147
 31
0.0
  0
LINE
  5
43
330
22
100
AcDbEntity
  8
0
100
AcDbLine
 10
8.771303772034769
 20
-12.77159925848136
 30
0.0
 11
4.599730896781153
 21
-12.77159925848133
 31
0.0
  0
LINE
  5
44
330
22
100
AcDbEntity
  8
0
100
AcDbLine
 10
31.59973089678115
 20
-13.77159925848147
 30
0.0
 11
23.6715276665056
 21
-13.77159925848144
 31
0.0
  0
LINE
  5
45
330
22
100
AcDbEntity
  8
0
100
AcDbLine
 10
23.56565672307022
 20
-9.51278021337896
 30
0.0
 11
24.4388546544846
 21
-12.77159925848144
 31
0.0
  0
LINE
  5
46
330
22
100
AcDbEntity
  8
0
100
AcDbLine
 10
22.59973089678116
 20
-9.771599258481472
 30
0.0
 11
18.59973089678112
 21
-9.771599258481472
 31
0.0
  0
LINE
  5
47
330
22
100
AcDbEntity
  8
0
100
AcDbLine
 10
18.59973089678115
 20
-13.77159925848144
 30
0.0
 11
17.59973089678115
 21
-13.77159925848144
 31
0.0
  0
LINE
  5
48
330
22
100
AcDbEntity
  8
0
100
AcDbLine
 10
18.59973089678115
 20
-9.771599258481472
 30
0.0
 11
18.59973089678115
 21
-13.77159925848144
 31
0.0
  0
LINE
  5
49
330
22
100
AcDbEntity
  8
0
100
AcDbLine
 10
22.59973089678116
 20
-9.771599258481472
 30
0.0
 11
23.67152766650562
 21
-13.77159925848147
 31
0.0
  0
ARC
  5
4A
330
22
100
AcDbEntity
  8
0
100
AcDbCircle
 10
22.59973089678116
 20
-7.271599258481472
 30
0.0
 40
2.5
100
AcDbArc
 50
270.0
 51
270.0000000000007
  0
LINE
  5
4B
330
22
100
AcDbEntity
  8
0
100
AcDbLine
 10
28.77130377203494
 20
-12.77159925848147
 30
0.0
 11
24.43885465448463
 21
-12.77159925848144
 31
0.0
  0
LINE
  5
4C
330
22
100
AcDbEntity
  8
0
100
AcDbLine
 10
3.599730896781125
 20
-4.771599258481472
 30
0.0
 11
2.599730896781125
 21
-4.771599258481472
 31
0.0
  0
LINE
  5
4D
330
22
100
AcDbEntity
  8
0
100
AcDbLine
 10
22.59973089678116
 20
-8.771599258481472
 30
0.0
 11
18.59973089678115
 21
-8.771599258481472
 31
0.0
  0
LINE
  5
4E
330
22
100
AcDbEntity
  8
0
100
AcDbLine
 10
22.59973089678116
 20
-5.771599258481472
 30
0.0
 11
18.59973089678115
 21
-5.771599258481472
 31
0.0
  0
LINE
  5
4F
330
22
100
AcDbEntity
  8
0
100
AcDbLine
 10
22.59973089678116
 20
-4.771599258481472
 30
0.0
 11
17.59973089678115
 21
-4.771599258481472
 31
0.0
  0
LINE
  5
50
330
22
100
AcDbEntity
  8
0
100
AcDbLine
 10
18.59973089678115
 20
-5.771599258481472
 30
0.0
 11
18.59973089678115
 21
-8.771599258481472
 31
0.0
  0
ARC
  5
51
330
22
100
AcDbEntity
  8
0
100
AcDbCircle
 10
22.59973089678116
 20
-7.271599258481472
 30
0.0
 40
1.5
100
AcDbArc
 50
270.0
 51
90.0
  0
ENDBLK
  5
52
330
22
100
AcDbEntity
  8
0
100
AcDbBlockEnd
  0
BLOCK
  5
BF2
330
BE8
100
AcDbEntity
  8
0
100
AcDbBlockBegin
  2
*D1
 70
     1
 10
0.0
 20
0.0
 30
0.0
  3
*D1
  1

  0
LINE
  5
C0C
330
BE8
100
AcDbEntity
  8
BEM
 62
     0
370
    -2
100
AcDbLine
 10
163.48528277481
 20
177.2237895507761
 30
0.0
 11
163.48528277481
 21
138.2065484490335
 31
0.0
  0
LINE
  5
C0D
330
BE8
100
AcDbEntity
  8
BEM
 62
     0
370
    -2
100
AcDbLine
 10
296.4852827748099
 20
177.2237895507823
 30
0.0
 11
296.4852827748099
 21
138.2065484490335
 31
0.0
  0
LINE
  5
C0E
330
BE8
100
AcDbEntity
  8
BEM
 62
     0
370
    -2
100
AcDbLine
 10
170.48528277481
 20
140.2065484490335
 30
0.0
 11
289.4852827748099
 21
140.2065484490335
 31
0.0
  0
SOLID
  5
C0F
330
BE8
100
AcDbEntity
  8
BEM
 62
     0
100
AcDbTrace
 10
170.48528277481
 20
141.3732151157001
 30
0.0
 11
170.48528277481
 21
139.0398817823668
 31
0.0
 12
163.48528277481
 22
140.2065484490335
 32
0.0
 13
163.48528277481
 23
140.2065484490335
 33
0.0
  0
SOLID
  5
C10
330
BE8
100
AcDbEntity
  8
BEM
 62
     0
100
AcDbTrace
 10
289.4852827748099
 20
141.3732151157001
 30
0.0
 11
289.4852827748099
 21
139.0398817823668
 31
0.0
 12
296.4852827748099
 22
140.2065484490335
 32
0.0
 13
296.4852827748099
 23
140.2065484490335
 33
0.0
  0
MTEXT
  5
C11
330
BE8
100
AcDbEntity
  8
BEM
 62
     1
100
AcDbMText
 10
229.98528277481
 20
145.7065484490335
 30
0.0
 40
7.0
 41
0.0
 71
     5
 72
     1
  1
\A1;%%c133
  7
GREEKS
 73
     1
 44
1.0
  0
POINT
  5
C12
330
BE8
100
AcDbEntity
  8
DEFPOINTS
 62
     0
100
AcDbPoint
 10
163.48528277481
 20
179.2237895507761
 30
0.0
  0
POINT
  5
C13
330
BE8
100
AcDbEntity
  8
DEFPOINTS
 62
     0
100
AcDbPoint
 10
296.4852827748099
 20
179.2237895507822
 30
0.0
  0
POINT
  5
C14
330
BE8
100
AcDbEntity
  8
DEFPOINTS
 62
     0
100
AcDbPoint
 10
296.4852827748099
 20
140.2065484490335
 30
0.0
  0
ENDBLK
  5
BF3
330
BE8
100
AcDbEntity
  8
0
100
AcDbBlockEnd
  0
BLOCK
  5
BFE
330
BF4
100
AcDbEntity
  8
0
100
AcDbBlockBegin
  2
*D2
 70
     1
 10
0.0
 20
0.0
 30
0.0
  3
*D2
  1

  0
LINE
  5
C77
330
BF4
100
AcDbEntity
  8
BEM
 62
     0
370
    -2
100
AcDbLine
 10
64.98528277480989
 20
447.2237895507757
 30
0.0
 11
64.98528277480989
 21
493.0686385989916
 31
0.0
  0
LINE
  5
C78
330
BF4
100
AcDbEntity
  8
BEM
 62
     0
370
    -2
100
AcDbLine
 10
394.9852827748099
 20
447.2237895507756
 30
0.0
 11
394.9852827748099
 21
493.0686385989916
 31
0.0
  0
LINE
  5
C79
330
BF4
100
AcDbEntity
  8
BEM
 62
     0
370
    -2
100
AcDbLine
 10
71.98528277480988
 20
490.0686385989915
 30
0.0
 11
387.9852827748099
 21
490.0686385989915
 31
0.0
  0
SOLID
  5
C7A
330
BF4
100
AcDbEntity
  8
BEM
 62
     0
100
AcDbTrace
 10
71.98528277480988
 20
491.2353052656582
 30
0.0
 11
71.98528277480988
 21
488.9019719323249
 31
0.0
 12
64.98528277480989
 22
490.0686385989915
 32
0.0
 13
64.98528277480989
 23
490.0686385989915
 33
0.0
  0
SOLID
  5
C7B
330
BF4
100
AcDbEntity
  8
BEM
 62
     0
100
AcDbTrace
 10
387.9852827748099
 20
491.2353052656582
 30
0.0
 11
387.9852827748099
 21
488.9019719323249
 31
0.0
 12
394.9852827748099
 22
490.0686385989915
 32
0.0
 13
394.9852827748099
 23
490.0686385989915
 33
0.0
  0
MTEXT
  5
C7C
330
BF4
100
AcDbEntity
  8
BEM
 62
     1
100
AcDbMText
 10
229.9852827748099
 20
495.5686385989915
 30
0.0
 40
7.0
 41
0.0
 71
     5
 72
     1
  1
\A1;%%c330
  7
GREEKS
 73
     1
 44
1.0
  0
POINT
  5
C7D
330
BF4
100
AcDbEntity
  8
DEFPOINTS
 62
     0
100
AcDbPoint
 10
64.98528277480989
 20
445.2237895507757
 30
0.0
  0
POINT
  5
C7E
330
BF4
100
AcDbEntity
  8
DEFPOINTS
 62
     0
100
AcDbPoint
 10
394.9852827748099
 20
445.2237895507756
 30
0.0
  0
POINT
  5
C7F
330
BF4
100
AcDbEntity
  8
DEFPOINTS
 62
     0
100
AcDbPoint
 10
394.9852827748099
 20
490.0686385989915
 30
0.0
  0
ENDBLK
  5
BFF
330
BF4
100
AcDbEntity
  8
0
100
AcDbBlockEnd
  0
BLOCK
  5
C0A
330
C00
100
AcDbEntity
  8
0
100
AcDbBlockBegin
  2
*D3
 70
     1
 10
0.0
 20
0.0
 30
0.0
  3
*D3
  1

  0
LINE
  5
DC7
330
C00
100
AcDbEntity
  8
BEM
 62
     0
370
    -2
100
AcDbLine
 10
162.9725900547507
 20
162.2237895507756
 30
0.0
 11
43.11506563948426
 21
162.2237895507757
 31
0.0
  0
LINE
  5
DC8
330
C00
100
AcDbEntity
  8
BEM
 62
     0
370
    -2
100
AcDbLine
 10
62.98528277480989
 20
442.2237895507756
 30
0.0
 11
43.11506563948433
 21
442.2237895507756
 31
0.0
  0
LINE
  5
DC9
330
C00
100
AcDbEntity
  8
BEM
 62
     0
370
    -2
100
AcDbLine
 10
45.11506563948426
 20
169.2237895507757
 30
0.0
 11
45.11506563948432
 21
435.2237895507756
 31
0.0
  0
SOLID
  5
DCA
330
C00
100
AcDbEntity
  8
BEM
 62
     0
100
AcDbTrace
 10
43.9483989728176
 20
169.2237895507757
 30
0.0
 11
46.28173230615092
 21
169.2237895507757
 31
0.0
 12
45.11506563948426
 22
162.2237895507757
 32
0.0
 13
45.11506563948426
 23
162.2237895507757
 33
0.0
  0
SOLID
  5
DCB
330
C00
100
AcDbEntity
  8
BEM
 62
     0
100
AcDbTrace
 10
43.94839897281766
 20
435.2237895507756
 30
0.0
 11
46.28173230615099
 21
435.2237895507756
 31
0.0
 12
45.11506563948432
 22
442.2237895507756
 32
0.0
 13
45.11506563948432
 23
442.2237895507756
 33
0.0
  0
MTEXT
  5
DCC
330
C00
100
AcDbEntity
  8
BEM
 62
     1
100
AcDbMText
 10
39.61506563948425
 20
302.2237895507757
 30
0.0
 40
7.0
 41
0.0
 71
     5
 72
     1
  1
\A1;280
  7
GREEKS
 11
0.0000000000000001
 21
1.0
 31
0.0
 73
     1
 44
1.0
  0
POINT
  5
DCD
330
C00
100
AcDbEntity
  8
DEFPOINTS
 62
     0
100
AcDbPoint
 10
164.9725900547507
 20
162.2237895507756
 30
0.0
  0
POINT
  5
DCE
330
C00
100
AcDbEntity
  8
DEFPOINTS
 62
     0
100
AcDbPoint
 10
64.98528277480989
 20
442.2237895507756
 30
0.0
  0
POINT
  5
DCF
330
C00
100
AcDbEntity
  8
DEFPOINTS
 62
     0
100
AcDbPoint
 10
45.11506563948432
 20
442.2237895507756
 30
0.0
  0
ENDBLK
  5
C0B
330
C00
100
AcDbEntity
  8
0
100
AcDbBlockEnd
  0
BLOCK
  5
D80
330
D76
100
AcDbEntity
  8
0
100
AcDbBlockBegin
  2
*D4
 70
     1
 10
0.0
 20
0.0
 30
0.0
  3
*D4
  1

  0
LINE
  5
DBE
330
D76
100
AcDbEntity
  8
BEM
 62
     0
370
    -2
100
AcDbLine
 10
134.98528277481
 20
277.223789550775
 30
0.0
 11
134.98528277481
 21
257.6666870059136
 31
0.0
  0
LINE
  5
DBF
330
D76
100
AcDbEntity
  8
BEM
 62
     0
370
    -2
100
AcDbLine
 10
324.98528277481
 20
277.223789550775
 30
0.0
 11
324.98528277481
 21
257.6666870059136
 31
0.0
  0
LINE
  5
DC0
330
D76
100
AcDbEntity
  8
BEM
 62
     0
370
    -2
100
AcDbLine
 10
141.98528277481
 20
259.6666870059136
 30
0.0
 11
317.98528277481
 21
259.6666870059136
 31
0.0
  0
SOLID
  5
DC1
330
D76
100
AcDbEntity
  8
BEM
 62
     0
100
AcDbTrace
 10
141.98528277481
 20
260.8333536725802
 30
0.0
 11
141.98528277481
 21
258.5000203392469
 31
0.0
 12
134.98528277481
 22
259.6666870059136
 32
0.0
 13
134.98528277481
 23
259.6666870059136
 33
0.0
  0
SOLID
  5
DC2
330
D76
100
AcDbEntity
  8
BEM
 62
     0
100
AcDbTrace
 10
317.98528277481
 20
260.8333536725802
 30
0.0
 11
317.98528277481
 21
258.5000203392469
 31
0.0
 12
324.98528277481
 22
259.6666870059136
 32
0.0
 13
324.98528277481
 23
259.6666870059136
 33
0.0
  0
MTEXT
  5
DC3
330
D76
100
AcDbEntity
  8
BEM
 62
     1
100
AcDbMText
 10
229.98528277481
 20
266.1666870059136
 30
0.0
 40
7.0
 41
0.0
 71
     5
 72
     1
  1
\A1;%%c190
 73
     1
 44
1.0
  0
POINT
  5
DC4
330
D76
100
AcDbEntity
  8
DEFPOINTS
 62
     0
100
AcDbPoint
 10
134.98528277481
 20
279.223789550775
 30
0.0
  0
POINT
  5
DC5
330
D76
100
AcDbEntity
  8
DEFPOINTS
 62
     0
100
AcDbPoint
 10
324.98528277481
 20
279.223789550775
 30
0.0
  0
POINT
  5
DC6
330
D76
100
AcDbEntity
  8
DEFPOINTS
 62
     0
100
AcDbPoint
 10
324.98528277481
 20
259.6666870059136
 30
0.0
  0
ENDBLK
  5
D81
330
D76
100
AcDbEntity
  8
0
100
AcDbBlockEnd
  0
BLOCK
  5
D8C
330
D82
100
AcDbEntity
  8
0
100
AcDbBlockBegin
  2
*D5
 70
     1
 10
0.0
 20
0.0
 30
0.0
  3
*D5
  1

  0
LINE
  5
DB5
330
D82
100
AcDbEntity
  8
BEM
 62
     0
370
    -2
100
AcDbLine
 10
119.98528277481
 20
441.2237895507749
 30
0.0
 11
119.98528277481
 21
478.3911270456541
 31
0.0
  0
LINE
  5
DB6
330
D82
100
AcDbEntity
  8
BEM
 62
     0
370
    -2
100
AcDbLine
 10
339.9852827748099
 20
441.2237895507749
 30
0.0
 11
339.9852827748099
 21
478.3911270456541
 31
0.0
  0
LINE
  5
DB7
330
D82
100
AcDbEntity
  8
BEM
 62
     0
370
    -2
100
AcDbLine
 10
126.98528277481
 20
476.3911270456541
 30
0.0
 11
332.9852827748099
 21
476.3911270456541
 31
0.0
  0
SOLID
  5
DB8
330
D82
100
AcDbEntity
  8
BEM
 62
     0
100
AcDbTrace
 10
126.98528277481
 20
477.5577937123208
 30
0.0
 11
126.98528277481
 21
475.2244603789875
 31
0.0
 12
119.98528277481
 22
476.3911270456541
 32
0.0
 13
119.98528277481
 23
476.3911270456541
 33
0.0
  0
SOLID
  5
DB9
330
D82
100
AcDbEntity
  8
BEM
 62
     0
100
AcDbTrace
 10
332.9852827748099
 20
477.5577937123208
 30
0.0
 11
332.9852827748099
 21
475.2244603789875
 31
0.0
 12
339.9852827748099
 22
476.3911270456541
 32
0.0
 13
339.9852827748099
 23
476.3911270456541
 33
0.0
  0
MTEXT
  5
DBA
330
D82
100
AcDbEntity
  8
BEM
 62
     1
100
AcDbMText
 10
229.9852827748099
 20
482.8911270456542
 30
0.0
 40
7.0
 41
0.0
 71
     5
 72
     1
  1
\A1;%%c220
 73
     1
 44
1.0
  0
POINT
  5
DBB
330
D82
100
AcDbEntity
  8
DEFPOINTS
 62
     0
100
AcDbPoint
 10
119.98528277481
 20
439.223789550775
 30
0.0
  0
POINT
  5
DBC
330
D82
100
AcDbEntity
  8
DEFPOINTS
 62
     0
100
AcDbPoint
 10
339.9852827748099
 20
439.223789550775
 30
0.0
  0
POINT
  5
DBD
330
D82
100
AcDbEntity
  8
DEFPOINTS
 62
     0
100
AcDbPoint
 10
339.9852827748099
 20
476.3911270456541
 30
0.0
  0
ENDBLK
  5
D8D
330
D82
100
AcDbEntity
  8
0
100
AcDbBlockEnd
  0
BLOCK
  5
D98
330
D8E
100
AcDbEntity
  8
0
100
AcDbBlockBegin
  2
*D6
 70
     1
 10
0.0
 20
0.0
 30
0.0
  3
*D6
  1

  0
LINE
  5
DEB
330
D8E
100
AcDbEntity
  8
BEM
 62
     0
370
    -2
100
AcDbLine
 10
135.7171875273077
 20
279.223789550775
 30
0.0
 11
57.47444249297106
 21
279.2237895507751
 31
0.0
  0
LINE
  5
DEC
330
D8E
100
AcDbEntity
  8
BEM
 62
     0
370
    -2
100
AcDbLine
 10
69.3492438054891
 20
439.2237895507756
 30
0.0
 11
57.47444249297109
 21
439.2237895507756
 31
0.0
  0
LINE
  5
DED
330
D8E
100
AcDbEntity
  8
BEM
 62
     0
370
    -2
100
AcDbLine
 10
59.47444249297106
 20
286.223789550775
 30
0.0
 11
59.4744424929711
 21
432.2237895507757
 31
0.0
  0
SOLID
  5
DEE
330
D8E
100
AcDbEntity
  8
BEM
 62
     0
100
AcDbTrace
 10
58.30777582630439
 20
286.223789550775
 30
0.0
 11
60.64110915963772
 21
286.223789550775
 31
0.0
 12
59.47444249297106
 22
279.2237895507751
 32
0.0
 13
59.47444249297106
 23
279.2237895507751
 33
0.0
  0
SOLID
  5
DEF
330
D8E
100
AcDbEntity
  8
BEM
 62
     0
100
AcDbTrace
 10
58.30777582630442
 20
432.2237895507757
 30
0.0
 11
60.64110915963776
 21
432.2237895507757
 31
0.0
 12
59.4744424929711
 22
439.2237895507756
 32
0.0
 13
59.4744424929711
 23
439.2237895507756
 33
0.0
  0
MTEXT
  5
DF0
330
D8E
100
AcDbEntity
  8
BEM
 62
     1
100
AcDbMText
 10
52.97444249297101
 20
359.2237895507754
 30
0.0
 40
7.0
 41
0.0
 71
     5
 72
     1
  1
\A1;160
 11
0.0000000000000001
 21
1.0
 31
0.0
 73
     1
 44
1.0
  0
POINT
  5
DF1
330
D8E
100
AcDbEntity
  8
DEFPOINTS
 62
     0
100
AcDbPoint
 10
137.7171875273077
 20
279.223789550775
 30
0.0
  0
POINT
  5
DF2
330
D8E
100
AcDbEntity
  8
DEFPOINTS
 62
     0
100
AcDbPoint
 10
71.34924380548909
 20
439.2237895507756
 30
0.0
  0
POINT
  5
DF3
330
D8E
100
AcDbEntity
  8
DEFPOINTS
 62
     0
100
AcDbPoint
 10
59.4744424929711
 20
439.2237895507756
 30
0.0
  0
ENDBLK
  5
D99
330
D8E
100
AcDbEntity
  8
0
100
AcDbBlockEnd
  0
ENDSEC
  0
SECTION
  2
ENTITIES
  0
LINE
  5
83
330
1E
100
AcDbEntity
  8
STEMPEL
100
AcDbLine
 10
39.99999999999989
 20
10.0
 30
0.0
 11
410.0
 21
10.0
 31
0.0
  0
LINE
  5
85
330
1E
100
AcDbEntity
  8
STEMPEL
100
AcDbLine
 10
410.0
 20
10.0
 30
0.0
 11
29.99999999999989
 21
10.0
 31
0.0
  0
LINE
  5
86
330
1E
100
AcDbEntity
  8
STEMPEL
100
AcDbLine
 10
410.0
 20
10.0
 30
0.0
 11
410.0
 21
584.0
 31
0.0
  0
LINE
  5
87
330
1E
100
AcDbEntity
  8
STEMPEL
100
AcDbLine
 10
30.0
 20
10.0
 30
0.0
 11
29.99999999999989
 21
584.0
 31
0.0
  0
LINE
  5
88
330
1E
100
AcDbEntity
  8
STEMPEL
100
AcDbLine
 10
410.0
 20
584.0
 30
0.0
 11
29.99999999999989
 21
584.0
 31
0.0
  0
LINE
  5
89
330
1E
100
AcDbEntity
  8
HILF
100
AcDbLine
 10
0.0
 20
0.0
 30
0.0
 11
-0.0000000000001137
 21
594.0
 31
0.0
  0
LINE
  5
8A
330
1E
100
AcDbEntity
  8
HILF
100
AcDbLine
 10
419.9999999999999
 20
594.0000000000002
 30
0.0
 11
0.0
 21
594.0
 31
0.0
  0
LINE
  5
8B
330
1E
100
AcDbEntity
  8
HILF
100
AcDbLine
 10
420.0
 20
0.0
 30
0.0
 11
0.0
 21
0.0
 31
0.0
  0
LINE
  5
8C
330
1E
100
AcDbEntity
  8
HILF
100
AcDbLine
 10
29.99999999999994
 20
297.0
 30
0.0
 11
0.0000000000001137
 21
297.0
 31
0.0
  0
LINE
  5
8E
330
1E
100
AcDbEntity
  8
HILF
100
AcDbLine
 10
420.0
 20
-0.0000000000001137
 30
0.0
 11
419.9999999999999
 21
594.0
 31
0.0
  0
TEXT
  5
8F
330
1E
100
AcDbEntity
  8
VOLL
100
AcDbText
 10
78.07675471698113
 20
31.02594776470585
 30
0.0
 40
1.8
  1

  7
GREEKS
100
AcDbText
  0
TEXT
  5
118
330
1E
100
AcDbEntity
  8
BEM
100
AcDbText
 10
417.3022923857165
 20
10.16790107998849
 30
0.0
 40
4.0
  1
Diese Zeichnung ist urheberrechtlich geschützt und bleibt unser Eigentum. Sie darf weder ganz noch teilweise verfielfältigt und nicht an Dritte weitergegeben werden.
 50
90.0
 41
0.8
  7
GREEKS
100
AcDbText
  0
HATCH
  5
ACF
330
1E
100
AcDbEntity
  8
SCHRAFF
100
AcDbHatch
 10
0.0
 20
0.0
 30
0.0
210
0.0
220
0.0
230
1.0
  2
_USER
 70
     0
 71
     1
 91
        2
 92
        7
 72
     1
 73
     1
 93
       10
 10
165.48528277481
 20
406.3872248059109
 42
0.14365683636498
 10
164.6928366845367
 20
409.0884264082992
 42
0.0
 10
154.23528277481
 20
425.3777406898182
 42
0.0
 10
152.5522612109195
 20
424.297260048863
 42
0.0
 10
163.009815120646
 20
408.007945767344
 42
-0.143656836364964
 10
163.4852827748099
 20
406.387224805911
 42
0.0
 10
163.48528277481
 20
179.2237895507762
 42
0.0
 10
164.9725900547507
 20
162.2237895507757
 42
0.0
 10
166.9802297298374
 20
162.2237895507757
 42
0.0
 10
165.48528277481
 20
179.3111114365934
 42
0.0
 97
       10
330
B4C
330
B48
330
B4B
330
B49
330
B4D
330
AEF
330
B0D
330
ADC
330
B0C
330
AEE
 92
        7
 72
     1
 73
     1
 93
       10
 10
294.4852827748099
 20
179.3111114365972
 42
0.0
 10
292.9903358197818
 20
162.2237895507758
 42
0.0
 10
294.9979754948686
 20
162.2237895507758
 42
0.0
 10
296.48528277481
 20
179.223789550782
 42
0.0
 10
296.4852827748098
 20
406.3872248059109
 42
-0.1436568363649891
 10
296.9607504289742
 20
408.007945767344
 42
0.0
 10
307.4183043387005
 20
424.2972600488629
 42
0.0
 10
305.7352827748101
 20
425.3777406898183
 42
0.0
 10
295.2777288650835
 20
409.0884264082991
 42
0.1436568363649793
 10
294.4852827748099
 20
406.3872248059109
 42
0.0
 97
       10
330
B92
330
B90
330
B93
330
B8D
330
B91
330
B6C
330
B82
330
ADC
330
B83
330
B6B
 75
     0
 76
     0
 52
135.0
 41
2.0
 77
     0
 78
     1
 53
135.0
 43
0.0
 44
0.0
 45
-1.414213562373095
 46
-1.414213562373094
 79
     0
 47
0.5903446969257102
 98
        2
 10
164.5266771694751
 20
372.7628775107087
 10
295.0808652774622
 20
400.5090782831898
  0
HATCH
  5
AD0
330
1E
100
AcDbEntity
  8
SCHRAFF
100
AcDbHatch
 10
0.0
 20
0.0
 30
0.0
210
0.0
220
0.0
230
1.0
  2
_USER
 70
     0
 71
     0
 91
        4
 92
        7
 72
     1
 73
     1
 93
       12
 10
140.1422097364055
 20
439.2237895507756
 42
-0.2553615373329089
 10
142.6667420822415
 20
437.8445105122086
 42
0.0
 10
151.7107504289742
 20
423.7570197283853
 42
0.0
 10
154.2352827748101
 20
425.3777406898183
 42
0.0
 10
145.1912744280774
 20
439.4652314736416
 42
0.2553615373328983
 10
140.1422097364055
 20
442.2237895507755
 42
0.0
 10
71.34924380548913
 20
442.2237895507756
 42
0.1989123673796679
 10
67.10660311836955
 20
440.4664302378951
 42
0.0
 10
64.98528277481002
 20
438.3451098943353
 42
0.0
 10
67.10660311836952
 20
436.2237895507757
 42
0.0
 10
69.22792346192955
 20
438.3451098943353
 42
-0.1989123673796555
 10
71.34924380548916
 20
439.2237895507756
 42
0.0
 97
        0
 92
        7
 72
     1
 73
     1
 93
        8
 10
374.5594759839956
 20
439.2237895507756
 42
0.0
 10
374.9248826244389
 20
442.2237895507749
 42
0.0
 10
319.8283558132144
 20
442.223789550775
 42
0.2553615373329166
 10
314.7792911215423
 20
439.4652314736409
 42
0.0
 10
305.73528277481
 20
425.3777406898181
 42
0.0
 10
308.2598151206459
 20
423.7570197283854
 42
0.0
 10
317.3038234673785
 20
437.8445105122087
 42
-0.2553615373329009
 10
319.8283558132144
 20
439.2237895507756
 42
0.0
 97
        0
 92
        7
 72
     1
 73
     1
 93
        5
 10
387.3889749788416
 20
439.2237895507757
 42
0.0
 10
389.0214493868936
 20
442.2104328397563
 42
0.016685915717496
 10
388.6213217441307
 20
442.2237895507748
 42
0.0
 10
374.924882624439
 20
442.2237895507749
 42
0.0
 10
374.5594759839956
 20
439.2237895507757
 42
0.0
 97
        0
 92
        7
 72
     1
 73
     1
 93
        7
 10
389.0214493868937
 20
442.2104328397563
 42
0.0
 10
387.3889749788418
 20
439.2237895507756
 42
0.0
 10
388.6213217441307
 20
439.2237895507756
 42
-0.1989123673796481
 10
390.7426420876902
 20
438.3451098943353
 42
0.0
 10
392.8639624312503
 20
436.2237895507756
 42
0.0
 10
394.9852827748098
 20
438.3451098943353
 42
0.0
 10
392.8639624312502
 20
440.4664302378951
 42
0.1816236364564354
 97
        0
 75
     0
 76
     0
 52
45.0
 41
2.0
 77
     0
 78
     1
 53
45.0
 43
0.0
 44
0.0
 45
-1.414213562373094
 46
1.414213562373095
 79
     0
 47
0.5903446969257101
 98
        4
 10
114.9901401444217
 20
440.6485592666938
 10
343.5395485678391
 20
440.1889015724678
 10
380.1656090657798
 20
440.1889015724678
 10
391.389725487878
 20
440.1889015724678
  0
HATCH
  5
AD1
330
1E
100
AcDbEntity
  8
SCHRAFF
100
AcDbHatch
 10
0.0
 20
0.0
 30
0.0
210
0.0
220
0.0
230
1.0
  2
_USER
 70
     0
 71
     0
 91
        2
 92
        7
 72
     1
 73
     1
 93
        4
 10
152.5522612109194
 20
424.2972600488629
 42
0.0
 10
151.7107504289741
 20
423.7570197283854
 42
0.0
 10
150.7750267456097
 20
425.2145591578316
 42
0.7673269879789756
 10
153.6327418518748
 20
422.6142384849723
 42
0.0
 97
        0
 92
        7
 72
     1
 73
     1
 93
        4
 10
309.1955388040104
 20
425.2145591578316
 42
0.0
 10
308.2598151206457
 20
423.7570197283853
 42
0.0
 10
307.4183043387006
 20
424.297260048863
 42
0.0
 10
306.3378236977452
 20
422.6142384849722
 42
0.7673269879790372
 97
        0
 75
     0
 76
     0
 52
0.0
 41
0.1
 77
     0
 78
     1
 53
0.0
 43
0.0
 44
0.0
 45
0.0
 46
0.1
 79
     0
 47
0.4024564740976492
 98
        2
 10
153.0321167137336
 20
422.9663322683948
 10
307.6762386737306
 20
422.9663322683948
  0
LINE
  5
AD2
330
1E
100
AcDbEntity
  8
HILF
100
AcDbLine
 10
167.3423145506089
 20
407.7947457562643
 30
0.0
 11
292.6282509990111
 21
407.7947457562641
 31
0.0
  0
LINE
  5
AD3
330
1E
100
AcDbEntity
  8
STEMPEL
100
AcDbLine
 10
154.2352827748101
 20
425.3777406898183
 30
0.0
 11
305.7352827748101
 21
425.3777406898183
 31
0.0
  0
HATCH
  5
AD5
330
1E
100
AcDbEntity
  8
SCHRAFF
100
AcDbHatch
 10
0.0
 20
0.0
 30
0.0
210
0.0
220
0.0
230
1.0
  2
_U
 70
     0
 71
     1
 91
        4
 92
        7
 72
     1
 73
     1
 93
        4
 10
72.98528277480989
 20
453.7237895507757
 42
1.0
 10
72.98528277480989
 20
447.7237895507756
 42
0.0
 10
95.98528277480994
 20
447.7237895507756
 42
0.0
 10
95.98528277480994
 20
453.7237895507757
 42
0.0
 97
        4
330
B1A
330
B14
330
B2E
330
ADA
 92
        7
 72
     1
 73
     1
 93
        4
 10
132.9852827748099
 20
447.7237895507756
 42
1.0
 10
132.9852827748099
 20
453.7237895507757
 42
0.0
 10
109.9852827748099
 20
453.7237895507757
 42
0.0
 10
109.9852827748099
 20
447.7237895507756
 42
0.0
 97
        4
330
ADA
330
B33
330
AE1
330
B44
 92
        7
 72
     1
 73
     1
 93
        4
 10
349.9852827748101
 20
447.7237895507756
 42
0.0
 10
349.98528277481
 20
453.7237895507759
 42
0.0
 10
326.9852827748099
 20
453.7237895507759
 42
1.0
 10
326.9852827748099
 20
447.7237895507755
 42
0.0
 97
        4
330
ADA
330
BAF
330
AE1
330
BCA
 92
        7
 72
     1
 73
     1
 93
        4
 10
386.9852827748099
 20
447.7237895507754
 42
1.0
 10
386.9852827748099
 20
453.723789550776
 42
0.0
 10
363.98528277481
 20
453.723789550776
 42
0.0
 10
363.98528277481
 20
447.7237895507754
 42
0.0
 97
        4
330
ADA
330
BD7
330
BBC
330
BE3
 75
     0
 76
     0
 52
135.0
 41
5.0
 77
     0
 78
     1
 53
135.0
 43
0.0
 44
0.0
 45
-3.535533905932737
 46
-3.535533905932737
 79
     0
 47
0.5191189065669484
 98
        4
 10
78.86550151054507
 20
450.8260385316007
 10
130.8153121002942
 20
449.2686805986282
 10
334.4585627610536
 20
448.2304433835861
 10
371.8624268750341
 20
449.7878013165586
  0
LINE
  5
AD9
330
1E
100
AcDbEntity
  8
STEMPEL
100
AcDbLine
 10
206.5610873239636
 20
467.7237895507756
 30
0.0
 11
221.5610873239636
 21
467.7237895507756
 31
0.0
  0
LINE
  5
ADA
102
{ACAD_REACTORS
330
AD5
102
}
330
1E
100
AcDbEntity
  8
STEMPEL
100
AcDbLine
 10
72.98528277480989
 20
453.7237895507757
 30
0.0
 11
386.9852827748099
 21
453.723789550776
 31
0.0
  0
LINE
  5
ADB
330
1E
100
AcDbEntity
  8
HILF
100
AcDbLine
 10
167.4929224498967
 20
179.2237895507757
 30
0.0
 11
292.4776430997227
 21
179.2237895507757
 31
0.0
  0
LINE
  5
ADC
102
{ACAD_REACTORS
330
ACF
102
}
330
1E
100
AcDbEntity
  8
STEMPEL
100
AcDbLine
 10
164.9725900547507
 20
162.2237895507756
 30
0.0
 11
294.9979754948686
 21
162.2237895507758
 31
0.0
  0
DIMENSION
  5
ADD
330
1E
100
AcDbEntity
  8
BEM
100
AcDbDimension
  2
*D1
 10
296.4852827748099
 20
140.2065484490335
 30
0.0
 11
229.98528277481
 21
145.7065484490335
 31
0.0
 70
    32
  1
%%c<>
 71
     5
 42
132.9999999999999
  3
Standard
100
AcDbAlignedDimension
 13
163.48528277481
 23
179.2237895507761
 33
0.0
 14
296.4852827748099
 24
179.2237895507822
 34
0.0
100
AcDbRotatedDimension
1001
ACAD
1000
DSTYLE
1002
{
1070
    40
1040
2.0
1070
    41
1040
3.5
1070
    42
1040
1.0
1070
    43
1040
7.0
1070
    44
1040
1.0
1070
    47
1040
0.7
1070
    48
1040
0.7
1070
    73
1070
     0
1070
    74
1070
     0
1070
    77
1070
     1
1070
    78
1070
     8
1070
   140
1040
3.5
1070
   141
1040
1.5
1070
   146
1040
0.5142857142857144
1070
   147
1040
1.0
1070
   172
1070
     1
1070
   178
1070
     1
1070
   271
1070
     2
1070
   272
1070
     2
1070
   279
1070
     2
1070
   284
1070
     8
1070
   285
1070
     8
1070
   286
1070
     8
1070
   340
1005
24
1002
}
  0
DIMENSION
  5
ADE
330
1E
100
AcDbEntity
  8
BEM
100
AcDbDimension
  2
*D2
 10
394.9852827748099
 20
490.0686385989915
 30
0.0
 11
229.9852827748099
 21
495.5686385989915
 31
0.0
 70
    32
  1
%%c<>
 71
     5
 42
330.0
  3
Standard
100
AcDbAlignedDimension
 13
64.98528277480989
 23
445.2237895507757
 33
0.0
 14
394.9852827748099
 24
445.2237895507756
 34
0.0
100
AcDbRotatedDimension
1001
ACAD
1000
DSTYLE
1002
{
1070
    40
1040
2.0
1070
    41
1040
3.5
1070
    42
1040
1.0
1070
    43
1040
8.0
1070
    44
1040
1.5
1070
    47
1040
1.199999999999999
1070
    48
1040
1.199999999999999
1070
    73
1070
     0
1070
    74
1070
     0
1070
    77
1070
     1
1070
    78
1070
     8
1070
   140
1040
3.5
1070
   141
1040
1.5
1070
   147
1040
1.0
1070
   172
1070
     1
1070
   178
1070
     1
1070
   271
1070
     2
1070
   272
1070
     2
1070
   285
1070
     8
1070
   286
1070
     8
1070
   289
1070
     0
1070
   340
1005
24
1002
}
  0
LINE
  5
ADF
102
{ACAD_REACTORS
330
C92
102
}
330
1E
100
AcDbEntity
  8
STEMPEL
100
AcDbLine
 10
107.9852827748099
 20
445.2237895507757
 30
0.0
 11
351.98528277481
 21
445.2237895507757
 31
0.0
  0
LINE
  5
AE1
102
{ACAD_REACTORS
330
AD5
102
}
330
1E
100
AcDbEntity
  8
STEMPEL
100
AcDbLine
 10
107.9852827748099
 20
447.7237895507756
 30
0.0
 11
351.98528277481
 21
447.7237895507755
 31
0.0
  0
TEXT
  5
AE2
330
1E
100
AcDbEntity
  8
TEXT
100
AcDbText
 10
192.626132208084
 20
90.76363841023022
 30
0.0
 40
4.0
  1
DIN EN1124-3
 41
0.8
  7
GREEKS
 72
     1
 11
209.6166083985602
 21
90.76363841023022
 31
0.0
100
AcDbText
  0
TEXT
  5
AE3
330
1E
100
AcDbEntity
  8
TEXT
100
AcDbText
 10
194.2858954734051
 20
102.4184168434819
 30
0.0
 40
5.0
  1
Zul. Abw.
 41
0.8
  7
GREEKS
100
AcDbText
  0
TEXT
  5
AE4
330
1E
100
AcDbEntity
  8
TEXT
100
AcDbText
 10
204.4216048581258
 20
63.0896391972351
 30
0.0
 40
4.0
  1
Koeh
 41
0.8
  7
GREEKS
 72
     1
 11
209.6787477152686
 21
63.0896391972351
 31
0.0
100
AcDbText
  0
TEXT
  5
AE5
330
1E
100
AcDbEntity
  8
TEXT
100
AcDbText
 10
202.4626584226295
 20
73.30961091915225
 30
0.0
 40
4.0
  1
Name
 41
0.8
  7
GREEKS
100
AcDbText
  0
INSERT
  5
AE6
330
1E
100
AcDbEntity
  8
STEMPEL
100
AcDbBlockReference
  2
LOGO
 10
150.9955485457794
 20
45.02105276448321
 30
0.0
 41
2.0
 42
2.0
 43
2.0
  0
LINE
  5
AE7
330
1E
100
AcDbEntity
  8
HILF
100
AcDbLine
 10
146.0000000000001
 20
70.0
 30
0.0
 11
230.0
 21
70.0
 31
0.0
  0
LINE
  5
AE8
330
1E
100
AcDbEntity
  8
HILF
100
AcDbLine
 10
146.0000000000001
 20
60.0
 30
0.0
 11
230.0
 21
60.0
 31
0.0
  0
LINE
  5
AE9
330
1E
100
AcDbEntity
  8
HILF
100
AcDbLine
 10
146.0000000000001
 20
50.0
 30
0.0
 11
230.0
 21
50.0
 31
0.0
  0
LINE
  5
AEA
102
{ACAD_REACTORS
330
C92
102
}
330
1E
100
AcDbEntity
  8
STEMPEL
100
AcDbLine
 10
64.98528277480989
 20
442.2237895507756
 30
0.0
 11
394.9852827748099
 21
442.2237895507748
 31
0.0
  0
LINE
  5
AEB
330
1E
100
AcDbEntity
  8
STEMPEL
100
AcDbLine
 10
410.0
 20
40.0
 30
0.0
 11
146.0000000000001
 21
40.0
 31
0.0
  0
LINE
  5
AEC
330
1E
100
AcDbEntity
  8
STEMPEL
100
AcDbLine
 10
410.0
 20
80.0
 30
0.0
 11
146.0000000000001
 21
79.99999999999994
 31
0.0
  0
LINE
  5
AED
330
1E
100
AcDbEntity
  8
STEMPEL
100
AcDbLine
 10
410.0
 20
110.0
 30
0.0
 11
29.99999999999998
 21
110.0
 31
0.0
  0
LINE
  5
AEE
102
{ACAD_REACTORS
330
ACF
102
}
330
1E
100
AcDbEntity
  8
STEMPEL
  6
Continuous
100
AcDbLine
 10
165.48528277481
 20
179.3111114365932
 30
0.0
 11
165.48528277481
 21
406.3872248059109
 31
0.0
  0
LINE
  5
AEF
102
{ACAD_REACTORS
330
ACF
330
EA3
102
}
330
1E
100
AcDbEntity
  8
STEMPEL
  6
Continuous
100
AcDbLine
 10
163.4852827748099
 20
406.3872248059109
 30
0.0
 11
163.48528277481
 21
179.2237895507761
 31
0.0
  0
DIMENSION
  5
AF0
330
1E
100
AcDbEntity
  8
BEM
100
AcDbDimension
  2
*D3
 10
45.11506563948432
 20
442.2237895507756
 30
0.0
 11
39.61506563948425
 21
302.2237895507757
 31
0.0
 70
    32
 71
     5
 42
280.0
  3
Standard
100
AcDbAlignedDimension
 13
164.9725900547507
 23
162.2237895507756
 33
0.0
 14
64.98528277480989
 24
442.2237895507756
 34
0.0
 50
90.0
100
AcDbRotatedDimension
1001
ACAD
1000
DSTYLE
1002
{
1070
    40
1040
2.0
1070
    41
1040
3.5
1070
    42
1040
1.0
1070
    43
1040
7.0
1070
    44
1040
1.0
1070
    47
1040
0.7
1070
    48
1040
0.7
1070
    73
1070
     0
1070
    74
1070
     0
1070
    77
1070
     1
1070
    78
1070
     8
1070
   140
1040
3.5
1070
   141
1040
1.5
1070
   146
1040
0.5142857142857144
1070
   147
1040
1.0
1070
   172
1070
     1
1070
   178
1070
     1
1070
   271
1070
     2
1070
   272
1070
     2
1070
   279
1070
     2
1070
   284
1070
     8
1070
   285
1070
     8
1070
   286
1070
     8
1070
   340
1005
24
1002
}
  0
TEXT
  5
AF1
330
1E
100
AcDbEntity
  8
TEXT
100
AcDbText
 10
42.32142973901864
 20
112.7871664996321
 30
0.0
 40
5.0
  1
Erstellt mit AUTOCAD 2004
 41
0.8
  7
GREEKS
100
AcDbText
  0
TEXT
  5
AF2
330
1E
100
AcDbEntity
  8
TEXT
100
AcDbText
 10
61.63206033284426
 20
18.67381894984134
 30
0.0
 40
4.0
  1
Änderung
 41
0.8
  7
GREEKS
 72
     1
 11
72.37491747570141
 21
18.67381894984134
 31
0.0
100
AcDbText
  0
LINE
  5
AF3
330
1E
100
AcDbEntity
  8
HILF
100
AcDbLine
 10
29.99999999999998
 20
100.0
 30
0.0
 11
146.0000000000001
 21
100.0
 31
0.0
  0
LINE
  5
AF4
330
1E
100
AcDbEntity
  8
HILF
100
AcDbLine
 10
29.99999999999998
 20
90.00000000000005
 30
0.0
 11
146.0000000000001
 21
90.00000000000005
 31
0.0
  0
LINE
  5
AF5
330
1E
100
AcDbEntity
  8
HILF
100
AcDbLine
 10
29.99999999999999
 20
79.99999999999996
 30
0.0
 11
146.0000000000001
 21
79.99999999999994
 31
0.0
  0
LINE
  5
AF6
330
1E
100
AcDbEntity
  8
STEMPEL
100
AcDbLine
 10
145.9999999999999
 20
30.0
 30
0.0
 11
30.0
 21
30.0
 31
0.0
  0
LINE
  5
AF7
330
1E
100
AcDbEntity
  8
HILF
100
AcDbLine
 10
29.99999999999999
 20
70.0
 30
0.0
 11
146.0000000000001
 21
70.0
 31
0.0
  0
LINE
  5
AF8
330
1E
100
AcDbEntity
  8
HILF
100
AcDbLine
 10
29.99999999999999
 20
60.0
 30
0.0
 11
146.0000000000001
 21
60.0
 31
0.0
  0
LINE
  5
AF9
330
1E
100
AcDbEntity
  8
HILF
100
AcDbLine
 10
29.99999999999999
 20
50.0
 30
0.0
 11
146.0000000000001
 21
50.0
 31
0.0
  0
LINE
  5
AFA
330
1E
100
AcDbEntity
  8
HILF
100
AcDbLine
 10
30.0
 20
40.0
 30
0.0
 11
146.0000000000001
 21
40.0
 31
0.0
  0
TEXT
  5
AFB
330
1E
100
AcDbEntity
  8
TEXT
100
AcDbText
 10
39.09188545941777
 20
13.65465846027189
 30
0.0
 40
4.0
  1
Index
 50
90.0
 41
0.8
  7
GREEKS
100
AcDbText
  0
LINE
  5
AFC
330
1E
100
AcDbEntity
  8
VOLL
100
AcDbLine
 10
44.82547438896029
 20
110.0
 30
0.0
 11
44.82547438896017
 21
10.0
 31
0.0
  0
TEXT
  5
AFD
330
1E
100
AcDbEntity
  8
TEXT
100
AcDbText
 10
110.443926643394
 20
18.67156269339807
 30
0.0
 40
4.0
  1
Tag
 41
0.8
  7
GREEKS
 72
     1
 11
114.1772599767273
 21
18.67156269339807
 31
0.0
100
AcDbText
  0
LINE
  5
AFE
330
1E
100
AcDbEntity
  8
VOLL
100
AcDbLine
 10
124.0000000000001
 20
109.9999999999999
 30
0.0
 11
124.0
 21
10.0
 31
0.0
  0
LINE
  5
AFF
330
1E
100
AcDbEntity
  8
VOLL
100
AcDbLine
 10
104.0000000000001
 20
109.9999999999999
 30
0.0
 11
104.0
 21
10.0
 31
0.0
  0
TEXT
  5
B00
330
1E
100
AcDbEntity
  8
TEXT
100
AcDbText
 10
128.671406850916
 20
18.59324216966411
 30
0.0
 40
4.0
  1
Name
 41
0.8
  7
GREEKS
 72
     1
 11
134.9952163747256
 21
18.59324216966411
 31
0.0
100
AcDbText
  0
LINE
  5
B01
330
1E
100
AcDbEntity
  8
STEMPEL
100
AcDbLine
 10
146.0000000000001
 20
109.9999999999999
 30
0.0
 11
146.0
 21
10.0
 31
0.0
  0
TEXT
  5
B02
330
1E
100
AcDbEntity
  8
TEXT
100
AcDbText
 10
172.331167315365
 20
73.31880501229926
 30
0.0
 40
4.0
  1
Tag
 41
0.8
  7
GREEKS
100
AcDbText
  0
TEXT
  5
B03
330
1E
100
AcDbEntity
  8
TEXT
100
AcDbText
 10
170.703759012998
 20
63.10765040825732
 30
0.0
 40
4.0
  1
29.10.
 41
0.8
  7
GREEKS
 72
     1
 11
177.4085209177599
 21
63.10765040825732
 31
0.0
100
AcDbText
  0
LINE
  5
B04
330
1E
100
AcDbEntity
  8
VOLL
100
AcDbLine
 10
164.0000000000001
 20
79.99999999999994
 30
0.0
 11
164.0000000000001
 21
40.0
 31
0.0
  0
TEXT
  5
B05
330
1E
100
AcDbEntity
  8
TEXT
100
AcDbText
 10
147.5836127167615
 20
63.62990369617967
 30
0.0
 40
4.0
  1
Gez.
 41
0.8
  7
GREEKS
100
AcDbText
  0
TEXT
  5
B06
330
1E
100
AcDbEntity
  8
TEXT
100
AcDbText
 10
147.5515086571672
 20
53.68926291428374
 30
0.0
 40
4.0
  1
Gepr.
 41
0.8
  7
GREEKS
100
AcDbText
  0
TEXT
  5
B07
330
1E
100
AcDbEntity
  8
TEXT
100
AcDbText
 10
147.6006777387303
 20
43.5294638964981
 30
0.0
 40
4.0
  1
Norm.
 41
0.8
  7
GREEKS
100
AcDbText
  0
TEXT
  5
B08
330
1E
100
AcDbEntity
  8
TEXT
 62
     1
100
AcDbText
 10
160.5006306481887
 20
88.14901428913959
 30
0.0
 40
7.0
  1
1:2
 41
0.8
  7
GREEKS
100
AcDbText
  0
TEXT
  5
B09
330
1E
100
AcDbEntity
  8
TEXT
100
AcDbText
 10
153.5163572150377
 20
102.4620895087088
 30
0.0
 40
5.0
  1
Maßstab
 41
0.8
  7
GREEKS
100
AcDbText
  0
TEXT
  5
B0A
330
1E
100
AcDbEntity
  8
TEXT
100
AcDbText
 10
148.622109822104
 20
73.14025471151666
 30
0.0
 40
4.0
  1
2010
 41
0.8
  7
GREEKS
100
AcDbText
  0
LINE
  5
B0B
330
1E
100
AcDbEntity
  8
VOLL
100
AcDbLine
 10
190.0000000000001
 20
109.9999999999998
 30
0.0
 11
190.0
 21
40.0
 31
0.0
  0
LINE
  5
B0C
102
{ACAD_REACTORS
330
ACF
102
}
330
1E
100
AcDbEntity
  8
STEMPEL
100
AcDbLine
 10
165.48528277481
 20
179.3111114365932
 30
0.0
 11
166.9802297298374
 21
162.2237895507757
 31
0.0
  0
LINE
  5
B0D
102
{ACAD_REACTORS
330
ACF
102
}
330
1E
100
AcDbEntity
  8
STEMPEL
100
AcDbLine
 10
163.48528277481
 20
179.2237895507761
 30
0.0
 11
164.9725900547507
 21
162.2237895507756
 31
0.0
  0
TEXT
  5
B0E
330
1E
100
AcDbEntity
  8
TEXT
 62
     1
100
AcDbText
 10
74.98953013989046
 20
527.2362239601728
 30
0.0
 40
7.0
  1
Losflansch DN125
 41
0.8
  7
GREEKS
100
AcDbText
  0
TEXT
  5
B0F
330
1E
100
AcDbEntity
  8
TEXT
 62
     1
100
AcDbText
 10
74.98953013989046
 20
514.2837838584234
 30
0.0
 40
7.0
  1
EDV-Art.Nr. 21905.125X
 41
0.7
  7
GREEKS
100
AcDbText
  0
LINE
  5
B10
330
1E
100
AcDbEntity
  8
TEXT
 62
     2
100
AcDbLine
 10
68.2808785643391
 20
525.2304873416713
 30
0.0
 11
164.5013526008106
 21
525.2304873416713
 31
0.0
  0
LINE
  5
B11
102
{ACAD_REACTORS
330
EA3
102
}
330
1E
100
AcDbEntity
  8
STEMPEL
100
AcDbLine
 10
71.34924380548909
 20
439.2237895507756
 30
0.0
 11
140.1422097364055
 21
439.2237895507756
 31
0.0
  0
LINE
  5
B12
330
1E
100
AcDbEntity
  8
STEMPEL
100
AcDbLine
 10
67.10660311836932
 20
436.2237895507753
 30
0.0
 11
120.2665327748099
 21
436.2237895507753
 31
0.0
  0
LINE
  5
B14
102
{ACAD_REACTORS
330
AD5
102
}
330
1E
100
AcDbEntity
  8
STEMPEL
100
AcDbLine
 10
72.98528277480989
 20
447.7237895507756
 30
0.0
 11
97.98528277480995
 21
447.7237895507756
 31
0.0
  0
LINE
  5
B15
102
{ACAD_REACTORS
330
C92
102
}
330
1E
100
AcDbEntity
  8
STEMPEL
100
AcDbLine
 10
64.98528277480989
 20
445.2237895507757
 30
0.0
 11
97.98528277480995
 21
445.2237895507757
 31
0.0
  0
LINE
  5
B16
330
1E
100
AcDbEntity
  8
STEMPEL
100
AcDbLine
 10
67.10660311836955
 20
436.2237895507757
 30
0.0
 11
69.22792346192955
 21
438.3451098943353
 31
0.0
  0
LINE
  5
B17
330
1E
100
AcDbEntity
  8
STEMPEL
100
AcDbLine
 10
64.98528277481
 20
438.3451098943353
 30
0.0
 11
67.10660311836955
 21
436.2237895507755
 31
0.0
  0
ARC
  5
B18
330
1E
100
AcDbEntity
  8
STEMPEL
100
AcDbCircle
 10
71.34924380548909
 20
436.2237895507757
 30
0.0
 40
6.0
100
AcDbArc
 50
90.0
 51
135.0
  0
ARC
  5
B19
330
1E
100
AcDbEntity
  8
STEMPEL
100
AcDbCircle
 10
71.34924380548909
 20
436.2237895507757
 30
0.0
 40
3.0
100
AcDbArc
 50
90.0
 51
135.0
  0
ARC
  5
B1A
102
{ACAD_REACTORS
330
AD5
102
}
330
1E
100
AcDbEntity
  8
STEMPEL
100
AcDbCircle
 10
72.98528277480989
 20
450.7237895507756
 30
0.0
 40
3.0
100
AcDbArc
 50
90.0
 51
270.0
  0
LINE
  5
B1B
330
1E
100
AcDbEntity
  8
STEMPEL
100
AcDbLine
 10
64.98528277481
 20
438.3451098943353
 30
0.0
 11
67.10660311836955
 21
440.4664302378951
 31
0.0
  0
LINE
  5
B1D
102
{ACAD_REACTORS
330
C92
102
}
330
1E
100
AcDbEntity
  8
STEMPEL
100
AcDbLine
 10
64.98528277480989
 20
445.2237895507757
 30
0.0
 11
64.98528277480989
 21
442.2237895507756
 31
0.0
  0
LINE
  5
B1E
330
1E
100
AcDbEntity
  8
TEXT
 62
     2
100
AcDbLine
 10
68.2808785643391
 20
525.2304873416713
 30
0.0
 11
78.05095007255559
 21
492.0686385989915
 31
0.0
  0
LINE
  5
B1F
330
1E
100
AcDbEntity
  8
TEXT
 62
     2
100
AcDbLine
 10
79.2294213434461
 20
488.0686385989916
 30
0.0
 11
90.52942607923183
 21
449.7138478971479
 31
0.0
  0
LINE
  5
B20
330
1E
100
AcDbEntity
  8
STEMPEL
100
AcDbLine
 10
142.6667420822415
 20
437.8445105122087
 30
0.0
 11
151.7107504289741
 21
423.7570197283853
 31
0.0
  0
ARC
  5
B21
330
1E
100
AcDbEntity
  8
STEMPEL
100
AcDbCircle
 10
140.1422097364055
 20
436.2237895507758
 30
0.0
 40
6.0
100
AcDbArc
 50
32.70000000000014
 51
90.0
  0
LINE
  5
B2B
330
1E
100
AcDbEntity
  8
MITTEL
100
AcDbLine
 10
102.9852827748099
 20
472.2237895507756
 30
0.0
 11
102.9852827748099
 21
442.2237895507754
 31
0.0
  0
LINE
  5
B2E
102
{ACAD_REACTORS
330
AD5
102
}
330
1E
100
AcDbEntity
  8
STEMPEL
100
AcDbLine
 10
95.98528277480994
 20
453.7237895507757
 30
0.0
 11
95.98528277480994
 21
447.7237895507756
 31
0.0
  0
LINE
  5
B2F
330
1E
100
AcDbEntity
  8
STEMPEL
100
AcDbLine
 10
97.98528277480995
 20
453.7237895507757
 30
0.0
 11
97.98528277480995
 21
442.2237895507753
 31
0.0
  0
LINE
  5
B30
330
1E
100
AcDbEntity
  8
HILF
100
AcDbLine
 10
98.98528277480995
 20
453.7237895507757
 30
0.0
 11
98.98528277480995
 21
442.2237895507753
 31
0.0
  0
LINE
  5
B32
102
{ACAD_REACTORS
330
C92
102
}
330
1E
100
AcDbEntity
  8
STEMPEL
100
AcDbLine
 10
95.98528277480994
 20
445.2237895507757
 30
0.0
 11
95.98528277480994
 21
442.2237895507753
 31
0.0
  0
LINE
  5
B33
102
{ACAD_REACTORS
330
AD5
102
}
330
1E
100
AcDbEntity
  8
STEMPEL
100
AcDbLine
 10
109.9852827748099
 20
453.7237895507757
 30
0.0
 11
109.9852827748099
 21
447.7237895507756
 31
0.0
  0
LINE
  5
B34
330
1E
100
AcDbEntity
  8
STEMPEL
100
AcDbLine
 10
107.9852827748099
 20
453.7237895507757
 30
0.0
 11
107.9852827748099
 21
442.2237895507753
 31
0.0
  0
LINE
  5
B35
330
1E
100
AcDbEntity
  8
HILF
100
AcDbLine
 10
106.9852827748099
 20
453.7237895507757
 30
0.0
 11
106.9852827748099
 21
442.2237895507753
 31
0.0
  0
LINE
  5
B37
102
{ACAD_REACTORS
330
C92
102
}
330
1E
100
AcDbEntity
  8
STEMPEL
100
AcDbLine
 10
109.9852827748099
 20
445.2237895507757
 30
0.0
 11
109.9852827748099
 21
442.2237895507753
 31
0.0
  0
LINE
  5
B38
330
1E
100
AcDbEntity
  8
STEMPEL
100
AcDbLine
 10
106.98528277481
 20
467.2237895507763
 30
0.0
 11
98.98528277481
 21
467.2237895507763
 31
0.0
  0
LINE
  5
B39
330
1E
100
AcDbEntity
  8
STEMPEL
100
AcDbLine
 10
97.98528277481
 20
466.2237895507765
 30
0.0
 11
107.98528277481
 21
466.2237895507765
 31
0.0
  0
LINE
  5
B3C
330
1E
100
AcDbEntity
  8
HILF
100
AcDbLine
 10
98.98528277481
 20
467.2237895507763
 30
0.0
 11
98.98528277480998
 21
463.7237895507757
 31
0.0
  0
LINE
  5
B3D
330
1E
100
AcDbEntity
  8
STEMPEL
100
AcDbLine
 10
97.98528277481
 20
466.2237895507764
 30
0.0
 11
97.98528277480999
 21
463.7237895507756
 31
0.0
  0
LINE
  5
B3E
330
1E
100
AcDbEntity
  8
STEMPEL
100
AcDbLine
 10
98.98528277481
 20
467.2237895507763
 30
0.0
 11
97.98528277481
 21
466.2237895507764
 31
0.0
  0
LINE
  5
B3F
330
1E
100
AcDbEntity
  8
STEMPEL
100
AcDbLine
 10
107.98528277481
 20
466.2237895507764
 30
0.0
 11
106.98528277481
 21
467.2237895507763
 31
0.0
  0
LINE
  5
B40
330
1E
100
AcDbEntity
  8
HILF
100
AcDbLine
 10
106.98528277481
 20
467.2237895507763
 30
0.0
 11
106.98528277481
 21
463.7237895507757
 31
0.0
  0
LINE
  5
B41
330
1E
100
AcDbEntity
  8
STEMPEL
100
AcDbLine
 10
107.98528277481
 20
466.2237895507764
 30
0.0
 11
107.98528277481
 21
463.7237895507757
 31
0.0
  0
ARC
  5
B44
102
{ACAD_REACTORS
330
AD5
102
}
330
1E
100
AcDbEntity
  8
STEMPEL
100
AcDbCircle
 10
132.9852827748099
 20
450.7237895507756
 30
0.0
 40
3.0
100
AcDbArc
 50
270.0
 51
90.0
  0
LINE
  5
B46
102
{ACAD_REACTORS
330
C92
102
}
330
1E
100
AcDbEntity
  8
STEMPEL
100
AcDbLine
 10
134.9852827748099
 20
445.2237895507757
 30
0.0
 11
134.9852827748099
 21
442.2237895507756
 31
0.0
  0
ARC
  5
B47
330
1E
100
AcDbEntity
  8
STEMPEL
100
AcDbCircle
 10
140.1422097364055
 20
436.2237895507758
 30
0.0
 40
3.0
100
AcDbArc
 50
32.70000000000014
 51
90.0
  0
LINE
  5
B48
102
{ACAD_REACTORS
330
ACF
102
}
330
1E
100
AcDbEntity
  8
STEMPEL
100
AcDbLine
 10
145.1912744280774
 20
439.4652314736416
 30
0.0
 11
164.6928366845367
 21
409.0884264082992
 31
0.0
  0
LINE
  5
B49
102
{ACAD_REACTORS
330
ACF
102
}
330
1E
100
AcDbEntity
  8
STEMPEL
100
AcDbLine
 10
152.5522612109195
 20
424.2972600488629
 30
0.0
 11
163.009815120646
 21
408.007945767344
 31
0.0
  0
ARC
  5
B4A
330
1E
100
AcDbEntity
  8
SCHRAFF
100
AcDbCircle
 10
152.5522612109195
 20
424.2972600488629
 30
0.0
 40
2.0
100
AcDbArc
 50
152.7000000000017
 51
302.7000000000001
  0
LINE
  5
B4B
102
{ACAD_REACTORS
330
ACF
102
}
330
1E
100
AcDbEntity
  8
STEMPEL
100
AcDbLine
 10
154.2352827748101
 20
425.3777406898183
 30
0.0
 11
151.7107504289741
 21
423.7570197283853
 31
0.0
  0
ARC
  5
B4C
102
{ACAD_REACTORS
330
ACF
102
}
330
1E
100
AcDbEntity
  8
STEMPEL
100
AcDbCircle
 10
160.4852827748101
 20
406.3872248059109
 30
0.0
 40
5.0
100
AcDbArc
 50
0.0
 51
32.70000000000014
  0
ARC
  5
B4D
102
{ACAD_REACTORS
330
ACF
102
}
330
1E
100
AcDbEntity
  8
STEMPEL
100
AcDbCircle
 10
160.4852827748101
 20
406.3872248059109
 30
0.0
 40
3.0
100
AcDbArc
 50
0.0
 51
32.70000000000014
  0
LINE
  5
B54
330
1E
100
AcDbEntity
  8
MITTEL
100
AcDbLine
 10
166.4852827748098
 20
472.2237895507754
 30
0.0
 11
166.4852827748098
 21
442.2237895507754
 31
0.0
  0
LINE
  5
B59
330
1E
100
AcDbEntity
  8
STEMPEL
100
AcDbLine
 10
161.4852827748098
 20
447.7237895507756
 30
0.0
 11
161.4852827748098
 21
445.2237895507757
 31
0.0
  0
LINE
  5
B5A
330
1E
100
AcDbEntity
  8
HILF
100
AcDbLine
 10
162.4852827748098
 20
447.7237895507756
 30
0.0
 11
162.4852827748099
 21
445.2237895507757
 31
0.0
  0
LINE
  5
B5B
330
1E
100
AcDbEntity
  8
HILF
100
AcDbLine
 10
170.4852827748099
 20
447.7237895507756
 30
0.0
 11
170.4852827748099
 21
445.2237895507757
 31
0.0
  0
LINE
  5
B5C
330
1E
100
AcDbEntity
  8
STEMPEL
100
AcDbLine
 10
171.4852827748098
 20
447.7237895507754
 30
0.0
 11
171.4852827748098
 21
445.2237895507757
 31
0.0
  0
LINE
  5
B5F
330
1E
100
AcDbEntity
  8
STEMPEL
100
AcDbLine
 10
170.4852827748099
 20
467.2237895507763
 30
0.0
 11
162.4852827748099
 21
467.2237895507763
 31
0.0
  0
LINE
  5
B61
330
1E
100
AcDbEntity
  8
STEMPEL
100
AcDbLine
 10
161.4852827748099
 20
466.2237895507765
 30
0.0
 11
171.4852827748099
 21
466.2237895507765
 31
0.0
  0
LINE
  5
B62
330
1E
100
AcDbEntity
  8
STEMPEL
100
AcDbLine
 10
162.4852827748099
 20
467.2237895507763
 30
0.0
 11
161.4852827748099
 21
466.2237895507764
 31
0.0
  0
LINE
  5
B63
330
1E
100
AcDbEntity
  8
STEMPEL
100
AcDbLine
 10
161.4852827748099
 20
466.2237895507764
 30
0.0
 11
161.4852827748098
 21
463.7237895507758
 31
0.0
  0
LINE
  5
B64
330
1E
100
AcDbEntity
  8
HILF
100
AcDbLine
 10
162.4852827748099
 20
467.2237895507763
 30
0.0
 11
162.4852827748099
 21
463.7237895507758
 31
0.0
  0
LINE
  5
B66
330
1E
100
AcDbEntity
  8
STEMPEL
100
AcDbLine
 10
171.4852827748099
 20
466.2237895507764
 30
0.0
 11
171.4852827748099
 21
463.7237895507758
 31
0.0
  0
LINE
  5
B67
330
1E
100
AcDbEntity
  8
HILF
100
AcDbLine
 10
170.4852827748099
 20
467.2237895507763
 30
0.0
 11
170.4852827748099
 21
463.7237895507758
 31
0.0
  0
LINE
  5
B68
330
1E
100
AcDbEntity
  8
STEMPEL
100
AcDbLine
 10
171.4852827748099
 20
466.2237895507764
 30
0.0
 11
170.4852827748099
 21
467.2237895507763
 31
0.0
  0
LINE
  5
B69
330
1E
100
AcDbEntity
  8
STEMPEL
100
AcDbLine
 10
206.4024685751722
 20
458.6365275185894
 30
0.0
 11
206.5610873239636
 21
467.7237895507756
 31
0.0
  0
ARC
  5
B6A
330
1E
100
AcDbEntity
  8
STEMPEL
100
AcDbCircle
 10
201.4032300993903
 20
458.7237895507758
 30
0.0
 40
5.0
100
AcDbArc
 50
270.0
 51
358.9999999999982
  0
LINE
  5
B6B
102
{ACAD_REACTORS
330
ACF
102
}
330
1E
100
AcDbEntity
  8
STEMPEL
  6
Continuous
100
AcDbLine
 10
296.4852827748098
 20
406.3872248059109
 30
0.0
 11
296.4852827748099
 21
179.2237895507761
 31
0.0
  0
LINE
  5
B6C
102
{ACAD_REACTORS
330
ACF
102
}
330
1E
100
AcDbEntity
  8
STEMPEL
  6
Continuous
100
AcDbLine
 10
294.4852827748099
 20
179.3111114365932
 30
0.0
 11
294.4852827748099
 21
406.3872248059109
 31
0.0
  0
LINE
  5
B6D
330
1E
100
AcDbEntity
  8
MITTEL
100
AcDbLine
 10
229.9852827748099
 20
458.7237895507759
 30
0.0
 11
229.9852827748098
 21
272.2233225364412
 31
0.0
  0
LINE
  5
B6E
330
1E
100
AcDbEntity
  8
TEXT
 62
     2
100
AcDbLine
 10
305.9245549223356
 20
189.8670378627094
 30
0.0
 11
402.3973224997271
 21
189.8670378627094
 31
0.0
  0
TEXT
  5
B6F
330
1E
100
AcDbEntity
  8
TEXT
 62
     1
100
AcDbText
 10
307.2759240705118
 20
192.8509377401872
 30
0.0
 40
7.0
  1
Ablaufkörper DN125
 41
0.8
  7
GREEKS
100
AcDbText
  0
TEXT
  5
B70
330
1E
100
AcDbEntity
  8
TEXT
 62
     1
100
AcDbText
 10
306.6689644579201
 20
180.1430391904144
 30
0.0
 40
7.0
  1
EDV-Art.Nr. 21981.125X
 41
0.75
  7
GREEKS
100
AcDbText
  0
TEXT
  5
B71
330
1E
100
AcDbEntity
  8
TEXT
100
AcDbText
 10
336.178754957634
 20
102.3132034537136
 30
0.0
 40
5.0
  1
Zeichnungs Nr.
 41
0.8
  7
GREEKS
100
AcDbText
  0
TEXT
  5
B72
330
1E
100
AcDbEntity
  8
TEXT
100
AcDbText
 10
336.7238616296993
 20
73.1811823709997
 30
0.0
 40
5.0
  1
Ersatz für:
 41
0.8
  7
GREEKS
100
AcDbText
  0
TEXT
  5
B73
330
1E
100
AcDbEntity
  8
TEXT
100
AcDbText
 10
337.2400861497006
 20
52.07416177878599
 30
0.0
 40
5.0
  1
ersetzt durch:
 41
0.8
  7
GREEKS
100
AcDbText
  0
LINE
  5
B74
330
1E
100
AcDbEntity
  8
HILF
100
AcDbLine
 10
336.7238616296993
 20
83.77983636955827
 30
0.0
 11
404.8588839326728
 21
83.77983636955827
 31
0.0
  0
LINE
  5
B75
330
1E
100
AcDbEntity
  8
VOLL
100
AcDbLine
 10
332.0
 20
60.0
 30
0.0
 11
410.0
 21
60.0
 31
0.0
  0
LINE
  5
B76
330
1E
100
AcDbEntity
  8
HILF
100
AcDbLine
 10
233.4909699289885
 20
14.89398258028314
 30
0.0
 11
404.8588839326728
 21
14.89398258028314
 31
0.0
  0
LINE
  5
B77
330
1E
100
AcDbEntity
  8
HILF
100
AcDbLine
 10
234.7736801096947
 20
84.03758247564139
 30
0.0
 11
324.8353916556311
 21
84.03758247564139
 31
0.0
  0
LINE
  5
B78
330
1E
100
AcDbEntity
  8
HILF
100
AcDbLine
 10
234.7736801096947
 20
70.0
 30
0.0
 11
324.8353916556309
 21
70.0
 31
0.0
  0
LINE
  5
B79
330
1E
100
AcDbEntity
  8
HILF
100
AcDbLine
 10
234.7736801096947
 20
60.0
 30
0.0
 11
324.8353916556309
 21
60.0
 31
0.0
  0
LINE
  5
B7A
330
1E
100
AcDbEntity
  8
HILF
100
AcDbLine
 10
234.7736801096947
 20
50.0
 30
0.0
 11
324.8353916556309
 21
50.0
 31
0.0
  0
TEXT
  5
B7B
330
1E
100
AcDbEntity
  8
TEXT
100
AcDbText
 10
235.1296391125316
 20
51.64011943042158
 30
0.0
 40
5.0
  1
EDV-Art.Nr. 21903.125X
 41
0.8
  7
GREEKS
100
AcDbText
  0
TEXT
  5
B7C
330
1E
100
AcDbEntity
  8
TEXT
 62
     1
100
AcDbText
 10
234.8934189602656
 20
87.41748789253779
 30
0.0
 40
7.0
  1
Grundeinheit DN125
 41
0.8
  7
GREEKS
100
AcDbText
  0
LINE
  5
B7D
330
1E
100
AcDbEntity
  8
STEMPEL
100
AcDbLine
 10
230.0
 20
110.0
 30
0.0
 11
230.0
 21
10.0
 31
0.0
  0
TEXT
  5
B7E
330
1E
100
AcDbEntity
  8
TEXT
100
AcDbText
 10
234.877940380901
 20
102.5489328011779
 30
0.0
 40
5.0
  1
Benennung
 41
0.8
  7
GREEKS
100
AcDbText
  0
TEXT
  5
B7F
330
1E
100
AcDbEntity
  8
TEXT
100
AcDbText
 10
234.742238391136
 20
30.8456057019306
 30
0.0
 40
5.0
  1
Bauvorhaben
 41
0.8
  7
GREEKS
100
AcDbText
  0
TEXT
  5
B80
330
1E
100
AcDbEntity
  8
TEXT
100
AcDbText
 10
234.9837501577827
 20
42.62974153022628
 30
0.0
 40
4.0
  1
21903125W.DWG
 41
0.8
  7
GREEKS
100
AcDbText
  0
LINE
  5
B81
330
1E
100
AcDbEntity
  8
STEMPEL
100
AcDbLine
 10
332.0
 20
109.9999999999997
 30
0.0
 11
332.0
 21
40.0
 31
0.0
  0
LINE
  5
B82
102
{ACAD_REACTORS
330
ACF
102
}
330
1E
100
AcDbEntity
  8
STEMPEL
100
AcDbLine
 10
294.4852827748098
 20
179.3111114365969
 30
0.0
 11
292.9903358197818
 21
162.2237895507758
 31
0.0
  0
LINE
  5
B83
102
{ACAD_REACTORS
330
ACF
102
}
330
1E
100
AcDbEntity
  8
STEMPEL
100
AcDbLine
 10
296.4852827748099
 20
179.2237895507823
 30
0.0
 11
294.9979754948686
 21
162.2237895507758
 31
0.0
  0
LINE
  5
B84
330
1E
100
AcDbEntity
  8
TEXT
 62
     2
100
AcDbLine
 10
305.9245549223356
 20
189.8670378627094
 30
0.0
 11
295.3691148869903
 21
195.1573024997464
 31
0.0
  0
TEXT
  5
B86
330
1E
100
AcDbEntity
  8
TEXT
 62
     1
100
AcDbText
 10
347.9957785554431
 20
88.14901428913959
 30
0.0
 40
7.0
  1
21903125W
 41
0.8
  7
GREEKS
 72
     1
 11
370.9291118887764
 21
88.14901428913959
 31
0.0
100
AcDbText
  0
LINE
  5
B87
330
1E
100
AcDbEntity
  8
STEMPEL
100
AcDbLine
 10
392.8639624312505
 20
436.2237895507753
 30
0.0
 11
339.7040327748101
 21
436.2237895507753
 31
0.0
  0
LINE
  5
B88
102
{ACAD_REACTORS
330
EA3
102
}
330
1E
100
AcDbEntity
  8
STEMPEL
100
AcDbLine
 10
388.6213217441307
 20
439.2237895507756
 30
0.0
 11
319.8283558132144
 21
439.2237895507756
 31
0.0
  0
TEXT
  5
B89
330
1E
100
AcDbEntity
  8
TEXT
 62
     1
100
AcDbText
 10
226.0013047186494
 20
305.2016561627709
 30
0.0
 40
7.0
  1
DN125
 50
90.0
 41
0.8
  7
GREEKS
100
AcDbText
  0
ARC
  5
B8A
330
1E
100
AcDbEntity
  8
STEMPEL
100
AcDbCircle
 10
226.7189445485371
 20
458.7237895507755
 30
0.0
 40
5.0
100
AcDbArc
 50
181.0000000000017
 51
270.0
  0
LINE
  5
B8B
330
1E
100
AcDbEntity
  8
MITTEL
100
AcDbLine
 10
214.0610873239635
 20
472.2237895507753
 30
0.0
 11
214.0610873239641
 21
447.4976494681491
 31
0.0
  0
LINE
  5
B8C
330
1E
100
AcDbEntity
  8
STEMPEL
100
AcDbLine
 10
221.7197060727551
 20
458.6365275185892
 30
0.0
 11
221.5610873239636
 21
467.7237895507756
 31
0.0
  0
LINE
  5
B8D
102
{ACAD_REACTORS
330
ACF
102
}
330
1E
100
AcDbEntity
  8
STEMPEL
100
AcDbLine
 10
314.7792911215428
 20
439.4652314736416
 30
0.0
 11
295.2777288650835
 21
409.0884264082991
 31
0.0
  0
LINE
  5
B8E
330
1E
100
AcDbEntity
  8
STEMPEL
100
AcDbLine
 10
317.3038234673785
 20
437.8445105122087
 30
0.0
 11
308.2598151206458
 21
423.7570197283853
 31
0.0
  0
ARC
  5
B8F
330
1E
100
AcDbEntity
  8
SCHRAFF
100
AcDbCircle
 10
307.4183043387005
 20
424.2972600488629
 30
0.0
 40
2.0
100
AcDbArc
 50
237.2999999999999
 51
27.29999999999825
  0
LINE
  5
B90
102
{ACAD_REACTORS
330
ACF
102
}
330
1E
100
AcDbEntity
  8
STEMPEL
100
AcDbLine
 10
307.4183043387005
 20
424.2972600488629
 30
0.0
 11
296.9607504289742
 21
408.007945767344
 31
0.0
  0
ARC
  5
B91
102
{ACAD_REACTORS
330
ACF
102
}
330
1E
100
AcDbEntity
  8
STEMPEL
100
AcDbCircle
 10
299.4852827748099
 20
406.3872248059109
 30
0.0
 40
5.0
100
AcDbArc
 50
147.2999999999998
 51
180.0
  0
ARC
  5
B92
102
{ACAD_REACTORS
330
ACF
102
}
330
1E
100
AcDbEntity
  8
STEMPEL
100
AcDbCircle
 10
299.4852827748099
 20
406.3872248059109
 30
0.0
 40
3.0
100
AcDbArc
 50
147.2999999999998
 51
180.0
  0
LINE
  5
B93
102
{ACAD_REACTORS
330
ACF
102
}
330
1E
100
AcDbEntity
  8
STEMPEL
100
AcDbLine
 10
305.7352827748099
 20
425.3777406898183
 30
0.0
 11
308.2598151206458
 21
423.7570197283853
 31
0.0
  0
LINE
  5
B95
330
1E
100
AcDbEntity
  8
STEMPEL
100
AcDbLine
 10
298.4852827748101
 20
466.2237895507765
 30
0.0
 11
288.4852827748101
 21
466.2237895507765
 31
0.0
  0
LINE
  5
B98
330
1E
100
AcDbEntity
  8
STEMPEL
100
AcDbLine
 10
289.4852827748101
 20
467.2237895507763
 30
0.0
 11
297.4852827748101
 21
467.2237895507763
 31
0.0
  0
LINE
  5
B9D
330
1E
100
AcDbEntity
  8
STEMPEL
100
AcDbLine
 10
288.4852827748101
 20
447.7237895507754
 30
0.0
 11
288.4852827748101
 21
445.2237895507757
 31
0.0
  0
LINE
  5
B9E
330
1E
100
AcDbEntity
  8
HILF
100
AcDbLine
 10
289.4852827748101
 20
447.7237895507754
 30
0.0
 11
289.4852827748101
 21
445.2237895507757
 31
0.0
  0
LINE
  5
BA1
330
1E
100
AcDbEntity
  8
STEMPEL
100
AcDbLine
 10
288.4852827748101
 20
466.2237895507764
 30
0.0
 11
289.4852827748101
 21
467.2237895507763
 31
0.0
  0
LINE
  5
BA2
330
1E
100
AcDbEntity
  8
HILF
100
AcDbLine
 10
289.4852827748101
 20
467.2237895507763
 30
0.0
 11
289.4852827748101
 21
463.7237895507759
 31
0.0
  0
LINE
  5
BA3
330
1E
100
AcDbEntity
  8
STEMPEL
100
AcDbLine
 10
288.4852827748101
 20
466.2237895507764
 30
0.0
 11
288.4852827748101
 21
463.7237895507759
 31
0.0
  0
LINE
  5
BA6
330
1E
100
AcDbEntity
  8
MITTEL
100
AcDbLine
 10
293.4852827748102
 20
472.2237895507752
 30
0.0
 11
293.4852827748102
 21
442.2237895507754
 31
0.0
  0
LINE
  5
BA8
330
1E
100
AcDbEntity
  8
HILF
100
AcDbLine
 10
297.4852827748103
 20
447.7237895507754
 30
0.0
 11
297.4852827748101
 21
445.2237895507757
 31
0.0
  0
LINE
  5
BA9
330
1E
100
AcDbEntity
  8
STEMPEL
100
AcDbLine
 10
298.4852827748102
 20
447.7237895507754
 30
0.0
 11
298.4852827748102
 21
445.2237895507757
 31
0.0
  0
LINE
  5
BAC
330
1E
100
AcDbEntity
  8
HILF
100
AcDbLine
 10
297.4852827748101
 20
467.2237895507763
 30
0.0
 11
297.4852827748101
 21
463.7237895507759
 31
0.0
  0
LINE
  5
BAD
330
1E
100
AcDbEntity
  8
STEMPEL
100
AcDbLine
 10
298.4852827748101
 20
466.2237895507764
 30
0.0
 11
298.4852827748101
 21
463.7237895507759
 31
0.0
  0
LINE
  5
BAE
330
1E
100
AcDbEntity
  8
STEMPEL
100
AcDbLine
 10
297.4852827748101
 20
467.2237895507763
 30
0.0
 11
298.4852827748101
 21
466.2237895507764
 31
0.0
  0
ARC
  5
BAF
102
{ACAD_REACTORS
330
AD5
102
}
330
1E
100
AcDbEntity
  8
STEMPEL
100
AcDbCircle
 10
326.9852827748099
 20
450.7237895507756
 30
0.0
 40
3.0
100
AcDbArc
 50
90.0
 51
270.0
  0
ARC
  5
BB0
330
1E
100
AcDbEntity
  8
STEMPEL
100
AcDbCircle
 10
319.8283558132144
 20
436.2237895507758
 30
0.0
 40
6.0
100
AcDbArc
 50
90.0
 51
147.2999999999998
  0
ARC
  5
BB1
330
1E
100
AcDbEntity
  8
STEMPEL
100
AcDbCircle
 10
319.8283558132144
 20
436.2237895507758
 30
0.0
 40
3.0
100
AcDbArc
 50
90.0
 51
147.2999999999998
  0
LINE
  5
BB3
102
{ACAD_REACTORS
330
C92
102
}
330
1E
100
AcDbEntity
  8
STEMPEL
100
AcDbLine
 10
324.9852827748099
 20
445.2237895507757
 30
0.0
 11
324.9852827748099
 21
442.2237895507756
 31
0.0
  0
TEXT
  5
BB5
330
1E
100
AcDbEntity
  8
TEXT
 62
     1
100
AcDbText
 10
254.9615716375513
 20
514.7145609666979
 30
0.0
 40
7.0
  1
EDV-Art.Nr. 21810.150X
 41
0.8
  7
GREEKS
100
AcDbText
  0
TEXT
  5
BB6
330
1E
100
AcDbEntity
  8
TEXT
 62
     1
100
AcDbText
 10
255.568531250143
 20
527.6670010684474
 30
0.0
 40
7.0
  1
Kompressionsdichtung
 41
0.8
  7
GREEKS
100
AcDbText
  0
LINE
  5
BB7
330
1E
100
AcDbEntity
  8
TEXT
 62
     2
100
AcDbLine
 10
254.2171621019668
 20
525.6612644499459
 30
0.0
 11
361.6927004278398
 21
525.6612644499459
 31
0.0
  0
LINE
  5
BB8
330
1E
100
AcDbEntity
  8
TEXT
 62
     2
100
AcDbLine
 10
361.6927004278398
 20
525.6612644499459
 30
0.0
 11
373.0934320752729
 21
492.0686385989914
 31
0.0
  0
LINE
  5
BBA
102
{ACAD_REACTORS
330
C92
102
}
330
1E
100
AcDbEntity
  8
STEMPEL
100
AcDbLine
 10
361.98528277481
 20
445.2237895507756
 30
0.0
 11
394.9852827748099
 21
445.2237895507756
 31
0.0
  0
LINE
  5
BBC
102
{ACAD_REACTORS
330
AD5
102
}
330
1E
100
AcDbEntity
  8
STEMPEL
100
AcDbLine
 10
361.98528277481
 20
447.7237895507754
 30
0.0
 11
386.9852827748099
 21
447.7237895507754
 31
0.0
  0
LINE
  5
BC0
330
1E
100
AcDbEntity
  8
STEMPEL
100
AcDbLine
 10
352.98528277481
 20
467.2237895507763
 30
0.0
 11
360.98528277481
 21
467.2237895507763
 31
0.0
  0
LINE
  5
BC3
330
1E
100
AcDbEntity
  8
STEMPEL
100
AcDbLine
 10
361.98528277481
 20
466.2237895507765
 30
0.0
 11
351.98528277481
 21
466.2237895507765
 31
0.0
  0
LINE
  5
BC4
330
1E
100
AcDbEntity
  8
MITTEL
100
AcDbLine
 10
356.9852827748101
 20
472.223789550775
 30
0.0
 11
356.9852827748101
 21
442.2237895507754
 31
0.0
  0
LINE
  5
BC9
330
1E
100
AcDbEntity
  8
STEMPEL
100
AcDbLine
 10
351.98528277481
 20
453.7237895507757
 30
0.0
 11
351.98528277481
 21
442.2237895507753
 31
0.0
  0
LINE
  5
BCA
102
{ACAD_REACTORS
330
AD5
102
}
330
1E
100
AcDbEntity
  8
STEMPEL
100
AcDbLine
 10
349.98528277481
 20
453.7237895507757
 30
0.0
 11
349.98528277481
 21
447.7237895507756
 31
0.0
  0
LINE
  5
BCB
330
1E
100
AcDbEntity
  8
HILF
100
AcDbLine
 10
352.9852827748101
 20
453.7237895507757
 30
0.0
 11
352.9852827748101
 21
442.2237895507753
 31
0.0
  0
LINE
  5
BCC
102
{ACAD_REACTORS
330
C92
102
}
330
1E
100
AcDbEntity
  8
STEMPEL
100
AcDbLine
 10
349.98528277481
 20
445.2237895507757
 30
0.0
 11
349.98528277481
 21
442.2237895507753
 31
0.0
  0
LINE
  5
BCF
330
1E
100
AcDbEntity
  8
STEMPEL
100
AcDbLine
 10
351.98528277481
 20
466.2237895507764
 30
0.0
 11
351.98528277481
 21
463.723789550776
 31
0.0
  0
LINE
  5
BD0
330
1E
100
AcDbEntity
  8
HILF
100
AcDbLine
 10
352.98528277481
 20
467.2237895507763
 30
0.0
 11
352.98528277481
 21
463.723789550776
 31
0.0
  0
LINE
  5
BD1
330
1E
100
AcDbEntity
  8
STEMPEL
100
AcDbLine
 10
351.98528277481
 20
466.2237895507764
 30
0.0
 11
352.98528277481
 21
467.2237895507763
 31
0.0
  0
LINE
  5
BD5
330
1E
100
AcDbEntity
  8
HILF
100
AcDbLine
 10
360.9852827748101
 20
453.7237895507757
 30
0.0
 11
360.9852827748101
 21
442.2237895507753
 31
0.0
  0
LINE
  5
BD6
330
1E
100
AcDbEntity
  8
STEMPEL
100
AcDbLine
 10
361.9852827748101
 20
453.7237895507757
 30
0.0
 11
361.9852827748101
 21
442.2237895507753
 31
0.0
  0
LINE
  5
BD7
102
{ACAD_REACTORS
330
AD5
102
}
330
1E
100
AcDbEntity
  8
STEMPEL
100
AcDbLine
 10
363.9852827748101
 20
453.7237895507757
 30
0.0
 11
363.9852827748101
 21
447.7237895507754
 31
0.0
  0
LINE
  5
BD8
102
{ACAD_REACTORS
330
C92
102
}
330
1E
100
AcDbEntity
  8
STEMPEL
100
AcDbLine
 10
363.9852827748101
 20
445.2237895507757
 30
0.0
 11
363.9852827748101
 21
442.2237895507753
 31
0.0
  0
LINE
  5
BDC
330
1E
100
AcDbEntity
  8
STEMPEL
100
AcDbLine
 10
360.98528277481
 20
467.2237895507763
 30
0.0
 11
361.98528277481
 21
466.2237895507764
 31
0.0
  0
LINE
  5
BDD
330
1E
100
AcDbEntity
  8
HILF
100
AcDbLine
 10
360.98528277481
 20
467.2237895507763
 30
0.0
 11
360.98528277481
 21
463.723789550776
 31
0.0
  0
LINE
  5
BDE
330
1E
100
AcDbEntity
  8
STEMPEL
100
AcDbLine
 10
361.98528277481
 20
466.2237895507764
 30
0.0
 11
361.98528277481
 21
463.723789550776
 31
0.0
  0
LINE
  5
BDF
330
1E
100
AcDbEntity
  8
STEMPEL
100
AcDbLine
 10
394.9852827748098
 20
438.3451098943353
 30
0.0
 11
392.8639624312502
 21
436.2237895507755
 31
0.0
  0
LINE
  5
BE0
330
1E
100
AcDbEntity
  8
STEMPEL
100
AcDbLine
 10
392.8639624312502
 20
436.2237895507757
 30
0.0
 11
390.7426420876902
 21
438.3451098943353
 31
0.0
  0
ARC
  5
BE1
330
1E
100
AcDbEntity
  8
STEMPEL
100
AcDbCircle
 10
388.6213217441307
 20
436.2237895507757
 30
0.0
 40
3.0
100
AcDbArc
 50
45.0
 51
90.0
  0
ARC
  5
BE2
330
1E
100
AcDbEntity
  8
STEMPEL
100
AcDbCircle
 10
388.6213217441307
 20
436.2237895507757
 30
0.0
 40
6.0
100
AcDbArc
 50
45.0
 51
90.0
  0
ARC
  5
BE3
102
{ACAD_REACTORS
330
AD5
102
}
330
1E
100
AcDbEntity
  8
STEMPEL
100
AcDbCircle
 10
386.9852827748099
 20
450.7237895507756
 30
0.0
 40
3.0
100
AcDbArc
 50
270.0
 51
90.0
  0
LINE
  5
BE4
330
1E
100
AcDbEntity
  8
STEMPEL
100
AcDbLine
 10
394.9852827748098
 20
438.3451098943353
 30
0.0
 11
392.8639624312502
 21
440.4664302378951
 31
0.0
  0
LINE
  5
BE6
102
{ACAD_REACTORS
330
C92
102
}
330
1E
100
AcDbEntity
  8
STEMPEL
100
AcDbLine
 10
394.9852827748099
 20
445.2237895507757
 30
0.0
 11
394.9852827748099
 21
442.2237895507756
 31
0.0
  0
LINE
  5
C4C
330
1E
100
AcDbEntity
  8
TEXT
 62
     2
100
AcDbLine
 10
374.4509599682118
 20
488.0686385989915
 30
0.0
 11
389.6340444659577
 21
443.3311873047114
 31
0.0
  0
TEXT
  5
C56
330
1E
100
AcDbEntity
  8
TEXT
100
AcDbText
 10
37.20499036866615
 20
53.52890452280325
 30
0.0
 40
4.0
  1

 41
0.8
  7
GREEKS
 72
     1
 11
37.20499036866615
 21
53.52890452280325
 31
0.0
100
AcDbText
  0
TEXT
  5
C57
330
1E
100
AcDbEntity
  8
TEXT
100
AcDbText
 10
72.37491747570143
 20
53.53116077924653
 30
0.0
 40
4.0
  1

 41
0.8
  7
GREEKS
 72
     1
 11
72.37491747570143
 21
53.53116077924653
 31
0.0
100
AcDbText
  0
TEXT
  5
C58
330
1E
100
AcDbEntity
  8
TEXT
100
AcDbText
 10
114.1772599767273
 20
53.52890452280325
 30
0.0
 40
4.0
  1

 41
0.7
  7
GREEKS
 72
     1
 11
114.1772599767273
 21
53.52890452280325
 31
0.0
100
AcDbText
  0
TEXT
  5
C59
330
1E
100
AcDbEntity
  8
TEXT
100
AcDbText
 10
134.9952163747256
 20
53.45058399906928
 30
0.0
 40
4.0
  1

 41
0.8
  7
GREEKS
 72
     1
 11
134.9952163747256
 21
53.45058399906928
 31
0.0
100
AcDbText
  0
HATCH
  5
C92
330
1E
100
AcDbEntity
  8
SCHRAFF
100
AcDbHatch
 10
0.0
 20
0.0
 30
0.0
210
0.0
220
0.0
230
1.0
  2
NET
 70
     0
 71
     1
 91
        4
 92
        7
 72
     0
 73
     1
 93
        4
 10
363.9852827748101
 20
445.2237895507757
 10
363.9852827748101
 20
442.2237895507749
 10
394.9852827748099
 20
442.2237895507749
 10
394.9852827748098
 20
445.2237895507756
 97
        4
330
BD8
330
AEA
330
BE6
330
BBA
 92
        7
 72
     0
 73
     1
 93
        4
 10
349.9852827748101
 20
445.2237895507757
 10
324.9852827748099
 20
445.2237895507757
 10
324.9852827748099
 20
442.2237895507751
 10
349.98528277481
 20
442.2237895507749
 97
        4
330
ADF
330
BB3
330
AEA
330
BCC
 92
        7
 72
     0
 73
     1
 93
        4
 10
134.9852827748099
 20
445.2237895507757
 10
109.9852827748099
 20
445.2237895507757
 10
109.9852827748099
 20
442.2237895507755
 10
134.9852827748099
 20
442.2237895507755
 97
        4
330
ADF
330
B37
330
AEA
330
B46
 92
        7
 72
     0
 73
     1
 93
        4
 10
95.98528277480994
 20
445.2237895507757
 10
64.98528277480989
 20
445.2237895507757
 10
64.98528277480989
 20
442.2237895507757
 10
95.98528277480994
 20
442.2237895507756
 97
        4
330
B15
330
B1D
330
AEA
330
B32
 75
     0
 76
     1
 52
45.0
 41
15.0
 77
     0
 78
     2
 53
45.0
 43
0.0
 44
0.0
 45
-1.325825214724776
 46
1.325825214724776
 79
     0
 53
135.0
 43
0.0
 44
0.0
 45
-1.325825214724776
 46
-1.325825214724776
 79
     0
 47
0.3682596536603807
 98
        4
 10
370.492013222482
 20
444.6659269816568
 10
328.4973058740293
 20
444.6659269816568
 10
123.3126421536367
 20
443.5611474059905
 10
86.84355532230346
 20
444.6659269816568
  0
TEXT
  5
CB1
330
1E
100
AcDbEntity
  8
VOLL
100
AcDbText
 10
418.6779787288541
 20
388.8534231068257
 30
0.0
 40
1.8
  1

  7
GREEKS
100
AcDbText
  0
ARC
  5
CC8
330
1E
100
AcDbEntity
  8
STEMPEL
100
AcDbCircle
 10
102.9852827748099
 20
433.4129004183209
 30
0.0
 40
30.31088913245485
100
AcDbArc
 50
81.78678929826059
 51
98.2132107017394
  0
ARC
  5
CC9
330
1E
100
AcDbEntity
  8
STEMPEL
100
AcDbCircle
 10
96.49009224642668
 20
456.0294838429912
 30
0.0
 40
7.694305707784447
100
AcDbArc
 50
73.65710669401657
 51
106.3428933059865
  0
ARC
  5
CCA
330
1E
100
AcDbEntity
  8
STEMPEL
100
AcDbCircle
 10
109.4804733031932
 20
456.0294838429912
 30
0.0
 40
7.694305707784447
100
AcDbArc
 50
73.65710669401345
 51
106.3428933059834
  0
ARC
  5
CCB
330
1E
100
AcDbEntity
  8
HILF
100
AcDbCircle
 10
102.9852827748099
 20
433.8253285031145
 30
0.0
 40
22.41111549782308
100
AcDbArc
 50
78.85962783890455
 51
101.1403721610954
  0
ARC
  5
CCC
330
1E
100
AcDbEntity
  8
HILF
100
AcDbCircle
 10
109.4804733031932
 20
450.4753034012461
 30
0.0
 40
5.761140599691502
100
AcDbArc
 50
67.92594526326054
 51
112.0740547367394
  0
ARC
  5
CCD
330
1E
100
AcDbEntity
  8
HILF
100
AcDbCircle
 10
96.49009224642668
 20
450.4753034012461
 30
0.0
 40
5.761140599691502
100
AcDbArc
 50
67.92594526326054
 51
112.0740547367394
  0
LINE
  5
CCE
330
1E
100
AcDbEntity
  8
STEMPEL
100
AcDbLine
 10
95.48528277480995
 20
463.7237895507757
 30
0.0
 11
110.4852827748099
 21
463.7237895507757
 31
0.0
  0
LINE
  5
CCF
330
1E
100
AcDbEntity
  8
STEMPEL
100
AcDbLine
 10
111.6455368126543
 20
455.8141460669755
 30
0.0
 11
111.6455368126543
 21
463.4129004183203
 31
0.0
  0
LINE
  5
CD0
330
1E
100
AcDbEntity
  8
STEMPEL
100
AcDbLine
 10
107.3154097937321
 20
455.8141460669755
 30
0.0
 11
107.3154097937321
 21
463.4129004183203
 31
0.0
  0
LINE
  5
CD1
330
1E
100
AcDbEntity
  8
STEMPEL
100
AcDbLine
 10
98.65515575588773
 20
455.8141460669755
 30
0.0
 11
98.65515575588773
 21
463.4129004183203
 31
0.0
  0
LINE
  5
CD2
330
1E
100
AcDbEntity
  8
STEMPEL
100
AcDbLine
 10
113.3917978823042
 20
455.1785590163651
 30
0.0
 11
92.57876766731568
 21
455.1785590163651
 31
0.0
  0
LINE
  5
CD3
330
1E
100
AcDbEntity
  8
STEMPEL
100
AcDbLine
 10
113.1352827748099
 20
453.7237895507757
 30
0.0
 11
92.83528277480996
 21
453.7237895507757
 31
0.0
  0
LINE
  5
CD4
330
1E
100
AcDbEntity
  8
STEMPEL
100
AcDbLine
 10
94.32502873696558
 20
455.8141460669755
 30
0.0
 11
94.32502873696558
 21
463.4129004183203
 31
0.0
  0
LINE
  5
CD5
330
1E
100
AcDbEntity
  8
STEMPEL
100
AcDbLine
 10
95.48528277480995
 20
463.7237895507757
 30
0.0
 11
94.32502873696558
 21
463.4129004183203
 31
0.0
  0
LINE
  5
CD6
330
1E
100
AcDbEntity
  8
STEMPEL
100
AcDbLine
 10
111.6455368126543
 20
463.4129004183203
 30
0.0
 11
110.4852827748099
 21
463.7237895507757
 31
0.0
  0
LINE
  5
CD7
330
1E
100
AcDbEntity
  8
STEMPEL
100
AcDbLine
 10
113.3917978823042
 20
455.1785590163651
 30
0.0
 11
111.6455368126543
 21
455.8141460669755
 31
0.0
  0
LINE
  5
CD8
330
1E
100
AcDbEntity
  8
STEMPEL
100
AcDbLine
 10
94.32502873696558
 20
455.8141460669755
 30
0.0
 11
92.57876766731573
 21
455.1785590163651
 31
0.0
  0
ARC
  5
CD9
330
1E
100
AcDbEntity
  8
STEMPEL
100
AcDbCircle
 10
92.83528277480996
 20
454.4737895507757
 30
0.0
 40
0.7500000000000013
100
AcDbArc
 50
109.9999999999995
 51
269.9999991462263
  0
ARC
  5
CDA
330
1E
100
AcDbEntity
  8
STEMPEL
100
AcDbCircle
 10
113.1352827748099
 20
454.4737895507757
 30
0.0
 40
0.750000000000001
100
AcDbArc
 50
269.9999991462263
 51
70.00000000000047
  0
ARC
  5
CDB
330
1E
100
AcDbEntity
  8
STEMPEL
100
AcDbCircle
 10
166.4852827748098
 20
433.4129004183209
 30
0.0
 40
30.31088913245485
100
AcDbArc
 50
81.78678929826059
 51
98.2132107017394
  0
ARC
  5
CDC
330
1E
100
AcDbEntity
  8
STEMPEL
100
AcDbCircle
 10
159.9900922464265
 20
456.0294838429913
 30
0.0
 40
7.694305707784447
100
AcDbArc
 50
73.65710669401657
 51
106.3428933059865
  0
ARC
  5
CDD
330
1E
100
AcDbEntity
  8
STEMPEL
100
AcDbCircle
 10
172.9804733031931
 20
456.0294838429913
 30
0.0
 40
7.694305707784447
100
AcDbArc
 50
73.65710669401345
 51
106.3428933059834
  0
ARC
  5
CDE
330
1E
100
AcDbEntity
  8
HILF
100
AcDbCircle
 10
166.4852827748098
 20
433.8253285031146
 30
0.0
 40
22.41111549782308
100
AcDbArc
 50
78.85962783890455
 51
101.1403721610954
  0
ARC
  5
CDF
330
1E
100
AcDbEntity
  8
HILF
100
AcDbCircle
 10
172.9804733031931
 20
450.4753034012461
 30
0.0
 40
5.761140599691502
100
AcDbArc
 50
67.92594526326054
 51
112.0740547367394
  0
ARC
  5
CE0
330
1E
100
AcDbEntity
  8
HILF
100
AcDbCircle
 10
159.9900922464265
 20
450.4753034012461
 30
0.0
 40
5.761140599691502
100
AcDbArc
 50
67.92594526326054
 51
112.0740547367394
  0
LINE
  5
CE1
330
1E
100
AcDbEntity
  8
STEMPEL
100
AcDbLine
 10
158.9852827748098
 20
463.7237895507758
 30
0.0
 11
173.9852827748098
 21
463.7237895507758
 31
0.0
  0
LINE
  5
CE2
330
1E
100
AcDbEntity
  8
STEMPEL
100
AcDbLine
 10
175.1455368126542
 20
455.8141460669756
 30
0.0
 11
175.1455368126542
 21
463.4129004183204
 31
0.0
  0
LINE
  5
CE3
330
1E
100
AcDbEntity
  8
STEMPEL
100
AcDbLine
 10
170.815409793732
 20
455.8141460669756
 30
0.0
 11
170.815409793732
 21
463.4129004183204
 31
0.0
  0
LINE
  5
CE4
330
1E
100
AcDbEntity
  8
STEMPEL
100
AcDbLine
 10
162.1551557558876
 20
455.8141460669756
 30
0.0
 11
162.1551557558876
 21
463.4129004183204
 31
0.0
  0
LINE
  5
CE5
330
1E
100
AcDbEntity
  8
STEMPEL
100
AcDbLine
 10
176.8917978823041
 20
455.1785590163652
 30
0.0
 11
156.0787676673155
 21
455.1785590163652
 31
0.0
  0
LINE
  5
CE6
330
1E
100
AcDbEntity
  8
STEMPEL
100
AcDbLine
 10
176.6352827748098
 20
453.7237895507757
 30
0.0
 11
156.3352827748098
 21
453.7237895507757
 31
0.0
  0
LINE
  5
CE7
330
1E
100
AcDbEntity
  8
STEMPEL
100
AcDbLine
 10
157.8250287369654
 20
455.8141460669756
 30
0.0
 11
157.8250287369654
 21
463.4129004183204
 31
0.0
  0
LINE
  5
CE8
330
1E
100
AcDbEntity
  8
STEMPEL
100
AcDbLine
 10
158.9852827748098
 20
463.7237895507758
 30
0.0
 11
157.8250287369654
 21
463.4129004183204
 31
0.0
  0
LINE
  5
CE9
330
1E
100
AcDbEntity
  8
STEMPEL
100
AcDbLine
 10
175.1455368126542
 20
463.4129004183204
 30
0.0
 11
173.9852827748098
 21
463.7237895507758
 31
0.0
  0
LINE
  5
CEA
330
1E
100
AcDbEntity
  8
STEMPEL
100
AcDbLine
 10
176.8917978823041
 20
455.1785590163652
 30
0.0
 11
175.1455368126542
 21
455.8141460669756
 31
0.0
  0
LINE
  5
CEB
330
1E
100
AcDbEntity
  8
STEMPEL
100
AcDbLine
 10
157.8250287369654
 20
455.8141460669756
 30
0.0
 11
156.0787676673156
 21
455.1785590163652
 31
0.0
  0
ARC
  5
CEC
330
1E
100
AcDbEntity
  8
STEMPEL
100
AcDbCircle
 10
156.3352827748098
 20
454.4737895507758
 30
0.0
 40
0.7500000000000013
100
AcDbArc
 50
109.9999999999995
 51
269.9999991462263
  0
ARC
  5
CED
330
1E
100
AcDbEntity
  8
STEMPEL
100
AcDbCircle
 10
176.6352827748098
 20
454.4737895507758
 30
0.0
 40
0.750000000000001
100
AcDbArc
 50
269.9999991462263
 51
70.00000000000047
  0
ARC
  5
CEE
330
1E
100
AcDbEntity
  8
STEMPEL
100
AcDbCircle
 10
293.4852827748102
 20
433.4129004183211
 30
0.0
 40
30.31088913245485
100
AcDbArc
 50
81.78678929826059
 51
98.2132107017394
  0
ARC
  5
CEF
330
1E
100
AcDbEntity
  8
STEMPEL
100
AcDbCircle
 10
286.9900922464269
 20
456.0294838429915
 30
0.0
 40
7.694305707784447
100
AcDbArc
 50
73.65710669401657
 51
106.3428933059865
  0
ARC
  5
CF0
330
1E
100
AcDbEntity
  8
STEMPEL
100
AcDbCircle
 10
299.9804733031935
 20
456.0294838429915
 30
0.0
 40
7.694305707784447
100
AcDbArc
 50
73.65710669401345
 51
106.3428933059834
  0
ARC
  5
CF1
330
1E
100
AcDbEntity
  8
HILF
100
AcDbCircle
 10
293.4852827748102
 20
433.8253285031147
 30
0.0
 40
22.41111549782308
100
AcDbArc
 50
78.85962783890455
 51
101.1403721610954
  0
ARC
  5
CF2
330
1E
100
AcDbEntity
  8
HILF
100
AcDbCircle
 10
299.9804733031935
 20
450.4753034012463
 30
0.0
 40
5.761140599691502
100
AcDbArc
 50
67.92594526326054
 51
112.0740547367394
  0
ARC
  5
CF3
330
1E
100
AcDbEntity
  8
HILF
100
AcDbCircle
 10
286.9900922464269
 20
450.4753034012463
 30
0.0
 40
5.761140599691502
100
AcDbArc
 50
67.92594526326054
 51
112.0740547367394
  0
LINE
  5
CF4
330
1E
100
AcDbEntity
  8
STEMPEL
100
AcDbLine
 10
285.9852827748102
 20
463.7237895507759
 30
0.0
 11
300.9852827748102
 21
463.7237895507759
 31
0.0
  0
LINE
  5
CF5
330
1E
100
AcDbEntity
  8
STEMPEL
100
AcDbLine
 10
302.1455368126546
 20
455.8141460669758
 30
0.0
 11
302.1455368126546
 21
463.4129004183206
 31
0.0
  0
LINE
  5
CF6
330
1E
100
AcDbEntity
  8
STEMPEL
100
AcDbLine
 10
297.8154097937324
 20
455.8141460669758
 30
0.0
 11
297.8154097937324
 21
463.4129004183206
 31
0.0
  0
LINE
  5
CF7
330
1E
100
AcDbEntity
  8
STEMPEL
100
AcDbLine
 10
289.155155755888
 20
455.8141460669758
 30
0.0
 11
289.155155755888
 21
463.4129004183206
 31
0.0
  0
LINE
  5
CF8
330
1E
100
AcDbEntity
  8
STEMPEL
100
AcDbLine
 10
303.8917978823044
 20
455.1785590163653
 30
0.0
 11
283.0787676673159
 21
455.1785590163653
 31
0.0
  0
LINE
  5
CF9
330
1E
100
AcDbEntity
  8
STEMPEL
100
AcDbLine
 10
303.6352827748102
 20
453.7237895507759
 30
0.0
 11
283.3352827748102
 21
453.7237895507759
 31
0.0
  0
LINE
  5
CFA
330
1E
100
AcDbEntity
  8
STEMPEL
100
AcDbLine
 10
284.8250287369658
 20
455.8141460669758
 30
0.0
 11
284.8250287369658
 21
463.4129004183206
 31
0.0
  0
LINE
  5
CFB
330
1E
100
AcDbEntity
  8
STEMPEL
100
AcDbLine
 10
285.9852827748102
 20
463.7237895507759
 30
0.0
 11
284.8250287369658
 21
463.4129004183206
 31
0.0
  0
LINE
  5
CFC
330
1E
100
AcDbEntity
  8
STEMPEL
100
AcDbLine
 10
302.1455368126546
 20
463.4129004183206
 30
0.0
 11
300.9852827748102
 21
463.7237895507759
 31
0.0
  0
LINE
  5
CFD
330
1E
100
AcDbEntity
  8
STEMPEL
100
AcDbLine
 10
303.8917978823044
 20
455.1785590163653
 30
0.0
 11
302.1455368126546
 21
455.8141460669758
 31
0.0
  0
LINE
  5
CFE
330
1E
100
AcDbEntity
  8
STEMPEL
100
AcDbLine
 10
284.8250287369658
 20
455.8141460669758
 30
0.0
 11
283.078767667316
 21
455.1785590163653
 31
0.0
  0
ARC
  5
CFF
330
1E
100
AcDbEntity
  8
STEMPEL
100
AcDbCircle
 10
283.3352827748102
 20
454.4737895507759
 30
0.0
 40
0.7500000000000013
100
AcDbArc
 50
109.9999999999995
 51
269.9999991462263
  0
ARC
  5
D00
330
1E
100
AcDbEntity
  8
STEMPEL
100
AcDbCircle
 10
303.6352827748102
 20
454.4737895507759
 30
0.0
 40
0.750000000000001
100
AcDbArc
 50
269.9999991462263
 51
70.00000000000047
  0
ARC
  5
D01
330
1E
100
AcDbEntity
  8
STEMPEL
100
AcDbCircle
 10
356.9852827748101
 20
433.4129004183211
 30
0.0
 40
30.31088913245485
100
AcDbArc
 50
81.78678929826059
 51
98.2132107017394
  0
ARC
  5
D02
330
1E
100
AcDbEntity
  8
STEMPEL
100
AcDbCircle
 10
350.4900922464268
 20
456.0294838429915
 30
0.0
 40
7.694305707784447
100
AcDbArc
 50
73.65710669401657
 51
106.3428933059865
  0
ARC
  5
D03
330
1E
100
AcDbEntity
  8
STEMPEL
100
AcDbCircle
 10
363.4804733031934
 20
456.0294838429915
 30
0.0
 40
7.694305707784447
100
AcDbArc
 50
73.65710669401345
 51
106.3428933059834
  0
ARC
  5
D04
330
1E
100
AcDbEntity
  8
HILF
100
AcDbCircle
 10
356.9852827748101
 20
433.8253285031147
 30
0.0
 40
22.41111549782308
100
AcDbArc
 50
78.85962783890455
 51
101.1403721610954
  0
ARC
  5
D05
330
1E
100
AcDbEntity
  8
HILF
100
AcDbCircle
 10
363.4804733031934
 20
450.4753034012463
 30
0.0
 40
5.761140599691502
100
AcDbArc
 50
67.92594526326054
 51
112.0740547367394
  0
ARC
  5
D06
330
1E
100
AcDbEntity
  8
HILF
100
AcDbCircle
 10
350.4900922464268
 20
450.4753034012463
 30
0.0
 40
5.761140599691502
100
AcDbArc
 50
67.92594526326054
 51
112.0740547367394
  0
LINE
  5
D07
330
1E
100
AcDbEntity
  8
STEMPEL
100
AcDbLine
 10
349.4852827748101
 20
463.723789550776
 30
0.0
 11
364.48528277481
 21
463.723789550776
 31
0.0
  0
LINE
  5
D08
330
1E
100
AcDbEntity
  8
STEMPEL
100
AcDbLine
 10
365.6455368126544
 20
455.8141460669758
 30
0.0
 11
365.6455368126544
 21
463.4129004183206
 31
0.0
  0
LINE
  5
D09
330
1E
100
AcDbEntity
  8
STEMPEL
100
AcDbLine
 10
361.3154097937323
 20
455.8141460669758
 30
0.0
 11
361.3154097937323
 21
463.4129004183206
 31
0.0
  0
LINE
  5
D0A
330
1E
100
AcDbEntity
  8
STEMPEL
100
AcDbLine
 10
352.6551557558879
 20
455.8141460669758
 30
0.0
 11
352.6551557558879
 21
463.4129004183206
 31
0.0
  0
LINE
  5
D0B
330
1E
100
AcDbEntity
  8
STEMPEL
100
AcDbLine
 10
367.3917978823043
 20
455.1785590163654
 30
0.0
 11
346.5787676673158
 21
455.1785590163654
 31
0.0
  0
LINE
  5
D0C
330
1E
100
AcDbEntity
  8
STEMPEL
100
AcDbLine
 10
367.13528277481
 20
453.723789550776
 30
0.0
 11
346.8352827748101
 21
453.723789550776
 31
0.0
  0
LINE
  5
D0D
330
1E
100
AcDbEntity
  8
STEMPEL
100
AcDbLine
 10
348.3250287369657
 20
455.8141460669758
 30
0.0
 11
348.3250287369657
 21
463.4129004183206
 31
0.0
  0
LINE
  5
D0E
330
1E
100
AcDbEntity
  8
STEMPEL
100
AcDbLine
 10
349.4852827748101
 20
463.723789550776
 30
0.0
 11
348.3250287369657
 21
463.4129004183206
 31
0.0
  0
LINE
  5
D0F
330
1E
100
AcDbEntity
  8
STEMPEL
100
AcDbLine
 10
365.6455368126544
 20
463.4129004183206
 30
0.0
 11
364.48528277481
 21
463.723789550776
 31
0.0
  0
LINE
  5
D10
330
1E
100
AcDbEntity
  8
STEMPEL
100
AcDbLine
 10
367.3917978823043
 20
455.1785590163654
 30
0.0
 11
365.6455368126544
 21
455.8141460669758
 31
0.0
  0
LINE
  5
D11
330
1E
100
AcDbEntity
  8
STEMPEL
100
AcDbLine
 10
348.3250287369657
 20
455.8141460669758
 30
0.0
 11
346.5787676673159
 21
455.1785590163654
 31
0.0
  0
ARC
  5
D12
330
1E
100
AcDbEntity
  8
STEMPEL
100
AcDbCircle
 10
346.8352827748101
 20
454.4737895507759
 30
0.0
 40
0.7500000000000013
100
AcDbArc
 50
109.9999999999995
 51
269.9999991462263
  0
ARC
  5
D13
330
1E
100
AcDbEntity
  8
STEMPEL
100
AcDbCircle
 10
367.13528277481
 20
454.4737895507759
 30
0.0
 40
0.750000000000001
100
AcDbArc
 50
269.9999991462263
 51
70.00000000000047
  0
LINE
  5
D5D
330
1E
100
AcDbEntity
  8
STEMPEL
100
AcDbLine
 10
307.4852827748099
 20
369.2237895507745
 30
0.0
 11
306.4852827748103
 21
369.2237895507744
 31
0.0
  0
LINE
  5
D5E
102
{ACAD_REACTORS
330
EA3
102
}
330
1E
100
AcDbEntity
  8
STEMPEL
100
AcDbLine
 10
163.4852827748099
 20
286.0237895507748
 30
0.0
 11
152.4852827748097
 21
299.223789550775
 31
0.0
  0
LINE
  5
D5F
102
{ACAD_REACTORS
330
EA3
102
}
330
1E
100
AcDbEntity
  8
STEMPEL
100
AcDbLine
 10
306.4852827748103
 20
298.023789550775
 30
0.0
 11
307.4852827748098
 21
299.2237895507742
 31
0.0
  0
LINE
  5
D60
330
1E
100
AcDbEntity
  8
STEMPEL
  6
Continuous
100
AcDbLine
 10
152.4852827748097
 20
299.223789550775
 30
0.0
 11
163.4852827748099
 21
299.223789550775
 31
0.0
  0
LINE
  5
D61
102
{ACAD_REACTORS
330
EA3
102
}
330
1E
100
AcDbEntity
  8
STEMPEL
100
AcDbLine
 10
152.4852827748099
 20
369.2237895507749
 30
0.0
 11
152.4852827748097
 21
299.223789550775
 31
0.0
  0
LINE
  5
D62
102
{ACAD_REACTORS
330
EA3
102
}
330
1E
100
AcDbEntity
  8
STEMPEL
100
AcDbLine
 10
307.4852827748099
 20
369.2237895507745
 30
0.0
 11
307.4852827748098
 21
299.2237895507742
 31
0.0
  0
LINE
  5
D63
102
{ACAD_REACTORS
330
EA3
102
}
330
1E
100
AcDbEntity
  8
STEMPEL
  6
Continuous
100
AcDbLine
 10
119.98528277481
 20
439.223789550775
 30
0.0
 11
134.7302848491299
 21
281.9437674246958
 31
0.0
  0
ARC
  5
D64
102
{ACAD_REACTORS
330
EA3
102
}
330
1E
100
AcDbEntity
  8
STEMPEL
  6
Continuous
100
AcDbCircle
 10
137.7171875273077
 20
282.223789550775
 30
0.0
 40
3.0
100
AcDbArc
 50
185.3558250428554
 51
270.0
  0
LINE
  5
D65
102
{ACAD_REACTORS
330
EA3
102
}
330
1E
100
AcDbEntity
  8
STEMPEL
  6
Continuous
100
AcDbLine
 10
137.7171875273077
 20
279.2237895507751
 30
0.0
 11
163.4852827748099
 21
279.2237895507749
 31
0.0
  0
DIMENSION
  5
D66
330
1E
100
AcDbEntity
  8
BEM
100
AcDbDimension
  2
*D4
 10
324.98528277481
 20
259.6666870059136
 30
0.0
 11
229.98528277481
 21
266.1666870059136
 31
0.0
 70
    32
  1
%%c<>
 71
     5
 42
190.0
  3
Standard
100
AcDbAlignedDimension
 13
134.98528277481
 23
279.223789550775
 33
0.0
 14
324.98528277481
 24
279.223789550775
 34
0.0
100
AcDbRotatedDimension
1001
ACAD
1000
DSTYLE
1002
{
1070
    40
1040
2.0
1070
    41
1040
3.5
1070
    42
1040
1.0
1070
    43
1040
7.0
1070
    44
1040
1.0
1070
    73
1070
     0
1070
    74
1070
     0
1070
    77
1070
     1
1070
    78
1070
     8
1070
    79
1070
     2
1070
   140
1040
3.5
1070
   141
1040
1.5
1070
   146
1040
0.5142857142857144
1070
   147
1040
1.5
1070
   172
1070
     1
1070
   178
1070
     1
1070
   179
1070
     2
1070
   271
1070
     2
1070
   272
1070
     2
1070
   284
1070
     8
1070
   285
1070
     8
1070
   286
1070
     8
1002
}
  0
DIMENSION
  5
D67
330
1E
100
AcDbEntity
  8
BEM
100
AcDbDimension
  2
*D5
 10
339.9852827748099
 20
476.3911270456541
 30
0.0
 11
229.9852827748099
 21
482.8911270456542
 31
0.0
 70
    32
  1
%%c<>
 71
     5
 42
219.9999999999999
  3
Standard
100
AcDbAlignedDimension
 13
119.98528277481
 23
439.223789550775
 33
0.0
 14
339.9852827748099
 24
439.223789550775
 34
0.0
100
AcDbRotatedDimension
1001
ACAD
1000
DSTYLE
1002
{
1070
    40
1040
2.0
1070
    41
1040
3.5
1070
    42
1040
1.0
1070
    43
1040
7.0
1070
    44
1040
1.0
1070
    73
1070
     0
1070
    74
1070
     0
1070
    77
1070
     1
1070
    78
1070
     8
1070
    79
1070
     2
1070
   140
1040
3.5
1070
   141
1040
1.5
1070
   146
1040
0.5142857142857144
1070
   147
1040
1.5
1070
   172
1070
     1
1070
   178
1070
     1
1070
   179
1070
     2
1070
   271
1070
     2
1070
   272
1070
     2
1070
   284
1070
     8
1070
   285
1070
     8
1070
   286
1070
     8
1002
}
  0
DIMENSION
  5
D68
330
1E
100
AcDbEntity
  8
BEM
100
AcDbDimension
  2
*D6
 10
59.4744424929711
 20
439.2237895507756
 30
0.0
 11
52.97444249297101
 21
359.2237895507754
 31
0.0
 70
    32
 71
     5
 42
160.0000000000006
  3
Standard
100
AcDbAlignedDimension
 13
137.7171875273077
 23
279.223789550775
 33
0.0
 14
71.34924380548909
 24
439.2237895507756
 34
0.0
 50
90.0
100
AcDbRotatedDimension
1001
ACAD
1000
DSTYLE
1002
{
1070
    40
1040
2.0
1070
    41
1040
3.5
1070
    42
1040
1.0
1070
    43
1040
7.0
1070
    44
1040
1.0
1070
    73
1070
     0
1070
    74
1070
     0
1070
    77
1070
     1
1070
    78
1070
     8
1070
    79
1070
     2
1070
   140
1040
3.5
1070
   141
1040
1.5
1070
   146
1040
0.5142857142857144
1070
   147
1040
1.5
1070
   172
1070
     1
1070
   178
1070
     1
1070
   179
1070
     2
1070
   271
1070
     2
1070
   272
1070
     2
1070
   284
1070
     8
1070
   285
1070
     8
1070
   286
1070
     8
1002
}
  0
LINE
  5
D69
102
{ACAD_REACTORS
330
EA3
102
}
330
1E
100
AcDbEntity
  8
STEMPEL
100
AcDbLine
 10
134.98528277481
 20
439.223789550775
 30
0.0
 11
140.98528277481
 21
434.2237895507749
 31
0.0
  0
LINE
  5
D6A
330
1E
100
AcDbEntity
  8
STEMPEL
100
AcDbLine
 10
140.98528277481
 20
414.223789550775
 30
0.0
 11
159.0193143336721
 21
414.223789550775
 31
0.0
  0
LINE
  5
D6B
102
{ACAD_REACTORS
330
EA3
102
}
330
1E
100
AcDbEntity
  8
STEMPEL
100
AcDbLine
 10
140.98528277481
 20
434.2237895507747
 30
0.0
 11
140.98528277481
 21
414.223789550775
 31
0.0
  0
LINE
  5
D6C
102
{ACAD_REACTORS
330
EA3
102
}
330
1E
100
AcDbEntity
  8
STEMPEL
100
AcDbLine
 10
140.98528277481
 20
414.223789550775
 30
0.0
 11
152.4852827748099
 21
369.2237895507749
 31
0.0
  0
LINE
  5
D6F
102
{ACAD_REACTORS
330
EA3
102
}
330
1E
100
AcDbEntity
  8
STEMPEL
100
AcDbLine
 10
318.98528277481
 20
414.223789550775
 30
0.0
 11
307.4852827748099
 21
369.2237895507744
 31
0.0
  0
LINE
  5
D70
102
{ACAD_REACTORS
330
EA3
102
}
330
1E
100
AcDbEntity
  8
STEMPEL
100
AcDbLine
 10
318.98528277481
 20
434.2237895507747
 30
0.0
 11
318.98528277481
 21
414.223789550775
 31
0.0
  0
LINE
  5
D71
102
{ACAD_REACTORS
330
EA3
102
}
330
1E
100
AcDbEntity
  8
STEMPEL
100
AcDbLine
 10
324.98528277481
 20
439.223789550775
 30
0.0
 11
318.98528277481
 21
434.2237895507749
 31
0.0
  0
ARC
  5
D72
102
{ACAD_REACTORS
330
EA3
102
}
330
1E
100
AcDbEntity
  8
STEMPEL
  6
Continuous
100
AcDbCircle
 10
322.2533780223123
 20
282.223789550775
 30
0.0
 40
3.0
100
AcDbArc
 50
270.0
 51
354.6441749571445
  0
LINE
  5
D73
102
{ACAD_REACTORS
330
EA3
102
}
330
1E
100
AcDbEntity
  8
STEMPEL
  6
Continuous
100
AcDbLine
 10
339.98528277481
 20
439.223789550775
 30
0.0
 11
325.2402807004901
 21
281.9437674246958
 31
0.0
  0
LINE
  5
D75
330
1E
100
AcDbEntity
  8
STEMPEL
100
AcDbLine
 10
140.98528277481
 20
434.2237895507747
 30
0.0
 11
144.9912036275154
 21
434.2237895507746
 31
0.0
  0
LINE
  5
DE2
330
1E
100
AcDbEntity
  8
TEXT
 62
     2
100
AcDbLine
 10
384.1311322063534
 20
315.8286460590702
 30
0.0
 11
384.1311322063534
 21
418.41871050608
 31
0.0
  0
TEXT
  5
DE3
330
1E
100
AcDbEntity
  8
TEXT
 62
     1
100
AcDbText
 10
381.1472323288755
 20
317.1800152072466
 30
0.0
 40
7.0
  1
Wärmedämmung DN125
 50
90.0
 41
0.8
  7
GREEKS
100
AcDbText
  0
TEXT
  5
DE4
330
1E
100
AcDbEntity
  8
TEXT
 62
     1
100
AcDbText
 10
393.8551308786484
 20
316.5730555946549
 30
0.0
 40
7.0
  1
EDV-Art.Nr. 19842.125X
 50
90.0
 41
0.75
  7
GREEKS
100
AcDbText
  0
LINE
  5
DE5
330
1E
100
AcDbEntity
  8
TEXT
 62
     2
100
AcDbLine
 10
384.1311322063534
 20
315.8286460590702
 30
0.0
 11
323.2385201501173
 21
305.382573065403
 31
0.0
  0
LINE
  5
DE6
330
1E
100
AcDbEntity
  8
STEMPEL
100
AcDbLine
 10
314.9793619221045
 20
434.2237895507746
 30
0.0
 11
318.98528277481
 21
434.2237895507747
 31
0.0
  0
LINE
  5
DE7
330
1E
100
AcDbEntity
  8
STEMPEL
100
AcDbLine
 10
300.9512512159482
 20
414.223789550775
 30
0.0
 11
318.9852827748099
 21
414.223789550775
 31
0.0
  0
LINE
  5
DE8
330
1E
100
AcDbEntity
  8
STEMPEL
100
AcDbLine
 10
163.4852827748099
 20
369.2237895507748
 30
0.0
 11
152.4852827748099
 21
369.2237895507748
 31
0.0
  0
LINE
  5
DE9
330
1E
100
AcDbEntity
  8
STEMPEL
  6
Continuous
100
AcDbLine
 10
306.4852827748103
 20
299.2237895507743
 30
0.0
 11
307.4852827748098
 21
299.2237895507742
 31
0.0
  0
LINE
  5
DEA
102
{ACAD_REACTORS
330
EA3
102
}
330
1E
100
AcDbEntity
  8
STEMPEL
  6
Continuous
100
AcDbLine
 10
306.4852827748104
 20
279.2237895507743
 30
0.0
 11
322.2533780223122
 21
279.2237895507742
 31
0.0
  0
TEXT
  5
DF4
330
1E
100
AcDbEntity
  8
TEXT
100
AcDbText
 10
235.1296391125316
 20
71.64011943042158
 30
0.0
 40
5.0
  1
mit Wärmedämmung und Heizung
 41
0.7
  7
GREEKS
100
AcDbText
  0
LINE
  5
DFB
330
1E
100
AcDbEntity
  8
MITTEL
100
AcDbLine
 10
229.9852827748098
 20
257.0832867142567
 30
0.0
 11
229.9852827748098
 21
157.2237895507757
 31
0.0
  0
ARC
  5
E47
330
1E
100
AcDbEntity
  8
STEMPEL
100
AcDbCircle
 10
160.4852827748096
 20
407.1660548469579
 30
0.0
 40
2.0
100
AcDbArc
 50
90.0
 51
180.0
  0
ARC
  5
E48
330
1E
100
AcDbEntity
  8
STEMPEL
100
AcDbCircle
 10
160.4852827748096
 20
401.1660548469579
 30
0.0
 40
2.0
100
AcDbArc
 50
180.0
 51
270.0
  0
ARC
  5
E49
330
1E
100
AcDbEntity
  8
STEMPEL
100
AcDbCircle
 10
160.4852827748096
 20
407.1660548469579
 30
0.0
 40
1.0
100
AcDbArc
 50
90.0
 51
180.0
  0
ARC
  5
E4A
330
1E
100
AcDbEntity
  8
STEMPEL
100
AcDbCircle
 10
160.4852827748096
 20
401.1660548469579
 30
0.0
 40
1.0
100
AcDbArc
 50
180.0
 51
270.0
  0
HATCH
  5
E4B
330
1E
100
AcDbEntity
  8
SCHRAFF
100
AcDbHatch
 10
0.0
 20
0.0
 30
0.0
210
0.0
220
0.0
230
1.0
  2
NET
 70
     0
 71
     0
 91
        2
 92
        7
 72
     1
 73
     1
 93
        8
 10
158.4852827748096
 20
407.1660548469579
 42
-0.4142135623730618
 10
160.4852827748094
 20
409.166054846958
 42
0.0
 10
161.4852827748096
 20
409.166054846958
 42
-0.4142135623730951
 10
163.4852827748096
 20
407.166054846958
 42
0.0
 10
163.4852827748096
 20
401.1660548469579
 42
-0.4142135623730951
 10
161.4852827748096
 20
399.166054846958
 42
0.0
 10
160.4852827748096
 20
399.166054846958
 42
-0.4142135623730951
 10
158.4852827748096
 20
401.1660548469579
 42
0.0
 97
        0
 92
       22
 72
     1
 73
     1
 93
        8
 10
159.4852827748096
 20
401.1660548469579
 42
0.4142135623730951
 10
160.4852827748096
 20
400.166054846958
 42
0.0
 10
161.4852827748096
 20
400.166054846958
 42
0.4142135623730951
 10
162.4852827748096
 20
401.1660548469579
 42
0.0
 10
162.4852827748096
 20
407.166054846958
 42
0.4142135623731284
 10
161.4852827748095
 20
408.1660548469581
 42
0.0
 10
160.4852827748096
 20
408.166054846958
 42
0.4142135623730951
 10
159.4852827748096
 20
407.1660548469579
 42
0.0
 97
        0
 75
     0
 76
     1
 52
45.0
 41
10.0
 77
     0
 78
     2
 53
134.9999999999998
 43
453.7610549283274
 44
56.06190531140228
 45
0.8838834764831872
 46
0.8838834764831815
 79
     0
 53
44.99999999999981
 43
453.7610549283274
 44
56.06190531140228
 45
0.8838834764831815
 46
-0.8838834764831872
 79
     0
 47
0.2432155912222071
 98
        2
 10
158.7728523676565
 20
401.4852302396023
 10
158.7728523676565
 20
401.4852302396023
  0
HATCH
  5
E4C
330
1E
100
AcDbEntity
  8
SCHRAFF
100
AcDbHatch
 10
0.0
 20
0.0
 30
0.0
210
0.0
220
0.0
230
1.0
  2
_USER
 70
     0
 71
     0
 91
        1
 92
        7
 72
     1
 73
     1
 93
        8
 10
159.4852827748096
 20
407.1660548469579
 42
-0.4142135623730951
 10
160.4852827748096
 20
408.166054846958
 42
0.0
 10
161.4852827748096
 20
408.1660548469581
 42
-0.4142135623730951
 10
162.4852827748096
 20
407.166054846958
 42
0.0
 10
162.4852827748096
 20
401.1660548469579
 42
-0.4142135623730951
 10
161.4852827748096
 20
400.166054846958
 42
0.0
 10
160.4852827748096
 20
400.166054846958
 42
-0.4142135623730951
 10
159.4852827748096
 20
401.1660548469579
 42
0.0
 97
        0
 75
     0
 76
     0
 52
135.0
 41
1.0
 77
     0
 78
     1
 53
135.0
 43
-3.664184337307688
 44
-17.8982554620809
 45
-0.7071067811865476
 46
-0.7071067811865475
 79
     0
 47
0.1071053300341939
 98
        1
 10
160.9201327630172
 20
403.9421302805346
  0
LINE
  5
E4D
330
1E
100
AcDbEntity
  8
STEMPEL
  6
Continuous
100
AcDbLine
 10
162.4852827748096
 20
407.166054846958
 30
0.0
 11
162.4852827748096
 21
401.1660548469579
 31
0.0
  0
ARC
  5
E4E
330
1E
100
AcDbEntity
  8
STEMPEL
100
AcDbCircle
 10
161.4852827748096
 20
401.1660548469579
 30
0.0
 40
2.0
100
AcDbArc
 50
270.0
 51
0.0
  0
LINE
  5
E4F
330
1E
100
AcDbEntity
  8
STEMPEL
100
AcDbLine
 10
161.4852827748096
 20
399.166054846958
 30
0.0
 11
160.4852827748096
 21
399.166054846958
 31
0.0
  0
ARC
  5
E50
330
1E
100
AcDbEntity
  8
STEMPEL
100
AcDbCircle
 10
161.4852827748096
 20
401.1660548469579
 30
0.0
 40
1.0
100
AcDbArc
 50
270.0
 51
0.0
  0
LINE
  5
E51
330
1E
100
AcDbEntity
  8
STEMPEL
100
AcDbLine
 10
161.4852827748096
 20
400.166054846958
 30
0.0
 11
160.4852827748096
 21
400.166054846958
 31
0.0
  0
ARC
  5
E52
330
1E
100
AcDbEntity
  8
STEMPEL
100
AcDbCircle
 10
161.4852827748096
 20
407.1660548469581
 30
0.0
 40
2.0
100
AcDbArc
 50
0.0
 51
90.0
  0
LINE
  5
E53
330
1E
100
AcDbEntity
  8
STEMPEL
100
AcDbLine
 10
160.4852827748096
 20
409.166054846958
 30
0.0
 11
161.4852827748096
 21
409.166054846958
 31
0.0
  0
ARC
  5
E54
330
1E
100
AcDbEntity
  8
STEMPEL
100
AcDbCircle
 10
161.4852827748096
 20
407.1660548469581
 30
0.0
 40
1.0
100
AcDbArc
 50
0.0
 51
90.0
  0
LINE
  5
E55
330
1E
100
AcDbEntity
  8
STEMPEL
100
AcDbLine
 10
161.4852827748096
 20
408.1660548469581
 30
0.0
 11
160.4852827748096
 21
408.166054846958
 31
0.0
  0
LINE
  5
E56
330
1E
100
AcDbEntity
  8
STEMPEL
  6
Continuous
100
AcDbLine
 10
158.4852827748096
 20
407.1660548469579
 30
0.0
 11
158.4852827748096
 21
401.1660548469579
 31
0.0
  0
LINE
  5
E57
330
1E
100
AcDbEntity
  8
STEMPEL
  6
Continuous
100
AcDbLine
 10
159.4852827748096
 20
407.1660548469579
 30
0.0
 11
159.4852827748096
 21
401.1660548469579
 31
0.0
  0
LINE
  5
E58
102
{ACAD_REACTORS
330
EA3
102
}
330
1E
100
AcDbEntity
  8
STEMPEL
  6
Continuous
100
AcDbLine
 10
306.4852827748103
 20
399.7188728575027
 30
0.0
 11
306.4852827748103
 21
279.2237895507743
 31
0.0
  0
ARC
  5
E59
330
1E
100
AcDbEntity
  8
STEMPEL
100
AcDbCircle
 10
295.6714549034071
 20
399.1940641175728
 30
0.0
 40
10.82655519756146
100
AcDbArc
 50
357.2215433564766
 51
63.22048523125464
  0
LINE
  5
E5A
330
1E
100
AcDbEntity
  8
STEMPEL
  6
Continuous
100
AcDbLine
 10
300.4852827748102
 20
407.1660548469577
 30
0.0
 11
300.4852827748102
 21
401.1660548469577
 31
0.0
  0
LINE
  5
E5B
330
1E
100
AcDbEntity
  8
STEMPEL
  6
Continuous
100
AcDbLine
 10
301.4852827748102
 20
407.1660548469577
 30
0.0
 11
301.4852827748102
 21
401.1660548469577
 31
0.0
  0
LINE
  5
E5C
330
1E
100
AcDbEntity
  8
STEMPEL
100
AcDbLine
 10
298.4852827748102
 20
408.1660548469578
 30
0.0
 11
299.4852827748102
 21
408.1660548469577
 31
0.0
  0
ARC
  5
E5D
330
1E
100
AcDbEntity
  8
STEMPEL
100
AcDbCircle
 10
298.4852827748102
 20
407.1660548469578
 30
0.0
 40
1.0
100
AcDbArc
 50
90.0
 51
180.0
  0
LINE
  5
E5E
330
1E
100
AcDbEntity
  8
STEMPEL
100
AcDbLine
 10
299.4852827748102
 20
409.1660548469577
 30
0.0
 11
298.4852827748102
 21
409.1660548469579
 31
0.0
  0
ARC
  5
E5F
330
1E
100
AcDbEntity
  8
STEMPEL
100
AcDbCircle
 10
298.4852827748102
 20
407.1660548469578
 30
0.0
 40
2.0
100
AcDbArc
 50
90.0
 51
180.0
  0
LINE
  5
E60
330
1E
100
AcDbEntity
  8
STEMPEL
100
AcDbLine
 10
298.4852827748102
 20
400.1660548469577
 30
0.0
 11
299.4852827748102
 21
400.1660548469577
 31
0.0
  0
ARC
  5
E61
330
1E
100
AcDbEntity
  8
STEMPEL
100
AcDbCircle
 10
298.4852827748102
 20
401.1660548469577
 30
0.0
 40
1.0
100
AcDbArc
 50
180.0
 51
270.0
  0
LINE
  5
E62
330
1E
100
AcDbEntity
  8
STEMPEL
100
AcDbLine
 10
298.4852827748102
 20
399.1660548469578
 30
0.0
 11
299.4852827748102
 21
399.1660548469578
 31
0.0
  0
ARC
  5
E63
330
1E
100
AcDbEntity
  8
STEMPEL
100
AcDbCircle
 10
298.4852827748102
 20
401.1660548469577
 30
0.0
 40
2.0
100
AcDbArc
 50
180.0
 51
270.0
  0
LINE
  5
E64
330
1E
100
AcDbEntity
  8
STEMPEL
  6
Continuous
100
AcDbLine
 10
297.4852827748102
 20
407.1660548469578
 30
0.0
 11
297.4852827748102
 21
401.1660548469577
 31
0.0
  0
HATCH
  5
E65
330
1E
100
AcDbEntity
  8
SCHRAFF
100
AcDbHatch
 10
0.0
 20
0.0
 30
0.0
210
0.0
220
0.0
230
1.0
  2
_USER
 70
     0
 71
     0
 91
        1
 92
        7
 72
     1
 73
     1
 93
        8
 10
300.4852827748102
 20
407.1660548469577
 42
0.4142135623730951
 10
299.4852827748102
 20
408.1660548469577
 42
0.0
 10
298.4852827748102
 20
408.1660548469578
 42
0.4142135623730951
 10
297.4852827748102
 20
407.1660548469578
 42
0.0
 10
297.4852827748102
 20
401.1660548469577
 42
0.4142135623730951
 10
298.4852827748102
 20
400.1660548469577
 42
0.0
 10
299.4852827748102
 20
400.1660548469577
 42
0.4142135623730951
 10
300.4852827748102
 20
401.1660548469577
 42
0.0
 97
        0
 75
     0
 76
     0
 52
135.0
 41
1.0
 77
     0
 78
     1
 53
135.0
 43
38.55536402296838
 44
24.75894087662164
 45
-0.7071067811865476
 46
-0.7071067811865475
 79
     0
 47
0.1071053300341939
 98
        1
 10
299.0504327866026
 20
403.9421302805344
  0
HATCH
  5
E66
330
1E
100
AcDbEntity
  8
SCHRAFF
100
AcDbHatch
 10
0.0
 20
0.0
 30
0.0
210
0.0
220
0.0
230
1.0
  2
NET
 70
     0
 71
     0
 91
        2
 92
        7
 72
     1
 73
     1
 93
        8
 10
301.4852827748102
 20
407.1660548469577
 42
0.4142135623730618
 10
299.4852827748104
 20
409.1660548469577
 42
0.0
 10
298.4852827748102
 20
409.1660548469579
 42
0.4142135623730951
 10
296.4852827748102
 20
407.1660548469578
 42
0.0
 10
296.4852827748102
 20
401.1660548469577
 42
0.4142135623730951
 10
298.4852827748102
 20
399.1660548469578
 42
0.0
 10
299.4852827748102
 20
399.1660548469578
 42
0.4142135623730951
 10
301.4852827748102
 20
401.1660548469577
 42
0.0
 97
        0
 92
       22
 72
     1
 73
     1
 93
        8
 10
300.4852827748102
 20
401.1660548469577
 42
-0.4142135623730951
 10
299.4852827748102
 20
400.1660548469577
 42
0.0
 10
298.4852827748102
 20
400.1660548469577
 42
-0.4142135623730951
 10
297.4852827748102
 20
401.1660548469577
 42
0.0
 10
297.4852827748102
 20
407.1660548469578
 42
-0.4142135623731284
 10
298.4852827748103
 20
408.1660548469578
 42
0.0
 10
299.4852827748102
 20
408.1660548469577
 42
-0.4142135623730951
 10
300.4852827748102
 20
407.1660548469577
 42
0.0
 97
        0
 75
     0
 76
     1
 52
45.0
 41
10.0
 77
     0
 78
     2
 53
45.0
 43
6.209510621291144
 44
56.06190531140305
 45
-0.8838834764831842
 46
0.8838834764831844
 79
     0
 53
135.0
 43
6.209510621291144
 44
56.06190531140305
 45
-0.8838834764831844
 46
-0.8838834764831842
 79
     0
 47
0.2432155912222071
 98
        2
 10
301.1977131819632
 20
401.485230239602
 10
301.1977131819632
 20
401.485230239602
  0
ARC
  5
E67
330
1E
100
AcDbEntity
  8
STEMPEL
100
AcDbCircle
 10
299.4852827748102
 20
401.1660548469577
 30
0.0
 40
1.0
100
AcDbArc
 50
270.0
 51
0.0
  0
ARC
  5
E68
330
1E
100
AcDbEntity
  8
STEMPEL
100
AcDbCircle
 10
299.4852827748102
 20
407.1660548469577
 30
0.0
 40
1.0
100
AcDbArc
 50
0.0
 51
90.0
  0
ARC
  5
E69
330
1E
100
AcDbEntity
  8
STEMPEL
100
AcDbCircle
 10
299.4852827748102
 20
401.1660548469577
 30
0.0
 40
2.0
100
AcDbArc
 50
270.0
 51
0.0
  0
ARC
  5
E6A
330
1E
100
AcDbEntity
  8
STEMPEL
100
AcDbCircle
 10
299.4852827748102
 20
407.1660548469577
 30
0.0
 40
2.0
100
AcDbArc
 50
0.0
 51
90.0
  0
TEXT
  5
E6B
330
1E
100
AcDbEntity
  8
TEXT
 62
     1
100
AcDbText
 10
311.2810281131937
 20
211.97052927717
 30
0.0
 40
7.0
  1
EDV-Art.Nr. 19853.000X
 41
0.7
  7
GREEKS
100
AcDbText
  0
TEXT
  5
E6C
330
1E
100
AcDbEntity
  8
TEXT
 62
     1
100
AcDbText
 10
311.2810281131937
 20
226.9332350715365
 30
0.0
 40
7.0
  1
Heizbandkabel
 41
0.8
  7
GREEKS
100
AcDbText
  0
LINE
  5
E6D
330
1E
100
AcDbEntity
  8
TEXT
 62
     2
100
AcDbLine
 10
309.4819361187273
 20
222.7880844618247
 30
0.0
 11
403.2167779562343
 21
222.7880844618247
 31
0.0
  0
POLYLINE
  5
E6E
330
1E
100
AcDbEntity
  8
STEMPEL
100
AcDb2dPolyline
 66
     1
 10
0.0
 20
0.0
 30
0.0
  0
VERTEX
  5
E6F
330
E6E
100
AcDbEntity
  8
STEMPEL
100
AcDbVertex
100
AcDb2dVertex
 10
306.4852827748103
 20
279.2237895507743
 30
0.0
  0
VERTEX
  5
E70
330
E6E
100
AcDbEntity
  8
STEMPEL
100
AcDbVertex
100
AcDb2dVertex
 10
306.4798269834493
 20
272.3566985080183
 30
0.0
  0
VERTEX
  5
E71
330
E6E
100
AcDbEntity
  8
STEMPEL
100
AcDbVertex
100
AcDb2dVertex
 10
306.5472786580126
 20
267.1029523947966
 30
0.0
  0
VERTEX
  5
E72
330
E6E
100
AcDbEntity
  8
STEMPEL
100
AcDbVertex
100
AcDb2dVertex
 10
306.7447023446243
 20
263.0241729949089
 30
0.0
  0
VERTEX
  5
E73
330
E6E
100
AcDbEntity
  8
STEMPEL
100
AcDbVertex
100
AcDb2dVertex
 10
307.119685533477
 20
259.5930614115469
 30
0.0
  0
VERTEX
  5
E74
330
E6E
100
AcDbEntity
  8
STEMPEL
100
AcDbVertex
100
AcDb2dVertex
 10
307.7448613906409
 20
256.1732053174926
 30
0.0
  0
VERTEX
  5
E75
330
E6E
100
AcDbEntity
  8
STEMPEL
100
AcDbVertex
100
AcDb2dVertex
 10
308.7329434050141
 20
252.1386744420835
 30
0.0
  0
VERTEX
  5
E76
330
E6E
100
AcDbEntity
  8
STEMPEL
100
AcDbVertex
100
AcDb2dVertex
 10
310.1869282595729
 20
246.9771928238579
 30
0.0
  0
VERTEX
  5
E77
330
E6E
100
AcDbEntity
  8
STEMPEL
100
AcDbVertex
100
AcDb2dVertex
 10
312.1763155815407
 20
240.2541783422445
 30
0.0
  0
SEQEND
  5
E78
330
E6E
100
AcDbEntity
  8
STEMPEL
  0
LINE
  5
E79
330
1E
100
AcDbEntity
  8
TEXT
 62
     2
100
AcDbLine
 10
309.4819361187273
 20
222.7880844618247
 30
0.0
 11
306.5942841319285
 21
241.0127592451343
 31
0.0
  0
LINE
  5
E7A
330
1E
100
AcDbEntity
  8
MITTEL
100
AcDbLine
 10
315.0530147422666
 20
241.1054138787907
 30
0.0
 11
301.6284186588792
 21
237.1329813749087
 31
0.0
  0
POLYLINE
  5
E7B
330
1E
100
AcDbEntity
  8
STEMPEL
100
AcDb2dPolyline
 66
     1
 10
0.0
 20
0.0
 30
0.0
 70
     4
 75
     6
  0
VERTEX
  5
E7C
330
E7B
100
AcDbEntity
  8
STEMPEL
100
AcDbVertex
100
AcDb2dVertex
 10
296.4852914526521
 20
279.2301454177406
 30
0.0
 70
    16
  0
VERTEX
  5
E7D
330
E7B
100
AcDbEntity
  8
STEMPEL
100
AcDbVertex
100
AcDb2dVertex
 10
296.4852914526521
 20
279.2301454177406
 30
0.0
 70
     8
  0
VERTEX
  5
E7E
330
E7B
100
AcDbEntity
  8
STEMPEL
100
AcDbVertex
100
AcDb2dVertex
 10
297.1399465562876
 20
272.3085233274059
 30
0.0
 70
     8
  0
VERTEX
  5
E7F
330
E7B
100
AcDbEntity
  8
STEMPEL
100
AcDbVertex
100
AcDb2dVertex
 10
297.7060150343715
 20
266.858140122737
 30
0.0
 70
     8
  0
VERTEX
  5
E80
330
E7B
100
AcDbEntity
  8
STEMPEL
100
AcDbVertex
100
AcDb2dVertex
 10
298.2774792271417
 20
262.3956450790509
 30
0.0
 70
     8
  0
VERTEX
  5
E81
330
E7B
100
AcDbEntity
  8
STEMPEL
100
AcDbVertex
100
AcDb2dVertex
 10
298.9483214748356
 20
258.4376874716645
 30
0.0
 70
     8
  0
VERTEX
  5
E82
330
E7B
100
AcDbEntity
  8
STEMPEL
100
AcDbVertex
100
AcDb2dVertex
 10
299.8125241176912
 20
254.5009165758946
 30
0.0
 70
     8
  0
VERTEX
  5
E83
330
E7B
100
AcDbEntity
  8
STEMPEL
100
AcDbVertex
100
AcDb2dVertex
 10
300.9640694959461
 20
250.1019816670584
 30
0.0
 70
     8
  0
VERTEX
  5
E84
330
E7B
100
AcDbEntity
  8
STEMPEL
100
AcDbVertex
100
AcDb2dVertex
 10
302.496939949838
 20
244.7575320204729
 30
0.0
 70
     8
  0
VERTEX
  5
E85
330
E7B
100
AcDbEntity
  8
STEMPEL
100
AcDbVertex
100
AcDb2dVertex
 10
304.5051178196048
 20
237.9842169114549
 30
0.0
 70
     8
  0
VERTEX
  5
E86
330
E7B
100
AcDbEntity
  8
STEMPEL
100
AcDbVertex
100
AcDb2dVertex
 10
298.4326937544046
 20
258.38118957402
 30
0.0
 70
    16
  0
VERTEX
  5
E87
330
E7B
100
AcDbEntity
  8
STEMPEL
100
AcDbVertex
100
AcDb2dVertex
 10
304.5051178196049
 20
237.9842169114549
 30
0.0
 70
    16
  0
SEQEND
  5
E88
330
E7B
100
AcDbEntity
  8
STEMPEL
  0
HATCH
  5
EA3
330
1E
100
AcDbEntity
  8
SCHRAFF
100
AcDbHatch
 10
0.0
 20
0.0
 30
0.0
210
0.0
220
0.0
230
1.0
  2
HONEY
 70
     0
 71
     1
 91
        2
 92
        7
 72
     1
 73
     1
 93
       10
 10
307.4852827748098
 20
299.2237895507742
 42
0.0
 10
306.4852827748103
 20
298.023789550775
 42
0.0
 10
306.4852827748103
 20
279.2237895507742
 42
0.0
 10
322.2533780223122
 20
279.2237895507742
 42
0.3870924378343681
 10
325.2402807004901
 20
281.9437674246958
 42
0.0
 10
339.98528277481
 20
439.2237895507757
 42
0.0
 10
324.9852827748108
 20
439.2237895507756
 42
0.0
 10
318.98528277481
 20
434.2237895507749
 42
0.0
 10
318.98528277481
 20
414.223789550775
 42
0.0
 10
307.4852827748098
 20
369.223789550774
 42
0.0
 97
       10
330
B88
330
D71
330
D70
330
D6F
330
D62
330
D5F
330
E58
330
DEA
330
D72
330
D73
 92
        7
 72
     1
 73
     1
 93
       10
 10
152.4852827748099
 20
369.2237895507749
 42
0.0
 10
140.98528277481
 20
414.2237895507749
 42
0.0
 10
140.98528277481
 20
434.2237895507749
 42
0.0
 10
134.9852827748091
 20
439.2237895507756
 42
0.0
 10
119.9852827748099
 20
439.2237895507756
 42
0.0
 10
134.7302848491299
 20
281.9437674246958
 42
0.3870924378342803
 10
137.7171875273077
 20
279.2237895507751
 42
0.0
 10
163.4852827748099
 20
279.2237895507749
 42
0.0
 10
163.4852827748099
 20
286.0237895507749
 42
0.0
 10
152.4852827748097
 20
299.223789550775
 42
0.0
 97
       10
330
D6C
330
D6B
330
D69
330
B11
330
D63
330
D64
330
D65
330
AEF
330
D5E
330
D61
 75
     0
 76
     1
 52
0.0
 41
35.0
 77
     0
 78
     3
 53
0.0
 43
0.0
 44
0.0
 45
6.5625
 46
3.788861124999999
 79
     2
 49
4.375
 49
-8.75
 53
120.0
 43
0.0
 44
0.0
 45
-6.562499985661285
 46
3.788861149835379
 79
     2
 49
4.375
 49
-8.75
 53
60.0
 43
0.0
 44
0.0
 45
0.000000014338714
 46
7.577722274835378
 79
     2
 49
-8.75
 49
4.375
 47
0.6231725350446228
 98
        2
 10
315.1604861060136
 20
324.3497115539851
 10
143.7345372895456
 20
341.17537028126
  0
ENDSEC
  0
SECTION
  2
OBJECTS
  0
DICTIONARY
  5
C
330
0
100
AcDbDictionary
281
     1
  3
ACAD_COLOR
350
DF
  3
ACAD_GROUP
350
D
  3
ACAD_LAYOUT
350
19
  3
ACAD_MATERIAL
350
DE
  3
ACAD_MLINESTYLE
350
16
  3
ACAD_PLOTSETTINGS
350
18
  3
ACAD_PLOTSTYLENAME
350
E
  3
AcDbVariableDictionary
350
EA
  0
DICTIONARY
  5
A0
330
1E
100
AcDbDictionary
280
     1
281
     1
  3
ACAD_LAYOUTSELFREF
360
D4
  0
DICTIONARY
  5
A2
330
1A
100
AcDbDictionary
280
     1
281
     1
  3
ACAD_LAYOUTSELFREF
360
D3
  0
DICTIONARY
  5
DF
102
{ACAD_REACTORS
330
C
102
}
330
C
100
AcDbDictionary
281
     1
  0
DICTIONARY
  5
D
102
{ACAD_REACTORS
330
C
102
}
330
C
100
AcDbDictionary
281
     1
  0
DICTIONARY
  5
19
102
{ACAD_REACTORS
330
C
102
}
330
C
100
AcDbDictionary
281
     1
  3
Layout1
350
1D
  3
Model
350
21
  0
DICTIONARY
  5
DE
102
{ACAD_REACTORS
330
C
102
}
330
C
100
AcDbDictionary
281
     1
  0
DICTIONARY
  5
16
102
{ACAD_REACTORS
330
C
102
}
330
C
100
AcDbDictionary
281
     1
  3
Standard
350
17
  0
DICTIONARY
  5
18
102
{ACAD_REACTORS
330
C
102
}
330
C
100
AcDbDictionary
281
     1
  0
ACDBDICTIONARYWDFLT
  5
E
102
{ACAD_REACTORS
330
C
102
}
330
C
100
AcDbDictionary
281
     1
  3
Normal
350
F
100
AcDbDictionaryWithDefault
340
F
  0
DICTIONARY
  5
EA
102
{ACAD_REACTORS
330
C
102
}
330
C
100
AcDbDictionary
281
     1
  3
DIMASSOC
350
EB
  3
PROJECTNAME
350
EC
  0
XRECORD
  5
D4
102
{ACAD_REACTORS
330
A0
102
}
330
A0
100
AcDbXrecord
280
     1
340
1E
  0
XRECORD
  5
D3
102
{ACAD_REACTORS
330
A2
102
}
330
A2
100
AcDbXrecord
280
     1
340
1A
  0
LAYOUT
  5
1D
102
{ACAD_REACTORS
330
19
102
}
330
19
100
AcDbPlotSettings
  1

  2
\\NT_WORK01\HP LaserJet 5000 PCL 6
  4

  6

 40
0.0
 41
0.0
 42
0.0
 43
0.0
 44
0.0
 45
0.0
 46
0.0
 47
0.0
 48
0.0
 49
0.0
140
0.0
141
0.0
142
1.0
143
1.0
 70
   688
 72
     0
 73
     0
 74
     5
  7

 75
    16
147
1.0
 76
     0
 77
     2
 78
   300
148
0.0
149
0.0
100
AcDbLayout
  1
Layout1
 70
     0
 71
     1
 10
0.0
 20
0.0
 11
12.0
 21
9.0
 12
0.0
 22
0.0
 32
0.0
 14
1.000000000000000E+20
 24
1.000000000000000E+20
 34
1.000000000000000E+20
 15
-1.000000000000000E+20
 25
-1.000000000000000E+20
 35
-1.000000000000000E+20
146
0.0
 13
0.0
 23
0.0
 33
0.0
 16
1.0
 26
0.0
 36
0.0
 17
0.0
 27
1.0
 37
0.0
 76
     0
330
1A
  0
LAYOUT
  5
21
102
{ACAD_REACTORS
330
19
102
}
330
19
100
AcDbPlotSettings
  1

  2
\\NT_WORK01\HP LaserJet 5000 PCL 6
  4

  6

 40
0.0
 41
0.0
 42
0.0
 43
0.0
 44
0.0
 45
0.0
 46
0.0
 47
0.0
 48
0.0
 49
0.0
140
0.0
141
0.0
142
1.0
143
1.0
 70
  1712
 72
     0
 73
     0
 74
     0
  7

 75
     0
147
1.0
 76
     0
 77
     2
 78
   300
148
0.0
149
0.0
100
AcDbLayout
  1
Model
 70
     1
 71
     0
 10
0.0
 20
0.0
 11
12.0
 21
9.0
 12
0.0
 22
0.0
 32
0.0
 14
0.0
 24
0.0
 34
0.0
 15
0.0
 25
0.0
 35
0.0
146
0.0
 13
0.0
 23
0.0
 33
0.0
 16
1.0
 26
0.0
 36
0.0
 17
0.0
 27
1.0
 37
0.0
 76
     0
330
1E
  0
MLINESTYLE
  5
17
102
{ACAD_REACTORS
330
16
102
}
330
16
100
AcDbMlineStyle
  2
STANDARD
 70
     0
  3

 62
   256
 51
90.0
 52
90.0
 71
     2
 49
0.5
 62
   256
  6
BYLAYER
 49
-0.5
 62
   256
  6
BYLAYER
  0
ACDBPLACEHOLDER
  5
F
102
{ACAD_REACTORS
330
E
102
}
330
E
  0
DICTIONARYVAR
  5
EB
102
{ACAD_REACTORS
330
EA
102
}
330
EA
100
DictionaryVariables
280
     0
  1
1
  0
DICTIONARYVAR
  5
EC
102
{ACAD_REACTORS
330
EA
102
}
330
EA
100
DictionaryVariables
280
     0
  1

  0
ENDSEC
  0
EOF
