  0
SECTION
  2
HEADER
  9
$ACADVER
  1
AC1018
  9
$ACADMAINTVER
 70
     2
  9
$DWGCODEPAGE
  3
ANSI_1252
  9
$INSBASE
 10
0.0
 20
0.0
 30
0.0
  9
$EXTMIN
 10
-0.0181260584133725
 20
-0.0256328098773793
 30
-0.0015258207003583
  9
$EXTMAX
 10
594.0181288244414
 20
840.0256367214323
 30
0.0000000349246037
  9
$LIMMIN
 10
0.0
 20
0.0
  9
$LIMMAX
 10
594.0
 20
840.0
  9
$ORTHOMODE
 70
     1
  9
$REGENMODE
 70
     1
  9
$FILLMODE
 70
     1
  9
$QTEXTMODE
 70
     0
  9
$MIRRTEXT
 70
     1
  9
$LTSCALE
 40
20.0
  9
$ATTMODE
 70
     1
  9
$TEXTSIZE
 40
3.5
  9
$TRACEWID
 40
1.0
  9
$TEXTSTYLE
  7
STANDARD
  9
$CLAYER
  8
SCHRAFF
  9
$CELTYPE
  6
ByLayer
  9
$CECOLOR
 62
   256
  9
$CELTSCALE
 40
1.0
  9
$DISPSILH
 70
     0
  9
$DIMSCALE
 40
2.0
  9
$DIMASZ
 40
3.5
  9
$DIMEXO
 40
1.0
  9
$DIMDLI
 40
7.0
  9
$DIMRND
 40
0.0
  9
$DIMDLE
 40
0.0
  9
$DIMEXE
 40
1.0
  9
$DIMTP
 40
0.0
  9
$DIMTM
 40
0.0
  9
$DIMTXT
 40
3.5
  9
$DIMCEN
 40
1.5
  9
$DIMTSZ
 40
0.0
  9
$DIMTOL
 70
     0
  9
$DIMLIM
 70
     0
  9
$DIMTIH
 70
     0
  9
$DIMTOH
 70
     0
  9
$DIMSE1
 70
     0
  9
$DIMSE2
 70
     0
  9
$DIMTAD
 70
     1
  9
$DIMZIN
 70
     8
  9
$DIMBLK
  1

  9
$DIMASO
 70
     1
  9
$DIMSHO
 70
     0
  9
$DIMPOST
  1

  9
$DIMAPOST
  1

  9
$DIMALT
 70
     0
  9
$DIMALTD
 70
     2
  9
$DIMALTF
 40
25.4
  9
$DIMLFAC
 40
1.0
  9
$DIMTOFL
 70
     1
  9
$DIMTVP
 40
0.0
  9
$DIMTIX
 70
     0
  9
$DIMSOXD
 70
     0
  9
$DIMSAH
 70
     0
  9
$DIMBLK1
  1

  9
$DIMBLK2
  1

  9
$DIMSTYLE
  2
Standard
  9
$DIMCLRD
 70
     0
  9
$DIMCLRE
 70
     0
  9
$DIMCLRT
 70
     1
  9
$DIMTFAC
 40
0.5142857142857144
  9
$DIMGAP
 40
1.5
  9
$DIMJUST
 70
     0
  9
$DIMSD1
 70
     0
  9
$DIMSD2
 70
     0
  9
$DIMTOLJ
 70
     1
  9
$DIMTZIN
 70
     8
  9
$DIMALTZ
 70
     8
  9
$DIMALTTZ
 70
     8
  9
$DIMUPT
 70
     0
  9
$DIMDEC
 70
     2
  9
$DIMTDEC
 70
     2
  9
$DIMALTU
 70
     2
  9
$DIMALTTD
 70
     2
  9
$DIMTXSTY
  7
STANDARD
  9
$DIMAUNIT
 70
     0
  9
$DIMADEC
 70
     2
  9
$DIMALTRND
 40
0.0
  9
$DIMAZIN
 70
     2
  9
$DIMDSEP
 70
    46
  9
$DIMATFIT
 70
     3
  9
$DIMFRAC
 70
     0
  9
$DIMLDRBLK
  1

  9
$DIMLUNIT
 70
     2
  9
$DIMLWD
 70
    -2
  9
$DIMLWE
 70
    -2
  9
$DIMTMOVE
 70
     0
  9
$LUNITS
 70
     2
  9
$LUPREC
 70
     2
  9
$SKETCHINC
 40
1.0
  9
$FILLETRAD
 40
0.0
  9
$AUNITS
 70
     0
  9
$AUPREC
 70
     0
  9
$MENU
  1
ACAD
  9
$ELEVATION
 40
0.0
  9
$PELEVATION
 40
0.0
  9
$THICKNESS
 40
0.0
  9
$LIMCHECK
 70
     0
  9
$CHAMFERA
 40
0.0
  9
$CHAMFERB
 40
0.0
  9
$CHAMFERC
 40
0.0
  9
$CHAMFERD
 40
0.0
  9
$SKPOLY
 70
     0
  9
$TDCREATE
 40
2455397.867059838
  9
$TDUCREATE
 40
2455397.783726505
  9
$TDUPDATE
 40
2455810.441969942
  9
$TDUUPDATE
 40
2455810.358636609
  9
$TDINDWG
 40
0.1300824884
  9
$TDUSRTIMER
 40
0.1300824884
  9
$USRTIMER
 70
     1
  9
$ANGBASE
 50
0.0
  9
$ANGDIR
 70
     0
  9
$PDMODE
 70
     0
  9
$PDSIZE
 40
0.0
  9
$PLINEWID
 40
0.0
  9
$SPLFRAME
 70
     0
  9
$SPLINETYPE
 70
     6
  9
$SPLINESEGS
 70
     8
  9
$HANDSEED
  5
1135
  9
$SURFTAB1
 70
     6
  9
$SURFTAB2
 70
     6
  9
$SURFTYPE
 70
     6
  9
$SURFU
 70
     6
  9
$SURFV
 70
     6
  9
$UCSBASE
  2

  9
$UCSNAME
  2

  9
$UCSORG
 10
0.0
 20
0.0
 30
0.0
  9
$UCSXDIR
 10
1.0
 20
0.0
 30
0.0
  9
$UCSYDIR
 10
0.0
 20
1.0
 30
0.0
  9
$UCSORTHOREF
  2

  9
$UCSORTHOVIEW
 70
     0
  9
$UCSORGTOP
 10
0.0
 20
0.0
 30
0.0
  9
$UCSORGBOTTOM
 10
0.0
 20
0.0
 30
0.0
  9
$UCSORGLEFT
 10
0.0
 20
0.0
 30
0.0
  9
$UCSORGRIGHT
 10
0.0
 20
0.0
 30
0.0
  9
$UCSORGFRONT
 10
0.0
 20
0.0
 30
0.0
  9
$UCSORGBACK
 10
0.0
 20
0.0
 30
0.0
  9
$PUCSBASE
  2

  9
$PUCSNAME
  2

  9
$PUCSORG
 10
0.0
 20
0.0
 30
0.0
  9
$PUCSXDIR
 10
1.0
 20
0.0
 30
0.0
  9
$PUCSYDIR
 10
0.0
 20
1.0
 30
0.0
  9
$PUCSORTHOREF
  2

  9
$PUCSORTHOVIEW
 70
     0
  9
$PUCSORGTOP
 10
0.0
 20
0.0
 30
0.0
  9
$PUCSORGBOTTOM
 10
0.0
 20
0.0
 30
0.0
  9
$PUCSORGLEFT
 10
0.0
 20
0.0
 30
0.0
  9
$PUCSORGRIGHT
 10
0.0
 20
0.0
 30
0.0
  9
$PUCSORGFRONT
 10
0.0
 20
0.0
 30
0.0
  9
$PUCSORGBACK
 10
0.0
 20
0.0
 30
0.0
  9
$USERI1
 70
     0
  9
$USERI2
 70
     0
  9
$USERI3
 70
     0
  9
$USERI4
 70
     0
  9
$USERI5
 70
     0
  9
$USERR1
 40
0.0
  9
$USERR2
 40
0.0
  9
$USERR3
 40
0.0
  9
$USERR4
 40
0.0
  9
$USERR5
 40
0.0
  9
$WORLDVIEW
 70
     1
  9
$SHADEDGE
 70
     3
  9
$SHADEDIF
 70
    70
  9
$TILEMODE
 70
     1
  9
$MAXACTVP
 70
    16
  9
$PINSBASE
 10
0.0
 20
0.0
 30
0.0
  9
$PLIMCHECK
 70
     0
  9
$PEXTMIN
 10
1.000000000000000E+20
 20
1.000000000000000E+20
 30
1.000000000000000E+20
  9
$PEXTMAX
 10
-1.000000000000000E+20
 20
-1.000000000000000E+20
 30
-1.000000000000000E+20
  9
$PLIMMIN
 10
0.0
 20
0.0
  9
$PLIMMAX
 10
12.0
 20
9.0
  9
$UNITMODE
 70
     0
  9
$VISRETAIN
 70
     0
  9
$PLINEGEN
 70
     0
  9
$PSLTSCALE
 70
     0
  9
$TREEDEPTH
 70
  3020
  9
$CMLSTYLE
  2
Standard
  9
$CMLJUST
 70
     0
  9
$CMLSCALE
 40
1.0
  9
$PROXYGRAPHICS
 70
     1
  9
$MEASUREMENT
 70
     0
  9
$CELWEIGHT
370
    -1
  9
$ENDCAPS
280
     0
  9
$JOINSTYLE
280
     0
  9
$LWDISPLAY
290
     0
  9
$INSUNITS
 70
     0
  9
$HYPERLINKBASE
  1

  9
$STYLESHEET
  1
monochrome 1.ctb
  9
$XEDIT
290
     1
  9
$CEPSNTYPE
380
     0
  9
$PSTYLEMODE
290
     1
  9
$FINGERPRINTGUID
  2
{D68B0D0D-A558-11D7-B632-000102183313}
  9
$VERSIONGUID
  2
{507F3D7D-F9C7-42A3-9AFD-9BBEC0A5A1BB}
  9
$EXTNAMES
290
     1
  9
$PSVPSCALE
 40
0.0
  9
$OLESTARTUP
290
     0
  9
$SORTENTS
280
   127
  9
$INDEXCTL
280
     0
  9
$HIDETEXT
280
     0
  9
$XCLIPFRAME
290
     0
  9
$HALOGAP
280
     0
  9
$OBSCOLOR
 70
   257
  9
$OBSLTYPE
280
     0
  9
$INTERSECTIONDISPLAY
280
     0
  9
$INTERSECTIONCOLOR
 70
   257
  9
$DIMASSOC
280
     1
  9
$PROJECTNAME
  1

  0
ENDSEC
  0
SECTION
  2
CLASSES
  0
CLASS
  1
ACDBDICTIONARYWDFLT
  2
AcDbDictionaryWithDefault
  3
ObjectDBX Classes
 90
        0
 91
        1
280
     0
281
     0
  0
CLASS
  1
DICTIONARYVAR
  2
AcDbDictionaryVar
  3
ObjectDBX Classes
 90
        0
 91
        2
280
     0
281
     0
  0
ENDSEC
  0
SECTION
  2
TABLES
  0
TABLE
  2
VPORT
  5
8
330
0
100
AcDbSymbolTable
 70
     4
  0
VPORT
  5
1134
330
8
100
AcDbSymbolTableRecord
100
AcDbViewportTableRecord
  2
*Active
 70
     0
 10
0.0
 20
0.0
 11
1.0
 21
1.0
 12
297.0
 22
420.0
 13
0.0
 23
0.0
 14
1.0
 24
1.0
 15
10.0
 25
10.0
 16
0.0
 26
0.0
 36
1.0
 17
0.0
 27
0.0
 37
0.0
 40
840.0
 41
1.339622641509433
 42
50.0
 43
0.0
 44
0.0
 50
0.0
 51
0.0
 71
     0
 72
  1500
 73
     1
 74
     0
 75
     0
 76
     0
 77
     0
 78
     0
281
     0
 65
     1
110
0.0
120
0.0
130
0.0
111
1.0
121
0.0
131
0.0
112
0.0
122
1.0
132
0.0
 79
     0
146
0.0
  0
ENDTAB
  0
TABLE
  2
LTYPE
  5
5
330
0
100
AcDbSymbolTable
 70
     2
  0
LTYPE
  5
13
330
5
100
AcDbSymbolTableRecord
100
AcDbLinetypeTableRecord
  2
ByBlock
 70
     0
  3

 72
    65
 73
     0
 40
0.0
  0
LTYPE
  5
14
330
5
100
AcDbSymbolTableRecord
100
AcDbLinetypeTableRecord
  2
ByLayer
 70
     0
  3

 72
    65
 73
     0
 40
0.0
  0
LTYPE
  5
15
330
5
100
AcDbSymbolTableRecord
100
AcDbLinetypeTableRecord
  2
Continuous
 70
     0
  3
Solid line
 72
    65
 73
     0
 40
0.0
  0
LTYPE
  5
25
330
5
100
AcDbSymbolTableRecord
100
AcDbLinetypeTableRecord
  2
STRICHPUNKT
 70
     0
  3
__ . __ . __ . __ . __ . __ . __ . __ . __ . __
 72
    65
 73
     4
 40
1.0
 49
0.5
 74
     0
 49
-0.25
 74
     0
 49
0.0
 74
     0
 49
-0.25
 74
     0
  0
ENDTAB
  0
TABLE
  2
LAYER
  5
2
330
0
100
AcDbSymbolTable
 70
     9
  0
LAYER
  5
10
330
2
100
AcDbSymbolTableRecord
100
AcDbLayerTableRecord
  2
0
 70
     0
 62
     7
  6
Continuous
370
    -3
390
F
  0
LAYER
  5
2B
330
2
100
AcDbSymbolTableRecord
100
AcDbLayerTableRecord
  2
VOLL
 70
     0
 62
     1
  6
Continuous
370
    -3
390
F
  0
LAYER
  5
2C
330
2
100
AcDbSymbolTableRecord
100
AcDbLayerTableRecord
  2
HILF
 70
     0
 62
     2
  6
Continuous
370
    -3
390
F
  0
LAYER
  5
2D
330
2
100
AcDbSymbolTableRecord
100
AcDbLayerTableRecord
  2
MITTEL
 70
     0
 62
     2
  6
STRICHPUNKT
370
    -3
390
F
  0
LAYER
  5
2F
330
2
100
AcDbSymbolTableRecord
100
AcDbLayerTableRecord
  2
BEM
 70
     0
 62
     7
  6
Continuous
370
    -3
390
F
  0
LAYER
  5
30
330
2
100
AcDbSymbolTableRecord
100
AcDbLayerTableRecord
  2
STEMPEL
 70
     0
 62
     3
  6
Continuous
370
    -3
390
F
  0
LAYER
  5
2B8
330
2
100
AcDbSymbolTableRecord
100
AcDbLayerTableRecord
  2
Defpoints
 70
     0
 62
     7
  6
Continuous
290
     0
370
    -3
390
F
  0
LAYER
  5
2B9
330
2
100
AcDbSymbolTableRecord
100
AcDbLayerTableRecord
  2
SCHRAFF
 70
     0
 62
     7
  6
Continuous
370
    -3
390
F
  0
LAYER
  5
B8A
330
2
100
AcDbSymbolTableRecord
100
AcDbLayerTableRecord
  2
TEXT
 70
     0
 62
     7
  6
Continuous
370
    -3
390
F
  0
ENDTAB
  0
TABLE
  2
STYLE
  5
3
330
0
100
AcDbSymbolTable
 70
     2
  0
STYLE
  5
11
330
3
100
AcDbSymbolTableRecord
100
AcDbTextStyleTableRecord
  2
STANDARD
 70
     0
 40
0.0
 41
0.8
 50
0.0
 71
     0
 42
3.5
  3
simplex.shx
  4

  0
STYLE
  5
B8B
330
3
100
AcDbSymbolTableRecord
100
AcDbTextStyleTableRecord
  2
GREEKS
 70
     0
 40
0.0
 41
0.8
 50
0.0
 71
     0
 42
2.5
  3
SIMPLEX.shx
  4

  0
ENDTAB
  0
TABLE
  2
VIEW
  5
6
330
0
100
AcDbSymbolTable
 70
     0
  0
ENDTAB
  0
TABLE
  2
UCS
  5
7
330
0
100
AcDbSymbolTable
 70
     0
  0
ENDTAB
  0
TABLE
  2
APPID
  5
9
330
0
100
AcDbSymbolTable
 70
     1
  0
APPID
  5
12
330
9
100
AcDbSymbolTableRecord
100
AcDbRegAppTableRecord
  2
ACAD
 70
     0
  0
ENDTAB
  0
TABLE
  2
DIMSTYLE
  5
A
330
0
100
AcDbSymbolTable
 70
     1
100
AcDbDimStyleTable
 71
     1
340
A2
  0
DIMSTYLE
105
A2
102
{ACAD_REACTORS
330
E4E
330
E59
330
E5A
330
D6A
330
DA0
330
D32
330
10C0
330
D33
102
}
330
A
100
AcDbSymbolTableRecord
100
AcDbDimStyleTableRecord
  2
Standard
 70
     0
340
11
  0
ENDTAB
  0
TABLE
  2
BLOCK_RECORD
  5
1
330
0
100
AcDbSymbolTable
 70
    10
  0
BLOCK_RECORD
  5
1E
102
{ACAD_XDICTIONARY
360
DB
102
}
330
1
100
AcDbSymbolTableRecord
100
AcDbBlockTableRecord
  2
*Model_Space
340
21
  0
BLOCK_RECORD
  5
1A
102
{ACAD_XDICTIONARY
360
DD
102
}
330
1
100
AcDbSymbolTableRecord
100
AcDbBlockTableRecord
  2
*Paper_Space
340
1D
  0
BLOCK_RECORD
  5
22
330
1
100
AcDbSymbolTableRecord
100
AcDbBlockTableRecord
  2
LOGO
340
0
102
{BLKREFS
331
B33
102
}
  0
BLOCK_RECORD
  5
B31
330
1
100
AcDbSymbolTableRecord
100
AcDbBlockTableRecord
  2
LORO
340
0
102
{BLKREFS
331
E9A
102
}
  0
BLOCK_RECORD
  5
EAA
330
1
100
AcDbSymbolTableRecord
100
AcDbBlockTableRecord
  2
*D2
340
0
  0
BLOCK_RECORD
  5
EB6
330
1
100
AcDbSymbolTableRecord
100
AcDbBlockTableRecord
  2
*D3
340
0
  0
BLOCK_RECORD
  5
EC3
330
1
100
AcDbSymbolTableRecord
100
AcDbBlockTableRecord
  2
*D4
340
0
  0
BLOCK_RECORD
  5
ECF
330
1
100
AcDbSymbolTableRecord
100
AcDbBlockTableRecord
  2
*D5
340
0
  0
BLOCK_RECORD
  5
EDC
330
1
100
AcDbSymbolTableRecord
100
AcDbBlockTableRecord
  2
*D6
340
0
  0
BLOCK_RECORD
  5
EE9
330
1
100
AcDbSymbolTableRecord
100
AcDbBlockTableRecord
  2
*D7
340
0
  0
BLOCK_RECORD
  5
EF5
330
1
100
AcDbSymbolTableRecord
100
AcDbBlockTableRecord
  2
*D8
340
0
  0
BLOCK_RECORD
  5
10C1
330
1
100
AcDbSymbolTableRecord
100
AcDbBlockTableRecord
  2
*D9
340
0
  0
ENDTAB
  0
ENDSEC
  0
SECTION
  2
BLOCKS
  0
BLOCK
  5
37
330
1E
100
AcDbEntity
  8
0
100
AcDbBlockBegin
  2
*Model_Space
 70
     0
 10
0.0
 20
0.0
 30
0.0
  3
*Model_Space
  1

  0
ENDBLK
  5
38
330
1E
100
AcDbEntity
  8
0
100
AcDbBlockEnd
  0
BLOCK
  5
35
330
1A
100
AcDbEntity
 67
     1
  8
0
100
AcDbBlockBegin
  2
*Paper_Space
 70
     0
 10
0.0
 20
0.0
 30
0.0
  3
*Paper_Space
  1

  0
ENDBLK
  5
36
330
1A
100
AcDbEntity
 67
     1
  8
0
100
AcDbBlockEnd
  0
BLOCK
  5
39
330
22
100
AcDbEntity
  8
0
100
AcDbBlockBegin
  2
LOGO
 70
     0
 10
0.0
 20
0.0
 30
0.0
  3
LOGO
  1

  0
ARC
  5
3A
330
22
100
AcDbEntity
  8
0
100
AcDbCircle
 10
11.59973089678112
 20
-9.271599258481501
 30
0.0
 40
4.5
100
AcDbArc
 50
270.0
 51
231.0575587310159
  0
LINE
  5
3B
330
22
100
AcDbEntity
  8
0
100
AcDbLine
 10
3.599730896781125
 20
-4.771599258481529
 30
0.0
 11
3.599730896781153
 21
-11.77159925848133
 31
0.0
  0
LINE
  5
3C
330
22
100
AcDbEntity
  8
0
100
AcDbLine
 10
2.599730896781125
 20
-4.771599258481529
 30
0.0
 11
2.599730896781153
 21
-11.77159925848133
 31
0.0
  0
CIRCLE
  5
3D
330
22
100
AcDbEntity
  8
0
100
AcDbCircle
 10
11.59973089678112
 20
-9.271599258481501
 30
0.0
 40
3.5
  0
ARC
  5
3E
330
22
100
AcDbEntity
  8
0
100
AcDbCircle
 10
31.59973089678115
 20
-9.271599258481472
 30
0.0
 40
4.5
100
AcDbArc
 50
270.0
 51
231.0575587310182
  0
LINE
  5
3F
330
22
100
AcDbEntity
  8
0
100
AcDbLine
 10
17.59973089678112
 20
-4.771599258481472
 30
0.0
 11
17.59973089678115
 21
-13.77159925848147
 31
0.0
  0
ARC
  5
40
330
22
100
AcDbEntity
  8
0
100
AcDbCircle
 10
22.59973089678116
 20
-7.271599258481472
 30
0.0
 40
2.5
100
AcDbArc
 50
293.1161887722295
 51
90.0
  0
CIRCLE
  5
41
330
22
100
AcDbEntity
  8
0
100
AcDbCircle
 10
31.59973089678115
 20
-9.271599258481472
 30
0.0
 40
3.5
  0
ARC
  5
42
330
22
100
AcDbEntity
  8
0
100
AcDbCircle
 10
4.599730896781153
 20
-11.77159925848133
 30
0.0
 40
1.0
100
AcDbArc
 50
180.0
 51
270.0
  0
ARC
  5
43
330
22
100
AcDbEntity
  8
0
100
AcDbCircle
 10
4.599730896781153
 20
-11.77159925848133
 30
0.0
 40
2.0
100
AcDbArc
 50
179.9999999999992
 51
270.0
  0
LINE
  5
44
330
22
100
AcDbEntity
  8
0
100
AcDbLine
 10
11.59973089678115
 20
-13.77159925848144
 30
0.0
 11
4.599730896781153
 21
-13.77159925848147
 31
0.0
  0
LINE
  5
45
330
22
100
AcDbEntity
  8
0
100
AcDbLine
 10
8.771303772034769
 20
-12.77159925848136
 30
0.0
 11
4.599730896781153
 21
-12.77159925848133
 31
0.0
  0
LINE
  5
46
330
22
100
AcDbEntity
  8
0
100
AcDbLine
 10
31.59973089678115
 20
-13.77159925848147
 30
0.0
 11
23.6715276665056
 21
-13.77159925848144
 31
0.0
  0
LINE
  5
47
330
22
100
AcDbEntity
  8
0
100
AcDbLine
 10
23.56565672307022
 20
-9.51278021337896
 30
0.0
 11
24.4388546544846
 21
-12.77159925848144
 31
0.0
  0
LINE
  5
48
330
22
100
AcDbEntity
  8
0
100
AcDbLine
 10
22.59973089678116
 20
-9.771599258481472
 30
0.0
 11
18.59973089678112
 21
-9.771599258481472
 31
0.0
  0
LINE
  5
49
330
22
100
AcDbEntity
  8
0
100
AcDbLine
 10
18.59973089678115
 20
-13.77159925848144
 30
0.0
 11
17.59973089678115
 21
-13.77159925848144
 31
0.0
  0
LINE
  5
4A
330
22
100
AcDbEntity
  8
0
100
AcDbLine
 10
18.59973089678115
 20
-9.771599258481472
 30
0.0
 11
18.59973089678115
 21
-13.77159925848144
 31
0.0
  0
LINE
  5
4B
330
22
100
AcDbEntity
  8
0
100
AcDbLine
 10
22.59973089678116
 20
-9.771599258481472
 30
0.0
 11
23.67152766650562
 21
-13.77159925848147
 31
0.0
  0
ARC
  5
4C
330
22
100
AcDbEntity
  8
0
100
AcDbCircle
 10
22.59973089678116
 20
-7.271599258481472
 30
0.0
 40
2.5
100
AcDbArc
 50
270.0
 51
270.0000000000007
  0
LINE
  5
4D
330
22
100
AcDbEntity
  8
0
100
AcDbLine
 10
28.77130377203494
 20
-12.77159925848147
 30
0.0
 11
24.43885465448463
 21
-12.77159925848144
 31
0.0
  0
LINE
  5
4E
330
22
100
AcDbEntity
  8
0
100
AcDbLine
 10
3.599730896781125
 20
-4.771599258481472
 30
0.0
 11
2.599730896781125
 21
-4.771599258481472
 31
0.0
  0
LINE
  5
4F
330
22
100
AcDbEntity
  8
0
100
AcDbLine
 10
22.59973089678116
 20
-8.771599258481472
 30
0.0
 11
18.59973089678115
 21
-8.771599258481472
 31
0.0
  0
LINE
  5
50
330
22
100
AcDbEntity
  8
0
100
AcDbLine
 10
22.59973089678116
 20
-5.771599258481472
 30
0.0
 11
18.59973089678115
 21
-5.771599258481472
 31
0.0
  0
LINE
  5
51
330
22
100
AcDbEntity
  8
0
100
AcDbLine
 10
22.59973089678116
 20
-4.771599258481472
 30
0.0
 11
17.59973089678115
 21
-4.771599258481472
 31
0.0
  0
LINE
  5
52
330
22
100
AcDbEntity
  8
0
100
AcDbLine
 10
18.59973089678115
 20
-5.771599258481472
 30
0.0
 11
18.59973089678115
 21
-8.771599258481472
 31
0.0
  0
ARC
  5
53
330
22
100
AcDbEntity
  8
0
100
AcDbCircle
 10
22.59973089678116
 20
-7.271599258481472
 30
0.0
 40
1.5
100
AcDbArc
 50
270.0
 51
90.0
  0
ENDBLK
  5
54
330
22
100
AcDbEntity
  8
0
100
AcDbBlockEnd
  0
BLOCK
  5
B32
330
B31
100
AcDbEntity
  8
0
100
AcDbBlockBegin
  2
LORO
 70
     0
 10
0.0
 20
0.0
 30
0.0
  3
LORO
  1

  0
INSERT
  5
B33
330
B31
100
AcDbEntity
  8
STEMPEL
100
AcDbBlockReference
  2
LOGO
 10
-1.748032802467321
 20
3.771489518552062
 30
0.0
  0
ENDBLK
  5
B34
330
B31
100
AcDbEntity
  8
0
100
AcDbBlockEnd
  0
BLOCK
  5
EB4
330
EAA
100
AcDbEntity
  8
0
100
AcDbBlockBegin
  2
*D2
 70
     1
 10
0.0
 20
0.0
 30
0.0
  3
*D2
  1

  0
LINE
  5
FE8
330
EAA
100
AcDbEntity
  8
BEM
 62
     0
370
    -2
100
AcDbLine
 10
111.5571404833181
 20
362.0725771920487
 30
0.0
 11
111.5571404833181
 21
328.649342014784
 31
0.0
  0
LINE
  5
FE9
330
EAA
100
AcDbEntity
  8
BEM
 62
     0
370
    -2
100
AcDbLine
 10
335.5571404833181
 20
362.0725771920487
 30
0.0
 11
335.5571404833181
 21
328.649342014784
 31
0.0
  0
LINE
  5
FEA
330
EAA
100
AcDbEntity
  8
BEM
 62
     0
370
    -2
100
AcDbLine
 10
118.5571404833181
 20
330.649342014784
 30
0.0
 11
328.5571404833181
 21
330.649342014784
 31
0.0
  0
SOLID
  5
FEB
330
EAA
100
AcDbEntity
  8
BEM
 62
     0
100
AcDbTrace
 10
118.5571404833181
 20
331.8160086814507
 30
0.0
 11
118.5571404833181
 21
329.4826753481173
 31
0.0
 12
111.5571404833181
 22
330.649342014784
 32
0.0
 13
111.5571404833181
 23
330.649342014784
 33
0.0
  0
SOLID
  5
FEC
330
EAA
100
AcDbEntity
  8
BEM
 62
     0
100
AcDbTrace
 10
328.5571404833181
 20
331.8160086814507
 30
0.0
 11
328.5571404833181
 21
329.4826753481173
 31
0.0
 12
335.5571404833181
 22
330.649342014784
 32
0.0
 13
335.5571404833181
 23
330.649342014784
 33
0.0
  0
MTEXT
  5
FED
330
EAA
100
AcDbEntity
  8
BEM
 62
     1
100
AcDbMText
 10
223.5571404833181
 20
337.149342014784
 30
0.0
 40
7.0
 41
0.0
 71
     5
 72
     1
  1
\A1;%%c224
  7
GREEKS
 73
     1
 44
1.0
  0
POINT
  5
FEE
330
EAA
100
AcDbEntity
  8
Defpoints
 62
     0
100
AcDbPoint
 10
111.5571404833181
 20
364.0725771920487
 30
0.0
  0
POINT
  5
FEF
330
EAA
100
AcDbEntity
  8
Defpoints
 62
     0
100
AcDbPoint
 10
335.5571404833181
 20
364.0725771920487
 30
0.0
  0
POINT
  5
FF0
330
EAA
100
AcDbEntity
  8
Defpoints
 62
     0
100
AcDbPoint
 10
335.5571404833181
 20
330.649342014784
 30
0.0
  0
ENDBLK
  5
EB5
330
EAA
100
AcDbEntity
  8
0
100
AcDbBlockEnd
  0
BLOCK
  5
EC1
330
EB6
100
AcDbEntity
  8
0
100
AcDbBlockBegin
  2
*D3
 70
     1
 10
0.0
 20
0.0
 30
0.0
  3
*D3
  1

  0
LINE
  5
FDE
330
EB6
100
AcDbEntity
  8
BEM
 62
     0
370
    -2
100
AcDbLine
 10
280.6784608268777
 20
382.6938975356071
 30
0.0
 11
399.5875037944287
 21
382.6938975356071
 31
0.0
  0
LINE
  5
FDF
330
EB6
100
AcDbEntity
  8
BEM
 62
     0
370
    -2
100
AcDbLine
 10
370.5571404833181
 20
361.0725771920485
 30
0.0
 11
399.5875037944287
 21
361.0725771920484
 31
0.0
  0
LINE
  5
FE0
330
EB6
100
AcDbEntity
  8
BEM
 62
     0
370
    -2
100
AcDbLine
 10
397.5875037944287
 20
368.0725771920484
 30
0.0
 11
397.5875037944287
 21
375.693897535607
 31
0.0
  0
LINE
  5
FE1
330
EB6
100
AcDbEntity
  8
BEM
 62
     0
370
    -2
100
AcDbLine
 10
397.5875037944287
 20
382.6938975356071
 30
0.0
 11
397.5875037944288
 21
413.5932622381134
 31
0.0
  0
SOLID
  5
FE2
330
EB6
100
AcDbEntity
  8
BEM
 62
     0
100
AcDbTrace
 10
396.4208371277621
 20
368.0725771920484
 30
0.0
 11
398.7541704610955
 21
368.0725771920484
 31
0.0
 12
397.5875037944287
 22
361.0725771920484
 32
0.0
 13
397.5875037944287
 23
361.0725771920484
 33
0.0
  0
SOLID
  5
FE3
330
EB6
100
AcDbEntity
  8
BEM
 62
     0
100
AcDbTrace
 10
396.4208371277621
 20
375.693897535607
 30
0.0
 11
398.7541704610955
 21
375.693897535607
 31
0.0
 12
397.5875037944287
 22
382.6938975356071
 32
0.0
 13
397.5875037944287
 23
382.6938975356071
 33
0.0
  0
MTEXT
  5
FE4
330
EB6
100
AcDbEntity
  8
BEM
 62
     1
100
AcDbMText
 10
391.0875037944287
 20
402.5932622381135
 30
0.0
 40
7.0
 41
0.0
 71
     5
 72
     1
  1
\A1;21.5
  7
GREEKS
 11
0.0000000000000001
 21
1.0
 31
0.0
 73
     1
 44
1.0
  0
POINT
  5
FE5
330
EB6
100
AcDbEntity
  8
Defpoints
 62
     0
100
AcDbPoint
 10
278.6784608268778
 20
382.6938975356071
 30
0.0
  0
POINT
  5
FE6
330
EB6
100
AcDbEntity
  8
Defpoints
 62
     0
100
AcDbPoint
 10
368.5571404833181
 20
361.0725771920485
 30
0.0
  0
POINT
  5
FE7
330
EB6
100
AcDbEntity
  8
Defpoints
 62
     0
100
AcDbPoint
 10
397.5875037944287
 20
361.0725771920484
 30
0.0
  0
ENDBLK
  5
EC2
330
EB6
100
AcDbEntity
  8
0
100
AcDbBlockEnd
  0
BLOCK
  5
ECD
330
EC3
100
AcDbEntity
  8
0
100
AcDbBlockBegin
  2
*D4
 70
     1
 10
0.0
 20
0.0
 30
0.0
  3
*D4
  1

  0
LINE
  5
FD5
330
EC3
100
AcDbEntity
  8
BEM
 62
     0
370
    -2
100
AcDbLine
 10
78.55714048331811
 20
359.0725771920494
 30
0.0
 11
78.55714048331811
 21
312.649342014784
 31
0.0
  0
LINE
  5
FD6
330
EC3
100
AcDbEntity
  8
BEM
 62
     0
370
    -2
100
AcDbLine
 10
368.5571404833181
 20
359.0725771920485
 30
0.0
 11
368.5571404833181
 21
312.649342014784
 31
0.0
  0
LINE
  5
FD7
330
EC3
100
AcDbEntity
  8
BEM
 62
     0
370
    -2
100
AcDbLine
 10
85.55714048331811
 20
314.649342014784
 30
0.0
 11
361.5571404833181
 21
314.649342014784
 31
0.0
  0
SOLID
  5
FD8
330
EC3
100
AcDbEntity
  8
BEM
 62
     0
100
AcDbTrace
 10
85.55714048331811
 20
315.8160086814507
 30
0.0
 11
85.55714048331811
 21
313.4826753481173
 31
0.0
 12
78.55714048331811
 22
314.649342014784
 32
0.0
 13
78.55714048331811
 23
314.649342014784
 33
0.0
  0
SOLID
  5
FD9
330
EC3
100
AcDbEntity
  8
BEM
 62
     0
100
AcDbTrace
 10
361.5571404833181
 20
315.8160086814507
 30
0.0
 11
361.5571404833181
 21
313.4826753481173
 31
0.0
 12
368.5571404833181
 22
314.649342014784
 32
0.0
 13
368.5571404833181
 23
314.649342014784
 33
0.0
  0
MTEXT
  5
FDA
330
EC3
100
AcDbEntity
  8
BEM
 62
     1
100
AcDbMText
 10
223.5571404833181
 20
321.149342014784
 30
0.0
 40
7.0
 41
0.0
 71
     5
 72
     1
  1
\A1;%%c290
  7
GREEKS
 73
     1
 44
1.0
  0
POINT
  5
FDB
330
EC3
100
AcDbEntity
  8
Defpoints
 62
     0
100
AcDbPoint
 10
78.55714048331811
 20
361.0725771920494
 30
0.0
  0
POINT
  5
FDC
330
EC3
100
AcDbEntity
  8
Defpoints
 62
     0
100
AcDbPoint
 10
368.5571404833181
 20
361.0725771920485
 30
0.0
  0
POINT
  5
FDD
330
EC3
100
AcDbEntity
  8
Defpoints
 62
     0
100
AcDbPoint
 10
368.5571404833181
 20
314.649342014784
 30
0.0
  0
ENDBLK
  5
ECE
330
EC3
100
AcDbEntity
  8
0
100
AcDbBlockEnd
  0
BLOCK
  5
EDA
330
ECF
100
AcDbEntity
  8
0
100
AcDbBlockBegin
  2
*D5
 70
     1
 10
0.0
 20
0.0
 30
0.0
  3
*D5
  1

  0
LINE
  5
F4D
330
ECF
100
AcDbEntity
  8
BEM
 62
     0
370
    -2
100
AcDbLine
 10
170.757140483318
 20
233.0915554391463
 30
0.0
 11
136.5122120990045
 21
233.0915554391463
 31
0.0
  0
LINE
  5
F4E
330
ECF
100
AcDbEntity
  8
BEM
 62
     0
370
    -2
100
AcDbLine
 10
185.4884720608774
 20
188.091555439146
 30
0.0
 11
136.5122120990045
 21
188.091555439146
 31
0.0
  0
LINE
  5
F4F
330
ECF
100
AcDbEntity
  8
BEM
 62
     0
370
    -2
100
AcDbLine
 10
138.5122120990045
 20
226.0915554391463
 30
0.0
 11
138.5122120990045
 21
195.0915554391461
 31
0.0
  0
SOLID
  5
F50
330
ECF
100
AcDbEntity
  8
BEM
 62
     0
100
AcDbTrace
 10
137.3455454323379
 20
226.0915554391463
 30
0.0
 11
139.6788787656712
 21
226.0915554391463
 31
0.0
 12
138.5122120990045
 22
233.0915554391463
 32
0.0
 13
138.5122120990045
 23
233.0915554391463
 33
0.0
  0
SOLID
  5
F51
330
ECF
100
AcDbEntity
  8
BEM
 62
     0
100
AcDbTrace
 10
137.3455454323379
 20
195.0915554391461
 30
0.0
 11
139.6788787656712
 21
195.0915554391461
 31
0.0
 12
138.5122120990045
 22
188.091555439146
 32
0.0
 13
138.5122120990045
 23
188.091555439146
 33
0.0
  0
MTEXT
  5
F52
330
ECF
100
AcDbEntity
  8
BEM
 62
     1
100
AcDbMText
 10
132.0122120990044
 20
210.5915554391462
 30
0.0
 40
7.0
 41
0.0
 71
     5
 72
     1
  1
\A1;45
 11
0.0000000000000001
 21
1.0
 31
0.0
 73
     1
 44
1.0
  0
POINT
  5
F53
330
ECF
100
AcDbEntity
  8
Defpoints
 62
     0
100
AcDbPoint
 10
172.757140483318
 20
233.0915554391463
 30
0.0
  0
POINT
  5
F54
330
ECF
100
AcDbEntity
  8
Defpoints
 62
     0
100
AcDbPoint
 10
187.4884720608775
 20
188.091555439146
 30
0.0
  0
POINT
  5
F55
330
ECF
100
AcDbEntity
  8
Defpoints
 62
     0
100
AcDbPoint
 10
138.5122120990045
 20
188.091555439146
 30
0.0
  0
ENDBLK
  5
EDB
330
ECF
100
AcDbEntity
  8
0
100
AcDbBlockEnd
  0
BLOCK
  5
EE7
330
EDC
100
AcDbEntity
  8
0
100
AcDbBlockBegin
  2
*D6
 70
     1
 10
0.0
 20
0.0
 30
0.0
  3
*D6
  1

  0
LINE
  5
1119
330
EDC
100
AcDbEntity
  8
BEM
 62
     0
370
    -2
100
AcDbLine
 10
172.757140483318
 20
229.0915554391463
 30
0.0
 11
172.757140483318
 21
153.2568169953419
 31
0.0
  0
LINE
  5
111A
330
EDC
100
AcDbEntity
  8
BEM
 62
     0
370
    -2
100
AcDbLine
 10
274.357140483318
 20
229.0915554391458
 30
0.0
 11
274.357140483318
 21
153.2568169953419
 31
0.0
  0
LINE
  5
111B
330
EDC
100
AcDbEntity
  8
BEM
 62
     0
370
    -2
100
AcDbLine
 10
179.757140483318
 20
155.2568169953419
 30
0.0
 11
267.3571404833181
 21
155.2568169953419
 31
0.0
  0
SOLID
  5
111C
330
EDC
100
AcDbEntity
  8
BEM
 62
     0
100
AcDbTrace
 10
179.757140483318
 20
156.4234836620086
 30
0.0
 11
179.757140483318
 21
154.0901503286753
 31
0.0
 12
172.757140483318
 22
155.2568169953419
 32
0.0
 13
172.757140483318
 23
155.2568169953419
 33
0.0
  0
SOLID
  5
111D
330
EDC
100
AcDbEntity
  8
BEM
 62
     0
100
AcDbTrace
 10
267.3571404833181
 20
156.4234836620086
 30
0.0
 11
267.3571404833181
 21
154.0901503286753
 31
0.0
 12
274.357140483318
 22
155.2568169953419
 32
0.0
 13
274.357140483318
 23
155.2568169953419
 33
0.0
  0
MTEXT
  5
111E
330
EDC
100
AcDbEntity
  8
BEM
 62
     1
100
AcDbMText
 10
223.557140483318
 20
161.756816995342
 30
0.0
 40
7.0
 41
0.0
 71
     5
 72
     1
  1
\A1;%%c101.6
 73
     1
 44
1.0
  0
POINT
  5
111F
330
EDC
100
AcDbEntity
  8
Defpoints
 62
     0
100
AcDbPoint
 10
172.757140483318
 20
231.0915554391463
 30
0.0
  0
POINT
  5
1120
330
EDC
100
AcDbEntity
  8
Defpoints
 62
     0
100
AcDbPoint
 10
274.357140483318
 20
231.0915554391459
 30
0.0
  0
POINT
  5
1121
330
EDC
100
AcDbEntity
  8
Defpoints
 62
     0
100
AcDbPoint
 10
274.357140483318
 20
155.2568169953419
 30
0.0
  0
ENDBLK
  5
EE8
330
EDC
100
AcDbEntity
  8
0
100
AcDbBlockEnd
  0
BLOCK
  5
EF3
330
EE9
100
AcDbEntity
  8
0
100
AcDbBlockBegin
  2
*D7
 70
     1
 10
0.0
 20
0.0
 30
0.0
  3
*D7
  1

  0
LINE
  5
10B7
330
EE9
100
AcDbEntity
  8
BEM
 62
     0
370
    -2
100
AcDbLine
 10
171.5571404833181
 20
753.2236449017841
 30
0.0
 11
42.20716964905079
 21
753.2236449017841
 31
0.0
  0
LINE
  5
10B8
330
EE9
100
AcDbEntity
  8
BEM
 62
     0
370
    -2
100
AcDbLine
 10
170.757140483318
 20
233.0915554391463
 30
0.0
 11
42.20716964905068
 21
233.0915554391463
 31
0.0
  0
LINE
  5
10B9
330
EE9
100
AcDbEntity
  8
BEM
 62
     0
370
    -2
100
AcDbLine
 10
44.20716964905079
 20
746.2236449017841
 30
0.0
 11
44.20716964905069
 21
240.0915554391463
 31
0.0
  0
SOLID
  5
10BA
330
EE9
100
AcDbEntity
  8
BEM
 62
     0
100
AcDbTrace
 10
43.04050298238413
 20
746.2236449017841
 30
0.0
 11
45.37383631571746
 21
746.2236449017841
 31
0.0
 12
44.2071696490508
 22
753.2236449017841
 32
0.0
 13
44.2071696490508
 23
753.2236449017841
 33
0.0
  0
SOLID
  5
10BB
330
EE9
100
AcDbEntity
  8
BEM
 62
     0
100
AcDbTrace
 10
43.04050298238403
 20
240.0915554391463
 30
0.0
 11
45.37383631571735
 21
240.0915554391463
 31
0.0
 12
44.20716964905068
 22
233.0915554391463
 32
0.0
 13
44.20716964905068
 23
233.0915554391463
 33
0.0
  0
MTEXT
  5
10BC
330
EE9
100
AcDbEntity
  8
BEM
 62
     1
100
AcDbMText
 10
37.70716964905066
 20
493.1576001704652
 30
0.0
 40
7.0
 41
0.0
 71
     5
 72
     1
  1
\A1;760
  7
GREEKS
 11
0.0000000000000001
 21
1.0
 31
0.0
 73
     1
 44
1.0
  0
POINT
  5
10BD
330
EE9
100
AcDbEntity
  8
Defpoints
 62
     0
100
AcDbPoint
 10
173.5571404833181
 20
753.2236449017841
 30
0.0
  0
POINT
  5
10BE
330
EE9
100
AcDbEntity
  8
Defpoints
 62
     0
100
AcDbPoint
 10
172.757140483318
 20
233.0915554391463
 30
0.0
  0
POINT
  5
10BF
330
EE9
100
AcDbEntity
  8
Defpoints
 62
     0
100
AcDbPoint
 10
44.20716964905068
 20
233.0915554391463
 30
0.0
  0
ENDBLK
  5
EF4
330
EE9
100
AcDbEntity
  8
0
100
AcDbBlockEnd
  0
BLOCK
  5
EFF
330
EF5
100
AcDbEntity
  8
0
100
AcDbBlockBegin
  2
*D8
 70
     1
 10
0.0
 20
0.0
 30
0.0
  3
*D8
  1

  0
LINE
  5
F3A
330
EF5
100
AcDbEntity
  8
BEM
 62
     0
370
    -2
100
AcDbLine
 10
187.0571404833181
 20
191.0216979304837
 30
0.0
 11
187.0571404833181
 21
165.8379627677029
 31
0.0
  0
LINE
  5
F3B
330
EF5
100
AcDbEntity
  8
BEM
 62
     0
370
    -2
100
AcDbLine
 10
260.0571404833181
 20
191.0216979304843
 30
0.0
 11
260.0571404833181
 21
165.8379627677029
 31
0.0
  0
LINE
  5
F3C
330
EF5
100
AcDbEntity
  8
BEM
 62
     0
370
    -2
100
AcDbLine
 10
194.0571404833181
 20
167.8379627677029
 30
0.0
 11
253.0571404833181
 21
167.8379627677029
 31
0.0
  0
SOLID
  5
F3D
330
EF5
100
AcDbEntity
  8
BEM
 62
     0
100
AcDbTrace
 10
194.0571404833181
 20
169.0046294343696
 30
0.0
 11
194.0571404833181
 21
166.6712961010363
 31
0.0
 12
187.0571404833181
 22
167.8379627677029
 32
0.0
 13
187.0571404833181
 23
167.8379627677029
 33
0.0
  0
SOLID
  5
F3E
330
EF5
100
AcDbEntity
  8
BEM
 62
     0
100
AcDbTrace
 10
253.0571404833181
 20
169.0046294343696
 30
0.0
 11
253.0571404833181
 21
166.6712961010363
 31
0.0
 12
260.0571404833181
 22
167.8379627677029
 32
0.0
 13
260.0571404833181
 23
167.8379627677029
 33
0.0
  0
MTEXT
  5
F3F
330
EF5
100
AcDbEntity
  8
BEM
 62
     1
100
AcDbMText
 10
223.5571404833181
 20
174.3379627677029
 30
0.0
 40
7.0
 41
0.0
 71
     5
 72
     1
  1
\A1;%%c73
  7
GREEKS
 73
     1
 44
1.0
  0
POINT
  5
F40
330
EF5
100
AcDbEntity
  8
Defpoints
 62
     0
100
AcDbPoint
 10
187.0571404833181
 20
193.0216979304837
 30
0.0
  0
POINT
  5
F41
330
EF5
100
AcDbEntity
  8
Defpoints
 62
     0
100
AcDbPoint
 10
260.0571404833181
 20
193.0216979304844
 30
0.0
  0
POINT
  5
F42
330
EF5
100
AcDbEntity
  8
Defpoints
 62
     0
100
AcDbPoint
 10
260.0571404833181
 20
167.8379627677029
 30
0.0
  0
ENDBLK
  5
F00
330
EF5
100
AcDbEntity
  8
0
100
AcDbBlockEnd
  0
BLOCK
  5
10CB
330
10C1
100
AcDbEntity
  8
0
100
AcDbBlockBegin
  2
*D9
 70
     1
 10
0.0
 20
0.0
 30
0.0
  3
*D9
  1

  0
LINE
  5
10CD
330
10C1
100
AcDbEntity
  8
BEM
 62
     0
370
    -2
100
AcDbLine
 10
77.5571404833181
 20
364.0725771920494
 30
0.0
 11
59.06973112687271
 21
364.0725771920494
 31
0.0
  0
LINE
  5
10CE
330
10C1
100
AcDbEntity
  8
BEM
 62
     0
370
    -2
100
AcDbLine
 10
77.5571404833181
 20
464.0725771920493
 30
0.0
 11
59.06973112687275
 21
464.0725771920493
 31
0.0
  0
LINE
  5
10CF
330
10C1
100
AcDbEntity
  8
BEM
 62
     0
370
    -2
100
AcDbLine
 10
61.06973112687272
 20
371.0725771920494
 30
0.0
 11
61.06973112687274
 21
457.0725771920494
 31
0.0
  0
SOLID
  5
10D0
330
10C1
100
AcDbEntity
  8
BEM
 62
     0
100
AcDbTrace
 10
59.90306446020606
 20
371.0725771920494
 30
0.0
 11
62.23639779353939
 21
371.0725771920494
 31
0.0
 12
61.06973112687271
 22
364.0725771920494
 32
0.0
 13
61.06973112687271
 23
364.0725771920494
 33
0.0
  0
SOLID
  5
10D1
330
10C1
100
AcDbEntity
  8
BEM
 62
     0
100
AcDbTrace
 10
59.90306446020607
 20
457.0725771920494
 30
0.0
 11
62.2363977935394
 21
457.0725771920494
 31
0.0
 12
61.06973112687274
 22
464.0725771920493
 32
0.0
 13
61.06973112687274
 23
464.0725771920493
 33
0.0
  0
MTEXT
  5
10D2
330
10C1
100
AcDbEntity
  8
BEM
 62
     1
100
AcDbMText
 10
54.56973112687267
 20
414.0725771920493
 30
0.0
 40
7.0
 41
0.0
 71
     5
 72
     1
  1
\A1;min.35mm
 11
0.0000000000000001
 21
1.0
 31
0.0
 73
     1
 44
1.0
  0
POINT
  5
10D3
330
10C1
100
AcDbEntity
  8
Defpoints
 62
     0
100
AcDbPoint
 10
79.5571404833181
 20
364.0725771920494
 30
0.0
  0
POINT
  5
10D4
330
10C1
100
AcDbEntity
  8
Defpoints
 62
     0
100
AcDbPoint
 10
79.5571404833181
 20
464.0725771920493
 30
0.0
  0
POINT
  5
10D5
330
10C1
100
AcDbEntity
  8
Defpoints
 62
     0
100
AcDbPoint
 10
61.06973112687274
 20
464.0725771920493
 30
0.0
  0
ENDBLK
  5
10CC
330
10C1
100
AcDbEntity
  8
0
100
AcDbBlockEnd
  0
ENDSEC
  0
SECTION
  2
ENTITIES
  0
TEXT
  5
D1D
330
1E
100
AcDbEntity
  8
TEXT
100
AcDbText
 10
501.2477785471384
 20
613.7769525922083
 30
0.0
 40
4.0
  1
DIN EN 1123-2
 50
90.0
 41
0.7
  7
GREEKS
 72
     1
 11
501.2477785471384
 21
629.9102859255416
 31
0.0
100
AcDbText
  0
HATCH
  5
D1E
330
1E
100
AcDbEntity
  8
SCHRAFF
100
AcDbHatch
 10
0.0
 20
0.0
 30
0.0
210
0.0
220
0.0
230
1.0
  2
_USER
 70
     0
 71
     1
 91
        2
 92
        7
 72
     0
 73
     1
 93
        6
 10
173.9571404833179
 20
620.5713720321151
 10
172.757140483318
 20
620.3660599904011
 10
172.757140483318
 20
241.091555439148
 10
173.557140483318
 20
233.0915554391463
 10
174.7631255578526
 20
233.0915554391463
 10
173.9571404833179
 20
241.1514061844937
 97
        6
330
D34
330
D48
330
D25
330
D94
330
D24
330
D47
 92
        7
 72
     0
 73
     1
 93
        6
 10
274.357140483318
 20
620.2976226431628
 10
273.1571404833181
 20
620.0923106014487
 10
273.1571404833181
 20
241.1514061844913
 10
272.3511554087837
 20
233.0915554391463
 10
273.5571404833182
 20
233.0915554391463
 10
274.357140483318
 20
241.0915554391459
 97
        6
330
D34
330
D5D
330
D26
330
D7D
330
D27
330
D5E
 75
     0
 76
     0
 52
135.0
 41
2.0
 77
     0
 78
     1
 53
135.0
 43
-0.0000017408610802
 44
-0.0000009229893294
 45
-1.414213562373095
 46
-1.414213562373094
 79
     0
 47
0.7644897427378968
 98
        2
 10
173.5351605235601
 20
389.9316419009886
 10
273.762390270771
 20
379.2287854656422
  0
HATCH
  5
D1F
330
1E
100
AcDbEntity
  8
SCHRAFF
100
AcDbHatch
 10
0.0
 20
0.0
 30
0.0
210
0.0
220
0.0
230
1.0
  2
_USER
 70
     0
 71
     1
 91
        2
 92
        7
 72
     0
 73
     1
 93
        6
 10
173.957140483318
 20
745.1637941564373
 10
174.7631255578526
 20
753.2236449017842
 10
173.5571404833181
 20
753.223644901784
 10
172.757140483318
 20
745.2236449017825
 10
172.757140483318
 20
630.022287418074
 10
173.957140483318
 20
630.2275994597882
 97
        6
330
D28
330
D9D
330
D29
330
D61
330
D49
330
D5C
 92
        7
 72
     0
 73
     1
 93
        6
 10
274.357140483318
 20
745.223644901785
 10
273.5571404833181
 20
753.2236449017844
 10
272.3511554087836
 20
753.2236449017845
 10
273.1571404833181
 20
745.1637941564403
 10
273.1571404833181
 20
629.7485380291217
 10
274.3571404833181
 20
629.953850070836
 97
        6
330
D2B
330
D9D
330
D2A
330
D5F
330
D49
330
D60
 75
     0
 76
     0
 52
135.0
 41
2.0
 77
     0
 78
     1
 53
135.0
 43
-0.0000017408610802
 44
-0.0000009229893294
 45
-1.414213562373095
 46
-1.414213562373094
 79
     0
 47
0.3592200009524253
 98
        2
 10
173.684426447925
 20
700.5397117238806
 10
273.9859396365591
 20
703.413471787024
  0
HATCH
  5
D20
330
1E
100
AcDbEntity
  8
SCHRAFF
100
AcDbHatch
 10
0.0
 20
0.0
 30
0.0
210
0.0
220
0.0
230
1.0
  2
NET
 70
     0
 71
     1
 91
        2
 92
        7
 72
     0
 73
     1
 93
        9
 10
173.9571404833179
 20
249.0915554391459
 10
173.9571404833179
 20
241.1514061844935
 10
174.7631255578526
 20
233.0915554391463
 10
172.757140483318
 20
233.0915554391463
 10
172.757140483318
 20
231.0915554391463
 10
179.538338329801
 20
231.0915554391463
 10
184.157140483318
 20
239.0915554391461
 10
187.0571404833181
 20
239.0915554391461
 10
187.057140483318
 20
249.0915554391459
 97
        9
330
D95
330
D47
330
D24
330
D94
330
D22
330
D62
330
D63
330
D93
330
D66
 92
        7
 72
     0
 73
     1
 93
        9
 10
273.1571404833181
 20
249.0915554391461
 10
260.0571404833181
 20
249.091555439146
 10
260.0571404833181
 20
239.0915554391461
 10
262.9571404833179
 20
239.091555439146
 10
267.5759426368349
 20
231.0915554391458
 10
274.357140483318
 20
231.0915554391459
 10
274.357140483318
 20
233.0915554391463
 10
272.3511554087837
 20
233.0915554391463
 10
273.1571404833181
 20
241.1514061844907
 97
        9
330
D7C
330
D69
330
D7B
330
D65
330
D64
330
D23
330
D7D
330
D26
330
D5D
 75
     0
 76
     1
 52
45.0
 41
20.0
 77
     0
 78
     2
 53
45.0
 43
0.0
 44
0.0
 45
-1.767766952966368
 46
1.767766952966368
 79
     0
 53
135.0
 43
0.0
 44
0.0
 45
-1.767766952966368
 46
-1.767766952966368
 79
     0
 47
1.041481121673409
 98
        2
 10
178.75617484251
 20
245.4063009520264
 10
269.4365740038133
 20
243.3233384606731
  0
HATCH
  5
D21
330
1E
100
AcDbEntity
  8
SCHRAFF
100
AcDbHatch
 10
0.0
 20
0.0
 30
0.0
210
0.0
220
0.0
230
1.0
  2
NET
 70
     0
 71
     1
 91
        2
 92
        7
 72
     1
 73
     1
 93
        6
 10
173.9571404833179
 20
745.1637941564371
 42
0.0
 10
173.9571404833179
 20
739.2236449017842
 42
0.0
 10
181.457140483318
 20
739.2236449017842
 42
0.0
 10
181.457140483318
 20
742.6747224946653
 42
-0.1093332246020783
 10
183.7917431550428
 20
753.2236449017841
 42
0.0
 10
174.7631255578526
 20
753.223644901784
 42
0.0
 97
        6
330
D9D
330
D28
330
D5C
330
D92
330
D8B
330
D84
 92
        7
 72
     1
 73
     1
 93
        6
 10
265.657140483318
 20
742.6747224946658
 42
0.0
 10
265.657140483318
 20
739.2236449017842
 42
0.0
 10
273.157140483318
 20
739.2236449017842
 42
0.0
 10
273.157140483318
 20
745.1637941564403
 42
0.0
 10
272.3511554087837
 20
753.2236449017842
 42
0.0
 10
263.3225378115932
 20
753.2236449017842
 42
-0.109333224602073
 97
        6
330
D9D
330
D6D
330
D74
330
D72
330
D5F
330
D2A
 75
     0
 76
     1
 52
45.0
 41
20.0
 77
     0
 78
     2
 53
45.0
 43
0.0
 44
0.0
 45
-1.767766952966368
 46
1.767766952966368
 79
     0
 53
135.0
 43
0.0
 44
0.0
 45
-1.767766952966368
 46
-1.767766952966368
 79
     0
 47
1.041481121673409
 98
        2
 10
177.713873097518
 20
748.441684193516
 10
268.3942722588213
 20
745.3172414466609
  0
LINE
  5
D22
102
{ACAD_REACTORS
330
D20
102
}
330
1E
100
AcDbEntity
  8
STEMPEL
100
AcDbLine
 10
172.757140483318
 20
233.0915554391463
 30
0.0
 11
172.757140483318
 21
231.0915554391463
 31
0.0
  0
LINE
  5
D23
102
{ACAD_REACTORS
330
D20
102
}
330
1E
100
AcDbEntity
  8
STEMPEL
100
AcDbLine
 10
274.357140483318
 20
233.0915554391463
 30
0.0
 11
274.357140483318
 21
231.0915554391459
 31
0.0
  0
LINE
  5
D24
102
{ACAD_REACTORS
330
D20
330
D1E
102
}
330
1E
100
AcDbEntity
  8
STEMPEL
100
AcDbLine
 10
174.7631255578526
 20
233.0915554391463
 30
0.0
 11
173.957140483318
 21
241.1514061844928
 31
0.0
  0
LINE
  5
D25
102
{ACAD_REACTORS
330
D1E
102
}
330
1E
100
AcDbEntity
  8
STEMPEL
100
AcDbLine
 10
173.5571404833181
 20
233.0915554391463
 30
0.0
 11
172.7571404833181
 21
241.0915554391472
 31
0.0
  0
LINE
  5
D26
102
{ACAD_REACTORS
330
D20
330
D1E
102
}
330
1E
100
AcDbEntity
  8
STEMPEL
100
AcDbLine
 10
272.3511554087837
 20
233.0915554391463
 30
0.0
 11
273.1630958550661
 21
241.2109599019714
 31
0.0
  0
LINE
  5
D27
102
{ACAD_REACTORS
330
D1E
102
}
330
1E
100
AcDbEntity
  8
STEMPEL
100
AcDbLine
 10
273.5571404833182
 20
233.0915554391463
 30
0.0
 11
274.3571404833181
 21
241.0915554391463
 31
0.0
  0
LINE
  5
D28
102
{ACAD_REACTORS
330
D21
330
D1F
102
}
330
1E
100
AcDbEntity
  8
STEMPEL
100
AcDbLine
 10
174.7631255578526
 20
753.2236449017841
 30
0.0
 11
173.957140483318
 21
745.1637941564377
 31
0.0
  0
LINE
  5
D29
102
{ACAD_REACTORS
330
D1F
102
}
330
1E
100
AcDbEntity
  8
STEMPEL
100
AcDbLine
 10
173.5571404833181
 20
753.2236449017841
 30
0.0
 11
172.7571404833181
 21
745.2236449017832
 31
0.0
  0
LINE
  5
D2A
102
{ACAD_REACTORS
330
D21
330
D1F
102
}
330
1E
100
AcDbEntity
  8
STEMPEL
100
AcDbLine
 10
272.3511554087837
 20
753.2236449017841
 30
0.0
 11
273.1630958550661
 21
745.1042404389588
 31
0.0
  0
LINE
  5
D2B
102
{ACAD_REACTORS
330
D1F
102
}
330
1E
100
AcDbEntity
  8
STEMPEL
100
AcDbLine
 10
273.5571404833182
 20
753.2236449017841
 30
0.0
 11
274.3571404833181
 21
745.2236449017841
 31
0.0
  0
HATCH
  5
D2D
330
1E
100
AcDbEntity
  8
SCHRAFF
100
AcDbHatch
 10
0.0
 20
0.0
 30
0.0
210
0.0
220
0.0
230
1.0
  2
_USER
 70
     0
 71
     1
 91
        2
 92
        7
 72
     0
 73
     1
 93
        6
 10
260.0571404833181
 20
618.1536189306488
 10
258.457140483318
 20
617.9677439536987
 10
258.457140483318
 20
193.091555439137
 10
258.0196971656892
 20
188.091555439146
 10
259.6258089057585
 20
188.091555439146
 10
260.0571404833181
 20
193.0216979304841
 97
        6
330
D34
330
D68
330
D7F
330
D9E
330
D7E
330
D69
 92
        7
 72
     0
 73
     1
 93
        6
 10
188.6571404833178
 20
622.6959386798652
 10
187.057140483318
 20
622.5100637029153
 10
187.0571404833181
 20
193.0216979304836
 10
187.4884720608775
 20
188.091555439146
 10
189.0945838009469
 20
188.091555439146
 10
188.6571404833173
 20
193.0915554391463
 97
        6
330
D34
330
D66
330
D97
330
D9E
330
D96
330
D67
 75
     0
 76
     0
 52
45.0
 41
2.0
 77
     0
 78
     1
 53
45.0
 43
-0.0000017408610802
 44
-0.0000009229893294
 45
-1.414213562373094
 46
1.414213562373095
 79
     0
 47
0.8390319908635149
 98
        2
 10
258.9338648074654
 20
536.745538730217
 10
187.562071004625
 20
491.437810964132
  0
HATCH
  5
D2E
330
1E
100
AcDbEntity
  8
SCHRAFF
100
AcDbHatch
 10
0.0
 20
0.0
 30
0.0
210
0.0
220
0.0
230
1.0
  2
_USER
 70
     0
 71
     1
 91
        2
 92
        7
 72
     1
 73
     1
 93
       19
 10
185.5571404833181
 20
720.2236449017841
 42
0.0926930603363551
 10
184.638189607084
 20
725.1380108955449
 42
-0.0934049271926022
 10
183.0571404833181
 20
733.6597038676996
 42
0.0
 10
183.0571404833181
 20
742.6747224946653
 42
-0.1095178116832437
 10
185.2495382666604
 20
752.5639898193978
 42
0.0
 10
185.557140483318
 20
753.2236449017841
 42
0.0
 10
183.7917431550428
 20
753.2236449017841
 42
0.1093332246020783
 10
181.457140483318
 20
742.6747224946653
 42
0.0
 10
181.457140483318
 20
733.6619249499749
 42
0.0933817694259112
 10
183.1463014748762
 20
724.5598501903966
 42
-0.0926930603363613
 10
183.9571404833181
 20
720.2236449017838
 42
0.0
 10
183.9571404833181
 20
703.612371319201
 42
0.1420008527982317
 10
185.817140483318
 20
697.1951756700096
 42
-0.1420008527982351
 10
187.0571404833181
 20
692.9170452372152
 42
0.0
 10
187.0571404833181
 20
632.1662911305881
 42
0.0
 10
188.6571404833178
 20
632.3521661075381
 42
0.0
 10
188.657140483318
 20
692.9170452372154
 42
0.1420008527982317
 10
187.169140483318
 20
698.0508017565686
 42
-0.1420008527982251
 10
185.5571404833181
 20
703.612371319201
 42
0.0
 97
       19
330
D86
330
D89
330
D8A
330
D85
330
D83
330
D9D
330
D84
330
D8B
330
D87
330
D88
330
D90
330
D8D
330
D8E
330
D99
330
D49
330
D98
330
D8F
330
D8C
330
D91
 92
        7
 72
     1
 73
     1
 93
       19
 10
263.157140483318
 20
720.2236449017841
 42
-0.0926930603363638
 10
263.9679794917599
 20
724.559850190397
 42
0.0933817694259075
 10
265.657140483318
 20
733.6619249499749
 42
0.0
 10
265.657140483318
 20
742.6747224946653
 42
0.1093332246020787
 10
263.3225378115932
 20
753.2236449017842
 42
0.0
 10
261.5571404833182
 20
753.2236449017841
 42
0.0
 10
261.8647426999757
 20
752.5639898193978
 42
-0.1095178116832413
 10
264.0571404833181
 20
742.6747224946654
 42
0.0
 10
264.0571404833181
 20
733.6597038676996
 42
-0.0934049271926088
 10
262.4760913595518
 20
725.1380108955444
 42
0.0926930603363457
 10
261.557140483318
 20
720.2236449017841
 42
0.0
 10
261.557140483318
 20
703.612371319201
 42
-0.1420008527982353
 10
259.9451404833179
 20
698.0508017565682
 42
0.1420008527982215
 10
258.457140483318
 20
692.9170452372154
 42
0.0
 10
258.457140483318
 20
627.6239713813717
 42
0.0
 10
260.0571404833181
 20
627.8098463583219
 42
0.0
 10
260.0571404833181
 20
692.9170452372154
 42
-0.1420008527982343
 10
261.2971404833181
 20
697.1951756700097
 42
0.1420008527982267
 10
263.157140483318
 20
703.612371319201
 42
0.0
 97
       19
330
D6E
330
D71
330
D74
330
D6D
330
D9D
330
D6B
330
D6C
330
D73
330
D70
330
D6F
330
D79
330
D75
330
D78
330
D81
330
D49
330
D82
330
D77
330
D76
330
D7A
 75
     0
 76
     0
 52
45.0
 41
2.0
 77
     0
 78
     1
 53
45.0
 43
-0.0000017408610802
 44
-0.0000009229893294
 45
-1.414213562373094
 46
1.414213562373095
 79
     0
 47
0.269873925982028
 98
        2
 10
184.9063769870317
 20
713.7782436149345
 10
262.4189251846401
 20
716.207111739498
  0
HATCH
  5
D2F
330
1E
100
AcDbEntity
  8
SCHRAFF
100
AcDbHatch
 10
0.0
 20
0.0
 30
0.0
210
0.0
220
0.0
230
1.0
  2
NET
 70
     0
 71
     0
 91
        2
 92
        7
 72
     1
 73
     1
 93
       18
 10
172.757140483318
 20
383.4938975356069
 42
0.0
 10
169.6937537477102
 20
388.582126103261
 42
0.6565381519876337
 10
166.9707755642919
 20
388.985538924575
 42
0.0
 10
164.4095686326921
 20
384.8634619830619
 42
0.1436237563963219
 10
163.8075685909055
 20
382.6938975356071
 42
0.0
 10
168.4358201397579
 20
382.6938975356071
 42
0.0
 10
170.5571404833174
 20
380.5725771920474
 42
0.0
 10
166.9848273860254
 20
377.0002640947558
 42
0.0
 10
166.0528098169804
 20
374.4395668692695
 42
0.0
 10
163.8071404833179
 20
372.1938975356072
 42
0.0
 10
163.8071404833179
 20
371.1938975356073
 42
0.0
 10
165.8071404833179
 20
369.1938975356072
 42
0.0
 10
165.8071404833179
 20
368.5910118526371
 42
0.0
 10
163.5571404833179
 20
364.6938975356072
 42
0.0
 10
165.5571404833179
 20
364.6938975356072
 42
0.0
 10
166.9575555597374
 20
366.6938975356072
 42
0.0
 10
169.1581609977519
 20
366.6938975356072
 42
0.283881146809468
 10
172.757140483318
 20
362.8658544537779
 42
0.0
 97
        0
 92
        7
 72
     1
 73
     1
 93
       18
 10
283.3071404833179
 20
371.1938975356072
 42
0.0
 10
283.3071404833179
 20
372.1938975356073
 42
0.0
 10
281.0614711496557
 20
374.4395668692695
 42
0.0
 10
280.1294535806109
 20
377.000264094755
 42
0.0
 10
276.557140483318
 20
380.5725771920474
 42
0.0
 10
278.6784608268773
 20
382.693897535607
 42
0.0
 10
283.3067123757303
 20
382.6938975356071
 42
0.1436237563963265
 10
282.7047123339437
 20
384.863461983062
 42
0.0
 10
280.1435054023441
 20
388.985538924575
 42
0.6565381519876166
 10
277.4205272189258
 20
388.582126103261
 42
0.0
 10
274.357140483318
 20
383.4938975356075
 42
0.0
 10
274.357140483318
 20
362.8658544537779
 42
0.2838811468094691
 10
277.9561199688842
 20
366.6938975356072
 42
0.0
 10
280.1567254068985
 20
366.6938975356072
 42
0.0
 10
281.557140483318
 20
364.6938975356072
 42
0.0
 10
283.5571404833179
 20
364.6938975356072
 42
0.0
 10
281.3071404833179
 20
368.591011852637
 42
0.0
 10
281.3071404833179
 20
369.1938975356072
 42
0.0
 97
        0
 75
     0
 76
     1
 52
45.0
 41
15.0
 77
     0
 78
     2
 53
45.0
 43
0.0
 44
-89.12786554473404
 45
-1.325825214724776
 46
1.325825214724776
 79
     0
 53
135.0
 43
0.0
 44
-89.12786554473404
 45
-1.325825214724776
 46
-1.325825214724776
 79
     0
 47
0.2470848825781648
 98
        2
 10
168.6561675479934
 20
374.1777049886881
 10
278.1977659214526
 20
370.7185174981891
  0
LINE
  5
D30
330
1E
100
AcDbEntity
  8
STEMPEL
100
AcDbLine
 10
274.357140483318
 20
361.0725771920491
 30
0.0
 11
368.5571404833181
 21
361.0725771920485
 31
0.0
  0
LINE
  5
D31
330
1E
100
AcDbEntity
  8
MITTEL
100
AcDbLine
 10
223.5571404833181
 20
310.4910882016714
 30
0.0
 11
223.5571404833181
 21
183.091555439146
 31
0.0
  0
DIMENSION
  5
D32
330
1E
100
AcDbEntity
  8
BEM
100
AcDbDimension
  2
*D5
 10
138.5122120990045
 20
188.091555439146
 30
0.0
 11
132.0122120990044
 21
210.5915554391462
 31
0.0
 70
    32
 71
     5
 42
45.00000000000023
  3
Standard
100
AcDbAlignedDimension
 13
172.757140483318
 23
233.0915554391463
 33
0.0
 14
187.4884720608775
 24
188.091555439146
 34
0.0
 50
90.0
100
AcDbRotatedDimension
1001
ACAD
1000
DSTYLE
1002
{
1070
    40
1040
2.0
1070
    41
1040
3.5
1070
    42
1040
1.0
1070
    43
1040
7.0
1070
    44
1040
1.0
1070
    73
1070
     0
1070
    74
1070
     0
1070
    77
1070
     1
1070
    78
1070
     8
1070
    79
1070
     2
1070
   140
1040
3.5
1070
   141
1040
1.5
1070
   146
1040
0.5142857142857144
1070
   147
1040
1.5
1070
   172
1070
     1
1070
   178
1070
     1
1070
   179
1070
     2
1070
   271
1070
     2
1070
   272
1070
     2
1070
   284
1070
     8
1070
   285
1070
     8
1070
   286
1070
     8
1002
}
  0
DIMENSION
  5
D33
330
1E
100
AcDbEntity
  8
BEM
100
AcDbDimension
  2
*D6
 10
274.357140483318
 20
155.2568169953419
 30
0.0
 11
223.557140483318
 21
161.756816995342
 31
0.0
 70
    32
  1
%%c<>
 71
     5
 42
101.6
  3
Standard
100
AcDbAlignedDimension
 13
172.757140483318
 23
231.0915554391463
 33
0.0
 14
274.357140483318
 24
231.0915554391459
 34
0.0
100
AcDbRotatedDimension
1001
ACAD
1000
DSTYLE
1002
{
1070
    40
1040
2.0
1070
    41
1040
3.5
1070
    42
1040
1.0
1070
    43
1040
7.0
1070
    44
1040
1.0
1070
    73
1070
     0
1070
    74
1070
     0
1070
    77
1070
     1
1070
    78
1070
     8
1070
    79
1070
     2
1070
   140
1040
3.5
1070
   141
1040
1.5
1070
   146
1040
0.5142857142857144
1070
   147
1040
1.5
1070
   172
1070
     1
1070
   178
1070
     1
1070
   179
1070
     2
1070
   271
1070
     2
1070
   272
1070
     2
1070
   284
1070
     8
1070
   285
1070
     8
1070
   286
1070
     8
1002
}
  0
POLYLINE
  5
D34
102
{ACAD_REACTORS
330
D2D
330
D1E
330
FBC
102
}
330
1E
100
AcDbEntity
  8
HILF
100
AcDb2dPolyline
 66
     1
 10
0.0
 20
0.0
 30
0.0
  0
VERTEX
  5
D35
330
D34
100
AcDbEntity
  8
HILF
100
AcDbVertex
100
AcDb2dVertex
 10
172.757140483318
 20
620.366059990401
 30
0.0
  0
VERTEX
  5
D36
330
D34
100
AcDbEntity
  8
HILF
100
AcDbVertex
100
AcDb2dVertex
 10
181.5468865770681
 20
621.8699272542819
 30
0.0
  0
VERTEX
  5
D37
330
D34
100
AcDbEntity
  8
HILF
100
AcDbVertex
100
AcDb2dVertex
 10
189.4907342333181
 20
622.7927788167819
 30
0.0
  0
VERTEX
  5
D38
330
D34
100
AcDbEntity
  8
HILF
100
AcDbVertex
100
AcDb2dVertex
 10
196.5380975145681
 20
623.1882866292819
 30
0.0
  0
VERTEX
  5
D39
330
D34
100
AcDbEntity
  8
HILF
100
AcDbVertex
100
AcDb2dVertex
 10
202.838390483318
 20
623.1443413167819
 30
0.0
  0
VERTEX
  5
D3A
330
D34
100
AcDbEntity
  8
HILF
100
AcDbVertex
100
AcDb2dVertex
 10
208.541027202068
 20
622.7488335042819
 30
0.0
  0
VERTEX
  5
D3B
330
D34
100
AcDbEntity
  8
HILF
100
AcDbVertex
100
AcDb2dVertex
 10
213.795421733318
 20
622.0896538167819
 30
0.0
  0
VERTEX
  5
D3C
330
D34
100
AcDbEntity
  8
HILF
100
AcDbVertex
100
AcDb2dVertex
 10
218.750988139568
 20
621.2546928792819
 30
0.0
  0
VERTEX
  5
D3D
330
D34
100
AcDbEntity
  8
HILF
100
AcDbVertex
100
AcDb2dVertex
 10
223.5571404833181
 20
620.3318413167819
 30
0.0
  0
VERTEX
  5
D3E
330
D34
100
AcDbEntity
  8
HILF
100
AcDbVertex
100
AcDb2dVertex
 10
228.3632928270681
 20
619.4089897542819
 30
0.0
  0
VERTEX
  5
D3F
330
D34
100
AcDbEntity
  8
HILF
100
AcDbVertex
100
AcDb2dVertex
 10
233.3188592333181
 20
618.5740288167819
 30
0.0
  0
VERTEX
  5
D40
330
D34
100
AcDbEntity
  8
HILF
100
AcDbVertex
100
AcDb2dVertex
 10
238.5732537645681
 20
617.9148491292819
 30
0.0
  0
VERTEX
  5
D41
330
D34
100
AcDbEntity
  8
HILF
100
AcDbVertex
100
AcDb2dVertex
 10
244.2758904833181
 20
617.5193413167819
 30
0.0
  0
VERTEX
  5
D42
330
D34
100
AcDbEntity
  8
HILF
100
AcDbVertex
100
AcDb2dVertex
 10
250.5761834520681
 20
617.4753960042819
 30
0.0
  0
VERTEX
  5
D43
330
D34
100
AcDbEntity
  8
HILF
100
AcDbVertex
100
AcDb2dVertex
 10
257.6235467333181
 20
617.8709038167819
 30
0.0
  0
VERTEX
  5
D44
330
D34
100
AcDbEntity
  8
HILF
100
AcDbVertex
100
AcDb2dVertex
 10
265.5673943895681
 20
618.7937553792819
 30
0.0
  0
VERTEX
  5
D45
330
D34
100
AcDbEntity
  8
HILF
100
AcDbVertex
100
AcDb2dVertex
 10
274.357140483318
 20
620.2976226431628
 30
0.0
  0
SEQEND
  5
D46
330
D34
100
AcDbEntity
  8
HILF
  0
LINE
  5
D47
102
{ACAD_REACTORS
330
D20
330
D1E
330
FBC
102
}
330
1E
100
AcDbEntity
  8
STEMPEL
100
AcDbLine
 10
173.9571404833179
 20
620.5713720321151
 30
0.0
 11
173.9571404833179
 21
241.1514061844933
 31
0.0
  0
LINE
  5
D48
102
{ACAD_REACTORS
330
D1E
102
}
330
1E
100
AcDbEntity
  8
STEMPEL
100
AcDbLine
 10
172.757140483318
 20
620.366059990401
 30
0.0
 11
172.757140483318
 21
241.0915554391477
 31
0.0
  0
POLYLINE
  5
D49
102
{ACAD_REACTORS
330
D2E
330
D1F
330
FBC
102
}
330
1E
100
AcDbEntity
  8
HILF
100
AcDb2dPolyline
 66
     1
 10
0.0
 20
0.0
 30
0.0
  0
VERTEX
  5
D4A
330
D49
100
AcDbEntity
  8
HILF
100
AcDbVertex
100
AcDb2dVertex
 10
172.757140483318
 20
630.022287418074
 30
0.0
  0
VERTEX
  5
D4B
330
D49
100
AcDbEntity
  8
HILF
100
AcDbVertex
100
AcDb2dVertex
 10
181.5468865770681
 20
631.5261546819549
 30
0.0
  0
VERTEX
  5
D4C
330
D49
100
AcDbEntity
  8
HILF
100
AcDbVertex
100
AcDb2dVertex
 10
189.4907342333181
 20
632.4490062444549
 30
0.0
  0
VERTEX
  5
D4D
330
D49
100
AcDbEntity
  8
HILF
100
AcDbVertex
100
AcDb2dVertex
 10
196.5380975145681
 20
632.8445140569549
 30
0.0
  0
VERTEX
  5
D4E
330
D49
100
AcDbEntity
  8
HILF
100
AcDbVertex
100
AcDb2dVertex
 10
202.838390483318
 20
632.8005687444549
 30
0.0
  0
VERTEX
  5
D4F
330
D49
100
AcDbEntity
  8
HILF
100
AcDbVertex
100
AcDb2dVertex
 10
208.541027202068
 20
632.4050609319549
 30
0.0
  0
VERTEX
  5
D50
330
D49
100
AcDbEntity
  8
HILF
100
AcDbVertex
100
AcDb2dVertex
 10
213.795421733318
 20
631.7458812444549
 30
0.0
  0
VERTEX
  5
D51
330
D49
100
AcDbEntity
  8
HILF
100
AcDbVertex
100
AcDb2dVertex
 10
218.750988139568
 20
630.9109203069549
 30
0.0
  0
VERTEX
  5
D52
330
D49
100
AcDbEntity
  8
HILF
100
AcDbVertex
100
AcDb2dVertex
 10
223.5571404833181
 20
629.9880687444549
 30
0.0
  0
VERTEX
  5
D53
330
D49
100
AcDbEntity
  8
HILF
100
AcDbVertex
100
AcDb2dVertex
 10
228.3632928270681
 20
629.0652171819549
 30
0.0
  0
VERTEX
  5
D54
330
D49
100
AcDbEntity
  8
HILF
100
AcDbVertex
100
AcDb2dVertex
 10
233.3188592333181
 20
628.2302562444549
 30
0.0
  0
VERTEX
  5
D55
330
D49
100
AcDbEntity
  8
HILF
100
AcDbVertex
100
AcDb2dVertex
 10
238.5732537645681
 20
627.5710765569549
 30
0.0
  0
VERTEX
  5
D56
330
D49
100
AcDbEntity
  8
HILF
100
AcDbVertex
100
AcDb2dVertex
 10
244.2758904833181
 20
627.1755687444549
 30
0.0
  0
VERTEX
  5
D57
330
D49
100
AcDbEntity
  8
HILF
100
AcDbVertex
100
AcDb2dVertex
 10
250.5761834520681
 20
627.1316234319549
 30
0.0
  0
VERTEX
  5
D58
330
D49
100
AcDbEntity
  8
HILF
100
AcDbVertex
100
AcDb2dVertex
 10
257.6235467333181
 20
627.5271312444549
 30
0.0
  0
VERTEX
  5
D59
330
D49
100
AcDbEntity
  8
HILF
100
AcDbVertex
100
AcDb2dVertex
 10
265.5673943895681
 20
628.4499828069549
 30
0.0
  0
VERTEX
  5
D5A
330
D49
100
AcDbEntity
  8
HILF
100
AcDbVertex
100
AcDb2dVertex
 10
274.357140483318
 20
629.9538500708358
 30
0.0
  0
SEQEND
  5
D5B
330
D49
100
AcDbEntity
  8
HILF
  0
LINE
  5
D5C
102
{ACAD_REACTORS
330
D21
330
D1F
330
FBC
102
}
330
1E
100
AcDbEntity
  8
STEMPEL
100
AcDbLine
 10
173.957140483318
 20
745.163794156437
 30
0.0
 11
173.957140483318
 21
630.2275994597883
 31
0.0
  0
LINE
  5
D5D
102
{ACAD_REACTORS
330
D20
330
D1E
330
FBC
102
}
330
1E
100
AcDbEntity
  8
STEMPEL
100
AcDbLine
 10
273.1571404833181
 20
620.0923106014487
 30
0.0
 11
273.1571404833181
 21
241.1514061844914
 31
0.0
  0
LINE
  5
D5E
102
{ACAD_REACTORS
330
D1E
102
}
330
1E
100
AcDbEntity
  8
STEMPEL
100
AcDbLine
 10
274.357140483318
 20
620.297622643163
 30
0.0
 11
274.3571404833181
 21
241.0915554391459
 31
0.0
  0
LINE
  5
D5F
102
{ACAD_REACTORS
330
D21
330
D1F
330
FBC
102
}
330
1E
100
AcDbEntity
  8
STEMPEL
100
AcDbLine
 10
273.157140483318
 20
745.1637941564405
 30
0.0
 11
273.157140483318
 21
629.7485380291216
 31
0.0
  0
LINE
  5
D60
102
{ACAD_REACTORS
330
D1F
102
}
330
1E
100
AcDbEntity
  8
STEMPEL
100
AcDbLine
 10
274.357140483318
 20
745.2236449017846
 30
0.0
 11
274.357140483318
 21
629.9538500708358
 31
0.0
  0
LINE
  5
D61
102
{ACAD_REACTORS
330
D1F
102
}
330
1E
100
AcDbEntity
  8
STEMPEL
100
AcDbLine
 10
172.757140483318
 20
745.2236449017825
 30
0.0
 11
172.757140483318
 21
630.022287418074
 31
0.0
  0
LINE
  5
D62
102
{ACAD_REACTORS
330
D20
102
}
330
1E
100
AcDbEntity
  8
STEMPEL
100
AcDbLine
 10
187.0571404833178
 20
231.0915554391463
 30
0.0
 11
172.757140483318
 21
231.0915554391463
 31
0.0
  0
LINE
  5
D63
102
{ACAD_REACTORS
330
D20
102
}
330
1E
100
AcDbEntity
  8
STEMPEL
100
AcDbLine
 10
184.157140483318
 20
239.0915554391461
 30
0.0
 11
179.538338329801
 21
231.0915554391463
 31
0.0
  0
LINE
  5
D64
102
{ACAD_REACTORS
330
D20
102
}
330
1E
100
AcDbEntity
  8
STEMPEL
100
AcDbLine
 10
274.357140483318
 20
231.0915554391459
 30
0.0
 11
260.057140483318
 21
231.0915554391459
 31
0.0
  0
LINE
  5
D65
102
{ACAD_REACTORS
330
D20
102
}
330
1E
100
AcDbEntity
  8
STEMPEL
100
AcDbLine
 10
262.957140483318
 20
239.0915554391461
 30
0.0
 11
267.575942636835
 21
231.0915554391459
 31
0.0
  0
LINE
  5
D66
102
{ACAD_REACTORS
330
D2D
330
D20
330
FBC
102
}
330
1E
100
AcDbEntity
  8
STEMPEL
100
AcDbLine
 10
187.0571404833181
 20
622.5100637029149
 30
0.0
 11
187.0571404833181
 21
193.0216979304837
 31
0.0
  0
LINE
  5
D67
102
{ACAD_REACTORS
330
D2D
102
}
330
1E
100
AcDbEntity
  8
STEMPEL
100
AcDbLine
 10
188.6571404833177
 20
622.695938679865
 30
0.0
 11
188.6571404833173
 21
193.0915554391462
 31
0.0
  0
LINE
  5
D68
102
{ACAD_REACTORS
330
D2D
102
}
330
1E
100
AcDbEntity
  8
STEMPEL
100
AcDbLine
 10
258.4571404833181
 20
617.9677439536987
 30
0.0
 11
258.457140483318
 21
193.091555439137
 31
0.0
  0
LINE
  5
D69
102
{ACAD_REACTORS
330
D2D
330
D20
330
FBC
102
}
330
1E
100
AcDbEntity
  8
STEMPEL
100
AcDbLine
 10
260.0571404833181
 20
618.1536189306488
 30
0.0
 11
260.0571404833181
 21
193.0216979304844
 31
0.0
  0
DIMENSION
  5
D6A
330
1E
100
AcDbEntity
  8
BEM
100
AcDbDimension
  2
*D7
 10
44.20716964905068
 20
233.0915554391463
 30
0.0
 11
37.70716964905066
 21
493.1576001704652
 31
0.0
 70
    32
  1
760
 71
     5
 42
520.1320894626378
  3
Standard
100
AcDbAlignedDimension
 13
173.5571404833181
 23
753.2236449017841
 33
0.0
 14
172.757140483318
 24
233.0915554391463
 34
0.0
 50
90.0
100
AcDbRotatedDimension
1001
ACAD
1000
DSTYLE
1002
{
1070
    40
1040
2.0
1070
    41
1040
3.5
1070
    42
1040
1.0
1070
    43
1040
7.0
1070
    44
1040
1.0
1070
    73
1070
     0
1070
    74
1070
     0
1070
    77
1070
     1
1070
    78
1070
     8
1070
    79
1070
     2
1070
   140
1040
3.5
1070
   141
1040
1.5
1070
   146
1040
0.5142857142857144
1070
   147
1040
1.5
1070
   172
1070
     1
1070
   178
1070
     1
1070
   179
1070
     2
1070
   271
1070
     2
1070
   272
1070
     2
1070
   284
1070
     8
1070
   285
1070
     8
1070
   286
1070
     8
1070
   289
1070
     0
1070
   340
1005
B8B
1002
}
  0
LINE
  5
D6B
102
{ACAD_REACTORS
330
D2E
102
}
330
1E
100
AcDbEntity
  8
STEMPEL
100
AcDbLine
 10
261.5571404833181
 20
753.2236449017841
 30
0.0
 11
261.8647426999757
 21
752.5639898193978
 31
0.0
  0
ARC
  5
D6C
102
{ACAD_REACTORS
330
D2E
102
}
330
1E
100
AcDbEntity
  8
STEMPEL
100
AcDbCircle
 10
240.657140483318
 20
742.6747224946653
 30
0.0
 40
23.4
100
AcDbArc
 50
0.0
 51
24.99999999999344
  0
ARC
  5
D6D
102
{ACAD_REACTORS
330
D2E
330
D21
102
}
330
1E
100
AcDbEntity
  8
STEMPEL
100
AcDbCircle
 10
240.657140483318
 20
742.6747224946653
 30
0.0
 40
25.0
100
AcDbArc
 50
0.0
 51
24.9581963123036
  0
ARC
  5
D6E
102
{ACAD_REACTORS
330
D2E
330
FBC
102
}
330
1E
100
AcDbEntity
  8
STEMPEL
100
AcDbCircle
 10
275.157140483318
 20
720.2236449017841
 30
0.0
 40
12.0
100
AcDbArc
 50
158.816845606963
 51
180.0
  0
ARC
  5
D6F
102
{ACAD_REACTORS
330
D2E
102
}
330
1E
100
AcDbEntity
  8
STEMPEL
100
AcDbCircle
 10
275.157140483318
 20
720.2236449017841
 30
0.0
 40
13.6
100
AcDbArc
 50
158.816845606963
 51
180.0
  0
ARC
  5
D70
102
{ACAD_REACTORS
330
D2E
102
}
330
1E
100
AcDbEntity
  8
STEMPEL
100
AcDbCircle
 10
240.657140483318
 20
733.593644901784
 30
0.0
 40
23.40009324312573
100
AcDbArc
 50
338.816845606963
 51
0.1617474312572272
  0
ARC
  5
D71
102
{ACAD_REACTORS
330
D2E
330
FBC
102
}
330
1E
100
AcDbEntity
  8
STEMPEL
100
AcDbCircle
 10
240.657140483318
 20
733.593644901784
 30
0.0
 40
25.00009324312574
100
AcDbArc
 50
338.816845606963
 51
0.1564859543538863
  0
LINE
  5
D72
102
{ACAD_REACTORS
330
D21
330
FBC
102
}
330
1E
100
AcDbEntity
  8
STEMPEL
100
AcDbLine
 10
273.157140483318
 20
739.2236449017842
 30
0.0
 11
265.657140483318
 21
739.2236449017842
 31
0.0
  0
LINE
  5
D73
102
{ACAD_REACTORS
330
D2E
102
}
330
1E
100
AcDbEntity
  8
STEMPEL
100
AcDbLine
 10
264.0571404833181
 20
742.6747224946653
 30
0.0
 11
264.0571404833181
 21
733.6597038676996
 31
0.0
  0
LINE
  5
D74
102
{ACAD_REACTORS
330
D2E
330
D21
330
FBC
102
}
330
1E
100
AcDbEntity
  8
STEMPEL
100
AcDbLine
 10
265.657140483318
 20
742.6747224946653
 30
0.0
 11
265.657140483318
 21
733.6619249499749
 31
0.0
  0
ARC
  5
D75
102
{ACAD_REACTORS
330
D2E
102
}
330
1E
100
AcDbEntity
  8
STEMPEL
100
AcDbCircle
 10
251.157140483318
 20
703.612371319201
 30
0.0
 40
10.4
100
AcDbArc
 50
327.6719358778364
 51
0.0
  0
ARC
  5
D76
102
{ACAD_REACTORS
330
D2E
330
FBC
102
}
330
1E
100
AcDbEntity
  8
STEMPEL
100
AcDbCircle
 10
251.157140483318
 20
703.612371319201
 30
0.0
 40
12.0
100
AcDbArc
 50
327.6719358778364
 51
0.0
  0
ARC
  5
D77
102
{ACAD_REACTORS
330
D2E
330
FBC
102
}
330
1E
100
AcDbEntity
  8
STEMPEL
100
AcDbCircle
 10
268.057140483318
 20
692.9170452372154
 30
0.0
 40
8.0
100
AcDbArc
 50
147.6719358778364
 51
180.0
  0
ARC
  5
D78
102
{ACAD_REACTORS
330
D2E
102
}
330
1E
100
AcDbEntity
  8
STEMPEL
100
AcDbCircle
 10
268.0571404833181
 20
692.9170452372154
 30
0.0
 40
9.599999999999999
100
AcDbArc
 50
147.6719358778364
 51
180.0
  0
LINE
  5
D79
102
{ACAD_REACTORS
330
D2E
102
}
330
1E
100
AcDbEntity
  8
STEMPEL
100
AcDbLine
 10
261.557140483318
 20
720.2236449017841
 30
0.0
 11
261.557140483318
 21
703.612371319201
 31
0.0
  0
LINE
  5
D7A
102
{ACAD_REACTORS
330
D2E
330
FBC
102
}
330
1E
100
AcDbEntity
  8
STEMPEL
100
AcDbLine
 10
263.157140483318
 20
720.2236449017841
 30
0.0
 11
263.157140483318
 21
703.612371319201
 31
0.0
  0
LINE
  5
D7B
102
{ACAD_REACTORS
330
D20
102
}
330
1E
100
AcDbEntity
  8
STEMPEL
100
AcDbLine
 10
260.0571404833177
 20
239.0915554391461
 30
0.0
 11
262.9571404833182
 21
239.0915554391461
 31
0.0
  0
LINE
  5
D7C
102
{ACAD_REACTORS
330
D20
330
FBC
102
}
330
1E
100
AcDbEntity
  8
STEMPEL
100
AcDbLine
 10
260.0571404833179
 20
249.0915554391461
 30
0.0
 11
273.157140483318
 21
249.0915554391461
 31
0.0
  0
LINE
  5
D7D
102
{ACAD_REACTORS
330
D20
330
D1E
102
}
330
1E
100
AcDbEntity
  8
STEMPEL
100
AcDbLine
 10
274.357140483318
 20
233.0915554391463
 30
0.0
 11
272.3511554087837
 21
233.0915554391463
 31
0.0
  0
LINE
  5
D7E
102
{ACAD_REACTORS
330
D2D
102
}
330
1E
100
AcDbEntity
  8
STEMPEL
100
AcDbLine
 10
260.0571404833181
 20
193.0216979304844
 30
0.0
 11
259.6258089057585
 21
188.091555439146
 31
0.0
  0
LINE
  5
D7F
102
{ACAD_REACTORS
330
D2D
102
}
330
1E
100
AcDbEntity
  8
STEMPEL
100
AcDbLine
 10
258.457140483318
 20
193.091555439137
 30
0.0
 11
258.0196971656892
 21
188.091555439146
 31
0.0
  0
LINE
  5
D80
330
1E
100
AcDbEntity
  8
MITTEL
100
AcDbLine
 10
223.5571404833181
 20
758.2236449017841
 30
0.0
 11
223.5571404833181
 21
344.6669186423462
 31
0.0
  0
LINE
  5
D81
102
{ACAD_REACTORS
330
D2E
102
}
330
1E
100
AcDbEntity
  8
STEMPEL
100
AcDbLine
 10
258.457140483318
 20
692.9170452372154
 30
0.0
 11
258.4571404833181
 21
627.6239713813717
 31
0.0
  0
LINE
  5
D82
102
{ACAD_REACTORS
330
D2E
330
FBC
102
}
330
1E
100
AcDbEntity
  8
STEMPEL
100
AcDbLine
 10
260.0571404833181
 20
692.9170452372154
 30
0.0
 11
260.0571404833181
 21
627.8098463583219
 31
0.0
  0
LINE
  5
D83
102
{ACAD_REACTORS
330
D2E
102
}
330
1E
100
AcDbEntity
  8
STEMPEL
100
AcDbLine
 10
185.557140483318
 20
753.2236449017841
 30
0.0
 11
185.2495382666604
 21
752.5639898193978
 31
0.0
  0
ARC
  5
D84
102
{ACAD_REACTORS
330
D2E
330
D21
102
}
330
1E
100
AcDbEntity
  8
STEMPEL
100
AcDbCircle
 10
206.457140483318
 20
742.6747224946653
 30
0.0
 40
25.0
100
AcDbArc
 50
155.0418036876905
 51
180.0
  0
ARC
  5
D85
102
{ACAD_REACTORS
330
D2E
102
}
330
1E
100
AcDbEntity
  8
STEMPEL
100
AcDbCircle
 10
206.457140483318
 20
742.6747224946653
 30
0.0
 40
23.4
100
AcDbArc
 50
155.0000000000006
 51
180.0
  0
ARC
  5
D86
102
{ACAD_REACTORS
330
D2E
102
}
330
1E
100
AcDbEntity
  8
STEMPEL
100
AcDbCircle
 10
171.9571404833181
 20
720.2236449017841
 30
0.0
 40
13.6
100
AcDbArc
 50
0.0
 51
21.183154393037
  0
ARC
  5
D87
102
{ACAD_REACTORS
330
D2E
330
FBC
102
}
330
1E
100
AcDbEntity
  8
STEMPEL
100
AcDbCircle
 10
206.457140483318
 20
733.593644901784
 30
0.0
 40
25.00009324312574
100
AcDbArc
 50
179.8435140456461
 51
201.183154393037
  0
ARC
  5
D88
102
{ACAD_REACTORS
330
D2E
330
FBC
102
}
330
1E
100
AcDbEntity
  8
STEMPEL
100
AcDbCircle
 10
171.9571404833181
 20
720.2236449017841
 30
0.0
 40
12.0
100
AcDbArc
 50
0.0
 51
21.183154393037
  0
ARC
  5
D89
102
{ACAD_REACTORS
330
D2E
102
}
330
1E
100
AcDbEntity
  8
STEMPEL
100
AcDbCircle
 10
206.457140483318
 20
733.593644901784
 30
0.0
 40
23.40009324312573
100
AcDbArc
 50
179.8382525687427
 51
201.183154393037
  0
LINE
  5
D8A
102
{ACAD_REACTORS
330
D2E
102
}
330
1E
100
AcDbEntity
  8
STEMPEL
100
AcDbLine
 10
183.0571404833181
 20
742.6747224946653
 30
0.0
 11
183.0571404833181
 21
733.6597038676996
 31
0.0
  0
LINE
  5
D8B
102
{ACAD_REACTORS
330
D2E
330
D21
330
FBC
102
}
330
1E
100
AcDbEntity
  8
STEMPEL
100
AcDbLine
 10
181.457140483318
 20
742.6747224946653
 30
0.0
 11
181.457140483318
 21
733.6619249499749
 31
0.0
  0
ARC
  5
D8C
102
{ACAD_REACTORS
330
D2E
102
}
330
1E
100
AcDbEntity
  8
STEMPEL
100
AcDbCircle
 10
195.9571404833179
 20
703.612371319201
 30
0.0
 40
10.4
100
AcDbArc
 50
180.0
 51
212.3280641221636
  0
ARC
  5
D8D
102
{ACAD_REACTORS
330
D2E
330
FBC
102
}
330
1E
100
AcDbEntity
  8
STEMPEL
100
AcDbCircle
 10
195.9571404833179
 20
703.612371319201
 30
0.0
 40
12.0
100
AcDbArc
 50
180.0
 51
212.3280641221636
  0
ARC
  5
D8E
102
{ACAD_REACTORS
330
D2E
330
FBC
102
}
330
1E
100
AcDbEntity
  8
STEMPEL
100
AcDbCircle
 10
179.0571404833181
 20
692.9170452372154
 30
0.0
 40
8.0
100
AcDbArc
 50
0.0
 51
32.32806412216358
  0
ARC
  5
D8F
102
{ACAD_REACTORS
330
D2E
102
}
330
1E
100
AcDbEntity
  8
STEMPEL
100
AcDbCircle
 10
179.0571404833181
 20
692.9170452372154
 30
0.0
 40
9.599999999999999
100
AcDbArc
 50
0.0
 51
32.32806412216358
  0
LINE
  5
D90
102
{ACAD_REACTORS
330
D2E
330
FBC
102
}
330
1E
100
AcDbEntity
  8
STEMPEL
100
AcDbLine
 10
183.9571404833181
 20
720.2236449017841
 30
0.0
 11
183.9571404833181
 21
703.612371319201
 31
0.0
  0
LINE
  5
D91
102
{ACAD_REACTORS
330
D2E
102
}
330
1E
100
AcDbEntity
  8
STEMPEL
100
AcDbLine
 10
185.5571404833181
 20
720.2236449017841
 30
0.0
 11
185.5571404833181
 21
703.612371319201
 31
0.0
  0
LINE
  5
D92
102
{ACAD_REACTORS
330
D21
330
FBC
102
}
330
1E
100
AcDbEntity
  8
STEMPEL
100
AcDbLine
 10
181.457140483318
 20
739.2236449017842
 30
0.0
 11
173.957140483318
 21
739.2236449017842
 31
0.0
  0
LINE
  5
D93
102
{ACAD_REACTORS
330
D20
102
}
330
1E
100
AcDbEntity
  8
STEMPEL
100
AcDbLine
 10
184.157140483318
 20
239.0915554391461
 30
0.0
 11
187.0571404833183
 21
239.0915554391461
 31
0.0
  0
LINE
  5
D94
102
{ACAD_REACTORS
330
D20
330
D1E
102
}
330
1E
100
AcDbEntity
  8
STEMPEL
100
AcDbLine
 10
174.7631255578526
 20
233.0915554391463
 30
0.0
 11
172.757140483318
 21
233.0915554391463
 31
0.0
  0
LINE
  5
D95
102
{ACAD_REACTORS
330
D20
330
FBC
102
}
330
1E
100
AcDbEntity
  8
STEMPEL
100
AcDbLine
 10
173.957140483318
 20
249.0915554391459
 30
0.0
 11
187.0571404833181
 21
249.0915554391459
 31
0.0
  0
LINE
  5
D96
102
{ACAD_REACTORS
330
D2D
102
}
330
1E
100
AcDbEntity
  8
STEMPEL
100
AcDbLine
 10
188.6571404833173
 20
193.0915554391462
 30
0.0
 11
189.0945838009469
 21
188.091555439146
 31
0.0
  0
LINE
  5
D97
102
{ACAD_REACTORS
330
D2D
102
}
330
1E
100
AcDbEntity
  8
STEMPEL
100
AcDbLine
 10
187.0571404833181
 20
193.0216979304837
 30
0.0
 11
187.4884720608775
 21
188.091555439146
 31
0.0
  0
LINE
  5
D98
102
{ACAD_REACTORS
330
D2E
102
}
330
1E
100
AcDbEntity
  8
STEMPEL
100
AcDbLine
 10
188.657140483318
 20
692.9170452372154
 30
0.0
 11
188.6571404833179
 21
632.3521661075381
 31
0.0
  0
LINE
  5
D99
102
{ACAD_REACTORS
330
D2E
330
FBC
102
}
330
1E
100
AcDbEntity
  8
STEMPEL
100
AcDbLine
 10
187.0571404833181
 20
692.9170452372154
 30
0.0
 11
187.0571404833181
 21
632.1662911305882
 31
0.0
  0
LINE
  5
D9A
330
1E
100
AcDbEntity
  8
HILF
100
AcDbLine
 10
187.254236091361
 20
722.7234180831729
 30
0.0
 11
259.860044875275
 21
722.7234180831729
 31
0.0
  0
LINE
  5
D9B
330
1E
100
AcDbEntity
  8
HILF
100
AcDbLine
 10
187.9654197674772
 20
700.7171338505295
 30
0.0
 11
259.1488611991588
 21
700.7171338505295
 31
0.0
  0
LINE
  5
D9C
330
1E
100
AcDbEntity
  8
HILF
100
AcDbLine
 10
190.2422913540037
 20
695.5895721313738
 30
0.0
 11
256.8719896126324
 21
695.5895721313738
 31
0.0
  0
LINE
  5
D9D
102
{ACAD_REACTORS
330
D2E
330
D21
330
D1F
102
}
330
1E
100
AcDbEntity
  8
STEMPEL
100
AcDbLine
 10
273.5571404833182
 20
753.2236449017842
 30
0.0
 11
173.5571404833181
 21
753.2236449017841
 31
0.0
  0
LINE
  5
D9E
102
{ACAD_REACTORS
330
D2D
102
}
330
1E
100
AcDbEntity
  8
STEMPEL
100
AcDbLine
 10
259.6258089057585
 20
188.091555439146
 30
0.0
 11
187.4884720608775
 21
188.091555439146
 31
0.0
  0
LINE
  5
D9F
330
1E
100
AcDbEntity
  8
HILF
100
AcDbLine
 10
256.8510287432496
 20
193.0915554391461
 30
0.0
 11
190.2632522233866
 21
193.0915554391461
 31
0.0
  0
DIMENSION
  5
DA0
330
1E
100
AcDbEntity
  8
BEM
100
AcDbDimension
  2
*D8
 10
260.0571404833181
 20
167.8379627677029
 30
0.0
 11
223.5571404833181
 21
174.3379627677029
 31
0.0
 70
    32
  1
%%c<>
 71
     5
 42
73.0
  3
Standard
100
AcDbAlignedDimension
 13
187.0571404833181
 23
193.0216979304837
 33
0.0
 14
260.0571404833181
 24
193.0216979304844
 34
0.0
100
AcDbRotatedDimension
1001
ACAD
1000
DSTYLE
1002
{
1070
    40
1040
2.0
1070
    41
1040
3.5
1070
    42
1040
1.0
1070
    43
1040
7.0
1070
    44
1040
1.0
1070
    73
1070
     0
1070
    74
1070
     0
1070
    77
1070
     1
1070
    78
1070
     8
1070
    79
1070
     2
1070
   140
1040
3.5
1070
   141
1040
1.5
1070
   146
1040
0.5142857142857144
1070
   147
1040
1.5
1070
   172
1070
     1
1070
   178
1070
     1
1070
   179
1070
     2
1070
   271
1070
     2
1070
   272
1070
     2
1070
   284
1070
     8
1070
   285
1070
     8
1070
   286
1070
     8
1070
   289
1070
     0
1070
   340
1005
B8B
1002
}
  0
TEXT
  5
DA1
330
1E
100
AcDbEntity
  8
TEXT
 62
     1
100
AcDbText
 10
211.6023927433931
 20
664.103643266386
 30
0.0
 40
7.0
  1
DN70
 50
90.0
 41
0.8
  7
GREEKS
100
AcDbText
  0
LINE
  5
DA2
330
1E
100
AcDbEntity
  8
STEMPEL
100
AcDbLine
 10
149.3611809904248
 20
367.0725771920487
 30
0.0
 11
149.3611809904248
 21
364.0725771920487
 31
0.0
  0
LINE
  5
DA3
330
1E
100
AcDbEntity
  8
HILF
100
AcDbLine
 10
148.3611809904247
 20
367.0725771920487
 30
0.0
 11
148.3611809904248
 21
364.0725771920487
 31
0.0
  0
LINE
  5
DA4
330
1E
100
AcDbEntity
  8
HILF
100
AcDbLine
 10
140.3611809904247
 20
367.0725771920487
 30
0.0
 11
140.3611809904248
 21
364.0725771920487
 31
0.0
  0
LINE
  5
DA5
330
1E
100
AcDbEntity
  8
STEMPEL
100
AcDbLine
 10
139.3611809904248
 20
367.0725771920487
 30
0.0
 11
139.3611809904248
 21
364.0725771920487
 31
0.0
  0
LINE
  5
DA6
330
1E
100
AcDbEntity
  8
STEMPEL
100
AcDbLine
 10
148.3611809904248
 20
389.0725771920487
 30
0.0
 11
140.3611809904248
 21
389.0725771920487
 31
0.0
  0
LINE
  5
DA7
330
1E
100
AcDbEntity
  8
STEMPEL
100
AcDbLine
 10
139.3611809904248
 20
388.0725771920489
 30
0.0
 11
149.3611809904248
 21
388.0725771920489
 31
0.0
  0
LINE
  5
DA8
330
1E
100
AcDbEntity
  8
HILF
100
AcDbLine
 10
140.3611809904248
 20
389.0725771920487
 30
0.0
 11
140.3611809904248
 21
382.6725771920492
 31
0.0
  0
LINE
  5
DA9
330
1E
100
AcDbEntity
  8
STEMPEL
100
AcDbLine
 10
139.3611809904248
 20
388.0725771920487
 30
0.0
 11
139.3611809904248
 21
382.6725771920492
 31
0.0
  0
LINE
  5
DAA
330
1E
100
AcDbEntity
  8
STEMPEL
100
AcDbLine
 10
140.3611809904248
 20
389.0725771920487
 30
0.0
 11
139.3611809904248
 21
388.0725771920487
 31
0.0
  0
LINE
  5
DAB
330
1E
100
AcDbEntity
  8
HILF
100
AcDbLine
 10
148.3611809904248
 20
389.0725771920487
 30
0.0
 11
148.3611809904248
 21
382.6725771920492
 31
0.0
  0
LINE
  5
DAC
330
1E
100
AcDbEntity
  8
STEMPEL
100
AcDbLine
 10
149.3611809904248
 20
388.0725771920487
 30
0.0
 11
149.3611809904248
 21
382.6725771920492
 31
0.0
  0
LINE
  5
DAD
330
1E
100
AcDbEntity
  8
STEMPEL
100
AcDbLine
 10
149.3611809904248
 20
388.0725771920487
 30
0.0
 11
148.3611809904248
 21
389.0725771920487
 31
0.0
  0
LINE
  5
DAE
330
1E
100
AcDbEntity
  8
STEMPEL
100
AcDbLine
 10
133.861180990425
 20
375.0725771920493
 30
0.0
 11
154.861180990425
 21
375.072577192049
 31
0.0
  0
ARC
  5
DAF
330
1E
100
AcDbEntity
  8
STEMPEL
100
AcDbCircle
 10
137.348680990425
 20
378.3045303170486
 30
0.0
 40
3.231953125000015
100
AcDbArc
 50
223.6767967281013
 51
316.3232032718999
  0
ARC
  5
DB0
330
1E
100
AcDbEntity
  8
STEMPEL
100
AcDbCircle
 10
137.348680990425
 20
379.4406240670494
 30
0.0
 40
3.231953125000015
100
AcDbArc
 50
43.67679672810011
 51
136.3232032718987
  0
LINE
  5
DB1
330
1E
100
AcDbEntity
  8
STEMPEL
100
AcDbLine
 10
137.348680990425
 20
382.6725771920492
 30
0.0
 11
151.3736809904251
 21
382.6725771920492
 31
0.0
  0
LINE
  5
DB2
330
1E
100
AcDbEntity
  8
STEMPEL
100
AcDbLine
 10
135.0111809904251
 20
381.6725771920496
 30
0.0
 11
135.0111809904249
 21
376.0725771920486
 31
0.0
  0
LINE
  5
DB3
330
1E
100
AcDbEntity
  8
STEMPEL
100
AcDbLine
 10
133.861180990425
 20
375.072577192049
 30
0.0
 11
133.861180990425
 21
373.072577192049
 31
0.0
  0
LINE
  5
DB4
330
1E
100
AcDbEntity
  8
STEMPEL
100
AcDbLine
 10
139.6861809904251
 20
381.6725771920494
 30
0.0
 11
139.6861809904248
 21
376.0725771920486
 31
0.0
  0
LINE
  5
DB5
330
1E
100
AcDbEntity
  8
STEMPEL
100
AcDbLine
 10
153.7111809904249
 20
381.672577192049
 30
0.0
 11
153.7111809904249
 21
376.072577192049
 31
0.0
  0
LINE
  5
DB6
330
1E
100
AcDbEntity
  8
STEMPEL
100
AcDbLine
 10
149.036180990425
 20
381.6725771920492
 30
0.0
 11
149.036180990425
 21
376.072577192049
 31
0.0
  0
ARC
  5
DB7
330
1E
100
AcDbEntity
  8
STEMPEL
100
AcDbCircle
 10
144.3611809904248
 20
386.5003896920486
 30
0.0
 40
11.42781249999961
100
AcDbArc
 50
245.8523381301012
 51
294.1476618698995
  0
ARC
  5
DB8
330
1E
100
AcDbEntity
  8
STEMPEL
100
AcDbCircle
 10
151.3736809904249
 20
378.304530317049
 30
0.0
 40
3.231953125000015
100
AcDbArc
 50
223.6767967281013
 51
316.3232032718999
  0
LINE
  5
DB9
330
1E
100
AcDbEntity
  8
STEMPEL
100
AcDbLine
 10
154.861180990425
 20
375.072577192049
 30
0.0
 11
154.861180990425
 21
373.072577192049
 31
0.0
  0
ARC
  5
DBA
330
1E
100
AcDbEntity
  8
STEMPEL
100
AcDbCircle
 10
144.3611809904248
 20
371.2447646920495
 30
0.0
 40
11.42781249999961
100
AcDbArc
 50
65.85233813010053
 51
114.1476618698988
  0
ARC
  5
DBB
330
1E
100
AcDbEntity
  8
STEMPEL
100
AcDbCircle
 10
151.3736809904249
 20
379.4406240670491
 30
0.0
 40
3.231953125000015
100
AcDbArc
 50
43.67679672810011
 51
136.3232032718987
  0
LINE
  5
DBC
330
1E
100
AcDbEntity
  8
MITTEL
100
AcDbLine
 10
144.3611809904248
 20
393.5630714790333
 30
0.0
 11
144.3611809904248
 21
364.0725771920487
 31
0.0
  0
LINE
  5
DBD
330
1E
100
AcDbEntity
  8
MITTEL
100
AcDbLine
 10
302.7530999762114
 20
393.5630714790333
 30
0.0
 11
302.7530999762114
 21
364.0725771920487
 31
0.0
  0
LINE
  5
DBE
330
1E
100
AcDbEntity
  8
HILF
100
AcDbLine
 10
298.7530999762115
 20
367.0725771920487
 30
0.0
 11
298.7530999762114
 21
364.0725771920487
 31
0.0
  0
LINE
  5
DBF
330
1E
100
AcDbEntity
  8
STEMPEL
100
AcDbLine
 10
297.7530999762114
 20
367.0725771920487
 30
0.0
 11
297.7530999762114
 21
364.1080686659695
 31
0.0
  0
LINE
  5
DC0
330
1E
100
AcDbEntity
  8
STEMPEL
100
AcDbLine
 10
307.7530999762114
 20
367.0725771920487
 30
0.0
 11
307.7530999762114
 21
364.0725771920487
 31
0.0
  0
LINE
  5
DC1
330
1E
100
AcDbEntity
  8
HILF
100
AcDbLine
 10
306.7530999762115
 20
367.0725771920487
 30
0.0
 11
306.7530999762114
 21
364.0725771920487
 31
0.0
  0
ARC
  5
DC2
330
1E
100
AcDbEntity
  8
STEMPEL
100
AcDbCircle
 10
295.7405999762114
 20
379.4406240670491
 30
0.0
 40
3.231953125000015
100
AcDbArc
 50
43.67679672810129
 51
136.3232032718999
  0
ARC
  5
DC3
330
1E
100
AcDbEntity
  8
STEMPEL
100
AcDbCircle
 10
302.7530999762114
 20
371.2447646920495
 30
0.0
 40
11.42781249999961
100
AcDbArc
 50
65.8523381301012
 51
114.1476618698994
  0
LINE
  5
DC4
330
1E
100
AcDbEntity
  8
STEMPEL
100
AcDbLine
 10
292.2530999762112
 20
375.072577192049
 30
0.0
 11
292.2530999762112
 21
373.072577192049
 31
0.0
  0
ARC
  5
DC5
330
1E
100
AcDbEntity
  8
STEMPEL
100
AcDbCircle
 10
295.7405999762114
 20
378.304530317049
 30
0.0
 40
3.231953125000015
100
AcDbArc
 50
223.6767967281001
 51
316.3232032718987
  0
ARC
  5
DC6
330
1E
100
AcDbEntity
  8
STEMPEL
100
AcDbCircle
 10
302.7530999762114
 20
386.5003896920486
 30
0.0
 40
11.42781249999961
100
AcDbArc
 50
245.8523381301005
 51
294.1476618698988
  0
LINE
  5
DC7
330
1E
100
AcDbEntity
  8
STEMPEL
100
AcDbLine
 10
298.0780999762112
 20
381.6725771920492
 30
0.0
 11
298.0780999762112
 21
376.072577192049
 31
0.0
  0
LINE
  5
DC8
330
1E
100
AcDbEntity
  8
STEMPEL
100
AcDbLine
 10
293.4030999762113
 20
381.672577192049
 30
0.0
 11
293.4030999762113
 21
376.072577192049
 31
0.0
  0
LINE
  5
DC9
330
1E
100
AcDbEntity
  8
STEMPEL
100
AcDbLine
 10
307.4280999762111
 20
381.6725771920494
 30
0.0
 11
307.4280999762113
 21
376.0725771920486
 31
0.0
  0
LINE
  5
DCA
330
1E
100
AcDbEntity
  8
STEMPEL
100
AcDbLine
 10
313.2530999762112
 20
375.072577192049
 30
0.0
 11
313.2530999762112
 21
373.072577192049
 31
0.0
  0
LINE
  5
DCB
330
1E
100
AcDbEntity
  8
STEMPEL
100
AcDbLine
 10
312.1030999762111
 20
381.6725771920496
 30
0.0
 11
312.1030999762113
 21
376.0725771920486
 31
0.0
  0
LINE
  5
DCC
330
1E
100
AcDbEntity
  8
STEMPEL
100
AcDbLine
 10
309.7655999762112
 20
382.6725771920492
 30
0.0
 11
295.7405999762111
 21
382.6725771920492
 31
0.0
  0
ARC
  5
DCD
330
1E
100
AcDbEntity
  8
STEMPEL
100
AcDbCircle
 10
309.7655999762112
 20
379.4406240670494
 30
0.0
 40
3.231953125000015
100
AcDbArc
 50
43.67679672810129
 51
136.3232032718999
  0
ARC
  5
DCE
330
1E
100
AcDbEntity
  8
STEMPEL
100
AcDbCircle
 10
309.7655999762112
 20
378.3045303170486
 30
0.0
 40
3.231953125000015
100
AcDbArc
 50
223.6767967281001
 51
316.3232032718987
  0
LINE
  5
DCF
330
1E
100
AcDbEntity
  8
STEMPEL
100
AcDbLine
 10
313.2530999762112
 20
375.0725771920493
 30
0.0
 11
292.2530999762112
 21
375.072577192049
 31
0.0
  0
LINE
  5
DD0
330
1E
100
AcDbEntity
  8
STEMPEL
100
AcDbLine
 10
297.7530999762114
 20
388.0725771920487
 30
0.0
 11
298.7530999762114
 21
389.0725771920487
 31
0.0
  0
LINE
  5
DD1
330
1E
100
AcDbEntity
  8
STEMPEL
100
AcDbLine
 10
297.7530999762114
 20
388.0725771920487
 30
0.0
 11
297.7530999762114
 21
382.6725771920492
 31
0.0
  0
LINE
  5
DD2
330
1E
100
AcDbEntity
  8
HILF
100
AcDbLine
 10
298.7530999762114
 20
389.0725771920487
 30
0.0
 11
298.7530999762114
 21
382.6725771920492
 31
0.0
  0
LINE
  5
DD3
330
1E
100
AcDbEntity
  8
STEMPEL
100
AcDbLine
 10
306.7530999762114
 20
389.0725771920487
 30
0.0
 11
307.7530999762114
 21
388.0725771920487
 31
0.0
  0
LINE
  5
DD4
330
1E
100
AcDbEntity
  8
STEMPEL
100
AcDbLine
 10
307.7530999762114
 20
388.0725771920487
 30
0.0
 11
307.7530999762114
 21
382.6725771920492
 31
0.0
  0
LINE
  5
DD5
330
1E
100
AcDbEntity
  8
HILF
100
AcDbLine
 10
306.7530999762114
 20
389.0725771920487
 30
0.0
 11
306.7530999762114
 21
382.6725771920492
 31
0.0
  0
LINE
  5
DD6
330
1E
100
AcDbEntity
  8
STEMPEL
100
AcDbLine
 10
307.7530999762114
 20
388.0725771920489
 30
0.0
 11
297.7530999762114
 21
388.0725771920489
 31
0.0
  0
LINE
  5
DD7
330
1E
100
AcDbEntity
  8
STEMPEL
100
AcDbLine
 10
298.7530999762114
 20
389.0725771920487
 30
0.0
 11
306.7530999762114
 21
389.0725771920487
 31
0.0
  0
LINE
  5
DD8
330
1E
100
AcDbEntity
  8
STEMPEL
100
AcDbLine
 10
283.3071404833179
 20
382.7524182791478
 30
0.0
 11
283.3071404833179
 21
382.6938975356071
 31
0.0
  0
LINE
  5
DD9
330
1E
100
AcDbEntity
  8
STEMPEL
100
AcDbLine
 10
278.6784608268777
 20
382.6938975356071
 30
0.0
 11
283.3071404833179
 21
382.6938975356071
 31
0.0
  0
ARC
  5
DDA
330
1E
100
AcDbEntity
  8
STEMPEL
100
AcDbCircle
 10
279.3071404833179
 20
382.7524182791478
 30
0.0
 40
4.0
100
AcDbArc
 50
0.0
 51
31.85429407935322
  0
LINE
  5
DDB
330
1E
100
AcDbEntity
  8
STEMPEL
100
AcDbLine
 10
282.7047123339438
 20
384.8634619830619
 30
0.0
 11
280.1435054023441
 21
388.985538924575
 31
0.0
  0
LINE
  5
DDC
330
1E
100
AcDbEntity
  8
STEMPEL
100
AcDbLine
 10
283.3071404833179
 20
372.1938975356072
 30
0.0
 11
283.3071404833179
 21
371.1938975356072
 31
0.0
  0
LINE
  5
DDD
330
1E
100
AcDbEntity
  8
STEMPEL
100
AcDbLine
 10
283.3071404833179
 20
372.1938975356072
 30
0.0
 11
281.0614711496556
 21
374.4395668692696
 31
0.0
  0
LINE
  5
DDE
330
1E
100
AcDbEntity
  8
STEMPEL
100
AcDbLine
 10
281.3071404833179
 20
369.1938975356072
 30
0.0
 11
281.3071404833179
 21
368.5910118526372
 31
0.0
  0
LINE
  5
DDF
330
1E
100
AcDbEntity
  8
STEMPEL
100
AcDbLine
 10
281.5571404833179
 20
364.6938975356072
 30
0.0
 11
280.1567254068985
 21
366.6938975356072
 31
0.0
  0
LINE
  5
DE0
330
1E
100
AcDbEntity
  8
STEMPEL
100
AcDbLine
 10
283.5571404833179
 20
364.6938975356072
 30
0.0
 11
281.3071404833179
 21
368.5910118526372
 31
0.0
  0
LINE
  5
DE1
330
1E
100
AcDbEntity
  8
STEMPEL
100
AcDbLine
 10
283.3071404833179
 20
371.1938975356072
 30
0.0
 11
281.3071404833179
 21
369.1938975356072
 31
0.0
  0
LINE
  5
DE2
330
1E
100
AcDbEntity
  8
STEMPEL
100
AcDbLine
 10
274.3571404833179
 20
383.4938975356072
 30
0.0
 11
277.4205272189258
 21
388.582126103261
 31
0.0
  0
ARC
  5
DE3
330
1E
100
AcDbEntity
  8
STEMPEL
100
AcDbCircle
 10
273.0571404833179
 20
367.6938975356072
 30
0.0
 40
5.0
100
AcDbArc
 50
285.0700621448882
 51
348.4630409671819
  0
LINE
  5
DE4
330
1E
100
AcDbEntity
  8
STEMPEL
100
AcDbLine
 10
277.956119968884
 20
366.6938975356072
 30
0.0
 11
280.1567254068985
 21
366.6938975356072
 31
0.0
  0
LINE
  5
DE5
330
1E
100
AcDbEntity
  8
STEMPEL
100
AcDbLine
 10
277.0571404833179
 20
364.6938975356072
 30
0.0
 11
283.5571404833179
 21
364.6938975356072
 31
0.0
  0
LINE
  5
DE6
330
1E
100
AcDbEntity
  8
STEMPEL
100
AcDbLine
 10
280.1294535806108
 20
377.000264094755
 30
0.0
 11
281.0614711496556
 21
374.4395668692696
 31
0.0
  0
ARC
  5
DE7
330
1E
100
AcDbEntity
  8
STEMPEL
100
AcDbCircle
 10
278.8694159583594
 20
388.1938975356072
 30
0.0
 40
1.5
100
AcDbArc
 50
31.85429407935322
 51
164.9999999999992
  0
LINE
  5
DE8
330
1E
100
AcDbEntity
  8
STEMPEL
100
AcDbLine
 10
274.3571404833179
 20
389.6938975356072
 30
0.0
 11
278.8694159583594
 21
389.6938975356072
 31
0.0
  0
ARC
  5
DE9
330
1E
100
AcDbEntity
  8
STEMPEL
100
AcDbCircle
 10
168.2448650082766
 20
388.1938975356072
 30
0.0
 40
1.5
100
AcDbArc
 50
15.00000000000074
 51
148.1457059206467
  0
LINE
  5
DEA
330
1E
100
AcDbEntity
  8
STEMPEL
100
AcDbLine
 10
172.7571404833179
 20
383.4938975356072
 30
0.0
 11
169.6937537477102
 21
388.582126103261
 31
0.0
  0
LINE
  5
DEB
330
1E
100
AcDbEntity
  8
STEMPEL
100
AcDbLine
 10
164.4095686326921
 20
384.8634619830619
 30
0.0
 11
166.9707755642919
 21
388.985538924575
 31
0.0
  0
LINE
  5
DEC
330
1E
100
AcDbEntity
  8
STEMPEL
100
AcDbLine
 10
166.9848273860254
 20
377.0002640947557
 30
0.0
 11
166.0528098169804
 21
374.4395668692696
 31
0.0
  0
LINE
  5
DED
330
1E
100
AcDbEntity
  8
STEMPEL
100
AcDbLine
 10
163.8071404833179
 20
382.7524182791478
 30
0.0
 11
163.8071404833179
 21
382.6938975356071
 31
0.0
  0
LINE
  5
DEE
330
1E
100
AcDbEntity
  8
STEMPEL
100
AcDbLine
 10
163.8071404833179
 20
372.1938975356072
 30
0.0
 11
163.8071404833179
 21
371.1938975356072
 31
0.0
  0
LINE
  5
DEF
330
1E
100
AcDbEntity
  8
STEMPEL
100
AcDbLine
 10
163.8071404833179
 20
372.1938975356072
 30
0.0
 11
166.0528098169804
 21
374.4395668692696
 31
0.0
  0
ARC
  5
DF0
330
1E
100
AcDbEntity
  8
STEMPEL
100
AcDbCircle
 10
167.8071404833179
 20
382.7524182791478
 30
0.0
 40
4.0
100
AcDbArc
 50
148.1457059206467
 51
180.0
  0
LINE
  5
DF1
330
1E
100
AcDbEntity
  8
STEMPEL
100
AcDbLine
 10
168.4358201397573
 20
382.6938975356071
 30
0.0
 11
163.8071404833179
 21
382.6938975356071
 31
0.0
  0
LINE
  5
DF2
330
1E
100
AcDbEntity
  8
STEMPEL
100
AcDbLine
 10
165.8071404833179
 20
369.1938975356072
 30
0.0
 11
165.8071404833179
 21
368.5910118526372
 31
0.0
  0
LINE
  5
DF3
330
1E
100
AcDbEntity
  8
STEMPEL
100
AcDbLine
 10
165.5571404833179
 20
364.6938975356072
 30
0.0
 11
166.9575555597374
 21
366.6938975356072
 31
0.0
  0
LINE
  5
DF4
330
1E
100
AcDbEntity
  8
STEMPEL
100
AcDbLine
 10
169.1581609977519
 20
366.6938975356072
 30
0.0
 11
166.9575555597374
 21
366.6938975356072
 31
0.0
  0
ARC
  5
DF5
330
1E
100
AcDbEntity
  8
STEMPEL
100
AcDbCircle
 10
174.0571404833179
 20
367.6938975356072
 30
0.0
 40
5.0
100
AcDbArc
 50
191.5369590328181
 51
254.9299378551102
  0
LINE
  5
DF6
330
1E
100
AcDbEntity
  8
STEMPEL
100
AcDbLine
 10
170.0571404833179
 20
364.6938975356072
 30
0.0
 11
163.5571404833179
 21
364.6938975356072
 31
0.0
  0
LINE
  5
DF7
330
1E
100
AcDbEntity
  8
STEMPEL
100
AcDbLine
 10
163.5571404833179
 20
364.6938975356072
 30
0.0
 11
165.8071404833179
 21
368.5910118526372
 31
0.0
  0
LINE
  5
DF8
330
1E
100
AcDbEntity
  8
STEMPEL
100
AcDbLine
 10
163.8071404833179
 20
371.1938975356072
 30
0.0
 11
165.8071404833179
 21
369.1938975356072
 31
0.0
  0
LINE
  5
DF9
330
1E
100
AcDbEntity
  8
STEMPEL
100
AcDbLine
 10
172.7571404833179
 20
389.6938975356071
 30
0.0
 11
168.2448650082766
 21
389.6938975356072
 31
0.0
  0
LINE
  5
DFA
330
1E
100
AcDbEntity
  8
MITTEL
100
AcDbLine
 10
335.5571404833181
 20
393.5630714790333
 30
0.0
 11
335.5571404833181
 21
364.0725771920487
 31
0.0
  0
LINE
  5
DFB
330
1E
100
AcDbEntity
  8
STEMPEL
100
AcDbLine
 10
330.5571404833181
 20
373.0725771920489
 30
0.0
 11
330.5571404833181
 21
364.0725771920487
 31
0.0
  0
LINE
  5
DFC
330
1E
100
AcDbEntity
  8
HILF
100
AcDbLine
 10
331.5571404833181
 20
373.0725771920489
 30
0.0
 11
331.5571404833181
 21
364.0725771920487
 31
0.0
  0
LINE
  5
DFD
330
1E
100
AcDbEntity
  8
HILF
100
AcDbLine
 10
339.5571404833181
 20
373.0725771920489
 30
0.0
 11
339.5571404833181
 21
364.0725771920487
 31
0.0
  0
LINE
  5
DFE
330
1E
100
AcDbEntity
  8
STEMPEL
100
AcDbLine
 10
340.5571404833181
 20
373.0725771920489
 30
0.0
 11
340.5571404833181
 21
364.0725771920487
 31
0.0
  0
LINE
  5
DFF
330
1E
100
AcDbEntity
  8
STEMPEL
100
AcDbLine
 10
331.5571404833181
 20
389.0725771920487
 30
0.0
 11
339.5571404833181
 21
389.0725771920487
 31
0.0
  0
LINE
  5
E00
330
1E
100
AcDbEntity
  8
STEMPEL
100
AcDbLine
 10
340.5571404833181
 20
388.0725771920489
 30
0.0
 11
330.5571404833181
 21
388.0725771920489
 31
0.0
  0
LINE
  5
E01
330
1E
100
AcDbEntity
  8
HILF
100
AcDbLine
 10
339.5571404833181
 20
389.0725771920487
 30
0.0
 11
339.5571404833181
 21
382.6725771920492
 31
0.0
  0
LINE
  5
E02
330
1E
100
AcDbEntity
  8
STEMPEL
100
AcDbLine
 10
340.5571404833181
 20
388.0725771920487
 30
0.0
 11
340.5571404833181
 21
382.6725771920492
 31
0.0
  0
LINE
  5
E03
330
1E
100
AcDbEntity
  8
STEMPEL
100
AcDbLine
 10
339.5571404833181
 20
389.0725771920487
 30
0.0
 11
340.5571404833181
 21
388.0725771920487
 31
0.0
  0
LINE
  5
E04
330
1E
100
AcDbEntity
  8
HILF
100
AcDbLine
 10
331.5571404833181
 20
389.0725771920487
 30
0.0
 11
331.5571404833181
 21
382.6725771920492
 31
0.0
  0
LINE
  5
E05
330
1E
100
AcDbEntity
  8
STEMPEL
100
AcDbLine
 10
330.5571404833181
 20
388.0725771920487
 30
0.0
 11
330.5571404833181
 21
382.6725771920492
 31
0.0
  0
LINE
  5
E06
330
1E
100
AcDbEntity
  8
STEMPEL
100
AcDbLine
 10
330.5571404833181
 20
388.0725771920487
 30
0.0
 11
331.5571404833181
 21
389.0725771920487
 31
0.0
  0
LINE
  5
E07
330
1E
100
AcDbEntity
  8
STEMPEL
100
AcDbLine
 10
346.0571404833179
 20
375.0725771920493
 30
0.0
 11
325.0571404833179
 21
375.072577192049
 31
0.0
  0
ARC
  5
E08
330
1E
100
AcDbEntity
  8
STEMPEL
100
AcDbCircle
 10
342.5696404833179
 20
378.3045303170486
 30
0.0
 40
3.231953125000015
100
AcDbArc
 50
223.6767967281001
 51
316.3232032718987
  0
ARC
  5
E09
330
1E
100
AcDbEntity
  8
STEMPEL
100
AcDbCircle
 10
342.5696404833179
 20
379.4406240670494
 30
0.0
 40
3.231953125000015
100
AcDbArc
 50
43.67679672810129
 51
136.3232032718999
  0
LINE
  5
E0A
330
1E
100
AcDbEntity
  8
STEMPEL
100
AcDbLine
 10
342.5696404833179
 20
382.6725771920492
 30
0.0
 11
328.5446404833178
 21
382.6725771920492
 31
0.0
  0
LINE
  5
E0B
330
1E
100
AcDbEntity
  8
STEMPEL
100
AcDbLine
 10
344.9071404833178
 20
381.6725771920496
 30
0.0
 11
344.907140483318
 21
376.0725771920486
 31
0.0
  0
LINE
  5
E0C
330
1E
100
AcDbEntity
  8
STEMPEL
100
AcDbLine
 10
346.0571404833179
 20
375.072577192049
 30
0.0
 11
346.0571404833179
 21
373.072577192049
 31
0.0
  0
LINE
  5
E0D
330
1E
100
AcDbEntity
  8
STEMPEL
100
AcDbLine
 10
340.2321404833178
 20
381.6725771920494
 30
0.0
 11
340.2321404833178
 21
376.0725771920486
 31
0.0
  0
LINE
  5
E0E
330
1E
100
AcDbEntity
  8
STEMPEL
100
AcDbLine
 10
326.2071404833177
 20
381.672577192049
 30
0.0
 11
326.2071404833177
 21
376.072577192049
 31
0.0
  0
LINE
  5
E0F
330
1E
100
AcDbEntity
  8
STEMPEL
100
AcDbLine
 10
330.8821404833179
 20
381.6725771920492
 30
0.0
 11
330.8821404833179
 21
376.072577192049
 31
0.0
  0
ARC
  5
E10
330
1E
100
AcDbEntity
  8
STEMPEL
100
AcDbCircle
 10
335.5571404833181
 20
386.5003896920486
 30
0.0
 40
11.42781249999961
100
AcDbArc
 50
245.8523381301005
 51
294.1476618698988
  0
ARC
  5
E11
330
1E
100
AcDbEntity
  8
STEMPEL
100
AcDbCircle
 10
328.5446404833178
 20
378.304530317049
 30
0.0
 40
3.231953125000015
100
AcDbArc
 50
223.6767967281001
 51
316.3232032718987
  0
LINE
  5
E12
330
1E
100
AcDbEntity
  8
STEMPEL
100
AcDbLine
 10
325.0571404833179
 20
375.072577192049
 30
0.0
 11
325.0571404833179
 21
373.072577192049
 31
0.0
  0
ARC
  5
E13
330
1E
100
AcDbEntity
  8
STEMPEL
100
AcDbCircle
 10
335.5571404833181
 20
371.2447646920495
 30
0.0
 40
11.42781249999961
100
AcDbArc
 50
65.8523381301012
 51
114.1476618698994
  0
ARC
  5
E14
330
1E
100
AcDbEntity
  8
STEMPEL
100
AcDbCircle
 10
328.5446404833178
 20
379.4406240670491
 30
0.0
 40
3.231953125000015
100
AcDbArc
 50
43.67679672810129
 51
136.3232032718999
  0
LINE
  5
E15
330
1E
100
AcDbEntity
  8
STEMPEL
100
AcDbLine
 10
106.5571404833181
 20
373.0725771920489
 30
0.0
 11
106.5571404833181
 21
364.0725771920487
 31
0.0
  0
LINE
  5
E16
330
1E
100
AcDbEntity
  8
HILF
100
AcDbLine
 10
107.5571404833181
 20
373.0725771920489
 30
0.0
 11
107.5571404833181
 21
364.0725771920487
 31
0.0
  0
LINE
  5
E17
330
1E
100
AcDbEntity
  8
HILF
100
AcDbLine
 10
115.5571404833181
 20
373.0725771920489
 30
0.0
 11
115.5571404833181
 21
364.0725771920487
 31
0.0
  0
LINE
  5
E18
330
1E
100
AcDbEntity
  8
STEMPEL
100
AcDbLine
 10
116.5571404833181
 20
373.0725771920489
 30
0.0
 11
116.5571404833181
 21
364.0725771920487
 31
0.0
  0
ARC
  5
E19
330
1E
100
AcDbEntity
  8
STEMPEL
100
AcDbCircle
 10
118.5696404833182
 20
379.4406240670491
 30
0.0
 40
3.231953125000015
100
AcDbArc
 50
43.67679672810011
 51
136.3232032718987
  0
ARC
  5
E1A
330
1E
100
AcDbEntity
  8
STEMPEL
100
AcDbCircle
 10
111.5571404833182
 20
371.2447646920495
 30
0.0
 40
11.42781249999961
100
AcDbArc
 50
65.85233813010053
 51
114.1476618698988
  0
LINE
  5
E1B
330
1E
100
AcDbEntity
  8
STEMPEL
100
AcDbLine
 10
122.0571404833183
 20
375.072577192049
 30
0.0
 11
122.0571404833183
 21
373.072577192049
 31
0.0
  0
ARC
  5
E1C
330
1E
100
AcDbEntity
  8
STEMPEL
100
AcDbCircle
 10
118.5696404833182
 20
378.304530317049
 30
0.0
 40
3.231953125000015
100
AcDbArc
 50
223.6767967281013
 51
316.3232032718999
  0
ARC
  5
E1D
330
1E
100
AcDbEntity
  8
STEMPEL
100
AcDbCircle
 10
111.5571404833182
 20
386.5003896920486
 30
0.0
 40
11.42781249999961
100
AcDbArc
 50
245.8523381301012
 51
294.1476618698995
  0
LINE
  5
E1E
330
1E
100
AcDbEntity
  8
STEMPEL
100
AcDbLine
 10
116.2321404833183
 20
381.6725771920492
 30
0.0
 11
116.2321404833184
 21
376.072577192049
 31
0.0
  0
LINE
  5
E1F
330
1E
100
AcDbEntity
  8
STEMPEL
100
AcDbLine
 10
120.9071404833183
 20
381.672577192049
 30
0.0
 11
120.9071404833183
 21
376.072577192049
 31
0.0
  0
LINE
  5
E20
330
1E
100
AcDbEntity
  8
STEMPEL
100
AcDbLine
 10
106.8821404833184
 20
381.6725771920494
 30
0.0
 11
106.8821404833182
 21
376.0725771920486
 31
0.0
  0
LINE
  5
E21
330
1E
100
AcDbEntity
  8
STEMPEL
100
AcDbLine
 10
101.0571404833183
 20
375.072577192049
 30
0.0
 11
101.0571404833183
 21
373.072577192049
 31
0.0
  0
LINE
  5
E22
330
1E
100
AcDbEntity
  8
STEMPEL
100
AcDbLine
 10
102.2071404833184
 20
381.6725771920496
 30
0.0
 11
102.2071404833183
 21
376.0725771920486
 31
0.0
  0
LINE
  5
E23
330
1E
100
AcDbEntity
  8
STEMPEL
100
AcDbLine
 10
104.5446404833183
 20
382.6725771920492
 30
0.0
 11
118.5696404833183
 21
382.6725771920492
 31
0.0
  0
ARC
  5
E24
330
1E
100
AcDbEntity
  8
STEMPEL
100
AcDbCircle
 10
104.5446404833183
 20
379.4406240670494
 30
0.0
 40
3.231953125000015
100
AcDbArc
 50
43.67679672810011
 51
136.3232032718987
  0
ARC
  5
E25
330
1E
100
AcDbEntity
  8
STEMPEL
100
AcDbCircle
 10
104.5446404833183
 20
378.3045303170486
 30
0.0
 40
3.231953125000015
100
AcDbArc
 50
223.6767967281013
 51
316.3232032718999
  0
LINE
  5
E26
330
1E
100
AcDbEntity
  8
STEMPEL
100
AcDbLine
 10
101.0571404833183
 20
375.0725771920493
 30
0.0
 11
122.0571404833183
 21
375.072577192049
 31
0.0
  0
LINE
  5
E27
102
{ACAD_REACTORS
330
1114
102
}
330
1E
100
AcDbEntity
  8
STEMPEL
100
AcDbLine
 10
294.2997811704372
 20
367.0725771920487
 30
0.0
 11
330.5571404833181
 21
367.0725771920488
 31
0.0
  0
LINE
  5
E28
102
{ACAD_REACTORS
330
1114
102
}
330
1E
100
AcDbEntity
  8
STEMPEL
100
AcDbLine
 10
288.2997811704363
 20
373.0725771920494
 30
0.0
 11
367.557140483317
 21
373.0725771920494
 31
0.0
  0
LINE
  5
E29
102
{ACAD_REACTORS
330
1114
102
}
330
1E
100
AcDbEntity
  8
STEMPEL
100
AcDbLine
 10
340.5571404833181
 20
367.0725771920488
 30
0.0
 11
367.5571404833172
 21
367.0725771920489
 31
0.0
  0
LINE
  5
E2A
102
{ACAD_REACTORS
330
1114
102
}
330
1E
100
AcDbEntity
  8
STEMPEL
100
AcDbLine
 10
116.5571404833181
 20
367.0725771920489
 30
0.0
 11
152.8144997961981
 21
367.0725771920488
 31
0.0
  0
LINE
  5
E2B
102
{ACAD_REACTORS
330
1114
102
}
330
1E
100
AcDbEntity
  8
STEMPEL
100
AcDbLine
 10
79.5571404833172
 20
373.0725771920489
 30
0.0
 11
158.8144997961987
 21
373.0725771920492
 31
0.0
  0
LINE
  5
E2D
102
{ACAD_REACTORS
330
1114
102
}
330
1E
100
AcDbEntity
  8
STEMPEL
100
AcDbLine
 10
342.5571404833172
 20
367.0725771920489
 30
0.0
 11
342.5571404833172
 21
373.072577192049
 31
0.0
  0
LINE
  5
E2E
102
{ACAD_REACTORS
330
1114
102
}
330
1E
100
AcDbEntity
  8
STEMPEL
100
AcDbLine
 10
328.5571404833172
 20
367.0725771920489
 30
0.0
 11
328.5571404833172
 21
373.072577192049
 31
0.0
  0
LINE
  5
E2F
102
{ACAD_REACTORS
330
1114
102
}
330
1E
100
AcDbEntity
  8
STEMPEL
100
AcDbLine
 10
368.5571404833172
 20
368.0725771920489
 30
0.0
 11
367.5571404833172
 21
367.0725771920489
 31
0.0
  0
LINE
  5
E30
102
{ACAD_REACTORS
330
1114
102
}
330
1E
100
AcDbEntity
  8
STEMPEL
100
AcDbLine
 10
368.5571404833172
 20
372.0725771920492
 30
0.0
 11
367.5571404833172
 21
373.0725771920492
 31
0.0
  0
LINE
  5
E31
102
{ACAD_REACTORS
330
1114
102
}
330
1E
100
AcDbEntity
  8
STEMPEL
100
AcDbLine
 10
368.5571404833172
 20
368.0725771920489
 30
0.0
 11
368.5571404833172
 21
372.0725771920492
 31
0.0
  0
LINE
  5
E32
102
{ACAD_REACTORS
330
1114
102
}
330
1E
100
AcDbEntity
  8
STEMPEL
100
AcDbLine
 10
144.5571404833172
 20
368.0725771920489
 30
0.0
 11
143.5571404833172
 21
367.0725771920489
 31
0.0
  0
LINE
  5
E33
102
{ACAD_REACTORS
330
1114
102
}
330
1E
100
AcDbEntity
  8
STEMPEL
100
AcDbLine
 10
143.5571404833172
 20
373.072577192049
 30
0.0
 11
144.5571404833172
 21
372.072577192049
 31
0.0
  0
LINE
  5
E34
102
{ACAD_REACTORS
330
1114
102
}
330
1E
100
AcDbEntity
  8
STEMPEL
100
AcDbLine
 10
302.5571404833172
 20
368.0725771920489
 30
0.0
 11
303.5571404833172
 21
367.0725771920489
 31
0.0
  0
LINE
  5
E35
102
{ACAD_REACTORS
330
1114
102
}
330
1E
100
AcDbEntity
  8
STEMPEL
100
AcDbLine
 10
303.5571404833172
 20
373.0725771920492
 30
0.0
 11
302.5571404833172
 21
372.0725771920492
 31
0.0
  0
LINE
  5
E36
102
{ACAD_REACTORS
330
1114
102
}
330
1E
100
AcDbEntity
  8
STEMPEL
100
AcDbLine
 10
78.55714048331719
 20
368.0725771920489
 30
0.0
 11
79.5571404833172
 21
367.0725771920489
 31
0.0
  0
LINE
  5
E37
102
{ACAD_REACTORS
330
1114
102
}
330
1E
100
AcDbEntity
  8
STEMPEL
100
AcDbLine
 10
79.5571404833172
 20
373.0725771920489
 30
0.0
 11
78.55714048331719
 21
372.0725771920489
 31
0.0
  0
LINE
  5
E38
102
{ACAD_REACTORS
330
1114
102
}
330
1E
100
AcDbEntity
  8
STEMPEL
100
AcDbLine
 10
78.55714048331719
 20
372.0725771920489
 30
0.0
 11
78.55714048331719
 21
368.0725771920489
 31
0.0
  0
LINE
  5
E39
102
{ACAD_REACTORS
330
1114
102
}
330
1E
100
AcDbEntity
  8
STEMPEL
100
AcDbLine
 10
302.5571404833172
 20
368.0725771920489
 30
0.0
 11
302.5571404833172
 21
372.0725771920492
 31
0.0
  0
LINE
  5
E3A
102
{ACAD_REACTORS
330
1114
102
}
330
1E
100
AcDbEntity
  8
STEMPEL
100
AcDbLine
 10
144.5571404833172
 20
368.0725771920489
 30
0.0
 11
144.5571404833172
 21
372.072577192049
 31
0.0
  0
LINE
  5
E3B
102
{ACAD_REACTORS
330
1114
102
}
330
1E
100
AcDbEntity
  8
STEMPEL
100
AcDbLine
 10
118.5571404833172
 20
367.0725771920489
 30
0.0
 11
118.5571404833172
 21
373.072577192049
 31
0.0
  0
LINE
  5
E3C
102
{ACAD_REACTORS
330
1114
102
}
330
1E
100
AcDbEntity
  8
STEMPEL
100
AcDbLine
 10
104.5571404833172
 20
367.0725771920489
 30
0.0
 11
104.5571404833172
 21
373.072577192049
 31
0.0
  0
LINE
  5
E3D
102
{ACAD_REACTORS
330
1114
102
}
330
1E
100
AcDbEntity
  8
STEMPEL
100
AcDbLine
 10
79.5571404833172
 20
367.0725771920489
 30
0.0
 11
106.5571404833181
 21
367.0725771920489
 31
0.0
  0
HATCH
  5
E3E
330
1E
100
AcDbEntity
  8
SCHRAFF
100
AcDbHatch
 10
0.0
 20
0.0
 30
0.0
210
0.0
220
0.0
230
1.0
  2
_USER
 70
     0
 71
     0
 91
        2
 92
        7
 72
     1
 73
     1
 93
        9
 10
170.5571404833173
 20
380.5725771920474
 42
0.0
 10
168.4358201397575
 20
382.6938975356071
 42
0.0
 10
150.4002862338245
 20
364.6583636296756
 42
-0.1989123673796237
 10
148.9860726714517
 20
364.0725771920492
 42
0.0
 10
79.5571404833181
 20
364.0725771920494
 42
0.0
 10
78.55714048331811
 20
363.0725771920494
 42
0.0
 10
78.55714048331811
 20
361.0725771920503
 42
0.0
 10
148.9860726714517
 20
361.0725771920499
 42
0.1989123673797055
 10
152.5216065773854
 20
362.537043286117
 42
0.0
 97
        0
 92
        7
 72
     1
 73
     1
 93
        9
 10
367.557140483319
 20
364.0725771920482
 42
0.0
 10
298.1282082951837
 20
364.0725771920487
 42
-0.1989123673796506
 10
296.7139947328107
 20
364.6583636296756
 42
0.0
 10
278.6784608268777
 20
382.6938975356073
 42
0.0
 10
276.5571404833181
 20
380.5725771920476
 42
0.0
 10
294.5926743892511
 20
362.5370432861158
 42
0.1989123673796418
 10
298.1282082951836
 20
361.0725771920489
 42
0.0
 10
368.5571404833181
 20
361.0725771920485
 42
0.0
 10
368.5571404833181
 20
363.0725771920495
 42
0.0
 97
        0
 75
     0
 76
     0
 52
135.0
 41
2.0
 77
     0
 78
     1
 53
135.0
 43
20.74599392659184
 44
-170.8578023697081
 45
-1.414213562373095
 46
-1.414213562373094
 79
     0
 47
0.4066471926477464
 98
        2
 10
130.8842573199285
 20
362.6724040387945
 10
317.6768430753077
 20
363.4856983142159
  0
LINE
  5
E3F
330
1E
100
AcDbEntity
  8
STEMPEL
100
AcDbLine
 10
298.1282082951837
 20
364.0725771920486
 30
0.0
 11
367.557140483319
 21
364.0725771920485
 31
0.0
  0
LINE
  5
E40
330
1E
100
AcDbEntity
  8
STEMPEL
100
AcDbLine
 10
150.4002862338245
 20
364.6583636296756
 30
0.0
 11
168.4358201397576
 21
382.6938975356073
 31
0.0
  0
LINE
  5
E41
330
1E
100
AcDbEntity
  8
STEMPEL
  6
STRICHPUNKT
100
AcDbLine
 10
170.5571404833172
 20
380.5725771920476
 30
0.0
 11
168.4358201397576
 21
382.6938975356073
 31
0.0
  0
LINE
  5
E42
330
1E
100
AcDbEntity
  8
STEMPEL
100
AcDbLine
 10
152.5216065773842
 20
362.5370432861158
 30
0.0
 11
170.5571404833173
 21
380.5725771920474
 31
0.0
  0
ARC
  5
E43
330
1E
100
AcDbEntity
  8
STEMPEL
100
AcDbCircle
 10
148.9860726714517
 20
366.0725771920487
 30
0.0
 40
5.0
100
AcDbArc
 50
270.0
 51
315.0
  0
ARC
  5
E44
330
1E
100
AcDbEntity
  8
STEMPEL
100
AcDbCircle
 10
148.9860726714517
 20
366.0725771920487
 30
0.0
 40
2.0
100
AcDbArc
 50
270.0
 51
315.0
  0
LINE
  5
E45
330
1E
100
AcDbEntity
  8
STEMPEL
100
AcDbLine
 10
294.5926743892512
 20
362.5370432861158
 30
0.0
 11
276.5571404833181
 21
380.5725771920476
 31
0.0
  0
LINE
  5
E46
330
1E
100
AcDbEntity
  8
STEMPEL
100
AcDbLine
 10
296.7139947328107
 20
364.6583636296756
 30
0.0
 11
278.6784608268777
 21
382.6938975356071
 31
0.0
  0
ARC
  5
E47
330
1E
100
AcDbEntity
  8
STEMPEL
100
AcDbCircle
 10
298.1282082951837
 20
366.0725771920487
 30
0.0
 40
2.0
100
AcDbArc
 50
225.0
 51
270.0
  0
ARC
  5
E48
330
1E
100
AcDbEntity
  8
STEMPEL
100
AcDbCircle
 10
298.1282082951837
 20
366.0725771920487
 30
0.0
 40
5.0
100
AcDbArc
 50
225.0
 51
270.0
  0
LINE
  5
E49
330
1E
100
AcDbEntity
  8
STEMPEL
  6
STRICHPUNKT
100
AcDbLine
 10
276.5571404833181
 20
380.5725771920476
 30
0.0
 11
278.6784608268777
 21
382.6938975356073
 31
0.0
  0
LINE
  5
E4A
330
1E
100
AcDbEntity
  8
STEMPEL
100
AcDbLine
 10
368.5571404833181
 20
363.0725771920494
 30
0.0
 11
368.5571404833181
 21
361.0725771920485
 31
0.0
  0
LINE
  5
E4B
330
1E
100
AcDbEntity
  8
STEMPEL
100
AcDbLine
 10
367.557140483319
 20
364.0725771920485
 30
0.0
 11
368.5571404833181
 21
363.0725771920494
 31
0.0
  0
LINE
  5
E4C
330
1E
100
AcDbEntity
  8
STEMPEL
100
AcDbLine
 10
79.5571404833181
 20
364.0725771920494
 30
0.0
 11
78.55714048331811
 21
363.0725771920494
 31
0.0
  0
LINE
  5
E4D
330
1E
100
AcDbEntity
  8
STEMPEL
100
AcDbLine
 10
78.55714048331811
 20
363.0725771920494
 30
0.0
 11
78.55714048331811
 21
361.0725771920494
 31
0.0
  0
DIMENSION
  5
E4E
330
1E
100
AcDbEntity
  8
BEM
100
AcDbDimension
  2
*D2
 10
335.5571404833181
 20
330.649342014784
 30
0.0
 11
223.5571404833181
 21
337.149342014784
 31
0.0
 70
    32
  1
%%c<>
 71
     5
 42
224.0
  3
Standard
100
AcDbAlignedDimension
 13
111.5571404833181
 23
364.0725771920487
 33
0.0
 14
335.5571404833181
 24
364.0725771920487
 34
0.0
100
AcDbRotatedDimension
1001
ACAD
1000
DSTYLE
1002
{
1070
    40
1040
2.0
1070
    41
1040
3.5
1070
    42
1040
1.0
1070
    43
1040
7.0
1070
    44
1040
1.0
1070
    73
1070
     0
1070
    74
1070
     0
1070
    77
1070
     1
1070
    78
1070
     8
1070
    79
1070
     2
1070
   140
1040
3.5
1070
   141
1040
1.5
1070
   146
1040
0.5
1070
   147
1040
1.5
1070
   172
1070
     1
1070
   178
1070
     1
1070
   179
1070
     2
1070
   271
1070
     2
1070
   272
1070
     2
1070
   284
1070
     8
1070
   285
1070
     8
1070
   286
1070
     8
1070
   340
1005
B8B
1002
}
  0
LINE
  5
E4F
330
1E
100
AcDbEntity
  8
STEMPEL
100
AcDbLine
 10
116.5571404833181
 20
388.0725771920487
 30
0.0
 11
115.5571404833181
 21
389.0725771920487
 31
0.0
  0
LINE
  5
E50
330
1E
100
AcDbEntity
  8
MITTEL
100
AcDbLine
 10
111.5571404833181
 20
393.5630714790333
 30
0.0
 11
111.5571404833181
 21
364.0725771920487
 31
0.0
  0
LINE
  5
E51
330
1E
100
AcDbEntity
  8
STEMPEL
100
AcDbLine
 10
116.5571404833181
 20
388.0725771920487
 30
0.0
 11
116.5571404833181
 21
382.6725771920492
 31
0.0
  0
LINE
  5
E52
330
1E
100
AcDbEntity
  8
HILF
100
AcDbLine
 10
115.5571404833181
 20
389.0725771920487
 30
0.0
 11
115.5571404833181
 21
382.6725771920492
 31
0.0
  0
LINE
  5
E53
330
1E
100
AcDbEntity
  8
STEMPEL
100
AcDbLine
 10
107.5571404833181
 20
389.0725771920487
 30
0.0
 11
106.5571404833181
 21
388.0725771920487
 31
0.0
  0
LINE
  5
E54
330
1E
100
AcDbEntity
  8
STEMPEL
100
AcDbLine
 10
106.5571404833181
 20
388.0725771920487
 30
0.0
 11
106.5571404833181
 21
382.6725771920492
 31
0.0
  0
LINE
  5
E55
330
1E
100
AcDbEntity
  8
HILF
100
AcDbLine
 10
107.5571404833181
 20
389.0725771920487
 30
0.0
 11
107.5571404833181
 21
382.6725771920492
 31
0.0
  0
LINE
  5
E56
330
1E
100
AcDbEntity
  8
STEMPEL
100
AcDbLine
 10
106.5571404833181
 20
388.0725771920489
 30
0.0
 11
116.5571404833181
 21
388.0725771920489
 31
0.0
  0
LINE
  5
E57
330
1E
100
AcDbEntity
  8
STEMPEL
100
AcDbLine
 10
115.5571404833181
 20
389.0725771920487
 30
0.0
 11
107.5571404833181
 21
389.0725771920487
 31
0.0
  0
LINE
  5
E58
330
1E
100
AcDbEntity
  8
STEMPEL
100
AcDbLine
 10
78.55714048331811
 20
361.0725771920503
 30
0.0
 11
172.757140483318
 21
361.0725771920497
 31
0.0
  0
DIMENSION
  5
E59
330
1E
100
AcDbEntity
  8
BEM
100
AcDbDimension
  2
*D3
 10
397.5875037944287
 20
361.0725771920484
 30
0.0
 11
397.5875037944287
 21
402.5932622381135
 31
0.0
 70
   160
  1
21.5
 71
     5
 42
21.62132034355864
  3
Standard
100
AcDbAlignedDimension
 13
278.6784608268778
 23
382.6938975356071
 33
0.0
 14
368.5571404833181
 24
361.0725771920485
 34
0.0
 50
90.0
100
AcDbRotatedDimension
1001
ACAD
1000
DSTYLE
1002
{
1070
    40
1040
2.0
1070
    41
1040
3.5
1070
    42
1040
1.0
1070
    43
1040
7.0
1070
    44
1040
1.0
1070
    73
1070
     0
1070
    74
1070
     0
1070
    77
1070
     1
1070
    78
1070
     8
1070
    79
1070
     2
1070
   140
1040
3.5
1070
   141
1040
1.5
1070
   146
1040
0.5
1070
   147
1040
1.5
1070
   172
1070
     1
1070
   178
1070
     1
1070
   179
1070
     2
1070
   271
1070
     1
1070
   272
1070
     2
1070
   284
1070
     8
1070
   285
1070
     8
1070
   286
1070
     8
1070
   340
1005
B8B
1002
}
  0
DIMENSION
  5
E5A
330
1E
100
AcDbEntity
  8
BEM
100
AcDbDimension
  2
*D4
 10
368.5571404833181
 20
314.649342014784
 30
0.0
 11
223.5571404833181
 21
321.149342014784
 31
0.0
 70
    32
  1
%%c<>
 71
     5
 42
290.0
  3
Standard
100
AcDbAlignedDimension
 13
78.55714048331811
 23
361.0725771920494
 33
0.0
 14
368.5571404833181
 24
361.0725771920485
 34
0.0
100
AcDbRotatedDimension
1001
ACAD
1000
DSTYLE
1002
{
1070
    40
1040
2.0
1070
    41
1040
3.5
1070
    42
1040
1.0
1070
    43
1040
7.0
1070
    44
1040
1.0
1070
    73
1070
     0
1070
    74
1070
     0
1070
    77
1070
     1
1070
    78
1070
     8
1070
    79
1070
     2
1070
   140
1040
3.5
1070
   141
1040
1.5
1070
   146
1040
0.5
1070
   147
1040
1.5
1070
   172
1070
     1
1070
   178
1070
     1
1070
   179
1070
     2
1070
   271
1070
     2
1070
   272
1070
     2
1070
   284
1070
     8
1070
   285
1070
     8
1070
   286
1070
     8
1070
   340
1005
B8B
1002
}
  0
LINE
  5
E5B
330
1E
100
AcDbEntity
  8
STEMPEL
100
AcDbLine
 10
79.5571404833181
 20
364.0725771920494
 30
0.0
 11
148.9860726714517
 21
364.0725771920492
 31
0.0
  0
LINE
  5
E5C
330
1E
100
AcDbEntity
  8
STEMPEL
100
AcDbLine
 10
484.0
 20
830.0000000000002
 30
0.0
 11
484.0
 21
470.0000000000001
 31
0.0
  0
LINE
  5
E5D
330
1E
100
AcDbEntity
  8
STEMPEL
100
AcDbLine
 10
484.0
 20
470.0000000000001
 30
0.0
 11
584.0
 21
470.0000000000001
 31
0.0
  0
LINE
  5
E5E
330
1E
100
AcDbEntity
  8
STEMPEL
100
AcDbLine
 10
484.0000000000001
 20
566.0000000000002
 30
0.0
 11
584.0000000000001
 21
566.0000000000001
 31
0.0
  0
LINE
  5
E5F
330
1E
100
AcDbEntity
  8
STEMPEL
100
AcDbLine
 10
484.0
 20
650.0
 30
0.0
 11
584.0
 21
650.0
 31
0.0
  0
LINE
  5
E60
330
1E
100
AcDbEntity
  8
STEMPEL
100
AcDbLine
 10
484.0000000000003
 20
752.0000000000002
 30
0.0
 11
554.0
 21
752.0000000000002
 31
0.0
  0
LINE
  5
E61
330
1E
100
AcDbEntity
  8
STEMPEL
100
AcDbLine
 10
564.0
 20
566.0
 30
0.0
 11
564.0
 21
470.0000000000001
 31
0.0
  0
LINE
  5
E62
330
1E
100
AcDbEntity
  8
STEMPEL
100
AcDbLine
 10
554.0
 20
830.0000000000002
 30
0.0
 11
554.0
 21
566.0000000000001
 31
0.0
  0
LINE
  5
E63
330
1E
100
AcDbEntity
  8
STEMPEL
100
AcDbLine
 10
514.0
 20
830.0000000000002
 30
0.0
 11
514.0
 21
566.0000000000002
 31
0.0
  0
LINE
  5
E64
330
1E
100
AcDbEntity
  8
VOLL
100
AcDbLine
 10
484.0
 20
484.0000000000002
 30
0.0
 11
584.0
 21
484.0000000000001
 31
0.0
  0
LINE
  5
E65
330
1E
100
AcDbEntity
  8
VOLL
100
AcDbLine
 10
484.0000000000001
 20
524.0000000000001
 30
0.0
 11
584.0000000000001
 21
524.0000000000001
 31
0.0
  0
LINE
  5
E66
330
1E
100
AcDbEntity
  8
VOLL
100
AcDbLine
 10
484.0000000000001
 20
544.0000000000002
 30
0.0
 11
584.0000000000001
 21
544.0000000000001
 31
0.0
  0
LINE
  5
E67
330
1E
100
AcDbEntity
  8
VOLL
100
AcDbLine
 10
514.0
 20
584.0000000000002
 30
0.0
 11
554.0
 21
584.0000000000002
 31
0.0
  0
LINE
  5
E68
330
1E
100
AcDbEntity
  8
VOLL
100
AcDbLine
 10
484.0000000000002
 20
610.0000000000002
 30
0.0
 11
554.0
 21
610.0000000000001
 31
0.0
  0
LINE
  5
E69
330
1E
100
AcDbEntity
  8
HILF
100
AcDbLine
 10
494.0
 20
470.0000000000001
 30
0.0
 11
494.0
 21
566.0000000000002
 31
0.0
  0
LINE
  5
E6A
330
1E
100
AcDbEntity
  8
HILF
100
AcDbLine
 10
504.0
 20
470.0000000000001
 30
0.0
 11
504.0
 21
566.0000000000002
 31
0.0
  0
LINE
  5
E6B
330
1E
100
AcDbEntity
  8
HILF
100
AcDbLine
 10
514.0
 20
470.0000000000001
 30
0.0
 11
514.0
 21
566.0000000000002
 31
0.0
  0
LINE
  5
E6C
330
1E
100
AcDbEntity
  8
HILF
100
AcDbLine
 10
524.0
 20
470.0000000000001
 30
0.0
 11
524.0
 21
566.0000000000002
 31
0.0
  0
LINE
  5
E6D
330
1E
100
AcDbEntity
  8
HILF
100
AcDbLine
 10
534.0
 20
470.0000000000001
 30
0.0
 11
534.0
 21
566.0000000000002
 31
0.0
  0
LINE
  5
E6E
330
1E
100
AcDbEntity
  8
HILF
100
AcDbLine
 10
544.0
 20
470.0000000000001
 30
0.0
 11
544.0
 21
566.0000000000002
 31
0.0
  0
LINE
  5
E6F
330
1E
100
AcDbEntity
  8
HILF
100
AcDbLine
 10
554.0
 20
470.0000000000001
 30
0.0
 11
554.0
 21
566.0000000000002
 31
0.0
  0
LINE
  5
E70
330
1E
100
AcDbEntity
  8
HILF
100
AcDbLine
 10
524.0
 20
566.0000000000002
 30
0.0
 11
524.0
 21
650.0
 31
0.0
  0
LINE
  5
E71
330
1E
100
AcDbEntity
  8
HILF
100
AcDbLine
 10
534.0
 20
566.0000000000002
 30
0.0
 11
534.0
 21
650.0
 31
0.0
  0
LINE
  5
E72
330
1E
100
AcDbEntity
  8
HILF
100
AcDbLine
 10
544.0
 20
566.0000000000002
 30
0.0
 11
544.0
 21
650.0
 31
0.0
  0
LINE
  5
E73
330
1E
100
AcDbEntity
  8
HILF
100
AcDbLine
 10
509.9624175243587
 20
654.7736801096948
 30
0.0
 11
509.9624175243587
 21
746.6297842514811
 31
0.0
  0
LINE
  5
E74
330
1E
100
AcDbEntity
  8
HILF
100
AcDbLine
 10
524.0
 20
654.7736801096948
 30
0.0
 11
524.0
 21
746.6297842514811
 31
0.0
  0
LINE
  5
E75
330
1E
100
AcDbEntity
  8
HILF
100
AcDbLine
 10
534.0
 20
654.7736801096948
 30
0.0
 11
534.0
 21
746.6297842514811
 31
0.0
  0
LINE
  5
E76
330
1E
100
AcDbEntity
  8
HILF
100
AcDbLine
 10
544.0
 20
654.7736801096948
 30
0.0
 11
544.0
 21
746.6297842514811
 31
0.0
  0
LINE
  5
E77
330
1E
100
AcDbEntity
  8
VOLL
100
AcDbLine
 10
534.0
 20
752.0000000000002
 30
0.0
 11
534.0
 21
830.0000000000002
 31
0.0
  0
LINE
  5
E78
330
1E
100
AcDbEntity
  8
HILF
100
AcDbLine
 10
510.2201636304418
 20
756.7238616296995
 30
0.0
 11
510.2201636304418
 21
824.858883932673
 31
0.0
  0
LINE
  5
E79
330
1E
100
AcDbEntity
  8
HILF
100
AcDbLine
 10
579.1060174197169
 20
654.7736801096948
 30
0.0
 11
579.1060174197169
 21
824.858883932673
 31
0.0
  0
TEXT
  5
E7A
330
1E
100
AcDbEntity
  8
TEXT
100
AcDbText
 10
575.3261810501587
 20
492.3998239263297
 30
0.0
 40
4.0
  1
Änderung
 50
90.0
 41
0.8
  7
GREEKS
 72
     1
 11
575.3261810501587
 21
503.1426810691868
 31
0.0
100
AcDbText
  0
TEXT
  5
E7B
330
1E
100
AcDbEntity
  8
TEXT
100
AcDbText
 10
491.5379104912911
 20
573.5163572150378
 30
0.0
 40
5.0
  1
Maßstab
 50
90.0
 41
0.8
  7
GREEKS
100
AcDbText
  0
TEXT
  5
E7C
330
1E
100
AcDbEntity
  8
TEXT
100
AcDbText
 10
491.4510671988221
 20
654.8779403809011
 30
0.0
 40
5.0
  1
Benennung
 50
90.0
 41
0.8
  7
GREEKS
100
AcDbText
  0
TEXT
  5
E7D
330
1E
100
AcDbEntity
  8
TEXT
100
AcDbText
 10
491.6867965462865
 20
756.1787549576343
 30
0.0
 40
5.0
  1
Zeichnungs Nr.
 50
90.0
 41
0.8
  7
GREEKS
100
AcDbText
  0
TEXT
  5
E7E
330
1E
100
AcDbEntity
  8
TEXT
100
AcDbText
 10
563.1543942980695
 20
654.742238391136
 30
0.0
 40
5.0
  1
Bauvorhaben
 50
90.0
 41
0.8
  7
GREEKS
100
AcDbText
  0
TEXT
  5
E7F
330
1E
100
AcDbEntity
  8
TEXT
100
AcDbText
 10
520.8188176290003
 20
756.7238616296995
 30
0.0
 40
5.0
  1
Ersatz für:
 50
90.0
 41
0.8
  7
GREEKS
100
AcDbText
  0
TEXT
  5
E80
330
1E
100
AcDbEntity
  8
TEXT
100
AcDbText
 10
580.3453415397281
 20
478.2664110704577
 30
0.0
 40
4.0
  1
Index
 50
180.0
 41
0.8
  7
GREEKS
100
AcDbText
  0
TEXT
  5
E81
330
1E
100
AcDbEntity
  8
TEXT
100
AcDbText
 10
575.3284373066019
 20
529.8990113186979
 30
0.0
 40
4.0
  1
Tag
 50
90.0
 41
0.8
  7
GREEKS
 72
     1
 11
575.3284373066019
 21
533.6323446520313
 31
0.0
100
AcDbText
  0
TEXT
  5
E82
330
1E
100
AcDbEntity
  8
TEXT
100
AcDbText
 10
575.4067578303359
 20
548.9795678138293
 30
0.0
 40
4.0
  1
Name
 50
90.0
 41
0.8
  7
GREEKS
 72
     1
 11
575.4067578303359
 21
555.3033773376388
 31
0.0
100
AcDbText
  0
TEXT
  5
E83
330
1E
100
AcDbEntity
  8
TEXT
100
AcDbText
 10
520.6811949877008
 20
592.3311673153651
 30
0.0
 40
4.0
  1
Tag
 50
90.0
 41
0.8
  7
GREEKS
100
AcDbText
  0
TEXT
  5
E84
330
1E
100
AcDbEntity
  8
TEXT
100
AcDbText
 10
520.6903890808478
 20
622.4626584226296
 30
0.0
 40
4.0
  1
Name
 50
90.0
 41
0.8
  7
GREEKS
100
AcDbText
  0
TEXT
  5
E85
330
1E
100
AcDbEntity
  8
TEXT
100
AcDbText
 10
530.3700963038204
 20
567.5836127167616
 30
0.0
 40
4.0
  1
Gez.
 50
90.0
 41
0.8
  7
GREEKS
100
AcDbText
  0
TEXT
  5
E86
330
1E
100
AcDbEntity
  8
TEXT
100
AcDbText
 10
540.3107370857163
 20
567.5515086571673
 30
0.0
 40
4.0
  1
Gepr.
 50
90.0
 41
0.8
  7
GREEKS
100
AcDbText
  0
TEXT
  5
E87
330
1E
100
AcDbEntity
  8
TEXT
100
AcDbText
 10
550.470536103502
 20
567.6006777387304
 30
0.0
 40
4.0
  1
Norm.
 50
90.0
 41
0.8
  7
GREEKS
100
AcDbText
  0
TEXT
  5
E88
330
1E
100
AcDbEntity
  8
TEXT
100
AcDbText
 10
541.9258382212141
 20
757.2400861497007
 30
0.0
 40
5.0
  1
ersetzt durch:
 50
90.0
 41
0.8
  7
GREEKS
100
AcDbText
  0
TEXT
  5
E89
330
1E
100
AcDbEntity
  8
TEXT
100
AcDbText
 10
521.0331740347628
 20
569.5106266687155
 30
0.0
 40
4.0
  1
2011
 50
90.0
 41
0.8
  7
GREEKS
100
AcDbText
  0
LINE
  5
E8A
330
1E
100
AcDbEntity
  8
HILF
100
AcDbLine
 10
594.0
 20
0.0
 30
0.0
 11
594.0
 21
840.0
 31
0.0
  0
LINE
  5
E8B
330
1E
100
AcDbEntity
  8
HILF
100
AcDbLine
 10
594.0
 20
840.0
 30
0.0
 11
0.0
 21
840.0
 31
0.0
  0
LINE
  5
E8C
330
1E
100
AcDbEntity
  8
HILF
100
AcDbLine
 10
0.0
 20
840.0
 30
0.0
 11
0.0
 21
0.0
 31
0.0
  0
LINE
  5
E8D
330
1E
100
AcDbEntity
  8
STEMPEL
100
AcDbLine
 10
10.0
 20
830.0
 30
0.0
 11
10.0
 21
40.0
 31
0.0
  0
LINE
  5
E8E
330
1E
100
AcDbEntity
  8
STEMPEL
100
AcDbLine
 10
584.0
 20
40.0
 30
0.0
 11
584.0
 21
830.0
 31
0.0
  0
LINE
  5
E8F
330
1E
100
AcDbEntity
  8
STEMPEL
100
AcDbLine
 10
584.0
 20
830.0
 30
0.0
 11
10.0
 21
830.0
 31
0.0
  0
TEXT
  5
E90
330
1E
100
AcDbEntity
  8
TEXT
 62
     1
100
AcDbText
 10
506.6265692434746
 20
655.0390572473189
 30
0.0
 40
7.0
  1
LORO-FLEX 
 50
90.0
 41
0.8
  7
GREEKS
100
AcDbText
  0
TEXT
  5
E91
330
1E
100
AcDbEntity
  8
TEXT
 62
     1
100
AcDbText
 10
506.6265692434746
 20
767.1961422184136
 30
0.0
 40
7.0
  1
21821070W
 50
90.0
 41
0.8
  7
GREEKS
 72
     1
 11
506.6265692434746
 21
790.1294755517469
 31
0.0
100
AcDbText
  0
TEXT
  5
E92
330
1E
100
AcDbEntity
  8
TEXT
100
AcDbText
 10
491.16010388621
 20
618.509022641583
 30
0.0
 40
5.0
  1
Zul.Abw.
 50
90.0
 41
0.8
  7
GREEKS
100
AcDbText
  0
TEXT
  5
E93
330
1E
100
AcDbEntity
  8
TEXT
100
AcDbText
 10
530.8491412387978
 20
590.1565237511869
 30
0.0
 40
4.0
  1
05.09.
 50
90.0
 41
0.8
  7
GREEKS
 72
     1
 11
530.8491412387978
 21
597.1660475607107
 31
0.0
100
AcDbText
  0
TEXT
  5
E94
330
1E
100
AcDbEntity
  8
TEXT
100
AcDbText
 10
531.0570234483454
 20
624.023175322661
 30
0.0
 40
4.0
  1
Koeh
 50
90.0
 41
0.8
  7
GREEKS
 72
     1
 11
531.0570234483454
 21
629.2803181798038
 31
0.0
100
AcDbText
  0
TEXT
  5
E95
330
1E
100
AcDbEntity
  8
TEXT
100
AcDbText
 10
521.8997861689248
 20
654.7736801096948
 30
0.0
 40
5.0
  1
Rohr- und Dachdurchführung
 50
90.0
 41
0.8
  7
GREEKS
100
AcDbText
  0
TEXT
  5
E96
330
1E
100
AcDbEntity
  8
TEXT
100
AcDbText
 10
541.4090266215395
 20
654.7736801096948
 30
0.0
 40
5.0
  1
EDV-Art.Nr. 21820.070X
 50
90.0
 41
0.8
  7
GREEKS
100
AcDbText
  0
TEXT
  5
E97
330
1E
100
AcDbEntity
  8
TEXT
100
AcDbText
 10
550.6887237520849
 20
654.7736801096948
 30
0.0
 40
4.0
  1
21821070XB.DWG
 50
90.0
 41
0.8
  7
GREEKS
100
AcDbText
  0
TEXT
  5
E98
330
1E
100
AcDbEntity
  8
TEXT
 62
     1
100
AcDbText
 10
506.5292291158502
 20
582.7034912034222
 30
0.0
 40
7.0
  1
1:2
 50
90.0
 41
0.8
  7
GREEKS
100
AcDbText
  0
TEXT
  5
E99
330
1E
100
AcDbEntity
  8
TEXT
100
AcDbText
 10
479.8856414948956
 20
470.0441139350127
 30
0.0
 40
5.0
  1
Erstellt mit AUTOCAD 2004
 50
90.0
 41
0.8
  7
GREEKS
100
AcDbText
  0
INSERT
  5
E9A
330
1E
100
AcDbEntity
  8
HILF
100
AcDbBlockReference
  2
LORO
 10
557.0194069970105
 20
573.0624985962354
 30
0.0
 41
2.0
 42
2.0
 43
2.0
 50
90.0
  0
LINE
  5
E9B
330
1E
100
AcDbEntity
  8
BEM
100
AcDbLine
 10
594.0
 20
456.0
 30
0.0
 11
584.0
 21
456.0
 31
0.0
  0
LINE
  5
E9C
330
1E
100
AcDbEntity
  8
HILF
100
AcDbLine
 10
594.0
 20
0.0
 30
0.0
 11
0.0
 21
0.0
 31
0.0
  0
LINE
  5
E9D
330
1E
100
AcDbEntity
  8
STEMPEL
100
AcDbLine
 10
584.0
 20
40.0
 30
0.0
 11
10.0
 21
40.0
 31
0.0
  0
LINE
  5
E9E
330
1E
100
AcDbEntity
  8
HILF
100
AcDbLine
 10
297.0
 20
0.0
 30
0.0
 11
297.0
 21
40.0
 31
0.0
  0
TEXT
  5
E9F
330
1E
100
AcDbEntity
  8
BEM
100
AcDbText
 10
583.8320989200114
 20
837.3022923857165
 30
0.0
 40
4.0
  1
Diese Zeichnung ist urheberrechtlich geschützt und bleibt unser Eigentum. Sie darf weder ganz noch teilweise verfielfältigt und nicht an Dritte weitergegeben werden.
 50
180.0
 41
0.8
  7
GREEKS
100
AcDbText
  0
TEXT
  5
EA0
330
1E
100
AcDbEntity
  8
TEXT
100
AcDbText
 10
508.3510969238846
 20
629.9102859255416
 30
0.0
 40
4.0
  1

 50
90.0
 41
0.7
  7
GREEKS
 72
     1
 11
508.3510969238846
 21
629.9102859255416
 31
0.0
100
AcDbText
  0
TEXT
  5
EA5
330
1E
100
AcDbEntity
  8
TEXT
 62
     1
100
AcDbText
 10
301.8527189425774
 20
664.5450519835568
 30
0.0
 40
7.0
  1
EDV-Art.Nr. 21801.070X
 41
0.8
  7
GREEKS
100
AcDbText
  0
TEXT
  5
EA6
330
1E
100
AcDbEntity
  8
TEXT
 62
     1
100
AcDbText
 10
301.8527189425774
 20
677.1842290537805
 30
0.0
 40
7.0
  1
LORO-FLEX Lüftungsrohr DN70
 41
0.8
  7
GREEKS
100
AcDbText
  0
LINE
  5
EA7
330
1E
100
AcDbEntity
  8
HILF
100
AcDbLine
 10
441.0731219759027
 20
674.7921393001137
 30
0.0
 11
296.668912765731
 21
674.7921393001137
 31
0.0
  0
LINE
  5
EA8
330
1E
100
AcDbEntity
  8
HILF
100
AcDbLine
 10
296.668912765731
 20
674.7921393001137
 30
0.0
 11
274.357140483318
 21
657.2953506604707
 31
0.0
  0
TEXT
  5
EA9
330
1E
100
AcDbEntity
  8
TEXT
100
AcDbText
 10
531.8997861689248
 20
654.7736801096948
 30
0.0
 40
5.0
  1
DN70, zweiteilig
 50
90.0
 41
0.8
  7
GREEKS
100
AcDbText
  0
TEXT
  5
F6C
330
1E
100
AcDbEntity
  8
TEXT
 62
     1
100
AcDbText
 10
411.3149704662546
 20
326.0089708452006
 30
0.0
 40
7.0
  1
EDV-Art.Nr. 21805.100X
 41
0.8
  7
GREEKS
100
AcDbText
  0
TEXT
  5
F6D
330
1E
100
AcDbEntity
  8
TEXT
 62
     1
100
AcDbText
 10
411.3149704662546
 20
339.7173990715073
 30
0.0
 40
7.0
  1
Losflansch DN100
 41
0.8
  7
GREEKS
100
AcDbText
  0
LINE
  5
F6E
330
1E
100
AcDbEntity
  8
TEXT
 62
     2
100
AcDbLine
 10
409.7269052531214
 20
335.8293023908304
 30
0.0
 11
516.8488593214727
 21
335.8293023908304
 31
0.0
  0
TEXT
  5
F6F
330
1E
100
AcDbEntity
  8
TEXT
 62
     1
100
AcDbText
 10
289.0874342610687
 20
416.4566401764176
 30
0.0
 40
7.0
  1
EDV-Art.Nr. 00937.100X
 41
0.8
  7
GREEKS
100
AcDbText
  0
TEXT
  5
F70
330
1E
100
AcDbEntity
  8
TEXT
 62
     1
100
AcDbText
 10
289.0874342610687
 20
430.1650684027244
 30
0.0
 40
7.0
  1
Dichtelement DN100
 41
0.8
  7
GREEKS
100
AcDbText
  0
LINE
  5
F71
330
1E
100
AcDbEntity
  8
TEXT
 62
     2
100
AcDbLine
 10
286.1282939612161
 20
426.2769717220475
 30
0.0
 11
393.0481435242987
 21
426.2769717220475
 31
0.0
  0
TEXT
  5
F72
330
1E
100
AcDbEntity
  8
TEXT
 62
     1
100
AcDbText
 10
411.3149704662546
 20
309.5497903374799
 30
0.0
 40
7.0
  1
Festflansch DN100
 41
0.8
  7
GREEKS
100
AcDbText
  0
LINE
  5
F73
330
1E
100
AcDbEntity
  8
TEXT
 62
     2
100
AcDbLine
 10
409.7269052531214
 20
305.661693656803
 30
0.0
 11
516.8488593214727
 21
305.661693656803
 31
0.0
  0
TEXT
  5
F74
330
1E
100
AcDbEntity
  8
TEXT
 62
     1
100
AcDbText
 10
411.3149704662546
 20
295.83353868533
 30
0.0
 40
7.0
  1
EDV-Art.Nr. 21806.100X
 41
0.8
  7
GREEKS
100
AcDbText
  0
LINE
  5
F75
330
1E
100
AcDbEntity
  8
TEXT
 62
     2
100
AcDbLine
 10
409.7269052531214
 20
305.661693656803
 30
0.0
 11
351.6474925779716
 21
362.7880285861149
 31
0.0
  0
LINE
  5
F76
330
1E
100
AcDbEntity
  8
TEXT
 62
     2
100
AcDbLine
 10
286.1282939612161
 20
426.2769717220475
 30
0.0
 11
279.0920581937944
 21
384.88266447854
 31
0.0
  0
LINE
  5
F77
330
1E
100
AcDbEntity
  8
TEXT
 62
     2
100
AcDbLine
 10
409.7269052531214
 20
335.8293023908304
 30
0.0
 11
364.3497509412441
 21
370.5345376331227
 31
0.0
  0
HATCH
  5
FBC
330
1E
100
AcDbEntity
  8
SCHRAFF
100
AcDbHatch
 10
0.0
 20
0.0
 30
0.0
210
0.0
220
0.0
230
1.0
  2
HONEY
 70
     0
 71
     1
 91
        4
 92
        7
 72
     0
 73
     1
 93
        5
 10
273.1571404833181
 20
620.0923106014487
 10
265.567394389568
 20
618.7937553792822
 10
260.0571404833181
 20
618.1536189306489
 10
260.0571404833181
 20
249.0915554391461
 10
273.1571404833181
 20
249.0915554391461
 97
        4
330
D34
330
D69
330
D7C
330
D5D
 92
        7
 72
     0
 73
     1
 93
        5
 10
187.057140483318
 20
622.5100637029149
 10
181.5468865770687
 20
621.8699272542821
 10
173.9571404833179
 20
620.5713720321151
 10
173.957140483318
 20
249.0915554391459
 10
187.0571404833181
 20
249.0915554391459
 97
        4
330
D34
330
D47
330
D95
330
D66
 92
        7
 72
     1
 73
     1
 93
       11
 10
187.0571404833181
 20
692.9170452372154
 42
0.1420008527982317
 10
185.817140483318
 20
697.1951756700097
 42
-0.1420008527982291
 10
183.9571404833181
 20
703.612371319201
 42
0.0
 10
183.9571404833181
 20
720.2236449017841
 42
0.0926930603363565
 10
183.1463014748762
 20
724.5598501903966
 42
-0.0933817694259112
 10
181.457140483318
 20
733.6619249499749
 42
0.0
 10
181.4571404833179
 20
739.2236449017842
 42
0.0
 10
173.957140483318
 20
739.2236449017842
 42
0.0
 10
173.957140483318
 20
630.2275994597883
 42
0.0
 10
181.5468865770683
 20
631.526154681955
 42
0.0
 10
187.0571404833181
 20
632.1662911305881
 42
0.0
 97
       10
330
D8E
330
D8D
330
D90
330
D88
330
D87
330
D8B
330
D92
330
D5C
330
D49
330
D99
 92
        7
 72
     1
 73
     1
 93
       11
 10
273.157140483318
 20
739.2236449017842
 42
0.0
 10
265.6571404833179
 20
739.2236449017842
 42
0.0
 10
265.657140483318
 20
733.6619249499749
 42
-0.0933817694259184
 10
263.9679794917595
 20
724.559850190396
 42
0.0926930603363433
 10
263.157140483318
 20
720.223644901784
 42
0.0
 10
263.157140483318
 20
703.612371319201
 42
-0.1420008527982353
 10
261.2971404833179
 20
697.1951756700094
 42
0.1420008527982214
 10
260.0571404833181
 20
692.9170452372154
 42
0.0
 10
260.0571404833181
 20
627.8098463583217
 42
0.0
 10
265.5673943895679
 20
628.449982806955
 42
0.0
 10
273.1571404833181
 20
629.7485380291217
 42
0.0
 97
       10
330
D72
330
D74
330
D71
330
D6E
330
D7A
330
D76
330
D77
330
D82
330
D49
330
D5F
 75
     0
 76
     1
 52
0.0
 41
30.0
 77
     0
 78
     3
 53
0.0
 43
0.0
 44
0.0
 45
5.625
 46
3.247595249999999
 79
     2
 49
3.75
 49
-7.5
 53
120.0
 43
0.0
 44
0.0
 45
-5.624999987709673
 46
3.247595271287468
 79
     2
 49
3.75
 49
-7.5
 53
60.0
 43
0.0
 44
0.0
 45
0.0000000122903263
 46
6.495190521287468
 79
     2
 49
-7.5
 49
3.75
 47
0.9188613512107323
 98
        4
 10
267.8442892679586
 20
569.9691661993585
 10
178.6632854686227
 20
591.1029760324679
 10
184.1796353010645
 20
648.9912409809241
 10
268.7636809066989
 20
653.5855493373548
  0
LINE
  5
FF2
330
1E
100
AcDbEntity
  8
TEXT
 62
     2
100
AcDbLine
 10
438.4514571955655
 20
455.6427723695033
 30
0.0
 11
364.3497509412441
 21
470.5345376331226
 31
0.0
  0
LINE
  5
FF3
330
1E
100
AcDbEntity
  8
TEXT
 62
     2
100
AcDbLine
 10
325.8566590658201
 20
540.483506439505
 30
0.0
 11
279.0920581937944
 21
484.8826644785399
 31
0.0
  0
LINE
  5
FF4
330
1E
100
AcDbEntity
  8
TEXT
 62
     2
100
AcDbLine
 10
438.4514571955655
 20
425.4751636354758
 30
0.0
 11
351.6474925779716
 21
462.7880285861149
 31
0.0
  0
LINE
  5
FF5
330
1E
100
AcDbEntity
  8
TEXT
 62
     2
100
AcDbLine
 10
325.8566590658201
 20
540.483506439505
 30
0.0
 11
432.7765086289027
 21
540.483506439505
 31
0.0
  0
TEXT
  5
FF6
330
1E
100
AcDbEntity
  8
TEXT
 62
     1
100
AcDbText
 10
328.8157993656728
 20
544.3716031201819
 30
0.0
 40
7.0
  1
Dichtelement DN100
 41
0.8
  7
GREEKS
100
AcDbText
  0
TEXT
  5
FF7
330
1E
100
AcDbEntity
  8
TEXT
 62
     1
100
AcDbText
 10
328.8157993656728
 20
530.6631748938752
 30
0.0
 40
7.0
  1
EDV-Art.Nr. 00937.100X
 41
0.8
  7
GREEKS
100
AcDbText
  0
LINE
  5
FF8
330
1E
100
AcDbEntity
  8
STEMPEL
100
AcDbLine
 10
79.5571404833181
 20
464.0725771920493
 30
0.0
 11
148.9860726714517
 21
464.0725771920491
 31
0.0
  0
LINE
  5
FF9
330
1E
100
AcDbEntity
  8
STEMPEL
100
AcDbLine
 10
78.55714048331811
 20
461.0725771920503
 30
0.0
 11
172.757140483318
 21
461.0725771920496
 31
0.0
  0
LINE
  5
FFA
330
1E
100
AcDbEntity
  8
STEMPEL
100
AcDbLine
 10
115.5571404833181
 20
489.0725771920487
 30
0.0
 11
107.5571404833181
 21
489.0725771920487
 31
0.0
  0
LINE
  5
FFB
330
1E
100
AcDbEntity
  8
STEMPEL
100
AcDbLine
 10
106.5571404833181
 20
488.0725771920489
 30
0.0
 11
116.5571404833181
 21
488.0725771920489
 31
0.0
  0
LINE
  5
FFC
330
1E
100
AcDbEntity
  8
HILF
100
AcDbLine
 10
107.5571404833181
 20
489.0725771920487
 30
0.0
 11
107.5571404833181
 21
482.6725771920491
 31
0.0
  0
LINE
  5
FFD
330
1E
100
AcDbEntity
  8
STEMPEL
100
AcDbLine
 10
106.5571404833181
 20
488.0725771920487
 30
0.0
 11
106.5571404833181
 21
482.6725771920491
 31
0.0
  0
LINE
  5
FFE
330
1E
100
AcDbEntity
  8
STEMPEL
100
AcDbLine
 10
107.5571404833181
 20
489.0725771920487
 30
0.0
 11
106.5571404833181
 21
488.0725771920487
 31
0.0
  0
LINE
  5
FFF
330
1E
100
AcDbEntity
  8
HILF
100
AcDbLine
 10
115.5571404833181
 20
489.0725771920487
 30
0.0
 11
115.5571404833181
 21
482.6725771920491
 31
0.0
  0
LINE
  5
1000
330
1E
100
AcDbEntity
  8
STEMPEL
100
AcDbLine
 10
116.5571404833181
 20
488.0725771920487
 30
0.0
 11
116.5571404833181
 21
482.6725771920491
 31
0.0
  0
LINE
  5
1001
330
1E
100
AcDbEntity
  8
MITTEL
100
AcDbLine
 10
111.5571404833181
 20
493.5630714790333
 30
0.0
 11
111.5571404833181
 21
464.0725771920487
 31
0.0
  0
LINE
  5
1002
330
1E
100
AcDbEntity
  8
STEMPEL
100
AcDbLine
 10
116.5571404833181
 20
488.0725771920487
 30
0.0
 11
115.5571404833181
 21
489.0725771920487
 31
0.0
  0
LINE
  5
1003
330
1E
100
AcDbEntity
  8
STEMPEL
100
AcDbLine
 10
78.55714048331811
 20
463.0725771920493
 30
0.0
 11
78.55714048331811
 21
461.0725771920494
 31
0.0
  0
LINE
  5
1004
330
1E
100
AcDbEntity
  8
STEMPEL
100
AcDbLine
 10
79.5571404833181
 20
464.0725771920493
 30
0.0
 11
78.55714048331811
 21
463.0725771920493
 31
0.0
  0
LINE
  5
1005
330
1E
100
AcDbEntity
  8
STEMPEL
100
AcDbLine
 10
367.557140483319
 20
464.0725771920484
 30
0.0
 11
368.5571404833181
 21
463.0725771920493
 31
0.0
  0
LINE
  5
1006
330
1E
100
AcDbEntity
  8
STEMPEL
100
AcDbLine
 10
368.5571404833181
 20
463.0725771920493
 30
0.0
 11
368.5571404833181
 21
461.0725771920484
 31
0.0
  0
LINE
  5
1007
330
1E
100
AcDbEntity
  8
STEMPEL
  6
STRICHPUNKT
100
AcDbLine
 10
276.5571404833181
 20
480.5725771920475
 30
0.0
 11
278.6784608268777
 21
482.6938975356073
 31
0.0
  0
ARC
  5
1008
330
1E
100
AcDbEntity
  8
STEMPEL
100
AcDbCircle
 10
298.1282082951837
 20
466.0725771920486
 30
0.0
 40
5.0
100
AcDbArc
 50
225.0
 51
270.0
  0
ARC
  5
1009
330
1E
100
AcDbEntity
  8
STEMPEL
100
AcDbCircle
 10
298.1282082951837
 20
466.0725771920486
 30
0.0
 40
2.0
100
AcDbArc
 50
225.0
 51
270.0
  0
LINE
  5
100A
330
1E
100
AcDbEntity
  8
STEMPEL
100
AcDbLine
 10
296.7139947328107
 20
464.6583636296756
 30
0.0
 11
278.6784608268777
 21
482.693897535607
 31
0.0
  0
LINE
  5
100B
330
1E
100
AcDbEntity
  8
STEMPEL
100
AcDbLine
 10
294.5926743892512
 20
462.5370432861158
 30
0.0
 11
276.5571404833181
 21
480.5725771920475
 31
0.0
  0
ARC
  5
100C
330
1E
100
AcDbEntity
  8
STEMPEL
100
AcDbCircle
 10
148.9860726714517
 20
466.0725771920486
 30
0.0
 40
2.0
100
AcDbArc
 50
270.0
 51
315.0
  0
ARC
  5
100D
330
1E
100
AcDbEntity
  8
STEMPEL
100
AcDbCircle
 10
148.9860726714517
 20
466.0725771920486
 30
0.0
 40
5.0
100
AcDbArc
 50
270.0
 51
315.0
  0
LINE
  5
100E
330
1E
100
AcDbEntity
  8
STEMPEL
100
AcDbLine
 10
152.5216065773842
 20
462.5370432861158
 30
0.0
 11
170.5571404833173
 21
480.5725771920473
 31
0.0
  0
LINE
  5
100F
330
1E
100
AcDbEntity
  8
STEMPEL
  6
STRICHPUNKT
100
AcDbLine
 10
170.5571404833172
 20
480.5725771920475
 30
0.0
 11
168.4358201397576
 21
482.6938975356073
 31
0.0
  0
LINE
  5
1010
330
1E
100
AcDbEntity
  8
STEMPEL
100
AcDbLine
 10
150.4002862338245
 20
464.6583636296756
 30
0.0
 11
168.4358201397576
 21
482.6938975356073
 31
0.0
  0
LINE
  5
1011
330
1E
100
AcDbEntity
  8
STEMPEL
100
AcDbLine
 10
298.1282082951837
 20
464.0725771920485
 30
0.0
 11
367.557140483319
 21
464.0725771920484
 31
0.0
  0
HATCH
  5
1012
330
1E
100
AcDbEntity
  8
SCHRAFF
100
AcDbHatch
 10
0.0
 20
0.0
 30
0.0
210
0.0
220
0.0
230
1.0
  2
_USER
 70
     0
 71
     0
 91
        2
 92
        7
 72
     1
 73
     1
 93
        9
 10
170.5571404833173
 20
480.5725771920474
 42
0.0
 10
168.4358201397575
 20
482.693897535607
 42
0.0
 10
150.4002862338245
 20
464.6583636296756
 42
-0.1989123673796237
 10
148.9860726714517
 20
464.0725771920491
 42
0.0
 10
79.5571404833181
 20
464.0725771920493
 42
0.0
 10
78.55714048331811
 20
463.0725771920493
 42
0.0
 10
78.55714048331811
 20
461.0725771920503
 42
0.0
 10
148.9860726714517
 20
461.0725771920498
 42
0.1989123673797055
 10
152.5216065773854
 20
462.5370432861169
 42
0.0
 97
        0
 92
        7
 72
     1
 73
     1
 93
        9
 10
367.557140483319
 20
464.0725771920482
 42
0.0
 10
298.1282082951837
 20
464.0725771920487
 42
-0.1989123673796506
 10
296.7139947328107
 20
464.6583636296756
 42
0.0
 10
278.6784608268777
 20
482.6938975356073
 42
0.0
 10
276.5571404833181
 20
480.5725771920475
 42
0.0
 10
294.5926743892511
 20
462.5370432861158
 42
0.1989123673796418
 10
298.1282082951836
 20
461.0725771920489
 42
0.0
 10
368.5571404833181
 20
461.0725771920484
 42
0.0
 10
368.5571404833181
 20
463.0725771920494
 42
0.0
 97
        0
 75
     0
 76
     0
 52
135.0
 41
2.0
 77
     0
 78
     1
 53
135.0
 43
20.74599392659184
 44
-70.85780236970811
 45
-1.414213562373095
 46
-1.414213562373094
 79
     0
 47
0.4066471926477464
 98
        2
 10
130.8842573199285
 20
462.6724040387945
 10
317.6768430753077
 20
463.4856983142159
  0
LINE
  5
1013
102
{ACAD_REACTORS
330
10F7
102
}
330
1E
100
AcDbEntity
  8
STEMPEL
100
AcDbLine
 10
79.5571404833172
 20
467.0725771920489
 30
0.0
 11
106.5571404833181
 21
467.0725771920489
 31
0.0
  0
LINE
  5
1014
102
{ACAD_REACTORS
330
10F7
102
}
330
1E
100
AcDbEntity
  8
STEMPEL
100
AcDbLine
 10
104.5571404833172
 20
467.0725771920489
 30
0.0
 11
104.5571404833172
 21
473.072577192049
 31
0.0
  0
LINE
  5
1015
102
{ACAD_REACTORS
330
10F7
102
}
330
1E
100
AcDbEntity
  8
STEMPEL
100
AcDbLine
 10
118.5571404833172
 20
467.0725771920489
 30
0.0
 11
118.5571404833172
 21
473.072577192049
 31
0.0
  0
LINE
  5
1016
102
{ACAD_REACTORS
330
10F7
102
}
330
1E
100
AcDbEntity
  8
STEMPEL
100
AcDbLine
 10
144.5571404833172
 20
468.0725771920489
 30
0.0
 11
144.5571404833172
 21
472.072577192049
 31
0.0
  0
LINE
  5
1017
102
{ACAD_REACTORS
330
10F7
102
}
330
1E
100
AcDbEntity
  8
STEMPEL
100
AcDbLine
 10
302.5571404833172
 20
468.0725771920489
 30
0.0
 11
302.5571404833172
 21
472.0725771920491
 31
0.0
  0
LINE
  5
1018
102
{ACAD_REACTORS
330
10F7
102
}
330
1E
100
AcDbEntity
  8
STEMPEL
100
AcDbLine
 10
78.55714048331719
 20
472.0725771920489
 30
0.0
 11
78.55714048331719
 21
468.0725771920489
 31
0.0
  0
LINE
  5
1019
102
{ACAD_REACTORS
330
10F7
102
}
330
1E
100
AcDbEntity
  8
STEMPEL
100
AcDbLine
 10
79.5571404833172
 20
473.0725771920488
 30
0.0
 11
78.55714048331719
 21
472.0725771920489
 31
0.0
  0
LINE
  5
101A
102
{ACAD_REACTORS
330
10F7
102
}
330
1E
100
AcDbEntity
  8
STEMPEL
100
AcDbLine
 10
78.55714048331719
 20
468.0725771920489
 30
0.0
 11
79.5571404833172
 21
467.0725771920489
 31
0.0
  0
LINE
  5
101B
102
{ACAD_REACTORS
330
10F7
102
}
330
1E
100
AcDbEntity
  8
STEMPEL
100
AcDbLine
 10
303.5571404833172
 20
473.0725771920491
 30
0.0
 11
302.5571404833172
 21
472.0725771920491
 31
0.0
  0
LINE
  5
101C
102
{ACAD_REACTORS
330
10F7
102
}
330
1E
100
AcDbEntity
  8
STEMPEL
100
AcDbLine
 10
302.5571404833172
 20
468.0725771920489
 30
0.0
 11
303.5571404833172
 21
467.0725771920489
 31
0.0
  0
LINE
  5
101D
102
{ACAD_REACTORS
330
10F7
102
}
330
1E
100
AcDbEntity
  8
STEMPEL
100
AcDbLine
 10
143.5571404833172
 20
473.072577192049
 30
0.0
 11
144.5571404833172
 21
472.072577192049
 31
0.0
  0
LINE
  5
101E
102
{ACAD_REACTORS
330
10F7
102
}
330
1E
100
AcDbEntity
  8
STEMPEL
100
AcDbLine
 10
144.5571404833172
 20
468.0725771920489
 30
0.0
 11
143.5571404833172
 21
467.0725771920489
 31
0.0
  0
LINE
  5
101F
102
{ACAD_REACTORS
330
10F7
102
}
330
1E
100
AcDbEntity
  8
STEMPEL
100
AcDbLine
 10
368.5571404833172
 20
468.0725771920489
 30
0.0
 11
368.5571404833172
 21
472.0725771920491
 31
0.0
  0
LINE
  5
1020
102
{ACAD_REACTORS
330
10F7
102
}
330
1E
100
AcDbEntity
  8
STEMPEL
100
AcDbLine
 10
368.5571404833172
 20
472.0725771920491
 30
0.0
 11
367.5571404833172
 21
473.0725771920491
 31
0.0
  0
LINE
  5
1021
102
{ACAD_REACTORS
330
10F7
102
}
330
1E
100
AcDbEntity
  8
STEMPEL
100
AcDbLine
 10
368.5571404833172
 20
468.0725771920489
 30
0.0
 11
367.5571404833172
 21
467.0725771920489
 31
0.0
  0
LINE
  5
1022
102
{ACAD_REACTORS
330
10F7
102
}
330
1E
100
AcDbEntity
  8
STEMPEL
100
AcDbLine
 10
328.5571404833172
 20
467.0725771920489
 30
0.0
 11
328.5571404833172
 21
473.072577192049
 31
0.0
  0
LINE
  5
1023
102
{ACAD_REACTORS
330
10F7
102
}
330
1E
100
AcDbEntity
  8
STEMPEL
100
AcDbLine
 10
342.5571404833172
 20
467.0725771920489
 30
0.0
 11
342.5571404833172
 21
473.072577192049
 31
0.0
  0
LINE
  5
1025
102
{ACAD_REACTORS
330
10F7
102
}
330
1E
100
AcDbEntity
  8
STEMPEL
100
AcDbLine
 10
79.5571404833172
 20
473.0725771920488
 30
0.0
 11
158.8144997961987
 21
473.0725771920491
 31
0.0
  0
LINE
  5
1026
102
{ACAD_REACTORS
330
10F7
102
}
330
1E
100
AcDbEntity
  8
STEMPEL
100
AcDbLine
 10
116.5571404833181
 20
467.0725771920489
 30
0.0
 11
152.8144997961981
 21
467.0725771920488
 31
0.0
  0
LINE
  5
1027
102
{ACAD_REACTORS
330
10F7
102
}
330
1E
100
AcDbEntity
  8
STEMPEL
100
AcDbLine
 10
340.5571404833181
 20
467.0725771920488
 30
0.0
 11
367.5571404833172
 21
467.0725771920489
 31
0.0
  0
LINE
  5
1028
102
{ACAD_REACTORS
330
10F7
102
}
330
1E
100
AcDbEntity
  8
STEMPEL
100
AcDbLine
 10
288.2997811704363
 20
473.0725771920494
 30
0.0
 11
367.557140483317
 21
473.0725771920494
 31
0.0
  0
LINE
  5
1029
102
{ACAD_REACTORS
330
10F7
102
}
330
1E
100
AcDbEntity
  8
STEMPEL
100
AcDbLine
 10
294.2997811704372
 20
467.0725771920486
 30
0.0
 11
330.5571404833181
 21
467.0725771920488
 31
0.0
  0
LINE
  5
102A
330
1E
100
AcDbEntity
  8
STEMPEL
100
AcDbLine
 10
101.0571404833183
 20
475.0725771920492
 30
0.0
 11
122.0571404833183
 21
475.072577192049
 31
0.0
  0
ARC
  5
102B
330
1E
100
AcDbEntity
  8
STEMPEL
100
AcDbCircle
 10
104.5446404833183
 20
478.3045303170486
 30
0.0
 40
3.231953125000015
100
AcDbArc
 50
223.6767967281013
 51
316.3232032718999
  0
ARC
  5
102C
330
1E
100
AcDbEntity
  8
STEMPEL
100
AcDbCircle
 10
104.5446404833183
 20
479.4406240670493
 30
0.0
 40
3.231953125000015
100
AcDbArc
 50
43.67679672810011
 51
136.3232032718987
  0
LINE
  5
102D
330
1E
100
AcDbEntity
  8
STEMPEL
100
AcDbLine
 10
104.5446404833183
 20
482.6725771920491
 30
0.0
 11
118.5696404833183
 21
482.6725771920491
 31
0.0
  0
LINE
  5
102E
330
1E
100
AcDbEntity
  8
STEMPEL
100
AcDbLine
 10
102.2071404833184
 20
481.6725771920496
 30
0.0
 11
102.2071404833183
 21
476.0725771920485
 31
0.0
  0
LINE
  5
102F
330
1E
100
AcDbEntity
  8
STEMPEL
100
AcDbLine
 10
101.0571404833183
 20
475.072577192049
 30
0.0
 11
101.0571404833183
 21
473.072577192049
 31
0.0
  0
LINE
  5
1030
330
1E
100
AcDbEntity
  8
STEMPEL
100
AcDbLine
 10
106.8821404833184
 20
481.6725771920494
 30
0.0
 11
106.8821404833182
 21
476.0725771920485
 31
0.0
  0
LINE
  5
1031
330
1E
100
AcDbEntity
  8
STEMPEL
100
AcDbLine
 10
120.9071404833183
 20
481.6725771920489
 30
0.0
 11
120.9071404833183
 21
476.072577192049
 31
0.0
  0
LINE
  5
1032
330
1E
100
AcDbEntity
  8
STEMPEL
100
AcDbLine
 10
116.2321404833183
 20
481.6725771920491
 30
0.0
 11
116.2321404833184
 21
476.072577192049
 31
0.0
  0
ARC
  5
1033
330
1E
100
AcDbEntity
  8
STEMPEL
100
AcDbCircle
 10
111.5571404833182
 20
486.5003896920486
 30
0.0
 40
11.42781249999961
100
AcDbArc
 50
245.8523381301012
 51
294.1476618698995
  0
ARC
  5
1034
330
1E
100
AcDbEntity
  8
STEMPEL
100
AcDbCircle
 10
118.5696404833182
 20
478.304530317049
 30
0.0
 40
3.231953125000015
100
AcDbArc
 50
223.6767967281013
 51
316.3232032718999
  0
LINE
  5
1035
330
1E
100
AcDbEntity
  8
STEMPEL
100
AcDbLine
 10
122.0571404833183
 20
475.072577192049
 30
0.0
 11
122.0571404833183
 21
473.072577192049
 31
0.0
  0
ARC
  5
1036
330
1E
100
AcDbEntity
  8
STEMPEL
100
AcDbCircle
 10
111.5571404833182
 20
471.2447646920495
 30
0.0
 40
11.42781249999961
100
AcDbArc
 50
65.85233813010053
 51
114.1476618698988
  0
ARC
  5
1037
330
1E
100
AcDbEntity
  8
STEMPEL
100
AcDbCircle
 10
118.5696404833182
 20
479.4406240670491
 30
0.0
 40
3.231953125000015
100
AcDbArc
 50
43.67679672810011
 51
136.3232032718987
  0
LINE
  5
1038
330
1E
100
AcDbEntity
  8
STEMPEL
100
AcDbLine
 10
116.5571404833181
 20
473.0725771920488
 30
0.0
 11
116.5571404833181
 21
464.0725771920487
 31
0.0
  0
LINE
  5
1039
330
1E
100
AcDbEntity
  8
HILF
100
AcDbLine
 10
115.5571404833181
 20
473.0725771920488
 30
0.0
 11
115.5571404833181
 21
464.0725771920487
 31
0.0
  0
LINE
  5
103A
330
1E
100
AcDbEntity
  8
HILF
100
AcDbLine
 10
107.5571404833181
 20
473.0725771920488
 30
0.0
 11
107.5571404833181
 21
464.0725771920487
 31
0.0
  0
LINE
  5
103B
330
1E
100
AcDbEntity
  8
STEMPEL
100
AcDbLine
 10
106.5571404833181
 20
473.0725771920488
 30
0.0
 11
106.5571404833181
 21
464.0725771920487
 31
0.0
  0
ARC
  5
103C
330
1E
100
AcDbEntity
  8
STEMPEL
100
AcDbCircle
 10
328.5446404833178
 20
479.4406240670491
 30
0.0
 40
3.231953125000015
100
AcDbArc
 50
43.67679672810129
 51
136.3232032718999
  0
ARC
  5
103D
330
1E
100
AcDbEntity
  8
STEMPEL
100
AcDbCircle
 10
335.5571404833181
 20
471.2447646920495
 30
0.0
 40
11.42781249999961
100
AcDbArc
 50
65.8523381301012
 51
114.1476618698994
  0
LINE
  5
103E
330
1E
100
AcDbEntity
  8
STEMPEL
100
AcDbLine
 10
325.0571404833179
 20
475.072577192049
 30
0.0
 11
325.0571404833179
 21
473.072577192049
 31
0.0
  0
ARC
  5
103F
330
1E
100
AcDbEntity
  8
STEMPEL
100
AcDbCircle
 10
328.5446404833178
 20
478.304530317049
 30
0.0
 40
3.231953125000015
100
AcDbArc
 50
223.6767967281001
 51
316.3232032718987
  0
ARC
  5
1040
330
1E
100
AcDbEntity
  8
STEMPEL
100
AcDbCircle
 10
335.5571404833181
 20
486.5003896920486
 30
0.0
 40
11.42781249999961
100
AcDbArc
 50
245.8523381301005
 51
294.1476618698988
  0
LINE
  5
1041
330
1E
100
AcDbEntity
  8
STEMPEL
100
AcDbLine
 10
330.8821404833179
 20
481.6725771920491
 30
0.0
 11
330.8821404833179
 21
476.072577192049
 31
0.0
  0
LINE
  5
1042
330
1E
100
AcDbEntity
  8
STEMPEL
100
AcDbLine
 10
326.2071404833177
 20
481.6725771920489
 30
0.0
 11
326.2071404833177
 21
476.072577192049
 31
0.0
  0
LINE
  5
1043
330
1E
100
AcDbEntity
  8
STEMPEL
100
AcDbLine
 10
340.2321404833178
 20
481.6725771920494
 30
0.0
 11
340.2321404833178
 21
476.0725771920485
 31
0.0
  0
LINE
  5
1044
330
1E
100
AcDbEntity
  8
STEMPEL
100
AcDbLine
 10
346.0571404833179
 20
475.072577192049
 30
0.0
 11
346.0571404833179
 21
473.072577192049
 31
0.0
  0
LINE
  5
1045
330
1E
100
AcDbEntity
  8
STEMPEL
100
AcDbLine
 10
344.9071404833178
 20
481.6725771920496
 30
0.0
 11
344.907140483318
 21
476.0725771920485
 31
0.0
  0
LINE
  5
1046
330
1E
100
AcDbEntity
  8
STEMPEL
100
AcDbLine
 10
342.5696404833179
 20
482.6725771920491
 30
0.0
 11
328.5446404833178
 21
482.6725771920491
 31
0.0
  0
ARC
  5
1047
330
1E
100
AcDbEntity
  8
STEMPEL
100
AcDbCircle
 10
342.5696404833179
 20
479.4406240670493
 30
0.0
 40
3.231953125000015
100
AcDbArc
 50
43.67679672810129
 51
136.3232032718999
  0
ARC
  5
1048
330
1E
100
AcDbEntity
  8
STEMPEL
100
AcDbCircle
 10
342.5696404833179
 20
478.3045303170486
 30
0.0
 40
3.231953125000015
100
AcDbArc
 50
223.6767967281001
 51
316.3232032718987
  0
LINE
  5
1049
330
1E
100
AcDbEntity
  8
STEMPEL
100
AcDbLine
 10
346.0571404833179
 20
475.0725771920492
 30
0.0
 11
325.0571404833179
 21
475.072577192049
 31
0.0
  0
LINE
  5
104A
330
1E
100
AcDbEntity
  8
STEMPEL
100
AcDbLine
 10
330.5571404833181
 20
488.0725771920487
 30
0.0
 11
331.5571404833181
 21
489.0725771920487
 31
0.0
  0
LINE
  5
104B
330
1E
100
AcDbEntity
  8
STEMPEL
100
AcDbLine
 10
330.5571404833181
 20
488.0725771920487
 30
0.0
 11
330.5571404833181
 21
482.6725771920491
 31
0.0
  0
LINE
  5
104C
330
1E
100
AcDbEntity
  8
HILF
100
AcDbLine
 10
331.5571404833181
 20
489.0725771920487
 30
0.0
 11
331.5571404833181
 21
482.6725771920491
 31
0.0
  0
LINE
  5
104D
330
1E
100
AcDbEntity
  8
STEMPEL
100
AcDbLine
 10
339.5571404833181
 20
489.0725771920487
 30
0.0
 11
340.5571404833181
 21
488.0725771920487
 31
0.0
  0
LINE
  5
104E
330
1E
100
AcDbEntity
  8
STEMPEL
100
AcDbLine
 10
340.5571404833181
 20
488.0725771920487
 30
0.0
 11
340.5571404833181
 21
482.6725771920491
 31
0.0
  0
LINE
  5
104F
330
1E
100
AcDbEntity
  8
HILF
100
AcDbLine
 10
339.5571404833181
 20
489.0725771920487
 30
0.0
 11
339.5571404833181
 21
482.6725771920491
 31
0.0
  0
LINE
  5
1050
330
1E
100
AcDbEntity
  8
STEMPEL
100
AcDbLine
 10
340.5571404833181
 20
488.0725771920489
 30
0.0
 11
330.5571404833181
 21
488.0725771920489
 31
0.0
  0
LINE
  5
1051
330
1E
100
AcDbEntity
  8
STEMPEL
100
AcDbLine
 10
331.5571404833181
 20
489.0725771920487
 30
0.0
 11
339.5571404833181
 21
489.0725771920487
 31
0.0
  0
LINE
  5
1052
330
1E
100
AcDbEntity
  8
STEMPEL
100
AcDbLine
 10
340.5571404833181
 20
473.0725771920488
 30
0.0
 11
340.5571404833181
 21
464.0725771920487
 31
0.0
  0
LINE
  5
1053
330
1E
100
AcDbEntity
  8
HILF
100
AcDbLine
 10
339.5571404833181
 20
473.0725771920488
 30
0.0
 11
339.5571404833181
 21
464.0725771920487
 31
0.0
  0
LINE
  5
1054
330
1E
100
AcDbEntity
  8
HILF
100
AcDbLine
 10
331.5571404833181
 20
473.0725771920488
 30
0.0
 11
331.5571404833181
 21
464.0725771920487
 31
0.0
  0
LINE
  5
1055
330
1E
100
AcDbEntity
  8
STEMPEL
100
AcDbLine
 10
330.5571404833181
 20
473.0725771920488
 30
0.0
 11
330.5571404833181
 21
464.0725771920487
 31
0.0
  0
LINE
  5
1056
330
1E
100
AcDbEntity
  8
MITTEL
100
AcDbLine
 10
335.5571404833181
 20
493.5630714790333
 30
0.0
 11
335.5571404833181
 21
464.0725771920487
 31
0.0
  0
LINE
  5
1057
330
1E
100
AcDbEntity
  8
STEMPEL
100
AcDbLine
 10
172.7571404833179
 20
489.6938975356071
 30
0.0
 11
168.2448650082766
 21
489.6938975356071
 31
0.0
  0
LINE
  5
1058
330
1E
100
AcDbEntity
  8
STEMPEL
100
AcDbLine
 10
163.8071404833179
 20
471.1938975356072
 30
0.0
 11
165.8071404833179
 21
469.1938975356072
 31
0.0
  0
LINE
  5
1059
330
1E
100
AcDbEntity
  8
STEMPEL
100
AcDbLine
 10
163.5571404833179
 20
464.6938975356071
 30
0.0
 11
165.8071404833179
 21
468.5910118526371
 31
0.0
  0
LINE
  5
105A
330
1E
100
AcDbEntity
  8
STEMPEL
100
AcDbLine
 10
170.0571404833179
 20
464.6938975356071
 30
0.0
 11
163.5571404833179
 21
464.6938975356071
 31
0.0
  0
ARC
  5
105B
330
1E
100
AcDbEntity
  8
STEMPEL
100
AcDbCircle
 10
174.0571404833179
 20
467.6938975356072
 30
0.0
 40
5.0
100
AcDbArc
 50
191.5369590328181
 51
254.9299378551102
  0
LINE
  5
105C
330
1E
100
AcDbEntity
  8
STEMPEL
100
AcDbLine
 10
169.1581609977519
 20
466.6938975356072
 30
0.0
 11
166.9575555597374
 21
466.6938975356072
 31
0.0
  0
LINE
  5
105D
330
1E
100
AcDbEntity
  8
STEMPEL
100
AcDbLine
 10
165.5571404833179
 20
464.6938975356071
 30
0.0
 11
166.9575555597374
 21
466.6938975356072
 31
0.0
  0
LINE
  5
105E
330
1E
100
AcDbEntity
  8
STEMPEL
100
AcDbLine
 10
165.8071404833179
 20
469.1938975356072
 30
0.0
 11
165.8071404833179
 21
468.5910118526371
 31
0.0
  0
LINE
  5
105F
330
1E
100
AcDbEntity
  8
STEMPEL
100
AcDbLine
 10
168.4358201397573
 20
482.693897535607
 30
0.0
 11
163.8071404833179
 21
482.693897535607
 31
0.0
  0
ARC
  5
1060
330
1E
100
AcDbEntity
  8
STEMPEL
100
AcDbCircle
 10
167.8071404833179
 20
482.7524182791478
 30
0.0
 40
4.0
100
AcDbArc
 50
148.1457059206467
 51
180.0
  0
LINE
  5
1061
330
1E
100
AcDbEntity
  8
STEMPEL
100
AcDbLine
 10
163.8071404833179
 20
472.1938975356072
 30
0.0
 11
166.0528098169804
 21
474.4395668692695
 31
0.0
  0
LINE
  5
1062
330
1E
100
AcDbEntity
  8
STEMPEL
100
AcDbLine
 10
163.8071404833179
 20
472.1938975356072
 30
0.0
 11
163.8071404833179
 21
471.1938975356072
 31
0.0
  0
LINE
  5
1063
330
1E
100
AcDbEntity
  8
STEMPEL
100
AcDbLine
 10
163.8071404833179
 20
482.7524182791478
 30
0.0
 11
163.8071404833179
 21
482.693897535607
 31
0.0
  0
LINE
  5
1064
330
1E
100
AcDbEntity
  8
STEMPEL
100
AcDbLine
 10
166.9848273860254
 20
477.0002640947557
 30
0.0
 11
166.0528098169804
 21
474.4395668692695
 31
0.0
  0
LINE
  5
1065
330
1E
100
AcDbEntity
  8
STEMPEL
100
AcDbLine
 10
164.4095686326921
 20
484.8634619830619
 30
0.0
 11
166.9707755642919
 21
488.9855389245749
 31
0.0
  0
LINE
  5
1066
330
1E
100
AcDbEntity
  8
STEMPEL
100
AcDbLine
 10
172.7571404833179
 20
483.4938975356071
 30
0.0
 11
169.6937537477102
 21
488.5821261032609
 31
0.0
  0
ARC
  5
1067
330
1E
100
AcDbEntity
  8
STEMPEL
100
AcDbCircle
 10
168.2448650082766
 20
488.1938975356072
 30
0.0
 40
1.5
100
AcDbArc
 50
15.00000000000074
 51
148.1457059206467
  0
LINE
  5
1068
330
1E
100
AcDbEntity
  8
STEMPEL
100
AcDbLine
 10
274.3571404833179
 20
489.6938975356071
 30
0.0
 11
278.8694159583594
 21
489.6938975356071
 31
0.0
  0
ARC
  5
1069
330
1E
100
AcDbEntity
  8
STEMPEL
100
AcDbCircle
 10
278.8694159583594
 20
488.1938975356072
 30
0.0
 40
1.5
100
AcDbArc
 50
31.85429407935322
 51
164.9999999999992
  0
LINE
  5
106A
330
1E
100
AcDbEntity
  8
STEMPEL
100
AcDbLine
 10
280.1294535806108
 20
477.0002640947549
 30
0.0
 11
281.0614711496556
 21
474.4395668692695
 31
0.0
  0
LINE
  5
106B
330
1E
100
AcDbEntity
  8
STEMPEL
100
AcDbLine
 10
277.0571404833179
 20
464.6938975356071
 30
0.0
 11
283.5571404833179
 21
464.6938975356071
 31
0.0
  0
LINE
  5
106C
330
1E
100
AcDbEntity
  8
STEMPEL
100
AcDbLine
 10
277.956119968884
 20
466.6938975356072
 30
0.0
 11
280.1567254068985
 21
466.6938975356072
 31
0.0
  0
ARC
  5
106D
330
1E
100
AcDbEntity
  8
STEMPEL
100
AcDbCircle
 10
273.0571404833179
 20
467.6938975356072
 30
0.0
 40
5.0
100
AcDbArc
 50
285.0700621448882
 51
348.4630409671819
  0
LINE
  5
106E
330
1E
100
AcDbEntity
  8
STEMPEL
100
AcDbLine
 10
274.3571404833179
 20
483.4938975356071
 30
0.0
 11
277.4205272189258
 21
488.5821261032609
 31
0.0
  0
LINE
  5
106F
330
1E
100
AcDbEntity
  8
STEMPEL
100
AcDbLine
 10
283.3071404833179
 20
471.1938975356072
 30
0.0
 11
281.3071404833179
 21
469.1938975356072
 31
0.0
  0
LINE
  5
1070
330
1E
100
AcDbEntity
  8
STEMPEL
100
AcDbLine
 10
283.5571404833179
 20
464.6938975356071
 30
0.0
 11
281.3071404833179
 21
468.5910118526371
 31
0.0
  0
LINE
  5
1071
330
1E
100
AcDbEntity
  8
STEMPEL
100
AcDbLine
 10
281.5571404833179
 20
464.6938975356071
 30
0.0
 11
280.1567254068985
 21
466.6938975356072
 31
0.0
  0
LINE
  5
1072
330
1E
100
AcDbEntity
  8
STEMPEL
100
AcDbLine
 10
281.3071404833179
 20
469.1938975356072
 30
0.0
 11
281.3071404833179
 21
468.5910118526371
 31
0.0
  0
LINE
  5
1073
330
1E
100
AcDbEntity
  8
STEMPEL
100
AcDbLine
 10
283.3071404833179
 20
472.1938975356072
 30
0.0
 11
281.0614711496556
 21
474.4395668692695
 31
0.0
  0
LINE
  5
1074
330
1E
100
AcDbEntity
  8
STEMPEL
100
AcDbLine
 10
283.3071404833179
 20
472.1938975356072
 30
0.0
 11
283.3071404833179
 21
471.1938975356072
 31
0.0
  0
LINE
  5
1075
330
1E
100
AcDbEntity
  8
STEMPEL
100
AcDbLine
 10
282.7047123339438
 20
484.8634619830619
 30
0.0
 11
280.1435054023441
 21
488.9855389245749
 31
0.0
  0
ARC
  5
1076
330
1E
100
AcDbEntity
  8
STEMPEL
100
AcDbCircle
 10
279.3071404833179
 20
482.7524182791478
 30
0.0
 40
4.0
100
AcDbArc
 50
0.0
 51
31.85429407935322
  0
LINE
  5
1077
330
1E
100
AcDbEntity
  8
STEMPEL
100
AcDbLine
 10
278.6784608268777
 20
482.693897535607
 30
0.0
 11
283.3071404833179
 21
482.693897535607
 31
0.0
  0
LINE
  5
1078
330
1E
100
AcDbEntity
  8
STEMPEL
100
AcDbLine
 10
283.3071404833179
 20
482.7524182791478
 30
0.0
 11
283.3071404833179
 21
482.693897535607
 31
0.0
  0
LINE
  5
1079
330
1E
100
AcDbEntity
  8
STEMPEL
100
AcDbLine
 10
298.7530999762114
 20
489.0725771920487
 30
0.0
 11
306.7530999762114
 21
489.0725771920487
 31
0.0
  0
LINE
  5
107A
330
1E
100
AcDbEntity
  8
STEMPEL
100
AcDbLine
 10
307.7530999762114
 20
488.0725771920489
 30
0.0
 11
297.7530999762114
 21
488.0725771920489
 31
0.0
  0
LINE
  5
107B
330
1E
100
AcDbEntity
  8
HILF
100
AcDbLine
 10
306.7530999762114
 20
489.0725771920487
 30
0.0
 11
306.7530999762114
 21
482.6725771920491
 31
0.0
  0
LINE
  5
107C
330
1E
100
AcDbEntity
  8
STEMPEL
100
AcDbLine
 10
307.7530999762114
 20
488.0725771920487
 30
0.0
 11
307.7530999762114
 21
482.6725771920491
 31
0.0
  0
LINE
  5
107D
330
1E
100
AcDbEntity
  8
STEMPEL
100
AcDbLine
 10
306.7530999762114
 20
489.0725771920487
 30
0.0
 11
307.7530999762114
 21
488.0725771920487
 31
0.0
  0
LINE
  5
107E
330
1E
100
AcDbEntity
  8
HILF
100
AcDbLine
 10
298.7530999762114
 20
489.0725771920487
 30
0.0
 11
298.7530999762114
 21
482.6725771920491
 31
0.0
  0
LINE
  5
107F
330
1E
100
AcDbEntity
  8
STEMPEL
100
AcDbLine
 10
297.7530999762114
 20
488.0725771920487
 30
0.0
 11
297.7530999762114
 21
482.6725771920491
 31
0.0
  0
LINE
  5
1080
330
1E
100
AcDbEntity
  8
STEMPEL
100
AcDbLine
 10
297.7530999762114
 20
488.0725771920487
 30
0.0
 11
298.7530999762114
 21
489.0725771920487
 31
0.0
  0
LINE
  5
1081
330
1E
100
AcDbEntity
  8
STEMPEL
100
AcDbLine
 10
313.2530999762112
 20
475.0725771920492
 30
0.0
 11
292.2530999762112
 21
475.072577192049
 31
0.0
  0
ARC
  5
1082
330
1E
100
AcDbEntity
  8
STEMPEL
100
AcDbCircle
 10
309.7655999762112
 20
478.3045303170486
 30
0.0
 40
3.231953125000015
100
AcDbArc
 50
223.6767967281001
 51
316.3232032718987
  0
ARC
  5
1083
330
1E
100
AcDbEntity
  8
STEMPEL
100
AcDbCircle
 10
309.7655999762112
 20
479.4406240670493
 30
0.0
 40
3.231953125000015
100
AcDbArc
 50
43.67679672810129
 51
136.3232032718999
  0
LINE
  5
1084
330
1E
100
AcDbEntity
  8
STEMPEL
100
AcDbLine
 10
309.7655999762112
 20
482.6725771920491
 30
0.0
 11
295.7405999762111
 21
482.6725771920491
 31
0.0
  0
LINE
  5
1085
330
1E
100
AcDbEntity
  8
STEMPEL
100
AcDbLine
 10
312.1030999762111
 20
481.6725771920496
 30
0.0
 11
312.1030999762113
 21
476.0725771920485
 31
0.0
  0
LINE
  5
1086
330
1E
100
AcDbEntity
  8
STEMPEL
100
AcDbLine
 10
313.2530999762112
 20
475.072577192049
 30
0.0
 11
313.2530999762112
 21
473.072577192049
 31
0.0
  0
LINE
  5
1087
330
1E
100
AcDbEntity
  8
STEMPEL
100
AcDbLine
 10
307.4280999762111
 20
481.6725771920494
 30
0.0
 11
307.4280999762113
 21
476.0725771920485
 31
0.0
  0
LINE
  5
1088
330
1E
100
AcDbEntity
  8
STEMPEL
100
AcDbLine
 10
293.4030999762113
 20
481.6725771920489
 30
0.0
 11
293.4030999762113
 21
476.072577192049
 31
0.0
  0
LINE
  5
1089
330
1E
100
AcDbEntity
  8
STEMPEL
100
AcDbLine
 10
298.0780999762112
 20
481.6725771920491
 30
0.0
 11
298.0780999762112
 21
476.072577192049
 31
0.0
  0
ARC
  5
108A
330
1E
100
AcDbEntity
  8
STEMPEL
100
AcDbCircle
 10
302.7530999762114
 20
486.5003896920486
 30
0.0
 40
11.42781249999961
100
AcDbArc
 50
245.8523381301005
 51
294.1476618698988
  0
ARC
  5
108B
330
1E
100
AcDbEntity
  8
STEMPEL
100
AcDbCircle
 10
295.7405999762114
 20
478.304530317049
 30
0.0
 40
3.231953125000015
100
AcDbArc
 50
223.6767967281001
 51
316.3232032718987
  0
LINE
  5
108C
330
1E
100
AcDbEntity
  8
STEMPEL
100
AcDbLine
 10
292.2530999762112
 20
475.072577192049
 30
0.0
 11
292.2530999762112
 21
473.072577192049
 31
0.0
  0
ARC
  5
108D
330
1E
100
AcDbEntity
  8
STEMPEL
100
AcDbCircle
 10
302.7530999762114
 20
471.2447646920495
 30
0.0
 40
11.42781249999961
100
AcDbArc
 50
65.8523381301012
 51
114.1476618698994
  0
ARC
  5
108E
330
1E
100
AcDbEntity
  8
STEMPEL
100
AcDbCircle
 10
295.7405999762114
 20
479.4406240670491
 30
0.0
 40
3.231953125000015
100
AcDbArc
 50
43.67679672810129
 51
136.3232032718999
  0
LINE
  5
108F
330
1E
100
AcDbEntity
  8
HILF
100
AcDbLine
 10
306.7530999762115
 20
467.0725771920486
 30
0.0
 11
306.7530999762114
 21
464.0725771920487
 31
0.0
  0
LINE
  5
1090
330
1E
100
AcDbEntity
  8
STEMPEL
100
AcDbLine
 10
307.7530999762114
 20
467.0725771920486
 30
0.0
 11
307.7530999762114
 21
464.0725771920487
 31
0.0
  0
LINE
  5
1091
330
1E
100
AcDbEntity
  8
STEMPEL
100
AcDbLine
 10
297.7530999762114
 20
467.0725771920486
 30
0.0
 11
297.7530999762114
 21
464.1080686659695
 31
0.0
  0
LINE
  5
1092
330
1E
100
AcDbEntity
  8
HILF
100
AcDbLine
 10
298.7530999762115
 20
467.0725771920486
 30
0.0
 11
298.7530999762114
 21
464.0725771920487
 31
0.0
  0
LINE
  5
1093
330
1E
100
AcDbEntity
  8
MITTEL
100
AcDbLine
 10
302.7530999762114
 20
493.5630714790333
 30
0.0
 11
302.7530999762114
 21
464.0725771920487
 31
0.0
  0
LINE
  5
1094
330
1E
100
AcDbEntity
  8
MITTEL
100
AcDbLine
 10
144.3611809904248
 20
493.5630714790333
 30
0.0
 11
144.3611809904248
 21
464.0725771920487
 31
0.0
  0
ARC
  5
1095
330
1E
100
AcDbEntity
  8
STEMPEL
100
AcDbCircle
 10
151.3736809904249
 20
479.4406240670491
 30
0.0
 40
3.231953125000015
100
AcDbArc
 50
43.67679672810011
 51
136.3232032718987
  0
ARC
  5
1096
330
1E
100
AcDbEntity
  8
STEMPEL
100
AcDbCircle
 10
144.3611809904248
 20
471.2447646920495
 30
0.0
 40
11.42781249999961
100
AcDbArc
 50
65.85233813010053
 51
114.1476618698988
  0
LINE
  5
1097
330
1E
100
AcDbEntity
  8
STEMPEL
100
AcDbLine
 10
154.861180990425
 20
475.072577192049
 30
0.0
 11
154.861180990425
 21
473.072577192049
 31
0.0
  0
ARC
  5
1098
330
1E
100
AcDbEntity
  8
STEMPEL
100
AcDbCircle
 10
151.3736809904249
 20
478.304530317049
 30
0.0
 40
3.231953125000015
100
AcDbArc
 50
223.6767967281013
 51
316.3232032718999
  0
ARC
  5
1099
330
1E
100
AcDbEntity
  8
STEMPEL
100
AcDbCircle
 10
144.3611809904248
 20
486.5003896920486
 30
0.0
 40
11.42781249999961
100
AcDbArc
 50
245.8523381301012
 51
294.1476618698995
  0
LINE
  5
109A
330
1E
100
AcDbEntity
  8
STEMPEL
100
AcDbLine
 10
149.036180990425
 20
481.6725771920491
 30
0.0
 11
149.036180990425
 21
476.072577192049
 31
0.0
  0
LINE
  5
109B
330
1E
100
AcDbEntity
  8
STEMPEL
100
AcDbLine
 10
153.7111809904249
 20
481.6725771920489
 30
0.0
 11
153.7111809904249
 21
476.072577192049
 31
0.0
  0
LINE
  5
109C
330
1E
100
AcDbEntity
  8
STEMPEL
100
AcDbLine
 10
139.6861809904251
 20
481.6725771920494
 30
0.0
 11
139.6861809904248
 21
476.0725771920485
 31
0.0
  0
LINE
  5
109D
330
1E
100
AcDbEntity
  8
STEMPEL
100
AcDbLine
 10
133.861180990425
 20
475.072577192049
 30
0.0
 11
133.861180990425
 21
473.072577192049
 31
0.0
  0
LINE
  5
109E
330
1E
100
AcDbEntity
  8
STEMPEL
100
AcDbLine
 10
135.0111809904251
 20
481.6725771920496
 30
0.0
 11
135.0111809904249
 21
476.0725771920485
 31
0.0
  0
LINE
  5
109F
330
1E
100
AcDbEntity
  8
STEMPEL
100
AcDbLine
 10
137.348680990425
 20
482.6725771920491
 30
0.0
 11
151.3736809904251
 21
482.6725771920491
 31
0.0
  0
ARC
  5
10A0
330
1E
100
AcDbEntity
  8
STEMPEL
100
AcDbCircle
 10
137.348680990425
 20
479.4406240670493
 30
0.0
 40
3.231953125000015
100
AcDbArc
 50
43.67679672810011
 51
136.3232032718987
  0
ARC
  5
10A1
330
1E
100
AcDbEntity
  8
STEMPEL
100
AcDbCircle
 10
137.348680990425
 20
478.3045303170486
 30
0.0
 40
3.231953125000015
100
AcDbArc
 50
223.6767967281013
 51
316.3232032718999
  0
LINE
  5
10A2
330
1E
100
AcDbEntity
  8
STEMPEL
100
AcDbLine
 10
133.861180990425
 20
475.0725771920492
 30
0.0
 11
154.861180990425
 21
475.072577192049
 31
0.0
  0
LINE
  5
10A3
330
1E
100
AcDbEntity
  8
STEMPEL
100
AcDbLine
 10
149.3611809904248
 20
488.0725771920487
 30
0.0
 11
148.3611809904248
 21
489.0725771920487
 31
0.0
  0
LINE
  5
10A4
330
1E
100
AcDbEntity
  8
STEMPEL
100
AcDbLine
 10
149.3611809904248
 20
488.0725771920487
 30
0.0
 11
149.3611809904248
 21
482.6725771920491
 31
0.0
  0
LINE
  5
10A5
330
1E
100
AcDbEntity
  8
HILF
100
AcDbLine
 10
148.3611809904248
 20
489.0725771920487
 30
0.0
 11
148.3611809904248
 21
482.6725771920491
 31
0.0
  0
LINE
  5
10A6
330
1E
100
AcDbEntity
  8
STEMPEL
100
AcDbLine
 10
140.3611809904248
 20
489.0725771920487
 30
0.0
 11
139.3611809904248
 21
488.0725771920487
 31
0.0
  0
LINE
  5
10A7
330
1E
100
AcDbEntity
  8
STEMPEL
100
AcDbLine
 10
139.3611809904248
 20
488.0725771920487
 30
0.0
 11
139.3611809904248
 21
482.6725771920491
 31
0.0
  0
LINE
  5
10A8
330
1E
100
AcDbEntity
  8
HILF
100
AcDbLine
 10
140.3611809904248
 20
489.0725771920487
 30
0.0
 11
140.3611809904248
 21
482.6725771920491
 31
0.0
  0
LINE
  5
10A9
330
1E
100
AcDbEntity
  8
STEMPEL
100
AcDbLine
 10
139.3611809904248
 20
488.0725771920489
 30
0.0
 11
149.3611809904248
 21
488.0725771920489
 31
0.0
  0
LINE
  5
10AA
330
1E
100
AcDbEntity
  8
STEMPEL
100
AcDbLine
 10
148.3611809904248
 20
489.0725771920487
 30
0.0
 11
140.3611809904248
 21
489.0725771920487
 31
0.0
  0
LINE
  5
10AB
330
1E
100
AcDbEntity
  8
STEMPEL
100
AcDbLine
 10
139.3611809904248
 20
467.0725771920486
 30
0.0
 11
139.3611809904248
 21
464.0725771920487
 31
0.0
  0
LINE
  5
10AC
330
1E
100
AcDbEntity
  8
HILF
100
AcDbLine
 10
140.3611809904247
 20
467.0725771920486
 30
0.0
 11
140.3611809904248
 21
464.0725771920487
 31
0.0
  0
LINE
  5
10AD
330
1E
100
AcDbEntity
  8
HILF
100
AcDbLine
 10
148.3611809904247
 20
467.0725771920486
 30
0.0
 11
148.3611809904248
 21
464.0725771920487
 31
0.0
  0
LINE
  5
10AE
330
1E
100
AcDbEntity
  8
STEMPEL
100
AcDbLine
 10
149.3611809904248
 20
467.0725771920486
 30
0.0
 11
149.3611809904248
 21
464.0725771920487
 31
0.0
  0
LINE
  5
10AF
330
1E
100
AcDbEntity
  8
STEMPEL
100
AcDbLine
 10
274.357140483318
 20
461.072577192049
 30
0.0
 11
368.5571404833181
 21
461.0725771920484
 31
0.0
  0
HATCH
  5
10B0
330
1E
100
AcDbEntity
  8
SCHRAFF
100
AcDbHatch
 10
0.0
 20
0.0
 30
0.0
210
0.0
220
0.0
230
1.0
  2
NET
 70
     0
 71
     0
 91
        2
 92
        7
 72
     1
 73
     1
 93
       18
 10
172.757140483318
 20
483.4938975356069
 42
0.0
 10
169.6937537477102
 20
488.5821261032609
 42
0.6565381519876337
 10
166.9707755642919
 20
488.9855389245749
 42
0.0
 10
164.4095686326921
 20
484.8634619830619
 42
0.1436237563963219
 10
163.8075685909055
 20
482.693897535607
 42
0.0
 10
168.4358201397579
 20
482.6938975356071
 42
0.0
 10
170.5571404833174
 20
480.5725771920473
 42
0.0
 10
166.9848273860254
 20
477.0002640947557
 42
0.0
 10
166.0528098169804
 20
474.4395668692695
 42
0.0
 10
163.8071404833179
 20
472.1938975356072
 42
0.0
 10
163.8071404833179
 20
471.1938975356073
 42
0.0
 10
165.8071404833179
 20
469.1938975356072
 42
0.0
 10
165.8071404833179
 20
468.5910118526371
 42
0.0
 10
163.5571404833179
 20
464.6938975356071
 42
0.0
 10
165.5571404833179
 20
464.6938975356071
 42
0.0
 10
166.9575555597374
 20
466.6938975356072
 42
0.0
 10
169.1581609977519
 20
466.6938975356072
 42
0.283881146809468
 10
172.757140483318
 20
462.8658544537778
 42
0.0
 97
        0
 92
        7
 72
     1
 73
     1
 93
       18
 10
283.3071404833179
 20
471.1938975356071
 42
0.0
 10
283.3071404833179
 20
472.1938975356072
 42
0.0
 10
281.0614711496557
 20
474.4395668692694
 42
0.0
 10
280.1294535806109
 20
477.0002640947549
 42
0.0
 10
276.557140483318
 20
480.5725771920474
 42
0.0
 10
278.6784608268773
 20
482.6938975356069
 42
0.0
 10
283.3067123757303
 20
482.693897535607
 42
0.1436237563963265
 10
282.7047123339437
 20
484.863461983062
 42
0.0
 10
280.1435054023441
 20
488.9855389245749
 42
0.6565381519876166
 10
277.4205272189258
 20
488.5821261032609
 42
0.0
 10
274.357140483318
 20
483.4938975356074
 42
0.0
 10
274.357140483318
 20
462.8658544537779
 42
0.2838811468094691
 10
277.9561199688842
 20
466.6938975356072
 42
0.0
 10
280.1567254068985
 20
466.6938975356072
 42
0.0
 10
281.557140483318
 20
464.6938975356071
 42
0.0
 10
283.5571404833179
 20
464.6938975356071
 42
0.0
 10
281.3071404833179
 20
468.5910118526369
 42
0.0
 10
281.3071404833179
 20
469.1938975356071
 42
0.0
 97
        0
 75
     0
 76
     1
 52
45.0
 41
15.0
 77
     0
 78
     2
 53
45.0
 43
0.0
 44
10.87213445526595
 45
-1.325825214724776
 46
1.325825214724776
 79
     0
 53
135.0
 43
0.0
 44
10.87213445526595
 45
-1.325825214724776
 46
-1.325825214724776
 79
     0
 47
0.2470848825781648
 98
        2
 10
168.6561675479934
 20
474.1777049886881
 10
278.1977659214526
 20
470.718517498189
  0
TEXT
  5
10B1
330
1E
100
AcDbEntity
  8
TEXT
 62
     1
100
AcDbText
 10
440.0395224086987
 20
415.6470086640029
 30
0.0
 40
7.0
  1
EDV-Art.Nr. 21806.100X
 41
0.8
  7
GREEKS
100
AcDbText
  0
LINE
  5
10B2
330
1E
100
AcDbEntity
  8
TEXT
 62
     2
100
AcDbLine
 10
438.4514571955655
 20
425.4751636354758
 30
0.0
 11
545.5734112639167
 21
425.4751636354758
 31
0.0
  0
TEXT
  5
10B3
330
1E
100
AcDbEntity
  8
TEXT
 62
     1
100
AcDbText
 10
440.0395224086987
 20
429.3632603161527
 30
0.0
 40
7.0
  1
Festflansch DN100
 41
0.8
  7
GREEKS
100
AcDbText
  0
LINE
  5
10B4
330
1E
100
AcDbEntity
  8
TEXT
 62
     2
100
AcDbLine
 10
438.4514571955655
 20
455.6427723695033
 30
0.0
 11
545.5734112639167
 21
455.6427723695033
 31
0.0
  0
TEXT
  5
10B5
330
1E
100
AcDbEntity
  8
TEXT
 62
     1
100
AcDbText
 10
440.0395224086987
 20
459.5308690501801
 30
0.0
 40
7.0
  1
Losflansch DN100
 41
0.8
  7
GREEKS
100
AcDbText
  0
TEXT
  5
10B6
330
1E
100
AcDbEntity
  8
TEXT
 62
     1
100
AcDbText
 10
440.0395224086987
 20
445.8224408238733
 30
0.0
 40
7.0
  1
EDV-Art.Nr. 21805.100X
 41
0.8
  7
GREEKS
100
AcDbText
  0
DIMENSION
  5
10C0
330
1E
100
AcDbEntity
  8
BEM
100
AcDbDimension
  2
*D9
 10
61.06973112687274
 20
464.0725771920493
 30
0.0
 11
54.56973112687267
 21
414.0725771920493
 31
0.0
 70
    32
  1
min.35mm
 71
     5
 42
100.0
  3
Standard
100
AcDbAlignedDimension
 13
79.5571404833181
 23
364.0725771920494
 33
0.0
 14
79.5571404833181
 24
464.0725771920493
 34
0.0
 50
90.0
100
AcDbRotatedDimension
1001
ACAD
1000
DSTYLE
1002
{
1070
    40
1040
2.0
1070
    41
1040
3.5
1070
    42
1040
1.0
1070
    43
1040
7.0
1070
    44
1040
1.0
1070
    73
1070
     0
1070
    74
1070
     0
1070
    77
1070
     1
1070
    78
1070
     8
1070
    79
1070
     2
1070
   140
1040
3.5
1070
   141
1040
1.5
1070
   146
1040
0.5142857142857144
1070
   147
1040
1.5
1070
   172
1070
     1
1070
   178
1070
     1
1070
   179
1070
     2
1070
   271
1070
     2
1070
   272
1070
     2
1070
   284
1070
     8
1070
   285
1070
     8
1070
   286
1070
     8
1002
}
  0
HATCH
  5
10F7
330
1E
100
AcDbEntity
  8
SCHRAFF
100
AcDbHatch
 10
0.0
 20
0.0
 30
0.0
210
0.0
220
0.0
230
1.0
  2
_USER
 70
     0
 71
     1
 91
        4
 92
        7
 72
     0
 73
     1
 93
        6
 10
368.5571404833172
 20
472.0725771920492
 10
367.5571404833172
 20
473.0725771920493
 10
342.5571404833172
 20
473.0725771920494
 10
342.5571404833172
 20
467.0725771920488
 10
367.5571404833172
 20
467.072577192049
 10
368.5571404833172
 20
468.0725771920489
 97
        6
330
1020
330
1028
330
1023
330
1027
330
1021
330
101F
 92
        7
 72
     0
 73
     1
 93
        6
 10
328.5571404833171
 20
473.0725771920492
 10
303.5571404833173
 20
473.0725771920492
 10
302.5571404833172
 20
472.0725771920491
 10
302.5571404833172
 20
468.0725771920489
 10
303.5571404833173
 20
467.0725771920486
 10
328.5571404833172
 20
467.0725771920488
 97
        6
330
1028
330
101B
330
1017
330
101C
330
1029
330
1022
 92
        7
 72
     0
 73
     1
 93
        6
 10
144.5571404833172
 20
472.072577192049
 10
143.5571404833171
 20
473.0725771920491
 10
118.5571404833172
 20
473.0725771920491
 10
118.5571404833172
 20
467.0725771920489
 10
143.5571404833171
 20
467.0725771920487
 10
144.5571404833172
 20
468.0725771920489
 97
        6
330
101D
330
1025
330
1015
330
1026
330
101E
330
1016
 92
        7
 72
     0
 73
     1
 93
        6
 10
104.5571404833172
 20
473.0725771920489
 10
79.5571404833172
 20
473.0725771920488
 10
78.55714048331719
 20
472.0725771920489
 10
78.55714048331719
 20
468.0725771920489
 10
79.55714048331721
 20
467.0725771920489
 10
104.5571404833172
 20
467.0725771920489
 97
        6
330
1025
330
1019
330
1018
330
101A
330
1013
330
1014
 75
     0
 76
     0
 52
45.0
 41
5.0
 77
     0
 78
     1
 53
45.0
 43
0.0
 44
0.0
 45
-3.535533905932737
 46
3.535533905932737
 79
     0
 47
0.3418126515756621
 98
        4
 10
352.2291576888465
 20
470.6687986533673
 10
312.9084307533663
 20
470.3269854831867
 10
141.9487477191851
 20
470.6687986533673
 10
90.31892464448356
 20
469.9851723130061
  0
HATCH
  5
1114
330
1E
100
AcDbEntity
  8
SCHRAFF
100
AcDbHatch
 10
0.0
 20
0.0
 30
0.0
210
0.0
220
0.0
230
1.0
  2
_USER
 70
     0
 71
     1
 91
        4
 92
        7
 72
     0
 73
     1
 93
        6
 10
368.5571404833171
 20
372.0725771920492
 10
367.5571404833169
 20
373.0725771920494
 10
342.5571404833172
 20
373.0725771920494
 10
342.5571404833172
 20
367.0725771920489
 10
367.5571404833172
 20
367.0725771920489
 10
368.5571404833172
 20
368.072577192049
 97
        6
330
E30
330
E28
330
E2D
330
E29
330
E2F
330
E31
 92
        7
 72
     0
 73
     1
 93
        6
 10
328.5571404833172
 20
373.0725771920493
 10
303.5571404833174
 20
373.0725771920493
 10
302.5571404833172
 20
372.0725771920492
 10
302.5571404833172
 20
368.0725771920489
 10
303.5571404833174
 20
367.0725771920487
 10
328.5571404833172
 20
367.0725771920488
 97
        6
330
E28
330
E35
330
E39
330
E34
330
E27
330
E2E
 92
        7
 72
     0
 73
     1
 93
        6
 10
144.5571404833172
 20
372.072577192049
 10
143.5571404833171
 20
373.0725771920491
 10
118.5571404833172
 20
373.072577192049
 10
118.5571404833172
 20
367.0725771920488
 10
143.5571404833171
 20
367.0725771920488
 10
144.5571404833172
 20
368.072577192049
 97
        6
330
E33
330
E2B
330
E3B
330
E2A
330
E32
330
E3A
 92
        7
 72
     0
 73
     1
 93
        6
 10
104.5571404833172
 20
373.072577192049
 10
79.5571404833172
 20
373.0725771920489
 10
78.55714048331719
 20
372.0725771920489
 10
78.55714048331719
 20
368.0725771920489
 10
79.55714048331721
 20
367.0725771920489
 10
104.5571404833172
 20
367.072577192049
 97
        6
330
E2B
330
E37
330
E38
330
E36
330
E3D
330
E3C
 75
     0
 76
     0
 52
45.0
 41
5.0
 77
     0
 78
     1
 53
45.0
 43
0.0
 44
0.0
 45
-3.535533905932737
 46
3.535533905932737
 79
     0
 47
0.3418126515756621
 98
        4
 10
351.8872379005866
 20
368.8086265041709
 10
321.4564157169816
 20
370.5176903991171
 10
138.8714728724731
 20
370.8595035692976
 10
97.49923045506058
 20
369.492252844532
  0
ENDSEC
  0
SECTION
  2
OBJECTS
  0
DICTIONARY
  5
C
330
0
100
AcDbDictionary
281
     1
  3
ACAD_COLOR
350
11A
  3
ACAD_GROUP
350
D
  3
ACAD_LAYOUT
350
19
  3
ACAD_MATERIAL
350
119
  3
ACAD_MLINESTYLE
350
16
  3
ACAD_PLOTSETTINGS
350
18
  3
ACAD_PLOTSTYLENAME
350
E
  3
AcDbVariableDictionary
350
125
  0
DICTIONARY
  5
DB
330
1E
100
AcDbDictionary
280
     1
281
     1
  3
ACAD_LAYOUTSELFREF
360
10F
  0
DICTIONARY
  5
DD
330
1A
100
AcDbDictionary
280
     1
281
     1
  3
ACAD_LAYOUTSELFREF
360
10E
  0
DICTIONARY
  5
11A
102
{ACAD_REACTORS
330
C
102
}
330
C
100
AcDbDictionary
281
     1
  0
DICTIONARY
  5
D
102
{ACAD_REACTORS
330
C
102
}
330
C
100
AcDbDictionary
281
     1
  0
DICTIONARY
  5
19
102
{ACAD_REACTORS
330
C
102
}
330
C
100
AcDbDictionary
281
     1
  3
Layout1
350
1D
  3
Model
350
21
  0
DICTIONARY
  5
119
102
{ACAD_REACTORS
330
C
102
}
330
C
100
AcDbDictionary
281
     1
  0
DICTIONARY
  5
16
102
{ACAD_REACTORS
330
C
102
}
330
C
100
AcDbDictionary
281
     1
  3
Standard
350
17
  0
DICTIONARY
  5
18
102
{ACAD_REACTORS
330
C
102
}
330
C
100
AcDbDictionary
281
     1
  0
ACDBDICTIONARYWDFLT
  5
E
102
{ACAD_REACTORS
330
C
102
}
330
C
100
AcDbDictionary
281
     1
  3
Normal
350
F
100
AcDbDictionaryWithDefault
340
F
  0
DICTIONARY
  5
125
102
{ACAD_REACTORS
330
C
102
}
330
C
100
AcDbDictionary
281
     1
  3
DIMASSOC
350
126
  3
PROJECTNAME
350
127
  0
XRECORD
  5
10F
102
{ACAD_REACTORS
330
DB
102
}
330
DB
100
AcDbXrecord
280
     1
340
1E
  0
XRECORD
  5
10E
102
{ACAD_REACTORS
330
DD
102
}
330
DD
100
AcDbXrecord
280
     1
340
1A
  0
LAYOUT
  5
1D
102
{ACAD_REACTORS
330
19
102
}
330
19
100
AcDbPlotSettings
  1

  2
\\NT_WORK01\HP LaserJet 5000 PCL 6
  4

  6

 40
0.0
 41
0.0
 42
0.0
 43
0.0
 44
0.0
 45
0.0
 46
0.0
 47
0.0
 48
0.0
 49
0.0
140
0.0
141
0.0
142
1.0
143
1.0
 70
   688
 72
     0
 73
     0
 74
     5
  7

 75
    16
147
1.0
 76
     0
 77
     2
 78
   300
148
0.0
149
0.0
100
AcDbLayout
  1
Layout1
 70
     0
 71
     1
 10
0.0
 20
0.0
 11
12.0
 21
9.0
 12
0.0
 22
0.0
 32
0.0
 14
1.000000000000000E+20
 24
1.000000000000000E+20
 34
1.000000000000000E+20
 15
-1.000000000000000E+20
 25
-1.000000000000000E+20
 35
-1.000000000000000E+20
146
0.0
 13
0.0
 23
0.0
 33
0.0
 16
1.0
 26
0.0
 36
0.0
 17
0.0
 27
1.0
 37
0.0
 76
     0
330
1A
  0
LAYOUT
  5
21
102
{ACAD_REACTORS
330
19
102
}
330
19
100
AcDbPlotSettings
  1

  2
none_device
  4
Letter_(8.50_x_11.00_Inches)
  6

 40
6.349999904632568
 41
6.349999904632568
 42
6.350006103515625
 43
6.350006103515625
 44
215.8999938964844
 45
279.3999938964844
 46
0.0
 47
0.0
 48
0.0
 49
0.0
140
0.0
141
0.0
142
1.0
143
1.0
 70
 11952
 72
     0
 73
     1
 74
     0
  7

 75
     0
147
1.0
 76
     0
 77
     2
 78
   300
148
3124.199999999999
149
0.0
100
AcDbLayout
  1
Model
 70
     1
 71
     0
 10
0.0
 20
0.0
 11
12.0
 21
9.0
 12
0.0
 22
0.0
 32
0.0
 14
0.0
 24
0.0
 34
0.0
 15
0.0
 25
0.0
 35
0.0
146
0.0
 13
0.0
 23
0.0
 33
0.0
 16
1.0
 26
0.0
 36
0.0
 17
0.0
 27
1.0
 37
0.0
 76
     0
330
1E
  0
MLINESTYLE
  5
17
102
{ACAD_REACTORS
330
16
102
}
330
16
100
AcDbMlineStyle
  2
STANDARD
 70
     0
  3

 62
   256
 51
90.0
 52
90.0
 71
     2
 49
0.5
 62
   256
  6
BYLAYER
 49
-0.5
 62
   256
  6
BYLAYER
  0
ACDBPLACEHOLDER
  5
F
102
{ACAD_REACTORS
330
E
102
}
330
E
  0
DICTIONARYVAR
  5
126
102
{ACAD_REACTORS
330
125
102
}
330
125
100
DictionaryVariables
280
     0
  1
1
  0
DICTIONARYVAR
  5
127
102
{ACAD_REACTORS
330
125
102
}
330
125
100
DictionaryVariables
280
     0
  1

  0
ENDSEC
  0
EOF
