  0
SECTION
  2
HEADER
  9
$ACADVER
  1
AC1018
  9
$ACADMAINTVER
 70
     2
  9
$DWGCODEPAGE
  3
ANSI_1252
  9
$INSBASE
 10
0.0
 20
0.0
 30
0.0
  9
$EXTMIN
 10
-0.0362532231533805
 20
-0.0512671842570853
 30
-0.0000000349181948
  9
$EXTMAX
 10
594.0362587553784
 20
840.0512750076064
 30
0.0000000814935746
  9
$LIMMIN
 10
0.0
 20
0.0
  9
$LIMMAX
 10
594.0
 20
840.0
  9
$ORTHOMODE
 70
     0
  9
$REGENMODE
 70
     1
  9
$FILLMODE
 70
     1
  9
$QTEXTMODE
 70
     0
  9
$MIRRTEXT
 70
     1
  9
$LTSCALE
 40
20.0
  9
$ATTMODE
 70
     1
  9
$TEXTSIZE
 40
3.5
  9
$TRACEWID
 40
1.0
  9
$TEXTSTYLE
  7
STANDARD
  9
$CLAYER
  8
BEM
  9
$CELTYPE
  6
ByLayer
  9
$CECOLOR
 62
   256
  9
$CELTSCALE
 40
1.0
  9
$DISPSILH
 70
     0
  9
$DIMSCALE
 40
2.0
  9
$DIMASZ
 40
3.5
  9
$DIMEXO
 40
1.0
  9
$DIMDLI
 40
7.0
  9
$DIMRND
 40
0.0
  9
$DIMDLE
 40
0.0
  9
$DIMEXE
 40
1.0
  9
$DIMTP
 40
0.0
  9
$DIMTM
 40
0.0
  9
$DIMTXT
 40
3.5
  9
$DIMCEN
 40
1.5
  9
$DIMTSZ
 40
0.0
  9
$DIMTOL
 70
     0
  9
$DIMLIM
 70
     0
  9
$DIMTIH
 70
     0
  9
$DIMTOH
 70
     0
  9
$DIMSE1
 70
     0
  9
$DIMSE2
 70
     0
  9
$DIMTAD
 70
     1
  9
$DIMZIN
 70
     8
  9
$DIMBLK
  1

  9
$DIMASO
 70
     1
  9
$DIMSHO
 70
     0
  9
$DIMPOST
  1

  9
$DIMAPOST
  1

  9
$DIMALT
 70
     0
  9
$DIMALTD
 70
     2
  9
$DIMALTF
 40
25.4
  9
$DIMLFAC
 40
1.0
  9
$DIMTOFL
 70
     1
  9
$DIMTVP
 40
0.0
  9
$DIMTIX
 70
     0
  9
$DIMSOXD
 70
     0
  9
$DIMSAH
 70
     0
  9
$DIMBLK1
  1

  9
$DIMBLK2
  1

  9
$DIMSTYLE
  2
Standard
  9
$DIMCLRD
 70
     0
  9
$DIMCLRE
 70
     0
  9
$DIMCLRT
 70
     1
  9
$DIMTFAC
 40
0.5142857142857144
  9
$DIMGAP
 40
1.5
  9
$DIMJUST
 70
     0
  9
$DIMSD1
 70
     0
  9
$DIMSD2
 70
     0
  9
$DIMTOLJ
 70
     1
  9
$DIMTZIN
 70
     8
  9
$DIMALTZ
 70
     8
  9
$DIMALTTZ
 70
     8
  9
$DIMUPT
 70
     0
  9
$DIMDEC
 70
     2
  9
$DIMTDEC
 70
     2
  9
$DIMALTU
 70
     2
  9
$DIMALTTD
 70
     2
  9
$DIMTXSTY
  7
STANDARD
  9
$DIMAUNIT
 70
     0
  9
$DIMADEC
 70
     2
  9
$DIMALTRND
 40
0.0
  9
$DIMAZIN
 70
     2
  9
$DIMDSEP
 70
    46
  9
$DIMATFIT
 70
     3
  9
$DIMFRAC
 70
     0
  9
$DIMLDRBLK
  1

  9
$DIMLUNIT
 70
     2
  9
$DIMLWD
 70
    -2
  9
$DIMLWE
 70
    -2
  9
$DIMTMOVE
 70
     0
  9
$LUNITS
 70
     2
  9
$LUPREC
 70
     2
  9
$SKETCHINC
 40
1.0
  9
$FILLETRAD
 40
0.0
  9
$AUNITS
 70
     0
  9
$AUPREC
 70
     0
  9
$MENU
  1
ACAD
  9
$ELEVATION
 40
0.0
  9
$PELEVATION
 40
0.0
  9
$THICKNESS
 40
0.0
  9
$LIMCHECK
 70
     0
  9
$CHAMFERA
 40
0.0
  9
$CHAMFERB
 40
0.0
  9
$CHAMFERC
 40
0.0
  9
$CHAMFERD
 40
0.0
  9
$SKPOLY
 70
     0
  9
$TDCREATE
 40
2455397.825393172
  9
$TDUCREATE
 40
2455397.783726505
  9
$TDUPDATE
 40
2455531.528159792
  9
$TDUUPDATE
 40
2455531.486493125
  9
$TDINDWG
 40
0.1200730324
  9
$TDUSRTIMER
 40
0.1200730324
  9
$USRTIMER
 70
     1
  9
$ANGBASE
 50
0.0
  9
$ANGDIR
 70
     0
  9
$PDMODE
 70
     0
  9
$PDSIZE
 40
0.0
  9
$PLINEWID
 40
0.0
  9
$SPLFRAME
 70
     0
  9
$SPLINETYPE
 70
     6
  9
$SPLINESEGS
 70
     8
  9
$HANDSEED
  5
998
  9
$SURFTAB1
 70
     6
  9
$SURFTAB2
 70
     6
  9
$SURFTYPE
 70
     6
  9
$SURFU
 70
     6
  9
$SURFV
 70
     6
  9
$UCSBASE
  2

  9
$UCSNAME
  2

  9
$UCSORG
 10
0.0
 20
0.0
 30
0.0
  9
$UCSXDIR
 10
1.0
 20
0.0
 30
0.0
  9
$UCSYDIR
 10
0.0
 20
1.0
 30
0.0
  9
$UCSORTHOREF
  2

  9
$UCSORTHOVIEW
 70
     0
  9
$UCSORGTOP
 10
0.0
 20
0.0
 30
0.0
  9
$UCSORGBOTTOM
 10
0.0
 20
0.0
 30
0.0
  9
$UCSORGLEFT
 10
0.0
 20
0.0
 30
0.0
  9
$UCSORGRIGHT
 10
0.0
 20
0.0
 30
0.0
  9
$UCSORGFRONT
 10
0.0
 20
0.0
 30
0.0
  9
$UCSORGBACK
 10
0.0
 20
0.0
 30
0.0
  9
$PUCSBASE
  2

  9
$PUCSNAME
  2

  9
$PUCSORG
 10
0.0
 20
0.0
 30
0.0
  9
$PUCSXDIR
 10
1.0
 20
0.0
 30
0.0
  9
$PUCSYDIR
 10
0.0
 20
1.0
 30
0.0
  9
$PUCSORTHOREF
  2

  9
$PUCSORTHOVIEW
 70
     0
  9
$PUCSORGTOP
 10
0.0
 20
0.0
 30
0.0
  9
$PUCSORGBOTTOM
 10
0.0
 20
0.0
 30
0.0
  9
$PUCSORGLEFT
 10
0.0
 20
0.0
 30
0.0
  9
$PUCSORGRIGHT
 10
0.0
 20
0.0
 30
0.0
  9
$PUCSORGFRONT
 10
0.0
 20
0.0
 30
0.0
  9
$PUCSORGBACK
 10
0.0
 20
0.0
 30
0.0
  9
$USERI1
 70
     0
  9
$USERI2
 70
     0
  9
$USERI3
 70
     0
  9
$USERI4
 70
     0
  9
$USERI5
 70
     0
  9
$USERR1
 40
0.0
  9
$USERR2
 40
0.0
  9
$USERR3
 40
0.0
  9
$USERR4
 40
0.0
  9
$USERR5
 40
0.0
  9
$WORLDVIEW
 70
     1
  9
$SHADEDGE
 70
     3
  9
$SHADEDIF
 70
    70
  9
$TILEMODE
 70
     1
  9
$MAXACTVP
 70
    16
  9
$PINSBASE
 10
0.0
 20
0.0
 30
0.0
  9
$PLIMCHECK
 70
     0
  9
$PEXTMIN
 10
1.000000000000000E+20
 20
1.000000000000000E+20
 30
1.000000000000000E+20
  9
$PEXTMAX
 10
-1.000000000000000E+20
 20
-1.000000000000000E+20
 30
-1.000000000000000E+20
  9
$PLIMMIN
 10
0.0
 20
0.0
  9
$PLIMMAX
 10
12.0
 20
9.0
  9
$UNITMODE
 70
     0
  9
$VISRETAIN
 70
     0
  9
$PLINEGEN
 70
     0
  9
$PSLTSCALE
 70
     0
  9
$TREEDEPTH
 70
  3020
  9
$CMLSTYLE
  2
Standard
  9
$CMLJUST
 70
     0
  9
$CMLSCALE
 40
1.0
  9
$PROXYGRAPHICS
 70
     1
  9
$MEASUREMENT
 70
     0
  9
$CELWEIGHT
370
    -1
  9
$ENDCAPS
280
     0
  9
$JOINSTYLE
280
     0
  9
$LWDISPLAY
290
     0
  9
$INSUNITS
 70
     0
  9
$HYPERLINKBASE
  1

  9
$STYLESHEET
  1

  9
$XEDIT
290
     1
  9
$CEPSNTYPE
380
     0
  9
$PSTYLEMODE
290
     1
  9
$FINGERPRINTGUID
  2
{D68B0D0D-A558-11D7-B632-000102183313}
  9
$VERSIONGUID
  2
{3B2579D1-0C2D-4E74-8274-54E68AD778DD}
  9
$EXTNAMES
290
     1
  9
$PSVPSCALE
 40
0.0
  9
$OLESTARTUP
290
     0
  9
$SORTENTS
280
   127
  9
$INDEXCTL
280
     0
  9
$HIDETEXT
280
     0
  9
$XCLIPFRAME
290
     0
  9
$HALOGAP
280
     0
  9
$OBSCOLOR
 70
   257
  9
$OBSLTYPE
280
     0
  9
$INTERSECTIONDISPLAY
280
     0
  9
$INTERSECTIONCOLOR
 70
   257
  9
$DIMASSOC
280
     1
  9
$PROJECTNAME
  1

  0
ENDSEC
  0
SECTION
  2
CLASSES
  0
CLASS
  1
ACDBDICTIONARYWDFLT
  2
AcDbDictionaryWithDefault
  3
ObjectDBX Classes
 90
        0
 91
        1
280
     0
281
     0
  0
CLASS
  1
DICTIONARYVAR
  2
AcDbDictionaryVar
  3
ObjectDBX Classes
 90
        0
 91
        2
280
     0
281
     0
  0
ENDSEC
  0
SECTION
  2
TABLES
  0
TABLE
  2
VPORT
  5
8
330
0
100
AcDbSymbolTable
 70
     2
  0
VPORT
  5
997
330
8
100
AcDbSymbolTableRecord
100
AcDbViewportTableRecord
  2
*Active
 70
     0
 10
0.0
 20
0.0
 11
1.0
 21
1.0
 12
297.0000027661125
 22
420.0000039116746
 13
0.0
 23
0.0
 14
1.0
 24
1.0
 15
10.0
 25
10.0
 16
0.0
 26
0.0
 36
1.0
 17
0.0
 27
0.0
 37
0.0
 40
846.8866811597655
 41
1.336927223719676
 42
50.0
 43
0.0
 44
0.0
 50
0.0
 51
0.0
 71
     0
 72
  1500
 73
     1
 74
     0
 75
     0
 76
     0
 77
     0
 78
     0
281
     0
 65
     1
110
0.0
120
0.0
130
0.0
111
1.0
121
0.0
131
0.0
112
0.0
122
1.0
132
0.0
 79
     0
146
0.0
  0
ENDTAB
  0
TABLE
  2
LTYPE
  5
5
330
0
100
AcDbSymbolTable
 70
     2
  0
LTYPE
  5
13
330
5
100
AcDbSymbolTableRecord
100
AcDbLinetypeTableRecord
  2
ByBlock
 70
     0
  3

 72
    65
 73
     0
 40
0.0
  0
LTYPE
  5
14
330
5
100
AcDbSymbolTableRecord
100
AcDbLinetypeTableRecord
  2
ByLayer
 70
     0
  3

 72
    65
 73
     0
 40
0.0
  0
LTYPE
  5
15
330
5
100
AcDbSymbolTableRecord
100
AcDbLinetypeTableRecord
  2
Continuous
 70
     0
  3
Solid line
 72
    65
 73
     0
 40
0.0
  0
LTYPE
  5
25
330
5
100
AcDbSymbolTableRecord
100
AcDbLinetypeTableRecord
  2
STRICHPUNKT
 70
     0
  3
__ . __ . __ . __ . __ . __ . __ . __ . __ . __
 72
    65
 73
     4
 40
1.0
 49
0.5
 74
     0
 49
-0.25
 74
     0
 49
0.0
 74
     0
 49
-0.25
 74
     0
  0
ENDTAB
  0
TABLE
  2
LAYER
  5
2
330
0
100
AcDbSymbolTable
 70
     9
  0
LAYER
  5
10
330
2
100
AcDbSymbolTableRecord
100
AcDbLayerTableRecord
  2
0
 70
     0
 62
     7
  6
Continuous
370
    -3
390
F
  0
LAYER
  5
2B
330
2
100
AcDbSymbolTableRecord
100
AcDbLayerTableRecord
  2
VOLL
 70
     0
 62
     1
  6
Continuous
370
    -3
390
F
  0
LAYER
  5
2C
330
2
100
AcDbSymbolTableRecord
100
AcDbLayerTableRecord
  2
HILF
 70
     0
 62
     2
  6
Continuous
370
    -3
390
F
  0
LAYER
  5
2D
330
2
100
AcDbSymbolTableRecord
100
AcDbLayerTableRecord
  2
MITTEL
 70
     0
 62
     2
  6
STRICHPUNKT
370
    -3
390
F
  0
LAYER
  5
2F
330
2
100
AcDbSymbolTableRecord
100
AcDbLayerTableRecord
  2
BEM
 70
     0
 62
     7
  6
Continuous
370
    -3
390
F
  0
LAYER
  5
30
330
2
100
AcDbSymbolTableRecord
100
AcDbLayerTableRecord
  2
STEMPEL
 70
     0
 62
     3
  6
Continuous
370
    -3
390
F
  0
LAYER
  5
33
330
2
100
AcDbSymbolTableRecord
100
AcDbLayerTableRecord
  2
TEXT
 70
     0
 62
     7
  6
Continuous
370
    -3
390
F
  0
LAYER
  5
2B8
330
2
100
AcDbSymbolTableRecord
100
AcDbLayerTableRecord
  2
Defpoints
 70
     0
 62
     7
  6
Continuous
290
     0
370
    -3
390
F
  0
LAYER
  5
2B9
330
2
100
AcDbSymbolTableRecord
100
AcDbLayerTableRecord
  2
SCHRAFF
 70
     0
 62
     7
  6
Continuous
370
    -3
390
F
  0
ENDTAB
  0
TABLE
  2
STYLE
  5
3
330
0
100
AcDbSymbolTable
 70
     2
  0
STYLE
  5
11
330
3
100
AcDbSymbolTableRecord
100
AcDbTextStyleTableRecord
  2
STANDARD
 70
     0
 40
0.0
 41
0.8
 50
0.0
 71
     0
 42
3.5
  3
simplex.shx
  4

  0
STYLE
  5
24
330
3
100
AcDbSymbolTableRecord
100
AcDbTextStyleTableRecord
  2
GREEKS
 70
     0
 40
0.0
 41
0.8
 50
0.0
 71
     0
 42
2.5
  3
SIMPLEX.shx
  4

  0
ENDTAB
  0
TABLE
  2
VIEW
  5
6
330
0
100
AcDbSymbolTable
 70
     0
  0
ENDTAB
  0
TABLE
  2
UCS
  5
7
330
0
100
AcDbSymbolTable
 70
     0
  0
ENDTAB
  0
TABLE
  2
APPID
  5
9
330
0
100
AcDbSymbolTable
 70
     1
  0
APPID
  5
12
330
9
100
AcDbSymbolTableRecord
100
AcDbRegAppTableRecord
  2
ACAD
 70
     0
  0
ENDTAB
  0
TABLE
  2
DIMSTYLE
  5
A
330
0
100
AcDbSymbolTable
 70
     1
100
AcDbDimStyleTable
 71
     1
340
A2
  0
DIMSTYLE
105
A2
102
{ACAD_REACTORS
330
8E0
330
5A6
330
5A5
330
5A4
330
5A3
330
59C
330
580
102
}
330
A
100
AcDbSymbolTableRecord
100
AcDbDimStyleTableRecord
  2
Standard
 70
     0
340
11
  0
ENDTAB
  0
TABLE
  2
BLOCK_RECORD
  5
1
330
0
100
AcDbSymbolTable
 70
     8
  0
BLOCK_RECORD
  5
1E
102
{ACAD_XDICTIONARY
360
DB
102
}
330
1
100
AcDbSymbolTableRecord
100
AcDbBlockTableRecord
  2
*Model_Space
340
21
  0
BLOCK_RECORD
  5
1A
102
{ACAD_XDICTIONARY
360
DD
102
}
330
1
100
AcDbSymbolTableRecord
100
AcDbBlockTableRecord
  2
*Paper_Space
340
1D
  0
BLOCK_RECORD
  5
22
330
1
100
AcDbSymbolTableRecord
100
AcDbBlockTableRecord
  2
LOGO
340
0
102
{BLKREFS
331
5DD
102
}
  0
BLOCK_RECORD
  5
743
330
1
100
AcDbSymbolTableRecord
100
AcDbBlockTableRecord
  2
*D1
340
0
  0
BLOCK_RECORD
  5
751
330
1
100
AcDbSymbolTableRecord
100
AcDbBlockTableRecord
  2
*D2
340
0
  0
BLOCK_RECORD
  5
75D
330
1
100
AcDbSymbolTableRecord
100
AcDbBlockTableRecord
  2
*D3
340
0
  0
BLOCK_RECORD
  5
769
330
1
100
AcDbSymbolTableRecord
100
AcDbBlockTableRecord
  2
*D4
340
0
  0
BLOCK_RECORD
  5
775
330
1
100
AcDbSymbolTableRecord
100
AcDbBlockTableRecord
  2
*D5
340
0
  0
BLOCK_RECORD
  5
781
330
1
100
AcDbSymbolTableRecord
100
AcDbBlockTableRecord
  2
*D6
340
0
  0
BLOCK_RECORD
  5
8E1
330
1
100
AcDbSymbolTableRecord
100
AcDbBlockTableRecord
  2
*D7
340
0
  0
ENDTAB
  0
ENDSEC
  0
SECTION
  2
BLOCKS
  0
BLOCK
  5
37
330
1E
100
AcDbEntity
  8
0
100
AcDbBlockBegin
  2
*Model_Space
 70
     0
 10
0.0
 20
0.0
 30
0.0
  3
*Model_Space
  1

  0
ENDBLK
  5
38
330
1E
100
AcDbEntity
  8
0
100
AcDbBlockEnd
  0
BLOCK
  5
35
330
1A
100
AcDbEntity
 67
     1
  8
0
100
AcDbBlockBegin
  2
*Paper_Space
 70
     0
 10
0.0
 20
0.0
 30
0.0
  3
*Paper_Space
  1

  0
ENDBLK
  5
36
330
1A
100
AcDbEntity
 67
     1
  8
0
100
AcDbBlockEnd
  0
BLOCK
  5
39
330
22
100
AcDbEntity
  8
0
100
AcDbBlockBegin
  2
LOGO
 70
     0
 10
0.0
 20
0.0
 30
0.0
  3
LOGO
  1

  0
ARC
  5
3A
330
22
100
AcDbEntity
  8
0
100
AcDbCircle
 10
11.59973089678112
 20
-9.271599258481501
 30
0.0
 40
4.5
100
AcDbArc
 50
270.0
 51
231.0575587310159
  0
LINE
  5
3B
330
22
100
AcDbEntity
  8
0
100
AcDbLine
 10
3.599730896781125
 20
-4.771599258481529
 30
0.0
 11
3.599730896781153
 21
-11.77159925848133
 31
0.0
  0
LINE
  5
3C
330
22
100
AcDbEntity
  8
0
100
AcDbLine
 10
2.599730896781125
 20
-4.771599258481529
 30
0.0
 11
2.599730896781153
 21
-11.77159925848133
 31
0.0
  0
CIRCLE
  5
3D
330
22
100
AcDbEntity
  8
0
100
AcDbCircle
 10
11.59973089678112
 20
-9.271599258481501
 30
0.0
 40
3.5
  0
ARC
  5
3E
330
22
100
AcDbEntity
  8
0
100
AcDbCircle
 10
31.59973089678115
 20
-9.271599258481472
 30
0.0
 40
4.5
100
AcDbArc
 50
270.0
 51
231.0575587310182
  0
LINE
  5
3F
330
22
100
AcDbEntity
  8
0
100
AcDbLine
 10
17.59973089678112
 20
-4.771599258481472
 30
0.0
 11
17.59973089678115
 21
-13.77159925848147
 31
0.0
  0
ARC
  5
40
330
22
100
AcDbEntity
  8
0
100
AcDbCircle
 10
22.59973089678116
 20
-7.271599258481472
 30
0.0
 40
2.5
100
AcDbArc
 50
293.1161887722295
 51
90.0
  0
CIRCLE
  5
41
330
22
100
AcDbEntity
  8
0
100
AcDbCircle
 10
31.59973089678115
 20
-9.271599258481472
 30
0.0
 40
3.5
  0
ARC
  5
42
330
22
100
AcDbEntity
  8
0
100
AcDbCircle
 10
4.599730896781153
 20
-11.77159925848133
 30
0.0
 40
1.0
100
AcDbArc
 50
180.0
 51
270.0
  0
ARC
  5
43
330
22
100
AcDbEntity
  8
0
100
AcDbCircle
 10
4.599730896781153
 20
-11.77159925848133
 30
0.0
 40
2.0
100
AcDbArc
 50
179.9999999999992
 51
270.0
  0
LINE
  5
44
330
22
100
AcDbEntity
  8
0
100
AcDbLine
 10
11.59973089678115
 20
-13.77159925848144
 30
0.0
 11
4.599730896781153
 21
-13.77159925848147
 31
0.0
  0
LINE
  5
45
330
22
100
AcDbEntity
  8
0
100
AcDbLine
 10
8.771303772034769
 20
-12.77159925848136
 30
0.0
 11
4.599730896781153
 21
-12.77159925848133
 31
0.0
  0
LINE
  5
46
330
22
100
AcDbEntity
  8
0
100
AcDbLine
 10
31.59973089678115
 20
-13.77159925848147
 30
0.0
 11
23.6715276665056
 21
-13.77159925848144
 31
0.0
  0
LINE
  5
47
330
22
100
AcDbEntity
  8
0
100
AcDbLine
 10
23.56565672307022
 20
-9.51278021337896
 30
0.0
 11
24.4388546544846
 21
-12.77159925848144
 31
0.0
  0
LINE
  5
48
330
22
100
AcDbEntity
  8
0
100
AcDbLine
 10
22.59973089678116
 20
-9.771599258481472
 30
0.0
 11
18.59973089678112
 21
-9.771599258481472
 31
0.0
  0
LINE
  5
49
330
22
100
AcDbEntity
  8
0
100
AcDbLine
 10
18.59973089678115
 20
-13.77159925848144
 30
0.0
 11
17.59973089678115
 21
-13.77159925848144
 31
0.0
  0
LINE
  5
4A
330
22
100
AcDbEntity
  8
0
100
AcDbLine
 10
18.59973089678115
 20
-9.771599258481472
 30
0.0
 11
18.59973089678115
 21
-13.77159925848144
 31
0.0
  0
LINE
  5
4B
330
22
100
AcDbEntity
  8
0
100
AcDbLine
 10
22.59973089678116
 20
-9.771599258481472
 30
0.0
 11
23.67152766650562
 21
-13.77159925848147
 31
0.0
  0
ARC
  5
4C
330
22
100
AcDbEntity
  8
0
100
AcDbCircle
 10
22.59973089678116
 20
-7.271599258481472
 30
0.0
 40
2.5
100
AcDbArc
 50
270.0
 51
270.0000000000007
  0
LINE
  5
4D
330
22
100
AcDbEntity
  8
0
100
AcDbLine
 10
28.77130377203494
 20
-12.77159925848147
 30
0.0
 11
24.43885465448463
 21
-12.77159925848144
 31
0.0
  0
LINE
  5
4E
330
22
100
AcDbEntity
  8
0
100
AcDbLine
 10
3.599730896781125
 20
-4.771599258481472
 30
0.0
 11
2.599730896781125
 21
-4.771599258481472
 31
0.0
  0
LINE
  5
4F
330
22
100
AcDbEntity
  8
0
100
AcDbLine
 10
22.59973089678116
 20
-8.771599258481472
 30
0.0
 11
18.59973089678115
 21
-8.771599258481472
 31
0.0
  0
LINE
  5
50
330
22
100
AcDbEntity
  8
0
100
AcDbLine
 10
22.59973089678116
 20
-5.771599258481472
 30
0.0
 11
18.59973089678115
 21
-5.771599258481472
 31
0.0
  0
LINE
  5
51
330
22
100
AcDbEntity
  8
0
100
AcDbLine
 10
22.59973089678116
 20
-4.771599258481472
 30
0.0
 11
17.59973089678115
 21
-4.771599258481472
 31
0.0
  0
LINE
  5
52
330
22
100
AcDbEntity
  8
0
100
AcDbLine
 10
18.59973089678115
 20
-5.771599258481472
 30
0.0
 11
18.59973089678115
 21
-8.771599258481472
 31
0.0
  0
ARC
  5
53
330
22
100
AcDbEntity
  8
0
100
AcDbCircle
 10
22.59973089678116
 20
-7.271599258481472
 30
0.0
 40
1.5
100
AcDbArc
 50
270.0
 51
90.0
  0
ENDBLK
  5
54
330
22
100
AcDbEntity
  8
0
100
AcDbBlockEnd
  0
BLOCK
  5
74F
330
743
100
AcDbEntity
  8
0
100
AcDbBlockBegin
  2
*D1
 70
     1
 10
0.0
 20
0.0
 30
0.0
  3
*D1
  1

  0
LINE
  5
95B
330
743
100
AcDbEntity
  8
BEM
 62
     0
370
    -2
100
AcDbLine
 10
70.66262046532006
 20
609.415058027283
 30
0.0
 11
45.95186814614225
 21
609.415058027283
 31
0.0
  0
LINE
  5
95C
330
743
100
AcDbEntity
  8
BEM
 62
     0
370
    -2
100
AcDbLine
 10
69.66262046532006
 20
606.415058027283
 30
0.0
 11
45.95186814614225
 21
606.415058027283
 31
0.0
  0
LINE
  5
95D
330
743
100
AcDbEntity
  8
BEM
 62
     0
370
    -2
100
AcDbLine
 10
47.95186814614226
 20
616.415058027283
 30
0.0
 11
47.95186814614226
 21
623.4150580272831
 31
0.0
  0
LINE
  5
95E
330
743
100
AcDbEntity
  8
BEM
 62
     0
370
    -2
100
AcDbLine
 10
47.95186814614226
 20
599.415058027283
 30
0.0
 11
47.95186814614225
 21
582.6817246939497
 31
0.0
  0
LINE
  5
95F
330
743
100
AcDbEntity
  8
BEM
 62
     0
370
    -2
100
AcDbLine
 10
47.95186814614226
 20
609.415058027283
 30
0.0
 11
47.95186814614226
 21
606.415058027283
 31
0.0
  0
SOLID
  5
960
330
743
100
AcDbEntity
  8
BEM
 62
     0
100
AcDbTrace
 10
46.78520147947559
 20
616.415058027283
 30
0.0
 11
49.11853481280893
 21
616.415058027283
 31
0.0
 12
47.95186814614226
 22
609.415058027283
 32
0.0
 13
47.95186814614226
 23
609.415058027283
 33
0.0
  0
SOLID
  5
961
330
743
100
AcDbEntity
  8
BEM
 62
     0
100
AcDbTrace
 10
46.78520147947559
 20
599.415058027283
 30
0.0
 11
49.11853481280893
 21
599.415058027283
 31
0.0
 12
47.95186814614226
 22
606.415058027283
 32
0.0
 13
47.95186814614226
 23
606.415058027283
 33
0.0
  0
MTEXT
  5
962
330
743
100
AcDbEntity
  8
BEM
 62
     1
100
AcDbMText
 10
41.45186814614215
 20
587.5483913606164
 30
0.0
 40
7.0
 41
0.0
 71
     5
 72
     1
  1
\A1;3
 11
0.0000000000000001
 21
1.0
 31
0.0
 73
     1
 44
1.0
  0
POINT
  5
963
330
743
100
AcDbEntity
  8
Defpoints
 62
     0
100
AcDbPoint
 10
72.66262046532006
 20
609.415058027283
 30
0.0
  0
POINT
  5
964
330
743
100
AcDbEntity
  8
Defpoints
 62
     0
100
AcDbPoint
 10
71.66262046532006
 20
606.415058027283
 30
0.0
  0
POINT
  5
965
330
743
100
AcDbEntity
  8
Defpoints
 62
     0
100
AcDbPoint
 10
47.95186814614226
 20
606.415058027283
 30
0.0
  0
ENDBLK
  5
750
330
743
100
AcDbEntity
  8
0
100
AcDbBlockEnd
  0
BLOCK
  5
75B
330
751
100
AcDbEntity
  8
0
100
AcDbBlockBegin
  2
*D2
 70
     1
 10
0.0
 20
0.0
 30
0.0
  3
*D2
  1

  0
LINE
  5
966
330
751
100
AcDbEntity
  8
SCHRAFF
 62
     0
370
    -2
100
AcDbLine
 10
418.6626204653199
 20
606.4150580272833
 30
0.0
 11
437.3560228995538
 21
606.4150580272833
 31
0.0
  0
LINE
  5
967
330
751
100
AcDbEntity
  8
SCHRAFF
 62
     0
370
    -2
100
AcDbLine
 10
331.8815438264301
 20
636.4150580272831
 30
0.0
 11
437.3560228995538
 21
636.4150580272831
 31
0.0
  0
LINE
  5
968
330
751
100
AcDbEntity
  8
SCHRAFF
 62
     0
370
    -2
100
AcDbLine
 10
435.3560228995538
 20
613.4150580272833
 30
0.0
 11
435.3560228995538
 21
629.4150580272831
 31
0.0
  0
SOLID
  5
969
330
751
100
AcDbEntity
  8
SCHRAFF
 62
     0
100
AcDbTrace
 10
434.1893562328872
 20
613.4150580272833
 30
0.0
 11
436.5226895662205
 21
613.4150580272833
 31
0.0
 12
435.3560228995538
 22
606.4150580272833
 32
0.0
 13
435.3560228995538
 23
606.4150580272833
 33
0.0
  0
SOLID
  5
96A
330
751
100
AcDbEntity
  8
SCHRAFF
 62
     0
100
AcDbTrace
 10
434.1893562328872
 20
629.4150580272831
 30
0.0
 11
436.5226895662205
 21
629.4150580272831
 31
0.0
 12
435.3560228995538
 22
636.4150580272831
 32
0.0
 13
435.3560228995538
 23
636.4150580272831
 33
0.0
  0
MTEXT
  5
96B
330
751
100
AcDbEntity
  8
SCHRAFF
 62
     1
100
AcDbMText
 10
428.8560228995538
 20
621.4150580272833
 30
0.0
 40
7.0
 41
0.0
 71
     5
 72
     1
  1
\A1;30
 11
0.0000000000000001
 21
1.0
 31
0.0
 73
     1
 44
1.0
  0
POINT
  5
96C
330
751
100
AcDbEntity
  8
Defpoints
 62
     0
100
AcDbPoint
 10
416.66262046532
 20
606.4150580272833
 30
0.0
  0
POINT
  5
96D
330
751
100
AcDbEntity
  8
Defpoints
 62
     0
100
AcDbPoint
 10
329.8815438264301
 20
636.4150580272831
 30
0.0
  0
POINT
  5
96E
330
751
100
AcDbEntity
  8
Defpoints
 62
     0
100
AcDbPoint
 10
435.3560228995538
 20
636.4150580272831
 30
0.0
  0
ENDBLK
  5
75C
330
751
100
AcDbEntity
  8
0
100
AcDbBlockEnd
  0
BLOCK
  5
767
330
75D
100
AcDbEntity
  8
0
100
AcDbBlockBegin
  2
*D3
 70
     1
 10
0.0
 20
0.0
 30
0.0
  3
*D3
  1

  0
LINE
  5
949
330
75D
100
AcDbEntity
  8
BEM
 62
     0
370
    -2
100
AcDbLine
 10
161.1626204653199
 20
637.1472032420612
 30
0.0
 11
161.1626204653199
 21
656.1852218544658
 31
0.0
  0
LINE
  5
94A
330
75D
100
AcDbEntity
  8
BEM
 62
     0
370
    -2
100
AcDbLine
 10
327.1626204653202
 20
637.147203242061
 30
0.0
 11
327.1626204653202
 21
656.1852218544658
 31
0.0
  0
LINE
  5
94B
330
75D
100
AcDbEntity
  8
BEM
 62
     0
370
    -2
100
AcDbLine
 10
168.1626204653199
 20
654.1852218544659
 30
0.0
 11
320.1626204653202
 21
654.1852218544659
 31
0.0
  0
SOLID
  5
94C
330
75D
100
AcDbEntity
  8
BEM
 62
     0
100
AcDbTrace
 10
168.1626204653199
 20
655.3518885211325
 30
0.0
 11
168.1626204653199
 21
653.0185551877992
 31
0.0
 12
161.1626204653199
 22
654.1852218544659
 32
0.0
 13
161.1626204653199
 23
654.1852218544659
 33
0.0
  0
SOLID
  5
94D
330
75D
100
AcDbEntity
  8
BEM
 62
     0
100
AcDbTrace
 10
320.1626204653202
 20
655.3518885211325
 30
0.0
 11
320.1626204653202
 21
653.0185551877992
 31
0.0
 12
327.1626204653202
 22
654.1852218544659
 32
0.0
 13
327.1626204653202
 23
654.1852218544659
 33
0.0
  0
MTEXT
  5
94E
330
75D
100
AcDbEntity
  8
BEM
 62
     1
100
AcDbMText
 10
244.1626204653201
 20
660.6852218544659
 30
0.0
 40
7.0
 41
0.0
 71
     5
 72
     1
  1
\A1;%%c166
 73
     1
 44
1.0
  0
POINT
  5
94F
330
75D
100
AcDbEntity
  8
Defpoints
 62
     0
100
AcDbPoint
 10
161.1626204653199
 20
635.1472032420612
 30
0.0
  0
POINT
  5
950
330
75D
100
AcDbEntity
  8
Defpoints
 62
     0
100
AcDbPoint
 10
327.1626204653202
 20
635.1472032420611
 30
0.0
  0
POINT
  5
951
330
75D
100
AcDbEntity
  8
Defpoints
 62
     0
100
AcDbPoint
 10
327.1626204653202
 20
654.1852218544659
 30
0.0
  0
ENDBLK
  5
768
330
75D
100
AcDbEntity
  8
0
100
AcDbBlockEnd
  0
BLOCK
  5
773
330
769
100
AcDbEntity
  8
0
100
AcDbBlockBegin
  2
*D4
 70
     1
 10
0.0
 20
0.0
 30
0.0
  3
*D4
  1

  0
LINE
  5
98A
330
769
100
AcDbEntity
  8
BEM
 62
     0
370
    -2
100
AcDbLine
 10
147.7646011164476
 20
604.415058027283
 30
0.0
 11
147.7646011164476
 21
578.3590789554709
 31
0.0
  0
LINE
  5
98B
330
769
100
AcDbEntity
  8
BEM
 62
     0
370
    -2
100
AcDbLine
 10
340.5606398141924
 20
604.4150580272833
 30
0.0
 11
340.5606398141924
 21
578.3590789554709
 31
0.0
  0
LINE
  5
98C
330
769
100
AcDbEntity
  8
BEM
 62
     0
370
    -2
100
AcDbLine
 10
154.7646011164476
 20
580.359078955471
 30
0.0
 11
333.5606398141924
 21
580.359078955471
 31
0.0
  0
SOLID
  5
98D
330
769
100
AcDbEntity
  8
BEM
 62
     0
100
AcDbTrace
 10
154.7646011164476
 20
581.5257456221376
 30
0.0
 11
154.7646011164476
 21
579.1924122888043
 31
0.0
 12
147.7646011164476
 22
580.359078955471
 32
0.0
 13
147.7646011164476
 23
580.359078955471
 33
0.0
  0
SOLID
  5
98E
330
769
100
AcDbEntity
  8
BEM
 62
     0
100
AcDbTrace
 10
333.5606398141924
 20
581.5257456221376
 30
0.0
 11
333.5606398141924
 21
579.1924122888043
 31
0.0
 12
340.5606398141924
 22
580.359078955471
 32
0.0
 13
340.5606398141924
 23
580.359078955471
 33
0.0
  0
MTEXT
  5
98F
330
769
100
AcDbEntity
  8
BEM
 62
     1
100
AcDbMText
 10
244.16262046532
 20
586.8590789554709
 30
0.0
 40
7.0
 41
0.0
 71
     5
 72
     1
  1
\A1;%%c193
 73
     1
 44
1.0
  0
POINT
  5
990
330
769
100
AcDbEntity
  8
Defpoints
 62
     0
100
AcDbPoint
 10
147.7646011164476
 20
606.415058027283
 30
0.0
  0
POINT
  5
991
330
769
100
AcDbEntity
  8
Defpoints
 62
     0
100
AcDbPoint
 10
340.5606398141924
 20
606.4150580272833
 30
0.0
  0
POINT
  5
992
330
769
100
AcDbEntity
  8
Defpoints
 62
     0
100
AcDbPoint
 10
340.5606398141924
 20
580.359078955471
 30
0.0
  0
ENDBLK
  5
774
330
769
100
AcDbEntity
  8
0
100
AcDbBlockEnd
  0
BLOCK
  5
77F
330
775
100
AcDbEntity
  8
0
100
AcDbBlockBegin
  2
*D5
 70
     1
 10
0.0
 20
0.0
 30
0.0
  3
*D5
  1

  0
LINE
  5
96F
330
775
100
AcDbEntity
  8
BEM
 62
     0
370
    -2
100
AcDbLine
 10
71.66262046532006
 20
604.415058027283
 30
0.0
 11
71.66262046532006
 21
546.3590789554709
 31
0.0
  0
LINE
  5
970
330
775
100
AcDbEntity
  8
BEM
 62
     0
370
    -2
100
AcDbLine
 10
416.66262046532
 20
604.4150580272833
 30
0.0
 11
416.66262046532
 21
546.3590789554709
 31
0.0
  0
LINE
  5
971
330
775
100
AcDbEntity
  8
BEM
 62
     0
370
    -2
100
AcDbLine
 10
78.66262046532006
 20
548.359078955471
 30
0.0
 11
409.6626204653199
 21
548.359078955471
 31
0.0
  0
SOLID
  5
972
330
775
100
AcDbEntity
  8
BEM
 62
     0
100
AcDbTrace
 10
78.66262046532006
 20
549.5257456221375
 30
0.0
 11
78.66262046532006
 21
547.1924122888043
 31
0.0
 12
71.66262046532006
 22
548.359078955471
 32
0.0
 13
71.66262046532006
 23
548.359078955471
 33
0.0
  0
SOLID
  5
973
330
775
100
AcDbEntity
  8
BEM
 62
     0
100
AcDbTrace
 10
409.6626204653199
 20
549.5257456221375
 30
0.0
 11
409.6626204653199
 21
547.1924122888043
 31
0.0
 12
416.66262046532
 22
548.359078955471
 32
0.0
 13
416.66262046532
 23
548.359078955471
 33
0.0
  0
MTEXT
  5
974
330
775
100
AcDbEntity
  8
BEM
 62
     1
100
AcDbMText
 10
244.16262046532
 20
554.8590789554709
 30
0.0
 40
7.0
 41
0.0
 71
     5
 72
     1
  1
\A1;%%c345
 73
     1
 44
1.0
  0
POINT
  5
975
330
775
100
AcDbEntity
  8
Defpoints
 62
     0
100
AcDbPoint
 10
71.66262046532006
 20
606.415058027283
 30
0.0
  0
POINT
  5
976
330
775
100
AcDbEntity
  8
Defpoints
 62
     0
100
AcDbPoint
 10
416.66262046532
 20
606.4150580272833
 30
0.0
  0
POINT
  5
977
330
775
100
AcDbEntity
  8
Defpoints
 62
     0
100
AcDbPoint
 10
416.66262046532
 20
548.359078955471
 30
0.0
  0
ENDBLK
  5
780
330
775
100
AcDbEntity
  8
0
100
AcDbBlockEnd
  0
BLOCK
  5
78B
330
781
100
AcDbEntity
  8
0
100
AcDbBlockBegin
  2
*D6
 70
     1
 10
0.0
 20
0.0
 30
0.0
  3
*D6
  1

  0
LINE
  5
978
330
781
100
AcDbEntity
  8
BEM
 62
     0
370
    -2
100
AcDbLine
 10
102.16262046532
 20
607.4150580272831
 30
0.0
 11
102.16262046532
 21
562.3590789554709
 31
0.0
  0
LINE
  5
979
330
781
100
AcDbEntity
  8
BEM
 62
     0
370
    -2
100
AcDbLine
 10
386.1626204653201
 20
607.4150580272831
 30
0.0
 11
386.1626204653201
 21
562.3590789554709
 31
0.0
  0
LINE
  5
97A
330
781
100
AcDbEntity
  8
BEM
 62
     0
370
    -2
100
AcDbLine
 10
109.1626204653201
 20
564.359078955471
 30
0.0
 11
379.16262046532
 21
564.359078955471
 31
0.0
  0
SOLID
  5
97B
330
781
100
AcDbEntity
  8
BEM
 62
     0
100
AcDbTrace
 10
109.1626204653201
 20
565.5257456221375
 30
0.0
 11
109.1626204653201
 21
563.1924122888043
 31
0.0
 12
102.16262046532
 22
564.359078955471
 32
0.0
 13
102.16262046532
 23
564.359078955471
 33
0.0
  0
SOLID
  5
97C
330
781
100
AcDbEntity
  8
BEM
 62
     0
100
AcDbTrace
 10
379.16262046532
 20
565.5257456221375
 30
0.0
 11
379.16262046532
 21
563.1924122888043
 31
0.0
 12
386.1626204653201
 22
564.359078955471
 32
0.0
 13
386.1626204653201
 23
564.359078955471
 33
0.0
  0
MTEXT
  5
97D
330
781
100
AcDbEntity
  8
BEM
 62
     1
100
AcDbMText
 10
244.16262046532
 20
570.8590789554709
 30
0.0
 40
7.0
 41
0.0
 71
     5
 72
     1
  1
\A1;%%c284
 73
     1
 44
1.0
  0
POINT
  5
97E
330
781
100
AcDbEntity
  8
Defpoints
 62
     0
100
AcDbPoint
 10
102.16262046532
 20
609.415058027283
 30
0.0
  0
POINT
  5
97F
330
781
100
AcDbEntity
  8
Defpoints
 62
     0
100
AcDbPoint
 10
386.1626204653201
 20
609.415058027283
 30
0.0
  0
POINT
  5
980
330
781
100
AcDbEntity
  8
Defpoints
 62
     0
100
AcDbPoint
 10
386.1626204653201
 20
564.359078955471
 30
0.0
  0
ENDBLK
  5
78C
330
781
100
AcDbEntity
  8
0
100
AcDbBlockEnd
  0
BLOCK
  5
8ED
330
8E1
100
AcDbEntity
  8
0
100
AcDbBlockBegin
  2
*D7
 70
     1
 10
0.0
 20
0.0
 30
0.0
  3
*D7
  1

  0
LINE
  5
923
330
8E1
100
AcDbEntity
  8
BEM
 62
     0
370
    -2
100
AcDbLine
 10
64.66262046532006
 20
285.1496001507607
 30
0.0
 11
43.33837859874569
 21
285.1496001507607
 31
0.0
  0
LINE
  5
924
330
8E1
100
AcDbEntity
  8
BEM
 62
     0
370
    -2
100
AcDbLine
 10
135.2681761625915
 20
176.2551558480325
 30
0.0
 11
102.1584372148186
 21
143.145416900259
 31
0.0
  0
ARC
  5
925
330
8E1
100
AcDbEntity
  8
BEM
 62
     0
370
    -2
100
AcDbCircle
 10
244.1626204653172
 20
285.1496001507607
 30
0.0
 40
198.8242418665715
100
AcDbArc
 50
182.0173152421053
 51
222.9826847578953
  0
SOLID
  5
926
330
8E1
100
AcDbEntity
  8
BEM
 62
     0
100
AcDbTrace
 10
44.29511712154424
 20
278.1301474227127
 30
0.0
 11
46.62808889697605
 21
278.1712222262176
 31
0.0
 12
45.33837859874568
 22
285.1496001507607
 32
0.0
 13
45.33837859874568
 23
285.1496001507607
 33
0.0
  0
SOLID
  5
927
330
8E1
100
AcDbEntity
  8
BEM
 62
     0
100
AcDbTrace
 10
99.55015532270955
 20
150.4060517124038
 30
0.0
 11
97.87145088789072
 21
148.7854358217733
 31
0.0
 12
103.5726507771916
 22
144.5596304626321
 32
0.0
 13
103.5726507771916
 23
144.5596304626321
 33
0.0
  0
MTEXT
  5
928
330
8E1
100
AcDbEntity
  8
BEM
 62
     1
100
AcDbMText
 10
66.47818979904181
 20
211.5502991462463
 30
0.0
 40
7.0
 41
0.0
 71
     5
 72
     1
  1
\A1;45°
 11
0.3826834323650952
 21
-0.9238795325112844
 31
0.0
 73
     1
 44
1.0
  0
POINT
  5
929
330
8E1
100
AcDbEntity
  8
Defpoints
 62
     0
100
AcDbPoint
 10
52.11315035405165
 20
233.6900997276214
 30
0.0
  0
POINT
  5
92A
330
8E1
100
AcDbEntity
  8
Defpoints
 62
     0
100
AcDbPoint
 10
66.66262046532004
 20
285.1496001507606
 30
0.0
  0
POINT
  5
92B
330
8E1
100
AcDbEntity
  8
Defpoints
 62
     0
100
AcDbPoint
 10
150.8245253486953
 20
191.8115050341367
 30
0.0
  0
POINT
  5
92C
330
8E1
100
AcDbEntity
  8
Defpoints
 62
     0
100
AcDbPoint
 10
136.6823897249645
 20
177.6693694104056
 30
0.0
  0
POINT
  5
92D
330
8E1
100
AcDbEntity
  8
Defpoints
 62
     0
100
AcDbPoint
 10
421.66262046532
 20
285.1496001507606
 30
0.0
  0
ENDBLK
  5
8EE
330
8E1
100
AcDbEntity
  8
0
100
AcDbBlockEnd
  0
ENDSEC
  0
SECTION
  2
ENTITIES
  0
HATCH
  5
4CB
330
1E
100
AcDbEntity
  8
SCHRAFF
100
AcDbHatch
 10
0.0
 20
0.0
 30
0.0
210
0.0
220
0.0
230
1.0
  2
_USER
 70
     0
 71
     0
 91
        2
 92
        7
 72
     1
 73
     1
 93
        9
 10
72.66262046532002
 20
609.415058027283
 42
0.0
 10
71.66262046532006
 20
608.4150580272829
 42
0.0
 10
71.66262046532006
 20
606.415058027283
 42
0.0
 10
143.9421795516027
 20
606.415058027283
 42
0.2914734195860885
 10
149.3800262738226
 20
609.879348456839
 42
0.0
 10
161.1626204653199
 20
635.1472032420612
 42
0.0
 10
158.44369710421
 20
636.4150580272831
 42
0.0
 10
146.6611029127126
 20
611.1472032420611
 42
-0.2914734195860891
 10
143.9421795516027
 20
609.4150580272831
 42
0.0
 97
        0
 92
        7
 72
     1
 73
     1
 93
        8
 10
416.66262046532
 20
606.4150580272833
 42
0.0
 10
416.66262046532
 20
608.4150580272837
 42
0.0
 10
415.66262046532
 20
609.4150580272835
 42
0.0
 10
342.4718505966147
 20
609.4150580272835
 42
0.0
 10
329.8815438264302
 20
636.4150580272832
 42
0.0
 10
327.1626204653202
 20
635.1472032420609
 42
0.0
 10
338.9452146568173
 20
609.8793484568393
 42
0.2914734195860957
 10
344.3830613790372
 20
606.4150580272833
 42
0.0
 97
        0
 75
     0
 76
     0
 52
45.0
 41
2.0
 77
     0
 78
     1
 53
45.0
 43
0.0
 44
0.0
 45
-1.414213562373094
 46
1.414213562373095
 79
     0
 47
0.3918458513578915
 98
        2
 10
131.492815759575
 20
608.0726977888848
 10
359.3278788599992
 20
607.680851980468
  0
CIRCLE
  5
4CF
330
1E
100
AcDbEntity
  8
STEMPEL
100
AcDbCircle
 10
244.16262046532
 20
285.1496001507605
 30
0.0
 40
85.71892336111005
  0
CIRCLE
  5
4D0
330
1E
100
AcDbEntity
  8
STEMPEL
100
AcDbCircle
 10
244.16262046532
 20
285.1496001507605
 30
0.0
 40
83.0
  0
CIRCLE
  5
4D1
330
1E
100
AcDbEntity
  8
TEXT
 62
     2
100
AcDbCircle
 10
244.16262046532
 20
285.1496001507605
 30
0.0
 40
98.30923013129462
  0
ARC
  5
4D2
330
1E
100
AcDbEntity
  8
STEMPEL
100
AcDbCircle
 10
143.9421795516027
 20
612.4150580272831
 30
0.0
 40
6.0
100
AcDbArc
 50
270.0
 51
335.0000000000004
  0
ARC
  5
4D3
330
1E
100
AcDbEntity
  8
STEMPEL
100
AcDbCircle
 10
143.9421795516027
 20
612.4150580272831
 30
0.0
 40
3.0
100
AcDbArc
 50
270.0
 51
335.0000000000004
  0
ARC
  5
4D4
330
1E
100
AcDbEntity
  8
STEMPEL
100
AcDbCircle
 10
344.3830613790372
 20
612.4150580272835
 30
0.0
 40
6.0
100
AcDbArc
 50
204.9999999999997
 51
270.0
  0
ARC
  5
4D5
330
1E
100
AcDbEntity
  8
STEMPEL
100
AcDbCircle
 10
344.3830613790372
 20
612.4150580272835
 30
0.0
 40
3.0
100
AcDbArc
 50
204.9999999999997
 51
270.0
  0
LINE
  5
4D6
330
1E
100
AcDbEntity
  8
STEMPEL
100
AcDbLine
 10
158.44369710421
 20
636.4150580272832
 30
0.0
 11
146.6611029127126
 21
611.1472032420611
 31
0.0
  0
LINE
  5
4D7
330
1E
100
AcDbEntity
  8
STEMPEL
100
AcDbLine
 10
161.1626204653199
 20
635.1472032420612
 30
0.0
 11
149.3800262738226
 21
609.879348456839
 31
0.0
  0
LINE
  5
4D8
330
1E
100
AcDbEntity
  8
STEMPEL
100
AcDbLine
 10
158.4436971042102
 20
636.4150580272831
 30
0.0
 11
161.1626204653201
 21
635.1472032420611
 31
0.0
  0
LINE
  5
4D9
330
1E
100
AcDbEntity
  8
STEMPEL
100
AcDbLine
 10
327.16262046532
 20
635.1472032420611
 30
0.0
 11
161.1626204653199
 21
635.1472032420611
 31
0.0
  0
LINE
  5
4DA
330
1E
100
AcDbEntity
  8
STEMPEL
100
AcDbLine
 10
329.8815438264299
 20
636.4150580272831
 30
0.0
 11
327.16262046532
 21
635.1472032420611
 31
0.0
  0
LINE
  5
4DB
330
1E
100
AcDbEntity
  8
STEMPEL
100
AcDbLine
 10
327.1626204653202
 20
635.1472032420612
 30
0.0
 11
338.9452146568173
 21
609.8793484568393
 31
0.0
  0
LINE
  5
4DC
330
1E
100
AcDbEntity
  8
STEMPEL
100
AcDbLine
 10
329.8815438264301
 20
636.4150580272832
 30
0.0
 11
341.6641380179272
 21
611.1472032420614
 31
0.0
  0
LINE
  5
4DD
330
1E
100
AcDbEntity
  8
STEMPEL
100
AcDbLine
 10
329.8815438264301
 20
636.4150580272831
 30
0.0
 11
158.44369710421
 21
636.4150580272834
 31
0.0
  0
LINE
  5
575
330
1E
100
AcDbEntity
  8
STEMPEL
100
AcDbLine
 10
138.7534575368299
 20
633.4150580272834
 30
0.0
 11
138.7534575368299
 21
609.4150580272835
 31
0.0
  0
LINE
  5
576
330
1E
100
AcDbEntity
  8
STEMPEL
100
AcDbLine
 10
148.7534575368299
 20
633.4150580272834
 30
0.0
 11
148.7534575368298
 21
615.6342722136405
 31
0.0
  0
LINE
  5
577
330
1E
100
AcDbEntity
  8
MITTEL
100
AcDbLine
 10
143.7534575368299
 20
639.415058027283
 30
0.0
 11
143.7534575368299
 21
609.415058027283
 31
0.0
  0
LINE
  5
578
330
1E
100
AcDbEntity
  8
HILF
100
AcDbLine
 10
147.7534575368299
 20
634.4150580272834
 30
0.0
 11
147.75345753683
 21
613.4897652931314
 31
0.0
  0
LINE
  5
579
330
1E
100
AcDbEntity
  8
HILF
100
AcDbLine
 10
139.7534575368299
 20
634.4150580272834
 30
0.0
 11
139.7534575368298
 21
609.4150580272835
 31
0.0
  0
LINE
  5
57A
330
1E
100
AcDbEntity
  8
STEMPEL
100
AcDbLine
 10
147.7534575368299
 20
634.4150580272834
 30
0.0
 11
139.7534575368299
 21
634.4150580272834
 31
0.0
  0
LINE
  5
57B
330
1E
100
AcDbEntity
  8
STEMPEL
100
AcDbLine
 10
138.7534575368299
 20
633.4150580272834
 30
0.0
 11
148.7534575368299
 21
633.4150580272834
 31
0.0
  0
LINE
  5
57C
330
1E
100
AcDbEntity
  8
STEMPEL
100
AcDbLine
 10
139.7534575368299
 20
634.4150580272834
 30
0.0
 11
138.7534575368299
 21
633.4150580272834
 31
0.0
  0
LINE
  5
57D
330
1E
100
AcDbEntity
  8
STEMPEL
100
AcDbLine
 10
148.7534575368299
 20
633.4150580272834
 30
0.0
 11
147.7534575368299
 21
634.4150580272834
 31
0.0
  0
CIRCLE
  5
57F
330
1E
100
AcDbEntity
  8
MITTEL
100
AcDbCircle
 10
244.16262046532
 20
285.1496001507605
 30
0.0
 40
142.0
  0
DIMENSION
  5
580
330
1E
100
AcDbEntity
  8
BEM
100
AcDbDimension
  2
*D1
 10
47.95186814614226
 20
606.415058027283
 30
0.0
 11
41.45186814614215
 21
587.5483913606164
 31
0.0
 70
    32
 71
     5
 42
3.0
  3
Standard
100
AcDbAlignedDimension
 13
72.66262046532006
 23
609.415058027283
 33
0.0
 14
71.66262046532006
 24
606.415058027283
 34
0.0
 50
90.0
100
AcDbRotatedDimension
1001
ACAD
1000
DSTYLE
1002
{
1070
    40
1040
2.0
1070
    41
1040
3.5
1070
    42
1040
1.0
1070
    43
1040
7.0
1070
    44
1040
1.0
1070
    73
1070
     0
1070
    74
1070
     0
1070
    77
1070
     1
1070
    78
1070
     8
1070
    79
1070
     2
1070
   140
1040
3.5
1070
   141
1040
1.5
1070
   146
1040
0.5142857142857144
1070
   147
1040
1.5
1070
   172
1070
     1
1070
   178
1070
     1
1070
   179
1070
     2
1070
   271
1070
     2
1070
   272
1070
     2
1070
   284
1070
     8
1070
   285
1070
     8
1070
   286
1070
     8
1002
}
  0
ARC
  5
589
330
1E
100
AcDbEntity
  8
HILF
100
AcDbCircle
 10
102.16262046532
 20
285.1496001507605
 30
0.0
 40
4.0
100
AcDbArc
 50
195.8364644500625
 51
105.0000000000065
  0
CIRCLE
  5
58A
330
1E
100
AcDbEntity
  8
STEMPEL
100
AcDbCircle
 10
102.16262046532
 20
285.1496001507603
 30
0.0
 40
5.0
  0
LINE
  5
58B
330
1E
100
AcDbEntity
  8
MITTEL
100
AcDbLine
 10
102.16262046532
 20
292.1496001507603
 30
0.0
 11
102.16262046532
 21
278.1496001507603
 31
0.0
  0
LINE
  5
58C
330
1E
100
AcDbEntity
  8
MITTEL
100
AcDbLine
 10
386.1626204653201
 20
292.1496001507605
 30
0.0
 11
386.1626204653201
 21
278.1496001507605
 31
0.0
  0
CIRCLE
  5
58D
330
1E
100
AcDbEntity
  8
STEMPEL
100
AcDbCircle
 10
386.1626204653201
 20
285.1496001507605
 30
0.0
 40
5.0
  0
ARC
  5
58E
330
1E
100
AcDbEntity
  8
HILF
100
AcDbCircle
 10
386.1626204653201
 20
285.1496001507608
 30
0.0
 40
4.0
100
AcDbArc
 50
195.8364644500625
 51
105.0000000000065
  0
LINE
  5
58F
330
1E
100
AcDbEntity
  8
MITTEL
100
AcDbLine
 10
150.8245253486953
 20
191.8115050341367
 30
0.0
 11
136.6823897249645
 21
177.6693694104056
 31
0.0
  0
LINE
  5
590
330
1E
100
AcDbEntity
  8
MITTEL
100
AcDbLine
 10
337.5007155819448
 20
191.8115050341367
 30
0.0
 11
351.6428512056756
 21
177.6693694104056
 31
0.0
  0
CIRCLE
  5
591
330
1E
100
AcDbEntity
  8
STEMPEL
100
AcDbCircle
 10
143.7534575368303
 20
184.7404372222707
 30
0.0
 40
5.0
  0
ARC
  5
592
330
1E
100
AcDbEntity
  8
HILF
100
AcDbCircle
 10
143.7534575368301
 20
184.7404372222705
 30
0.0
 40
4.0
100
AcDbArc
 50
209.9999999999935
 51
119.1635355499375
  0
CIRCLE
  5
593
330
1E
100
AcDbEntity
  8
STEMPEL
100
AcDbCircle
 10
244.1626204653203
 20
143.1496001507605
 30
0.0
 40
5.0
  0
ARC
  5
594
330
1E
100
AcDbEntity
  8
HILF
100
AcDbCircle
 10
244.1626204653203
 20
143.1496001507603
 30
0.0
 40
4.0
100
AcDbArc
 50
254.9999999999935
 51
164.1635355499374
  0
CIRCLE
  5
595
330
1E
100
AcDbEntity
  8
STEMPEL
100
AcDbCircle
 10
344.57178339381
 20
184.740437222271
 30
0.0
 40
5.0
  0
ARC
  5
596
330
1E
100
AcDbEntity
  8
HILF
100
AcDbCircle
 10
344.5717833938102
 20
184.740437222271
 30
0.0
 40
4.0
100
AcDbArc
 50
299.9999999999935
 51
209.1635355499375
  0
CIRCLE
  5
597
330
1E
100
AcDbEntity
  8
STEMPEL
100
AcDbCircle
 10
244.16262046532
 20
285.1496001507605
 30
0.0
 40
172.5
  0
LINE
  5
598
330
1E
100
AcDbEntity
  8
MITTEL
100
AcDbLine
 10
244.16262046532
 20
107.6496001507605
 30
0.0
 11
244.16262046532
 21
462.6496001507605
 31
0.0
  0
LINE
  5
599
330
1E
100
AcDbEntity
  8
MITTEL
100
AcDbLine
 10
66.66262046532006
 20
285.1496001507605
 30
0.0
 11
421.66262046532
 21
285.1496001507605
 31
0.0
  0
LINE
  5
59A
330
1E
100
AcDbEntity
  8
STEMPEL
100
AcDbLine
 10
72.66262046532006
 20
609.415058027283
 30
0.0
 11
71.66262046532006
 21
608.415058027283
 31
0.0
  0
LINE
  5
59B
330
1E
100
AcDbEntity
  8
STEMPEL
100
AcDbLine
 10
143.9421795516027
 20
609.4150580272831
 30
0.0
 11
72.66262046532006
 21
609.415058027283
 31
0.0
  0
DIMENSION
  5
59C
330
1E
100
AcDbEntity
  8
SCHRAFF
100
AcDbDimension
  2
*D2
 10
435.3560228995538
 20
636.4150580272831
 30
0.0
 11
428.8560228995538
 21
621.4150580272833
 31
0.0
 70
    32
 71
     5
 42
29.99999999999989
  3
Standard
100
AcDbAlignedDimension
 13
416.66262046532
 23
606.4150580272833
 33
0.0
 14
329.8815438264301
 24
636.4150580272831
 34
0.0
 50
90.0
100
AcDbRotatedDimension
1001
ACAD
1000
DSTYLE
1002
{
1070
    40
1040
2.0
1070
    41
1040
3.5
1070
    42
1040
1.0
1070
    43
1040
7.0
1070
    44
1040
1.0
1070
    73
1070
     0
1070
    74
1070
     0
1070
    77
1070
     1
1070
    78
1070
     8
1070
    79
1070
     2
1070
   140
1040
3.5
1070
   141
1040
1.5
1070
   146
1040
0.5142857142857144
1070
   147
1040
1.5
1070
   172
1070
     1
1070
   178
1070
     1
1070
   179
1070
     2
1070
   271
1070
     2
1070
   272
1070
     2
1070
   284
1070
     8
1070
   285
1070
     8
1070
   286
1070
     8
1002
}
  0
LINE
  5
59D
330
1E
100
AcDbEntity
  8
STEMPEL
100
AcDbLine
 10
415.66262046532
 20
609.4150580272835
 30
0.0
 11
416.66262046532
 21
608.4150580272835
 31
0.0
  0
LINE
  5
59E
330
1E
100
AcDbEntity
  8
STEMPEL
100
AcDbLine
 10
416.66262046532
 20
608.4150580272835
 30
0.0
 11
416.66262046532
 21
606.4150580272833
 31
0.0
  0
LINE
  5
59F
330
1E
100
AcDbEntity
  8
STEMPEL
100
AcDbLine
 10
71.66262046532006
 20
608.415058027283
 30
0.0
 11
71.66262046532006
 21
606.415058027283
 31
0.0
  0
LINE
  5
5A0
330
1E
100
AcDbEntity
  8
STEMPEL
100
AcDbLine
 10
415.66262046532
 20
609.4150580272835
 30
0.0
 11
344.3830613790372
 21
609.4150580272835
 31
0.0
  0
LINE
  5
5A1
330
1E
100
AcDbEntity
  8
STEMPEL
100
AcDbLine
 10
416.66262046532
 20
606.4150580272833
 30
0.0
 11
71.66262046532006
 21
606.415058027283
 31
0.0
  0
LINE
  5
5A2
330
1E
100
AcDbEntity
  8
MITTEL
100
AcDbLine
 10
244.16262046532
 20
641.4150580272832
 30
0.0
 11
244.16262046532
 21
601.4150580272832
 31
0.0
  0
DIMENSION
  5
5A3
330
1E
100
AcDbEntity
  8
BEM
100
AcDbDimension
  2
*D3
 10
327.1626204653202
 20
654.1852218544659
 30
0.0
 11
244.1626204653201
 21
660.6852218544659
 31
0.0
 70
    32
  1
%%c<>
 71
     5
 42
166.0000000000002
  3
Standard
100
AcDbAlignedDimension
 13
161.1626204653199
 23
635.1472032420612
 33
0.0
 14
327.1626204653202
 24
635.1472032420611
 34
0.0
100
AcDbRotatedDimension
1001
ACAD
1000
DSTYLE
1002
{
1070
    40
1040
2.0
1070
    41
1040
3.5
1070
    42
1040
1.0
1070
    43
1040
7.0
1070
    44
1040
1.0
1070
    73
1070
     0
1070
    74
1070
     0
1070
    77
1070
     1
1070
    78
1070
     8
1070
    79
1070
     2
1070
   140
1040
3.5
1070
   141
1040
1.5
1070
   146
1040
0.5142857142857144
1070
   147
1040
1.5
1070
   172
1070
     1
1070
   178
1070
     1
1070
   179
1070
     2
1070
   271
1070
     2
1070
   272
1070
     2
1070
   284
1070
     8
1070
   285
1070
     8
1070
   286
1070
     8
1002
}
  0
DIMENSION
  5
5A4
330
1E
100
AcDbEntity
  8
BEM
100
AcDbDimension
  2
*D4
 10
340.5606398141924
 20
580.359078955471
 30
0.0
 11
244.16262046532
 21
586.8590789554709
 31
0.0
 70
    32
  1
%%c193
 71
     5
 42
192.7960386977447
  3
Standard
100
AcDbAlignedDimension
 13
147.7646011164476
 23
606.415058027283
 33
0.0
 14
340.5606398141924
 24
606.4150580272833
 34
0.0
100
AcDbRotatedDimension
1001
ACAD
1000
DSTYLE
1002
{
1070
    40
1040
2.0
1070
    41
1040
3.5
1070
    42
1040
1.0
1070
    43
1040
7.0
1070
    44
1040
1.0
1070
    73
1070
     0
1070
    74
1070
     0
1070
    77
1070
     1
1070
    78
1070
     8
1070
    79
1070
     2
1070
   140
1040
3.5
1070
   141
1040
1.5
1070
   146
1040
0.5142857142857144
1070
   147
1040
1.5
1070
   172
1070
     1
1070
   178
1070
     1
1070
   179
1070
     2
1070
   271
1070
     2
1070
   272
1070
     2
1070
   284
1070
     8
1070
   285
1070
     8
1070
   286
1070
     8
1002
}
  0
DIMENSION
  5
5A5
330
1E
100
AcDbEntity
  8
BEM
100
AcDbDimension
  2
*D5
 10
416.66262046532
 20
548.359078955471
 30
0.0
 11
244.16262046532
 21
554.8590789554709
 31
0.0
 70
    32
  1
%%c<>
 71
     5
 42
344.9999999999999
  3
Standard
100
AcDbAlignedDimension
 13
71.66262046532006
 23
606.415058027283
 33
0.0
 14
416.66262046532
 24
606.4150580272833
 34
0.0
100
AcDbRotatedDimension
1001
ACAD
1000
DSTYLE
1002
{
1070
    40
1040
2.0
1070
    41
1040
3.5
1070
    42
1040
1.0
1070
    43
1040
7.0
1070
    44
1040
1.0
1070
    73
1070
     0
1070
    74
1070
     0
1070
    77
1070
     1
1070
    78
1070
     8
1070
    79
1070
     2
1070
   140
1040
3.5
1070
   141
1040
1.5
1070
   146
1040
0.5142857142857144
1070
   147
1040
1.5
1070
   172
1070
     1
1070
   178
1070
     1
1070
   179
1070
     2
1070
   271
1070
     2
1070
   272
1070
     2
1070
   284
1070
     8
1070
   285
1070
     8
1070
   286
1070
     8
1002
}
  0
DIMENSION
  5
5A6
330
1E
100
AcDbEntity
  8
BEM
100
AcDbDimension
  2
*D6
 10
386.1626204653201
 20
564.359078955471
 30
0.0
 11
244.16262046532
 21
570.8590789554709
 31
0.0
 70
    32
  1
%%c<>
 71
     5
 42
284.0
  3
Standard
100
AcDbAlignedDimension
 13
102.16262046532
 23
609.415058027283
 33
0.0
 14
386.1626204653201
 24
609.415058027283
 34
0.0
100
AcDbRotatedDimension
1001
ACAD
1000
DSTYLE
1002
{
1070
    40
1040
2.0
1070
    41
1040
3.5
1070
    42
1040
1.0
1070
    43
1040
7.0
1070
    44
1040
1.0
1070
    73
1070
     0
1070
    74
1070
     0
1070
    77
1070
     1
1070
    78
1070
     8
1070
    79
1070
     2
1070
   140
1040
3.5
1070
   141
1040
1.5
1070
   146
1040
0.5142857142857144
1070
   147
1040
1.5
1070
   172
1070
     1
1070
   178
1070
     1
1070
   179
1070
     2
1070
   271
1070
     2
1070
   272
1070
     2
1070
   284
1070
     8
1070
   285
1070
     8
1070
   286
1070
     8
1002
}
  0
LINE
  5
5A7
330
1E
100
AcDbEntity
  8
STEMPEL
100
AcDbLine
 10
107.1626204653201
 20
633.415058027283
 30
0.0
 11
106.1626204653201
 21
634.415058027283
 31
0.0
  0
LINE
  5
5A8
330
1E
100
AcDbEntity
  8
STEMPEL
100
AcDbLine
 10
98.16262046532008
 20
634.415058027283
 30
0.0
 11
97.16262046532008
 21
633.415058027283
 31
0.0
  0
LINE
  5
5A9
330
1E
100
AcDbEntity
  8
STEMPEL
100
AcDbLine
 10
97.16262046532008
 20
633.415058027283
 30
0.0
 11
107.1626204653201
 21
633.415058027283
 31
0.0
  0
LINE
  5
5AA
330
1E
100
AcDbEntity
  8
STEMPEL
100
AcDbLine
 10
106.1626204653201
 20
634.415058027283
 30
0.0
 11
98.16262046532008
 21
634.415058027283
 31
0.0
  0
LINE
  5
5AB
330
1E
100
AcDbEntity
  8
HILF
100
AcDbLine
 10
98.16262046532008
 20
634.415058027283
 30
0.0
 11
98.16262046532008
 21
609.415058027283
 31
0.0
  0
LINE
  5
5AC
330
1E
100
AcDbEntity
  8
HILF
100
AcDbLine
 10
106.1626204653201
 20
634.415058027283
 30
0.0
 11
106.1626204653201
 21
609.415058027283
 31
0.0
  0
LINE
  5
5AD
330
1E
100
AcDbEntity
  8
MITTEL
100
AcDbLine
 10
102.16262046532
 20
639.415058027283
 30
0.0
 11
102.16262046532
 21
609.415058027283
 31
0.0
  0
LINE
  5
5AE
330
1E
100
AcDbEntity
  8
STEMPEL
100
AcDbLine
 10
107.1626204653201
 20
633.415058027283
 30
0.0
 11
107.1626204653201
 21
609.415058027283
 31
0.0
  0
LINE
  5
5AF
330
1E
100
AcDbEntity
  8
STEMPEL
100
AcDbLine
 10
97.16262046532008
 20
633.415058027283
 30
0.0
 11
97.16262046532008
 21
609.415058027283
 31
0.0
  0
ARC
  5
5B0
330
1E
100
AcDbEntity
  8
HILF
100
AcDbCircle
 10
344.5717833938102
 20
385.5587630792501
 30
0.0
 40
4.0
100
AcDbArc
 50
150.8364644500625
 51
60.00000000000651
  0
CIRCLE
  5
5B1
330
1E
100
AcDbEntity
  8
STEMPEL
100
AcDbCircle
 10
344.57178339381
 20
385.5587630792501
 30
0.0
 40
5.0
  0
ARC
  5
5B2
330
1E
100
AcDbEntity
  8
HILF
100
AcDbCircle
 10
244.1626204653204
 20
427.1496001507607
 30
0.0
 40
4.0
100
AcDbArc
 50
195.8364644500625
 51
105.0000000000065
  0
CIRCLE
  5
5B3
330
1E
100
AcDbEntity
  8
STEMPEL
100
AcDbCircle
 10
244.1626204653204
 20
427.1496001507605
 30
0.0
 40
5.0
  0
ARC
  5
5B4
330
1E
100
AcDbEntity
  8
HILF
100
AcDbCircle
 10
143.7534575368301
 20
385.5587630792506
 30
0.0
 40
4.0
100
AcDbArc
 50
240.8364644500625
 51
150.0000000000065
  0
CIRCLE
  5
5B5
330
1E
100
AcDbEntity
  8
STEMPEL
100
AcDbCircle
 10
143.7534575368303
 20
385.5587630792503
 30
0.0
 40
5.0
  0
LINE
  5
5B6
330
1E
100
AcDbEntity
  8
MITTEL
100
AcDbLine
 10
337.5007155819447
 20
378.4876952673844
 30
0.0
 11
351.6428512056755
 21
392.6298308911155
 31
0.0
  0
LINE
  5
5B7
330
1E
100
AcDbEntity
  8
MITTEL
100
AcDbLine
 10
150.8245253486953
 20
378.4876952673844
 30
0.0
 11
136.6823897249646
 21
392.6298308911155
 31
0.0
  0
LINE
  5
5BE
330
1E
100
AcDbEntity
  8
STEMPEL
100
AcDbLine
 10
391.1626204653201
 20
633.415058027283
 30
0.0
 11
391.1626204653201
 21
609.415058027283
 31
0.0
  0
LINE
  5
5BF
330
1E
100
AcDbEntity
  8
STEMPEL
100
AcDbLine
 10
381.1626204653201
 20
633.415058027283
 30
0.0
 11
381.1626204653201
 21
609.415058027283
 31
0.0
  0
LINE
  5
5C0
330
1E
100
AcDbEntity
  8
MITTEL
100
AcDbLine
 10
386.1626204653201
 20
639.4150580272834
 30
0.0
 11
386.1626204653201
 21
609.415058027283
 31
0.0
  0
LINE
  5
5C1
330
1E
100
AcDbEntity
  8
HILF
100
AcDbLine
 10
382.1626204653201
 20
634.415058027283
 30
0.0
 11
382.1626204653201
 21
609.415058027283
 31
0.0
  0
LINE
  5
5C2
330
1E
100
AcDbEntity
  8
HILF
100
AcDbLine
 10
390.1626204653201
 20
634.415058027283
 30
0.0
 11
390.1626204653201
 21
609.415058027283
 31
0.0
  0
LINE
  5
5C3
330
1E
100
AcDbEntity
  8
STEMPEL
100
AcDbLine
 10
382.1626204653201
 20
634.415058027283
 30
0.0
 11
390.1626204653201
 21
634.415058027283
 31
0.0
  0
LINE
  5
5C4
330
1E
100
AcDbEntity
  8
STEMPEL
100
AcDbLine
 10
391.1626204653201
 20
633.415058027283
 30
0.0
 11
381.1626204653201
 21
633.415058027283
 31
0.0
  0
LINE
  5
5C5
330
1E
100
AcDbEntity
  8
STEMPEL
100
AcDbLine
 10
390.1626204653201
 20
634.415058027283
 30
0.0
 11
391.1626204653201
 21
633.415058027283
 31
0.0
  0
LINE
  5
5C6
330
1E
100
AcDbEntity
  8
STEMPEL
100
AcDbLine
 10
381.1626204653201
 20
633.415058027283
 30
0.0
 11
382.1626204653201
 21
634.415058027283
 31
0.0
  0
LINE
  5
5C7
330
1E
100
AcDbEntity
  8
STEMPEL
100
AcDbLine
 10
339.5717833938102
 20
633.4150580272834
 30
0.0
 11
340.5717833938102
 21
634.4150580272834
 31
0.0
  0
LINE
  5
5C8
330
1E
100
AcDbEntity
  8
STEMPEL
100
AcDbLine
 10
348.5717833938102
 20
634.4150580272834
 30
0.0
 11
349.5717833938102
 21
633.4150580272834
 31
0.0
  0
LINE
  5
5C9
330
1E
100
AcDbEntity
  8
STEMPEL
100
AcDbLine
 10
349.5717833938102
 20
633.4150580272834
 30
0.0
 11
339.5717833938102
 21
633.4150580272834
 31
0.0
  0
LINE
  5
5CA
330
1E
100
AcDbEntity
  8
STEMPEL
100
AcDbLine
 10
340.5717833938102
 20
634.4150580272834
 30
0.0
 11
348.5717833938102
 21
634.4150580272834
 31
0.0
  0
LINE
  5
5CB
330
1E
100
AcDbEntity
  8
HILF
100
AcDbLine
 10
348.5717833938102
 20
634.4150580272834
 30
0.0
 11
348.5717833938103
 21
609.4150580272835
 31
0.0
  0
LINE
  5
5CC
330
1E
100
AcDbEntity
  8
HILF
100
AcDbLine
 10
340.5717833938102
 20
634.4150580272834
 30
0.0
 11
340.57178339381
 21
613.4897652931315
 31
0.0
  0
LINE
  5
5CD
330
1E
100
AcDbEntity
  8
MITTEL
100
AcDbLine
 10
344.5717833938102
 20
639.4150580272833
 30
0.0
 11
344.5717833938101
 21
609.4150580272836
 31
0.0
  0
LINE
  5
5CE
330
1E
100
AcDbEntity
  8
STEMPEL
100
AcDbLine
 10
339.5717833938102
 20
633.4150580272834
 30
0.0
 11
339.5717833938103
 21
615.6342722136405
 31
0.0
  0
LINE
  5
5CF
330
1E
100
AcDbEntity
  8
STEMPEL
100
AcDbLine
 10
349.5717833938102
 20
633.4150580272834
 30
0.0
 11
349.5717833938102
 21
609.4150580272835
 31
0.0
  0
TEXT
  5
5D1
330
1E
100
AcDbEntity
  8
TEXT
100
AcDbText
 10
480.5300866482731
 20
471.295519185679
 30
0.0
 40
5.0
  1
Erstellt mit AUTOCAD 2004
 50
90.0
 41
0.8
100
AcDbText
  0
TEXT
  5
5D2
330
1E
100
AcDbEntity
  8
TEXT
100
AcDbText
 10
531.0
 20
624.7428571428571
 30
0.0
 40
4.0
  1
Koeh
 50
90.0
 41
0.8
 72
     4
 11
529.0
 21
630.0
 31
0.0
100
AcDbText
  0
TEXT
  5
5D3
330
1E
100
AcDbEntity
  8
TEXT
100
AcDbText
 10
531.0
 20
590.6
 30
0.0
 40
4.0
  1
30.11.
 50
90.0
 41
0.8
 72
     4
 11
529.0
 21
597.0
 31
0.0
100
AcDbText
  0
TEXT
  5
5D4
330
1E
100
AcDbEntity
  8
TEXT
100
AcDbText
 10
521.0
 20
623.6761904761905
 30
0.0
 40
4.0
  1
Name
 50
90.0
 41
0.8
 72
     4
 11
519.0
 21
630.0
 31
0.0
100
AcDbText
  0
TEXT
  5
5D5
330
1E
100
AcDbEntity
  8
TEXT
100
AcDbText
 10
520.3333333333334
 20
593.2666666666666
 30
0.0
 40
4.0
  1
Tag
 50
90.0
 41
0.8
 72
     4
 11
519.0
 21
597.0
 31
0.0
100
AcDbText
  0
TEXT
  5
5D6
330
1E
100
AcDbEntity
  8
TEXT
100
AcDbText
 10
521.0
 20
569.6666666666666
 30
0.0
 40
4.0
  1
2010
 50
90.0
 41
0.8
 72
     4
 11
519.0
 21
575.0
 31
0.0
100
AcDbText
  0
TEXT
  5
5D7
330
1E
100
AcDbEntity
  8
TEXT
 62
     1
100
AcDbText
 10
505.8017341629681
 20
582.0000000000001
 30
0.0
 40
7.0
  1
1:2
 50
90.0
 41
0.8
 72
     1
 11
505.8017341629681
 21
588.0000000000001
 31
0.0
100
AcDbText
  0
TEXT
  5
5D8
330
1E
100
AcDbEntity
  8
TEXT
100
AcDbText
 10
506.0254814117801
 20
614.1333333333333
 30
0.0
 40
4.0
  1
DIN ISO2768-c
 50
90.0
 41
0.7
 72
     1
 11
506.0254814117801
 21
630.0
 31
0.0
100
AcDbText
  0
TEXT
  5
5D9
330
1E
100
AcDbEntity
  8
TEXT
100
AcDbText
 10
491.4510671988221
 20
616.5714285714285
 30
0.0
 40
5.0
  1
Zul. Abw.
 50
90.0
 41
0.8
 72
     1
 11
491.4510671988221
 21
630.0
 31
0.0
100
AcDbText
  0
TEXT
  5
5DA
330
1E
100
AcDbEntity
  8
TEXT
100
AcDbText
 10
491.4510671988221
 20
576.1904761904762
 30
0.0
 40
5.0
  1
Maßstab
 50
90.0
 41
0.8
 72
     1
 11
491.4510671988221
 21
588.0000000000001
 31
0.0
100
AcDbText
  0
LINE
  5
5DB
330
1E
100
AcDbEntity
  8
HILF
100
AcDbLine
 10
10.0
 20
460.0000000000001
 30
0.0
 11
0.0
 21
460.0000000000001
 31
0.0
  0
LINE
  5
5DC
330
1E
100
AcDbEntity
  8
HILF
100
AcDbLine
 10
594.0
 20
460.0
 30
0.0
 11
584.0
 21
460.0
 31
0.0
  0
INSERT
  5
5DD
330
1E
100
AcDbEntity
  8
STEMPEL
100
AcDbBlockReference
  2
LOGO
 10
549.6760802813286
 20
568.9705276546529
 30
0.0
 41
2.0
 42
2.0
 43
2.0
 50
90.0
  0
TEXT
  5
5DE
330
1E
100
AcDbEntity
  8
TEXT
100
AcDbText
 10
552.0
 20
654.9713400534564
 30
0.0
 40
4.0
  1
21806150W.DWG
 50
90.0
 41
0.8
100
AcDbText
  0
TEXT
  5
5DF
330
1E
100
AcDbEntity
  8
TEXT
100
AcDbText
 10
532.0
 20
654.8863039776644
 30
0.0
 40
5.0
  1
LORO-FLEX Rohrdurchführung DN125
 50
90.0
 41
0.65
100
AcDbText
  0
TEXT
  5
5E0
330
1E
100
AcDbEntity
  8
TEXT
 62
     1
100
AcDbText
 10
508.2201636304418
 20
767.4377728175698
 30
0.0
 40
7.0
  1
21806150W
 50
90.0
 41
0.8
 72
     1
 11
508.2201636304418
 21
790.3711061509031
 31
0.0
100
AcDbText
  0
TEXT
  5
5E1
330
1E
100
AcDbEntity
  8
TEXT
100
AcDbText
 10
583.4462193823216
 20
836.4132055378062
 30
0.0
 40
4.0
  1
Diese Zeichnung ist urheberrechtlich geschuetzt und bleibt unser Eigentum. Sie darf weder ganz noch teilweise vervielfaeltigt und nicht an Dritte weitergegeben werden.
 50
180.0
 41
0.8
100
AcDbText
  0
TEXT
  5
5E2
330
1E
100
AcDbEntity
  8
TEXT
100
AcDbText
 10
542.0
 20
655.162303158329
 30
0.0
 40
5.0
  1
EDV-Art.Nr. 21806.150X
 50
90.0
 41
0.8
100
AcDbText
  0
TEXT
  5
5E3
330
1E
100
AcDbEntity
  8
TEXT
100
AcDbText
 10
522.0
 20
654.862987254257
 30
0.0
 40
5.0
  1
DN150 mit Bolzen für
 50
90.0
 41
0.8
100
AcDbText
  0
LINE
  5
5E4
330
1E
100
AcDbEntity
  8
STEMPEL
100
AcDbLine
 10
10.0
 20
40.0
 30
0.0
 11
584.0
 21
39.99999999999996
 31
0.0
  0
LINE
  5
5E5
330
1E
100
AcDbEntity
  8
STEMPEL
100
AcDbLine
 10
584.0
 20
830.0
 30
0.0
 11
10.0
 21
830.0
 31
0.0
  0
LINE
  5
5E6
330
1E
100
AcDbEntity
  8
STEMPEL
100
AcDbLine
 10
584.0
 20
39.99999999999996
 30
0.0
 11
584.0
 21
830.0
 31
0.0
  0
LINE
  5
5E7
330
1E
100
AcDbEntity
  8
STEMPEL
100
AcDbLine
 10
10.0
 20
830.0
 30
0.0
 11
10.0
 21
40.0
 31
0.0
  0
LINE
  5
5E8
330
1E
100
AcDbEntity
  8
HILF
100
AcDbLine
 10
0.0
 20
0.0
 30
0.0
 11
594.0
 21
-0.0000000000000364
 31
0.0
  0
LINE
  5
5E9
330
1E
100
AcDbEntity
  8
HILF
100
AcDbLine
 10
0.0
 20
840.0000000000002
 30
0.0
 11
0.0
 21
0.0
 31
0.0
  0
LINE
  5
5EA
330
1E
100
AcDbEntity
  8
HILF
100
AcDbLine
 10
594.0
 20
840.0000000000002
 30
0.0
 11
0.0
 21
840.0000000000002
 31
0.0
  0
LINE
  5
5EB
330
1E
100
AcDbEntity
  8
HILF
100
AcDbLine
 10
594.0
 20
-0.0000000000000364
 30
0.0
 11
594.0
 21
840.0000000000002
 31
0.0
  0
TEXT
  5
5EC
330
1E
100
AcDbEntity
  8
TEXT
100
AcDbText
 10
541.925838221214
 20
757.2400861497007
 30
0.0
 40
5.0
  1
ersetzt durch:
 50
90.0
 41
0.8
100
AcDbText
  0
TEXT
  5
5ED
330
1E
100
AcDbEntity
  8
TEXT
100
AcDbText
 10
550.470536103502
 20
567.6006777387303
 30
0.0
 40
4.0
  1
Norm.
 50
90.0
 41
0.8
100
AcDbText
  0
TEXT
  5
5EE
330
1E
100
AcDbEntity
  8
TEXT
100
AcDbText
 10
540.3107370857163
 20
567.5515086571671
 30
0.0
 40
4.0
  1
Gepr.
 50
90.0
 41
0.8
100
AcDbText
  0
TEXT
  5
5EF
330
1E
100
AcDbEntity
  8
TEXT
100
AcDbText
 10
530.3700963038204
 20
567.5836127167614
 30
0.0
 40
4.0
  1
Gez.
 50
90.0
 41
0.8
100
AcDbText
  0
TEXT
  5
5F0
330
1E
100
AcDbEntity
  8
TEXT
100
AcDbText
 10
576.0
 20
548.6761904761904
 30
0.0
 40
4.0
  1
Name
 50
90.0
 41
0.8
 72
     4
 11
574.0
 21
554.9999999999998
 31
0.0
100
AcDbText
  0
TEXT
  5
5F1
330
1E
100
AcDbEntity
  8
TEXT
100
AcDbText
 10
575.3333333333333
 20
530.2666666666666
 30
0.0
 40
4.0
  1
Tag
 50
90.0
 41
0.8
 72
     4
 11
574.0
 21
534.0
 31
0.0
100
AcDbText
  0
TEXT
  5
5F2
330
1E
100
AcDbEntity
  8
TEXT
100
AcDbText
 10
580.3453415397281
 20
478.2664110704573
 30
0.0
 40
4.0
  1
Index
 50
180.0
 41
0.8
100
AcDbText
  0
TEXT
  5
5F3
330
1E
100
AcDbEntity
  8
TEXT
100
AcDbText
 10
520.8188176290003
 20
756.7238616296994
 30
0.0
 40
5.0
  1
Ersatz für:
 50
90.0
 41
0.8
100
AcDbText
  0
TEXT
  5
5F4
330
1E
100
AcDbEntity
  8
TEXT
100
AcDbText
 10
563.1543942980695
 20
654.7422383911358
 30
0.0
 40
5.0
  1
Bauvorhaben
 50
90.0
 41
0.8
100
AcDbText
  0
TEXT
  5
5F5
330
1E
100
AcDbEntity
  8
TEXT
100
AcDbText
 10
491.6867965462865
 20
756.1787549576341
 30
0.0
 40
5.0
  1
Zeichnungs Nr.
 50
90.0
 41
0.8
100
AcDbText
  0
TEXT
  5
5F6
330
1E
100
AcDbEntity
  8
TEXT
100
AcDbText
 10
491.4510671988221
 20
654.8779403809009
 30
0.0
 40
5.0
  1
Benennung
 50
90.0
 41
0.8
100
AcDbText
  0
TEXT
  5
5F7
330
1E
100
AcDbEntity
  8
TEXT
100
AcDbText
 10
575.7142857142857
 20
493.2571428571427
 30
0.0
 40
4.0
  1
Änderung
 50
90.0
 41
0.8
 72
     4
 11
574.0
 21
503.9999999999999
 31
0.0
100
AcDbText
  0
LINE
  5
5F8
330
1E
100
AcDbEntity
  8
HILF
100
AcDbLine
 10
579.1060174197169
 20
654.7736801096947
 30
0.0
 11
579.1060174197169
 21
824.8588839326728
 31
0.0
  0
LINE
  5
5F9
330
1E
100
AcDbEntity
  8
HILF
100
AcDbLine
 10
510.2201636304418
 20
756.7238616296994
 30
0.0
 11
510.2201636304418
 21
824.8588839326728
 31
0.0
  0
LINE
  5
5FA
330
1E
100
AcDbEntity
  8
VOLL
100
AcDbLine
 10
534.0
 20
752.0000000000001
 30
0.0
 11
534.0
 21
830.0
 31
0.0
  0
LINE
  5
5FB
330
1E
100
AcDbEntity
  8
HILF
100
AcDbLine
 10
544.0
 20
654.7736801096947
 30
0.0
 11
544.0
 21
746.629784251481
 31
0.0
  0
LINE
  5
5FC
330
1E
100
AcDbEntity
  8
HILF
100
AcDbLine
 10
534.0
 20
654.7736801096947
 30
0.0
 11
534.0
 21
746.629784251481
 31
0.0
  0
LINE
  5
5FD
330
1E
100
AcDbEntity
  8
HILF
100
AcDbLine
 10
524.0
 20
654.7736801096947
 30
0.0
 11
524.0
 21
746.629784251481
 31
0.0
  0
LINE
  5
5FE
330
1E
100
AcDbEntity
  8
HILF
100
AcDbLine
 10
509.9624175243587
 20
654.7736801096947
 30
0.0
 11
509.9624175243587
 21
746.629784251481
 31
0.0
  0
LINE
  5
5FF
330
1E
100
AcDbEntity
  8
HILF
100
AcDbLine
 10
544.0
 20
566.0000000000001
 30
0.0
 11
544.0
 21
649.9999999999999
 31
0.0
  0
LINE
  5
600
330
1E
100
AcDbEntity
  8
HILF
100
AcDbLine
 10
534.0
 20
566.0000000000001
 30
0.0
 11
534.0
 21
649.9999999999999
 31
0.0
  0
LINE
  5
601
330
1E
100
AcDbEntity
  8
HILF
100
AcDbLine
 10
524.0
 20
566.0000000000001
 30
0.0
 11
524.0
 21
649.9999999999999
 31
0.0
  0
LINE
  5
602
330
1E
100
AcDbEntity
  8
HILF
100
AcDbLine
 10
554.0
 20
469.9999999999999
 30
0.0
 11
554.0
 21
566.0000000000001
 31
0.0
  0
LINE
  5
603
330
1E
100
AcDbEntity
  8
HILF
100
AcDbLine
 10
544.0
 20
469.9999999999999
 30
0.0
 11
544.0
 21
566.0000000000001
 31
0.0
  0
LINE
  5
604
330
1E
100
AcDbEntity
  8
HILF
100
AcDbLine
 10
534.0
 20
469.9999999999999
 30
0.0
 11
534.0
 21
566.0000000000001
 31
0.0
  0
LINE
  5
605
330
1E
100
AcDbEntity
  8
HILF
100
AcDbLine
 10
524.0
 20
469.9999999999999
 30
0.0
 11
524.0
 21
566.0000000000001
 31
0.0
  0
LINE
  5
606
330
1E
100
AcDbEntity
  8
HILF
100
AcDbLine
 10
514.0
 20
469.9999999999999
 30
0.0
 11
514.0
 21
566.0000000000001
 31
0.0
  0
LINE
  5
607
330
1E
100
AcDbEntity
  8
HILF
100
AcDbLine
 10
504.0
 20
469.9999999999999
 30
0.0
 11
504.0
 21
566.0000000000001
 31
0.0
  0
LINE
  5
608
330
1E
100
AcDbEntity
  8
HILF
100
AcDbLine
 10
494.0
 20
469.9999999999999
 30
0.0
 11
494.0
 21
566.0000000000001
 31
0.0
  0
LINE
  5
609
330
1E
100
AcDbEntity
  8
VOLL
100
AcDbLine
 10
484.0000000000002
 20
610.0000000000001
 30
0.0
 11
554.0
 21
609.9999999999998
 31
0.0
  0
LINE
  5
60A
330
1E
100
AcDbEntity
  8
VOLL
100
AcDbLine
 10
514.0
 20
584.0000000000001
 30
0.0
 11
554.0
 21
584.0000000000001
 31
0.0
  0
LINE
  5
60B
330
1E
100
AcDbEntity
  8
VOLL
100
AcDbLine
 10
484.0000000000001
 20
544.0000000000001
 30
0.0
 11
584.0000000000001
 21
543.9999999999998
 31
0.0
  0
LINE
  5
60C
330
1E
100
AcDbEntity
  8
VOLL
100
AcDbLine
 10
484.0000000000001
 20
524.0000000000001
 30
0.0
 11
584.0000000000001
 21
523.9999999999999
 31
0.0
  0
LINE
  5
60D
330
1E
100
AcDbEntity
  8
VOLL
100
AcDbLine
 10
484.0
 20
483.9999999999999
 30
0.0
 11
584.0
 21
483.9999999999998
 31
0.0
  0
LINE
  5
60E
330
1E
100
AcDbEntity
  8
STEMPEL
100
AcDbLine
 10
514.0
 20
830.0
 30
0.0
 11
514.0
 21
566.0000000000001
 31
0.0
  0
LINE
  5
60F
330
1E
100
AcDbEntity
  8
STEMPEL
100
AcDbLine
 10
554.0
 20
830.0
 30
0.0
 11
554.0
 21
565.9999999999999
 31
0.0
  0
LINE
  5
610
330
1E
100
AcDbEntity
  8
STEMPEL
100
AcDbLine
 10
564.0
 20
565.9999999999999
 30
0.0
 11
564.0
 21
469.9999999999998
 31
0.0
  0
LINE
  5
611
330
1E
100
AcDbEntity
  8
STEMPEL
100
AcDbLine
 10
484.0000000000004
 20
752.0000000000001
 30
0.0
 11
554.0
 21
752.0000000000001
 31
0.0
  0
LINE
  5
612
330
1E
100
AcDbEntity
  8
STEMPEL
100
AcDbLine
 10
484.0
 20
649.9999999999999
 30
0.0
 11
584.0
 21
649.9999999999999
 31
0.0
  0
LINE
  5
613
330
1E
100
AcDbEntity
  8
STEMPEL
100
AcDbLine
 10
484.0000000000001
 20
566.0000000000001
 30
0.0
 11
584.0000000000001
 21
565.9999999999999
 31
0.0
  0
LINE
  5
614
330
1E
100
AcDbEntity
  8
STEMPEL
100
AcDbLine
 10
484.0
 20
469.9999999999999
 30
0.0
 11
584.0
 21
469.9999999999998
 31
0.0
  0
LINE
  5
615
330
1E
100
AcDbEntity
  8
STEMPEL
100
AcDbLine
 10
484.0
 20
830.0
 30
0.0
 11
484.0
 21
469.9999999999999
 31
0.0
  0
TEXT
  5
616
330
1E
100
AcDbEntity
  8
TEXT
 62
     1
100
AcDbText
 10
507.9624175243587
 20
654.979117340995
 30
0.0
 40
7.0
  1
Festflansch
 50
90.0
 41
0.8
100
AcDbText
  0
TEXT
  5
617
330
1E
100
AcDbEntity
  8
TEXT
 62
     1
100
AcDbText
 10
121.2653378899763
 20
785.4801290704811
 30
0.0
 40
7.0
  1

 41
0.8
  7
GREEKS
100
AcDbText
  0
LINE
  5
8D2
330
1E
100
AcDbEntity
  8
BEM
100
AcDbLine
 10
149.3800262738226
 20
609.879348456839
 30
0.0
 11
147.7646011164477
 21
606.4150580272833
 31
0.0
  0
LINE
  5
8D3
330
1E
100
AcDbEntity
  8
BEM
100
AcDbLine
 10
338.9452146568173
 20
609.8793484568393
 30
0.0
 11
340.5606398141924
 21
606.4150580272833
 31
0.0
  0
DIMENSION
  5
8E0
330
1E
100
AcDbEntity
  8
BEM
100
AcDbDimension
  2
*D7
 10
421.66262046532
 20
285.1496001507605
 30
0.0
 11
66.47818979904183
 21
211.5502991462463
 31
0.0
 70
    34
 71
     5
 42
0.785398163397459
  3
Standard
100
AcDb2LineAngularDimension
 13
150.8245253486953
 23
191.8115050341367
 33
0.0
 14
136.6823897249645
 24
177.6693694104056
 34
0.0
 15
66.66262046532006
 25
285.1496001507605
 35
0.0
 16
52.11315035405165
 26
233.6900997276214
 36
0.0
1001
ACAD
1000
DSTYLE
1002
{
1070
    40
1040
2.0
1070
    41
1040
3.5
1070
    42
1040
1.0
1070
    43
1040
7.0
1070
    44
1040
1.0
1070
    73
1070
     0
1070
    74
1070
     0
1070
    77
1070
     1
1070
    78
1070
     8
1070
    79
1070
     2
1070
   140
1040
3.5
1070
   141
1040
1.5
1070
   146
1040
0.5142857142857144
1070
   147
1040
1.5
1070
   172
1070
     1
1070
   178
1070
     1
1070
   179
1070
     2
1070
   271
1070
     2
1070
   272
1070
     2
1070
   284
1070
     8
1070
   285
1070
     8
1070
   286
1070
     8
1002
}
  0
ENDSEC
  0
SECTION
  2
OBJECTS
  0
DICTIONARY
  5
C
330
0
100
AcDbDictionary
281
     1
  3
ACAD_COLOR
350
11A
  3
ACAD_GROUP
350
D
  3
ACAD_LAYOUT
350
19
  3
ACAD_MATERIAL
350
119
  3
ACAD_MLINESTYLE
350
16
  3
ACAD_PLOTSETTINGS
350
18
  3
ACAD_PLOTSTYLENAME
350
E
  3
AcDbVariableDictionary
350
125
  0
DICTIONARY
  5
DB
330
1E
100
AcDbDictionary
280
     1
281
     1
  3
ACAD_LAYOUTSELFREF
360
10F
  0
DICTIONARY
  5
DD
330
1A
100
AcDbDictionary
280
     1
281
     1
  3
ACAD_LAYOUTSELFREF
360
10E
  0
DICTIONARY
  5
11A
102
{ACAD_REACTORS
330
C
102
}
330
C
100
AcDbDictionary
281
     1
  0
DICTIONARY
  5
D
102
{ACAD_REACTORS
330
C
102
}
330
C
100
AcDbDictionary
281
     1
  0
DICTIONARY
  5
19
102
{ACAD_REACTORS
330
C
102
}
330
C
100
AcDbDictionary
281
     1
  3
Layout1
350
1D
  3
Model
350
21
  0
DICTIONARY
  5
119
102
{ACAD_REACTORS
330
C
102
}
330
C
100
AcDbDictionary
281
     1
  0
DICTIONARY
  5
16
102
{ACAD_REACTORS
330
C
102
}
330
C
100
AcDbDictionary
281
     1
  3
Standard
350
17
  0
DICTIONARY
  5
18
102
{ACAD_REACTORS
330
C
102
}
330
C
100
AcDbDictionary
281
     1
  0
ACDBDICTIONARYWDFLT
  5
E
102
{ACAD_REACTORS
330
C
102
}
330
C
100
AcDbDictionary
281
     1
  3
Normal
350
F
100
AcDbDictionaryWithDefault
340
F
  0
DICTIONARY
  5
125
102
{ACAD_REACTORS
330
C
102
}
330
C
100
AcDbDictionary
281
     1
  3
DIMASSOC
350
126
  3
PROJECTNAME
350
127
  0
XRECORD
  5
10F
102
{ACAD_REACTORS
330
DB
102
}
330
DB
100
AcDbXrecord
280
     1
340
1E
  0
XRECORD
  5
10E
102
{ACAD_REACTORS
330
DD
102
}
330
DD
100
AcDbXrecord
280
     1
340
1A
  0
LAYOUT
  5
1D
102
{ACAD_REACTORS
330
19
102
}
330
19
100
AcDbPlotSettings
  1

  2
\\NT_WORK01\HP LaserJet 5000 PCL 6
  4

  6

 40
0.0
 41
0.0
 42
0.0
 43
0.0
 44
0.0
 45
0.0
 46
0.0
 47
0.0
 48
0.0
 49
0.0
140
0.0
141
0.0
142
1.0
143
1.0
 70
   688
 72
     0
 73
     0
 74
     5
  7

 75
    16
147
1.0
 76
     0
 77
     2
 78
   300
148
0.0
149
0.0
100
AcDbLayout
  1
Layout1
 70
     0
 71
     1
 10
0.0
 20
0.0
 11
12.0
 21
9.0
 12
0.0
 22
0.0
 32
0.0
 14
1.000000000000000E+20
 24
1.000000000000000E+20
 34
1.000000000000000E+20
 15
-1.000000000000000E+20
 25
-1.000000000000000E+20
 35
-1.000000000000000E+20
146
0.0
 13
0.0
 23
0.0
 33
0.0
 16
1.0
 26
0.0
 36
0.0
 17
0.0
 27
1.0
 37
0.0
 76
     0
330
1A
  0
LAYOUT
  5
21
102
{ACAD_REACTORS
330
19
102
}
330
19
100
AcDbPlotSettings
  1

  2
\\NT_WORK01\HP LaserJet 5000 PCL 6
  4

  6

 40
0.0
 41
0.0
 42
0.0
 43
0.0
 44
0.0
 45
0.0
 46
0.0
 47
0.0
 48
0.0
 49
0.0
140
0.0
141
0.0
142
1.0
143
1.0
 70
  1712
 72
     0
 73
     0
 74
     0
  7

 75
     0
147
1.0
 76
     0
 77
     2
 78
   300
148
0.0
149
0.0
100
AcDbLayout
  1
Model
 70
     1
 71
     0
 10
0.0
 20
0.0
 11
12.0
 21
9.0
 12
0.0
 22
0.0
 32
0.0
 14
0.0
 24
0.0
 34
0.0
 15
0.0
 25
0.0
 35
0.0
146
0.0
 13
0.0
 23
0.0
 33
0.0
 16
1.0
 26
0.0
 36
0.0
 17
0.0
 27
1.0
 37
0.0
 76
     0
330
1E
  0
MLINESTYLE
  5
17
102
{ACAD_REACTORS
330
16
102
}
330
16
100
AcDbMlineStyle
  2
STANDARD
 70
     0
  3

 62
   256
 51
90.0
 52
90.0
 71
     2
 49
0.5
 62
   256
  6
BYLAYER
 49
-0.5
 62
   256
  6
BYLAYER
  0
ACDBPLACEHOLDER
  5
F
102
{ACAD_REACTORS
330
E
102
}
330
E
  0
DICTIONARYVAR
  5
126
102
{ACAD_REACTORS
330
125
102
}
330
125
100
DictionaryVariables
280
     0
  1
1
  0
DICTIONARYVAR
  5
127
102
{ACAD_REACTORS
330
125
102
}
330
125
100
DictionaryVariables
280
     0
  1

  0
ENDSEC
  0
EOF
