  0
SECTION
  2
HEADER
  9
$ACADVER
  1
AC1018
  9
$ACADMAINTVER
 70
     2
  9
$DWGCODEPAGE
  3
ANSI_1252
  9
$INSBASE
 10
0.0
 20
0.0
 30
0.0
  9
$EXTMIN
 10
-0.0000000000001137
 20
-0.0000000000001137
 30
0.0
  9
$EXTMAX
 10
420.0
 20
594.0000000000002
 30
0.0
  9
$LIMMIN
 10
0.0
 20
0.0
  9
$LIMMAX
 10
419.9999999999999
 20
594.0
  9
$ORTHOMODE
 70
     1
  9
$REGENMODE
 70
     1
  9
$FILLMODE
 70
     1
  9
$QTEXTMODE
 70
     0
  9
$MIRRTEXT
 70
     1
  9
$LTSCALE
 40
20.0
  9
$ATTMODE
 70
     1
  9
$TEXTSIZE
 40
3.5
  9
$TRACEWID
 40
0.5
  9
$TEXTSTYLE
  7
STANDARD
  9
$CLAYER
  8
BEM
  9
$CELTYPE
  6
BYLAYER
  9
$CECOLOR
 62
   256
  9
$CELTSCALE
 40
1.0
  9
$DISPSILH
 70
     0
  9
$DIMSCALE
 40
2.0
  9
$DIMASZ
 40
3.5
  9
$DIMEXO
 40
1.0
  9
$DIMDLI
 40
7.0
  9
$DIMRND
 40
0.0
  9
$DIMDLE
 40
0.0
  9
$DIMEXE
 40
1.0
  9
$DIMTP
 40
1.199999999999999
  9
$DIMTM
 40
1.199999999999999
  9
$DIMTXT
 40
3.5
  9
$DIMCEN
 40
1.5
  9
$DIMTSZ
 40
0.0
  9
$DIMTOL
 70
     0
  9
$DIMLIM
 70
     0
  9
$DIMTIH
 70
     0
  9
$DIMTOH
 70
     0
  9
$DIMSE1
 70
     0
  9
$DIMSE2
 70
     0
  9
$DIMTAD
 70
     1
  9
$DIMZIN
 70
     8
  9
$DIMBLK
  1

  9
$DIMASO
 70
     1
  9
$DIMSHO
 70
     0
  9
$DIMPOST
  1

  9
$DIMAPOST
  1

  9
$DIMALT
 70
     0
  9
$DIMALTD
 70
     2
  9
$DIMALTF
 40
25.4
  9
$DIMLFAC
 40
1.0
  9
$DIMTOFL
 70
     1
  9
$DIMTVP
 40
0.0
  9
$DIMTIX
 70
     0
  9
$DIMSOXD
 70
     0
  9
$DIMSAH
 70
     0
  9
$DIMBLK1
  1

  9
$DIMBLK2
  1

  9
$DIMSTYLE
  2
STANDARD
  9
$DIMCLRD
 70
     0
  9
$DIMCLRE
 70
     0
  9
$DIMCLRT
 70
     1
  9
$DIMTFAC
 40
1.0
  9
$DIMGAP
 40
1.0
  9
$DIMJUST
 70
     0
  9
$DIMSD1
 70
     0
  9
$DIMSD2
 70
     0
  9
$DIMTOLJ
 70
     1
  9
$DIMTZIN
 70
     8
  9
$DIMALTZ
 70
     8
  9
$DIMALTTZ
 70
     8
  9
$DIMUPT
 70
     0
  9
$DIMDEC
 70
     2
  9
$DIMTDEC
 70
     2
  9
$DIMALTU
 70
     2
  9
$DIMALTTD
 70
     2
  9
$DIMTXSTY
  7
GREEKS
  9
$DIMAUNIT
 70
     0
  9
$DIMADEC
 70
     2
  9
$DIMALTRND
 40
0.0
  9
$DIMAZIN
 70
     2
  9
$DIMDSEP
 70
    46
  9
$DIMATFIT
 70
     0
  9
$DIMFRAC
 70
     0
  9
$DIMLDRBLK
  1

  9
$DIMLUNIT
 70
     2
  9
$DIMLWD
 70
    -2
  9
$DIMLWE
 70
    -2
  9
$DIMTMOVE
 70
     0
  9
$LUNITS
 70
     2
  9
$LUPREC
 70
     2
  9
$SKETCHINC
 40
1.0
  9
$FILLETRAD
 40
0.0
  9
$AUNITS
 70
     0
  9
$AUPREC
 70
     2
  9
$MENU
  1
ACAD
  9
$ELEVATION
 40
0.0
  9
$PELEVATION
 40
0.0
  9
$THICKNESS
 40
0.0
  9
$LIMCHECK
 70
     0
  9
$CHAMFERA
 40
0.0
  9
$CHAMFERB
 40
0.0
  9
$CHAMFERC
 40
0.0
  9
$CHAMFERD
 40
0.0
  9
$SKPOLY
 70
     0
  9
$TDCREATE
 40
2452388.300076274
  9
$TDUCREATE
 40
2452388.258409606
  9
$TDUPDATE
 40
2455531.363665058
  9
$TDUUPDATE
 40
2455531.321998392
  9
$TDINDWG
 40
1.1109503819
  9
$TDUSRTIMER
 40
1.1109503819
  9
$USRTIMER
 70
     1
  9
$ANGBASE
 50
0.0
  9
$ANGDIR
 70
     0
  9
$PDMODE
 70
     0
  9
$PDSIZE
 40
0.0
  9
$PLINEWID
 40
0.0
  9
$SPLFRAME
 70
     0
  9
$SPLINETYPE
 70
     6
  9
$SPLINESEGS
 70
     8
  9
$HANDSEED
  5
19C0
  9
$SURFTAB1
 70
     6
  9
$SURFTAB2
 70
     6
  9
$SURFTYPE
 70
     6
  9
$SURFU
 70
     6
  9
$SURFV
 70
     6
  9
$UCSBASE
  2

  9
$UCSNAME
  2

  9
$UCSORG
 10
0.0
 20
0.0
 30
0.0
  9
$UCSXDIR
 10
1.0
 20
0.0
 30
0.0
  9
$UCSYDIR
 10
0.0
 20
1.0
 30
0.0
  9
$UCSORTHOREF
  2

  9
$UCSORTHOVIEW
 70
     0
  9
$UCSORGTOP
 10
0.0
 20
0.0
 30
0.0
  9
$UCSORGBOTTOM
 10
0.0
 20
0.0
 30
0.0
  9
$UCSORGLEFT
 10
0.0
 20
0.0
 30
0.0
  9
$UCSORGRIGHT
 10
0.0
 20
0.0
 30
0.0
  9
$UCSORGFRONT
 10
0.0
 20
0.0
 30
0.0
  9
$UCSORGBACK
 10
0.0
 20
0.0
 30
0.0
  9
$PUCSBASE
  2

  9
$PUCSNAME
  2

  9
$PUCSORG
 10
0.0
 20
0.0
 30
0.0
  9
$PUCSXDIR
 10
1.0
 20
0.0
 30
0.0
  9
$PUCSYDIR
 10
0.0
 20
1.0
 30
0.0
  9
$PUCSORTHOREF
  2

  9
$PUCSORTHOVIEW
 70
     0
  9
$PUCSORGTOP
 10
0.0
 20
0.0
 30
0.0
  9
$PUCSORGBOTTOM
 10
0.0
 20
0.0
 30
0.0
  9
$PUCSORGLEFT
 10
0.0
 20
0.0
 30
0.0
  9
$PUCSORGRIGHT
 10
0.0
 20
0.0
 30
0.0
  9
$PUCSORGFRONT
 10
0.0
 20
0.0
 30
0.0
  9
$PUCSORGBACK
 10
0.0
 20
0.0
 30
0.0
  9
$USERI1
 70
     0
  9
$USERI2
 70
     0
  9
$USERI3
 70
     0
  9
$USERI4
 70
     0
  9
$USERI5
 70
     0
  9
$USERR1
 40
0.0
  9
$USERR2
 40
0.0
  9
$USERR3
 40
0.0
  9
$USERR4
 40
0.0
  9
$USERR5
 40
0.0
  9
$WORLDVIEW
 70
     1
  9
$SHADEDGE
 70
     3
  9
$SHADEDIF
 70
    70
  9
$TILEMODE
 70
     1
  9
$MAXACTVP
 70
    16
  9
$PINSBASE
 10
0.0
 20
0.0
 30
0.0
  9
$PLIMCHECK
 70
     0
  9
$PEXTMIN
 10
1.000000000000000E+20
 20
1.000000000000000E+20
 30
1.000000000000000E+20
  9
$PEXTMAX
 10
-1.000000000000000E+20
 20
-1.000000000000000E+20
 30
-1.000000000000000E+20
  9
$PLIMMIN
 10
0.0
 20
0.0
  9
$PLIMMAX
 10
12.0
 20
9.0
  9
$UNITMODE
 70
     0
  9
$VISRETAIN
 70
     0
  9
$PLINEGEN
 70
     0
  9
$PSLTSCALE
 70
     0
  9
$TREEDEPTH
 70
  3020
  9
$CMLSTYLE
  2
STANDARD
  9
$CMLJUST
 70
     0
  9
$CMLSCALE
 40
1.0
  9
$PROXYGRAPHICS
 70
     1
  9
$MEASUREMENT
 70
     0
  9
$CELWEIGHT
370
    -1
  9
$ENDCAPS
280
     0
  9
$JOINSTYLE
280
     0
  9
$LWDISPLAY
290
     0
  9
$INSUNITS
 70
     0
  9
$HYPERLINKBASE
  1

  9
$STYLESHEET
  1
monochrome1.ctb
  9
$XEDIT
290
     1
  9
$CEPSNTYPE
380
     0
  9
$PSTYLEMODE
290
     1
  9
$FINGERPRINTGUID
  2
{2542B159-44C7-11D8-80BD-000021C090BC}
  9
$VERSIONGUID
  2
{1F4D40C8-D806-4743-8669-6525F5D2368E}
  9
$EXTNAMES
290
     1
  9
$PSVPSCALE
 40
0.0
  9
$OLESTARTUP
290
     0
  9
$SORTENTS
280
    96
  9
$INDEXCTL
280
     0
  9
$HIDETEXT
280
     0
  9
$XCLIPFRAME
290
     0
  9
$HALOGAP
280
     0
  9
$OBSCOLOR
 70
   257
  9
$OBSLTYPE
280
     0
  9
$INTERSECTIONDISPLAY
280
     0
  9
$INTERSECTIONCOLOR
 70
   257
  9
$DIMASSOC
280
     1
  9
$PROJECTNAME
  1

  0
ENDSEC
  0
SECTION
  2
CLASSES
  0
CLASS
  1
DICTIONARYVAR
  2
AcDbDictionaryVar
  3
ObjectDBX Classes
 90
        0
 91
        3
280
     0
281
     0
  0
CLASS
  1
ACDBDICTIONARYWDFLT
  2
AcDbDictionaryWithDefault
  3
ObjectDBX Classes
 90
        0
 91
        1
280
     0
281
     0
  0
CLASS
  1
DIMASSOC
  2
AcDbDimAssoc
  3
"AcDbDimAssoc|Product Desc:     AcDim ARX App For Dimension|Company:          Autodesk, Inc.|WEB Address:      www.autodesk.com"
 90
        0
 91
        0
280
     0
281
     0
  0
ENDSEC
  0
SECTION
  2
TABLES
  0
TABLE
  2
VPORT
  5
8
330
0
100
AcDbSymbolTable
 70
     2
  0
VPORT
  5
19BF
330
8
100
AcDbSymbolTableRecord
100
AcDbViewportTableRecord
  2
*Active
 70
     0
 10
0.0
 20
0.0
 11
1.0
 21
1.0
 12
210.000011246481
 22
297.000015905737
 13
0.0
 23
0.0
 14
1.0
 24
1.0
 15
20.0
 25
20.0
 16
0.0
 26
0.0
 36
1.0
 17
0.0
 27
0.0
 37
0.0
 40
598.9083312074699
 41
1.336927223719676
 42
50.0
 43
0.0
 44
0.0
 50
0.0
 51
0.0
 71
     0
 72
  1500
 73
     1
 74
     0
 75
     0
 76
     0
 77
     0
 78
     0
281
     0
 65
     1
110
0.0
120
0.0
130
0.0
111
1.0
121
0.0
131
0.0
112
0.0
122
1.0
132
0.0
 79
     0
146
0.0
  0
ENDTAB
  0
TABLE
  2
LTYPE
  5
5
330
0
100
AcDbSymbolTable
 70
     3
  0
LTYPE
  5
11
330
5
100
AcDbSymbolTableRecord
100
AcDbLinetypeTableRecord
  2
BYBLOCK
 70
     0
  3

 72
    65
 73
     0
 40
0.0
  0
LTYPE
  5
12
330
5
100
AcDbSymbolTableRecord
100
AcDbLinetypeTableRecord
  2
BYLAYER
 70
     0
  3

 72
    65
 73
     0
 40
0.0
  0
LTYPE
  5
13
330
5
100
AcDbSymbolTableRecord
100
AcDbLinetypeTableRecord
  2
AUSGEZOGEN
 70
     0
  3
Ausgezogene Linie
 72
    65
 73
     0
 40
0.0
  0
LTYPE
  5
2E
330
5
100
AcDbSymbolTableRecord
100
AcDbLinetypeTableRecord
  2
STRICHPUNKT
 70
     0
  3
__ . __ . __ . __ . __ . __ . __ . __ . __ . __
 72
    65
 73
     4
 40
1.0
 49
0.5
 74
     0
 49
-0.25
 74
     0
 49
0.0
 74
     0
 49
-0.25
 74
     0
  0
LTYPE
  5
3B
330
5
100
AcDbSymbolTableRecord
100
AcDbLinetypeTableRecord
  2
CONTINUOUS
 70
     0
  3
Solid line
 72
    65
 73
     0
 40
0.0
  0
ENDTAB
  0
TABLE
  2
LAYER
  5
2
330
0
100
AcDbSymbolTable
 70
     9
  0
LAYER
  5
E
330
2
100
AcDbSymbolTableRecord
100
AcDbLayerTableRecord
  2
0
 70
     0
 62
     7
  6
AUSGEZOGEN
370
    -3
390
53B
  0
LAYER
  5
32
330
2
100
AcDbSymbolTableRecord
100
AcDbLayerTableRecord
  2
VOLL
 70
     0
 62
     1
  6
AUSGEZOGEN
370
    -3
390
53B
  0
LAYER
  5
33
330
2
100
AcDbSymbolTableRecord
100
AcDbLayerTableRecord
  2
HILF
 70
     0
 62
     2
  6
AUSGEZOGEN
370
    -3
390
53B
  0
LAYER
  5
34
330
2
100
AcDbSymbolTableRecord
100
AcDbLayerTableRecord
  2
MITTEL
 70
     0
 62
     2
  6
STRICHPUNKT
370
    -3
390
53B
  0
LAYER
  5
35
330
2
100
AcDbSymbolTableRecord
100
AcDbLayerTableRecord
  2
BEM
 70
     0
 62
     7
  6
AUSGEZOGEN
370
    -3
390
53B
  0
LAYER
  5
36
330
2
100
AcDbSymbolTableRecord
100
AcDbLayerTableRecord
  2
STEMPEL
 70
     0
 62
     3
  6
AUSGEZOGEN
370
    -3
390
53B
  0
LAYER
  5
37
330
2
100
AcDbSymbolTableRecord
100
AcDbLayerTableRecord
  2
TEXT
 70
     0
 62
     7
  6
AUSGEZOGEN
370
    -3
390
53B
  0
LAYER
  5
38
330
2
100
AcDbSymbolTableRecord
100
AcDbLayerTableRecord
  2
DEFPOINTS
 70
     0
 62
     7
  6
AUSGEZOGEN
290
     0
370
    -3
390
53B
  0
LAYER
  5
17FA
330
2
100
AcDbSymbolTableRecord
100
AcDbLayerTableRecord
  2
SCHRAFF
 70
     0
 62
     7
  6
AUSGEZOGEN
370
    -3
390
53B
  0
ENDTAB
  0
TABLE
  2
STYLE
  5
3
330
0
100
AcDbSymbolTable
 70
     2
  0
STYLE
  5
F
330
3
100
AcDbSymbolTableRecord
100
AcDbTextStyleTableRecord
  2
STANDARD
 70
     0
 40
0.0
 41
0.8
 50
0.0
 71
     0
 42
3.5
  3
simplex.shx
  4

  0
STYLE
  5
2D
330
3
100
AcDbSymbolTableRecord
100
AcDbTextStyleTableRecord
  2
GREEKS
 70
     0
 40
0.0
 41
0.8
 50
0.0
 71
     0
 42
2.5
  3
SIMPLEX.shx
  4

  0
ENDTAB
  0
TABLE
  2
VIEW
  5
6
330
0
100
AcDbSymbolTable
 70
     0
  0
ENDTAB
  0
TABLE
  2
UCS
  5
7
330
0
100
AcDbSymbolTable
 70
     0
  0
ENDTAB
  0
TABLE
  2
APPID
  5
9
330
0
100
AcDbSymbolTable
 70
     1
  0
APPID
  5
10
330
9
100
AcDbSymbolTableRecord
100
AcDbRegAppTableRecord
  2
ACAD
 70
     0
  0
ENDTAB
  0
TABLE
  2
DIMSTYLE
  5
A
330
0
100
AcDbSymbolTable
 70
     1
100
AcDbDimStyleTable
 71
     1
340
31
  0
DIMSTYLE
105
31
102
{ACAD_REACTORS
330
15AD
330
15AE
330
15AF
330
173C
330
174A
330
182D
102
}
330
A
100
AcDbSymbolTableRecord
100
AcDbDimStyleTableRecord
  2
STANDARD
 70
     0
 40
2.0
 41
3.5
 42
1.0
 43
7.0
 44
1.5
 47
0.8
 48
0.8
 73
     0
 74
     0
 77
     1
 78
     8
140
3.5
141
1.5
147
1.0
172
     1
178
     1
271
     2
272
     2
279
     2
284
     8
285
     8
286
     8
340
2D
  0
ENDTAB
  0
TABLE
  2
BLOCK_RECORD
  5
1
330
0
100
AcDbSymbolTable
 70
     7
  0
BLOCK_RECORD
  5
17
330
1
100
AcDbSymbolTableRecord
100
AcDbBlockTableRecord
  2
*MODEL_SPACE
340
53E
  0
BLOCK_RECORD
  5
14
330
1
100
AcDbSymbolTableRecord
100
AcDbBlockTableRecord
  2
*PAPER_SPACE
340
53F
  0
BLOCK_RECORD
  5
1C
330
1
100
AcDbSymbolTableRecord
100
AcDbBlockTableRecord
  2
LOGO
340
0
102
{BLKREFS
331
156
102
}
  0
BLOCK_RECORD
  5
1647
330
1
100
AcDbSymbolTableRecord
100
AcDbBlockTableRecord
  2
*D1
340
0
  0
BLOCK_RECORD
  5
1653
330
1
100
AcDbSymbolTableRecord
100
AcDbBlockTableRecord
  2
*D2
340
0
  0
BLOCK_RECORD
  5
165F
330
1
100
AcDbSymbolTableRecord
100
AcDbBlockTableRecord
  2
*D3
340
0
  0
BLOCK_RECORD
  5
173D
330
1
100
AcDbSymbolTableRecord
100
AcDbBlockTableRecord
  2
*D4
340
0
  0
BLOCK_RECORD
  5
174B
330
1
100
AcDbSymbolTableRecord
100
AcDbBlockTableRecord
  2
*D5
340
0
  0
BLOCK_RECORD
  5
182E
330
1
100
AcDbSymbolTableRecord
100
AcDbBlockTableRecord
  2
*D6
340
0
  0
ENDTAB
  0
ENDSEC
  0
SECTION
  2
BLOCKS
  0
BLOCK
  5
3E
330
17
100
AcDbEntity
  8
0
100
AcDbBlockBegin
  2
*MODEL_SPACE
 70
     0
 10
0.0
 20
0.0
 30
0.0
  3
*MODEL_SPACE
  1

  0
ENDBLK
  5
3F
330
17
100
AcDbEntity
  8
0
100
AcDbBlockEnd
  0
BLOCK
  5
3C
330
14
100
AcDbEntity
 67
     1
  8
0
100
AcDbBlockBegin
  2
*PAPER_SPACE
 70
     0
 10
0.0
 20
0.0
 30
0.0
  3
*PAPER_SPACE
  1

  0
ENDBLK
  5
3D
330
14
100
AcDbEntity
 67
     1
  8
0
100
AcDbBlockEnd
  0
BLOCK
  5
40
330
1C
100
AcDbEntity
  8
0
100
AcDbBlockBegin
  2
LOGO
 70
     0
 10
0.0
 20
0.0
 30
0.0
  3
LOGO
  1

  0
ARC
  5
41
330
1C
100
AcDbEntity
  8
0
100
AcDbCircle
 10
11.59973089678112
 20
-9.271599258481501
 30
0.0
 40
4.5
100
AcDbArc
 50
270.0
 51
231.0575587310159
  0
LINE
  5
42
330
1C
100
AcDbEntity
  8
0
100
AcDbLine
 10
3.599730896781125
 20
-4.771599258481529
 30
0.0
 11
3.599730896781153
 21
-11.77159925848133
 31
0.0
  0
LINE
  5
43
330
1C
100
AcDbEntity
  8
0
100
AcDbLine
 10
2.599730896781125
 20
-4.771599258481529
 30
0.0
 11
2.599730896781153
 21
-11.77159925848133
 31
0.0
  0
CIRCLE
  5
44
330
1C
100
AcDbEntity
  8
0
100
AcDbCircle
 10
11.59973089678112
 20
-9.271599258481501
 30
0.0
 40
3.5
  0
ARC
  5
45
330
1C
100
AcDbEntity
  8
0
100
AcDbCircle
 10
31.59973089678115
 20
-9.271599258481472
 30
0.0
 40
4.5
100
AcDbArc
 50
270.0
 51
231.0575587310182
  0
LINE
  5
46
330
1C
100
AcDbEntity
  8
0
100
AcDbLine
 10
17.59973089678112
 20
-4.771599258481472
 30
0.0
 11
17.59973089678115
 21
-13.77159925848147
 31
0.0
  0
ARC
  5
47
330
1C
100
AcDbEntity
  8
0
100
AcDbCircle
 10
22.59973089678116
 20
-7.271599258481472
 30
0.0
 40
2.5
100
AcDbArc
 50
293.1161887722295
 51
90.0
  0
CIRCLE
  5
48
330
1C
100
AcDbEntity
  8
0
100
AcDbCircle
 10
31.59973089678115
 20
-9.271599258481472
 30
0.0
 40
3.5
  0
ARC
  5
49
330
1C
100
AcDbEntity
  8
0
100
AcDbCircle
 10
4.599730896781153
 20
-11.77159925848133
 30
0.0
 40
1.0
100
AcDbArc
 50
180.0
 51
270.0
  0
ARC
  5
4A
330
1C
100
AcDbEntity
  8
0
100
AcDbCircle
 10
4.599730896781153
 20
-11.77159925848133
 30
0.0
 40
2.0
100
AcDbArc
 50
179.9999999999992
 51
270.0
  0
LINE
  5
4B
330
1C
100
AcDbEntity
  8
0
100
AcDbLine
 10
11.59973089678115
 20
-13.77159925848144
 30
0.0
 11
4.599730896781153
 21
-13.77159925848147
 31
0.0
  0
LINE
  5
4C
330
1C
100
AcDbEntity
  8
0
100
AcDbLine
 10
8.771303772034769
 20
-12.77159925848136
 30
0.0
 11
4.599730896781153
 21
-12.77159925848133
 31
0.0
  0
LINE
  5
4D
330
1C
100
AcDbEntity
  8
0
100
AcDbLine
 10
31.59973089678115
 20
-13.77159925848147
 30
0.0
 11
23.6715276665056
 21
-13.77159925848144
 31
0.0
  0
LINE
  5
4E
330
1C
100
AcDbEntity
  8
0
100
AcDbLine
 10
23.56565672307022
 20
-9.51278021337896
 30
0.0
 11
24.4388546544846
 21
-12.77159925848144
 31
0.0
  0
LINE
  5
4F
330
1C
100
AcDbEntity
  8
0
100
AcDbLine
 10
22.59973089678116
 20
-9.771599258481472
 30
0.0
 11
18.59973089678112
 21
-9.771599258481472
 31
0.0
  0
LINE
  5
50
330
1C
100
AcDbEntity
  8
0
100
AcDbLine
 10
18.59973089678115
 20
-13.77159925848144
 30
0.0
 11
17.59973089678115
 21
-13.77159925848144
 31
0.0
  0
LINE
  5
51
330
1C
100
AcDbEntity
  8
0
100
AcDbLine
 10
18.59973089678115
 20
-9.771599258481472
 30
0.0
 11
18.59973089678115
 21
-13.77159925848144
 31
0.0
  0
LINE
  5
52
330
1C
100
AcDbEntity
  8
0
100
AcDbLine
 10
22.59973089678116
 20
-9.771599258481472
 30
0.0
 11
23.67152766650562
 21
-13.77159925848147
 31
0.0
  0
ARC
  5
53
330
1C
100
AcDbEntity
  8
0
100
AcDbCircle
 10
22.59973089678116
 20
-7.271599258481472
 30
0.0
 40
2.5
100
AcDbArc
 50
270.0
 51
270.0000000000007
  0
LINE
  5
54
330
1C
100
AcDbEntity
  8
0
100
AcDbLine
 10
28.77130377203494
 20
-12.77159925848147
 30
0.0
 11
24.43885465448463
 21
-12.77159925848144
 31
0.0
  0
LINE
  5
55
330
1C
100
AcDbEntity
  8
0
100
AcDbLine
 10
3.599730896781125
 20
-4.771599258481472
 30
0.0
 11
2.599730896781125
 21
-4.771599258481472
 31
0.0
  0
LINE
  5
56
330
1C
100
AcDbEntity
  8
0
100
AcDbLine
 10
22.59973089678116
 20
-8.771599258481472
 30
0.0
 11
18.59973089678115
 21
-8.771599258481472
 31
0.0
  0
LINE
  5
57
330
1C
100
AcDbEntity
  8
0
100
AcDbLine
 10
22.59973089678116
 20
-5.771599258481472
 30
0.0
 11
18.59973089678115
 21
-5.771599258481472
 31
0.0
  0
LINE
  5
58
330
1C
100
AcDbEntity
  8
0
100
AcDbLine
 10
22.59973089678116
 20
-4.771599258481472
 30
0.0
 11
17.59973089678115
 21
-4.771599258481472
 31
0.0
  0
LINE
  5
59
330
1C
100
AcDbEntity
  8
0
100
AcDbLine
 10
18.59973089678115
 20
-5.771599258481472
 30
0.0
 11
18.59973089678115
 21
-8.771599258481472
 31
0.0
  0
ARC
  5
5A
330
1C
100
AcDbEntity
  8
0
100
AcDbCircle
 10
22.59973089678116
 20
-7.271599258481472
 30
0.0
 40
1.5
100
AcDbArc
 50
270.0
 51
90.0
  0
ENDBLK
  5
5B
330
1C
100
AcDbEntity
  8
0
100
AcDbBlockEnd
  0
BLOCK
  5
1651
330
1647
100
AcDbEntity
  8
0
100
AcDbBlockBegin
  2
*D1
 70
     1
 10
0.0
 20
0.0
 30
0.0
  3
*D1
  1

  0
LINE
  5
1925
330
1647
100
AcDbEntity
  8
BEM
 62
     0
370
    -2
100
AcDbLine
 10
49.26577647930122
 20
491.4049951170897
 30
0.0
 11
49.26577647930121
 21
426.8711275197992
 31
0.0
  0
LINE
  5
1926
330
1647
100
AcDbEntity
  8
BEM
 62
     0
370
    -2
100
AcDbLine
 10
399.2657764793012
 20
491.4049951170897
 30
0.0
 11
399.2657764793012
 21
426.8711275197992
 31
0.0
  0
LINE
  5
1927
330
1647
100
AcDbEntity
  8
BEM
 62
     0
370
    -2
100
AcDbLine
 10
56.26577647930122
 20
428.8711275197993
 30
0.0
 11
392.2657764793012
 21
428.8711275197993
 31
0.0
  0
SOLID
  5
1928
330
1647
100
AcDbEntity
  8
BEM
 62
     0
100
AcDbTrace
 10
56.26577647930122
 20
430.037794186466
 30
0.0
 11
56.26577647930122
 21
427.7044608531325
 31
0.0
 12
49.26577647930121
 22
428.8711275197993
 32
0.0
 13
49.26577647930121
 23
428.8711275197993
 33
0.0
  0
SOLID
  5
1929
330
1647
100
AcDbEntity
  8
BEM
 62
     0
100
AcDbTrace
 10
392.2657764793012
 20
430.037794186466
 30
0.0
 11
392.2657764793012
 21
427.7044608531325
 31
0.0
 12
399.2657764793012
 22
428.8711275197993
 32
0.0
 13
399.2657764793012
 23
428.8711275197993
 33
0.0
  0
MTEXT
  5
192A
330
1647
100
AcDbEntity
  8
BEM
 62
     1
100
AcDbMText
 10
224.2657764793012
 20
435.3711275197992
 30
0.0
 40
7.0
 41
0.0
 71
     5
 72
     1
  1
\A1;%%c350
  7
GREEKS
 73
     1
 44
1.0
  0
POINT
  5
192B
330
1647
100
AcDbEntity
  8
DEFPOINTS
 62
     0
100
AcDbPoint
 10
49.26577647930122
 20
493.4049951170898
 30
0.0
  0
POINT
  5
192C
330
1647
100
AcDbEntity
  8
DEFPOINTS
 62
     0
100
AcDbPoint
 10
399.2657764793012
 20
493.4049951170898
 30
0.0
  0
POINT
  5
192D
330
1647
100
AcDbEntity
  8
DEFPOINTS
 62
     0
100
AcDbPoint
 10
399.2657764793012
 20
428.8711275197993
 30
0.0
  0
ENDBLK
  5
1652
330
1647
100
AcDbEntity
  8
0
100
AcDbBlockEnd
  0
BLOCK
  5
165D
330
1653
100
AcDbEntity
  8
0
100
AcDbBlockBegin
  2
*D2
 70
     1
 10
0.0
 20
0.0
 30
0.0
  3
*D2
  1

  0
LINE
  5
191C
330
1653
100
AcDbEntity
  8
BEM
 62
     0
370
    -2
100
AcDbLine
 10
82.26577647930122
 20
486.9199565705803
 30
0.0
 11
82.26577647930122
 21
442.8711275197993
 31
0.0
  0
LINE
  5
191D
330
1653
100
AcDbEntity
  8
BEM
 62
     0
370
    -2
100
AcDbLine
 10
366.2657764793012
 20
486.9199565705803
 30
0.0
 11
366.2657764793012
 21
442.8711275197993
 31
0.0
  0
LINE
  5
191E
330
1653
100
AcDbEntity
  8
BEM
 62
     0
370
    -2
100
AcDbLine
 10
89.26577647930121
 20
444.8711275197992
 30
0.0
 11
359.2657764793012
 21
444.8711275197992
 31
0.0
  0
SOLID
  5
191F
330
1653
100
AcDbEntity
  8
BEM
 62
     0
100
AcDbTrace
 10
89.26577647930121
 20
446.037794186466
 30
0.0
 11
89.26577647930121
 21
443.7044608531325
 31
0.0
 12
82.26577647930122
 22
444.8711275197992
 32
0.0
 13
82.26577647930122
 23
444.8711275197992
 33
0.0
  0
SOLID
  5
1920
330
1653
100
AcDbEntity
  8
BEM
 62
     0
100
AcDbTrace
 10
359.2657764793012
 20
446.037794186466
 30
0.0
 11
359.2657764793012
 21
443.7044608531325
 31
0.0
 12
366.2657764793012
 22
444.8711275197992
 32
0.0
 13
366.2657764793012
 23
444.8711275197992
 33
0.0
  0
MTEXT
  5
1921
330
1653
100
AcDbEntity
  8
BEM
 62
     1
100
AcDbMText
 10
224.2657764793012
 20
451.3711275197993
 30
0.0
 40
7.0
 41
0.0
 71
     5
 72
     1
  1
\A1;%%c284±1.2
  7
GREEKS
 73
     1
 44
1.0
  0
POINT
  5
1922
330
1653
100
AcDbEntity
  8
DEFPOINTS
 62
     0
100
AcDbPoint
 10
82.26577647930122
 20
488.9199565705803
 30
0.0
  0
POINT
  5
1923
330
1653
100
AcDbEntity
  8
DEFPOINTS
 62
     0
100
AcDbPoint
 10
366.2657764793012
 20
488.9199565705803
 30
0.0
  0
POINT
  5
1924
330
1653
100
AcDbEntity
  8
DEFPOINTS
 62
     0
100
AcDbPoint
 10
366.2657764793012
 20
444.8711275197992
 30
0.0
  0
ENDBLK
  5
165E
330
1653
100
AcDbEntity
  8
0
100
AcDbBlockEnd
  0
BLOCK
  5
1669
330
165F
100
AcDbEntity
  8
0
100
AcDbBlockBegin
  2
*D3
 70
     1
 10
0.0
 20
0.0
 30
0.0
  3
*D3
  1

  0
LINE
  5
1913
330
165F
100
AcDbEntity
  8
BEM
 62
     0
370
    -2
100
AcDbLine
 10
115.265776479301
 20
491.4049951170897
 30
0.0
 11
115.265776479301
 21
458.8711275197993
 31
0.0
  0
LINE
  5
1914
330
165F
100
AcDbEntity
  8
BEM
 62
     0
370
    -2
100
AcDbLine
 10
333.2657764793014
 20
491.4049951170897
 30
0.0
 11
333.2657764793014
 21
458.8711275197993
 31
0.0
  0
LINE
  5
1915
330
165F
100
AcDbEntity
  8
BEM
 62
     0
370
    -2
100
AcDbLine
 10
122.265776479301
 20
460.8711275197992
 30
0.0
 11
326.2657764793015
 21
460.8711275197992
 31
0.0
  0
SOLID
  5
1916
330
165F
100
AcDbEntity
  8
BEM
 62
     0
100
AcDbTrace
 10
122.265776479301
 20
462.0377941864659
 30
0.0
 11
122.265776479301
 21
459.7044608531326
 31
0.0
 12
115.265776479301
 22
460.8711275197992
 32
0.0
 13
115.265776479301
 23
460.8711275197992
 33
0.0
  0
SOLID
  5
1917
330
165F
100
AcDbEntity
  8
BEM
 62
     0
100
AcDbTrace
 10
326.2657764793015
 20
462.0377941864659
 30
0.0
 11
326.2657764793015
 21
459.7044608531326
 31
0.0
 12
333.2657764793014
 22
460.8711275197992
 32
0.0
 13
333.2657764793014
 23
460.8711275197992
 33
0.0
  0
MTEXT
  5
1918
330
165F
100
AcDbEntity
  8
BEM
 62
     1
100
AcDbMText
 10
224.2657764793012
 20
467.3711275197993
 30
0.0
 40
7.0
 41
0.0
 71
     5
 72
     1
  1
\A1;%%c218
  7
GREEKS
 73
     1
 44
1.0
  0
POINT
  5
1919
330
165F
100
AcDbEntity
  8
DEFPOINTS
 62
     0
100
AcDbPoint
 10
115.265776479301
 20
493.4049951170898
 30
0.0
  0
POINT
  5
191A
330
165F
100
AcDbEntity
  8
DEFPOINTS
 62
     0
100
AcDbPoint
 10
333.2657764793014
 20
493.4049951170898
 30
0.0
  0
POINT
  5
191B
330
165F
100
AcDbEntity
  8
DEFPOINTS
 62
     0
100
AcDbPoint
 10
333.2657764793014
 20
460.8711275197992
 30
0.0
  0
ENDBLK
  5
166A
330
165F
100
AcDbEntity
  8
0
100
AcDbBlockEnd
  0
BLOCK
  5
1748
330
173D
100
AcDbEntity
  8
0
100
AcDbBlockBegin
  2
*D4
 70
     1
 10
0.0
 20
0.0
 30
0.0
  3
*D4
  1

  0
LINE
  5
1942
330
173D
100
AcDbEntity
  8
BEM
 62
     0
370
    -2
100
AcDbLine
 10
113.9571186141994
 20
277.8378627531134
 30
0.0
 11
108.7321649277184
 21
272.6129090666324
 31
0.0
  0
ARC
  5
1943
330
173D
100
AcDbEntity
  8
BEM
 62
     0
370
    -2
100
AcDbCircle
 10
224.265776479301
 20
388.1465206182147
 30
0.0
 40
161.3892003661928
100
AcDbArc
 50
182.4853081895022
 51
222.5146918104977
  0
SOLID
  5
1944
330
173D
100
AcDbEntity
  8
BEM
 62
     0
100
AcDbTrace
 10
61.86199076399275
 20
381.1228657519452
 30
0.0
 11
64.19477533408638
 21
381.1734680639223
 31
0.0
 12
62.87657611310826
 22
388.1465206182147
 32
0.0
 13
62.87657611310826
 23
388.1465206182147
 33
0.0
  0
SOLID
  5
1945
330
173D
100
AcDbEntity
  8
BEM
 62
     0
100
AcDbTrace
 10
106.1477933514897
 20
279.8899229838243
 30
0.0
 11
104.4624843249864
 21
278.2761764332065
 31
0.0
 12
110.1463784900916
 22
274.0271226290055
 32
0.0
 13
110.1463784900916
 23
274.0271226290055
 33
0.0
  0
MTEXT
  5
1946
330
173D
100
AcDbEntity
  8
BEM
 62
     1
100
AcDbMText
 10
80.24293492142453
 20
328.4903063534309
 30
0.0
 40
7.0
 41
0.0
 71
     5
 72
     1
  1
\A1;45°
  7
GREEKS
 11
0.3826834323650885
 21
-0.9238795325112873
 31
0.0
 73
     1
 44
1.0
  0
POINT
  5
1947
330
173D
100
AcDbEntity
  8
DEFPOINTS
 62
     0
100
AcDbPoint
 10
68.37577976145425
 20
346.3759218895773
 30
0.0
  0
POINT
  5
1948
330
173D
100
AcDbEntity
  8
DEFPOINTS
 62
     0
100
AcDbPoint
 10
44.26577647930097
 20
388.1465206182147
 30
0.0
  0
POINT
  5
1949
330
173D
100
AcDbEntity
  8
DEFPOINTS
 62
     0
100
AcDbPoint
 10
115.3713321765725
 20
279.2520763154864
 30
0.0
  0
POINT
  5
194A
330
173D
100
AcDbEntity
  8
DEFPOINTS
 62
     0
100
AcDbPoint
 10
132.3418949250497
 20
296.2226390639636
 30
0.0
  0
POINT
  5
194B
330
173D
100
AcDbEntity
  8
DEFPOINTS
 62
     0
100
AcDbPoint
 10
404.2657764793009
 20
388.1465206182146
 30
0.0
  0
ENDBLK
  5
1749
330
173D
100
AcDbEntity
  8
0
100
AcDbBlockEnd
  0
BLOCK
  5
1755
330
174B
100
AcDbEntity
  8
0
100
AcDbBlockBegin
  2
*D5
 70
     1
 10
0.0
 20
0.0
 30
0.0
  3
*D5
  1

  0
LINE
  5
1939
330
174B
100
AcDbEntity
  8
BEM
 62
     0
370
    -2
100
AcDbLine
 10
60.61716063439706
 20
485.4049951170898
 30
0.0
 11
60.61716063439706
 21
478.4049951170898
 31
0.0
  0
LINE
  5
193A
330
174B
100
AcDbEntity
  8
BEM
 62
     0
370
    -2
100
AcDbLine
 10
60.61716063439707
 20
505.4049951170898
 30
0.0
 11
60.61716063439707
 21
519.8716617837565
 31
0.0
  0
LINE
  5
193B
330
174B
100
AcDbEntity
  8
BEM
 62
     0
370
    -2
100
AcDbLine
 10
60.61716063439706
 20
492.4049951170898
 30
0.0
 11
60.61716063439707
 21
498.4049951170898
 31
0.0
  0
SOLID
  5
193C
330
174B
100
AcDbEntity
  8
BEM
 62
     0
100
AcDbTrace
 10
59.4504939677304
 20
485.4049951170898
 30
0.0
 11
61.78382730106372
 21
485.4049951170898
 31
0.0
 12
60.61716063439706
 22
492.4049951170898
 32
0.0
 13
60.61716063439706
 23
492.4049951170898
 33
0.0
  0
SOLID
  5
193D
330
174B
100
AcDbEntity
  8
BEM
 62
     0
100
AcDbTrace
 10
59.4504939677304
 20
505.4049951170898
 30
0.0
 11
61.78382730106373
 21
505.4049951170898
 31
0.0
 12
60.61716063439707
 22
498.4049951170898
 32
0.0
 13
60.61716063439707
 23
498.4049951170898
 33
0.0
  0
MTEXT
  5
193E
330
174B
100
AcDbEntity
  8
BEM
 62
     1
100
AcDbMText
 10
55.11716063439698
 20
516.1383284504231
 30
0.0
 40
7.0
 41
0.0
 71
     5
 72
     1
  1
\A1;6
  7
GREEKS
 11
0.0000000000000001
 21
1.0
 31
0.0
 73
     1
 44
1.0
  0
POINT
  5
193F
330
174B
100
AcDbEntity
  8
DEFPOINTS
 62
     0
100
AcDbPoint
 10
60.61716063439707
 20
492.4049951170898
 30
0.0
  0
POINT
  5
1940
330
174B
100
AcDbEntity
  8
DEFPOINTS
 62
     0
100
AcDbPoint
 10
60.61716063439707
 20
498.4049951170898
 30
0.0
  0
POINT
  5
1941
330
174B
100
AcDbEntity
  8
DEFPOINTS
 62
     0
100
AcDbPoint
 10
60.61716063439707
 20
498.4049951170898
 30
0.0
  0
ENDBLK
  5
1756
330
174B
100
AcDbEntity
  8
0
100
AcDbBlockEnd
  0
BLOCK
  5
183A
330
182E
100
AcDbEntity
  8
0
100
AcDbBlockBegin
  2
*D6
 70
     1
 10
0.0
 20
0.0
 30
0.0
  3
*D6
  1

  0
LINE
  5
1998
330
182E
100
AcDbEntity
  8
BEM
 62
     0
370
    -2
100
AcDbLine
 10
75.26577647930122
 20
500.4049951170897
 30
0.0
 11
75.26577647930122
 21
529.7254632944966
 31
0.0
  0
LINE
  5
1999
330
182E
100
AcDbEntity
  8
BEM
 62
     0
370
    -2
100
AcDbLine
 10
89.26577647930145
 20
500.4049951170897
 30
0.0
 11
89.26577647930145
 21
529.7254632944966
 31
0.0
  0
LINE
  5
199A
330
182E
100
AcDbEntity
  8
BEM
 62
     0
370
    -2
100
AcDbLine
 10
68.26577647930122
 20
527.7254632944966
 30
0.0
 11
61.26577647930123
 21
527.7254632944966
 31
0.0
  0
LINE
  5
199B
330
182E
100
AcDbEntity
  8
BEM
 62
     0
370
    -2
100
AcDbLine
 10
96.26577647930146
 20
527.7254632944966
 30
0.0
 11
120.5991098126347
 21
527.7254632944966
 31
0.0
  0
LINE
  5
199C
330
182E
100
AcDbEntity
  8
BEM
 62
     0
370
    -2
100
AcDbLine
 10
75.26577647930122
 20
527.7254632944966
 30
0.0
 11
89.26577647930145
 21
527.7254632944966
 31
0.0
  0
SOLID
  5
199D
330
182E
100
AcDbEntity
  8
BEM
 62
     0
100
AcDbTrace
 10
68.26577647930122
 20
528.8921299611632
 30
0.0
 11
68.26577647930122
 21
526.55879662783
 31
0.0
 12
75.26577647930122
 22
527.7254632944966
 32
0.0
 13
75.26577647930122
 23
527.7254632944966
 33
0.0
  0
SOLID
  5
199E
330
182E
100
AcDbEntity
  8
BEM
 62
     0
100
AcDbTrace
 10
96.26577647930146
 20
528.8921299611632
 30
0.0
 11
96.26577647930146
 21
526.55879662783
 31
0.0
 12
89.26577647930145
 22
527.7254632944966
 32
0.0
 13
89.26577647930145
 23
527.7254632944966
 33
0.0
  0
MTEXT
  5
199F
330
182E
100
AcDbEntity
  8
BEM
 62
     1
100
AcDbMText
 10
111.9324431459681
 20
533.2254632944966
 30
0.0
 40
7.0
 41
0.0
 71
     5
 72
     1
  1
\A1;%%c14
  7
GREEKS
 73
     1
 44
1.0
  0
POINT
  5
19A0
330
182E
100
AcDbEntity
  8
DEFPOINTS
 62
     0
100
AcDbPoint
 10
75.26577647930122
 20
498.4049951170898
 30
0.0
  0
POINT
  5
19A1
330
182E
100
AcDbEntity
  8
DEFPOINTS
 62
     0
100
AcDbPoint
 10
89.26577647930145
 20
498.4049951170898
 30
0.0
  0
POINT
  5
19A2
330
182E
100
AcDbEntity
  8
DEFPOINTS
 62
     0
100
AcDbPoint
 10
89.26577647930145
 20
527.7254632944966
 30
0.0
  0
ENDBLK
  5
183B
330
182E
100
AcDbEntity
  8
0
100
AcDbBlockEnd
  0
ENDSEC
  0
SECTION
  2
ENTITIES
  0
LINE
  5
145
330
17
100
AcDbEntity
  8
HILF
100
AcDbLine
 10
420.0
 20
-0.0000000000001137
 30
0.0
 11
419.9999999999999
 21
594.0
 31
0.0
  0
LINE
  5
146
330
17
100
AcDbEntity
  8
STEMPEL
100
AcDbLine
 10
410.0
 20
10.0
 30
0.0
 11
410.0
 21
584.0
 31
0.0
  0
LINE
  5
14A
330
17
100
AcDbEntity
  8
HILF
100
AcDbLine
 10
0.0
 20
0.0
 30
0.0
 11
-0.0000000000001137
 21
594.0
 31
0.0
  0
LINE
  5
14B
330
17
100
AcDbEntity
  8
STEMPEL
100
AcDbLine
 10
40.0
 20
10.0
 30
0.0
 11
39.99999999999989
 21
584.0
 31
0.0
  0
TEXT
  5
154
330
17
100
AcDbEntity
  8
TEXT
100
AcDbText
 10
153.5163572150377
 20
102.4620895087088
 30
0.0
 40
5.0
  1
Maßstab
 41
0.8
  7
GREEKS
100
AcDbText
  0
TEXT
  5
155
330
17
100
AcDbEntity
  8
TEXT
100
AcDbText
 10
147.6006777387303
 20
43.52946389649807
 30
0.0
 40
4.0
  1
Norm.
 41
0.8
  7
GREEKS
100
AcDbText
  0
INSERT
  5
156
330
17
100
AcDbEntity
  8
STEMPEL
100
AcDbBlockReference
  2
LOGO
 10
150.9955485457794
 20
45.02105276448322
 30
0.0
 41
2.0
 42
2.0
 43
2.0
  0
LINE
  5
157
330
17
100
AcDbEntity
  8
HILF
100
AcDbLine
 10
420.0
 20
0.0
 30
0.0
 11
0.0
 21
0.0
 31
0.0
  0
LINE
  5
158
330
17
100
AcDbEntity
  8
STEMPEL
100
AcDbLine
 10
410.0
 20
10.0
 30
0.0
 11
39.99999999999989
 21
10.0
 31
0.0
  0
LINE
  5
159
330
17
100
AcDbEntity
  8
STEMPEL
100
AcDbLine
 10
49.99999999999989
 20
10.0
 30
0.0
 11
410.0
 21
10.0
 31
0.0
  0
LINE
  5
15A
330
17
100
AcDbEntity
  8
HILF
100
AcDbLine
 10
146.0000000000001
 20
49.99999999999997
 30
0.0
 11
230.0
 21
49.99999999999997
 31
0.0
  0
LINE
  5
15B
330
17
100
AcDbEntity
  8
HILF
100
AcDbLine
 10
146.0000000000001
 20
59.99999999999997
 30
0.0
 11
230.0
 21
59.99999999999997
 31
0.0
  0
LINE
  5
15C
330
17
100
AcDbEntity
  8
HILF
100
AcDbLine
 10
146.0000000000001
 20
69.99999999999994
 30
0.0
 11
230.0
 21
69.99999999999994
 31
0.0
  0
LINE
  5
15D
330
17
100
AcDbEntity
  8
STEMPEL
100
AcDbLine
 10
410.0
 20
80.0
 30
0.0
 11
146.0000000000001
 21
79.99999999999994
 31
0.0
  0
LINE
  5
15E
330
17
100
AcDbEntity
  8
STEMPEL
100
AcDbLine
 10
410.0
 20
40.0
 30
0.0
 11
146.0000000000001
 21
39.99999999999997
 31
0.0
  0
LINE
  5
15F
330
17
100
AcDbEntity
  8
STEMPEL
100
AcDbLine
 10
410.0
 20
110.0
 30
0.0
 11
39.99999999999997
 21
110.0
 31
0.0
  0
TEXT
  5
160
330
17
100
AcDbEntity
  8
TEXT
100
AcDbText
 10
128.2201504717681
 20
18.59324216966408
 30
0.0
 40
4.0
  1
Name
 41
0.8
  7
GREEKS
100
AcDbText
  0
TEXT
  5
161
330
17
100
AcDbEntity
  8
TEXT
100
AcDbText
 10
109.4723536997203
 20
18.6715626933981
 30
0.0
 40
4.0
  1
Tag
 41
0.8
  7
GREEKS
100
AcDbText
  0
LINE
  5
162
330
17
100
AcDbEntity
  8
VOLL
100
AcDbLine
 10
124.0000000000001
 20
109.9999999999999
 30
0.0
 11
124.0
 21
9.999999999999971
 31
0.0
  0
LINE
  5
163
330
17
100
AcDbEntity
  8
VOLL
100
AcDbLine
 10
104.0000000000001
 20
109.9999999999999
 30
0.0
 11
104.0
 21
9.999999999999971
 31
0.0
  0
LINE
  5
164
330
17
100
AcDbEntity
  8
STEMPEL
100
AcDbLine
 10
146.0000000000001
 20
109.9999999999999
 30
0.0
 11
146.0
 21
9.999999999999971
 31
0.0
  0
TEXT
  5
165
330
17
100
AcDbEntity
  8
TEXT
100
AcDbText
 10
48.26641107045756
 20
13.65465846027192
 30
0.0
 40
4.0
  1
Index
 50
90.0
 41
0.8
  7
GREEKS
100
AcDbText
  0
LINE
  5
166
330
17
100
AcDbEntity
  8
VOLL
100
AcDbLine
 10
54.00000000000009
 20
110.0
 30
0.0
 11
53.99999999999997
 21
9.999999999999971
 31
0.0
  0
TEXT
  5
167
330
17
100
AcDbEntity
  8
TEXT
100
AcDbText
 10
67.32496897887827
 20
18.67381894984132
 30
0.0
 40
4.0
  1
Änderung
 41
0.8
  7
GREEKS
100
AcDbText
  0
LINE
  5
169
330
17
100
AcDbEntity
  8
HILF
100
AcDbLine
 10
40.00000000000008
 20
39.99999999999997
 30
0.0
 11
146.0000000000001
 21
39.99999999999997
 31
0.0
  0
LINE
  5
16A
330
17
100
AcDbEntity
  8
HILF
100
AcDbLine
 10
40.00000000000008
 20
49.99999999999997
 30
0.0
 11
146.0000000000001
 21
49.99999999999997
 31
0.0
  0
LINE
  5
16B
330
17
100
AcDbEntity
  8
HILF
100
AcDbLine
 10
40.00000000000008
 20
59.99999999999997
 30
0.0
 11
146.0000000000001
 21
59.99999999999997
 31
0.0
  0
LINE
  5
16C
330
17
100
AcDbEntity
  8
HILF
100
AcDbLine
 10
40.00000000000008
 20
69.99999999999994
 30
0.0
 11
146.0000000000001
 21
69.99999999999994
 31
0.0
  0
LINE
  5
16D
330
17
100
AcDbEntity
  8
HILF
100
AcDbLine
 10
40.00000000000008
 20
79.99999999999994
 30
0.0
 11
146.0000000000001
 21
79.99999999999994
 31
0.0
  0
LINE
  5
16E
330
17
100
AcDbEntity
  8
HILF
100
AcDbLine
 10
40.00000000000008
 20
90.00000000000005
 30
0.0
 11
146.0000000000001
 21
90.00000000000005
 31
0.0
  0
LINE
  5
16F
330
17
100
AcDbEntity
  8
HILF
100
AcDbLine
 10
40.00000000000008
 20
100.0
 30
0.0
 11
146.0000000000001
 21
100.0
 31
0.0
  0
LINE
  5
170
330
17
100
AcDbEntity
  8
STEMPEL
100
AcDbLine
 10
145.9999999999999
 20
29.99999999999997
 30
0.0
 11
39.99999999999997
 21
29.99999999999997
 31
0.0
  0
TEXT
  5
171
330
17
100
AcDbEntity
  8
TEXT
100
AcDbText
 10
147.5515086571672
 20
53.68926291428377
 30
0.0
 40
4.0
  1
Gepr.
 41
0.8
  7
GREEKS
100
AcDbText
  0
TEXT
  5
172
330
17
100
AcDbEntity
  8
TEXT
100
AcDbText
 10
147.5836127167615
 20
63.62990369617964
 30
0.0
 40
4.0
  1
Gez.
 41
0.8
  7
GREEKS
100
AcDbText
  0
TEXT
  5
173
330
17
100
AcDbEntity
  8
TEXT
100
AcDbText
 10
148.622109822104
 20
73.14025471151666
 30
0.0
 40
4.0
  1
2010
 41
0.8
  7
GREEKS
100
AcDbText
  0
LINE
  5
174
330
17
100
AcDbEntity
  8
HILF
100
AcDbLine
 10
31.08767135713856
 20
297.0
 30
0.0
 11
0.0000000000001137
 21
297.0
 31
0.0
  0
TEXT
  5
18F
330
17
100
AcDbEntity
  8
TEXT
 62
     1
100
AcDbText
 10
235.1296391125315
 20
87.41748789253779
 30
0.0
 40
7.0
  1
Losflansch DN150
 41
0.8
  7
GREEKS
100
AcDbText
  0
LINE
  5
190
330
17
100
AcDbEntity
  8
HILF
100
AcDbLine
 10
234.7736801096947
 20
49.99999999999997
 30
0.0
 11
324.835391655631
 21
49.99999999999997
 31
0.0
  0
LINE
  5
191
330
17
100
AcDbEntity
  8
HILF
100
AcDbLine
 10
234.7736801096947
 20
59.99999999999997
 30
0.0
 11
324.835391655631
 21
59.99999999999997
 31
0.0
  0
LINE
  5
192
330
17
100
AcDbEntity
  8
HILF
100
AcDbLine
 10
234.7736801096947
 20
69.99999999999994
 30
0.0
 11
324.835391655631
 21
69.99999999999994
 31
0.0
  0
LINE
  5
193
330
17
100
AcDbEntity
  8
HILF
100
AcDbLine
 10
234.7736801096947
 20
84.03758247564139
 30
0.0
 11
324.8353916556311
 21
84.03758247564139
 31
0.0
  0
LINE
  5
194
330
17
100
AcDbEntity
  8
HILF
100
AcDbLine
 10
233.4909699289885
 20
14.89398258028314
 30
0.0
 11
404.8588839326728
 21
14.89398258028314
 31
0.0
  0
LINE
  5
195
330
17
100
AcDbEntity
  8
STEMPEL
100
AcDbLine
 10
230.0
 20
110.0
 30
0.0
 11
230.0
 21
9.999999999999971
 31
0.0
  0
LINE
  5
196
330
17
100
AcDbEntity
  8
VOLL
100
AcDbLine
 10
190.0000000000001
 20
109.9999999999998
 30
0.0
 11
190.0
 21
39.99999999999997
 31
0.0
  0
LINE
  5
197
330
17
100
AcDbEntity
  8
VOLL
100
AcDbLine
 10
164.0000000000001
 20
79.99999999999994
 30
0.0
 11
164.0000000000001
 21
39.99999999999997
 31
0.0
  0
TEXT
  5
198
330
17
100
AcDbEntity
  8
TEXT
100
AcDbText
 10
171.0085209177598
 20
63.10765040825732
 30
0.0
 40
4.0
  1
30.11.
 41
0.8
  7
GREEKS
 72
     1
 11
177.4085209177598
 21
63.10765040825732
 31
0.0
100
AcDbText
  0
TEXT
  5
199
330
17
100
AcDbEntity
  8
TEXT
100
AcDbText
 10
204.4216048581257
 20
63.0896391972351
 30
0.0
 40
4.0
  1
Koeh
 41
0.8
  7
GREEKS
 72
     1
 11
209.6787477152686
 21
63.0896391972351
 31
0.0
100
AcDbText
  0
TEXT
  5
19A
330
17
100
AcDbEntity
  8
TEXT
100
AcDbText
 10
192.4832750652269
 20
90.76363841023022
 30
0.0
 40
4.0
  1
DIN ISO 2768-c
 41
0.7
  7
GREEKS
 72
     1
 11
209.6166083985602
 21
90.76363841023022
 31
0.0
100
AcDbText
  0
TEXT
  5
19B
330
17
100
AcDbEntity
  8
TEXT
 62
     1
100
AcDbText
 10
160.5006306481887
 20
88.14901428913959
 30
0.0
 40
7.0
  1
1:2
 41
0.8
  7
GREEKS
100
AcDbText
  0
TEXT
  5
19C
330
17
100
AcDbEntity
  8
TEXT
100
AcDbText
 10
172.331167315365
 20
73.31880501229926
 30
0.0
 40
4.0
  1
Tag
 41
0.8
  7
GREEKS
100
AcDbText
  0
TEXT
  5
19D
330
17
100
AcDbEntity
  8
TEXT
100
AcDbText
 10
202.4626584226295
 20
73.30961091915225
 30
0.0
 40
4.0
  1
Name
 41
0.8
  7
GREEKS
100
AcDbText
  0
TEXT
  5
19E
330
17
100
AcDbEntity
  8
TEXT
100
AcDbText
 10
194.2858954734051
 20
102.4184168434819
 30
0.0
 40
5.0
  1
Zul. Abw.
 41
0.8
  7
GREEKS
100
AcDbText
  0
TEXT
  5
19F
330
17
100
AcDbEntity
  8
TEXT
100
AcDbText
 10
235.1296391125315
 20
51.64011943042158
 30
0.0
 40
5.0
  1
EDV-Art.Nr. 21805.150X
 41
0.8
  7
GREEKS
100
AcDbText
  0
TEXT
  5
1A0
330
17
100
AcDbEntity
  8
TEXT
100
AcDbText
 10
234.742238391136
 20
30.84560570193057
 30
0.0
 40
5.0
  1
Bauvorhaben
 41
0.8
  7
GREEKS
100
AcDbText
  0
TEXT
  5
1A1
330
17
100
AcDbEntity
  8
TEXT
100
AcDbText
 10
234.9837501577827
 20
42.62974153022632
 30
0.0
 40
4.0
  1
21805150W.DWG
 41
0.8
  7
GREEKS
100
AcDbText
  0
TEXT
  5
1A2
330
17
100
AcDbEntity
  8
TEXT
100
AcDbText
 10
234.877940380901
 20
102.5489328011779
 30
0.0
 40
5.0
  1
Benennung
 41
0.8
  7
GREEKS
100
AcDbText
  0
TEXT
  5
1A4
330
17
100
AcDbEntity
  8
TEXT
 62
     1
100
AcDbText
 10
348.7073829814714
 20
88.14901428913959
 30
0.0
 40
7.0
  1
21805150W
 41
0.8
  7
GREEKS
 72
     1
 11
371.6407163148048
 21
88.14901428913959
 31
0.0
100
AcDbText
  0
TEXT
  5
1A5
330
17
100
AcDbEntity
  8
TEXT
100
AcDbText
 10
337.2400861497006
 20
52.07416177878602
 30
0.0
 40
5.0
  1
ersetzt durch:
 41
0.8
  7
GREEKS
100
AcDbText
  0
TEXT
  5
1A6
330
17
100
AcDbEntity
  8
TEXT
100
AcDbText
 10
336.7238616296993
 20
73.1811823709997
 30
0.0
 40
5.0
  1
Ersatz für:
 41
0.8
  7
GREEKS
100
AcDbText
  0
TEXT
  5
1A7
330
17
100
AcDbEntity
  8
TEXT
100
AcDbText
 10
336.178754957634
 20
102.3132034537136
 30
0.0
 40
5.0
  1
Zeichnungs Nr.
 41
0.8
  7
GREEKS
100
AcDbText
  0
LINE
  5
1A8
330
17
100
AcDbEntity
  8
HILF
100
AcDbLine
 10
336.7238616296993
 20
83.77983636955827
 30
0.0
 11
404.8588839326728
 21
83.77983636955827
 31
0.0
  0
LINE
  5
1A9
330
17
100
AcDbEntity
  8
VOLL
100
AcDbLine
 10
332.0
 20
60.0
 30
0.0
 11
410.0
 21
60.0
 31
0.0
  0
LINE
  5
1AA
330
17
100
AcDbEntity
  8
STEMPEL
100
AcDbLine
 10
332.0
 20
109.9999999999997
 30
0.0
 11
332.0
 21
40.0
 31
0.0
  0
TEXT
  5
1AF
330
17
100
AcDbEntity
  8
TEXT
 62
     1
100
AcDbText
 10
305.0797365989809
 20
125.9585738946357
 30
0.0
 40
7.0
  1
Werkstoff: 1.4301
 41
0.8
  7
GREEKS
100
AcDbText
  0
LINE
  5
1B8
330
17
100
AcDbEntity
  8
HILF
100
AcDbLine
 10
419.9999999999999
 20
594.0000000000002
 30
0.0
 11
0.0
 21
594.0
 31
0.0
  0
LINE
  5
1B9
330
17
100
AcDbEntity
  8
STEMPEL
100
AcDbLine
 10
410.0
 20
584.0
 30
0.0
 11
39.99999999999989
 21
584.0
 31
0.0
  0
ARC
  5
993
330
17
100
AcDbEntity
  8
STEMPEL
100
AcDbCircle
 10
224.2657764793009
 20
388.1465206182147
 30
0.0
 40
175.0
100
AcDbArc
 50
180.0
 51
0.0
  0
ARC
  5
994
330
17
100
AcDbEntity
  8
STEMPEL
100
AcDbCircle
 10
224.2657764793009
 20
388.1465206182147
 30
0.0
 40
109.0
100
AcDbArc
 50
179.9999999999999
 51
0.0
  0
ARC
  5
9B7
330
17
100
AcDbEntity
  8
MITTEL
100
AcDbCircle
 10
224.2657764793009
 20
388.1465206182147
 30
0.0
 40
142.0
100
AcDbArc
 50
179.9999999999999
 51
0.0
  0
LINE
  5
9B9
330
17
100
AcDbEntity
  8
MITTEL
100
AcDbLine
 10
224.265776479301
 20
388.1465206182148
 30
0.0
 11
224.2657764793008
 21
208.1465206182147
 31
0.0
  0
LINE
  5
9BA
330
17
100
AcDbEntity
  8
MITTEL
100
AcDbLine
 10
44.26577647930094
 20
388.1465206182148
 30
0.0
 11
404.2657764793009
 21
388.1465206182146
 31
0.0
  0
LINE
  5
10B0
330
17
100
AcDbEntity
  8
MITTEL
100
AcDbLine
 10
115.3713321765725
 20
279.2520763154865
 30
0.0
 11
132.3418949250497
 21
296.2226390639636
 31
0.0
  0
LINE
  5
10B9
330
17
100
AcDbEntity
  8
MITTEL
100
AcDbLine
 10
333.1602207820292
 20
279.2520763154863
 30
0.0
 11
316.189658033552
 21
296.2226390639635
 31
0.0
  0
ARC
  5
10BC
330
17
100
AcDbEntity
  8
STEMPEL
100
AcDbCircle
 10
82.26577647930094
 20
388.1465206182148
 30
0.0
 40
7.0
100
AcDbArc
 50
180.0
 51
0.0
  0
ARC
  5
10BE
330
17
100
AcDbEntity
  8
STEMPEL
100
AcDbCircle
 10
366.265776479301
 20
388.1465206182147
 30
0.0
 40
7.0
100
AcDbArc
 50
180.0
 51
0.0
  0
CIRCLE
  5
10BF
330
17
100
AcDbEntity
  8
STEMPEL
100
AcDbCircle
 10
324.6749394077906
 20
287.7373576897249
 30
0.0
 40
7.0
  0
CIRCLE
  5
10C0
330
17
100
AcDbEntity
  8
STEMPEL
100
AcDbCircle
 10
224.2657764793009
 20
246.1465206182147
 30
0.0
 40
7.0
  0
CIRCLE
  5
10C1
330
17
100
AcDbEntity
  8
STEMPEL
100
AcDbCircle
 10
123.8566135508111
 20
287.7373576897251
 30
0.0
 40
7.0
  0
TEXT
  5
13F6
330
17
100
AcDbEntity
  8
TEXT
100
AcDbText
 10
416.5811541437437
 20
12.14804815338303
 30
0.0
 40
4.0
  1
Diese Zeichnung ist urheberrechtlich geschützt und bleibt unser Eigentum. Sie darf weder ganz noch teilweise vervielfältigt und nicht an Dritte weitergegeben werden.
 50
90.0
 41
0.8
  7
GREEKS
100
AcDbText
  0
TEXT
  5
143D
330
17
100
AcDbEntity
  8
TEXT
100
AcDbText
 10
235.1296391125315
 20
71.64011943042154
 30
0.0
 40
5.0
  1
für LORO-FLEX Rohrdurchführung DN125
 41
0.55
  7
GREEKS
100
AcDbText
  0
DIMENSION
  5
15AD
330
17
100
AcDbEntity
  8
BEM
100
AcDbDimension
  2
*D1
 10
399.2657764793012
 20
428.8711275197993
 30
0.0
 11
224.2657764793012
 21
435.3711275197992
 31
0.0
 70
    32
  1
%%c<>
 71
     5
 42
350.0
  3
STANDARD
100
AcDbAlignedDimension
 13
49.26577647930122
 23
493.4049951170898
 33
0.0
 14
399.2657764793012
 24
493.4049951170898
 34
0.0
100
AcDbRotatedDimension
1001
ACAD
1000
DSTYLE
1002
{
1070
    40
1040
2.0
1070
    41
1040
3.5
1070
    42
1040
1.0
1070
    43
1040
7.0
1070
    44
1040
1.0
1070
    73
1070
     0
1070
    74
1070
     0
1070
    77
1070
     1
1070
    78
1070
     8
1070
    79
1070
     2
1070
   140
1040
3.5
1070
   141
1040
1.5
1070
   146
1040
0.5
1070
   147
1040
1.5
1070
   172
1070
     1
1070
   178
1070
     1
1070
   179
1070
     1
1070
   271
1070
     1
1070
   272
1070
     1
1070
   284
1070
     8
1070
   285
1070
     8
1070
   286
1070
     8
1002
}
  0
DIMENSION
  5
15AE
330
17
100
AcDbEntity
  8
BEM
100
AcDbDimension
  2
*D2
 10
366.2657764793012
 20
444.8711275197992
 30
0.0
 11
224.2657764793012
 21
451.3711275197993
 31
0.0
 70
    32
  1
%%c<>±1.2
 71
     5
 42
284.0
  3
STANDARD
100
AcDbAlignedDimension
 13
82.26577647930122
 23
488.9199565705803
 33
0.0
 14
366.2657764793012
 24
488.9199565705803
 34
0.0
100
AcDbRotatedDimension
1001
ACAD
1000
DSTYLE
1002
{
1070
    40
1040
2.0
1070
    41
1040
3.5
1070
    42
1040
1.0
1070
    43
1040
7.0
1070
    44
1040
1.0
1070
    73
1070
     0
1070
    74
1070
     0
1070
    77
1070
     1
1070
    78
1070
     8
1070
    79
1070
     2
1070
   140
1040
3.5
1070
   141
1040
1.5
1070
   146
1040
0.5
1070
   147
1040
1.5
1070
   172
1070
     1
1070
   178
1070
     1
1070
   179
1070
     1
1070
   271
1070
     1
1070
   272
1070
     1
1070
   284
1070
     8
1070
   285
1070
     8
1070
   286
1070
     8
1002
}
  0
DIMENSION
  5
15AF
330
17
100
AcDbEntity
  8
BEM
100
AcDbDimension
  2
*D3
 10
333.2657764793014
 20
460.8711275197992
 30
0.0
 11
224.2657764793012
 21
467.3711275197993
 31
0.0
 70
    32
  1
%%c<>
 71
     5
 42
218.0000000000005
  3
STANDARD
100
AcDbAlignedDimension
 13
115.265776479301
 23
493.4049951170898
 33
0.0
 14
333.2657764793014
 24
493.4049951170898
 34
0.0
100
AcDbRotatedDimension
1001
ACAD
1000
DSTYLE
1002
{
1070
    40
1040
2.0
1070
    41
1040
3.5
1070
    42
1040
1.0
1070
    43
1040
7.0
1070
    44
1040
1.0
1070
    73
1070
     0
1070
    74
1070
     0
1070
    77
1070
     1
1070
    78
1070
     8
1070
    79
1070
     2
1070
   140
1040
3.5
1070
   141
1040
1.5
1070
   146
1040
0.5
1070
   147
1040
1.5
1070
   172
1070
     1
1070
   178
1070
     1
1070
   179
1070
     1
1070
   271
1070
     1
1070
   272
1070
     1
1070
   284
1070
     8
1070
   285
1070
     8
1070
   286
1070
     8
1002
}
  0
LINE
  5
15B0
330
17
100
AcDbEntity
  8
MITTEL
100
AcDbLine
 10
82.26577647930122
 20
487.4049951170897
 30
0.0
 11
82.2657764793012
 21
503.4049951170898
 31
0.0
  0
LINE
  5
15B1
102
{ACAD_REACTORS
330
1818
102
}
330
17
100
AcDbEntity
  8
STEMPEL
100
AcDbLine
 10
89.26577647930145
 20
492.4049951170896
 30
0.0
 11
89.26577647930145
 21
498.4049951170898
 31
0.0
  0
LINE
  5
15B2
102
{ACAD_REACTORS
330
1818
102
}
330
17
100
AcDbEntity
  8
STEMPEL
100
AcDbLine
 10
75.26577647930122
 20
492.4049951170896
 30
0.0
 11
75.26577647930122
 21
498.4049951170898
 31
0.0
  0
LINE
  5
15B3
102
{ACAD_REACTORS
330
1818
102
}
330
17
100
AcDbEntity
  8
STEMPEL
100
AcDbLine
 10
49.26577647930122
 20
493.4049951170898
 30
0.0
 11
49.26577647930122
 21
497.4049951170898
 31
0.0
  0
LINE
  5
15B4
102
{ACAD_REACTORS
330
1818
102
}
330
17
100
AcDbEntity
  8
STEMPEL
100
AcDbLine
 10
50.26577647930122
 20
498.4049951170898
 30
0.0
 11
49.26577647930122
 21
497.4049951170898
 31
0.0
  0
LINE
  5
15B5
102
{ACAD_REACTORS
330
1818
102
}
330
17
100
AcDbEntity
  8
STEMPEL
100
AcDbLine
 10
49.26577647930122
 20
493.4049951170898
 30
0.0
 11
50.26577647930122
 21
492.4049951170898
 31
0.0
  0
LINE
  5
15B6
102
{ACAD_REACTORS
330
1818
102
}
330
17
100
AcDbEntity
  8
STEMPEL
100
AcDbLine
 10
115.265776479301
 20
493.4049951170898
 30
0.0
 11
114.265776479301
 21
492.4049951170898
 31
0.0
  0
LINE
  5
15B7
102
{ACAD_REACTORS
330
1818
102
}
330
17
100
AcDbEntity
  8
STEMPEL
100
AcDbLine
 10
114.265776479301
 20
498.4049951170898
 30
0.0
 11
115.265776479301
 21
497.4049951170898
 31
0.0
  0
LINE
  5
15B8
102
{ACAD_REACTORS
330
1818
102
}
330
17
100
AcDbEntity
  8
STEMPEL
100
AcDbLine
 10
115.265776479301
 20
493.4049951170898
 30
0.0
 11
115.265776479301
 21
497.4049951170898
 31
0.0
  0
LINE
  5
15B9
102
{ACAD_REACTORS
330
1818
102
}
330
17
100
AcDbEntity
  8
STEMPEL
100
AcDbLine
 10
333.2657764793014
 20
493.4049951170898
 30
0.0
 11
333.2657764793014
 21
497.4049951170898
 31
0.0
  0
LINE
  5
15BA
102
{ACAD_REACTORS
330
1818
102
}
330
17
100
AcDbEntity
  8
STEMPEL
100
AcDbLine
 10
334.2657764793015
 20
498.4049951170898
 30
0.0
 11
333.2657764793014
 21
497.4049951170898
 31
0.0
  0
LINE
  5
15BB
102
{ACAD_REACTORS
330
1818
102
}
330
17
100
AcDbEntity
  8
STEMPEL
100
AcDbLine
 10
333.2657764793014
 20
493.4049951170898
 30
0.0
 11
334.2657764793015
 21
492.4049951170898
 31
0.0
  0
LINE
  5
15BC
102
{ACAD_REACTORS
330
1818
102
}
330
17
100
AcDbEntity
  8
STEMPEL
100
AcDbLine
 10
399.2657764793012
 20
493.4049951170898
 30
0.0
 11
398.2657764793012
 21
492.4049951170898
 31
0.0
  0
LINE
  5
15BD
102
{ACAD_REACTORS
330
1818
102
}
330
17
100
AcDbEntity
  8
STEMPEL
100
AcDbLine
 10
398.2657764793012
 20
498.4049951170898
 30
0.0
 11
399.2657764793012
 21
497.4049951170898
 31
0.0
  0
LINE
  5
15BE
102
{ACAD_REACTORS
330
1818
102
}
330
17
100
AcDbEntity
  8
STEMPEL
100
AcDbLine
 10
399.2657764793012
 20
493.4049951170898
 30
0.0
 11
399.2657764793012
 21
497.4049951170898
 31
0.0
  0
LINE
  5
15BF
102
{ACAD_REACTORS
330
1818
102
}
330
17
100
AcDbEntity
  8
STEMPEL
100
AcDbLine
 10
373.2657764793012
 20
492.4049951170896
 30
0.0
 11
373.2657764793012
 21
498.4049951170898
 31
0.0
  0
LINE
  5
15C0
102
{ACAD_REACTORS
330
1818
102
}
330
17
100
AcDbEntity
  8
STEMPEL
100
AcDbLine
 10
359.265776479301
 20
492.4049951170896
 30
0.0
 11
359.265776479301
 21
498.4049951170898
 31
0.0
  0
LINE
  5
15C1
330
17
100
AcDbEntity
  8
MITTEL
100
AcDbLine
 10
366.2657764793012
 20
487.4049951170897
 30
0.0
 11
366.2657764793013
 21
503.4049951170898
 31
0.0
  0
LINE
  5
15C2
330
17
100
AcDbEntity
  8
MITTEL
100
AcDbLine
 10
224.2657764793012
 20
487.4049951170899
 30
0.0
 11
224.2657764793012
 21
503.4049951170898
 31
0.0
  0
LINE
  5
15C3
102
{ACAD_REACTORS
330
1818
102
}
330
17
100
AcDbEntity
  8
STEMPEL
100
AcDbLine
 10
50.26577647930134
 20
492.4049951170898
 30
0.0
 11
398.2657764793012
 21
492.4049951170898
 31
0.0
  0
LINE
  5
15C4
102
{ACAD_REACTORS
330
1818
102
}
330
17
100
AcDbEntity
  8
STEMPEL
100
AcDbLine
 10
50.26577647930134
 20
498.4049951170898
 30
0.0
 11
398.2657764793012
 21
498.4049951170898
 31
0.0
  0
DIMENSION
  5
173C
330
17
100
AcDbEntity
  8
BEM
100
AcDbDimension
  2
*D4
 10
404.2657764793009
 20
388.1465206182146
 30
0.0
 11
80.24293492142453
 21
328.4903063534309
 31
0.0
 70
    34
 71
     5
 42
0.7853981633974474
  3
STANDARD
100
AcDb2LineAngularDimension
 13
115.3713321765725
 23
279.2520763154865
 33
0.0
 14
132.3418949250497
 24
296.2226390639636
 34
0.0
 15
44.26577647930094
 25
388.1465206182148
 35
0.0
 16
68.37577976145425
 26
346.3759218895773
 36
0.0
1001
ACAD
1000
DSTYLE
1002
{
1070
    44
1040
1.0
1070
    47
1040
1.199999999999999
1070
    48
1040
1.199999999999999
1070
    79
1070
     2
1070
   179
1070
     2
1070
   279
1070
     0
1070
   289
1070
     0
1002
}
  0
DIMENSION
  5
174A
330
17
100
AcDbEntity
  8
BEM
100
AcDbDimension
  2
*D5
 10
60.61716063439707
 20
498.4049951170898
 30
0.0
 11
55.11716063439698
 21
516.1383284504231
 31
0.0
 70
    32
 71
     5
 42
6.0
  3
STANDARD
100
AcDbAlignedDimension
 13
60.61716063439707
 23
492.4049951170898
 33
0.0
 14
60.61716063439707
 24
498.4049951170898
 34
0.0
 50
90.0
100
AcDbRotatedDimension
1001
ACAD
1000
DSTYLE
1002
{
1070
    44
1040
1.0
1070
    47
1040
1.199999999999999
1070
    48
1040
1.199999999999999
1070
    79
1070
     2
1070
   179
1070
     2
1070
   279
1070
     0
1070
   289
1070
     0
1002
}
  0
HATCH
  5
1818
330
17
100
AcDbEntity
  8
SCHRAFF
100
AcDbHatch
 10
0.0
 20
0.0
 30
0.0
210
0.0
220
0.0
230
1.0
  2
_USER
 70
     0
 71
     1
 91
        4
 92
        7
 72
     0
 73
     1
 93
        6
 10
75.26577647930122
 20
492.4049951170897
 10
75.26577647930122
 20
498.4049951170898
 10
50.26577647930121
 20
498.4049951170898
 10
49.26577647930122
 20
497.4049951170897
 10
49.26577647930122
 20
493.4049951170897
 10
50.26577647930118
 20
492.4049951170898
 97
        6
330
15C4
330
15B4
330
15B3
330
15B5
330
15C3
330
15B2
 92
        7
 72
     0
 73
     1
 93
        6
 10
114.265776479301
 20
492.4049951170898
 10
115.265776479301
 20
493.4049951170898
 10
115.265776479301
 20
497.4049951170897
 10
114.265776479301
 20
498.4049951170899
 10
89.26577647930145
 20
498.4049951170899
 10
89.26577647930145
 20
492.4049951170897
 97
        6
330
15B7
330
15C4
330
15B1
330
15C3
330
15B6
330
15B8
 92
        7
 72
     0
 73
     1
 93
        6
 10
334.2657764793013
 20
498.4049951170897
 10
333.2657764793014
 20
497.4049951170898
 10
333.2657764793014
 20
493.4049951170897
 10
334.2657764793015
 20
492.4049951170897
 10
359.265776479301
 20
492.4049951170897
 10
359.2657764793011
 20
498.4049951170898
 97
        6
330
15C4
330
15BA
330
15B9
330
15BB
330
15C3
330
15C0
 92
        7
 72
     0
 73
     1
 93
        6
 10
398.2657764793012
 20
492.4049951170898
 10
399.2657764793012
 20
493.4049951170898
 10
399.2657764793012
 20
497.4049951170897
 10
398.2657764793012
 20
498.4049951170899
 10
373.2657764793013
 20
498.4049951170899
 10
373.2657764793012
 20
492.4049951170897
 97
        6
330
15BD
330
15C4
330
15BF
330
15C3
330
15BC
330
15BE
 75
     0
 76
     0
 52
45.0
 41
5.0
 77
     0
 78
     1
 53
45.0
 43
0.0
 44
0.0
 45
-3.535533905932737
 46
3.535533905932737
 79
     0
 47
0.4433886453050086
 98
        4
 10
58.15678860127263
 20
495.196321013344
 10
100.3106476461398
 20
494.309544876331
 10
342.1406855732253
 20
497.8566536228483
 10
382.5196454385264
 20
494.7529322450932
  0
DIMENSION
  5
182D
330
17
100
AcDbEntity
  8
BEM
100
AcDbDimension
  2
*D6
 10
89.26577647930145
 20
527.7254632944966
 30
0.0
 11
111.9324431459681
 21
533.2254632944966
 31
0.0
 70
    32
  1
%%c<>
 71
     5
 42
14.00000000000023
  3
STANDARD
100
AcDbAlignedDimension
 13
75.26577647930122
 23
498.4049951170898
 33
0.0
 14
89.26577647930145
 24
498.4049951170898
 34
0.0
100
AcDbRotatedDimension
1001
ACAD
1000
DSTYLE
1002
{
1070
    44
1040
1.0
1070
    47
1040
1.199999999999999
1070
    48
1040
1.199999999999999
1070
    79
1070
     2
1070
   179
1070
     2
1070
   279
1070
     0
1070
   289
1070
     0
1002
}
  0
TEXT
  5
18CB
330
17
100
AcDbEntity
  8
TEXT
100
AcDbText
 10
43.26241454316732
 20
112.1732266221381
 30
0.0
 40
5.0
  1
Erstellt mit AUTOCAD 2004
 41
0.8
  7
GREEKS
100
AcDbText
  0
ENDSEC
  0
SECTION
  2
OBJECTS
  0
DICTIONARY
  5
C
330
0
100
AcDbDictionary
281
     1
  3
ACAD_COLOR
350
FA5
  3
ACAD_GROUP
350
D
  3
ACAD_LAYOUT
350
53C
  3
ACAD_MATERIAL
350
FA4
  3
ACAD_MLINESTYLE
350
1A
  3
ACAD_PLOTSETTINGS
350
53D
  3
ACAD_PLOTSTYLENAME
350
53A
  3
ACDBVARIABLEDICTIONARY
350
294
  0
DICTIONARY
  5
FA5
102
{ACAD_REACTORS
330
C
102
}
330
C
100
AcDbDictionary
281
     1
  0
DICTIONARY
  5
D
102
{ACAD_REACTORS
330
C
102
}
330
C
100
AcDbDictionary
281
     1
  0
DICTIONARY
  5
53C
102
{ACAD_REACTORS
330
C
102
}
330
C
100
AcDbDictionary
281
     1
  3
Layout1
350
53F
  3
Model
350
53E
  0
DICTIONARY
  5
FA4
102
{ACAD_REACTORS
330
C
102
}
330
C
100
AcDbDictionary
281
     1
  0
DICTIONARY
  5
1A
102
{ACAD_REACTORS
330
C
102
}
330
C
100
AcDbDictionary
281
     1
  3
STANDARD
350
1B
  0
DICTIONARY
  5
53D
102
{ACAD_REACTORS
330
C
102
}
330
C
100
AcDbDictionary
281
     1
  0
ACDBDICTIONARYWDFLT
  5
53A
102
{ACAD_REACTORS
330
C
102
}
330
C
100
AcDbDictionary
281
     1
  3
Normal
350
53B
100
AcDbDictionaryWithDefault
340
53B
  0
DICTIONARY
  5
294
102
{ACAD_REACTORS
330
C
102
}
330
C
100
AcDbDictionary
281
     1
  3
DIMASSOC
350
FB0
  3
PROJECTNAME
350
FB1
  3
SORTENTS
350
295
  0
LAYOUT
  5
53F
102
{ACAD_REACTORS
330
53C
102
}
330
53C
100
AcDbPlotSettings
  1

  2
HP LaserJet 5000 N PS
  4

  6

 40
0.0
 41
0.0
 42
0.0
 43
0.0
 44
0.0
 45
0.0
 46
0.0
 47
0.0
 48
0.0
 49
0.0
140
0.0
141
0.0
142
1.0
143
1.0
 70
   688
 72
     0
 73
     0
 74
     5
  7
test1.ctb
 75
    16
147
1.0
 76
     0
 77
     2
 78
   300
148
0.0
149
0.0
100
AcDbLayout
  1
Layout1
 70
     0
 71
     1
 10
0.0
 20
0.0
 11
12.0
 21
9.0
 12
0.0
 22
0.0
 32
0.0
 14
1.000000000000000E+20
 24
1.000000000000000E+20
 34
1.000000000000000E+20
 15
-1.000000000000000E+20
 25
-1.000000000000000E+20
 35
-1.000000000000000E+20
146
0.0
 13
0.0
 23
0.0
 33
0.0
 16
1.0
 26
0.0
 36
0.0
 17
0.0
 27
1.0
 37
0.0
 76
     0
330
14
  0
LAYOUT
  5
53E
102
{ACAD_REACTORS
330
53C
102
}
330
53C
100
AcDbPlotSettings
  1

  2
RICOH Aficio 2027 PCL 6
  4
A4
  6

 40
5.027083
 41
5.027084999999999
 42
5.027084
 43
5.027069
 44
209.973328
 45
296.925995
 46
0.0
 47
2.06
 48
1143.007452
 49
420.250739
140
1563.007452
141
717.2507389999999
142
1.0
143
2.100849152723284
 70
 11956
 72
     1
 73
     0
 74
     2
  7
monochrome1.ctb
 75
     0
147
0.4759980023809526
 76
     1
 77
     2
 78
   300
148
0.0
149
0.0
100
AcDbLayout
  1
Model
 70
     1
 71
     0
 10
0.0
 20
0.0
 11
12.0
 21
9.0
 12
0.0
 22
0.0
 32
0.0
 14
0.0
 24
0.0
 34
0.0
 15
0.0
 25
0.0
 35
0.0
146
0.0
 13
0.0
 23
0.0
 33
0.0
 16
1.0
 26
0.0
 36
0.0
 17
0.0
 27
1.0
 37
0.0
 76
     0
330
17
  0
MLINESTYLE
  5
1B
102
{ACAD_REACTORS
330
1A
102
}
330
1A
100
AcDbMlineStyle
  2
STANDARD
 70
     0
  3

 62
   256
 51
90.0
 52
90.0
 71
     2
 49
0.5
 62
   256
  6
BYLAYER
 49
-0.5
 62
   256
  6
BYLAYER
  0
ACDBPLACEHOLDER
  5
53B
102
{ACAD_REACTORS
330
53A
102
}
330
53A
  0
DICTIONARYVAR
  5
FB0
102
{ACAD_REACTORS
330
294
102
}
330
294
100
DictionaryVariables
280
     0
  1
1
  0
DICTIONARYVAR
  5
FB1
102
{ACAD_REACTORS
330
294
102
}
330
294
100
DictionaryVariables
280
     0
  1

  0
DICTIONARYVAR
  5
295
102
{ACAD_REACTORS
330
294
102
}
330
294
100
DictionaryVariables
280
     0
  1
96
  0
ENDSEC
  0
EOF
