  0
SECTION
  2
HEADER
  9
$ACADVER
  1
AC1018
  9
$ACADMAINTVER
 70
     2
  9
$DWGCODEPAGE
  3
ANSI_1252
  9
$INSBASE
 10
0.0
 20
0.0
 30
0.0
  9
$EXTMIN
 10
-0.0000000000001137
 20
-0.0000000000001137
 30
0.0
  9
$EXTMAX
 10
420.0
 20
594.0000000000002
 30
0.0
  9
$LIMMIN
 10
0.0
 20
0.0
  9
$LIMMAX
 10
419.9999999999999
 20
594.0000000000002
  9
$ORTHOMODE
 70
     1
  9
$REGENMODE
 70
     1
  9
$FILLMODE
 70
     1
  9
$QTEXTMODE
 70
     0
  9
$MIRRTEXT
 70
     1
  9
$LTSCALE
 40
20.0
  9
$ATTMODE
 70
     1
  9
$TEXTSIZE
 40
3.5
  9
$TRACEWID
 40
0.5
  9
$TEXTSTYLE
  7
STANDARD
  9
$CLAYER
  8
BEM
  9
$CELTYPE
  6
BYLAYER
  9
$CECOLOR
 62
   256
  9
$CELTSCALE
 40
1.0
  9
$DISPSILH
 70
     0
  9
$DIMSCALE
 40
2.0
  9
$DIMASZ
 40
3.5
  9
$DIMEXO
 40
1.0
  9
$DIMDLI
 40
8.0
  9
$DIMRND
 40
0.0
  9
$DIMDLE
 40
0.0
  9
$DIMEXE
 40
1.0
  9
$DIMTP
 40
0.0
  9
$DIMTM
 40
0.0
  9
$DIMTXT
 40
3.5
  9
$DIMCEN
 40
1.5
  9
$DIMTSZ
 40
0.0
  9
$DIMTOL
 70
     0
  9
$DIMLIM
 70
     0
  9
$DIMTIH
 70
     0
  9
$DIMTOH
 70
     0
  9
$DIMSE1
 70
     0
  9
$DIMSE2
 70
     0
  9
$DIMTAD
 70
     1
  9
$DIMZIN
 70
     8
  9
$DIMBLK
  1

  9
$DIMASO
 70
     1
  9
$DIMSHO
 70
     0
  9
$DIMPOST
  1

  9
$DIMAPOST
  1

  9
$DIMALT
 70
     0
  9
$DIMALTD
 70
     2
  9
$DIMALTF
 40
25.4
  9
$DIMLFAC
 40
1.0
  9
$DIMTOFL
 70
     1
  9
$DIMTVP
 40
0.0
  9
$DIMTIX
 70
     0
  9
$DIMSOXD
 70
     0
  9
$DIMSAH
 70
     0
  9
$DIMBLK1
  1

  9
$DIMBLK2
  1

  9
$DIMSTYLE
  2
STANDARD
  9
$DIMCLRD
 70
     0
  9
$DIMCLRE
 70
     0
  9
$DIMCLRT
 70
     1
  9
$DIMTFAC
 40
0.5
  9
$DIMGAP
 40
1.5
  9
$DIMJUST
 70
     0
  9
$DIMSD1
 70
     0
  9
$DIMSD2
 70
     0
  9
$DIMTOLJ
 70
     1
  9
$DIMTZIN
 70
     8
  9
$DIMALTZ
 70
     8
  9
$DIMALTTZ
 70
     8
  9
$DIMUPT
 70
     0
  9
$DIMDEC
 70
     2
  9
$DIMTDEC
 70
     2
  9
$DIMALTU
 70
     2
  9
$DIMALTTD
 70
     2
  9
$DIMTXSTY
  7
STANDARD
  9
$DIMAUNIT
 70
     0
  9
$DIMADEC
 70
     2
  9
$DIMALTRND
 40
0.0
  9
$DIMAZIN
 70
     2
  9
$DIMDSEP
 70
    46
  9
$DIMATFIT
 70
     3
  9
$DIMFRAC
 70
     0
  9
$DIMLDRBLK
  1

  9
$DIMLUNIT
 70
     2
  9
$DIMLWD
 70
    -2
  9
$DIMLWE
 70
    -2
  9
$DIMTMOVE
 70
     0
  9
$LUNITS
 70
     2
  9
$LUPREC
 70
     2
  9
$SKETCHINC
 40
1.0
  9
$FILLETRAD
 40
3.0
  9
$AUNITS
 70
     0
  9
$AUPREC
 70
     0
  9
$MENU
  1
ACAD
  9
$ELEVATION
 40
0.0
  9
$PELEVATION
 40
0.0
  9
$THICKNESS
 40
0.0
  9
$LIMCHECK
 70
     0
  9
$CHAMFERA
 40
0.0
  9
$CHAMFERB
 40
0.0
  9
$CHAMFERC
 40
0.0
  9
$CHAMFERD
 40
0.0
  9
$SKPOLY
 70
     0
  9
$TDCREATE
 40
2451795.444445706
  9
$TDUCREATE
 40
2451795.402779040
  9
$TDUPDATE
 40
2455531.345658993
  9
$TDUUPDATE
 40
2455531.303992326
  9
$TDINDWG
 40
0.0883250116
  9
$TDUSRTIMER
 40
0.0883250116
  9
$USRTIMER
 70
     1
  9
$ANGBASE
 50
0.0
  9
$ANGDIR
 70
     0
  9
$PDMODE
 70
     0
  9
$PDSIZE
 40
0.0
  9
$PLINEWID
 40
0.0
  9
$SPLFRAME
 70
     0
  9
$SPLINETYPE
 70
     6
  9
$SPLINESEGS
 70
     8
  9
$HANDSEED
  5
74F
  9
$SURFTAB1
 70
     6
  9
$SURFTAB2
 70
     6
  9
$SURFTYPE
 70
     6
  9
$SURFU
 70
     6
  9
$SURFV
 70
     6
  9
$UCSBASE
  2

  9
$UCSNAME
  2

  9
$UCSORG
 10
0.0
 20
0.0
 30
0.0
  9
$UCSXDIR
 10
1.0
 20
0.0
 30
0.0
  9
$UCSYDIR
 10
0.0
 20
1.0
 30
0.0
  9
$UCSORTHOREF
  2

  9
$UCSORTHOVIEW
 70
     0
  9
$UCSORGTOP
 10
0.0
 20
0.0
 30
0.0
  9
$UCSORGBOTTOM
 10
0.0
 20
0.0
 30
0.0
  9
$UCSORGLEFT
 10
0.0
 20
0.0
 30
0.0
  9
$UCSORGRIGHT
 10
0.0
 20
0.0
 30
0.0
  9
$UCSORGFRONT
 10
0.0
 20
0.0
 30
0.0
  9
$UCSORGBACK
 10
0.0
 20
0.0
 30
0.0
  9
$PUCSBASE
  2

  9
$PUCSNAME
  2

  9
$PUCSORG
 10
0.0
 20
0.0
 30
0.0
  9
$PUCSXDIR
 10
1.0
 20
0.0
 30
0.0
  9
$PUCSYDIR
 10
0.0
 20
1.0
 30
0.0
  9
$PUCSORTHOREF
  2

  9
$PUCSORTHOVIEW
 70
     0
  9
$PUCSORGTOP
 10
0.0
 20
0.0
 30
0.0
  9
$PUCSORGBOTTOM
 10
0.0
 20
0.0
 30
0.0
  9
$PUCSORGLEFT
 10
0.0
 20
0.0
 30
0.0
  9
$PUCSORGRIGHT
 10
0.0
 20
0.0
 30
0.0
  9
$PUCSORGFRONT
 10
0.0
 20
0.0
 30
0.0
  9
$PUCSORGBACK
 10
0.0
 20
0.0
 30
0.0
  9
$USERI1
 70
     0
  9
$USERI2
 70
     0
  9
$USERI3
 70
     0
  9
$USERI4
 70
     0
  9
$USERI5
 70
     0
  9
$USERR1
 40
0.0
  9
$USERR2
 40
0.0
  9
$USERR3
 40
0.0
  9
$USERR4
 40
0.0
  9
$USERR5
 40
0.0
  9
$WORLDVIEW
 70
     1
  9
$SHADEDGE
 70
     3
  9
$SHADEDIF
 70
    70
  9
$TILEMODE
 70
     1
  9
$MAXACTVP
 70
    16
  9
$PINSBASE
 10
0.0
 20
0.0
 30
0.0
  9
$PLIMCHECK
 70
     0
  9
$PEXTMIN
 10
1.000000000000000E+20
 20
1.000000000000000E+20
 30
1.000000000000000E+20
  9
$PEXTMAX
 10
-1.000000000000000E+20
 20
-1.000000000000000E+20
 30
-1.000000000000000E+20
  9
$PLIMMIN
 10
0.0
 20
0.0
  9
$PLIMMAX
 10
12.0
 20
9.0
  9
$UNITMODE
 70
     0
  9
$VISRETAIN
 70
     0
  9
$PLINEGEN
 70
     0
  9
$PSLTSCALE
 70
     0
  9
$TREEDEPTH
 70
  3020
  9
$CMLSTYLE
  2
STANDARD
  9
$CMLJUST
 70
     0
  9
$CMLSCALE
 40
1.0
  9
$PROXYGRAPHICS
 70
     1
  9
$MEASUREMENT
 70
     0
  9
$CELWEIGHT
370
    -1
  9
$ENDCAPS
280
     0
  9
$JOINSTYLE
280
     0
  9
$LWDISPLAY
290
     0
  9
$INSUNITS
 70
     0
  9
$HYPERLINKBASE
  1

  9
$STYLESHEET
  1
monochrome1.ctb
  9
$XEDIT
290
     1
  9
$CEPSNTYPE
380
     0
  9
$PSTYLEMODE
290
     1
  9
$FINGERPRINTGUID
  2
{410ACD98-00D8-4A42-B5B3-CD8CD2E2FBD2}
  9
$VERSIONGUID
  2
{8799D66A-73B6-4252-8428-6F330D1EBAEB}
  9
$EXTNAMES
290
     1
  9
$PSVPSCALE
 40
0.0
  9
$OLESTARTUP
290
     0
  9
$SORTENTS
280
   127
  9
$INDEXCTL
280
     0
  9
$HIDETEXT
280
     0
  9
$XCLIPFRAME
290
     0
  9
$HALOGAP
280
     0
  9
$OBSCOLOR
 70
   257
  9
$OBSLTYPE
280
     0
  9
$INTERSECTIONDISPLAY
280
     0
  9
$INTERSECTIONCOLOR
 70
   257
  9
$DIMASSOC
280
     1
  9
$PROJECTNAME
  1

  0
ENDSEC
  0
SECTION
  2
CLASSES
  0
CLASS
  1
DICTIONARYVAR
  2
AcDbDictionaryVar
  3
ObjectDBX Classes
 90
        0
 91
        3
280
     0
281
     0
  0
CLASS
  1
ACDBDICTIONARYWDFLT
  2
AcDbDictionaryWithDefault
  3
ObjectDBX Classes
 90
        0
 91
        1
280
     0
281
     0
  0
ENDSEC
  0
SECTION
  2
TABLES
  0
TABLE
  2
VPORT
  5
434
330
0
100
AcDbSymbolTable
 70
     2
  0
VPORT
  5
74E
330
434
100
AcDbSymbolTableRecord
100
AcDbViewportTableRecord
  2
*Active
 70
     0
 10
0.0
 20
0.0
 11
1.0
 21
1.0
 12
210.0000066011594
 22
297.0000093359246
 13
0.0
 23
0.0
 14
1.0
 24
1.0
 15
20.0
 25
20.0
 16
0.0
 26
0.0
 36
1.0
 17
0.0
 27
0.0
 37
0.0
 40
598.9083360880806
 41
1.336927223719676
 42
50.0
 43
0.0
 44
0.0
 50
0.0
 51
0.0
 71
     0
 72
  1500
 73
     1
 74
     0
 75
     0
 76
     0
 77
     0
 78
     0
281
     0
 65
     1
110
0.0
120
0.0
130
0.0
111
1.0
121
0.0
131
0.0
112
0.0
122
1.0
132
0.0
 79
     0
146
0.0
  0
ENDTAB
  0
TABLE
  2
LTYPE
  5
431
330
0
100
AcDbSymbolTable
 70
     3
  0
LTYPE
  5
43D
330
431
100
AcDbSymbolTableRecord
100
AcDbLinetypeTableRecord
  2
BYBLOCK
 70
     0
  3

 72
    65
 73
     0
 40
0.0
  0
LTYPE
  5
43E
330
431
100
AcDbSymbolTableRecord
100
AcDbLinetypeTableRecord
  2
BYLAYER
 70
     0
  3

 72
    65
 73
     0
 40
0.0
  0
LTYPE
  5
43F
330
431
100
AcDbSymbolTableRecord
100
AcDbLinetypeTableRecord
  2
AUSGEZOGEN
 70
     0
  3
Ausgezogene Linie
 72
    65
 73
     0
 40
0.0
  0
LTYPE
  5
451
330
431
100
AcDbSymbolTableRecord
100
AcDbLinetypeTableRecord
  2
STRICHPUNKT
 70
     0
  3
__ . __ . __ . __ . __ . __ . __ . __ . __ . __
 72
    65
 73
     4
 40
1.0
 49
0.5
 74
     0
 49
-0.25
 74
     0
 49
0.0
 74
     0
 49
-0.25
 74
     0
  0
LTYPE
  5
452
330
431
100
AcDbSymbolTableRecord
100
AcDbLinetypeTableRecord
  2
CONTINUOUS
 70
     0
  3
Solid line
 72
    65
 73
     0
 40
0.0
  0
ENDTAB
  0
TABLE
  2
LAYER
  5
42E
330
0
100
AcDbSymbolTable
 70
     9
  0
LAYER
  5
43A
330
42E
100
AcDbSymbolTableRecord
100
AcDbLayerTableRecord
  2
0
 70
     0
 62
     7
  6
AUSGEZOGEN
370
    -3
390
492
  0
LAYER
  5
456
330
42E
100
AcDbSymbolTableRecord
100
AcDbLayerTableRecord
  2
VOLL
 70
     0
 62
     1
  6
AUSGEZOGEN
370
    -3
390
492
  0
LAYER
  5
457
330
42E
100
AcDbSymbolTableRecord
100
AcDbLayerTableRecord
  2
MITTEL
 70
     0
 62
     2
  6
STRICHPUNKT
370
    -3
390
492
  0
LAYER
  5
458
330
42E
100
AcDbSymbolTableRecord
100
AcDbLayerTableRecord
  2
BEM
 70
     0
 62
     7
  6
AUSGEZOGEN
370
    -3
390
492
  0
LAYER
  5
459
330
42E
100
AcDbSymbolTableRecord
100
AcDbLayerTableRecord
  2
STEMPEL
 70
     0
 62
     3
  6
AUSGEZOGEN
370
    -3
390
492
  0
LAYER
  5
45A
330
42E
100
AcDbSymbolTableRecord
100
AcDbLayerTableRecord
  2
TEXT
 70
     0
 62
     7
  6
AUSGEZOGEN
370
    -3
390
492
  0
LAYER
  5
45B
330
42E
100
AcDbSymbolTableRecord
100
AcDbLayerTableRecord
  2
DEFPOINTS
 70
     0
 62
     7
  6
AUSGEZOGEN
290
     0
370
    -3
390
492
  0
LAYER
  5
45C
330
42E
100
AcDbSymbolTableRecord
100
AcDbLayerTableRecord
  2
SCHRAFF
 70
     0
 62
     7
  6
AUSGEZOGEN
370
    -3
390
492
  0
LAYER
  5
45D
330
42E
100
AcDbSymbolTableRecord
100
AcDbLayerTableRecord
  2
HILF
 70
     0
 62
     2
  6
AUSGEZOGEN
370
    -3
390
492
  0
ENDTAB
  0
TABLE
  2
STYLE
  5
42F
330
0
100
AcDbSymbolTable
 70
     2
  0
STYLE
  5
43B
330
42F
100
AcDbSymbolTableRecord
100
AcDbTextStyleTableRecord
  2
STANDARD
 70
     0
 40
0.0
 41
0.8
 50
0.0
 71
     0
 42
3.5
  3
simplex.shx
  4

  0
STYLE
  5
450
330
42F
100
AcDbSymbolTableRecord
100
AcDbTextStyleTableRecord
  2
GREEKS
 70
     0
 40
0.0
 41
0.8
 50
0.0
 71
     0
 42
2.5
  3
SIMPLEX.shx
  4

  0
ENDTAB
  0
TABLE
  2
VIEW
  5
432
330
0
100
AcDbSymbolTable
 70
     0
  0
ENDTAB
  0
TABLE
  2
UCS
  5
433
330
0
100
AcDbSymbolTable
 70
     0
  0
ENDTAB
  0
TABLE
  2
APPID
  5
435
330
0
100
AcDbSymbolTable
 70
     2
  0
APPID
  5
43C
330
435
100
AcDbSymbolTableRecord
100
AcDbRegAppTableRecord
  2
ACAD
 70
     0
  0
APPID
  5
454
330
435
100
AcDbSymbolTableRecord
100
AcDbRegAppTableRecord
  2
RAK
 70
     0
  0
ENDTAB
  0
TABLE
  2
DIMSTYLE
  5
436
330
0
100
AcDbSymbolTable
 70
     1
100
AcDbDimStyleTable
 71
     1
340
455
  0
DIMSTYLE
105
455
102
{ACAD_REACTORS
330
194
330
193
330
192
330
191
330
626
330
6E7
102
}
330
436
100
AcDbSymbolTableRecord
100
AcDbDimStyleTableRecord
  2
STANDARD
 70
     0
271
     2
272
     2
279
     2
284
     8
285
     8
286
     8
340
43B
  0
ENDTAB
  0
TABLE
  2
BLOCK_RECORD
  5
42D
330
0
100
AcDbSymbolTable
 70
     7
  0
BLOCK_RECORD
  5
443
330
42D
100
AcDbSymbolTableRecord
100
AcDbBlockTableRecord
  2
*MODEL_SPACE
340
497
  0
BLOCK_RECORD
  5
440
330
42D
100
AcDbSymbolTableRecord
100
AcDbBlockTableRecord
  2
*PAPER_SPACE
340
498
  0
BLOCK_RECORD
  5
44E
330
42D
100
AcDbSymbolTableRecord
100
AcDbBlockTableRecord
  2
LOGO
340
0
102
{BLKREFS
331
3A0
102
}
  0
BLOCK_RECORD
  5
468
330
42D
100
AcDbSymbolTableRecord
100
AcDbBlockTableRecord
  2
*D1
340
0
  0
BLOCK_RECORD
  5
4B8
330
42D
100
AcDbSymbolTableRecord
100
AcDbBlockTableRecord
  2
*D2
340
0
  0
BLOCK_RECORD
  5
4C4
330
42D
100
AcDbSymbolTableRecord
100
AcDbBlockTableRecord
  2
*D3
340
0
  0
BLOCK_RECORD
  5
4D0
330
42D
100
AcDbSymbolTableRecord
100
AcDbBlockTableRecord
  2
*D4
340
0
  0
BLOCK_RECORD
  5
627
330
42D
100
AcDbSymbolTableRecord
100
AcDbBlockTableRecord
  2
*D5
340
0
  0
BLOCK_RECORD
  5
6E8
330
42D
100
AcDbSymbolTableRecord
100
AcDbBlockTableRecord
  2
*D6
340
0
  0
ENDTAB
  0
ENDSEC
  0
SECTION
  2
BLOCKS
  0
BLOCK
  5
462
330
443
100
AcDbEntity
  8
0
100
AcDbBlockBegin
  2
*MODEL_SPACE
 70
     0
 10
0.0
 20
0.0
 30
0.0
  3
*MODEL_SPACE
  1

  0
ENDBLK
  5
463
330
443
100
AcDbEntity
  8
0
100
AcDbBlockEnd
  0
BLOCK
  5
460
330
440
100
AcDbEntity
 67
     1
  8
0
100
AcDbBlockBegin
  2
*PAPER_SPACE
 70
     0
 10
0.0
 20
0.0
 30
0.0
  3
*PAPER_SPACE
  1

  0
ENDBLK
  5
461
330
440
100
AcDbEntity
 67
     1
  8
0
100
AcDbBlockEnd
  0
BLOCK
  5
30E
330
44E
100
AcDbEntity
  8
0
100
AcDbBlockBegin
  2
LOGO
 70
     0
 10
0.0
 20
0.0
 30
0.0
  3
LOGO
  1

  0
ARC
  5
2F4
330
44E
100
AcDbEntity
  8
0
100
AcDbCircle
 10
11.59973089678112
 20
-9.271599258481501
 30
0.0
 40
4.5
100
AcDbArc
 50
270.0
 51
231.0575587310159
  0
LINE
  5
2F5
330
44E
100
AcDbEntity
  8
0
100
AcDbLine
 10
3.599730896781125
 20
-4.771599258481529
 30
0.0
 11
3.599730896781153
 21
-11.77159925848133
 31
0.0
  0
LINE
  5
2F6
330
44E
100
AcDbEntity
  8
0
100
AcDbLine
 10
2.599730896781125
 20
-4.771599258481529
 30
0.0
 11
2.599730896781153
 21
-11.77159925848133
 31
0.0
  0
CIRCLE
  5
2F7
330
44E
100
AcDbEntity
  8
0
100
AcDbCircle
 10
11.59973089678112
 20
-9.271599258481501
 30
0.0
 40
3.5
  0
ARC
  5
2F8
330
44E
100
AcDbEntity
  8
0
100
AcDbCircle
 10
31.59973089678115
 20
-9.271599258481472
 30
0.0
 40
4.5
100
AcDbArc
 50
270.0
 51
231.0575587310182
  0
LINE
  5
2F9
330
44E
100
AcDbEntity
  8
0
100
AcDbLine
 10
17.59973089678112
 20
-4.771599258481472
 30
0.0
 11
17.59973089678115
 21
-13.77159925848147
 31
0.0
  0
ARC
  5
2FA
330
44E
100
AcDbEntity
  8
0
100
AcDbCircle
 10
22.59973089678116
 20
-7.271599258481472
 30
0.0
 40
2.5
100
AcDbArc
 50
293.1161887722295
 51
90.0
  0
CIRCLE
  5
2FB
330
44E
100
AcDbEntity
  8
0
100
AcDbCircle
 10
31.59973089678115
 20
-9.271599258481472
 30
0.0
 40
3.5
  0
ARC
  5
2FC
330
44E
100
AcDbEntity
  8
0
100
AcDbCircle
 10
4.599730896781153
 20
-11.77159925848133
 30
0.0
 40
1.0
100
AcDbArc
 50
180.0
 51
270.0
  0
ARC
  5
2FD
330
44E
100
AcDbEntity
  8
0
100
AcDbCircle
 10
4.599730896781153
 20
-11.77159925848133
 30
0.0
 40
2.0
100
AcDbArc
 50
179.9999999999992
 51
270.0
  0
LINE
  5
2FE
330
44E
100
AcDbEntity
  8
0
100
AcDbLine
 10
11.59973089678115
 20
-13.77159925848144
 30
0.0
 11
4.599730896781153
 21
-13.77159925848147
 31
0.0
  0
LINE
  5
2FF
330
44E
100
AcDbEntity
  8
0
100
AcDbLine
 10
8.771303772034769
 20
-12.77159925848136
 30
0.0
 11
4.599730896781153
 21
-12.77159925848133
 31
0.0
  0
LINE
  5
300
330
44E
100
AcDbEntity
  8
0
100
AcDbLine
 10
31.59973089678115
 20
-13.77159925848147
 30
0.0
 11
23.6715276665056
 21
-13.77159925848144
 31
0.0
  0
LINE
  5
301
330
44E
100
AcDbEntity
  8
0
100
AcDbLine
 10
23.56565672307022
 20
-9.51278021337896
 30
0.0
 11
24.4388546544846
 21
-12.77159925848144
 31
0.0
  0
LINE
  5
302
330
44E
100
AcDbEntity
  8
0
100
AcDbLine
 10
22.59973089678116
 20
-9.771599258481472
 30
0.0
 11
18.59973089678112
 21
-9.771599258481472
 31
0.0
  0
LINE
  5
303
330
44E
100
AcDbEntity
  8
0
100
AcDbLine
 10
18.59973089678115
 20
-13.77159925848144
 30
0.0
 11
17.59973089678115
 21
-13.77159925848144
 31
0.0
  0
LINE
  5
304
330
44E
100
AcDbEntity
  8
0
100
AcDbLine
 10
18.59973089678115
 20
-9.771599258481472
 30
0.0
 11
18.59973089678115
 21
-13.77159925848144
 31
0.0
  0
LINE
  5
305
330
44E
100
AcDbEntity
  8
0
100
AcDbLine
 10
22.59973089678116
 20
-9.771599258481472
 30
0.0
 11
23.67152766650562
 21
-13.77159925848147
 31
0.0
  0
ARC
  5
306
330
44E
100
AcDbEntity
  8
0
100
AcDbCircle
 10
22.59973089678116
 20
-7.271599258481472
 30
0.0
 40
2.5
100
AcDbArc
 50
270.0
 51
270.0000000000007
  0
LINE
  5
307
330
44E
100
AcDbEntity
  8
0
100
AcDbLine
 10
28.77130377203494
 20
-12.77159925848147
 30
0.0
 11
24.43885465448463
 21
-12.77159925848144
 31
0.0
  0
LINE
  5
308
330
44E
100
AcDbEntity
  8
0
100
AcDbLine
 10
3.599730896781125
 20
-4.771599258481472
 30
0.0
 11
2.599730896781125
 21
-4.771599258481472
 31
0.0
  0
LINE
  5
309
330
44E
100
AcDbEntity
  8
0
100
AcDbLine
 10
22.59973089678116
 20
-8.771599258481472
 30
0.0
 11
18.59973089678115
 21
-8.771599258481472
 31
0.0
  0
LINE
  5
30A
330
44E
100
AcDbEntity
  8
0
100
AcDbLine
 10
22.59973089678116
 20
-5.771599258481472
 30
0.0
 11
18.59973089678115
 21
-5.771599258481472
 31
0.0
  0
LINE
  5
30B
330
44E
100
AcDbEntity
  8
0
100
AcDbLine
 10
22.59973089678116
 20
-4.771599258481472
 30
0.0
 11
17.59973089678115
 21
-4.771599258481472
 31
0.0
  0
LINE
  5
30C
330
44E
100
AcDbEntity
  8
0
100
AcDbLine
 10
18.59973089678115
 20
-5.771599258481472
 30
0.0
 11
18.59973089678115
 21
-8.771599258481472
 31
0.0
  0
ARC
  5
30D
330
44E
100
AcDbEntity
  8
0
100
AcDbCircle
 10
22.59973089678116
 20
-7.271599258481472
 30
0.0
 40
1.5
100
AcDbArc
 50
270.0
 51
90.0
  0
ENDBLK
  5
30F
330
44E
100
AcDbEntity
  8
0
100
AcDbBlockEnd
  0
BLOCK
  5
477
330
468
100
AcDbEntity
  8
0
100
AcDbBlockBegin
  2
*D1
 70
     1
 10
0.0
 20
0.0
 30
0.0
  3
*D1
  1

  0
LINE
  5
671
330
468
100
AcDbEntity
  8
BEM
 62
     0
370
    -2
100
AcDbLine
 10
351.3696482058098
 20
546.656946849191
 30
0.0
 11
351.3696482058098
 21
558.9201897706695
 31
0.0
  0
LINE
  5
672
330
468
100
AcDbEntity
  8
BEM
 62
     0
370
    -2
100
AcDbLine
 10
367.3696482058098
 20
546.656946849191
 30
0.0
 11
367.3696482058098
 21
558.9201897706695
 31
0.0
  0
LINE
  5
673
330
468
100
AcDbEntity
  8
BEM
 62
     0
370
    -2
100
AcDbLine
 10
344.3696482058098
 20
556.9201897706696
 30
0.0
 11
337.3696482058098
 21
556.9201897706696
 31
0.0
  0
LINE
  5
674
330
468
100
AcDbEntity
  8
BEM
 62
     0
370
    -2
100
AcDbLine
 10
374.3696482058098
 20
556.9201897706696
 30
0.0
 11
381.3696482058098
 21
556.9201897706696
 31
0.0
  0
LINE
  5
675
330
468
100
AcDbEntity
  8
BEM
 62
     0
370
    -2
100
AcDbLine
 10
351.3696482058098
 20
556.9201897706696
 30
0.0
 11
367.3696482058098
 21
556.9201897706696
 31
0.0
  0
SOLID
  5
676
330
468
100
AcDbEntity
  8
BEM
 62
     0
100
AcDbTrace
 10
344.3696482058098
 20
558.0868564373361
 30
0.0
 11
344.3696482058098
 21
555.7535231040029
 31
0.0
 12
351.3696482058098
 22
556.9201897706696
 32
0.0
 13
351.3696482058098
 23
556.9201897706696
 33
0.0
  0
SOLID
  5
677
330
468
100
AcDbEntity
  8
BEM
 62
     0
100
AcDbTrace
 10
374.3696482058098
 20
558.0868564373361
 30
0.0
 11
374.3696482058098
 21
555.7535231040029
 31
0.0
 12
367.3696482058098
 22
556.9201897706696
 32
0.0
 13
367.3696482058098
 23
556.9201897706696
 33
0.0
  0
MTEXT
  5
678
330
468
100
AcDbEntity
  8
BEM
 62
     1
100
AcDbMText
 10
359.3696482058098
 20
563.4201897706695
 30
0.0
 40
7.0
 41
0.0
 71
     5
 72
     1
  1
\A1;%%c16
 73
     1
 44
1.0
  0
POINT
  5
679
330
468
100
AcDbEntity
  8
DEFPOINTS
 62
     0
100
AcDbPoint
 10
351.3696482058098
 20
544.656946849191
 30
0.0
  0
POINT
  5
67A
330
468
100
AcDbEntity
  8
DEFPOINTS
 62
     0
100
AcDbPoint
 10
367.3696482058098
 20
544.656946849191
 30
0.0
  0
POINT
  5
67B
330
468
100
AcDbEntity
  8
DEFPOINTS
 62
     0
100
AcDbPoint
 10
367.3696482058098
 20
556.9201897706696
 30
0.0
  0
ENDBLK
  5
484
330
468
100
AcDbEntity
  8
0
100
AcDbBlockEnd
  0
BLOCK
  5
4C2
330
4B8
100
AcDbEntity
  8
0
100
AcDbBlockBegin
  2
*D2
 70
     1
 10
0.0
 20
0.0
 30
0.0
  3
*D2
  1

  0
LINE
  5
635
330
4B8
100
AcDbEntity
  8
BEM
 62
     0
370
    -2
100
AcDbLine
 10
67.36964820580988
 20
540.656946849191
 30
0.0
 11
67.36964820580988
 21
489.247754124349
 31
0.0
  0
LINE
  5
636
330
4B8
100
AcDbEntity
  8
BEM
 62
     0
370
    -2
100
AcDbLine
 10
397.3696482058099
 20
540.656946849191
 30
0.0
 11
397.3696482058099
 21
489.247754124349
 31
0.0
  0
LINE
  5
637
330
4B8
100
AcDbEntity
  8
BEM
 62
     0
370
    -2
100
AcDbLine
 10
74.36964820580988
 20
491.247754124349
 30
0.0
 11
390.3696482058099
 21
491.247754124349
 31
0.0
  0
SOLID
  5
638
330
4B8
100
AcDbEntity
  8
BEM
 62
     0
100
AcDbTrace
 10
74.36964820580988
 20
492.4144207910156
 30
0.0
 11
74.36964820580988
 21
490.0810874576823
 31
0.0
 12
67.36964820580988
 22
491.247754124349
 32
0.0
 13
67.36964820580988
 23
491.247754124349
 33
0.0
  0
SOLID
  5
639
330
4B8
100
AcDbEntity
  8
BEM
 62
     0
100
AcDbTrace
 10
390.3696482058099
 20
492.4144207910156
 30
0.0
 11
390.3696482058099
 21
490.0810874576823
 31
0.0
 12
397.3696482058099
 22
491.247754124349
 32
0.0
 13
397.3696482058099
 23
491.247754124349
 33
0.0
  0
MTEXT
  5
63A
330
4B8
100
AcDbEntity
  8
BEM
 62
     1
100
AcDbMText
 10
232.3696482058099
 20
497.747754124349
 30
0.0
 40
7.0
 41
0.0
 71
     5
 72
     1
  1
\A1;%%c330
 73
     1
 44
1.0
  0
POINT
  5
63B
330
4B8
100
AcDbEntity
  8
DEFPOINTS
 62
     0
100
AcDbPoint
 10
67.36964820580988
 20
542.656946849191
 30
0.0
  0
POINT
  5
63C
330
4B8
100
AcDbEntity
  8
DEFPOINTS
 62
     0
100
AcDbPoint
 10
397.3696482058099
 20
542.656946849191
 30
0.0
  0
POINT
  5
63D
330
4B8
100
AcDbEntity
  8
DEFPOINTS
 62
     0
100
AcDbPoint
 10
397.3696482058099
 20
491.247754124349
 30
0.0
  0
ENDBLK
  5
4C3
330
4B8
100
AcDbEntity
  8
0
100
AcDbBlockEnd
  0
BLOCK
  5
4CE
330
4C4
100
AcDbEntity
  8
0
100
AcDbBlockBegin
  2
*D3
 70
     1
 10
0.0
 20
0.0
 30
0.0
  3
*D3
  1

  0
LINE
  5
63E
330
4C4
100
AcDbEntity
  8
BEM
 62
     0
370
    -2
100
AcDbLine
 10
105.3696482058098
 20
535.656946849191
 30
0.0
 11
105.3696482058098
 21
505.0188664687582
 31
0.0
  0
LINE
  5
63F
330
4C4
100
AcDbEntity
  8
BEM
 62
     0
370
    -2
100
AcDbLine
 10
359.3696482058099
 20
535.656946849191
 30
0.0
 11
359.3696482058099
 21
505.0188664687582
 31
0.0
  0
LINE
  5
640
330
4C4
100
AcDbEntity
  8
BEM
 62
     0
370
    -2
100
AcDbLine
 10
112.3696482058099
 20
507.0188664687582
 30
0.0
 11
352.3696482058099
 21
507.0188664687582
 31
0.0
  0
SOLID
  5
641
330
4C4
100
AcDbEntity
  8
BEM
 62
     0
100
AcDbTrace
 10
112.3696482058099
 20
508.1855331354248
 30
0.0
 11
112.3696482058099
 21
505.8521998020915
 31
0.0
 12
105.3696482058098
 22
507.0188664687582
 32
0.0
 13
105.3696482058098
 23
507.0188664687582
 33
0.0
  0
SOLID
  5
642
330
4C4
100
AcDbEntity
  8
BEM
 62
     0
100
AcDbTrace
 10
352.3696482058099
 20
508.1855331354248
 30
0.0
 11
352.3696482058099
 21
505.8521998020915
 31
0.0
 12
359.3696482058099
 22
507.0188664687582
 32
0.0
 13
359.3696482058099
 23
507.0188664687582
 33
0.0
  0
MTEXT
  5
643
330
4C4
100
AcDbEntity
  8
BEM
 62
     1
100
AcDbMText
 10
232.3696482058099
 20
513.5188664687582
 30
0.0
 40
7.0
 41
0.0
 71
     5
 72
     1
  1
\A1;%%c254
 73
     1
 44
1.0
  0
POINT
  5
644
330
4C4
100
AcDbEntity
  8
DEFPOINTS
 62
     0
100
AcDbPoint
 10
105.3696482058098
 20
537.656946849191
 30
0.0
  0
POINT
  5
645
330
4C4
100
AcDbEntity
  8
DEFPOINTS
 62
     0
100
AcDbPoint
 10
359.3696482058099
 20
537.656946849191
 30
0.0
  0
POINT
  5
646
330
4C4
100
AcDbEntity
  8
DEFPOINTS
 62
     0
100
AcDbPoint
 10
359.3696482058099
 20
507.0188664687582
 30
0.0
  0
ENDBLK
  5
4CF
330
4C4
100
AcDbEntity
  8
0
100
AcDbBlockEnd
  0
BLOCK
  5
4DA
330
4D0
100
AcDbEntity
  8
0
100
AcDbBlockBegin
  2
*D4
 70
     1
 10
0.0
 20
0.0
 30
0.0
  3
*D4
  1

  0
LINE
  5
647
330
4D0
100
AcDbEntity
  8
BEM
 62
     0
370
    -2
100
AcDbLine
 10
137.3696482058099
 20
540.656946849191
 30
0.0
 11
137.3696482058099
 21
520.7899805770335
 31
0.0
  0
LINE
  5
648
330
4D0
100
AcDbEntity
  8
BEM
 62
     0
370
    -2
100
AcDbLine
 10
327.3696482058099
 20
540.656946849191
 30
0.0
 11
327.3696482058099
 21
520.7899805770335
 31
0.0
  0
LINE
  5
649
330
4D0
100
AcDbEntity
  8
BEM
 62
     0
370
    -2
100
AcDbLine
 10
144.3696482058099
 20
522.7899805770334
 30
0.0
 11
320.3696482058099
 21
522.7899805770334
 31
0.0
  0
SOLID
  5
64A
330
4D0
100
AcDbEntity
  8
BEM
 62
     0
100
AcDbTrace
 10
144.3696482058099
 20
523.9566472437001
 30
0.0
 11
144.3696482058099
 21
521.6233139103668
 31
0.0
 12
137.3696482058099
 22
522.7899805770334
 32
0.0
 13
137.3696482058099
 23
522.7899805770334
 33
0.0
  0
SOLID
  5
64B
330
4D0
100
AcDbEntity
  8
BEM
 62
     0
100
AcDbTrace
 10
320.3696482058099
 20
523.9566472437001
 30
0.0
 11
320.3696482058099
 21
521.6233139103668
 31
0.0
 12
327.3696482058099
 22
522.7899805770334
 32
0.0
 13
327.3696482058099
 23
522.7899805770334
 33
0.0
  0
MTEXT
  5
64C
330
4D0
100
AcDbEntity
  8
BEM
 62
     1
100
AcDbMText
 10
232.3696482058099
 20
529.2899805770335
 30
0.0
 40
7.0
 41
0.0
 71
     5
 72
     1
  1
\A1;%%c190
 73
     1
 44
1.0
  0
POINT
  5
64D
330
4D0
100
AcDbEntity
  8
DEFPOINTS
 62
     0
100
AcDbPoint
 10
137.3696482058099
 20
542.656946849191
 30
0.0
  0
POINT
  5
64E
330
4D0
100
AcDbEntity
  8
DEFPOINTS
 62
     0
100
AcDbPoint
 10
327.3696482058099
 20
542.656946849191
 30
0.0
  0
POINT
  5
64F
330
4D0
100
AcDbEntity
  8
DEFPOINTS
 62
     0
100
AcDbPoint
 10
327.3696482058099
 20
522.7899805770334
 30
0.0
  0
ENDBLK
  5
4DB
330
4D0
100
AcDbEntity
  8
0
100
AcDbBlockEnd
  0
BLOCK
  5
633
330
627
100
AcDbEntity
  8
0
100
AcDbBlockBegin
  2
*D5
 70
     1
 10
0.0
 20
0.0
 30
0.0
  3
*D5
  1

  0
LINE
  5
65B
330
627
100
AcDbEntity
  8
BEM
 62
     0
370
    -2
100
AcDbLine
 10
65.36964820580988
 20
542.656946849191
 30
0.0
 11
55.2177399919833
 21
542.656946849191
 31
0.0
  0
LINE
  5
65C
330
627
100
AcDbEntity
  8
BEM
 62
     0
370
    -2
100
AcDbLine
 10
65.36964820580988
 20
544.656946849191
 30
0.0
 11
55.2177399919833
 21
544.656946849191
 31
0.0
  0
LINE
  5
65D
330
627
100
AcDbEntity
  8
BEM
 62
     0
370
    -2
100
AcDbLine
 10
57.2177399919833
 20
535.656946849191
 30
0.0
 11
57.2177399919833
 21
528.6569468491911
 31
0.0
  0
LINE
  5
65E
330
627
100
AcDbEntity
  8
BEM
 62
     0
370
    -2
100
AcDbLine
 10
57.2177399919833
 20
551.656946849191
 30
0.0
 11
57.21773999198331
 21
568.3902801825244
 31
0.0
  0
LINE
  5
65F
330
627
100
AcDbEntity
  8
BEM
 62
     0
370
    -2
100
AcDbLine
 10
57.2177399919833
 20
542.656946849191
 30
0.0
 11
57.2177399919833
 21
544.656946849191
 31
0.0
  0
SOLID
  5
660
330
627
100
AcDbEntity
  8
BEM
 62
     0
100
AcDbTrace
 10
56.05107332531664
 20
535.656946849191
 30
0.0
 11
58.38440665864997
 21
535.656946849191
 31
0.0
 12
57.2177399919833
 22
542.656946849191
 32
0.0
 13
57.2177399919833
 23
542.656946849191
 33
0.0
  0
SOLID
  5
661
330
627
100
AcDbEntity
  8
BEM
 62
     0
100
AcDbTrace
 10
56.05107332531664
 20
551.656946849191
 30
0.0
 11
58.38440665864997
 21
551.656946849191
 31
0.0
 12
57.2177399919833
 22
544.656946849191
 32
0.0
 13
57.2177399919833
 23
544.656946849191
 33
0.0
  0
MTEXT
  5
662
330
627
100
AcDbEntity
  8
BEM
 62
     1
100
AcDbMText
 10
50.71773999198322
 20
563.5236135158577
 30
0.0
 40
7.0
 41
0.0
 71
     5
 72
     1
  1
\A1;2
 11
0.0000000000000001
 21
1.0
 31
0.0
 73
     1
 44
1.0
  0
POINT
  5
663
330
627
100
AcDbEntity
  8
DEFPOINTS
 62
     0
100
AcDbPoint
 10
67.36964820580988
 20
542.656946849191
 30
0.0
  0
POINT
  5
664
330
627
100
AcDbEntity
  8
DEFPOINTS
 62
     0
100
AcDbPoint
 10
67.36964820580988
 20
544.656946849191
 30
0.0
  0
POINT
  5
665
330
627
100
AcDbEntity
  8
DEFPOINTS
 62
     0
100
AcDbPoint
 10
57.2177399919833
 20
544.656946849191
 30
0.0
  0
ENDBLK
  5
634
330
627
100
AcDbEntity
  8
0
100
AcDbBlockEnd
  0
BLOCK
  5
6F4
330
6E8
100
AcDbEntity
  8
0
100
AcDbBlockBegin
  2
*D6
 70
     1
 10
0.0
 20
0.0
 30
0.0
  3
*D6
  1

  0
LINE
  5
6E9
330
6E8
100
AcDbEntity
  8
BEM
 62
     0
370
    -2
100
AcDbLine
 10
60.3696482058099
 20
309.8794091916469
 30
0.0
 11
46.56857179382164
 21
309.879409191647
 31
0.0
  0
LINE
  5
6EA
330
6E8
100
AcDbEntity
  8
BEM
 62
     0
370
    -2
100
AcDbLine
 10
131.96048527732
 20
209.4702462631571
 30
0.0
 11
100.9884471231331
 21
178.4982081089701
 31
0.0
  0
ARC
  5
6EB
330
6E8
100
AcDbEntity
  8
BEM
 62
     0
370
    -2
100
AcDbCircle
 10
232.3696482058098
 20
309.8794091916469
 30
0.0
 40
183.8010764119881
100
AcDbArc
 50
182.1822217099171
 51
222.8177782900829
  0
SOLID
  5
6EC
330
6E8
100
AcDbEntity
  8
BEM
 62
     0
100
AcDbTrace
 10
47.53541295031976
 20
302.8584623954374
 30
0.0
 11
49.86832320009049
 21
302.9028944892319
 31
0.0
 12
48.56857179382163
 22
309.879409191647
 32
0.0
 13
48.56857179382163
 23
309.879409191647
 33
0.0
  0
SOLID
  5
6ED
330
6E8
100
AcDbEntity
  8
BEM
 62
     0
100
AcDbTrace
 10
98.38858286361038
 20
185.764625559698
 30
0.0
 11
96.70754797127351
 21
184.1464271370099
 31
0.0
 12
102.4026606855062
 22
179.9124216713433
 32
0.0
 13
102.4026606855062
 23
179.9124216713433
 33
0.0
  0
MTEXT
  5
6EE
330
6E8
100
AcDbEntity
  8
BEM
 62
     1
100
AcDbMText
 10
68.56481261655424
 20
242.0292247082822
 30
0.0
 40
7.0
 41
0.0
 71
     5
 72
     1
  1
\A1;45°
 11
0.3826834323650903
 21
-0.9238795325112867
 31
0.0
 73
     1
 44
1.0
  0
POINT
  5
6EF
330
6E8
100
AcDbEntity
  8
DEFPOINTS
 62
     0
100
AcDbPoint
 10
54.83144159973997
 20
262.3081901058807
 30
0.0
  0
POINT
  5
6F0
330
6E8
100
AcDbEntity
  8
DEFPOINTS
 62
     0
100
AcDbPoint
 10
62.36964820580988
 20
309.8794091916469
 30
0.0
  0
POINT
  5
6F1
330
6E8
100
AcDbEntity
  8
DEFPOINTS
 62
     0
100
AcDbPoint
 10
133.3746988396931
 20
210.8844598255302
 30
0.0
  0
POINT
  5
6F2
330
6E8
100
AcDbEntity
  8
DEFPOINTS
 62
     0
100
AcDbPoint
 10
151.7594751505434
 20
229.2692361363805
 30
0.0
  0
POINT
  5
6F3
330
6E8
100
AcDbEntity
  8
DEFPOINTS
 62
     0
100
AcDbPoint
 10
402.3696482058099
 20
309.879409191647
 30
0.0
  0
ENDBLK
  5
6F5
330
6E8
100
AcDbEntity
  8
0
100
AcDbBlockEnd
  0
ENDSEC
  0
SECTION
  2
ENTITIES
  0
TEXT
  5
16A
330
443
100
AcDbEntity
  8
VOLL
100
AcDbText
 10
78.07675471698113
 20
31.02594776470585
 30
0.0
 40
1.8
  1

  7
GREEKS
100
AcDbText
  0
LINE
  5
177
330
443
100
AcDbEntity
  8
MITTEL
100
AcDbLine
 10
232.3696482058098
 20
549.6569468491911
 30
0.0
 11
232.3696482058098
 21
537.656946849191
 31
0.0
  0
LINE
  5
178
102
{ACAD_REACTORS
330
691
102
}
330
443
100
AcDbEntity
  8
STEMPEL
100
AcDbLine
 10
67.36964820580988
 20
544.656946849191
 30
0.0
 11
397.3696482058099
 21
544.656946849191
 31
0.0
  0
LINE
  5
179
330
443
100
AcDbEntity
  8
MITTEL
100
AcDbLine
 10
62.36964820580988
 20
309.8794091916469
 30
0.0
 11
402.3696482058098
 21
309.8794091916469
 31
0.0
  0
LINE
  5
17A
102
{ACAD_REACTORS
330
691
102
}
330
443
100
AcDbEntity
  8
STEMPEL
100
AcDbLine
 10
67.36964820580988
 20
542.656946849191
 30
0.0
 11
67.36964820580988
 21
544.656946849191
 31
0.0
  0
LINE
  5
17B
330
443
100
AcDbEntity
  8
MITTEL
100
AcDbLine
 10
105.3696482058098
 20
537.656946849191
 30
0.0
 11
105.3696482058098
 21
549.6569468491911
 31
0.0
  0
LINE
  5
17C
102
{ACAD_REACTORS
330
691
102
}
330
443
100
AcDbEntity
  8
STEMPEL
100
AcDbLine
 10
137.3696482058099
 20
542.656946849191
 30
0.0
 11
137.3696482058099
 21
544.656946849191
 31
0.0
  0
LINE
  5
17D
102
{ACAD_REACTORS
330
691
102
}
330
443
100
AcDbEntity
  8
STEMPEL
100
AcDbLine
 10
327.3696482058099
 20
542.656946849191
 30
0.0
 11
327.3696482058099
 21
544.656946849191
 31
0.0
  0
LINE
  5
17E
330
443
100
AcDbEntity
  8
MITTEL
100
AcDbLine
 10
359.3696482058099
 20
537.656946849191
 30
0.0
 11
359.3696482058098
 21
549.6569468491911
 31
0.0
  0
LINE
  5
17F
102
{ACAD_REACTORS
330
691
102
}
330
443
100
AcDbEntity
  8
STEMPEL
100
AcDbLine
 10
397.3696482058099
 20
542.656946849191
 30
0.0
 11
397.3696482058099
 21
544.656946849191
 31
0.0
  0
LINE
  5
180
102
{ACAD_REACTORS
330
691
102
}
330
443
100
AcDbEntity
  8
STEMPEL
100
AcDbLine
 10
67.36964820580988
 20
542.656946849191
 30
0.0
 11
397.3696482058099
 21
542.656946849191
 31
0.0
  0
LINE
  5
181
330
443
100
AcDbEntity
  8
MITTEL
100
AcDbLine
 10
232.3696482058099
 20
479.8794091916469
 30
0.0
 11
232.3696482058099
 21
139.8794091916469
 31
0.0
  0
LINE
  5
18F
102
{ACAD_REACTORS
330
691
102
}
330
443
100
AcDbEntity
  8
STEMPEL
100
AcDbLine
 10
367.3696482058098
 20
542.6569468491909
 30
0.0
 11
367.3696482058098
 21
544.6569468491909
 31
0.0
  0
LINE
  5
190
102
{ACAD_REACTORS
330
691
102
}
330
443
100
AcDbEntity
  8
STEMPEL
100
AcDbLine
 10
351.3696482058098
 20
542.6569468491909
 30
0.0
 11
351.3696482058098
 21
544.6569468491909
 31
0.0
  0
DIMENSION
  5
191
330
443
100
AcDbEntity
  8
BEM
100
AcDbDimension
  2
*D4
 10
327.3696482058099
 20
522.7899805770334
 30
0.0
 11
232.3696482058099
 21
529.2899805770335
 31
0.0
 70
    32
  1
%%c<>
 71
     5
 42
190.0
  3
STANDARD
100
AcDbAlignedDimension
 13
137.3696482058099
 23
542.656946849191
 33
0.0
 14
327.3696482058099
 24
542.656946849191
 34
0.0
100
AcDbRotatedDimension
1001
ACAD
1000
DSTYLE
1002
{
1070
    40
1040
2.0
1070
    41
1040
3.5
1070
    42
1040
1.0
1070
    43
1040
8.0
1070
    44
1040
1.0
1070
    73
1070
     0
1070
    74
1070
     0
1070
    77
1070
     1
1070
    78
1070
     8
1070
    79
1070
     2
1070
   140
1040
3.5
1070
   141
1040
1.5
1070
   146
1040
0.5
1070
   147
1040
1.5
1070
   172
1070
     1
1070
   178
1070
     1
1070
   179
1070
     2
1070
   279
1070
     0
1002
}
  0
DIMENSION
  5
192
330
443
100
AcDbEntity
  8
BEM
100
AcDbDimension
  2
*D3
 10
359.3696482058099
 20
507.0188664687582
 30
0.0
 11
232.3696482058099
 21
513.5188664687582
 31
0.0
 70
    32
  1
%%c<>
 71
     5
 42
254.0
  3
STANDARD
100
AcDbAlignedDimension
 13
105.3696482058098
 23
537.656946849191
 33
0.0
 14
359.3696482058099
 24
537.656946849191
 34
0.0
100
AcDbRotatedDimension
1001
ACAD
1000
DSTYLE
1002
{
1070
    40
1040
2.0
1070
    41
1040
3.5
1070
    42
1040
1.0
1070
    43
1040
8.0
1070
    44
1040
1.0
1070
    73
1070
     0
1070
    74
1070
     0
1070
    77
1070
     1
1070
    78
1070
     8
1070
    79
1070
     2
1070
   140
1040
3.5
1070
   141
1040
1.5
1070
   146
1040
0.5
1070
   147
1040
1.5
1070
   172
1070
     1
1070
   178
1070
     1
1070
   179
1070
     2
1070
   279
1070
     0
1002
}
  0
DIMENSION
  5
193
330
443
100
AcDbEntity
  8
BEM
100
AcDbDimension
  2
*D2
 10
397.3696482058099
 20
491.247754124349
 30
0.0
 11
232.3696482058099
 21
497.747754124349
 31
0.0
 70
    32
  1
%%c<>
 71
     5
 42
330.0
  3
STANDARD
100
AcDbAlignedDimension
 13
67.36964820580988
 23
542.656946849191
 33
0.0
 14
397.3696482058099
 24
542.656946849191
 34
0.0
100
AcDbRotatedDimension
1001
ACAD
1000
DSTYLE
1002
{
1070
    40
1040
2.0
1070
    41
1040
3.5
1070
    42
1040
1.0
1070
    43
1040
8.0
1070
    44
1040
1.0
1070
    73
1070
     0
1070
    74
1070
     0
1070
    77
1070
     1
1070
    78
1070
     8
1070
    79
1070
     2
1070
   140
1040
3.5
1070
   141
1040
1.5
1070
   146
1040
0.5
1070
   147
1040
1.5
1070
   172
1070
     1
1070
   178
1070
     1
1070
   179
1070
     2
1070
   279
1070
     0
1002
}
  0
DIMENSION
  5
194
330
443
100
AcDbEntity
  8
BEM
100
AcDbDimension
  2
*D1
 10
367.3696482058098
 20
556.9201897706696
 30
0.0
 11
359.3696482058098
 21
556.9201897706696
 31
0.0
 70
   160
  1
%%c<>
 71
     5
 42
16.0
  3
STANDARD
100
AcDbAlignedDimension
 13
351.3696482058098
 23
544.656946849191
 33
0.0
 14
367.3696482058098
 24
544.656946849191
 34
0.0
100
AcDbRotatedDimension
1001
ACAD
1000
DSTYLE
1002
{
1070
    40
1040
2.0
1070
    41
1040
3.5
1070
    42
1040
1.0
1070
    43
1040
8.0
1070
    44
1040
1.0
1070
    73
1070
     0
1070
    74
1070
     0
1070
    77
1070
     1
1070
    78
1070
     8
1070
    79
1070
     2
1070
   140
1040
3.5
1070
   141
1040
1.5
1070
   146
1040
0.5
1070
   147
1040
1.5
1070
   172
1070
     1
1070
   178
1070
     1
1070
   179
1070
     2
1070
   279
1070
     0
1002
}
  0
TEXT
  5
196
330
443
100
AcDbEntity
  8
TEXT
 62
     1
100
AcDbText
 10
160.1302603235925
 20
119.4909219987597
 30
0.0
 40
7.0
  1
Werkstoff: Semperit P9540
 41
0.8
  7
GREEKS
100
AcDbText
  0
LINE
  5
20D
102
{ACAD_REACTORS
330
691
102
}
330
443
100
AcDbEntity
  8
STEMPEL
100
AcDbLine
 10
114.2824521852076
 20
542.6569468491909
 30
0.0
 11
114.2824521852076
 21
544.6569468491909
 31
0.0
  0
LINE
  5
20E
102
{ACAD_REACTORS
330
691
102
}
330
443
100
AcDbEntity
  8
STEMPEL
100
AcDbLine
 10
96.36964820580988
 20
542.6569468491909
 30
0.0
 11
96.36964820580988
 21
544.6569468491909
 31
0.0
  0
LINE
  5
364
330
443
100
AcDbEntity
  8
STEMPEL
100
AcDbLine
 10
410.0
 20
110.0
 30
0.0
 11
39.99999999999997
 21
110.0
 31
0.0
  0
LINE
  5
365
330
443
100
AcDbEntity
  8
STEMPEL
100
AcDbLine
 10
136.0000000000001
 20
109.9999999999999
 30
0.0
 11
136.0
 21
9.999999999999971
 31
0.0
  0
LINE
  5
366
330
443
100
AcDbEntity
  8
STEMPEL
100
AcDbLine
 10
220.0
 20
110.0
 30
0.0
 11
220.0
 21
9.999999999999971
 31
0.0
  0
LINE
  5
367
330
443
100
AcDbEntity
  8
STEMPEL
100
AcDbLine
 10
332.0
 20
109.9999999999997
 30
0.0
 11
332.0
 21
40.0
 31
0.0
  0
LINE
  5
368
330
443
100
AcDbEntity
  8
STEMPEL
100
AcDbLine
 10
135.9999999999999
 20
29.99999999999997
 30
0.0
 11
39.99999999999997
 21
29.99999999999997
 31
0.0
  0
LINE
  5
369
330
443
100
AcDbEntity
  8
STEMPEL
100
AcDbLine
 10
410.0
 20
40.0
 30
0.0
 11
136.0000000000001
 21
39.99999999999997
 31
0.0
  0
LINE
  5
36A
330
443
100
AcDbEntity
  8
STEMPEL
100
AcDbLine
 10
410.0
 20
80.0
 30
0.0
 11
136.0000000000001
 21
79.99999999999994
 31
0.0
  0
LINE
  5
36B
330
443
100
AcDbEntity
  8
VOLL
100
AcDbLine
 10
54.00000000000009
 20
110.0
 30
0.0
 11
53.99999999999997
 21
9.999999999999971
 31
0.0
  0
LINE
  5
36C
330
443
100
AcDbEntity
  8
VOLL
100
AcDbLine
 10
94.00000000000011
 20
109.9999999999999
 30
0.0
 11
94.0
 21
9.999999999999971
 31
0.0
  0
LINE
  5
36D
330
443
100
AcDbEntity
  8
VOLL
100
AcDbLine
 10
114.0000000000001
 20
109.9999999999999
 30
0.0
 11
114.0
 21
9.999999999999971
 31
0.0
  0
LINE
  5
36E
330
443
100
AcDbEntity
  8
VOLL
100
AcDbLine
 10
154.0000000000001
 20
79.99999999999994
 30
0.0
 11
154.0000000000001
 21
39.99999999999997
 31
0.0
  0
LINE
  5
36F
330
443
100
AcDbEntity
  8
VOLL
100
AcDbLine
 10
180.0000000000001
 20
109.9999999999998
 30
0.0
 11
180.0
 21
39.99999999999997
 31
0.0
  0
LINE
  5
370
330
443
100
AcDbEntity
  8
HILF
100
AcDbLine
 10
40.00000000000008
 20
100.0
 30
0.0
 11
136.0000000000001
 21
100.0
 31
0.0
  0
LINE
  5
371
330
443
100
AcDbEntity
  8
HILF
100
AcDbLine
 10
40.00000000000008
 20
90.00000000000005
 30
0.0
 11
136.0000000000001
 21
90.00000000000005
 31
0.0
  0
LINE
  5
372
330
443
100
AcDbEntity
  8
HILF
100
AcDbLine
 10
40.00000000000008
 20
79.99999999999994
 30
0.0
 11
136.0000000000001
 21
79.99999999999994
 31
0.0
  0
LINE
  5
373
330
443
100
AcDbEntity
  8
HILF
100
AcDbLine
 10
40.00000000000008
 20
69.99999999999994
 30
0.0
 11
136.0000000000001
 21
69.99999999999994
 31
0.0
  0
LINE
  5
374
330
443
100
AcDbEntity
  8
HILF
100
AcDbLine
 10
40.00000000000008
 20
59.99999999999997
 30
0.0
 11
136.0000000000001
 21
59.99999999999997
 31
0.0
  0
LINE
  5
375
330
443
100
AcDbEntity
  8
HILF
100
AcDbLine
 10
40.00000000000008
 20
49.99999999999997
 30
0.0
 11
136.0000000000001
 21
49.99999999999997
 31
0.0
  0
LINE
  5
376
330
443
100
AcDbEntity
  8
HILF
100
AcDbLine
 10
40.00000000000008
 20
39.99999999999997
 30
0.0
 11
136.0000000000001
 21
39.99999999999997
 31
0.0
  0
LINE
  5
377
330
443
100
AcDbEntity
  8
HILF
100
AcDbLine
 10
136.0000000000001
 20
69.99999999999994
 30
0.0
 11
220.0
 21
69.99999999999994
 31
0.0
  0
LINE
  5
378
330
443
100
AcDbEntity
  8
HILF
100
AcDbLine
 10
136.0000000000001
 20
59.99999999999997
 30
0.0
 11
220.0
 21
59.99999999999997
 31
0.0
  0
LINE
  5
379
330
443
100
AcDbEntity
  8
HILF
100
AcDbLine
 10
136.0000000000001
 20
49.99999999999997
 30
0.0
 11
220.0
 21
49.99999999999997
 31
0.0
  0
LINE
  5
37A
330
443
100
AcDbEntity
  8
HILF
100
AcDbLine
 10
224.7736801096948
 20
84.03758247564139
 30
0.0
 11
324.8353916556311
 21
84.03758247564139
 31
0.0
  0
LINE
  5
37B
330
443
100
AcDbEntity
  8
HILF
100
AcDbLine
 10
224.7736801096948
 20
69.99999999999994
 30
0.0
 11
324.835391655631
 21
69.99999999999994
 31
0.0
  0
LINE
  5
37C
330
443
100
AcDbEntity
  8
HILF
100
AcDbLine
 10
224.7736801096948
 20
59.99999999999997
 30
0.0
 11
324.835391655631
 21
59.99999999999997
 31
0.0
  0
LINE
  5
37D
330
443
100
AcDbEntity
  8
HILF
100
AcDbLine
 10
224.7736801096948
 20
49.99999999999997
 30
0.0
 11
324.835391655631
 21
49.99999999999997
 31
0.0
  0
LINE
  5
37E
330
443
100
AcDbEntity
  8
VOLL
100
AcDbLine
 10
332.0
 20
60.0
 30
0.0
 11
410.0
 21
60.0
 31
0.0
  0
LINE
  5
37F
330
443
100
AcDbEntity
  8
HILF
100
AcDbLine
 10
336.7238616296993
 20
83.77983636955827
 30
0.0
 11
404.8588839326728
 21
83.77983636955827
 31
0.0
  0
LINE
  5
380
330
443
100
AcDbEntity
  8
HILF
100
AcDbLine
 10
223.4909699289885
 20
14.89398258028314
 30
0.0
 11
404.8588839326728
 21
14.89398258028314
 31
0.0
  0
TEXT
  5
381
330
443
100
AcDbEntity
  8
TEXT
100
AcDbText
 10
63.25714285714285
 20
19.99999999999998
 30
0.0
 40
4.0
  1
Änderung
 41
0.8
 72
     1
 11
74.0
 21
19.99999999999998
 31
0.0
100
AcDbText
  0
TEXT
  5
382
330
443
100
AcDbEntity
  8
TEXT
100
AcDbText
 10
224.877940380901
 20
102.5489328011779
 30
0.0
 40
5.0
  1
Benennung
 41
0.8
100
AcDbText
  0
TEXT
  5
383
330
443
100
AcDbEntity
  8
TEXT
100
AcDbText
 10
336.178754957634
 20
102.3132034537136
 30
0.0
 40
5.0
  1
Zeichnungs Nr.
 41
0.8
100
AcDbText
  0
TEXT
  5
384
330
443
100
AcDbEntity
  8
TEXT
100
AcDbText
 10
224.742238391136
 20
30.84560570193057
 30
0.0
 40
5.0
  1
Bauvorhaben
 41
0.8
100
AcDbText
  0
TEXT
  5
385
330
443
100
AcDbEntity
  8
TEXT
100
AcDbText
 10
336.7238616296993
 20
73.1811823709997
 30
0.0
 40
5.0
  1
Ersatz für:
 41
0.8
100
AcDbText
  0
TEXT
  5
386
330
443
100
AcDbEntity
  8
TEXT
100
AcDbText
 10
48.26641107045756
 20
13.65465846027192
 30
0.0
 40
4.0
  1
Index
 50
90.0
 41
0.8
100
AcDbText
  0
TEXT
  5
387
330
443
100
AcDbEntity
  8
TEXT
100
AcDbText
 10
100.2666666666667
 20
19.99999999999998
 30
0.0
 40
4.0
  1
Tag
 41
0.8
 72
     1
 11
104.0
 21
19.99999999999998
 31
0.0
100
AcDbText
  0
TEXT
  5
388
330
443
100
AcDbEntity
  8
TEXT
100
AcDbText
 10
118.6761904761905
 20
19.99999999999998
 30
0.0
 40
4.0
  1
Name
 41
0.8
 72
     1
 11
125.0
 21
19.99999999999998
 31
0.0
100
AcDbText
  0
TEXT
  5
389
330
443
100
AcDbEntity
  8
TEXT
100
AcDbText
 10
137.5836127167615
 20
63.62990369617964
 30
0.0
 40
4.0
  1
Gez.
 41
0.8
100
AcDbText
  0
TEXT
  5
38A
330
443
100
AcDbEntity
  8
TEXT
100
AcDbText
 10
137.5515086571672
 20
53.68926291428377
 30
0.0
 40
4.0
  1
Gepr.
 41
0.8
100
AcDbText
  0
TEXT
  5
38B
330
443
100
AcDbEntity
  8
TEXT
100
AcDbText
 10
137.6006777387304
 20
43.52946389649807
 30
0.0
 40
4.0
  1
Norm.
 41
0.8
100
AcDbText
  0
LINE
  5
38C
330
443
100
AcDbEntity
  8
STEMPEL
100
AcDbLine
 10
49.99999999999989
 20
10.0
 30
0.0
 11
410.0
 21
10.0
 31
0.0
  0
LINE
  5
38D
330
443
100
AcDbEntity
  8
STEMPEL
100
AcDbLine
 10
410.0
 20
110.0
 30
0.0
 11
410.0
 21
10.0
 31
0.0
  0
TEXT
  5
38E
330
443
100
AcDbEntity
  8
TEXT
100
AcDbText
 10
337.2400861497006
 20
52.07416177878602
 30
0.0
 40
5.0
  1
ersetzt durch:
 41
0.8
100
AcDbText
  0
LINE
  5
38F
330
443
100
AcDbEntity
  8
STEMPEL
100
AcDbLine
 10
410.0
 20
10.0
 30
0.0
 11
39.99999999999989
 21
10.0
 31
0.0
  0
LINE
  5
390
330
443
100
AcDbEntity
  8
STEMPEL
100
AcDbLine
 10
410.0
 20
110.0
 30
0.0
 11
410.0
 21
584.0
 31
0.0
  0
LINE
  5
391
330
443
100
AcDbEntity
  8
STEMPEL
100
AcDbLine
 10
40.0
 20
10.0
 30
0.0
 11
39.99999999999989
 21
584.0
 31
0.0
  0
LINE
  5
392
330
443
100
AcDbEntity
  8
STEMPEL
100
AcDbLine
 10
410.0
 20
584.0
 30
0.0
 11
39.99999999999989
 21
584.0
 31
0.0
  0
LINE
  5
393
330
443
100
AcDbEntity
  8
HILF
100
AcDbLine
 10
0.0
 20
0.0
 30
0.0
 11
-0.0000000000001137
 21
594.0
 31
0.0
  0
LINE
  5
394
330
443
100
AcDbEntity
  8
HILF
100
AcDbLine
 10
419.9999999999999
 20
594.0000000000002
 30
0.0
 11
0.0
 21
594.0
 31
0.0
  0
LINE
  5
395
330
443
100
AcDbEntity
  8
HILF
100
AcDbLine
 10
420.0
 20
0.0
 30
0.0
 11
0.0
 21
0.0
 31
0.0
  0
LINE
  5
396
330
443
100
AcDbEntity
  8
HILF
100
AcDbLine
 10
31.08767135713856
 20
297.0
 30
0.0
 11
0.0000000000001137
 21
297.0
 31
0.0
  0
LINE
  5
397
330
443
100
AcDbEntity
  8
HILF
100
AcDbLine
 10
420.0
 20
-0.0000000000001137
 30
0.0
 11
419.9999999999999
 21
594.0
 31
0.0
  0
TEXT
  5
398
330
443
100
AcDbEntity
  8
VOLL
100
AcDbText
 10
156.1535094339622
 20
62.05189552941169
 30
0.0
 40
3.6
  1

  7
GREEKS
100
AcDbText
  0
TEXT
  5
399
330
443
100
AcDbEntity
  8
TEXT
100
AcDbText
 10
41.85509950977674
 20
111.6719999999999
 30
0.0
 40
5.0
  1
Erstellt mit AUTOCAD 2004
 41
0.8
100
AcDbText
  0
TEXT
  5
39A
330
443
100
AcDbEntity
  8
TEXT
 62
     1
100
AcDbText
 10
346.4180652842389
 20
87.35644176626255
 30
0.0
 40
7.0
  1
21804125W
 41
0.8
 72
     1
 11
369.3513986175723
 21
87.35644176626255
 31
0.0
100
AcDbText
  0
TEXT
  5
39B
330
443
100
AcDbEntity
  8
TEXT
 62
     1
100
AcDbText
 10
224.7736801096948
 20
87.61418787234566
 30
0.0
 40
7.0
  1
Kompressionsdichtung
 41
0.8
100
AcDbText
  0
TEXT
  5
39C
330
443
100
AcDbEntity
  8
TEXT
100
AcDbText
 10
225.1296391125315
 20
71.50334417585288
 30
0.0
 40
5.0
  1
für LORO-FLEX Rohrdurchführung DN100
 41
0.63
100
AcDbText
  0
TEXT
  5
39E
330
443
100
AcDbEntity
  8
TEXT
100
AcDbText
 10
225.1296391125315
 20
51.64011943042158
 30
0.0
 40
5.0
  1
EDV-Art.Nr. 21804.125X
 41
0.8
100
AcDbText
  0
TEXT
  5
39F
330
443
100
AcDbEntity
  8
TEXT
100
AcDbText
 10
224.9837501577827
 20
42.62974153022632
 30
0.0
 40
4.0
  1
21804125W.DWG
 41
0.8
100
AcDbText
  0
INSERT
  5
3A0
330
443
100
AcDbEntity
  8
STEMPEL
100
AcDbBlockReference
  2
LOGO
 10
140.9955485457794
 20
45.02105276448322
 30
0.0
 41
2.0
 42
2.0
 43
2.0
  0
TEXT
  5
3A2
330
443
100
AcDbEntity
  8
TEXT
100
AcDbText
 10
186.5714285714288
 20
102.5489328011779
 30
0.0
 40
5.0
  1
Zul. Abw.
 41
0.8
 72
     1
 11
200.0000000000002
 21
102.5489328011779
 31
0.0
100
AcDbText
  0
TEXT
  5
3A3
330
443
100
AcDbEntity
  8
TEXT
100
AcDbText
 10
146.1904761904766
 20
102.548932801178
 30
0.0
 40
5.0
  1
Maßstab
 41
0.8
 72
     1
 11
158.0000000000004
 21
102.548932801178
 31
0.0
100
AcDbText
  0
TEXT
  5
3A4
330
443
100
AcDbEntity
  8
TEXT
 62
     1
100
AcDbText
 10
152.0000000000004
 20
86.7679743275265
 30
0.0
 40
7.0
  1
1:2
 41
0.8
 72
     1
 11
158.0000000000004
 21
86.7679743275265
 31
0.0
100
AcDbText
  0
TEXT
  5
3A5
330
443
100
AcDbEntity
  8
TEXT
100
AcDbText
 10
183.3333333333335
 20
87.97451858821998
 30
0.0
 40
4.0
  1
DIN ISO 3302-1
 41
0.7
 72
     1
 11
200.0000000000002
 21
87.97451858821998
 31
0.0
100
AcDbText
  0
TEXT
  5
3A6
330
443
100
AcDbEntity
  8
TEXT
100
AcDbText
 10
193.6761904761907
 20
73.00000000000003
 30
0.0
 40
4.0
  1
Name
 41
0.8
 72
     4
 11
200.0000000000002
 21
75.00000000000003
 31
0.0
100
AcDbText
  0
TEXT
  5
3A7
330
443
100
AcDbEntity
  8
TEXT
100
AcDbText
 10
194.7428571428573
 20
63.00000000000003
 30
0.0
 40
4.0
  1
Koeh
 41
0.8
 72
     4
 11
200.0000000000002
 21
65.00000000000003
 31
0.0
100
AcDbText
  0
TEXT
  5
3A8
330
443
100
AcDbEntity
  8
TEXT
100
AcDbText
 10
160.6000000000002
 20
63.00000000000003
 30
0.0
 40
4.0
  1
30.11.
 41
0.8
 72
     4
 11
167.0000000000002
 21
65.00000000000003
 31
0.0
100
AcDbText
  0
TEXT
  5
3A9
330
443
100
AcDbEntity
  8
TEXT
100
AcDbText
 10
163.2666666666669
 20
73.6666666666667
 30
0.0
 40
4.0
  1
Tag
 41
0.8
 72
     4
 11
167.0000000000002
 21
75.00000000000003
 31
0.0
100
AcDbText
  0
TEXT
  5
3AA
330
443
100
AcDbEntity
  8
TEXT
100
AcDbText
 10
139.6666666666669
 20
73.00000000000003
 30
0.0
 40
4.0
  1
2010
 41
0.8
 72
     4
 11
145.0000000000002
 21
75.00000000000003
 31
0.0
100
AcDbText
  0
CIRCLE
  5
485
330
443
100
AcDbEntity
  8
STEMPEL
100
AcDbCircle
 10
105.3696482058098
 20
309.8794091916469
 30
0.0
 40
8.0
  0
CIRCLE
  5
4A4
330
443
100
AcDbEntity
  8
STEMPEL
100
AcDbCircle
 10
232.3696482058099
 20
309.8794091916469
 30
0.0
 40
165.0
  0
CIRCLE
  5
4A5
330
443
100
AcDbEntity
  8
STEMPEL
100
AcDbCircle
 10
232.3696482058099
 20
309.8794091916469
 30
0.0
 40
95.0
  0
CIRCLE
  5
4A6
330
443
100
AcDbEntity
  8
MITTEL
100
AcDbCircle
 10
232.3696482058099
 20
309.8794091916469
 30
0.0
 40
127.0
  0
DIMENSION
  5
626
330
443
100
AcDbEntity
  8
BEM
100
AcDbDimension
  2
*D5
 10
57.2177399919833
 20
544.656946849191
 30
0.0
 11
50.71773999198322
 21
563.5236135158577
 31
0.0
 70
    32
 71
     5
 42
2.0
  3
STANDARD
100
AcDbAlignedDimension
 13
67.36964820580988
 23
542.656946849191
 33
0.0
 14
67.36964820580988
 24
544.656946849191
 34
0.0
 50
90.0
100
AcDbRotatedDimension
1001
ACAD
1000
DSTYLE
1002
{
1070
    40
1040
2.0
1070
    41
1040
3.5
1070
    42
1040
1.0
1070
    43
1040
8.0
1070
    44
1040
1.0
1070
    73
1070
     0
1070
    74
1070
     0
1070
    77
1070
     1
1070
    78
1070
     8
1070
    79
1070
     2
1070
   140
1040
3.5
1070
   141
1040
1.5
1070
   146
1040
0.5
1070
   147
1040
1.5
1070
   172
1070
     1
1070
   178
1070
     1
1070
   179
1070
     2
1070
   279
1070
     0
1002
}
  0
HATCH
  5
691
330
443
100
AcDbEntity
  8
SCHRAFF
100
AcDbHatch
 10
0.0
 20
0.0
 30
0.0
210
0.0
220
0.0
230
1.0
  2
NET
 70
     0
 71
     1
 91
        4
 92
        7
 72
     0
 73
     1
 93
        4
 10
397.3696482058099
 20
544.6569468491912
 10
367.3696482058098
 20
544.656946849191
 10
367.3696482058098
 20
542.6569468491911
 10
397.3696482058099
 20
542.656946849191
 97
        4
330
178
330
18F
330
180
330
17F
 92
        7
 72
     0
 73
     1
 93
        4
 10
351.3696482058098
 20
544.6569468491912
 10
327.3696482058099
 20
544.6569468491912
 10
327.3696482058099
 20
542.6569468491911
 10
351.3696482058098
 20
542.6569468491911
 97
        4
330
178
330
17D
330
180
330
190
 92
        7
 72
     0
 73
     1
 93
        4
 10
137.3696482058099
 20
544.6569468491912
 10
114.2824521852076
 20
544.6569468491912
 10
114.2824521852076
 20
542.6569468491911
 10
137.3696482058099
 20
542.656946849191
 97
        4
330
178
330
20D
330
180
330
17C
 92
        7
 72
     0
 73
     1
 93
        4
 10
96.3696482058099
 20
544.6569468491912
 10
67.36964820580988
 20
544.6569468491912
 10
67.36964820580988
 20
542.6569468491911
 10
96.36964820580988
 20
542.6569468491911
 97
        4
330
178
330
17A
330
180
330
20E
 75
     0
 76
     1
 52
45.0
 41
10.0
 77
     0
 78
     2
 53
45.0
 43
0.0
 44
0.0
 45
-0.8838834764831842
 46
0.8838834764831844
 79
     0
 53
135.0
 43
0.0
 44
0.0
 45
-0.8838834764831844
 46
-0.8838834764831842
 79
     0
 47
0.4560678863809227
 98
        4
 10
371.6902137366414
 20
544.1759609494781
 10
337.9164692230947
 20
543.7198923868984
 10
127.5151751273779
 20
544.1759609494781
 10
89.17741344101932
 20
543.7198923868984
  0
TEXT
  5
6B1
330
443
100
AcDbEntity
  8
TEXT
100
AcDbText
 10
417.3022923857165
 20
10.16790107998849
 30
0.0
 40
4.0
  1
Diese Zeichnung ist urheberrechtlich geschützt und bleibt unser Eigentum. Sie darf weder ganz noch teilweise verfielfältigt und nicht an Dritte weitergegeben werden.
 50
90.0
 41
0.8
  7
GREEKS
100
AcDbText
  0
LINE
  5
6D1
330
443
100
AcDbEntity
  8
MITTEL
100
AcDbLine
 10
133.3746988396931
 20
210.8844598255302
 30
0.0
 11
151.7594751505433
 21
229.2692361363804
 31
0.0
  0
CIRCLE
  5
6D2
330
443
100
AcDbEntity
  8
STEMPEL
100
AcDbCircle
 10
142.5670869951182
 20
220.0768479809553
 30
0.0
 40
8.0
  0
CIRCLE
  5
6D4
330
443
100
AcDbEntity
  8
STEMPEL
100
AcDbCircle
 10
232.3696482058098
 20
182.8794091916468
 30
0.0
 40
8.0
  0
LINE
  5
6D5
330
443
100
AcDbEntity
  8
MITTEL
100
AcDbLine
 10
331.3645975719264
 20
210.88445982553
 30
0.0
 11
312.9798212610761
 21
229.2692361363803
 31
0.0
  0
CIRCLE
  5
6D6
330
443
100
AcDbEntity
  8
STEMPEL
100
AcDbCircle
 10
322.1722094165012
 20
220.0768479809551
 30
0.0
 40
8.0
  0
CIRCLE
  5
6D8
330
443
100
AcDbEntity
  8
STEMPEL
100
AcDbCircle
 10
359.3696482058099
 20
309.8794091916466
 30
0.0
 40
8.0
  0
LINE
  5
6D9
330
443
100
AcDbEntity
  8
MITTEL
100
AcDbLine
 10
331.3645975719266
 20
408.8743585577633
 30
0.0
 11
312.9798212610764
 21
390.4895822469131
 31
0.0
  0
CIRCLE
  5
6DA
330
443
100
AcDbEntity
  8
STEMPEL
100
AcDbCircle
 10
322.1722094165015
 20
399.6819704023382
 30
0.0
 40
8.0
  0
CIRCLE
  5
6DC
330
443
100
AcDbEntity
  8
STEMPEL
100
AcDbCircle
 10
232.3696482058101
 20
436.8794091916468
 30
0.0
 40
8.0
  0
LINE
  5
6DD
330
443
100
AcDbEntity
  8
MITTEL
100
AcDbLine
 10
133.3746988396934
 20
408.8743585577637
 30
0.0
 11
151.7594751505436
 21
390.4895822469134
 31
0.0
  0
CIRCLE
  5
6DE
330
443
100
AcDbEntity
  8
STEMPEL
100
AcDbCircle
 10
142.5670869951185
 20
399.6819704023385
 30
0.0
 40
8.0
  0
DIMENSION
  5
6E7
330
443
100
AcDbEntity
  8
BEM
100
AcDbDimension
  2
*D6
 10
402.3696482058098
 20
309.8794091916469
 30
0.0
 11
68.56481261655428
 21
242.0292247082822
 31
0.0
 70
    34
 71
     5
 42
0.7853981633974492
  3
STANDARD
100
AcDb2LineAngularDimension
 13
133.3746988396931
 23
210.8844598255302
 33
0.0
 14
151.7594751505433
 24
229.2692361363804
 34
0.0
 15
62.36964820580988
 25
309.8794091916469
 35
0.0
 16
54.83144159973997
 26
262.3081901058807
 36
0.0
1001
ACAD
1000
DSTYLE
1002
{
1070
    40
1040
2.0
1070
    41
1040
3.5
1070
    42
1040
1.0
1070
    43
1040
8.0
1070
    44
1040
1.0
1070
    73
1070
     0
1070
    74
1070
     0
1070
    77
1070
     1
1070
    78
1070
     8
1070
    79
1070
     2
1070
   140
1040
3.5
1070
   141
1040
1.5
1070
   146
1040
0.5
1070
   147
1040
1.5
1070
   172
1070
     1
1070
   178
1070
     1
1070
   179
1070
     2
1070
   279
1070
     0
1002
}
  0
ENDSEC
  0
SECTION
  2
OBJECTS
  0
DICTIONARY
  5
438
330
0
100
AcDbDictionary
281
     1
  3
ACAD_COLOR
350
494
  3
ACAD_GROUP
350
439
  3
ACAD_LAYOUT
350
495
  3
ACAD_MATERIAL
350
493
  3
ACAD_MLINESTYLE
350
446
  3
ACAD_PLOTSETTINGS
350
496
  3
ACAD_PLOTSTYLENAME
350
491
  3
ACDBVARIABLEDICTIONARY
350
464
  0
DICTIONARY
  5
494
102
{ACAD_REACTORS
330
438
102
}
330
438
100
AcDbDictionary
281
     1
  0
DICTIONARY
  5
439
102
{ACAD_REACTORS
330
438
102
}
330
438
100
AcDbDictionary
281
     1
  0
DICTIONARY
  5
495
102
{ACAD_REACTORS
330
438
102
}
330
438
100
AcDbDictionary
281
     1
  3
Layout1
350
498
  3
Model
350
497
  0
DICTIONARY
  5
493
102
{ACAD_REACTORS
330
438
102
}
330
438
100
AcDbDictionary
281
     1
  0
DICTIONARY
  5
446
102
{ACAD_REACTORS
330
438
102
}
330
438
100
AcDbDictionary
281
     1
  3
STANDARD
350
447
  0
DICTIONARY
  5
496
102
{ACAD_REACTORS
330
438
102
}
330
438
100
AcDbDictionary
281
     1
  0
ACDBDICTIONARYWDFLT
  5
491
102
{ACAD_REACTORS
330
438
102
}
330
438
100
AcDbDictionary
281
     1
  3
Normal
350
492
100
AcDbDictionaryWithDefault
340
492
  0
DICTIONARY
  5
464
102
{ACAD_REACTORS
330
438
102
}
330
438
100
AcDbDictionary
281
     1
  3
DIMADEC
350
465
  3
DIMASSOC
350
596
  3
PROJECTNAME
350
597
  0
LAYOUT
  5
498
102
{ACAD_REACTORS
330
495
102
}
330
495
100
AcDbPlotSettings
  1

  2
RICOH Aficio 2027 PCL 6
  4

  6

 40
0.0
 41
0.0
 42
0.0
 43
0.0
 44
0.0
 45
0.0
 46
0.0
 47
0.0
 48
0.0
 49
0.0
140
0.0
141
0.0
142
1.0
143
1.0
 70
   688
 72
     0
 73
     0
 74
     5
  7
monochrome1.ctb
 75
    16
147
1.0
 76
     0
 77
     2
 78
   300
148
0.0
149
0.0
100
AcDbLayout
  1
Layout1
 70
     0
 71
     1
 10
0.0
 20
0.0
 11
12.0
 21
9.0
 12
0.0
 22
0.0
 32
0.0
 14
1.000000000000000E+20
 24
1.000000000000000E+20
 34
1.000000000000000E+20
 15
-1.000000000000000E+20
 25
-1.000000000000000E+20
 35
-1.000000000000000E+20
146
0.0
 13
0.0
 23
0.0
 33
0.0
 16
1.0
 26
0.0
 36
0.0
 17
0.0
 27
1.0
 37
0.0
 76
     0
330
440
  0
LAYOUT
  5
497
102
{ACAD_REACTORS
330
495
102
}
330
495
100
AcDbPlotSettings
  1

  2
RICOH Aficio 2027 PCL 6
  4
A4
  6

 40
5.027083396911621
 41
5.027085304260253
 42
5.027084350585937
 43
5.027069091796875
 44
209.9733276367187
 45
296.9259948730469
 46
0.0
 47
2.06
 48
0.0
 49
0.0
140
0.0
141
0.0
142
1.0
143
2.100849164395896
 70
 11956
 72
     1
 73
     0
 74
     2
  7
monochrome1.ctb
 75
     0
147
0.4759979997362411
 76
     0
 77
     2
 78
   300
148
0.0
149
0.0
100
AcDbLayout
  1
Model
 70
     1
 71
     0
 10
0.0
 20
0.0
 11
12.0
 21
9.0
 12
0.0
 22
0.0
 32
0.0
 14
0.0
 24
0.0
 34
0.0
 15
0.0
 25
0.0
 35
0.0
146
0.0
 13
0.0
 23
0.0
 33
0.0
 16
1.0
 26
0.0
 36
0.0
 17
0.0
 27
1.0
 37
0.0
 76
     0
330
443
  0
MLINESTYLE
  5
447
102
{ACAD_REACTORS
330
446
102
}
330
446
100
AcDbMlineStyle
  2
STANDARD
 70
     0
  3

 62
   256
 51
90.0
 52
90.0
 71
     2
 49
0.5
 62
   256
  6
BYLAYER
 49
-0.5
 62
   256
  6
BYLAYER
  0
ACDBPLACEHOLDER
  5
492
102
{ACAD_REACTORS
330
491
102
}
330
491
  0
DICTIONARYVAR
  5
465
102
{ACAD_REACTORS
330
464
102
}
330
464
100
DictionaryVariables
280
     0
  1
0
  0
DICTIONARYVAR
  5
596
102
{ACAD_REACTORS
330
464
102
}
330
464
100
DictionaryVariables
280
     0
  1
1
  0
DICTIONARYVAR
  5
597
102
{ACAD_REACTORS
330
464
102
}
330
464
100
DictionaryVariables
280
     0
  1

  0
ENDSEC
  0
EOF
