  0
SECTION
  2
HEADER
  9
$ACADVER
  1
AC1018
  9
$ACADMAINTVER
 70
     2
  9
$DWGCODEPAGE
  3
ANSI_1252
  9
$INSBASE
 10
0.0
 20
0.0
 30
0.0
  9
$EXTMIN
 10
-0.0000000000001137
 20
-0.0000000000001137
 30
0.0
  9
$EXTMAX
 10
420.0
 20
594.0000000000002
 30
0.0
  9
$LIMMIN
 10
0.0
 20
0.0
  9
$LIMMAX
 10
419.9999999999999
 20
594.0000000000002
  9
$ORTHOMODE
 70
     1
  9
$REGENMODE
 70
     1
  9
$FILLMODE
 70
     1
  9
$QTEXTMODE
 70
     0
  9
$MIRRTEXT
 70
     1
  9
$LTSCALE
 40
20.0
  9
$ATTMODE
 70
     1
  9
$TEXTSIZE
 40
3.5
  9
$TRACEWID
 40
0.5
  9
$TEXTSTYLE
  7
STANDARD
  9
$CLAYER
  8
BEM
  9
$CELTYPE
  6
BYLAYER
  9
$CECOLOR
 62
   256
  9
$CELTSCALE
 40
1.0
  9
$DISPSILH
 70
     0
  9
$DIMSCALE
 40
2.0
  9
$DIMASZ
 40
3.5
  9
$DIMEXO
 40
1.0
  9
$DIMDLI
 40
8.0
  9
$DIMRND
 40
0.0
  9
$DIMDLE
 40
0.0
  9
$DIMEXE
 40
1.0
  9
$DIMTP
 40
0.0
  9
$DIMTM
 40
0.0
  9
$DIMTXT
 40
3.5
  9
$DIMCEN
 40
1.5
  9
$DIMTSZ
 40
0.0
  9
$DIMTOL
 70
     0
  9
$DIMLIM
 70
     0
  9
$DIMTIH
 70
     0
  9
$DIMTOH
 70
     0
  9
$DIMSE1
 70
     0
  9
$DIMSE2
 70
     0
  9
$DIMTAD
 70
     1
  9
$DIMZIN
 70
     8
  9
$DIMBLK
  1

  9
$DIMASO
 70
     1
  9
$DIMSHO
 70
     0
  9
$DIMPOST
  1

  9
$DIMAPOST
  1

  9
$DIMALT
 70
     0
  9
$DIMALTD
 70
     2
  9
$DIMALTF
 40
25.4
  9
$DIMLFAC
 40
1.0
  9
$DIMTOFL
 70
     1
  9
$DIMTVP
 40
0.0
  9
$DIMTIX
 70
     0
  9
$DIMSOXD
 70
     0
  9
$DIMSAH
 70
     0
  9
$DIMBLK1
  1

  9
$DIMBLK2
  1

  9
$DIMSTYLE
  2
STANDARD
  9
$DIMCLRD
 70
     0
  9
$DIMCLRE
 70
     0
  9
$DIMCLRT
 70
     1
  9
$DIMTFAC
 40
0.5
  9
$DIMGAP
 40
1.5
  9
$DIMJUST
 70
     0
  9
$DIMSD1
 70
     0
  9
$DIMSD2
 70
     0
  9
$DIMTOLJ
 70
     1
  9
$DIMTZIN
 70
     8
  9
$DIMALTZ
 70
     8
  9
$DIMALTTZ
 70
     8
  9
$DIMUPT
 70
     0
  9
$DIMDEC
 70
     2
  9
$DIMTDEC
 70
     2
  9
$DIMALTU
 70
     2
  9
$DIMALTTD
 70
     2
  9
$DIMTXSTY
  7
STANDARD
  9
$DIMAUNIT
 70
     0
  9
$DIMADEC
 70
     2
  9
$DIMALTRND
 40
0.0
  9
$DIMAZIN
 70
     2
  9
$DIMDSEP
 70
    46
  9
$DIMATFIT
 70
     3
  9
$DIMFRAC
 70
     0
  9
$DIMLDRBLK
  1

  9
$DIMLUNIT
 70
     2
  9
$DIMLWD
 70
    -2
  9
$DIMLWE
 70
    -2
  9
$DIMTMOVE
 70
     0
  9
$LUNITS
 70
     2
  9
$LUPREC
 70
     2
  9
$SKETCHINC
 40
1.0
  9
$FILLETRAD
 40
3.0
  9
$AUNITS
 70
     0
  9
$AUPREC
 70
     0
  9
$MENU
  1
ACAD
  9
$ELEVATION
 40
0.0
  9
$PELEVATION
 40
0.0
  9
$THICKNESS
 40
0.0
  9
$LIMCHECK
 70
     0
  9
$CHAMFERA
 40
0.0
  9
$CHAMFERB
 40
0.0
  9
$CHAMFERC
 40
0.0
  9
$CHAMFERD
 40
0.0
  9
$SKPOLY
 70
     0
  9
$TDCREATE
 40
2451795.444445706
  9
$TDUCREATE
 40
2451795.402779040
  9
$TDUPDATE
 40
2455531.345735579
  9
$TDUUPDATE
 40
2455531.304068912
  9
$TDINDWG
 40
0.2165202778
  9
$TDUSRTIMER
 40
0.2165202778
  9
$USRTIMER
 70
     1
  9
$ANGBASE
 50
0.0
  9
$ANGDIR
 70
     0
  9
$PDMODE
 70
     0
  9
$PDSIZE
 40
0.0
  9
$PLINEWID
 40
0.0
  9
$SPLFRAME
 70
     0
  9
$SPLINETYPE
 70
     6
  9
$SPLINESEGS
 70
     8
  9
$HANDSEED
  5
994
  9
$SURFTAB1
 70
     6
  9
$SURFTAB2
 70
     6
  9
$SURFTYPE
 70
     6
  9
$SURFU
 70
     6
  9
$SURFV
 70
     6
  9
$UCSBASE
  2

  9
$UCSNAME
  2

  9
$UCSORG
 10
0.0
 20
0.0
 30
0.0
  9
$UCSXDIR
 10
1.0
 20
0.0
 30
0.0
  9
$UCSYDIR
 10
0.0
 20
1.0
 30
0.0
  9
$UCSORTHOREF
  2

  9
$UCSORTHOVIEW
 70
     0
  9
$UCSORGTOP
 10
0.0
 20
0.0
 30
0.0
  9
$UCSORGBOTTOM
 10
0.0
 20
0.0
 30
0.0
  9
$UCSORGLEFT
 10
0.0
 20
0.0
 30
0.0
  9
$UCSORGRIGHT
 10
0.0
 20
0.0
 30
0.0
  9
$UCSORGFRONT
 10
0.0
 20
0.0
 30
0.0
  9
$UCSORGBACK
 10
0.0
 20
0.0
 30
0.0
  9
$PUCSBASE
  2

  9
$PUCSNAME
  2

  9
$PUCSORG
 10
0.0
 20
0.0
 30
0.0
  9
$PUCSXDIR
 10
1.0
 20
0.0
 30
0.0
  9
$PUCSYDIR
 10
0.0
 20
1.0
 30
0.0
  9
$PUCSORTHOREF
  2

  9
$PUCSORTHOVIEW
 70
     0
  9
$PUCSORGTOP
 10
0.0
 20
0.0
 30
0.0
  9
$PUCSORGBOTTOM
 10
0.0
 20
0.0
 30
0.0
  9
$PUCSORGLEFT
 10
0.0
 20
0.0
 30
0.0
  9
$PUCSORGRIGHT
 10
0.0
 20
0.0
 30
0.0
  9
$PUCSORGFRONT
 10
0.0
 20
0.0
 30
0.0
  9
$PUCSORGBACK
 10
0.0
 20
0.0
 30
0.0
  9
$USERI1
 70
     0
  9
$USERI2
 70
     0
  9
$USERI3
 70
     0
  9
$USERI4
 70
     0
  9
$USERI5
 70
     0
  9
$USERR1
 40
0.0
  9
$USERR2
 40
0.0
  9
$USERR3
 40
0.0
  9
$USERR4
 40
0.0
  9
$USERR5
 40
0.0
  9
$WORLDVIEW
 70
     1
  9
$SHADEDGE
 70
     3
  9
$SHADEDIF
 70
    70
  9
$TILEMODE
 70
     1
  9
$MAXACTVP
 70
    16
  9
$PINSBASE
 10
0.0
 20
0.0
 30
0.0
  9
$PLIMCHECK
 70
     0
  9
$PEXTMIN
 10
1.000000000000000E+20
 20
1.000000000000000E+20
 30
1.000000000000000E+20
  9
$PEXTMAX
 10
-1.000000000000000E+20
 20
-1.000000000000000E+20
 30
-1.000000000000000E+20
  9
$PLIMMIN
 10
0.0
 20
0.0
  9
$PLIMMAX
 10
12.0
 20
9.0
  9
$UNITMODE
 70
     0
  9
$VISRETAIN
 70
     0
  9
$PLINEGEN
 70
     0
  9
$PSLTSCALE
 70
     0
  9
$TREEDEPTH
 70
  3020
  9
$CMLSTYLE
  2
STANDARD
  9
$CMLJUST
 70
     0
  9
$CMLSCALE
 40
1.0
  9
$PROXYGRAPHICS
 70
     1
  9
$MEASUREMENT
 70
     0
  9
$CELWEIGHT
370
    -1
  9
$ENDCAPS
280
     0
  9
$JOINSTYLE
280
     0
  9
$LWDISPLAY
290
     0
  9
$INSUNITS
 70
     0
  9
$HYPERLINKBASE
  1

  9
$STYLESHEET
  1
monochrome1.ctb
  9
$XEDIT
290
     1
  9
$CEPSNTYPE
380
     0
  9
$PSTYLEMODE
290
     1
  9
$FINGERPRINTGUID
  2
{410ACD98-00D8-4A42-B5B3-CD8CD2E2FBD2}
  9
$VERSIONGUID
  2
{76F8CD52-4C02-4278-90E8-A4832B3DB86E}
  9
$EXTNAMES
290
     1
  9
$PSVPSCALE
 40
0.0
  9
$OLESTARTUP
290
     0
  9
$SORTENTS
280
   127
  9
$INDEXCTL
280
     0
  9
$HIDETEXT
280
     0
  9
$XCLIPFRAME
290
     0
  9
$HALOGAP
280
     0
  9
$OBSCOLOR
 70
   257
  9
$OBSLTYPE
280
     0
  9
$INTERSECTIONDISPLAY
280
     0
  9
$INTERSECTIONCOLOR
 70
   257
  9
$DIMASSOC
280
     1
  9
$PROJECTNAME
  1

  0
ENDSEC
  0
SECTION
  2
CLASSES
  0
CLASS
  1
DICTIONARYVAR
  2
AcDbDictionaryVar
  3
ObjectDBX Classes
 90
        0
 91
        3
280
     0
281
     0
  0
CLASS
  1
ACDBDICTIONARYWDFLT
  2
AcDbDictionaryWithDefault
  3
ObjectDBX Classes
 90
        0
 91
        1
280
     0
281
     0
  0
ENDSEC
  0
SECTION
  2
TABLES
  0
TABLE
  2
VPORT
  5
434
330
0
100
AcDbSymbolTable
 70
     2
  0
VPORT
  5
993
330
434
100
AcDbSymbolTableRecord
100
AcDbViewportTableRecord
  2
*Active
 70
     0
 10
0.0
 20
0.0
 11
1.0
 21
1.0
 12
209.9839863399167
 22
296.9773521093105
 13
0.0
 23
0.0
 14
1.0
 24
1.0
 15
20.0
 25
20.0
 16
0.0
 26
0.0
 36
1.0
 17
0.0
 27
0.0
 37
0.0
 40
599.1659366291981
 41
1.336927223719676
 42
50.0
 43
0.0
 44
0.0
 50
0.0
 51
0.0
 71
     0
 72
  1500
 73
     1
 74
     0
 75
     0
 76
     0
 77
     0
 78
     0
281
     0
 65
     1
110
0.0
120
0.0
130
0.0
111
1.0
121
0.0
131
0.0
112
0.0
122
1.0
132
0.0
 79
     0
146
0.0
  0
ENDTAB
  0
TABLE
  2
LTYPE
  5
431
330
0
100
AcDbSymbolTable
 70
     3
  0
LTYPE
  5
43D
330
431
100
AcDbSymbolTableRecord
100
AcDbLinetypeTableRecord
  2
BYBLOCK
 70
     0
  3

 72
    65
 73
     0
 40
0.0
  0
LTYPE
  5
43E
330
431
100
AcDbSymbolTableRecord
100
AcDbLinetypeTableRecord
  2
BYLAYER
 70
     0
  3

 72
    65
 73
     0
 40
0.0
  0
LTYPE
  5
43F
330
431
100
AcDbSymbolTableRecord
100
AcDbLinetypeTableRecord
  2
AUSGEZOGEN
 70
     0
  3
Ausgezogene Linie
 72
    65
 73
     0
 40
0.0
  0
LTYPE
  5
451
330
431
100
AcDbSymbolTableRecord
100
AcDbLinetypeTableRecord
  2
STRICHPUNKT
 70
     0
  3
__ . __ . __ . __ . __ . __ . __ . __ . __ . __
 72
    65
 73
     4
 40
1.0
 49
0.5
 74
     0
 49
-0.25
 74
     0
 49
0.0
 74
     0
 49
-0.25
 74
     0
  0
LTYPE
  5
452
330
431
100
AcDbSymbolTableRecord
100
AcDbLinetypeTableRecord
  2
CONTINUOUS
 70
     0
  3
Solid line
 72
    65
 73
     0
 40
0.0
  0
ENDTAB
  0
TABLE
  2
LAYER
  5
42E
330
0
100
AcDbSymbolTable
 70
     9
  0
LAYER
  5
43A
330
42E
100
AcDbSymbolTableRecord
100
AcDbLayerTableRecord
  2
0
 70
     0
 62
     7
  6
AUSGEZOGEN
370
    -3
390
492
  0
LAYER
  5
456
330
42E
100
AcDbSymbolTableRecord
100
AcDbLayerTableRecord
  2
VOLL
 70
     0
 62
     1
  6
AUSGEZOGEN
370
    -3
390
492
  0
LAYER
  5
457
330
42E
100
AcDbSymbolTableRecord
100
AcDbLayerTableRecord
  2
MITTEL
 70
     0
 62
     2
  6
STRICHPUNKT
370
    -3
390
492
  0
LAYER
  5
458
330
42E
100
AcDbSymbolTableRecord
100
AcDbLayerTableRecord
  2
BEM
 70
     0
 62
     7
  6
AUSGEZOGEN
370
    -3
390
492
  0
LAYER
  5
459
330
42E
100
AcDbSymbolTableRecord
100
AcDbLayerTableRecord
  2
STEMPEL
 70
     0
 62
     3
  6
AUSGEZOGEN
370
    -3
390
492
  0
LAYER
  5
45A
330
42E
100
AcDbSymbolTableRecord
100
AcDbLayerTableRecord
  2
TEXT
 70
     0
 62
     7
  6
AUSGEZOGEN
370
    -3
390
492
  0
LAYER
  5
45B
330
42E
100
AcDbSymbolTableRecord
100
AcDbLayerTableRecord
  2
DEFPOINTS
 70
     0
 62
     7
  6
AUSGEZOGEN
290
     0
370
    -3
390
492
  0
LAYER
  5
45C
330
42E
100
AcDbSymbolTableRecord
100
AcDbLayerTableRecord
  2
SCHRAFF
 70
     0
 62
     7
  6
AUSGEZOGEN
370
    -3
390
492
  0
LAYER
  5
45D
330
42E
100
AcDbSymbolTableRecord
100
AcDbLayerTableRecord
  2
HILF
 70
     0
 62
     2
  6
AUSGEZOGEN
370
    -3
390
492
  0
ENDTAB
  0
TABLE
  2
STYLE
  5
42F
330
0
100
AcDbSymbolTable
 70
     2
  0
STYLE
  5
43B
330
42F
100
AcDbSymbolTableRecord
100
AcDbTextStyleTableRecord
  2
STANDARD
 70
     0
 40
0.0
 41
0.8
 50
0.0
 71
     0
 42
3.5
  3
simplex.shx
  4

  0
STYLE
  5
450
330
42F
100
AcDbSymbolTableRecord
100
AcDbTextStyleTableRecord
  2
GREEKS
 70
     0
 40
0.0
 41
0.8
 50
0.0
 71
     0
 42
2.5
  3
SIMPLEX.shx
  4

  0
ENDTAB
  0
TABLE
  2
VIEW
  5
432
330
0
100
AcDbSymbolTable
 70
     0
  0
ENDTAB
  0
TABLE
  2
UCS
  5
433
330
0
100
AcDbSymbolTable
 70
     0
  0
ENDTAB
  0
TABLE
  2
APPID
  5
435
330
0
100
AcDbSymbolTable
 70
     2
  0
APPID
  5
43C
330
435
100
AcDbSymbolTableRecord
100
AcDbRegAppTableRecord
  2
ACAD
 70
     0
  0
APPID
  5
454
330
435
100
AcDbSymbolTableRecord
100
AcDbRegAppTableRecord
  2
RAK
 70
     0
  0
ENDTAB
  0
TABLE
  2
DIMSTYLE
  5
436
330
0
100
AcDbSymbolTable
 70
     1
100
AcDbDimStyleTable
 71
     1
340
455
  0
DIMSTYLE
105
455
102
{ACAD_REACTORS
330
81D
330
820
330
821
330
822
330
823
330
945
102
}
330
436
100
AcDbSymbolTableRecord
100
AcDbDimStyleTableRecord
  2
STANDARD
 70
     0
271
     2
272
     2
279
     2
284
     8
285
     8
286
     8
340
43B
  0
ENDTAB
  0
TABLE
  2
BLOCK_RECORD
  5
42D
330
0
100
AcDbSymbolTable
 70
     7
  0
BLOCK_RECORD
  5
443
330
42D
100
AcDbSymbolTableRecord
100
AcDbBlockTableRecord
  2
*MODEL_SPACE
340
497
  0
BLOCK_RECORD
  5
440
330
42D
100
AcDbSymbolTableRecord
100
AcDbBlockTableRecord
  2
*PAPER_SPACE
340
498
  0
BLOCK_RECORD
  5
44E
330
42D
100
AcDbSymbolTableRecord
100
AcDbBlockTableRecord
  2
LOGO
340
0
102
{BLKREFS
331
3A0
102
}
  0
BLOCK_RECORD
  5
873
330
42D
100
AcDbSymbolTableRecord
100
AcDbBlockTableRecord
  2
*D1
340
0
  0
BLOCK_RECORD
  5
881
330
42D
100
AcDbSymbolTableRecord
100
AcDbBlockTableRecord
  2
*D2
340
0
  0
BLOCK_RECORD
  5
88D
330
42D
100
AcDbSymbolTableRecord
100
AcDbBlockTableRecord
  2
*D3
340
0
  0
BLOCK_RECORD
  5
899
330
42D
100
AcDbSymbolTableRecord
100
AcDbBlockTableRecord
  2
*D4
340
0
  0
BLOCK_RECORD
  5
8A5
330
42D
100
AcDbSymbolTableRecord
100
AcDbBlockTableRecord
  2
*D5
340
0
  0
BLOCK_RECORD
  5
946
330
42D
100
AcDbSymbolTableRecord
100
AcDbBlockTableRecord
  2
*D6
340
0
  0
ENDTAB
  0
ENDSEC
  0
SECTION
  2
BLOCKS
  0
BLOCK
  5
462
330
443
100
AcDbEntity
  8
0
100
AcDbBlockBegin
  2
*MODEL_SPACE
 70
     0
 10
0.0
 20
0.0
 30
0.0
  3
*MODEL_SPACE
  1

  0
ENDBLK
  5
463
330
443
100
AcDbEntity
  8
0
100
AcDbBlockEnd
  0
BLOCK
  5
460
330
440
100
AcDbEntity
 67
     1
  8
0
100
AcDbBlockBegin
  2
*PAPER_SPACE
 70
     0
 10
0.0
 20
0.0
 30
0.0
  3
*PAPER_SPACE
  1

  0
ENDBLK
  5
461
330
440
100
AcDbEntity
 67
     1
  8
0
100
AcDbBlockEnd
  0
BLOCK
  5
30E
330
44E
100
AcDbEntity
  8
0
100
AcDbBlockBegin
  2
LOGO
 70
     0
 10
0.0
 20
0.0
 30
0.0
  3
LOGO
  1

  0
ARC
  5
2F4
330
44E
100
AcDbEntity
  8
0
100
AcDbCircle
 10
11.59973089678112
 20
-9.271599258481501
 30
0.0
 40
4.5
100
AcDbArc
 50
270.0
 51
231.0575587310159
  0
LINE
  5
2F5
330
44E
100
AcDbEntity
  8
0
100
AcDbLine
 10
3.599730896781125
 20
-4.771599258481529
 30
0.0
 11
3.599730896781153
 21
-11.77159925848133
 31
0.0
  0
LINE
  5
2F6
330
44E
100
AcDbEntity
  8
0
100
AcDbLine
 10
2.599730896781125
 20
-4.771599258481529
 30
0.0
 11
2.599730896781153
 21
-11.77159925848133
 31
0.0
  0
CIRCLE
  5
2F7
330
44E
100
AcDbEntity
  8
0
100
AcDbCircle
 10
11.59973089678112
 20
-9.271599258481501
 30
0.0
 40
3.5
  0
ARC
  5
2F8
330
44E
100
AcDbEntity
  8
0
100
AcDbCircle
 10
31.59973089678115
 20
-9.271599258481472
 30
0.0
 40
4.5
100
AcDbArc
 50
270.0
 51
231.0575587310182
  0
LINE
  5
2F9
330
44E
100
AcDbEntity
  8
0
100
AcDbLine
 10
17.59973089678112
 20
-4.771599258481472
 30
0.0
 11
17.59973089678115
 21
-13.77159925848147
 31
0.0
  0
ARC
  5
2FA
330
44E
100
AcDbEntity
  8
0
100
AcDbCircle
 10
22.59973089678116
 20
-7.271599258481472
 30
0.0
 40
2.5
100
AcDbArc
 50
293.1161887722295
 51
90.0
  0
CIRCLE
  5
2FB
330
44E
100
AcDbEntity
  8
0
100
AcDbCircle
 10
31.59973089678115
 20
-9.271599258481472
 30
0.0
 40
3.5
  0
ARC
  5
2FC
330
44E
100
AcDbEntity
  8
0
100
AcDbCircle
 10
4.599730896781153
 20
-11.77159925848133
 30
0.0
 40
1.0
100
AcDbArc
 50
180.0
 51
270.0
  0
ARC
  5
2FD
330
44E
100
AcDbEntity
  8
0
100
AcDbCircle
 10
4.599730896781153
 20
-11.77159925848133
 30
0.0
 40
2.0
100
AcDbArc
 50
179.9999999999992
 51
270.0
  0
LINE
  5
2FE
330
44E
100
AcDbEntity
  8
0
100
AcDbLine
 10
11.59973089678115
 20
-13.77159925848144
 30
0.0
 11
4.599730896781153
 21
-13.77159925848147
 31
0.0
  0
LINE
  5
2FF
330
44E
100
AcDbEntity
  8
0
100
AcDbLine
 10
8.771303772034769
 20
-12.77159925848136
 30
0.0
 11
4.599730896781153
 21
-12.77159925848133
 31
0.0
  0
LINE
  5
300
330
44E
100
AcDbEntity
  8
0
100
AcDbLine
 10
31.59973089678115
 20
-13.77159925848147
 30
0.0
 11
23.6715276665056
 21
-13.77159925848144
 31
0.0
  0
LINE
  5
301
330
44E
100
AcDbEntity
  8
0
100
AcDbLine
 10
23.56565672307022
 20
-9.51278021337896
 30
0.0
 11
24.4388546544846
 21
-12.77159925848144
 31
0.0
  0
LINE
  5
302
330
44E
100
AcDbEntity
  8
0
100
AcDbLine
 10
22.59973089678116
 20
-9.771599258481472
 30
0.0
 11
18.59973089678112
 21
-9.771599258481472
 31
0.0
  0
LINE
  5
303
330
44E
100
AcDbEntity
  8
0
100
AcDbLine
 10
18.59973089678115
 20
-13.77159925848144
 30
0.0
 11
17.59973089678115
 21
-13.77159925848144
 31
0.0
  0
LINE
  5
304
330
44E
100
AcDbEntity
  8
0
100
AcDbLine
 10
18.59973089678115
 20
-9.771599258481472
 30
0.0
 11
18.59973089678115
 21
-13.77159925848144
 31
0.0
  0
LINE
  5
305
330
44E
100
AcDbEntity
  8
0
100
AcDbLine
 10
22.59973089678116
 20
-9.771599258481472
 30
0.0
 11
23.67152766650562
 21
-13.77159925848147
 31
0.0
  0
ARC
  5
306
330
44E
100
AcDbEntity
  8
0
100
AcDbCircle
 10
22.59973089678116
 20
-7.271599258481472
 30
0.0
 40
2.5
100
AcDbArc
 50
270.0
 51
270.0000000000007
  0
LINE
  5
307
330
44E
100
AcDbEntity
  8
0
100
AcDbLine
 10
28.77130377203494
 20
-12.77159925848147
 30
0.0
 11
24.43885465448463
 21
-12.77159925848144
 31
0.0
  0
LINE
  5
308
330
44E
100
AcDbEntity
  8
0
100
AcDbLine
 10
3.599730896781125
 20
-4.771599258481472
 30
0.0
 11
2.599730896781125
 21
-4.771599258481472
 31
0.0
  0
LINE
  5
309
330
44E
100
AcDbEntity
  8
0
100
AcDbLine
 10
22.59973089678116
 20
-8.771599258481472
 30
0.0
 11
18.59973089678115
 21
-8.771599258481472
 31
0.0
  0
LINE
  5
30A
330
44E
100
AcDbEntity
  8
0
100
AcDbLine
 10
22.59973089678116
 20
-5.771599258481472
 30
0.0
 11
18.59973089678115
 21
-5.771599258481472
 31
0.0
  0
LINE
  5
30B
330
44E
100
AcDbEntity
  8
0
100
AcDbLine
 10
22.59973089678116
 20
-4.771599258481472
 30
0.0
 11
17.59973089678115
 21
-4.771599258481472
 31
0.0
  0
LINE
  5
30C
330
44E
100
AcDbEntity
  8
0
100
AcDbLine
 10
18.59973089678115
 20
-5.771599258481472
 30
0.0
 11
18.59973089678115
 21
-8.771599258481472
 31
0.0
  0
ARC
  5
30D
330
44E
100
AcDbEntity
  8
0
100
AcDbCircle
 10
22.59973089678116
 20
-7.271599258481472
 30
0.0
 40
1.5
100
AcDbArc
 50
270.0
 51
90.0
  0
ENDBLK
  5
30F
330
44E
100
AcDbEntity
  8
0
100
AcDbBlockEnd
  0
BLOCK
  5
87F
330
873
100
AcDbEntity
  8
0
100
AcDbBlockBegin
  2
*D1
 70
     1
 10
0.0
 20
0.0
 30
0.0
  3
*D1
  1

  0
LINE
  5
92E
330
873
100
AcDbEntity
  8
BEM
 62
     0
370
    -2
100
AcDbLine
 10
73.0
 20
524.966522541611
 30
0.0
 11
60.59720057809235
 21
524.966522541611
 31
0.0
  0
LINE
  5
92F
330
873
100
AcDbEntity
  8
BEM
 62
     0
370
    -2
100
AcDbLine
 10
73.0
 20
526.9665225416109
 30
0.0
 11
60.59720057809235
 21
526.9665225416109
 31
0.0
  0
LINE
  5
930
330
873
100
AcDbEntity
  8
BEM
 62
     0
370
    -2
100
AcDbLine
 10
62.59720057809235
 20
517.9665225416109
 30
0.0
 11
62.59720057809235
 21
510.9665225416109
 31
0.0
  0
LINE
  5
931
330
873
100
AcDbEntity
  8
BEM
 62
     0
370
    -2
100
AcDbLine
 10
62.59720057809236
 20
533.9665225416109
 30
0.0
 11
62.59720057809236
 21
548.6998558749444
 31
0.0
  0
LINE
  5
932
330
873
100
AcDbEntity
  8
BEM
 62
     0
370
    -2
100
AcDbLine
 10
62.59720057809235
 20
524.966522541611
 30
0.0
 11
62.59720057809235
 21
526.9665225416109
 31
0.0
  0
SOLID
  5
933
330
873
100
AcDbEntity
  8
BEM
 62
     0
100
AcDbTrace
 10
61.43053391142569
 20
517.9665225416109
 30
0.0
 11
63.76386724475901
 21
517.9665225416109
 31
0.0
 12
62.59720057809235
 22
524.966522541611
 32
0.0
 13
62.59720057809235
 23
524.966522541611
 33
0.0
  0
SOLID
  5
934
330
873
100
AcDbEntity
  8
BEM
 62
     0
100
AcDbTrace
 10
61.43053391142569
 20
533.9665225416109
 30
0.0
 11
63.76386724475902
 21
533.9665225416109
 31
0.0
 12
62.59720057809235
 22
526.9665225416109
 32
0.0
 13
62.59720057809235
 23
526.9665225416109
 33
0.0
  0
MTEXT
  5
935
330
873
100
AcDbEntity
  8
BEM
 62
     1
100
AcDbMText
 10
57.09720057809227
 20
544.8331892082777
 30
0.0
 40
7.0
 41
0.0
 71
     5
 72
     1
  1
\A1;2
 11
0.0000000000000001
 21
1.0
 31
0.0
 73
     1
 44
1.0
  0
POINT
  5
936
330
873
100
AcDbEntity
  8
DEFPOINTS
 62
     0
100
AcDbPoint
 10
75.0
 20
524.966522541611
 30
0.0
  0
POINT
  5
937
330
873
100
AcDbEntity
  8
DEFPOINTS
 62
     0
100
AcDbPoint
 10
75.0
 20
526.9665225416109
 30
0.0
  0
POINT
  5
938
330
873
100
AcDbEntity
  8
DEFPOINTS
 62
     0
100
AcDbPoint
 10
62.59720057809235
 20
526.9665225416109
 30
0.0
  0
ENDBLK
  5
880
330
873
100
AcDbEntity
  8
0
100
AcDbBlockEnd
  0
BLOCK
  5
88B
330
881
100
AcDbEntity
  8
0
100
AcDbBlockBegin
  2
*D2
 70
     1
 10
0.0
 20
0.0
 30
0.0
  3
*D2
  1

  0
LINE
  5
925
330
881
100
AcDbEntity
  8
BEM
 62
     0
370
    -2
100
AcDbLine
 10
145.0
 20
522.9665225416109
 30
0.0
 11
145.0
 21
503.0995562694533
 31
0.0
  0
LINE
  5
926
330
881
100
AcDbEntity
  8
BEM
 62
     0
370
    -2
100
AcDbLine
 10
305.0
 20
522.9665225416109
 30
0.0
 11
305.0
 21
503.0995562694533
 31
0.0
  0
LINE
  5
927
330
881
100
AcDbEntity
  8
BEM
 62
     0
370
    -2
100
AcDbLine
 10
152.0
 20
505.0995562694533
 30
0.0
 11
298.0
 21
505.0995562694533
 31
0.0
  0
SOLID
  5
928
330
881
100
AcDbEntity
  8
BEM
 62
     0
100
AcDbTrace
 10
152.0
 20
506.26622293612
 30
0.0
 11
152.0
 21
503.9328896027866
 31
0.0
 12
145.0
 22
505.0995562694533
 32
0.0
 13
145.0
 23
505.0995562694533
 33
0.0
  0
SOLID
  5
929
330
881
100
AcDbEntity
  8
BEM
 62
     0
100
AcDbTrace
 10
298.0
 20
506.26622293612
 30
0.0
 11
298.0
 21
503.9328896027866
 31
0.0
 12
305.0
 22
505.0995562694533
 32
0.0
 13
305.0
 23
505.0995562694533
 33
0.0
  0
MTEXT
  5
92A
330
881
100
AcDbEntity
  8
BEM
 62
     1
100
AcDbMText
 10
225.0
 20
510.5995562694533
 30
0.0
 40
7.0
 41
0.0
 71
     5
 72
     1
  1
\A1;%%c160
 73
     1
 44
1.0
  0
POINT
  5
92B
330
881
100
AcDbEntity
  8
DEFPOINTS
 62
     0
100
AcDbPoint
 10
145.0
 20
524.966522541611
 30
0.0
  0
POINT
  5
92C
330
881
100
AcDbEntity
  8
DEFPOINTS
 62
     0
100
AcDbPoint
 10
305.0
 20
524.966522541611
 30
0.0
  0
POINT
  5
92D
330
881
100
AcDbEntity
  8
DEFPOINTS
 62
     0
100
AcDbPoint
 10
305.0
 20
505.0995562694533
 30
0.0
  0
ENDBLK
  5
88C
330
881
100
AcDbEntity
  8
0
100
AcDbBlockEnd
  0
BLOCK
  5
897
330
88D
100
AcDbEntity
  8
0
100
AcDbBlockBegin
  2
*D3
 70
     1
 10
0.0
 20
0.0
 30
0.0
  3
*D3
  1

  0
LINE
  5
91C
330
88D
100
AcDbEntity
  8
BEM
 62
     0
370
    -2
100
AcDbLine
 10
113.0
 20
517.9665225416109
 30
0.0
 11
113.0
 21
487.3284421611781
 31
0.0
  0
LINE
  5
91D
330
88D
100
AcDbEntity
  8
BEM
 62
     0
370
    -2
100
AcDbLine
 10
337.0
 20
517.9665225416109
 30
0.0
 11
337.0
 21
487.3284421611781
 31
0.0
  0
LINE
  5
91E
330
88D
100
AcDbEntity
  8
BEM
 62
     0
370
    -2
100
AcDbLine
 10
120.0
 20
489.3284421611781
 30
0.0
 11
330.0
 21
489.3284421611781
 31
0.0
  0
SOLID
  5
91F
330
88D
100
AcDbEntity
  8
BEM
 62
     0
100
AcDbTrace
 10
120.0
 20
490.4951088278448
 30
0.0
 11
120.0
 21
488.1617754945114
 31
0.0
 12
113.0
 22
489.3284421611781
 32
0.0
 13
113.0
 23
489.3284421611781
 33
0.0
  0
SOLID
  5
920
330
88D
100
AcDbEntity
  8
BEM
 62
     0
100
AcDbTrace
 10
330.0
 20
490.4951088278448
 30
0.0
 11
330.0
 21
488.1617754945114
 31
0.0
 12
337.0
 22
489.3284421611781
 32
0.0
 13
337.0
 23
489.3284421611781
 33
0.0
  0
MTEXT
  5
921
330
88D
100
AcDbEntity
  8
BEM
 62
     1
100
AcDbMText
 10
225.0
 20
494.8284421611781
 30
0.0
 40
7.0
 41
0.0
 71
     5
 72
     1
  1
\A1;%%c224
 73
     1
 44
1.0
  0
POINT
  5
922
330
88D
100
AcDbEntity
  8
DEFPOINTS
 62
     0
100
AcDbPoint
 10
113.0
 20
519.966522541611
 30
0.0
  0
POINT
  5
923
330
88D
100
AcDbEntity
  8
DEFPOINTS
 62
     0
100
AcDbPoint
 10
337.0
 20
519.966522541611
 30
0.0
  0
POINT
  5
924
330
88D
100
AcDbEntity
  8
DEFPOINTS
 62
     0
100
AcDbPoint
 10
337.0
 20
489.3284421611781
 30
0.0
  0
ENDBLK
  5
898
330
88D
100
AcDbEntity
  8
0
100
AcDbBlockEnd
  0
BLOCK
  5
8A3
330
899
100
AcDbEntity
  8
0
100
AcDbBlockBegin
  2
*D4
 70
     1
 10
0.0
 20
0.0
 30
0.0
  3
*D4
  1

  0
LINE
  5
913
330
899
100
AcDbEntity
  8
BEM
 62
     0
370
    -2
100
AcDbLine
 10
75.0
 20
522.9665225416109
 30
0.0
 11
75.0
 21
471.5573298167689
 31
0.0
  0
LINE
  5
914
330
899
100
AcDbEntity
  8
BEM
 62
     0
370
    -2
100
AcDbLine
 10
375.0
 20
522.9665225416109
 30
0.0
 11
375.0
 21
471.5573298167689
 31
0.0
  0
LINE
  5
915
330
899
100
AcDbEntity
  8
BEM
 62
     0
370
    -2
100
AcDbLine
 10
82.0
 20
473.5573298167689
 30
0.0
 11
368.0
 21
473.5573298167689
 31
0.0
  0
SOLID
  5
916
330
899
100
AcDbEntity
  8
BEM
 62
     0
100
AcDbTrace
 10
82.0
 20
474.7239964834355
 30
0.0
 11
82.0
 21
472.3906631501022
 31
0.0
 12
75.0
 22
473.5573298167689
 32
0.0
 13
75.0
 23
473.5573298167689
 33
0.0
  0
SOLID
  5
917
330
899
100
AcDbEntity
  8
BEM
 62
     0
100
AcDbTrace
 10
368.0
 20
474.7239964834355
 30
0.0
 11
368.0
 21
472.3906631501022
 31
0.0
 12
375.0
 22
473.5573298167689
 32
0.0
 13
375.0
 23
473.5573298167689
 33
0.0
  0
MTEXT
  5
918
330
899
100
AcDbEntity
  8
BEM
 62
     1
100
AcDbMText
 10
225.0
 20
479.0573298167688
 30
0.0
 40
7.0
 41
0.0
 71
     5
 72
     1
  1
\A1;%%c300
 73
     1
 44
1.0
  0
POINT
  5
919
330
899
100
AcDbEntity
  8
DEFPOINTS
 62
     0
100
AcDbPoint
 10
75.0
 20
524.966522541611
 30
0.0
  0
POINT
  5
91A
330
899
100
AcDbEntity
  8
DEFPOINTS
 62
     0
100
AcDbPoint
 10
375.0
 20
524.966522541611
 30
0.0
  0
POINT
  5
91B
330
899
100
AcDbEntity
  8
DEFPOINTS
 62
     0
100
AcDbPoint
 10
375.0
 20
473.5573298167689
 30
0.0
  0
ENDBLK
  5
8A4
330
899
100
AcDbEntity
  8
0
100
AcDbBlockEnd
  0
BLOCK
  5
8B1
330
8A5
100
AcDbEntity
  8
0
100
AcDbBlockBegin
  2
*D5
 70
     1
 10
0.0
 20
0.0
 30
0.0
  3
*D5
  1

  0
LINE
  5
908
330
8A5
100
AcDbEntity
  8
BEM
 62
     0
370
    -2
100
AcDbLine
 10
329.0
 20
528.966522541611
 30
0.0
 11
329.0
 21
546.1843346373322
 31
0.0
  0
LINE
  5
909
330
8A5
100
AcDbEntity
  8
BEM
 62
     0
370
    -2
100
AcDbLine
 10
345.0
 20
528.966522541611
 30
0.0
 11
345.0
 21
546.1843346373322
 31
0.0
  0
LINE
  5
90A
330
8A5
100
AcDbEntity
  8
BEM
 62
     0
370
    -2
100
AcDbLine
 10
322.0
 20
544.1843346373323
 30
0.0
 11
315.0
 21
544.1843346373323
 31
0.0
  0
LINE
  5
90B
330
8A5
100
AcDbEntity
  8
BEM
 62
     0
370
    -2
100
AcDbLine
 10
352.0
 20
544.1843346373323
 30
0.0
 11
359.0
 21
544.1843346373323
 31
0.0
  0
LINE
  5
90C
330
8A5
100
AcDbEntity
  8
BEM
 62
     0
370
    -2
100
AcDbLine
 10
329.0
 20
544.1843346373323
 30
0.0
 11
345.0
 21
544.1843346373323
 31
0.0
  0
SOLID
  5
90D
330
8A5
100
AcDbEntity
  8
BEM
 62
     0
100
AcDbTrace
 10
322.0
 20
545.3510013039989
 30
0.0
 11
322.0
 21
543.0176679706656
 31
0.0
 12
329.0
 22
544.1843346373323
 32
0.0
 13
329.0
 23
544.1843346373323
 33
0.0
  0
SOLID
  5
90E
330
8A5
100
AcDbEntity
  8
BEM
 62
     0
100
AcDbTrace
 10
352.0
 20
545.3510013039989
 30
0.0
 11
352.0
 21
543.0176679706656
 31
0.0
 12
345.0
 22
544.1843346373323
 32
0.0
 13
345.0
 23
544.1843346373323
 33
0.0
  0
MTEXT
  5
90F
330
8A5
100
AcDbEntity
  8
BEM
 62
     1
100
AcDbMText
 10
337.0
 20
549.6843346373323
 30
0.0
 40
7.0
 41
0.0
 71
     5
 72
     1
  1
\A1;%%c16
 73
     1
 44
1.0
  0
POINT
  5
910
330
8A5
100
AcDbEntity
  8
DEFPOINTS
 62
     0
100
AcDbPoint
 10
329.0
 20
526.9665225416109
 30
0.0
  0
POINT
  5
911
330
8A5
100
AcDbEntity
  8
DEFPOINTS
 62
     0
100
AcDbPoint
 10
345.0
 20
526.9665225416109
 30
0.0
  0
POINT
  5
912
330
8A5
100
AcDbEntity
  8
DEFPOINTS
 62
     0
100
AcDbPoint
 10
345.0
 20
544.1843346373323
 30
0.0
  0
ENDBLK
  5
8B2
330
8A5
100
AcDbEntity
  8
0
100
AcDbBlockEnd
  0
BLOCK
  5
952
330
946
100
AcDbEntity
  8
0
100
AcDbBlockBegin
  2
*D6
 70
     1
 10
0.0
 20
0.0
 30
0.0
  3
*D6
  1

  0
LINE
  5
947
330
946
100
AcDbEntity
  8
BEM
 62
     0
370
    -2
100
AcDbLine
 10
136.6116523516814
 20
380.5773325323853
 30
0.0
 11
103.075320241087
 21
414.1136646429798
 31
0.0
  0
LINE
  5
948
330
946
100
AcDbEntity
  8
BEM
 62
     0
370
    -2
100
AcDbLine
 10
67.99999999999997
 20
292.1889848840667
 30
0.0
 11
52.5724642969489
 21
292.1889848840668
 31
0.0
  0
ARC
  5
949
330
946
100
AcDbEntity
  8
BEM
 62
     0
370
    -2
100
AcDbCircle
 10
225.0
 20
292.1889848840668
 30
0.0
 40
170.4275357030511
100
AcDbArc
 50
137.3534850298398
 51
177.6465149701602
  0
SOLID
  5
94A
330
946
100
AcDbEntity
  8
BEM
 62
     0
100
AcDbTrace
 10
98.80075539897863
 20
408.4569386910177
 30
0.0
 11
100.484206898547
 21
406.8412544727853
 31
0.0
 12
104.4895338034601
 22
412.6994510806067
 32
0.0
 13
104.4895338034601
 23
412.6994510806067
 33
0.0
  0
SOLID
  5
94B
330
946
100
AcDbEntity
  8
BEM
 62
     0
100
AcDbTrace
 10
55.88264102853045
 20
299.1635492463144
 30
0.0
 11
53.54979979041872
 21
299.2114679504896
 31
0.0
 12
54.57246429694891
 22
292.1889848840668
 32
0.0
 13
54.57246429694891
 23
292.1889848840668
 33
0.0
  0
MTEXT
  5
94C
330
946
100
AcDbEntity
  8
BEM
 62
     1
100
AcDbMText
 10
61.54027102629115
 20
359.8962215268074
 30
0.0
 40
7.0
 41
0.0
 71
     5
 72
     1
  1
\A1;45°
 11
0.3826834323650898
 21
0.9238795325112867
 31
0.0
 73
     1
 44
1.0
  0
POINT
  5
94D
330
946
100
AcDbEntity
  8
DEFPOINTS
 62
     0
100
AcDbPoint
 10
77.40542457677836
 20
377.4027527355924
 30
0.0
  0
POINT
  5
94E
330
946
100
AcDbEntity
  8
DEFPOINTS
 62
     0
100
AcDbPoint
 10
69.99999999999997
 20
292.1889848840667
 30
0.0
  0
POINT
  5
94F
330
946
100
AcDbEntity
  8
DEFPOINTS
 62
     0
100
AcDbPoint
 10
138.0258659140546
 20
379.1631189700122
 30
0.0
  0
POINT
  5
950
330
946
100
AcDbEntity
  8
DEFPOINTS
 62
     0
100
AcDbPoint
 10
156.4106422249048
 20
360.7783426591619
 30
0.0
  0
POINT
  5
951
330
946
100
AcDbEntity
  8
DEFPOINTS
 62
     0
100
AcDbPoint
 10
379.9999999999999
 20
292.1889848840668
 30
0.0
  0
ENDBLK
  5
953
330
946
100
AcDbEntity
  8
0
100
AcDbBlockEnd
  0
ENDSEC
  0
SECTION
  2
ENTITIES
  0
TEXT
  5
16A
330
443
100
AcDbEntity
  8
VOLL
100
AcDbText
 10
78.07675471698113
 20
31.02594776470585
 30
0.0
 40
1.8
  1

  7
GREEKS
100
AcDbText
  0
TEXT
  5
196
330
443
100
AcDbEntity
  8
TEXT
 62
     1
100
AcDbText
 10
277.7338305371725
 20
119.4909219987597
 30
0.0
 40
7.0
  1
Werkstoff: Semperit P9540
 41
0.8
  7
GREEKS
100
AcDbText
  0
LINE
  5
364
330
443
100
AcDbEntity
  8
STEMPEL
100
AcDbLine
 10
410.0
 20
110.0
 30
0.0
 11
39.99999999999997
 21
110.0
 31
0.0
  0
LINE
  5
365
330
443
100
AcDbEntity
  8
STEMPEL
100
AcDbLine
 10
136.0000000000001
 20
109.9999999999999
 30
0.0
 11
136.0
 21
9.999999999999971
 31
0.0
  0
LINE
  5
366
330
443
100
AcDbEntity
  8
STEMPEL
100
AcDbLine
 10
220.0
 20
110.0
 30
0.0
 11
220.0
 21
9.999999999999971
 31
0.0
  0
LINE
  5
367
330
443
100
AcDbEntity
  8
STEMPEL
100
AcDbLine
 10
332.0
 20
109.9999999999997
 30
0.0
 11
332.0
 21
40.0
 31
0.0
  0
LINE
  5
368
330
443
100
AcDbEntity
  8
STEMPEL
100
AcDbLine
 10
135.9999999999999
 20
29.99999999999997
 30
0.0
 11
39.99999999999997
 21
29.99999999999997
 31
0.0
  0
LINE
  5
369
330
443
100
AcDbEntity
  8
STEMPEL
100
AcDbLine
 10
410.0
 20
40.0
 30
0.0
 11
136.0000000000001
 21
39.99999999999997
 31
0.0
  0
LINE
  5
36A
330
443
100
AcDbEntity
  8
STEMPEL
100
AcDbLine
 10
410.0
 20
80.0
 30
0.0
 11
136.0000000000001
 21
79.99999999999994
 31
0.0
  0
LINE
  5
36B
330
443
100
AcDbEntity
  8
VOLL
100
AcDbLine
 10
54.00000000000009
 20
110.0
 30
0.0
 11
53.99999999999997
 21
9.999999999999971
 31
0.0
  0
LINE
  5
36C
330
443
100
AcDbEntity
  8
VOLL
100
AcDbLine
 10
94.00000000000011
 20
109.9999999999999
 30
0.0
 11
94.0
 21
9.999999999999971
 31
0.0
  0
LINE
  5
36D
330
443
100
AcDbEntity
  8
VOLL
100
AcDbLine
 10
114.0000000000001
 20
109.9999999999999
 30
0.0
 11
114.0
 21
9.999999999999971
 31
0.0
  0
LINE
  5
36E
330
443
100
AcDbEntity
  8
VOLL
100
AcDbLine
 10
154.0000000000001
 20
79.99999999999994
 30
0.0
 11
154.0000000000001
 21
39.99999999999997
 31
0.0
  0
LINE
  5
36F
330
443
100
AcDbEntity
  8
VOLL
100
AcDbLine
 10
180.0000000000001
 20
109.9999999999998
 30
0.0
 11
180.0
 21
39.99999999999997
 31
0.0
  0
LINE
  5
370
330
443
100
AcDbEntity
  8
HILF
100
AcDbLine
 10
40.00000000000008
 20
100.0
 30
0.0
 11
136.0000000000001
 21
100.0
 31
0.0
  0
LINE
  5
371
330
443
100
AcDbEntity
  8
HILF
100
AcDbLine
 10
40.00000000000008
 20
90.00000000000005
 30
0.0
 11
136.0000000000001
 21
90.00000000000005
 31
0.0
  0
LINE
  5
372
330
443
100
AcDbEntity
  8
HILF
100
AcDbLine
 10
40.00000000000008
 20
79.99999999999994
 30
0.0
 11
136.0000000000001
 21
79.99999999999994
 31
0.0
  0
LINE
  5
373
330
443
100
AcDbEntity
  8
HILF
100
AcDbLine
 10
40.00000000000008
 20
69.99999999999994
 30
0.0
 11
136.0000000000001
 21
69.99999999999994
 31
0.0
  0
LINE
  5
374
330
443
100
AcDbEntity
  8
HILF
100
AcDbLine
 10
40.00000000000008
 20
59.99999999999997
 30
0.0
 11
136.0000000000001
 21
59.99999999999997
 31
0.0
  0
LINE
  5
375
330
443
100
AcDbEntity
  8
HILF
100
AcDbLine
 10
40.00000000000008
 20
49.99999999999997
 30
0.0
 11
136.0000000000001
 21
49.99999999999997
 31
0.0
  0
LINE
  5
376
330
443
100
AcDbEntity
  8
HILF
100
AcDbLine
 10
40.00000000000008
 20
39.99999999999997
 30
0.0
 11
136.0000000000001
 21
39.99999999999997
 31
0.0
  0
LINE
  5
377
330
443
100
AcDbEntity
  8
HILF
100
AcDbLine
 10
136.0000000000001
 20
69.99999999999994
 30
0.0
 11
220.0
 21
69.99999999999994
 31
0.0
  0
LINE
  5
378
330
443
100
AcDbEntity
  8
HILF
100
AcDbLine
 10
136.0000000000001
 20
59.99999999999997
 30
0.0
 11
220.0
 21
59.99999999999997
 31
0.0
  0
LINE
  5
379
330
443
100
AcDbEntity
  8
HILF
100
AcDbLine
 10
136.0000000000001
 20
49.99999999999997
 30
0.0
 11
220.0
 21
49.99999999999997
 31
0.0
  0
LINE
  5
37A
330
443
100
AcDbEntity
  8
HILF
100
AcDbLine
 10
224.7736801096948
 20
84.03758247564139
 30
0.0
 11
324.8353916556311
 21
84.03758247564139
 31
0.0
  0
LINE
  5
37B
330
443
100
AcDbEntity
  8
HILF
100
AcDbLine
 10
224.7736801096948
 20
69.99999999999994
 30
0.0
 11
324.835391655631
 21
69.99999999999994
 31
0.0
  0
LINE
  5
37C
330
443
100
AcDbEntity
  8
HILF
100
AcDbLine
 10
224.7736801096948
 20
59.99999999999997
 30
0.0
 11
324.835391655631
 21
59.99999999999997
 31
0.0
  0
LINE
  5
37D
330
443
100
AcDbEntity
  8
HILF
100
AcDbLine
 10
224.7736801096948
 20
49.99999999999997
 30
0.0
 11
324.835391655631
 21
49.99999999999997
 31
0.0
  0
LINE
  5
37E
330
443
100
AcDbEntity
  8
VOLL
100
AcDbLine
 10
332.0
 20
60.0
 30
0.0
 11
410.0
 21
60.0
 31
0.0
  0
LINE
  5
37F
330
443
100
AcDbEntity
  8
HILF
100
AcDbLine
 10
336.7238616296993
 20
83.77983636955827
 30
0.0
 11
404.8588839326728
 21
83.77983636955827
 31
0.0
  0
LINE
  5
380
330
443
100
AcDbEntity
  8
HILF
100
AcDbLine
 10
223.4909699289885
 20
14.89398258028314
 30
0.0
 11
404.8588839326728
 21
14.89398258028314
 31
0.0
  0
TEXT
  5
381
330
443
100
AcDbEntity
  8
TEXT
100
AcDbText
 10
63.25714285714285
 20
19.99999999999998
 30
0.0
 40
4.0
  1
Änderung
 41
0.8
 72
     1
 11
74.0
 21
19.99999999999998
 31
0.0
100
AcDbText
  0
TEXT
  5
382
330
443
100
AcDbEntity
  8
TEXT
100
AcDbText
 10
224.877940380901
 20
102.5489328011779
 30
0.0
 40
5.0
  1
Benennung
 41
0.8
100
AcDbText
  0
TEXT
  5
383
330
443
100
AcDbEntity
  8
TEXT
100
AcDbText
 10
336.178754957634
 20
102.3132034537136
 30
0.0
 40
5.0
  1
Zeichnungs Nr.
 41
0.8
100
AcDbText
  0
TEXT
  5
384
330
443
100
AcDbEntity
  8
TEXT
100
AcDbText
 10
224.742238391136
 20
30.84560570193057
 30
0.0
 40
5.0
  1
Bauvorhaben
 41
0.8
100
AcDbText
  0
TEXT
  5
385
330
443
100
AcDbEntity
  8
TEXT
100
AcDbText
 10
336.7238616296993
 20
73.1811823709997
 30
0.0
 40
5.0
  1
Ersatz für:
 41
0.8
100
AcDbText
  0
TEXT
  5
386
330
443
100
AcDbEntity
  8
TEXT
100
AcDbText
 10
48.26641107045756
 20
13.65465846027192
 30
0.0
 40
4.0
  1
Index
 50
90.0
 41
0.8
100
AcDbText
  0
TEXT
  5
387
330
443
100
AcDbEntity
  8
TEXT
100
AcDbText
 10
100.2666666666667
 20
19.99999999999998
 30
0.0
 40
4.0
  1
Tag
 41
0.8
 72
     1
 11
104.0
 21
19.99999999999998
 31
0.0
100
AcDbText
  0
TEXT
  5
388
330
443
100
AcDbEntity
  8
TEXT
100
AcDbText
 10
118.6761904761905
 20
19.99999999999998
 30
0.0
 40
4.0
  1
Name
 41
0.8
 72
     1
 11
125.0
 21
19.99999999999998
 31
0.0
100
AcDbText
  0
TEXT
  5
389
330
443
100
AcDbEntity
  8
TEXT
100
AcDbText
 10
137.5836127167615
 20
63.62990369617964
 30
0.0
 40
4.0
  1
Gez.
 41
0.8
100
AcDbText
  0
TEXT
  5
38A
330
443
100
AcDbEntity
  8
TEXT
100
AcDbText
 10
137.5515086571672
 20
53.68926291428377
 30
0.0
 40
4.0
  1
Gepr.
 41
0.8
100
AcDbText
  0
TEXT
  5
38B
330
443
100
AcDbEntity
  8
TEXT
100
AcDbText
 10
137.6006777387304
 20
43.52946389649807
 30
0.0
 40
4.0
  1
Norm.
 41
0.8
100
AcDbText
  0
LINE
  5
38C
330
443
100
AcDbEntity
  8
STEMPEL
100
AcDbLine
 10
49.99999999999989
 20
10.0
 30
0.0
 11
410.0
 21
10.0
 31
0.0
  0
LINE
  5
38D
330
443
100
AcDbEntity
  8
STEMPEL
100
AcDbLine
 10
410.0
 20
110.0
 30
0.0
 11
410.0
 21
10.0
 31
0.0
  0
TEXT
  5
38E
330
443
100
AcDbEntity
  8
TEXT
100
AcDbText
 10
337.2400861497006
 20
52.07416177878602
 30
0.0
 40
5.0
  1
ersetzt durch:
 41
0.8
100
AcDbText
  0
LINE
  5
38F
330
443
100
AcDbEntity
  8
STEMPEL
100
AcDbLine
 10
410.0
 20
10.0
 30
0.0
 11
39.99999999999989
 21
10.0
 31
0.0
  0
LINE
  5
390
330
443
100
AcDbEntity
  8
STEMPEL
100
AcDbLine
 10
410.0
 20
110.0
 30
0.0
 11
410.0
 21
584.0
 31
0.0
  0
LINE
  5
391
330
443
100
AcDbEntity
  8
STEMPEL
100
AcDbLine
 10
40.0
 20
10.0
 30
0.0
 11
39.99999999999989
 21
584.0
 31
0.0
  0
LINE
  5
392
330
443
100
AcDbEntity
  8
STEMPEL
100
AcDbLine
 10
410.0
 20
584.0
 30
0.0
 11
39.99999999999989
 21
584.0
 31
0.0
  0
LINE
  5
393
330
443
100
AcDbEntity
  8
HILF
100
AcDbLine
 10
0.0
 20
0.0
 30
0.0
 11
-0.0000000000001137
 21
594.0
 31
0.0
  0
LINE
  5
394
330
443
100
AcDbEntity
  8
HILF
100
AcDbLine
 10
419.9999999999999
 20
594.0000000000002
 30
0.0
 11
0.0
 21
594.0
 31
0.0
  0
LINE
  5
395
330
443
100
AcDbEntity
  8
HILF
100
AcDbLine
 10
420.0
 20
0.0
 30
0.0
 11
0.0
 21
0.0
 31
0.0
  0
LINE
  5
396
330
443
100
AcDbEntity
  8
HILF
100
AcDbLine
 10
31.08767135713856
 20
297.0
 30
0.0
 11
0.0000000000001137
 21
297.0
 31
0.0
  0
LINE
  5
397
330
443
100
AcDbEntity
  8
HILF
100
AcDbLine
 10
420.0
 20
-0.0000000000001137
 30
0.0
 11
419.9999999999999
 21
594.0
 31
0.0
  0
TEXT
  5
398
330
443
100
AcDbEntity
  8
VOLL
100
AcDbText
 10
156.1535094339622
 20
62.05189552941169
 30
0.0
 40
3.6
  1

  7
GREEKS
100
AcDbText
  0
TEXT
  5
399
330
443
100
AcDbEntity
  8
TEXT
100
AcDbText
 10
41.85509950977674
 20
111.6719999999999
 30
0.0
 40
5.0
  1
Erstellt mit AUTOCAD 2004
 41
0.8
100
AcDbText
  0
TEXT
  5
39A
330
443
100
AcDbEntity
  8
TEXT
 62
     1
100
AcDbText
 10
346.4180652842389
 20
87.35644176626255
 30
0.0
 40
7.0
  1
21804100W
 41
0.8
 72
     1
 11
369.3513986175723
 21
87.35644176626255
 31
0.0
100
AcDbText
  0
TEXT
  5
39B
330
443
100
AcDbEntity
  8
TEXT
 62
     1
100
AcDbText
 10
224.7736801096948
 20
87.61418787234566
 30
0.0
 40
7.0
  1
Kompressionsdichtung
 41
0.8
100
AcDbText
  0
TEXT
  5
39C
330
443
100
AcDbEntity
  8
TEXT
100
AcDbText
 10
225.1296391125315
 20
71.50334417585288
 30
0.0
 40
5.0
  1
für LORO-FLEX Rohrdurchführung DN70
 41
0.63
100
AcDbText
  0
TEXT
  5
39E
330
443
100
AcDbEntity
  8
TEXT
100
AcDbText
 10
225.1296391125315
 20
51.64011943042158
 30
0.0
 40
5.0
  1
EDV-Art.Nr. 21804.100X
 41
0.8
100
AcDbText
  0
TEXT
  5
39F
330
443
100
AcDbEntity
  8
TEXT
100
AcDbText
 10
224.9837501577827
 20
42.62974153022632
 30
0.0
 40
4.0
  1
21804100W.DWG
 41
0.8
100
AcDbText
  0
INSERT
  5
3A0
330
443
100
AcDbEntity
  8
STEMPEL
100
AcDbBlockReference
  2
LOGO
 10
140.9955485457794
 20
45.02105276448322
 30
0.0
 41
2.0
 42
2.0
 43
2.0
  0
TEXT
  5
3A2
330
443
100
AcDbEntity
  8
TEXT
100
AcDbText
 10
186.5714285714288
 20
102.5489328011779
 30
0.0
 40
5.0
  1
Zul. Abw.
 41
0.8
 72
     1
 11
200.0000000000002
 21
102.5489328011779
 31
0.0
100
AcDbText
  0
TEXT
  5
3A3
330
443
100
AcDbEntity
  8
TEXT
100
AcDbText
 10
146.1904761904766
 20
102.548932801178
 30
0.0
 40
5.0
  1
Maßstab
 41
0.8
 72
     1
 11
158.0000000000004
 21
102.548932801178
 31
0.0
100
AcDbText
  0
TEXT
  5
3A4
330
443
100
AcDbEntity
  8
TEXT
 62
     1
100
AcDbText
 10
152.0000000000004
 20
86.7679743275265
 30
0.0
 40
7.0
  1
1:2
 41
0.8
 72
     1
 11
158.0000000000004
 21
86.7679743275265
 31
0.0
100
AcDbText
  0
TEXT
  5
3A5
330
443
100
AcDbEntity
  8
TEXT
100
AcDbText
 10
183.3333333333335
 20
87.97451858821998
 30
0.0
 40
4.0
  1
DIN ISO 3302-1
 41
0.7
 72
     1
 11
200.0000000000002
 21
87.97451858821998
 31
0.0
100
AcDbText
  0
TEXT
  5
3A6
330
443
100
AcDbEntity
  8
TEXT
100
AcDbText
 10
193.6761904761907
 20
73.00000000000003
 30
0.0
 40
4.0
  1
Name
 41
0.8
 72
     4
 11
200.0000000000002
 21
75.00000000000003
 31
0.0
100
AcDbText
  0
TEXT
  5
3A7
330
443
100
AcDbEntity
  8
TEXT
100
AcDbText
 10
194.7428571428573
 20
63.00000000000003
 30
0.0
 40
4.0
  1
Koeh
 41
0.8
 72
     4
 11
200.0000000000002
 21
65.00000000000003
 31
0.0
100
AcDbText
  0
TEXT
  5
3A8
330
443
100
AcDbEntity
  8
TEXT
100
AcDbText
 10
160.6000000000002
 20
63.00000000000003
 30
0.0
 40
4.0
  1
30.11.
 41
0.8
 72
     4
 11
167.0000000000002
 21
65.00000000000003
 31
0.0
100
AcDbText
  0
TEXT
  5
3A9
330
443
100
AcDbEntity
  8
TEXT
100
AcDbText
 10
163.2666666666669
 20
73.6666666666667
 30
0.0
 40
4.0
  1
Tag
 41
0.8
 72
     4
 11
167.0000000000002
 21
75.00000000000003
 31
0.0
100
AcDbText
  0
TEXT
  5
3AA
330
443
100
AcDbEntity
  8
TEXT
100
AcDbText
 10
139.6666666666669
 20
73.00000000000003
 30
0.0
 40
4.0
  1
2010
 41
0.8
 72
     4
 11
145.0000000000002
 21
75.00000000000003
 31
0.0
100
AcDbText
  0
TEXT
  5
6B1
330
443
100
AcDbEntity
  8
TEXT
100
AcDbText
 10
417.3022923857165
 20
10.16790107998849
 30
0.0
 40
4.0
  1
Diese Zeichnung ist urheberrechtlich geschützt und bleibt unser Eigentum. Sie darf weder ganz noch teilweise verfielfältigt und nicht an Dritte weitergegeben werden.
 50
90.0
 41
0.8
  7
GREEKS
100
AcDbText
  0
TEXT
  5
807
330
443
100
AcDbEntity
  8
VOLL
100
AcDbText
 10
566.1562222796395
 20
13.42169986774695
 30
0.0
 40
1.8
  1

  7
GREEKS
100
AcDbText
  0
LINE
  5
808
330
443
100
AcDbEntity
  8
MITTEL
100
AcDbLine
 10
225.0
 20
531.9665225416109
 30
0.0
 11
225.0
 21
519.966522541611
 31
0.0
  0
LINE
  5
809
102
{ACAD_REACTORS
330
871
102
}
330
443
100
AcDbEntity
  8
STEMPEL
100
AcDbLine
 10
75.0
 20
526.9665225416109
 30
0.0
 11
375.0
 21
526.9665225416109
 31
0.0
  0
LINE
  5
80A
330
443
100
AcDbEntity
  8
MITTEL
100
AcDbLine
 10
70.0
 20
292.1889848840668
 30
0.0
 11
380.0
 21
292.1889848840668
 31
0.0
  0
LINE
  5
80B
102
{ACAD_REACTORS
330
871
102
}
330
443
100
AcDbEntity
  8
STEMPEL
100
AcDbLine
 10
75.0
 20
524.966522541611
 30
0.0
 11
75.0
 21
526.9665225416109
 31
0.0
  0
LINE
  5
80C
330
443
100
AcDbEntity
  8
MITTEL
100
AcDbLine
 10
113.0
 20
519.966522541611
 30
0.0
 11
113.0
 21
531.9665225416109
 31
0.0
  0
LINE
  5
80D
102
{ACAD_REACTORS
330
871
102
}
330
443
100
AcDbEntity
  8
STEMPEL
100
AcDbLine
 10
145.0
 20
524.966522541611
 30
0.0
 11
145.0
 21
526.9665225416109
 31
0.0
  0
LINE
  5
80E
102
{ACAD_REACTORS
330
871
102
}
330
443
100
AcDbEntity
  8
STEMPEL
100
AcDbLine
 10
305.0
 20
524.966522541611
 30
0.0
 11
305.0
 21
526.9665225416109
 31
0.0
  0
LINE
  5
80F
330
443
100
AcDbEntity
  8
MITTEL
100
AcDbLine
 10
337.0
 20
519.966522541611
 30
0.0
 11
337.0
 21
531.9665225416109
 31
0.0
  0
LINE
  5
810
102
{ACAD_REACTORS
330
871
102
}
330
443
100
AcDbEntity
  8
STEMPEL
100
AcDbLine
 10
375.0
 20
524.966522541611
 30
0.0
 11
375.0
 21
526.9665225416109
 31
0.0
  0
LINE
  5
811
102
{ACAD_REACTORS
330
871
102
}
330
443
100
AcDbEntity
  8
STEMPEL
100
AcDbLine
 10
75.0
 20
524.966522541611
 30
0.0
 11
375.0
 21
524.966522541611
 31
0.0
  0
LINE
  5
812
330
443
100
AcDbEntity
  8
MITTEL
100
AcDbLine
 10
225.0
 20
447.1889848840667
 30
0.0
 11
225.0
 21
137.1889848840668
 31
0.0
  0
CIRCLE
  5
815
330
443
100
AcDbEntity
  8
STEMPEL
100
AcDbCircle
 10
335.0
 20
292.1889848840668
 30
0.0
 40
8.0
  0
DIMENSION
  5
81D
330
443
100
AcDbEntity
  8
BEM
100
AcDbDimension
  2
*D1
 10
62.59720057809235
 20
526.9665225416109
 30
0.0
 11
62.59720057809227
 21
544.8331892082777
 31
0.0
 70
   160
 71
     5
 42
2.0
  3
STANDARD
100
AcDbAlignedDimension
 13
75.0
 23
524.966522541611
 33
0.0
 14
75.0
 24
526.9665225416109
 34
0.0
 50
90.0
100
AcDbRotatedDimension
1001
ACAD
1000
DSTYLE
1002
{
1070
    40
1040
2.0
1070
    41
1040
3.5
1070
    42
1040
1.0
1070
    43
1040
8.0
1070
    44
1040
1.0
1070
    73
1070
     0
1070
    74
1070
     0
1070
    77
1070
     1
1070
    78
1070
     8
1070
    79
1070
     2
1070
   140
1040
3.5
1070
   141
1040
1.5
1070
   146
1040
0.5
1070
   147
1040
1.0
1070
   172
1070
     1
1070
   178
1070
     1
1070
   179
1070
     2
1070
   279
1070
     0
1002
}
  0
LINE
  5
81E
102
{ACAD_REACTORS
330
871
102
}
330
443
100
AcDbEntity
  8
STEMPEL
100
AcDbLine
 10
345.0
 20
524.9665225416108
 30
0.0
 11
345.0
 21
526.9665225416108
 31
0.0
  0
LINE
  5
81F
102
{ACAD_REACTORS
330
871
102
}
330
443
100
AcDbEntity
  8
STEMPEL
100
AcDbLine
 10
329.0
 20
524.9665225416108
 30
0.0
 11
329.0
 21
526.9665225416108
 31
0.0
  0
DIMENSION
  5
820
330
443
100
AcDbEntity
  8
BEM
100
AcDbDimension
  2
*D2
 10
305.0
 20
505.0995562694533
 30
0.0
 11
225.0
 21
510.5995562694533
 31
0.0
 70
    32
  1
%%c<>
 71
     5
 42
160.0
  3
STANDARD
100
AcDbAlignedDimension
 13
145.0
 23
524.966522541611
 33
0.0
 14
305.0
 24
524.966522541611
 34
0.0
100
AcDbRotatedDimension
1001
ACAD
1000
DSTYLE
1002
{
1070
    40
1040
2.0
1070
    41
1040
3.5
1070
    42
1040
1.0
1070
    43
1040
8.0
1070
    44
1040
1.0
1070
    73
1070
     0
1070
    74
1070
     0
1070
    77
1070
     1
1070
    78
1070
     8
1070
    79
1070
     2
1070
   140
1040
3.5
1070
   141
1040
1.5
1070
   146
1040
0.5
1070
   147
1040
1.0
1070
   172
1070
     1
1070
   178
1070
     1
1070
   179
1070
     2
1070
   279
1070
     0
1002
}
  0
DIMENSION
  5
821
330
443
100
AcDbEntity
  8
BEM
100
AcDbDimension
  2
*D3
 10
337.0
 20
489.3284421611781
 30
0.0
 11
225.0
 21
494.8284421611781
 31
0.0
 70
    32
  1
%%c<>
 71
     5
 42
224.0
  3
STANDARD
100
AcDbAlignedDimension
 13
113.0
 23
519.966522541611
 33
0.0
 14
337.0
 24
519.966522541611
 34
0.0
100
AcDbRotatedDimension
1001
ACAD
1000
DSTYLE
1002
{
1070
    40
1040
2.0
1070
    41
1040
3.5
1070
    42
1040
1.0
1070
    43
1040
8.0
1070
    44
1040
1.0
1070
    73
1070
     0
1070
    74
1070
     0
1070
    77
1070
     1
1070
    78
1070
     8
1070
    79
1070
     2
1070
   140
1040
3.5
1070
   141
1040
1.5
1070
   146
1040
0.5
1070
   147
1040
1.0
1070
   172
1070
     1
1070
   178
1070
     1
1070
   179
1070
     2
1070
   279
1070
     0
1002
}
  0
DIMENSION
  5
822
330
443
100
AcDbEntity
  8
BEM
100
AcDbDimension
  2
*D4
 10
375.0
 20
473.5573298167689
 30
0.0
 11
225.0
 21
479.0573298167688
 31
0.0
 70
    32
  1
%%c<>
 71
     5
 42
300.0
  3
STANDARD
100
AcDbAlignedDimension
 13
75.0
 23
524.966522541611
 33
0.0
 14
375.0
 24
524.966522541611
 34
0.0
100
AcDbRotatedDimension
1001
ACAD
1000
DSTYLE
1002
{
1070
    40
1040
2.0
1070
    41
1040
3.5
1070
    42
1040
1.0
1070
    43
1040
8.0
1070
    44
1040
1.0
1070
    73
1070
     0
1070
    74
1070
     0
1070
    77
1070
     1
1070
    78
1070
     8
1070
    79
1070
     2
1070
   140
1040
3.5
1070
   141
1040
1.5
1070
   146
1040
0.5
1070
   147
1040
1.0
1070
   172
1070
     1
1070
   178
1070
     1
1070
   179
1070
     2
1070
   279
1070
     0
1002
}
  0
DIMENSION
  5
823
330
443
100
AcDbEntity
  8
BEM
100
AcDbDimension
  2
*D5
 10
345.0
 20
544.1843346373323
 30
0.0
 11
337.0
 21
544.1843346373323
 31
0.0
 70
   160
  1
%%c<>
 71
     5
 42
16.0
  3
STANDARD
100
AcDbAlignedDimension
 13
329.0
 23
526.9665225416109
 33
0.0
 14
345.0
 24
526.9665225416109
 34
0.0
100
AcDbRotatedDimension
1001
ACAD
1000
DSTYLE
1002
{
1070
    40
1040
2.0
1070
    41
1040
3.5
1070
    42
1040
1.0
1070
    43
1040
8.0
1070
    44
1040
1.0
1070
    73
1070
     0
1070
    74
1070
     0
1070
    77
1070
     1
1070
    78
1070
     8
1070
    79
1070
     2
1070
   140
1040
3.5
1070
   141
1040
1.5
1070
   146
1040
0.5
1070
   147
1040
1.0
1070
   172
1070
     1
1070
   178
1070
     1
1070
   179
1070
     2
1070
   279
1070
     0
1002
}
  0
CIRCLE
  5
825
330
443
100
AcDbEntity
  8
STEMPEL
100
AcDbCircle
 10
225.0
 20
292.1889848840668
 30
0.0
 40
150.0
  0
CIRCLE
  5
826
330
443
100
AcDbEntity
  8
MITTEL
100
AcDbCircle
 10
225.0
 20
292.1889848840668
 30
0.0
 40
110.0
  0
CIRCLE
  5
827
330
443
100
AcDbEntity
  8
STEMPEL
100
AcDbCircle
 10
225.0
 20
292.1889848840668
 30
0.0
 40
80.0
  0
TEXT
  5
85C
330
443
100
AcDbEntity
  8
VOLL
100
AcDbText
 10
644.2329769966207
 20
44.44764763245279
 30
0.0
 40
3.6
  1

  7
GREEKS
100
AcDbText
  0
LINE
  5
86E
102
{ACAD_REACTORS
330
871
102
}
330
443
100
AcDbEntity
  8
STEMPEL
100
AcDbLine
 10
105.0
 20
524.9665225416108
 30
0.0
 11
104.9999999999999
 21
526.9665225416108
 31
0.0
  0
LINE
  5
86F
102
{ACAD_REACTORS
330
871
102
}
330
443
100
AcDbEntity
  8
STEMPEL
100
AcDbLine
 10
121.0
 20
524.9665225416108
 30
0.0
 11
121.0
 21
526.9665225416108
 31
0.0
  0
HATCH
  5
871
330
443
100
AcDbEntity
  8
SCHRAFF
100
AcDbHatch
 10
0.0
 20
0.0
 30
0.0
210
0.0
220
0.0
230
1.0
  2
NET
 70
     0
 71
     1
 91
        4
 92
        7
 72
     0
 73
     1
 93
        4
 10
375.0
 20
526.9665225416109
 10
345.0
 20
526.9665225416109
 10
345.0
 20
524.966522541611
 10
375.0
 20
524.966522541611
 97
        4
330
809
330
81E
330
811
330
810
 92
        7
 72
     0
 73
     1
 93
        4
 10
329.0
 20
524.966522541611
 10
329.0
 20
526.9665225416108
 10
305.0
 20
526.9665225416108
 10
305.0
 20
524.9665225416108
 97
        4
330
809
330
80E
330
811
330
81F
 92
        7
 72
     0
 73
     1
 93
        4
 10
145.0
 20
524.966522541611
 10
145.0
 20
526.9665225416109
 10
121.0
 20
526.9665225416109
 10
121.0
 20
524.966522541611
 97
        4
330
809
330
86F
330
811
330
80D
 92
        7
 72
     0
 73
     1
 93
        4
 10
105.0
 20
524.966522541611
 10
104.9999999999998
 20
526.9665225416108
 10
75.00000000000001
 20
526.9665225416109
 10
75.00000000000001
 20
524.966522541611
 97
        4
330
809
330
80B
330
811
330
86E
 75
     0
 76
     1
 52
45.0
 41
10.0
 77
     0
 78
     2
 53
45.0
 43
0.0
 44
0.0
 45
-0.8838834764831842
 46
0.8838834764831844
 79
     0
 53
135.0
 43
0.0
 44
0.0
 45
-0.8838834764831844
 46
-0.8838834764831842
 79
     0
 47
0.4485170921414438
 98
        4
 10
354.562292669335
 20
525.5020946902848
 10
320.0011812638886
 20
525.9506130676234
 10
134.1790962139607
 20
525.9506130676234
 10
92.43645553934266
 20
525.9506130676234
  0
CIRCLE
  5
939
330
443
100
AcDbEntity
  8
STEMPEL
100
AcDbCircle
 10
302.7817459305202
 20
369.9707308145871
 30
0.0
 40
8.0
  0
CIRCLE
  5
93A
330
443
100
AcDbEntity
  8
STEMPEL
100
AcDbCircle
 10
225.0
 20
402.1889848840668
 30
0.0
 40
8.0
  0
CIRCLE
  5
93B
330
443
100
AcDbEntity
  8
STEMPEL
100
AcDbCircle
 10
147.2182540694797
 20
369.9707308145871
 30
0.0
 40
8.0
  0
CIRCLE
  5
93C
330
443
100
AcDbEntity
  8
STEMPEL
100
AcDbCircle
 10
115.0
 20
292.1889848840669
 30
0.0
 40
8.0
  0
CIRCLE
  5
93D
330
443
100
AcDbEntity
  8
STEMPEL
100
AcDbCircle
 10
147.2182540694797
 20
214.4072389535466
 30
0.0
 40
8.0
  0
CIRCLE
  5
93E
330
443
100
AcDbEntity
  8
STEMPEL
100
AcDbCircle
 10
224.9999999999999
 20
182.1889848840668
 30
0.0
 40
8.0
  0
CIRCLE
  5
93F
330
443
100
AcDbEntity
  8
STEMPEL
100
AcDbCircle
 10
302.7817459305202
 20
214.4072389535466
 30
0.0
 40
8.0
  0
LINE
  5
940
330
443
100
AcDbEntity
  8
MITTEL
100
AcDbLine
 10
138.0258659140546
 20
379.1631189700122
 30
0.0
 11
156.4106422249048
 21
360.7783426591619
 31
0.0
  0
LINE
  5
942
330
443
100
AcDbEntity
  8
MITTEL
100
AcDbLine
 10
311.9741340859454
 20
379.1631189700122
 30
0.0
 11
293.5893577750952
 21
360.7783426591619
 31
0.0
  0
LINE
  5
943
330
443
100
AcDbEntity
  8
MITTEL
100
AcDbLine
 10
138.0258659140546
 20
205.2148507981215
 30
0.0
 11
156.4106422249048
 21
223.5996271089718
 31
0.0
  0
LINE
  5
944
330
443
100
AcDbEntity
  8
MITTEL
100
AcDbLine
 10
311.9741340859454
 20
205.2148507981215
 30
0.0
 11
293.5893577750952
 21
223.5996271089718
 31
0.0
  0
DIMENSION
  5
945
330
443
100
AcDbEntity
  8
BEM
100
AcDbDimension
  2
*D6
 10
380.0
 20
292.1889848840668
 30
0.0
 11
61.54027102629114
 21
359.8962215268073
 31
0.0
 70
    34
 71
     5
 42
0.7853981633974483
  3
STANDARD
100
AcDb2LineAngularDimension
 13
138.0258659140546
 23
379.1631189700122
 33
0.0
 14
156.4106422249048
 24
360.7783426591619
 34
0.0
 15
70.0
 25
292.1889848840668
 35
0.0
 16
77.40542457677836
 26
377.4027527355924
 36
0.0
1001
ACAD
1000
DSTYLE
1002
{
1070
    40
1040
2.0
1070
    41
1040
3.5
1070
    42
1040
1.0
1070
    43
1040
8.0
1070
    44
1040
1.0
1070
    73
1070
     0
1070
    74
1070
     0
1070
    77
1070
     1
1070
    78
1070
     8
1070
    79
1070
     2
1070
   140
1040
3.5
1070
   141
1040
1.5
1070
   146
1040
0.5
1070
   147
1040
1.5
1070
   172
1070
     1
1070
   178
1070
     1
1070
   179
1070
     2
1070
   279
1070
     0
1002
}
  0
ENDSEC
  0
SECTION
  2
OBJECTS
  0
DICTIONARY
  5
438
330
0
100
AcDbDictionary
281
     1
  3
ACAD_COLOR
350
494
  3
ACAD_GROUP
350
439
  3
ACAD_LAYOUT
350
495
  3
ACAD_MATERIAL
350
493
  3
ACAD_MLINESTYLE
350
446
  3
ACAD_PLOTSETTINGS
350
496
  3
ACAD_PLOTSTYLENAME
350
491
  3
ACDBVARIABLEDICTIONARY
350
464
  0
DICTIONARY
  5
494
102
{ACAD_REACTORS
330
438
102
}
330
438
100
AcDbDictionary
281
     1
  0
DICTIONARY
  5
439
102
{ACAD_REACTORS
330
438
102
}
330
438
100
AcDbDictionary
281
     1
  0
DICTIONARY
  5
495
102
{ACAD_REACTORS
330
438
102
}
330
438
100
AcDbDictionary
281
     1
  3
Layout1
350
498
  3
Model
350
497
  0
DICTIONARY
  5
493
102
{ACAD_REACTORS
330
438
102
}
330
438
100
AcDbDictionary
281
     1
  0
DICTIONARY
  5
446
102
{ACAD_REACTORS
330
438
102
}
330
438
100
AcDbDictionary
281
     1
  3
STANDARD
350
447
  0
DICTIONARY
  5
496
102
{ACAD_REACTORS
330
438
102
}
330
438
100
AcDbDictionary
281
     1
  0
ACDBDICTIONARYWDFLT
  5
491
102
{ACAD_REACTORS
330
438
102
}
330
438
100
AcDbDictionary
281
     1
  3
Normal
350
492
100
AcDbDictionaryWithDefault
340
492
  0
DICTIONARY
  5
464
102
{ACAD_REACTORS
330
438
102
}
330
438
100
AcDbDictionary
281
     1
  3
DIMADEC
350
465
  3
DIMASSOC
350
596
  3
PROJECTNAME
350
597
  0
LAYOUT
  5
498
102
{ACAD_REACTORS
330
495
102
}
330
495
100
AcDbPlotSettings
  1

  2
RICOH Aficio 2027 PCL 6
  4

  6

 40
0.0
 41
0.0
 42
0.0
 43
0.0
 44
0.0
 45
0.0
 46
0.0
 47
0.0
 48
0.0
 49
0.0
140
0.0
141
0.0
142
1.0
143
1.0
 70
   688
 72
     0
 73
     0
 74
     5
  7
monochrome1.ctb
 75
    16
147
1.0
 76
     0
 77
     2
 78
   300
148
0.0
149
0.0
100
AcDbLayout
  1
Layout1
 70
     0
 71
     1
 10
0.0
 20
0.0
 11
12.0
 21
9.0
 12
0.0
 22
0.0
 32
0.0
 14
1.000000000000000E+20
 24
1.000000000000000E+20
 34
1.000000000000000E+20
 15
-1.000000000000000E+20
 25
-1.000000000000000E+20
 35
-1.000000000000000E+20
146
0.0
 13
0.0
 23
0.0
 33
0.0
 16
1.0
 26
0.0
 36
0.0
 17
0.0
 27
1.0
 37
0.0
 76
     0
330
440
  0
LAYOUT
  5
497
102
{ACAD_REACTORS
330
495
102
}
330
495
100
AcDbPlotSettings
  1

  2
RICOH Aficio 2027 PCL 6
  4
A4
  6

 40
5.027083396911621
 41
5.027085304260253
 42
5.027084350585937
 43
5.027069091796875
 44
209.9733276367187
 45
296.9259948730469
 46
0.0
 47
2.06
 48
0.0
 49
0.0
140
0.0
141
0.0
142
1.0
143
2.100849164395896
 70
 11956
 72
     1
 73
     0
 74
     2
  7
monochrome1.ctb
 75
     0
147
0.4759979997362411
 76
     0
 77
     2
 78
   300
148
0.0
149
0.0
100
AcDbLayout
  1
Model
 70
     1
 71
     0
 10
0.0
 20
0.0
 11
12.0
 21
9.0
 12
0.0
 22
0.0
 32
0.0
 14
0.0
 24
0.0
 34
0.0
 15
0.0
 25
0.0
 35
0.0
146
0.0
 13
0.0
 23
0.0
 33
0.0
 16
1.0
 26
0.0
 36
0.0
 17
0.0
 27
1.0
 37
0.0
 76
     0
330
443
  0
MLINESTYLE
  5
447
102
{ACAD_REACTORS
330
446
102
}
330
446
100
AcDbMlineStyle
  2
STANDARD
 70
     0
  3

 62
   256
 51
90.0
 52
90.0
 71
     2
 49
0.5
 62
   256
  6
BYLAYER
 49
-0.5
 62
   256
  6
BYLAYER
  0
ACDBPLACEHOLDER
  5
492
102
{ACAD_REACTORS
330
491
102
}
330
491
  0
DICTIONARYVAR
  5
465
102
{ACAD_REACTORS
330
464
102
}
330
464
100
DictionaryVariables
280
     0
  1
0
  0
DICTIONARYVAR
  5
596
102
{ACAD_REACTORS
330
464
102
}
330
464
100
DictionaryVariables
280
     0
  1
1
  0
DICTIONARYVAR
  5
597
102
{ACAD_REACTORS
330
464
102
}
330
464
100
DictionaryVariables
280
     0
  1

  0
ENDSEC
  0
EOF
