  0
SECTION
  2
HEADER
  9
$ACADVER
  1
AC1018
  9
$ACADMAINTVER
 70
     2
  9
$DWGCODEPAGE
  3
ANSI_1252
  9
$INSBASE
 10
0.0
 20
0.0
 30
0.0
  9
$EXTMIN
 10
0.0
 20
-0.0000000000000568
 30
0.0
  9
$EXTMAX
 10
594.0000000000003
 20
840.0
 30
0.0
  9
$LIMMIN
 10
0.0
 20
0.0
  9
$LIMMAX
 10
594.0
 20
840.0
  9
$ORTHOMODE
 70
     1
  9
$REGENMODE
 70
     1
  9
$FILLMODE
 70
     1
  9
$QTEXTMODE
 70
     0
  9
$MIRRTEXT
 70
     1
  9
$LTSCALE
 40
20.0
  9
$ATTMODE
 70
     1
  9
$TEXTSIZE
 40
3.5
  9
$TRACEWID
 40
1.0
  9
$TEXTSTYLE
  7
STANDARD
  9
$CLAYER
  8
SCHRAFF
  9
$CELTYPE
  6
ByLayer
  9
$CECOLOR
 62
   256
  9
$CELTSCALE
 40
1.0
  9
$DISPSILH
 70
     0
  9
$DIMSCALE
 40
2.0
  9
$DIMASZ
 40
3.5
  9
$DIMEXO
 40
1.0
  9
$DIMDLI
 40
7.0
  9
$DIMRND
 40
0.0
  9
$DIMDLE
 40
0.0
  9
$DIMEXE
 40
1.0
  9
$DIMTP
 40
0.0
  9
$DIMTM
 40
0.0
  9
$DIMTXT
 40
3.5
  9
$DIMCEN
 40
1.5
  9
$DIMTSZ
 40
0.0
  9
$DIMTOL
 70
     0
  9
$DIMLIM
 70
     0
  9
$DIMTIH
 70
     0
  9
$DIMTOH
 70
     0
  9
$DIMSE1
 70
     0
  9
$DIMSE2
 70
     0
  9
$DIMTAD
 70
     1
  9
$DIMZIN
 70
     8
  9
$DIMBLK
  1

  9
$DIMASO
 70
     1
  9
$DIMSHO
 70
     0
  9
$DIMPOST
  1

  9
$DIMAPOST
  1

  9
$DIMALT
 70
     0
  9
$DIMALTD
 70
     2
  9
$DIMALTF
 40
25.4
  9
$DIMLFAC
 40
1.0
  9
$DIMTOFL
 70
     1
  9
$DIMTVP
 40
0.0
  9
$DIMTIX
 70
     0
  9
$DIMSOXD
 70
     0
  9
$DIMSAH
 70
     0
  9
$DIMBLK1
  1

  9
$DIMBLK2
  1

  9
$DIMSTYLE
  2
Standard
  9
$DIMCLRD
 70
     0
  9
$DIMCLRE
 70
     0
  9
$DIMCLRT
 70
     1
  9
$DIMTFAC
 40
0.5142857142857144
  9
$DIMGAP
 40
1.5
  9
$DIMJUST
 70
     0
  9
$DIMSD1
 70
     0
  9
$DIMSD2
 70
     0
  9
$DIMTOLJ
 70
     1
  9
$DIMTZIN
 70
     8
  9
$DIMALTZ
 70
     8
  9
$DIMALTTZ
 70
     8
  9
$DIMUPT
 70
     0
  9
$DIMDEC
 70
     2
  9
$DIMTDEC
 70
     2
  9
$DIMALTU
 70
     2
  9
$DIMALTTD
 70
     2
  9
$DIMTXSTY
  7
STANDARD
  9
$DIMAUNIT
 70
     0
  9
$DIMADEC
 70
     2
  9
$DIMALTRND
 40
0.0
  9
$DIMAZIN
 70
     2
  9
$DIMDSEP
 70
    46
  9
$DIMATFIT
 70
     3
  9
$DIMFRAC
 70
     0
  9
$DIMLDRBLK
  1

  9
$DIMLUNIT
 70
     2
  9
$DIMLWD
 70
    -2
  9
$DIMLWE
 70
    -2
  9
$DIMTMOVE
 70
     0
  9
$LUNITS
 70
     2
  9
$LUPREC
 70
     2
  9
$SKETCHINC
 40
1.0
  9
$FILLETRAD
 40
0.0
  9
$AUNITS
 70
     0
  9
$AUPREC
 70
     0
  9
$MENU
  1
ACAD
  9
$ELEVATION
 40
0.0
  9
$PELEVATION
 40
0.0
  9
$THICKNESS
 40
0.0
  9
$LIMCHECK
 70
     0
  9
$CHAMFERA
 40
0.0
  9
$CHAMFERB
 40
0.0
  9
$CHAMFERC
 40
0.0
  9
$CHAMFERD
 40
0.0
  9
$SKPOLY
 70
     0
  9
$TDCREATE
 40
2455397.825393172
  9
$TDUCREATE
 40
2455397.783726505
  9
$TDUPDATE
 40
2455610.571742685
  9
$TDUUPDATE
 40
2455610.530076019
  9
$TDINDWG
 40
0.1051968981
  9
$TDUSRTIMER
 40
0.1051968981
  9
$USRTIMER
 70
     1
  9
$ANGBASE
 50
0.0
  9
$ANGDIR
 70
     0
  9
$PDMODE
 70
     0
  9
$PDSIZE
 40
0.0
  9
$PLINEWID
 40
0.0
  9
$SPLFRAME
 70
     0
  9
$SPLINETYPE
 70
     6
  9
$SPLINESEGS
 70
     8
  9
$HANDSEED
  5
50F0
  9
$SURFTAB1
 70
     6
  9
$SURFTAB2
 70
     6
  9
$SURFTYPE
 70
     6
  9
$SURFU
 70
     6
  9
$SURFV
 70
     6
  9
$UCSBASE
  2

  9
$UCSNAME
  2

  9
$UCSORG
 10
0.0
 20
0.0
 30
0.0
  9
$UCSXDIR
 10
1.0
 20
0.0
 30
0.0
  9
$UCSYDIR
 10
0.0
 20
1.0
 30
0.0
  9
$UCSORTHOREF
  2

  9
$UCSORTHOVIEW
 70
     0
  9
$UCSORGTOP
 10
0.0
 20
0.0
 30
0.0
  9
$UCSORGBOTTOM
 10
0.0
 20
0.0
 30
0.0
  9
$UCSORGLEFT
 10
0.0
 20
0.0
 30
0.0
  9
$UCSORGRIGHT
 10
0.0
 20
0.0
 30
0.0
  9
$UCSORGFRONT
 10
0.0
 20
0.0
 30
0.0
  9
$UCSORGBACK
 10
0.0
 20
0.0
 30
0.0
  9
$PUCSBASE
  2

  9
$PUCSNAME
  2

  9
$PUCSORG
 10
0.0
 20
0.0
 30
0.0
  9
$PUCSXDIR
 10
1.0
 20
0.0
 30
0.0
  9
$PUCSYDIR
 10
0.0
 20
1.0
 30
0.0
  9
$PUCSORTHOREF
  2

  9
$PUCSORTHOVIEW
 70
     0
  9
$PUCSORGTOP
 10
0.0
 20
0.0
 30
0.0
  9
$PUCSORGBOTTOM
 10
0.0
 20
0.0
 30
0.0
  9
$PUCSORGLEFT
 10
0.0
 20
0.0
 30
0.0
  9
$PUCSORGRIGHT
 10
0.0
 20
0.0
 30
0.0
  9
$PUCSORGFRONT
 10
0.0
 20
0.0
 30
0.0
  9
$PUCSORGBACK
 10
0.0
 20
0.0
 30
0.0
  9
$USERI1
 70
     0
  9
$USERI2
 70
     0
  9
$USERI3
 70
     0
  9
$USERI4
 70
     0
  9
$USERI5
 70
     0
  9
$USERR1
 40
0.0
  9
$USERR2
 40
0.0
  9
$USERR3
 40
0.0
  9
$USERR4
 40
0.0
  9
$USERR5
 40
0.0
  9
$WORLDVIEW
 70
     1
  9
$SHADEDGE
 70
     3
  9
$SHADEDIF
 70
    70
  9
$TILEMODE
 70
     1
  9
$MAXACTVP
 70
    16
  9
$PINSBASE
 10
0.0
 20
0.0
 30
0.0
  9
$PLIMCHECK
 70
     0
  9
$PEXTMIN
 10
1.000000000000000E+20
 20
1.000000000000000E+20
 30
1.000000000000000E+20
  9
$PEXTMAX
 10
-1.000000000000000E+20
 20
-1.000000000000000E+20
 30
-1.000000000000000E+20
  9
$PLIMMIN
 10
0.0
 20
0.0
  9
$PLIMMAX
 10
12.0
 20
9.0
  9
$UNITMODE
 70
     0
  9
$VISRETAIN
 70
     0
  9
$PLINEGEN
 70
     0
  9
$PSLTSCALE
 70
     0
  9
$TREEDEPTH
 70
  3020
  9
$CMLSTYLE
  2
Standard
  9
$CMLJUST
 70
     0
  9
$CMLSCALE
 40
1.0
  9
$PROXYGRAPHICS
 70
     1
  9
$MEASUREMENT
 70
     0
  9
$CELWEIGHT
370
    -1
  9
$ENDCAPS
280
     0
  9
$JOINSTYLE
280
     0
  9
$LWDISPLAY
290
     0
  9
$INSUNITS
 70
     0
  9
$HYPERLINKBASE
  1

  9
$STYLESHEET
  1

  9
$XEDIT
290
     1
  9
$CEPSNTYPE
380
     0
  9
$PSTYLEMODE
290
     1
  9
$FINGERPRINTGUID
  2
{D68B0D0D-A558-11D7-B632-000102183313}
  9
$VERSIONGUID
  2
{43DA6F38-7B20-412B-A2D2-5B4AAD04BD98}
  9
$EXTNAMES
290
     1
  9
$PSVPSCALE
 40
0.0
  9
$OLESTARTUP
290
     0
  9
$SORTENTS
280
   127
  9
$INDEXCTL
280
     0
  9
$HIDETEXT
280
     0
  9
$XCLIPFRAME
290
     0
  9
$HALOGAP
280
     0
  9
$OBSCOLOR
 70
   257
  9
$OBSLTYPE
280
     0
  9
$INTERSECTIONDISPLAY
280
     0
  9
$INTERSECTIONCOLOR
 70
   257
  9
$DIMASSOC
280
     1
  9
$PROJECTNAME
  1

  0
ENDSEC
  0
SECTION
  2
CLASSES
  0
CLASS
  1
ACDBDICTIONARYWDFLT
  2
AcDbDictionaryWithDefault
  3
ObjectDBX Classes
 90
        0
 91
        1
280
     0
281
     0
  0
CLASS
  1
DICTIONARYVAR
  2
AcDbDictionaryVar
  3
ObjectDBX Classes
 90
        0
 91
        2
280
     0
281
     0
  0
ENDSEC
  0
SECTION
  2
TABLES
  0
TABLE
  2
VPORT
  5
8
330
0
100
AcDbSymbolTable
 70
     2
  0
VPORT
  5
50EF
330
8
100
AcDbSymbolTableRecord
100
AcDbViewportTableRecord
  2
*Active
 70
     0
 10
0.0
 20
0.0
 11
1.0
 21
1.0
 12
296.9999999999999
 22
420.0
 13
0.0
 23
0.0
 14
1.0
 24
1.0
 15
10.0
 25
10.0
 16
0.0
 26
0.0
 36
1.0
 17
0.0
 27
0.0
 37
0.0
 40
840.0840529888156
 41
1.336927223719676
 42
50.0
 43
0.0
 44
0.0
 50
0.0
 51
0.0
 71
     0
 72
  1500
 73
     1
 74
     0
 75
     0
 76
     0
 77
     0
 78
     0
281
     0
 65
     1
110
0.0
120
0.0
130
0.0
111
1.0
121
0.0
131
0.0
112
0.0
122
1.0
132
0.0
 79
     0
146
0.0
  0
ENDTAB
  0
TABLE
  2
LTYPE
  5
5
330
0
100
AcDbSymbolTable
 70
     3
  0
LTYPE
  5
13
330
5
100
AcDbSymbolTableRecord
100
AcDbLinetypeTableRecord
  2
ByBlock
 70
     0
  3

 72
    65
 73
     0
 40
0.0
  0
LTYPE
  5
14
330
5
100
AcDbSymbolTableRecord
100
AcDbLinetypeTableRecord
  2
ByLayer
 70
     0
  3

 72
    65
 73
     0
 40
0.0
  0
LTYPE
  5
15
330
5
100
AcDbSymbolTableRecord
100
AcDbLinetypeTableRecord
  2
Continuous
 70
     0
  3
Solid line
 72
    65
 73
     0
 40
0.0
  0
LTYPE
  5
25
330
5
100
AcDbSymbolTableRecord
100
AcDbLinetypeTableRecord
  2
STRICHPUNKT
 70
     0
  3
__ . __ . __ . __ . __ . __ . __ . __ . __ . __
 72
    65
 73
     4
 40
1.0
 49
0.5
 74
     0
 49
-0.25
 74
     0
 49
0.0
 74
     0
 49
-0.25
 74
     0
  0
LTYPE
  5
34
330
5
100
AcDbSymbolTableRecord
100
AcDbLinetypeTableRecord
  2
AUSGEZOGEN
 70
     0
  3
Ausgezogene Linie
 72
    65
 73
     0
 40
0.0
  0
ENDTAB
  0
TABLE
  2
LAYER
  5
2
330
0
100
AcDbSymbolTable
 70
     9
  0
LAYER
  5
10
330
2
100
AcDbSymbolTableRecord
100
AcDbLayerTableRecord
  2
0
 70
     0
 62
     7
  6
Continuous
370
    -3
390
F
  0
LAYER
  5
2B
330
2
100
AcDbSymbolTableRecord
100
AcDbLayerTableRecord
  2
VOLL
 70
     0
 62
     1
  6
Continuous
370
    -3
390
F
  0
LAYER
  5
2C
330
2
100
AcDbSymbolTableRecord
100
AcDbLayerTableRecord
  2
HILF
 70
     0
 62
     2
  6
Continuous
370
    -3
390
F
  0
LAYER
  5
2D
330
2
100
AcDbSymbolTableRecord
100
AcDbLayerTableRecord
  2
MITTEL
 70
     0
 62
     2
  6
STRICHPUNKT
370
    -3
390
F
  0
LAYER
  5
2F
330
2
100
AcDbSymbolTableRecord
100
AcDbLayerTableRecord
  2
BEM
 70
     0
 62
     7
  6
Continuous
370
    -3
390
F
  0
LAYER
  5
30
330
2
100
AcDbSymbolTableRecord
100
AcDbLayerTableRecord
  2
STEMPEL
 70
     0
 62
     3
  6
Continuous
370
    -3
390
F
  0
LAYER
  5
33
330
2
100
AcDbSymbolTableRecord
100
AcDbLayerTableRecord
  2
TEXT
 70
     0
 62
     7
  6
Continuous
370
    -3
390
F
  0
LAYER
  5
2C2
330
2
100
AcDbSymbolTableRecord
100
AcDbLayerTableRecord
  2
DEFPOINTS
 70
     0
 62
     7
  6
AUSGEZOGEN
290
     0
370
    -3
390
F
  0
LAYER
  5
2C3
330
2
100
AcDbSymbolTableRecord
100
AcDbLayerTableRecord
  2
SCHRAFF
 70
     0
 62
     7
  6
AUSGEZOGEN
370
    -3
390
F
  0
ENDTAB
  0
TABLE
  2
STYLE
  5
3
330
0
100
AcDbSymbolTable
 70
     2
  0
STYLE
  5
11
330
3
100
AcDbSymbolTableRecord
100
AcDbTextStyleTableRecord
  2
STANDARD
 70
     0
 40
0.0
 41
0.8
 50
0.0
 71
     0
 42
3.5
  3
simplex.shx
  4

  0
STYLE
  5
24
330
3
100
AcDbSymbolTableRecord
100
AcDbTextStyleTableRecord
  2
GREEKS
 70
     0
 40
0.0
 41
0.8
 50
0.0
 71
     0
 42
2.5
  3
SIMPLEX.shx
  4

  0
ENDTAB
  0
TABLE
  2
VIEW
  5
6
330
0
100
AcDbSymbolTable
 70
     0
  0
ENDTAB
  0
TABLE
  2
UCS
  5
7
330
0
100
AcDbSymbolTable
 70
     0
  0
ENDTAB
  0
TABLE
  2
APPID
  5
9
330
0
100
AcDbSymbolTable
 70
     1
  0
APPID
  5
12
330
9
100
AcDbSymbolTableRecord
100
AcDbRegAppTableRecord
  2
ACAD
 70
     0
  0
ENDTAB
  0
TABLE
  2
DIMSTYLE
  5
A
330
0
100
AcDbSymbolTable
 70
     1
100
AcDbDimStyleTable
 71
     1
340
A2
  0
DIMSTYLE
105
A2
102
{ACAD_REACTORS
330
4106
330
4110
330
49E7
330
49E9
330
49EE
330
4D6E
330
4EA0
330
4EA6
330
4EA7
330
4F17
102
}
330
A
100
AcDbSymbolTableRecord
100
AcDbDimStyleTableRecord
  2
Standard
 70
     0
340
11
  0
ENDTAB
  0
TABLE
  2
BLOCK_RECORD
  5
1
330
0
100
AcDbSymbolTable
 70
    11
  0
BLOCK_RECORD
  5
1E
102
{ACAD_XDICTIONARY
360
DB
102
}
330
1
100
AcDbSymbolTableRecord
100
AcDbBlockTableRecord
  2
*Model_Space
340
21
  0
BLOCK_RECORD
  5
1A
102
{ACAD_XDICTIONARY
360
DD
102
}
330
1
100
AcDbSymbolTableRecord
100
AcDbBlockTableRecord
  2
*Paper_Space
340
1D
  0
BLOCK_RECORD
  5
22
330
1
100
AcDbSymbolTableRecord
100
AcDbBlockTableRecord
  2
LOGO
340
0
102
{BLKREFS
331
4389
102
}
  0
BLOCK_RECORD
  5
43CD
330
1
100
AcDbSymbolTableRecord
100
AcDbBlockTableRecord
  2
*D1
340
0
  0
BLOCK_RECORD
  5
43D9
330
1
100
AcDbSymbolTableRecord
100
AcDbBlockTableRecord
  2
*D2
340
0
  0
BLOCK_RECORD
  5
49F6
330
1
100
AcDbSymbolTableRecord
100
AcDbBlockTableRecord
  2
*D3
340
0
  0
BLOCK_RECORD
  5
4A02
330
1
100
AcDbSymbolTableRecord
100
AcDbBlockTableRecord
  2
*D4
340
0
  0
BLOCK_RECORD
  5
4A0E
330
1
100
AcDbSymbolTableRecord
100
AcDbBlockTableRecord
  2
*D5
340
0
  0
BLOCK_RECORD
  5
4EB1
330
1
100
AcDbSymbolTableRecord
100
AcDbBlockTableRecord
  2
*D6
340
0
  0
BLOCK_RECORD
  5
4EBD
330
1
100
AcDbSymbolTableRecord
100
AcDbBlockTableRecord
  2
*D7
340
0
  0
BLOCK_RECORD
  5
4EC9
330
1
100
AcDbSymbolTableRecord
100
AcDbBlockTableRecord
  2
*D8
340
0
  0
BLOCK_RECORD
  5
4ED5
330
1
100
AcDbSymbolTableRecord
100
AcDbBlockTableRecord
  2
*D9
340
0
  0
BLOCK_RECORD
  5
4F18
330
1
100
AcDbSymbolTableRecord
100
AcDbBlockTableRecord
  2
*D10
340
0
  0
ENDTAB
  0
ENDSEC
  0
SECTION
  2
BLOCKS
  0
BLOCK
  5
37
330
1E
100
AcDbEntity
  8
0
100
AcDbBlockBegin
  2
*Model_Space
 70
     0
 10
0.0
 20
0.0
 30
0.0
  3
*Model_Space
  1

  0
ENDBLK
  5
38
330
1E
100
AcDbEntity
  8
0
100
AcDbBlockEnd
  0
BLOCK
  5
35
330
1A
100
AcDbEntity
 67
     1
  8
0
100
AcDbBlockBegin
  2
*Paper_Space
 70
     0
 10
0.0
 20
0.0
 30
0.0
  3
*Paper_Space
  1

  0
ENDBLK
  5
36
330
1A
100
AcDbEntity
 67
     1
  8
0
100
AcDbBlockEnd
  0
BLOCK
  5
39
330
22
100
AcDbEntity
  8
0
100
AcDbBlockBegin
  2
LOGO
 70
     0
 10
0.0
 20
0.0
 30
0.0
  3
LOGO
  1

  0
ARC
  5
3A
330
22
100
AcDbEntity
  8
0
100
AcDbCircle
 10
11.59973089678112
 20
-9.271599258481501
 30
0.0
 40
4.5
100
AcDbArc
 50
270.0
 51
231.0575587310159
  0
LINE
  5
3B
330
22
100
AcDbEntity
  8
0
100
AcDbLine
 10
3.599730896781125
 20
-4.771599258481529
 30
0.0
 11
3.599730896781153
 21
-11.77159925848133
 31
0.0
  0
LINE
  5
3C
330
22
100
AcDbEntity
  8
0
100
AcDbLine
 10
2.599730896781125
 20
-4.771599258481529
 30
0.0
 11
2.599730896781153
 21
-11.77159925848133
 31
0.0
  0
CIRCLE
  5
3D
330
22
100
AcDbEntity
  8
0
100
AcDbCircle
 10
11.59973089678112
 20
-9.271599258481501
 30
0.0
 40
3.5
  0
ARC
  5
3E
330
22
100
AcDbEntity
  8
0
100
AcDbCircle
 10
31.59973089678115
 20
-9.271599258481472
 30
0.0
 40
4.5
100
AcDbArc
 50
270.0
 51
231.0575587310182
  0
LINE
  5
3F
330
22
100
AcDbEntity
  8
0
100
AcDbLine
 10
17.59973089678112
 20
-4.771599258481472
 30
0.0
 11
17.59973089678115
 21
-13.77159925848147
 31
0.0
  0
ARC
  5
40
330
22
100
AcDbEntity
  8
0
100
AcDbCircle
 10
22.59973089678116
 20
-7.271599258481472
 30
0.0
 40
2.5
100
AcDbArc
 50
293.1161887722295
 51
90.0
  0
CIRCLE
  5
41
330
22
100
AcDbEntity
  8
0
100
AcDbCircle
 10
31.59973089678115
 20
-9.271599258481472
 30
0.0
 40
3.5
  0
ARC
  5
42
330
22
100
AcDbEntity
  8
0
100
AcDbCircle
 10
4.599730896781153
 20
-11.77159925848133
 30
0.0
 40
1.0
100
AcDbArc
 50
180.0
 51
270.0
  0
ARC
  5
43
330
22
100
AcDbEntity
  8
0
100
AcDbCircle
 10
4.599730896781153
 20
-11.77159925848133
 30
0.0
 40
2.0
100
AcDbArc
 50
179.9999999999992
 51
270.0
  0
LINE
  5
44
330
22
100
AcDbEntity
  8
0
100
AcDbLine
 10
11.59973089678115
 20
-13.77159925848144
 30
0.0
 11
4.599730896781153
 21
-13.77159925848147
 31
0.0
  0
LINE
  5
45
330
22
100
AcDbEntity
  8
0
100
AcDbLine
 10
8.771303772034769
 20
-12.77159925848136
 30
0.0
 11
4.599730896781153
 21
-12.77159925848133
 31
0.0
  0
LINE
  5
46
330
22
100
AcDbEntity
  8
0
100
AcDbLine
 10
31.59973089678115
 20
-13.77159925848147
 30
0.0
 11
23.6715276665056
 21
-13.77159925848144
 31
0.0
  0
LINE
  5
47
330
22
100
AcDbEntity
  8
0
100
AcDbLine
 10
23.56565672307022
 20
-9.51278021337896
 30
0.0
 11
24.4388546544846
 21
-12.77159925848144
 31
0.0
  0
LINE
  5
48
330
22
100
AcDbEntity
  8
0
100
AcDbLine
 10
22.59973089678116
 20
-9.771599258481472
 30
0.0
 11
18.59973089678112
 21
-9.771599258481472
 31
0.0
  0
LINE
  5
49
330
22
100
AcDbEntity
  8
0
100
AcDbLine
 10
18.59973089678115
 20
-13.77159925848144
 30
0.0
 11
17.59973089678115
 21
-13.77159925848144
 31
0.0
  0
LINE
  5
4A
330
22
100
AcDbEntity
  8
0
100
AcDbLine
 10
18.59973089678115
 20
-9.771599258481472
 30
0.0
 11
18.59973089678115
 21
-13.77159925848144
 31
0.0
  0
LINE
  5
4B
330
22
100
AcDbEntity
  8
0
100
AcDbLine
 10
22.59973089678116
 20
-9.771599258481472
 30
0.0
 11
23.67152766650562
 21
-13.77159925848147
 31
0.0
  0
ARC
  5
4C
330
22
100
AcDbEntity
  8
0
100
AcDbCircle
 10
22.59973089678116
 20
-7.271599258481472
 30
0.0
 40
2.5
100
AcDbArc
 50
270.0
 51
270.0000000000007
  0
LINE
  5
4D
330
22
100
AcDbEntity
  8
0
100
AcDbLine
 10
28.77130377203494
 20
-12.77159925848147
 30
0.0
 11
24.43885465448463
 21
-12.77159925848144
 31
0.0
  0
LINE
  5
4E
330
22
100
AcDbEntity
  8
0
100
AcDbLine
 10
3.599730896781125
 20
-4.771599258481472
 30
0.0
 11
2.599730896781125
 21
-4.771599258481472
 31
0.0
  0
LINE
  5
4F
330
22
100
AcDbEntity
  8
0
100
AcDbLine
 10
22.59973089678116
 20
-8.771599258481472
 30
0.0
 11
18.59973089678115
 21
-8.771599258481472
 31
0.0
  0
LINE
  5
50
330
22
100
AcDbEntity
  8
0
100
AcDbLine
 10
22.59973089678116
 20
-5.771599258481472
 30
0.0
 11
18.59973089678115
 21
-5.771599258481472
 31
0.0
  0
LINE
  5
51
330
22
100
AcDbEntity
  8
0
100
AcDbLine
 10
22.59973089678116
 20
-4.771599258481472
 30
0.0
 11
17.59973089678115
 21
-4.771599258481472
 31
0.0
  0
LINE
  5
52
330
22
100
AcDbEntity
  8
0
100
AcDbLine
 10
18.59973089678115
 20
-5.771599258481472
 30
0.0
 11
18.59973089678115
 21
-8.771599258481472
 31
0.0
  0
ARC
  5
53
330
22
100
AcDbEntity
  8
0
100
AcDbCircle
 10
22.59973089678116
 20
-7.271599258481472
 30
0.0
 40
1.5
100
AcDbArc
 50
270.0
 51
90.0
  0
ENDBLK
  5
54
330
22
100
AcDbEntity
  8
0
100
AcDbBlockEnd
  0
BLOCK
  5
43D7
330
43CD
100
AcDbEntity
  8
0
100
AcDbBlockBegin
  2
*D1
 70
     1
 10
0.0
 20
0.0
 30
0.0
  3
*D1
  1

  0
LINE
  5
502A
330
43CD
100
AcDbEntity
  8
BEM
 62
     0
370
    -2
100
AcDbLine
 10
213.5072129752068
 20
168.1174394693503
 30
0.0
 11
87.30554508088443
 21
168.1174394693503
 31
0.0
  0
LINE
  5
502B
330
43CD
100
AcDbEntity
  8
BEM
 62
     0
370
    -2
100
AcDbLine
 10
127.0754994138918
 20
428.1174394693504
 30
0.0
 11
87.30554508088449
 21
428.1174394693504
 31
0.0
  0
LINE
  5
502C
330
43CD
100
AcDbEntity
  8
BEM
 62
     0
370
    -2
100
AcDbLine
 10
89.30554508088443
 20
175.1174394693503
 30
0.0
 11
89.30554508088448
 21
421.1174394693504
 31
0.0
  0
SOLID
  5
502D
330
43CD
100
AcDbEntity
  8
BEM
 62
     0
100
AcDbTrace
 10
88.13887841421776
 20
175.1174394693503
 30
0.0
 11
90.4722117475511
 21
175.1174394693503
 31
0.0
 12
89.30554508088443
 22
168.1174394693503
 32
0.0
 13
89.30554508088443
 23
168.1174394693503
 33
0.0
  0
SOLID
  5
502E
330
43CD
100
AcDbEntity
  8
BEM
 62
     0
100
AcDbTrace
 10
88.13887841421781
 20
421.1174394693504
 30
0.0
 11
90.47221174755115
 21
421.1174394693504
 31
0.0
 12
89.30554508088448
 22
428.1174394693504
 32
0.0
 13
89.30554508088448
 23
428.1174394693504
 33
0.0
  0
MTEXT
  5
502F
330
43CD
100
AcDbEntity
  8
BEM
 62
     1
100
AcDbMText
 10
82.80554508088441
 20
298.1174394693504
 30
0.0
 40
7.0
 41
0.0
 71
     5
 72
     1
  1
\A1;260
 11
0.0000000000000001
 21
1.0
 31
0.0
 73
     1
 44
1.0
  0
POINT
  5
5030
330
43CD
100
AcDbEntity
  8
DEFPOINTS
 62
     0
100
AcDbPoint
 10
215.5072129752068
 20
168.1174394693503
 30
0.0
  0
POINT
  5
5031
330
43CD
100
AcDbEntity
  8
DEFPOINTS
 62
     0
100
AcDbPoint
 10
129.0754994138918
 20
428.1174394693503
 30
0.0
  0
POINT
  5
5032
330
43CD
100
AcDbEntity
  8
DEFPOINTS
 62
     0
100
AcDbPoint
 10
89.30554508088448
 20
428.1174394693504
 30
0.0
  0
ENDBLK
  5
43D8
330
43CD
100
AcDbEntity
  8
0
100
AcDbBlockEnd
  0
BLOCK
  5
43E3
330
43D9
100
AcDbEntity
  8
0
100
AcDbBlockBegin
  2
*D2
 70
     1
 10
0.0
 20
0.0
 30
0.0
  3
*D2
  1

  0
LINE
  5
4418
330
43D9
100
AcDbEntity
  8
BEM
 62
     0
370
    -2
100
AcDbLine
 10
215.0754994138922
 20
171.0519480549883
 30
0.0
 11
215.0754994138922
 21
148.1952762542607
 31
0.0
  0
LINE
  5
4419
330
43D9
100
AcDbEntity
  8
BEM
 62
     0
370
    -2
100
AcDbLine
 10
288.0754994138921
 20
171.0519480549881
 30
0.0
 11
288.0754994138921
 21
148.1952762542607
 31
0.0
  0
LINE
  5
441A
330
43D9
100
AcDbEntity
  8
BEM
 62
     0
370
    -2
100
AcDbLine
 10
222.0754994138922
 20
150.1952762542607
 30
0.0
 11
281.0754994138921
 21
150.1952762542607
 31
0.0
  0
SOLID
  5
441B
330
43D9
100
AcDbEntity
  8
BEM
 62
     0
100
AcDbTrace
 10
222.0754994138922
 20
151.3619429209274
 30
0.0
 11
222.0754994138922
 21
149.0286095875941
 31
0.0
 12
215.0754994138922
 22
150.1952762542607
 32
0.0
 13
215.0754994138922
 23
150.1952762542607
 33
0.0
  0
SOLID
  5
441C
330
43D9
100
AcDbEntity
  8
BEM
 62
     0
100
AcDbTrace
 10
281.0754994138921
 20
151.3619429209274
 30
0.0
 11
281.0754994138921
 21
149.0286095875941
 31
0.0
 12
288.0754994138921
 22
150.1952762542607
 32
0.0
 13
288.0754994138921
 23
150.1952762542607
 33
0.0
  0
MTEXT
  5
441D
330
43D9
100
AcDbEntity
  8
BEM
 62
     1
100
AcDbMText
 10
251.5754994138922
 20
156.6952762542607
 30
0.0
 40
7.0
 41
0.0
 71
     5
 72
     1
  1
\A1;%%c73
 73
     1
 44
1.0
  0
POINT
  5
441E
330
43D9
100
AcDbEntity
  8
DEFPOINTS
 62
     0
100
AcDbPoint
 10
215.0754994138922
 20
173.0519480549883
 30
0.0
  0
POINT
  5
441F
330
43D9
100
AcDbEntity
  8
DEFPOINTS
 62
     0
100
AcDbPoint
 10
288.0754994138921
 20
173.0519480549881
 30
0.0
  0
POINT
  5
4420
330
43D9
100
AcDbEntity
  8
DEFPOINTS
 62
     0
100
AcDbPoint
 10
288.0754994138921
 20
150.1952762542607
 30
0.0
  0
ENDBLK
  5
43E4
330
43D9
100
AcDbEntity
  8
0
100
AcDbBlockEnd
  0
BLOCK
  5
4A00
330
49F6
100
AcDbEntity
  8
0
100
AcDbBlockBegin
  2
*D3
 70
     1
 10
0.0
 20
0.0
 30
0.0
  3
*D3
  1

  0
LINE
  5
4A35
330
49F6
100
AcDbEntity
  8
BEM
 62
     0
370
    -2
100
AcDbLine
 10
176.575499413892
 20
428.1174394693498
 30
0.0
 11
176.575499413892
 21
465.4575785683196
 31
0.0
  0
LINE
  5
4A36
330
49F6
100
AcDbEntity
  8
BEM
 62
     0
370
    -2
100
AcDbLine
 10
326.5754994138923
 20
428.1174394693501
 30
0.0
 11
326.5754994138923
 21
465.4575785683196
 31
0.0
  0
LINE
  5
4A37
330
49F6
100
AcDbEntity
  8
BEM
 62
     0
370
    -2
100
AcDbLine
 10
183.575499413892
 20
463.4575785683195
 30
0.0
 11
319.5754994138923
 21
463.4575785683195
 31
0.0
  0
SOLID
  5
4A38
330
49F6
100
AcDbEntity
  8
BEM
 62
     0
100
AcDbTrace
 10
183.575499413892
 20
464.6242452349863
 30
0.0
 11
183.575499413892
 21
462.2909119016529
 31
0.0
 12
176.575499413892
 22
463.4575785683195
 32
0.0
 13
176.575499413892
 23
463.4575785683195
 33
0.0
  0
SOLID
  5
4A39
330
49F6
100
AcDbEntity
  8
BEM
 62
     0
100
AcDbTrace
 10
319.5754994138923
 20
464.6242452349863
 30
0.0
 11
319.5754994138923
 21
462.2909119016529
 31
0.0
 12
326.5754994138923
 22
463.4575785683195
 32
0.0
 13
326.5754994138923
 23
463.4575785683195
 33
0.0
  0
MTEXT
  5
4A3A
330
49F6
100
AcDbEntity
  8
BEM
 62
     1
100
AcDbMText
 10
251.5754994138922
 20
469.9575785683196
 30
0.0
 40
7.0
 41
0.0
 71
     5
 72
     1
  1
\A1;%%c150
  7
GREEKS
 73
     1
 44
1.0
  0
POINT
  5
4A3B
330
49F6
100
AcDbEntity
  8
DEFPOINTS
 62
     0
100
AcDbPoint
 10
176.575499413892
 20
426.1174394693498
 30
0.0
  0
POINT
  5
4A3C
330
49F6
100
AcDbEntity
  8
DEFPOINTS
 62
     0
100
AcDbPoint
 10
326.5754994138923
 20
426.1174394693502
 30
0.0
  0
POINT
  5
4A3D
330
49F6
100
AcDbEntity
  8
DEFPOINTS
 62
     0
100
AcDbPoint
 10
326.5754994138923
 20
463.4575785683195
 30
0.0
  0
ENDBLK
  5
4A01
330
49F6
100
AcDbEntity
  8
0
100
AcDbBlockEnd
  0
BLOCK
  5
4A0C
330
4A02
100
AcDbEntity
  8
0
100
AcDbBlockBegin
  2
*D4
 70
     1
 10
0.0
 20
0.0
 30
0.0
  3
*D4
  1

  0
LINE
  5
4A3E
330
4A02
100
AcDbEntity
  8
BEM
 62
     0
370
    -2
100
AcDbLine
 10
186.5779547793702
 20
264.1174394693499
 30
0.0
 11
186.5779547793702
 21
246.5280436263643
 31
0.0
  0
LINE
  5
4A3F
330
4A02
100
AcDbEntity
  8
BEM
 62
     0
370
    -2
100
AcDbLine
 10
316.5730440484136
 20
264.1174394693481
 30
0.0
 11
316.5730440484136
 21
246.5280436263643
 31
0.0
  0
LINE
  5
4A40
330
4A02
100
AcDbEntity
  8
BEM
 62
     0
370
    -2
100
AcDbLine
 10
193.5779547793702
 20
248.5280436263643
 30
0.0
 11
309.5730440484136
 21
248.5280436263643
 31
0.0
  0
SOLID
  5
4A41
330
4A02
100
AcDbEntity
  8
BEM
 62
     0
100
AcDbTrace
 10
193.5779547793702
 20
249.694710293031
 30
0.0
 11
193.5779547793702
 21
247.3613769596977
 31
0.0
 12
186.5779547793702
 22
248.5280436263643
 32
0.0
 13
186.5779547793702
 23
248.5280436263643
 33
0.0
  0
SOLID
  5
4A42
330
4A02
100
AcDbEntity
  8
BEM
 62
     0
100
AcDbTrace
 10
309.5730440484136
 20
249.694710293031
 30
0.0
 11
309.5730440484136
 21
247.3613769596977
 31
0.0
 12
316.5730440484136
 22
248.5280436263643
 32
0.0
 13
316.5730440484136
 23
248.5280436263643
 33
0.0
  0
MTEXT
  5
4A43
330
4A02
100
AcDbEntity
  8
BEM
 62
     1
100
AcDbMText
 10
251.5754994138919
 20
255.0280436263643
 30
0.0
 40
7.0
 41
0.0
 71
     5
 72
     1
  1
\A1;%%c130
  7
GREEKS
 73
     1
 44
1.0
  0
POINT
  5
4A44
330
4A02
100
AcDbEntity
  8
DEFPOINTS
 62
     0
100
AcDbPoint
 10
186.5779547793702
 20
266.1174394693499
 30
0.0
  0
POINT
  5
4A45
330
4A02
100
AcDbEntity
  8
DEFPOINTS
 62
     0
100
AcDbPoint
 10
316.5730440484136
 20
266.1174394693481
 30
0.0
  0
POINT
  5
4A46
330
4A02
100
AcDbEntity
  8
DEFPOINTS
 62
     0
100
AcDbPoint
 10
316.5730440484136
 20
248.5280436263643
 30
0.0
  0
ENDBLK
  5
4A0D
330
4A02
100
AcDbEntity
  8
0
100
AcDbBlockEnd
  0
BLOCK
  5
4A18
330
4A0E
100
AcDbEntity
  8
0
100
AcDbBlockBegin
  2
*D5
 70
     1
 10
0.0
 20
0.0
 30
0.0
  3
*D5
  1

  0
LINE
  5
4F36
330
4A0E
100
AcDbEntity
  8
BEM
 62
     0
370
    -2
100
AcDbLine
 10
174.575499413892
 20
426.1174394693498
 30
0.0
 11
100.7100302915511
 21
426.1174394693498
 31
0.0
  0
LINE
  5
4F37
330
4A0E
100
AcDbEntity
  8
BEM
 62
     0
370
    -2
100
AcDbLine
 10
184.5779547793702
 20
266.1174394693499
 30
0.0
 11
100.710030291551
 21
266.1174394693499
 31
0.0
  0
LINE
  5
4F38
330
4A0E
100
AcDbEntity
  8
BEM
 62
     0
370
    -2
100
AcDbLine
 10
102.7100302915511
 20
419.1174394693499
 30
0.0
 11
102.710030291551
 21
273.1174394693499
 31
0.0
  0
SOLID
  5
4F39
330
4A0E
100
AcDbEntity
  8
BEM
 62
     0
100
AcDbTrace
 10
101.5433636248844
 20
419.1174394693499
 30
0.0
 11
103.8766969582177
 21
419.1174394693499
 31
0.0
 12
102.7100302915511
 22
426.1174394693498
 32
0.0
 13
102.7100302915511
 23
426.1174394693498
 33
0.0
  0
SOLID
  5
4F3A
330
4A0E
100
AcDbEntity
  8
BEM
 62
     0
100
AcDbTrace
 10
101.5433636248844
 20
273.1174394693499
 30
0.0
 11
103.8766969582177
 21
273.1174394693499
 31
0.0
 12
102.710030291551
 22
266.1174394693499
 32
0.0
 13
102.710030291551
 23
266.1174394693499
 33
0.0
  0
MTEXT
  5
4F3B
330
4A0E
100
AcDbEntity
  8
BEM
 62
     1
100
AcDbMText
 10
96.21003029155101
 20
346.1174394693499
 30
0.0
 40
7.0
 41
0.0
 71
     5
 72
     1
  1
\A1;160
  7
GREEKS
 11
0.0000000000000001
 21
1.0
 31
0.0
 73
     1
 44
1.0
  0
POINT
  5
4F3C
330
4A0E
100
AcDbEntity
  8
DEFPOINTS
 62
     0
100
AcDbPoint
 10
176.575499413892
 20
426.1174394693498
 30
0.0
  0
POINT
  5
4F3D
330
4A0E
100
AcDbEntity
  8
DEFPOINTS
 62
     0
100
AcDbPoint
 10
186.5779547793702
 20
266.1174394693499
 30
0.0
  0
POINT
  5
4F3E
330
4A0E
100
AcDbEntity
  8
DEFPOINTS
 62
     0
100
AcDbPoint
 10
102.710030291551
 20
266.1174394693499
 30
0.0
  0
ENDBLK
  5
4A19
330
4A0E
100
AcDbEntity
  8
0
100
AcDbBlockEnd
  0
BLOCK
  5
4EBB
330
4EB1
100
AcDbEntity
  8
0
100
AcDbBlockBegin
  2
*D6
 70
     1
 10
0.0
 20
0.0
 30
0.0
  3
*D6
  1

  0
LINE
  5
50D1
330
4EB1
100
AcDbEntity
  8
BEM
 62
     0
370
    -2
100
AcDbLine
 10
183.0754994138917
 20
619.1174394693502
 30
0.0
 11
103.3972815330057
 21
619.1174394693502
 31
0.0
  0
LINE
  5
50D2
330
4EB1
100
AcDbEntity
  8
BEM
 62
     0
370
    -2
100
AcDbLine
 10
132.5754994138923
 20
584.1174394693496
 30
0.0
 11
103.3972815330057
 21
584.1174394693496
 31
0.0
  0
LINE
  5
50D3
330
4EB1
100
AcDbEntity
  8
BEM
 62
     0
370
    -2
100
AcDbLine
 10
105.3972815330057
 20
612.1174394693503
 30
0.0
 11
105.3972815330057
 21
591.1174394693496
 31
0.0
  0
SOLID
  5
50D4
330
4EB1
100
AcDbEntity
  8
BEM
 62
     0
100
AcDbTrace
 10
104.230614866339
 20
612.1174394693503
 30
0.0
 11
106.5639481996724
 21
612.1174394693503
 31
0.0
 12
105.3972815330057
 22
619.1174394693502
 32
0.0
 13
105.3972815330057
 23
619.1174394693502
 33
0.0
  0
SOLID
  5
50D5
330
4EB1
100
AcDbEntity
  8
BEM
 62
     0
100
AcDbTrace
 10
104.230614866339
 20
591.1174394693496
 30
0.0
 11
106.5639481996724
 21
591.1174394693496
 31
0.0
 12
105.3972815330057
 22
584.1174394693496
 32
0.0
 13
105.3972815330057
 23
584.1174394693496
 33
0.0
  0
MTEXT
  5
50D6
330
4EB1
100
AcDbEntity
  8
BEM
 62
     1
100
AcDbMText
 10
98.89728153300564
 20
601.6174394693499
 30
0.0
 40
7.0
 41
0.0
 71
     5
 72
     1
  1
\A1;35
 11
0.0000000000000001
 21
1.0
 31
0.0
 73
     1
 44
1.0
  0
POINT
  5
50D7
330
4EB1
100
AcDbEntity
  8
DEFPOINTS
 62
     0
100
AcDbPoint
 10
185.0754994138917
 20
619.1174394693502
 30
0.0
  0
POINT
  5
50D8
330
4EB1
100
AcDbEntity
  8
DEFPOINTS
 62
     0
100
AcDbPoint
 10
134.5754994138923
 20
584.1174394693496
 30
0.0
  0
POINT
  5
50D9
330
4EB1
100
AcDbEntity
  8
DEFPOINTS
 62
     0
100
AcDbPoint
 10
105.3972815330057
 20
584.1174394693496
 30
0.0
  0
ENDBLK
  5
4EBC
330
4EB1
100
AcDbEntity
  8
0
100
AcDbBlockEnd
  0
BLOCK
  5
4EC7
330
4EBD
100
AcDbEntity
  8
0
100
AcDbBlockBegin
  2
*D7
 70
     1
 10
0.0
 20
0.0
 30
0.0
  3
*D7
  1

  0
LINE
  5
50C8
330
4EBD
100
AcDbEntity
  8
BEM
 62
     0
370
    -2
100
AcDbLine
 10
169.5754994138919
 20
694.117439469351
 30
0.0
 11
87.09084469718192
 21
694.117439469351
 31
0.0
  0
LINE
  5
50C9
330
4EBD
100
AcDbEntity
  8
BEM
 62
     0
370
    -2
100
AcDbLine
 10
132.5754994138923
 20
584.1174394693496
 30
0.0
 11
87.0908446971819
 21
584.1174394693496
 31
0.0
  0
LINE
  5
50CA
330
4EBD
100
AcDbEntity
  8
BEM
 62
     0
370
    -2
100
AcDbLine
 10
89.09084469718193
 20
687.1174394693509
 30
0.0
 11
89.09084469718189
 21
591.1174394693496
 31
0.0
  0
SOLID
  5
50CB
330
4EBD
100
AcDbEntity
  8
BEM
 62
     0
100
AcDbTrace
 10
87.92417803051526
 20
687.1174394693509
 30
0.0
 11
90.2575113638486
 21
687.1174394693509
 31
0.0
 12
89.09084469718193
 22
694.117439469351
 32
0.0
 13
89.09084469718193
 23
694.117439469351
 33
0.0
  0
SOLID
  5
50CC
330
4EBD
100
AcDbEntity
  8
BEM
 62
     0
100
AcDbTrace
 10
87.92417803051522
 20
591.1174394693496
 30
0.0
 11
90.25751136384856
 21
591.1174394693496
 31
0.0
 12
89.09084469718189
 22
584.1174394693496
 32
0.0
 13
89.09084469718189
 23
584.1174394693496
 33
0.0
  0
MTEXT
  5
50CD
330
4EBD
100
AcDbEntity
  8
BEM
 62
     1
100
AcDbMText
 10
82.5908446971818
 20
639.1174394693503
 30
0.0
 40
7.0
 41
0.0
 71
     5
 72
     1
  1
\A1;110
 11
0.0000000000000001
 21
1.0
 31
0.0
 73
     1
 44
1.0
  0
POINT
  5
50CE
330
4EBD
100
AcDbEntity
  8
DEFPOINTS
 62
     0
100
AcDbPoint
 10
171.5754994138919
 20
694.117439469351
 30
0.0
  0
POINT
  5
50CF
330
4EBD
100
AcDbEntity
  8
DEFPOINTS
 62
     0
100
AcDbPoint
 10
134.5754994138923
 20
584.1174394693496
 30
0.0
  0
POINT
  5
50D0
330
4EBD
100
AcDbEntity
  8
DEFPOINTS
 62
     0
100
AcDbPoint
 10
89.09084469718189
 20
584.1174394693496
 30
0.0
  0
ENDBLK
  5
4EC8
330
4EBD
100
AcDbEntity
  8
0
100
AcDbBlockEnd
  0
BLOCK
  5
4ED3
330
4EC9
100
AcDbEntity
  8
0
100
AcDbBlockBegin
  2
*D8
 70
     1
 10
0.0
 20
0.0
 30
0.0
  3
*D8
  1

  0
LINE
  5
4EF3
330
4EC9
100
AcDbEntity
  8
BEM
 62
     0
370
    -2
100
AcDbLine
 10
141.5754994138919
 20
676.117381502036
 30
0.0
 11
141.5754994138919
 21
704.9297924660848
 31
0.0
  0
LINE
  5
4EF4
330
4EC9
100
AcDbEntity
  8
BEM
 62
     0
370
    -2
100
AcDbLine
 10
361.5754994138921
 20
676.117381502036
 30
0.0
 11
361.5754994138921
 21
704.9297924660848
 31
0.0
  0
LINE
  5
4EF5
330
4EC9
100
AcDbEntity
  8
BEM
 62
     0
370
    -2
100
AcDbLine
 10
148.5754994138919
 20
702.9297924660848
 30
0.0
 11
354.5754994138921
 21
702.9297924660848
 31
0.0
  0
SOLID
  5
4EF6
330
4EC9
100
AcDbEntity
  8
BEM
 62
     0
100
AcDbTrace
 10
148.5754994138919
 20
704.0964591327514
 30
0.0
 11
148.5754994138919
 21
701.7631257994182
 31
0.0
 12
141.5754994138919
 22
702.9297924660848
 32
0.0
 13
141.5754994138919
 23
702.9297924660848
 33
0.0
  0
SOLID
  5
4EF7
330
4EC9
100
AcDbEntity
  8
BEM
 62
     0
100
AcDbTrace
 10
354.5754994138921
 20
704.0964591327514
 30
0.0
 11
354.5754994138921
 21
701.7631257994182
 31
0.0
 12
361.5754994138921
 22
702.9297924660848
 32
0.0
 13
361.5754994138921
 23
702.9297924660848
 33
0.0
  0
MTEXT
  5
4EF8
330
4EC9
100
AcDbEntity
  8
BEM
 62
     1
100
AcDbMText
 10
251.575499413892
 20
709.4297924660848
 30
0.0
 40
7.0
 41
0.0
 71
     5
 72
     1
  1
\A1;%%c220
 73
     1
 44
1.0
  0
POINT
  5
4EF9
330
4EC9
100
AcDbEntity
  8
DEFPOINTS
 62
     0
100
AcDbPoint
 10
141.5754994138919
 20
674.1173815020361
 30
0.0
  0
POINT
  5
4EFA
330
4EC9
100
AcDbEntity
  8
DEFPOINTS
 62
     0
100
AcDbPoint
 10
361.5754994138921
 20
674.1173815020361
 30
0.0
  0
POINT
  5
4EFB
330
4EC9
100
AcDbEntity
  8
DEFPOINTS
 62
     0
100
AcDbPoint
 10
361.5754994138921
 20
702.9297924660848
 30
0.0
  0
ENDBLK
  5
4ED4
330
4EC9
100
AcDbEntity
  8
0
100
AcDbBlockEnd
  0
BLOCK
  5
4EDF
330
4ED5
100
AcDbEntity
  8
0
100
AcDbBlockBegin
  2
*D9
 70
     1
 10
0.0
 20
0.0
 30
0.0
  3
*D9
  1

  0
LINE
  5
4EFC
330
4ED5
100
AcDbEntity
  8
BEM
 62
     0
370
    -2
100
AcDbLine
 10
121.5754994138919
 20
607.1174394693517
 30
0.0
 11
121.5754994138919
 21
718.4249937803922
 31
0.0
  0
LINE
  5
4EFD
330
4ED5
100
AcDbEntity
  8
BEM
 62
     0
370
    -2
100
AcDbLine
 10
381.5754994138917
 20
607.1174394693518
 30
0.0
 11
381.5754994138917
 21
718.4249937803922
 31
0.0
  0
LINE
  5
4EFE
330
4ED5
100
AcDbEntity
  8
BEM
 62
     0
370
    -2
100
AcDbLine
 10
128.5754994138919
 20
716.4249937803922
 30
0.0
 11
374.5754994138918
 21
716.4249937803922
 31
0.0
  0
SOLID
  5
4EFF
330
4ED5
100
AcDbEntity
  8
BEM
 62
     0
100
AcDbTrace
 10
128.5754994138919
 20
717.5916604470589
 30
0.0
 11
128.5754994138919
 21
715.2583271137256
 31
0.0
 12
121.5754994138919
 22
716.4249937803922
 32
0.0
 13
121.5754994138919
 23
716.4249937803922
 33
0.0
  0
SOLID
  5
4F00
330
4ED5
100
AcDbEntity
  8
BEM
 62
     0
100
AcDbTrace
 10
374.5754994138918
 20
717.5916604470589
 30
0.0
 11
374.5754994138918
 21
715.2583271137256
 31
0.0
 12
381.5754994138917
 22
716.4249937803922
 32
0.0
 13
381.5754994138917
 23
716.4249937803922
 33
0.0
  0
MTEXT
  5
4F01
330
4ED5
100
AcDbEntity
  8
BEM
 62
     1
100
AcDbMText
 10
251.5754994138918
 20
722.9249937803922
 30
0.0
 40
7.0
 41
0.0
 71
     5
 72
     1
  1
\A1;%%c260
 73
     1
 44
1.0
  0
POINT
  5
4F02
330
4ED5
100
AcDbEntity
  8
DEFPOINTS
 62
     0
100
AcDbPoint
 10
121.5754994138919
 20
605.1174394693516
 30
0.0
  0
POINT
  5
4F03
330
4ED5
100
AcDbEntity
  8
DEFPOINTS
 62
     0
100
AcDbPoint
 10
381.5754994138917
 20
605.1174394693519
 30
0.0
  0
POINT
  5
4F04
330
4ED5
100
AcDbEntity
  8
DEFPOINTS
 62
     0
100
AcDbPoint
 10
381.5754994138917
 20
716.4249937803922
 30
0.0
  0
ENDBLK
  5
4EE0
330
4ED5
100
AcDbEntity
  8
0
100
AcDbBlockEnd
  0
BLOCK
  5
4F22
330
4F18
100
AcDbEntity
  8
0
100
AcDbBlockBegin
  2
*D10
 70
     1
 10
0.0
 20
0.0
 30
0.0
  3
*D10
  1

  0
LINE
  5
5021
330
4F18
100
AcDbEntity
  8
BEM
 62
     0
370
    -2
100
AcDbLine
 10
127.0754994138918
 20
428.1174394693504
 30
0.0
 11
87.03831121330427
 21
428.1174394693504
 31
0.0
  0
LINE
  5
5022
330
4F18
100
AcDbEntity
  8
BEM
 62
     0
370
    -2
100
AcDbLine
 10
127.0754994138918
 20
578.1174394693504
 30
0.0
 11
87.03831121330429
 21
578.1174394693504
 31
0.0
  0
LINE
  5
5023
330
4F18
100
AcDbEntity
  8
BEM
 62
     0
370
    -2
100
AcDbLine
 10
89.03831121330426
 20
435.1174394693503
 30
0.0
 11
89.0383112133043
 21
571.1174394693504
 31
0.0
  0
SOLID
  5
5024
330
4F18
100
AcDbEntity
  8
BEM
 62
     0
100
AcDbTrace
 10
87.87164454663759
 20
435.1174394693503
 30
0.0
 11
90.20497787997094
 21
435.1174394693503
 31
0.0
 12
89.03831121330426
 22
428.1174394693504
 32
0.0
 13
89.03831121330426
 23
428.1174394693504
 33
0.0
  0
SOLID
  5
5025
330
4F18
100
AcDbEntity
  8
BEM
 62
     0
100
AcDbTrace
 10
87.87164454663763
 20
571.1174394693504
 30
0.0
 11
90.20497787997097
 21
571.1174394693504
 31
0.0
 12
89.0383112133043
 22
578.1174394693504
 32
0.0
 13
89.0383112133043
 23
578.1174394693504
 33
0.0
  0
MTEXT
  5
5026
330
4F18
100
AcDbEntity
  8
BEM
 62
     1
100
AcDbMText
 10
82.53831121330419
 20
503.1174394693504
 30
0.0
 40
7.0
 41
0.0
 71
     5
 72
     1
  1
\A1;min.35 - max.200
  7
GREEKS
 11
0.0000000000000001
 21
1.0
 31
0.0
 73
     1
 44
1.0
  0
POINT
  5
5027
330
4F18
100
AcDbEntity
  8
DEFPOINTS
 62
     0
100
AcDbPoint
 10
129.0754994138918
 20
428.1174394693503
 30
0.0
  0
POINT
  5
5028
330
4F18
100
AcDbEntity
  8
DEFPOINTS
 62
     0
100
AcDbPoint
 10
129.0754994138918
 20
578.1174394693504
 30
0.0
  0
POINT
  5
5029
330
4F18
100
AcDbEntity
  8
DEFPOINTS
 62
     0
100
AcDbPoint
 10
89.0383112133043
 20
578.1174394693504
 30
0.0
  0
ENDBLK
  5
4F23
330
4F18
100
AcDbEntity
  8
0
100
AcDbBlockEnd
  0
ENDSEC
  0
SECTION
  2
ENTITIES
  0
LINE
  5
87
330
1E
100
AcDbEntity
  8
HILF
100
AcDbLine
 10
594.0
 20
-0.0000000000000568
 30
0.0
 11
594.0
 21
840.0
 31
0.0
  0
LINE
  5
88
330
1E
100
AcDbEntity
  8
HILF
100
AcDbLine
 10
594.0
 20
840.0
 30
0.0
 11
0.0
 21
840.0
 31
0.0
  0
LINE
  5
89
330
1E
100
AcDbEntity
  8
HILF
100
AcDbLine
 10
0.0
 20
840.0
 30
0.0
 11
0.0
 21
0.0
 31
0.0
  0
LINE
  5
8B
330
1E
100
AcDbEntity
  8
STEMPEL
100
AcDbLine
 10
10.0
 20
830.0
 30
0.0
 11
10.0
 21
39.99999999999995
 31
0.0
  0
LINE
  5
8D
330
1E
100
AcDbEntity
  8
STEMPEL
100
AcDbLine
 10
584.0
 20
39.99999999999995
 30
0.0
 11
584.0
 21
830.0
 31
0.0
  0
LINE
  5
8E
330
1E
100
AcDbEntity
  8
STEMPEL
100
AcDbLine
 10
584.0
 20
830.0
 30
0.0
 11
10.0
 21
830.0
 31
0.0
  0
LINE
  5
13E
330
1E
100
AcDbEntity
  8
HILF
100
AcDbLine
 10
594.0
 20
-0.0000000000000568
 30
0.0
 11
0.0
 21
0.0
 31
0.0
  0
LINE
  5
13F
330
1E
100
AcDbEntity
  8
STEMPEL
100
AcDbLine
 10
584.0
 20
39.99999999999995
 30
0.0
 11
10.0
 21
39.99999999999995
 31
0.0
  0
LINE
  5
14A
330
1E
100
AcDbEntity
  8
HILF
100
AcDbLine
 10
297.0
 20
-0.0000000000000568
 30
0.0
 11
297.0
 21
39.99999999999995
 31
0.0
  0
TEXT
  5
15B
330
1E
100
AcDbEntity
  8
TEXT
100
AcDbText
 10
583.8320989200114
 20
837.3022923857165
 30
0.0
 40
4.0
  1
Diese Zeichnung ist urheberrechtlich geschützt und bleibt unser Eigentum. Sie darf weder ganz noch teilweise verfielfältigt und nicht an Dritte weitergegeben werden.
 50
180.0
 41
0.8
  7
GREEKS
100
AcDbText
  0
LINE
  5
FBF
330
1E
100
AcDbEntity
  8
HILF
 62
     7
100
AcDbLine
 10
594.0000000000003
 20
459.9999999999999
 30
0.0
 11
584.0
 21
459.9999999999999
 31
0.0
  0
HATCH
  5
40DE
330
1E
100
AcDbEntity
  8
SCHRAFF
100
AcDbHatch
 10
0.0
 20
0.0
 30
0.0
210
0.0
220
0.0
230
1.0
  2
_USER
 70
     0
 71
     1
 91
        4
 92
        7
 72
     1
 73
     1
 93
        8
 10
135.2930138351638
 20
428.1174394693503
 42
0.1989123673796812
 10
131.4039265386376
 20
426.5065267658759
 42
0.0
 10
129.0754994138916
 20
424.1780996411297
 42
0.0
 10
130.4897129762645
 20
422.7638860787563
 42
0.0
 10
132.8181401010107
 20
425.0923132035027
 42
-0.1989123673796726
 10
135.2930138351634
 20
426.1174394693505
 42
0.0
 10
161.5754994138918
 20
426.1174394693502
 42
0.0
 10
161.5754994138918
 20
428.1174394693504
 42
0.0
 97
        8
330
4157
330
4168
330
416F
330
416E
330
416D
330
4169
330
4160
330
4181
 92
        7
 72
     1
 73
     1
 93
        8
 10
193.0554151667573
 20
426.11743946935
 42
-0.2102773852970759
 10
197.4790791876179
 20
424.1709807150442
 42
0.0
 10
207.6077836143359
 20
413.11743946935
 42
0.0
 10
209.0823382879563
 20
414.4686198845816
 42
0.0
 10
198.953633861238
 20
425.5221611302757
 42
0.2102773852970754
 10
193.0554151667574
 20
428.1174394693504
 42
0.0
 10
161.5754994138918
 20
428.1174394693504
 42
0.0
 10
161.5754994138918
 20
426.1174394693503
 42
0.0
 97
        8
330
4157
330
4181
330
4160
330
4193
330
4103
330
412E
330
4102
330
4192
 92
        7
 72
     1
 73
     1
 93
        8
 10
310.0955836610266
 20
428.1174394693502
 42
0.2102773852970718
 10
304.197364966546
 20
425.5221611302758
 42
0.0
 10
294.0686605398278
 20
414.4686198845813
 42
0.0
 10
295.543215213448
 20
413.1174394693501
 42
0.0
 10
305.671919640166
 20
424.1709807150442
 42
-0.2102773852970743
 10
310.0955836610265
 20
426.1174394693501
 42
0.0
 10
322.975499413892
 20
426.1174394693502
 42
0.0
 10
322.9754994138919
 20
428.1174394693502
 42
0.0
 97
        8
330
40E8
330
42BD
330
40E0
330
4145
330
40E1
330
42BE
330
42B3
330
42CC
 92
        7
 72
     1
 73
     1
 93
        8
 10
367.8579849926199
 20
426.1174394693505
 42
-0.1989123673797001
 10
370.332858726773
 20
425.0923132035027
 42
0.0
 10
372.6612858515192
 20
422.7638860787562
 42
0.0
 10
374.0754994138921
 20
424.1780996411297
 42
0.0
 10
371.7470722891461
 20
426.5065267658759
 42
0.1989123673796605
 10
367.8579849926203
 20
428.1174394693501
 42
0.0
 10
322.975499413892
 20
428.1174394693502
 42
0.0
 10
322.975499413892
 20
426.1174394693502
 42
0.0
 97
        8
330
40E8
330
42CC
330
42B3
330
42E3
330
42E2
330
42E7
330
42E1
330
42E4
 75
     0
 76
     0
 52
135.0
 41
2.0
 77
     0
 78
     1
 53
135.0
 43
0.0
 44
0.0
 45
-1.414213562373095
 46
-1.414213562373094
 79
     0
 47
0.3896827800021778
 98
        4
 10
144.7999390366183
 20
427.3463351553666
 10
187.3040157036268
 20
426.9566537078397
 10
312.4765702719844
 20
427.3463351553666
 10
338.6029284490671
 20
426.9566537078397
  0
ARC
  5
40DF
330
1E
100
AcDbEntity
  8
SCHRAFF
100
AcDbCircle
 10
293.3754994138922
 20
413.7121672552372
 30
0.0
 40
3.0
100
AcDbArc
 50
270.0
 51
5.689685104222522
  0
LINE
  5
40E0
102
{ACAD_REACTORS
330
40DE
102
}
330
1E
100
AcDbEntity
  8
STEMPEL
100
AcDbLine
 10
304.1973649665459
 20
425.5221611302757
 30
0.0
 11
293.3754994138923
 21
413.7121672552372
 31
0.0
  0
LINE
  5
40E1
102
{ACAD_REACTORS
330
40DE
102
}
330
1E
100
AcDbEntity
  8
STEMPEL
100
AcDbLine
 10
305.671919640166
 20
424.1709807150442
 30
0.0
 11
295.543215213448
 21
413.1174394693501
 31
0.0
  0
HATCH
  5
40E2
330
1E
100
AcDbEntity
  8
SCHRAFF
100
AcDbHatch
 10
0.0
 20
0.0
 30
0.0
210
0.0
220
0.0
230
1.0
  2
_USER
 70
     0
 71
     0
 91
        4
 92
        7
 72
     1
 73
     1
 93
        8
 10
161.5754994138919
 20
576.11743946935
 42
0.0
 10
161.5754994138919
 20
578.1174394693502
 42
0.0
 10
135.2930138351641
 20
578.1174394693502
 42
0.1989123673797054
 10
131.4039265386375
 20
576.5065267658757
 42
0.0
 10
129.0754994138915
 20
574.1780996411295
 42
0.0
 10
130.4897129762643
 20
572.7638860787562
 42
0.0
 10
132.8181401010106
 20
575.0923132035025
 42
-0.1989123673796754
 10
135.2930138351634
 20
576.1174394693503
 42
0.0
 97
        0
 92
        7
 72
     1
 73
     1
 93
        8
 10
193.2617909149071
 20
576.1174394693498
 42
-0.1989123673796662
 10
197.5044316020267
 20
574.3600801564694
 42
0.0
 10
207.649019566315
 20
564.2154921921822
 42
0.0
 10
209.0632331286881
 20
565.6297057545555
 42
0.0
 10
198.9186451643995
 20
575.7742937188427
 42
0.1989123673796487
 10
193.2617909149074
 20
578.1174394693502
 42
0.0
 10
161.5754994138919
 20
578.1174394693502
 42
0.0
 10
161.5754994138919
 20
576.11743946935
 42
0.0
 97
        0
 92
        7
 72
     1
 73
     1
 93
        8
 10
367.8579849926198
 20
576.1174394693503
 42
-0.1989123673796966
 10
370.3328587267729
 20
575.0923132035025
 42
0.0
 10
372.6612858515192
 20
572.7638860787563
 42
0.0
 10
374.0754994138919
 20
574.1780996411295
 42
0.0
 10
371.747072289146
 20
576.5065267658757
 42
0.1989123673796782
 10
367.8579849926198
 20
578.1174394693501
 42
0.0
 10
322.9754994138918
 20
578.1174394693501
 42
0.0
 10
322.9754994138918
 20
576.11743946935
 42
0.0
 97
        0
 92
        7
 72
     1
 73
     1
 93
        8
 10
322.9754994138918
 20
576.11743946935
 42
0.0
 10
322.9754994138918
 20
578.11743946935
 42
0.0
 10
309.8892079128765
 20
578.11743946935
 42
0.198912367379642
 10
304.2323536633846
 20
575.7742937188425
 42
0.0
 10
294.075499413892
 20
565.6174394693513
 42
0.0
 10
295.489712976265
 20
564.2032259069781
 42
0.0
 10
305.6465672257577
 20
574.3600801564696
 42
-0.1989123673796247
 10
309.8892079128764
 20
576.1174394693499
 42
0.0
 97
        0
 75
     0
 76
     0
 52
45.0
 41
2.0
 77
     0
 78
     1
 53
45.0
 43
0.0000000000002274
 44
0.0
 45
-1.414213562373094
 46
1.414213562373095
 79
     0
 47
0.318069369701126
 98
        4
 10
156.3168858950414
 20
576.6477501637571
 10
165.5471196696692
 20
576.6477501637571
 10
335.1924577858797
 20
576.9658194981141
 10
317.3685558903328
 20
576.6477501637571
  0
LINE
  5
40E3
102
{ACAD_REACTORS
330
4104
102
}
330
1E
100
AcDbEntity
  8
STEMPEL
100
AcDbLine
 10
304.2323536633846
 20
575.7742937188427
 30
0.0
 11
288.4793053361779
 21
560.0212453916379
 31
0.0
  0
ARC
  5
40E4
330
1E
100
AcDbEntity
  8
SCHRAFF
100
AcDbCircle
 10
293.5754994138921
 20
565.1174394693514
 30
0.0
 40
3.5
100
AcDbArc
 50
250.3769335251435
 51
10.15009542095189
  0
LINE
  5
40E5
330
1E
100
AcDbEntity
  8
STEMPEL
100
AcDbLine
 10
305.6465672257577
 20
574.3600801564696
 30
0.0
 11
295.489712976265
 21
564.2032259069781
 31
0.0
  0
HATCH
  5
40E6
330
1E
100
AcDbEntity
  8
SCHRAFF
100
AcDbHatch
 10
0.0
 20
0.0
 30
0.0
210
0.0
220
0.0
230
1.0
  2
_U
 70
     0
 71
     0
 91
        2
 92
        7
 72
     1
 73
     1
 93
        4
 10
208.0025729569083
 20
564.5690455827755
 42
0.0
 10
207.6490195663149
 20
564.2154921921822
 42
0.0
 10
206.1302762503601
 20
565.7342355081366
 42
0.5760313318603869
 10
210.7509072196126
 20
561.8207113200719
 42
0.0
 97
        0
 92
        7
 72
     1
 73
     1
 93
        4
 10
297.0207225774243
 20
565.7342355081371
 42
0.0
 10
295.4897129762649
 20
564.2032259069778
 42
0.0
 10
295.1361595856714
 20
564.5567792975714
 42
0.0
 10
292.4000916081716
 20
561.8207113200719
 42
0.5760313318604339
 97
        0
 75
     0
 76
     0
 52
0.0
 41
0.1
 77
     0
 78
     1
 53
0.0
 43
28.63674848197729
 44
121.9883951241794
 45
0.0
 46
0.1
 79
     0
 47
0.1173469678841337
 98
        2
 10
208.1528424837429
 20
562.9186154404101
 10
294.941638481157
 20
562.8012683778958
  0
LINE
  5
40E8
102
{ACAD_REACTORS
330
40DE
330
5049
102
}
330
1E
100
AcDbEntity
  8
STEMPEL
100
AcDbLine
 10
292.2085388862572
 20
428.1174394693504
 30
0.0
 11
379.0754994138918
 21
428.1174394693501
 31
0.0
  0
LINE
  5
40E9
102
{ACAD_REACTORS
330
5049
102
}
330
1E
100
AcDbEntity
  8
STEMPEL
100
AcDbLine
 10
291.4800028896832
 20
431.1174394693503
 30
0.0
 11
379.0754994138918
 21
431.1174394693501
 31
0.0
  0
LINE
  5
40EB
102
{ACAD_REACTORS
330
4912
330
493C
102
}
330
1E
100
AcDbEntity
  8
STEMPEL
100
AcDbLine
 10
291.6842643390366
 20
434.1174394693502
 30
0.0
 11
376.8365637475952
 21
434.11743946935
 31
0.0
  0
LINE
  5
40EC
330
1E
100
AcDbEntity
  8
STEMPEL
100
AcDbLine
 10
288.0754994138931
 20
440.117439469351
 30
0.0
 11
360.4176421893185
 21
440.1174394693511
 31
0.0
  0
LINE
  5
40ED
102
{ACAD_REACTORS
330
493C
102
}
330
1E
100
AcDbEntity
  8
STEMPEL
100
AcDbLine
 10
288.0754994138931
 20
440.117439469351
 30
0.0
 11
360.4176421893186
 21
440.1174394693511
 31
0.0
  0
LINE
  5
40F0
330
1E
100
AcDbEntity
  8
TEXT
 62
     2
100
AcDbLine
 10
318.2034871187432
 20
211.4625063661617
 30
0.0
 11
287.1562299203645
 21
196.4524519062176
 31
0.0
  0
LINE
  5
40F1
330
1E
100
AcDbEntity
  8
STEMPEL
100
AcDbLine
 10
135.2930138351641
 20
578.1174394693502
 30
0.0
 11
367.8579849926198
 21
578.1174394693501
 31
0.0
  0
LINE
  5
40FD
102
{ACAD_REACTORS
330
4FFC
102
}
330
1E
100
AcDbEntity
  8
STEMPEL
100
AcDbLine
 10
129.0754994138917
 20
578.1174394693501
 30
0.0
 11
374.0754994138919
 21
578.1174394693501
 31
0.0
  0
HATCH
  5
4101
330
1E
100
AcDbEntity
  8
SCHRAFF
100
AcDbHatch
 10
0.0
 20
0.0
 30
0.0
210
0.0
220
0.0
230
1.0
  2
_USER
 70
     0
 71
     0
 91
        2
 92
        7
 72
     1
 73
     1
 93
       20
 10
216.575499413894
 20
306.3002852290296
 42
0.1346873523285371
 10
215.2454994138941
 20
311.1480785414551
 42
-0.1346873523285409
 10
213.775499413894
 20
316.5061658867679
 42
0.0
 10
213.7754994138922
 20
391.6174394693509
 42
0.092693060336358
 10
212.8633055293951
 20
396.4956704190401
 42
-0.0934034108731739
 10
211.2754994138921
 20
405.0536394361497
 42
0.0
 10
211.2754994138921
 20
420.5685170622324
 42
-0.1093332246020502
 10
213.4700259253123
 20
430.4845041249218
 42
0.0
 10
212.1101020856166
 20
431.1174394693512
 42
0.1093332246020707
 10
209.7754994138921
 20
420.568517062233
 42
0.0
 10
209.7754994138921
 20
404.9191594211653
 42
0.0920044384191259
 10
211.4646604054503
 20
395.9536447579635
 42
-0.0926930603363501
 10
212.2754994138921
 20
391.6174394693512
 42
0.0
 10
212.275499413894
 20
316.5061658867679
 42
0.1346873523285361
 10
213.955499413894
 20
310.3826374921249
 42
-0.1346873523285467
 10
215.0754994138941
 20
306.3002852290294
 42
0.0
 10
215.0754994138922
 20
173.0519480549876
 42
0.0
 10
215.5072129752067
 20
168.1174394693503
 42
0.0
 10
217.0129427315219
 20
168.1174394693502
 42
0.0
 10
216.5754994138922
 20
173.1174394693504
 42
0.0
 97
        0
 92
        7
 72
     1
 73
     1
 93
       20
 10
288.0754994138941
 20
306.3002852290299
 42
-0.1346873523284958
 10
289.1954994138901
 20
310.3826374921249
 42
0.1346873523285353
 10
290.87549941389
 20
316.5061658867679
 42
0.0
 10
290.875499413892
 20
391.6174394693509
 42
-0.0926930603363638
 10
291.6863384223339
 20
395.9536447579637
 42
0.0920044384190542
 10
293.375499413892
 20
404.9191594211585
 42
0.0
 10
293.375499413892
 20
420.5685170622324
 42
0.109333224602077
 10
291.0408967421675
 20
431.1174394693512
 42
0.0
 10
289.680972902472
 20
430.4845041249219
 42
-0.1093332246020451
 10
291.875499413892
 20
420.5685170622329
 42
0.0
 10
291.875499413892
 20
405.0536394361403
 42
-0.0934034108730753
 10
290.2876932983889
 20
396.4956704190398
 42
0.0926930603363437
 10
289.375499413892
 20
391.6174394693514
 42
0.0
 10
289.37549941389
 20
316.5061658867679
 42
-0.1346873523285341
 10
287.9054994138901
 20
311.1480785414553
 42
0.1346873523285118
 10
286.5754994138941
 20
306.3002852290297
 42
0.0
 10
286.5754994138923
 20
173.117439469359
 42
0.0
 10
286.1380560962619
 20
168.1174394693503
 42
0.0
 10
287.6437858525768
 20
168.1174394693503
 42
0.0
 10
288.0754994138923
 20
173.0519480549974
 42
0.0
 97
        0
 75
     0
 76
     0
 52
45.0
 41
2.0
 77
     0
 78
     1
 53
45.0
 43
0.0
 44
0.0
 45
-1.414213562373094
 46
1.414213562373095
 79
     0
 47
0.6225103774773377
 98
        2
 10
215.4299004798484
 20
296.2131869917221
 10
287.6898158082474
 20
293.7231454818127
  0
LINE
  5
4102
102
{ACAD_REACTORS
330
40DE
102
}
330
1E
100
AcDbEntity
  8
STEMPEL
100
AcDbLine
 10
198.953633861238
 20
425.5221611302757
 30
0.0
 11
209.7754994138924
 21
413.7121672552368
 31
0.0
  0
LINE
  5
4103
102
{ACAD_REACTORS
330
40DE
102
}
330
1E
100
AcDbEntity
  8
STEMPEL
100
AcDbLine
 10
197.4790791876179
 20
424.1709807150442
 30
0.0
 11
207.607783614336
 21
413.1174394693501
 31
0.0
  0
HATCH
  5
4104
330
1E
100
AcDbEntity
  8
SCHRAFF
100
AcDbHatch
 10
0.0
 20
0.0
 30
0.0
210
0.0
220
0.0
230
1.0
  2
_USER
 70
     0
 71
     1
 91
        2
 92
        7
 72
     1
 73
     1
 93
       10
 10
216.5754994138938
 20
555.4250513139248
 42
0.1989123673796635
 10
214.6716934916067
 20
560.0212453916376
 42
0.0
 10
209.0632331286881
 20
565.6297057545554
 42
0.0
 10
208.0025729569085
 20
564.5690455827757
 42
0.0
 10
213.6110333198269
 20
558.9605852198578
 42
-0.1989123673796778
 10
215.0754994138942
 20
555.4250513139248
 42
0.0
 10
215.0754994138922
 20
323.0519480549875
 42
0.0
 10
215.5072129752068
 20
318.1174394693502
 42
0.0
 10
217.0129427315217
 20
318.1174394693501
 42
0.0
 10
216.575499413892
 20
323.1174394693505
 42
0.0
 97
       10
330
4247
330
414B
330
424A
330
4248
330
424B
330
410D
330
4123
330
4120
330
4124
330
410E
 92
        7
 72
     1
 73
     1
 93
       10
 10
288.0754994138943
 20
555.4250513139252
 42
-0.1989123673795876
 10
289.5399655079575
 20
558.9605852198583
 42
0.0
 10
295.1361595856716
 20
564.5567792975716
 42
0.0
 10
294.0754994138922
 20
565.6174394693514
 42
0.0
 10
288.4793053361779
 20
560.0212453916379
 42
0.1989123673796122
 10
286.5754994138942
 20
555.4250513139249
 42
0.0
 10
286.575499413892
 20
323.1174394693561
 42
0.0
 10
286.1380560962617
 20
318.1174394693502
 42
0.0
 10
287.6437858525766
 20
318.1174394693501
 42
0.0
 10
288.075499413892
 20
323.0519480549965
 42
0.0
 97
       10
330
426D
330
426C
330
426F
330
40E3
330
426E
330
410C
330
4136
330
4120
330
4137
330
410B
 75
     0
 76
     0
 52
135.0
 41
2.0
 77
     0
 78
     1
 53
135.0
 43
0.0000000000002274
 44
0.0
 45
-1.414213562373095
 46
-1.414213562373094
 79
     0
 47
0.508627633705499
 98
        2
 10
215.7523326652474
 20
510.8939357703923
 10
287.0082367683947
 20
528.1872764120492
  0
HATCH
  5
4105
330
1E
100
AcDbEntity
  8
SCHRAFF
100
AcDbHatch
 10
0.0
 20
0.0
 30
0.0
210
0.0
220
0.0
230
1.0
  2
NET
 70
     0
 71
     0
 91
        2
 92
        7
 72
     1
 73
     1
 93
       13
 10
288.0754994138927
 20
414.4949404701547
 42
0.1285176405214172
 10
289.2835986574373
 20
416.1174394693512
 42
0.075813045109402
 10
289.5621493557915
 20
417.2909088571064
 42
-1.021524369171772
 10
290.922131190385
 20
417.4871462526094
 42
0.0
 10
291.3038523181737
 20
415.6608125335936
 42
0.0
 10
291.875499413892
 20
415.6608125335935
 42
0.0
 10
291.875499413892
 20
420.5685170622324
 42
0.1093332246020502
 10
289.6809729024719
 20
430.4845041249218
 42
0.0
 10
291.0408967421675
 20
431.1174394693512
 42
0.0
 10
293.3754994138896
 20
431.1174394693511
 42
0.0
 10
290.8436726466669
 20
435.6085243661836
 42
0.7040385315423109
 10
288.9877531763054
 20
435.2910876470182
 42
0.0
 10
288.0754994138929
 20
430.1174394693708
 42
0.0
 97
        0
 92
        7
 72
     1
 73
     1
 93
       13
 10
215.075499413893
 20
430.1174394693311
 42
0.0
 10
214.1632456514737
 20
435.2910876470182
 42
0.7040385315425906
 10
212.3073261811121
 20
435.6085243661836
 42
0.0
 10
209.7754994138895
 20
431.1174394693511
 42
0.0
 10
212.1101020856166
 20
431.1174394693513
 42
0.0
 10
213.4700259253122
 20
430.4845041249219
 42
0.109333224602045
 10
211.2754994138921
 20
420.5685170622329
 42
0.0
 10
211.2754994138921
 20
415.6608125335936
 42
0.0
 10
211.8471465096052
 20
415.6608125335937
 42
0.0
 10
212.2288676373938
 20
417.487146252608
 42
-1.021524369174619
 10
213.5888494719874
 20
417.2909088571063
 42
0.0758130451093995
 10
213.8674001703416
 20
416.1174394693512
 42
0.1285176405219647
 10
215.0754994138929
 20
414.4949404701493
 42
0.0
 97
        0
 75
     0
 76
     1
 52
45.0
 41
15.0
 77
     0
 78
     2
 53
45.0
 43
20.17268000242052
 44
-67.90875063864087
 45
-1.325825214724776
 46
1.325825214724776
 79
     0
 53
135.0
 43
20.17268000242052
 44
-67.90875063864087
 45
-1.325825214724776
 46
-1.325825214724776
 79
     0
 47
0.2686080656016512
 98
        2
 10
289.1622795879905
 20
423.1125023446286
 10
214.1675204759983
 20
422.8438939195655
  0
DIMENSION
  5
4106
330
1E
100
AcDbEntity
  8
BEM
100
AcDbDimension
  2
*D1
 10
89.30554508088448
 20
428.1174394693504
 30
0.0
 11
82.80554508088441
 21
298.1174394693504
 31
0.0
 70
    32
 71
     5
 42
260.0
  3
Standard
100
AcDbAlignedDimension
 13
215.5072129752068
 23
168.1174394693503
 33
0.0
 14
129.0754994138918
 24
428.1174394693503
 34
0.0
 50
90.0
100
AcDbRotatedDimension
1001
ACAD
1000
DSTYLE
1002
{
1070
    40
1040
2.0
1070
    41
1040
3.5
1070
    42
1040
1.0
1070
    43
1040
7.0
1070
    44
1040
1.0
1070
    47
1040
2.0
1070
    48
1040
2.0
1070
    73
1070
     0
1070
    74
1070
     0
1070
    77
1070
     1
1070
    78
1070
     8
1070
    79
1070
     2
1070
   140
1040
3.5
1070
   141
1040
1.5
1070
   146
1040
0.5142857142857144
1070
   147
1040
1.5
1070
   172
1070
     1
1070
   178
1070
     1
1070
   179
1070
     2
1070
   279
1070
     0
1002
}
  0
LINE
  5
4107
330
1E
100
AcDbEntity
  8
STEMPEL
  6
Continuous
100
AcDbLine
 10
293.375499413892
 20
420.5685170622324
 30
0.0
 11
293.375499413892
 21
405.0557195175415
 31
0.0
  0
LINE
  5
4108
330
1E
100
AcDbEntity
  8
STEMPEL
  6
Continuous
100
AcDbLine
 10
291.875499413892
 20
420.5685170622324
 30
0.0
 11
291.875499413892
 21
404.92123950256
 31
0.0
  0
LINE
  5
4109
330
1E
100
AcDbEntity
  8
STEMPEL
  6
Continuous
100
AcDbLine
 10
211.2754994138921
 20
420.5685170622324
 30
0.0
 11
211.2754994138921
 21
404.92123950256
 31
0.0
  0
LINE
  5
410A
330
1E
100
AcDbEntity
  8
STEMPEL
  6
Continuous
100
AcDbLine
 10
209.7754994138921
 20
420.5685170622324
 30
0.0
 11
209.7754994138921
 21
405.0557195175415
 31
0.0
  0
LINE
  5
410B
102
{ACAD_REACTORS
330
4104
102
}
330
1E
100
AcDbEntity
  8
STEMPEL
  6
Continuous
100
AcDbLine
 10
288.0754994138943
 20
555.4250513139252
 30
0.0
 11
288.075499413892
 21
323.051948054997
 31
0.0
  0
LINE
  5
410C
102
{ACAD_REACTORS
330
4104
102
}
330
1E
100
AcDbEntity
  8
STEMPEL
  6
Continuous
100
AcDbLine
 10
286.5754994138942
 20
555.4250513139253
 30
0.0
 11
286.575499413892
 21
323.1174394693563
 31
0.0
  0
LINE
  5
410D
102
{ACAD_REACTORS
330
4104
102
}
330
1E
100
AcDbEntity
  8
STEMPEL
  6
Continuous
100
AcDbLine
 10
215.0754994138942
 20
555.4250513139249
 30
0.0
 11
215.0754994138922
 21
323.0519480549877
 31
0.0
  0
LINE
  5
410E
102
{ACAD_REACTORS
330
4104
102
}
330
1E
100
AcDbEntity
  8
STEMPEL
  6
Continuous
100
AcDbLine
 10
216.5754994138938
 20
555.4250513139248
 30
0.0
 11
216.575499413892
 21
323.1174394693502
 31
0.0
  0
LINE
  5
410F
330
1E
100
AcDbEntity
  8
MITTEL
100
AcDbLine
 10
251.5754994138918
 20
700.6174394693512
 30
0.0
 11
251.5754994138918
 21
476.9367980282948
 31
0.0
  0
DIMENSION
  5
4110
330
1E
100
AcDbEntity
  8
BEM
100
AcDbDimension
  2
*D2
 10
288.0754994138921
 20
150.1952762542607
 30
0.0
 11
251.5754994138922
 21
156.6952762542607
 31
0.0
 70
    32
  1
%%c<>
 71
     5
 42
72.99999999999989
  3
Standard
100
AcDbAlignedDimension
 13
215.0754994138922
 23
173.0519480549883
 33
0.0
 14
288.0754994138921
 24
173.0519480549881
 34
0.0
100
AcDbRotatedDimension
1001
ACAD
1000
DSTYLE
1002
{
1070
    40
1040
2.0
1070
    41
1040
3.5
1070
    42
1040
1.0
1070
    43
1040
7.0
1070
    44
1040
1.0
1070
    47
1040
0.7
1070
    48
1040
0.7
1070
    73
1070
     0
1070
    74
1070
     0
1070
    77
1070
     1
1070
    78
1070
     8
1070
    79
1070
     2
1070
   140
1040
3.5
1070
   141
1040
1.5
1070
   147
1040
1.5
1070
   172
1070
     1
1070
   178
1070
     1
1070
   179
1070
     2
1070
   279
1070
     0
1002
}
  0
LINE
  5
4111
330
1E
100
AcDbEntity
  8
STEMPEL
  6
Continuous
100
AcDbLine
 10
216.575499413894
 20
306.3002852290296
 30
0.0
 11
216.5754994138922
 21
173.1174394693503
 31
0.0
  0
LINE
  5
4112
102
{ACAD_REACTORS
330
4BA9
102
}
330
1E
100
AcDbEntity
  8
STEMPEL
  6
Continuous
100
AcDbLine
 10
215.0754994138941
 20
306.3002852290297
 30
0.0
 11
215.0754994138922
 21
173.0519480549883
 31
0.0
  0
LINE
  5
4113
330
1E
100
AcDbEntity
  8
STEMPEL
  6
Continuous
100
AcDbLine
 10
286.5754994138941
 20
306.3002852290298
 30
0.0
 11
286.5754994138922
 21
173.1174394693586
 31
0.0
  0
LINE
  5
4114
330
1E
100
AcDbEntity
  8
STEMPEL
  6
Continuous
100
AcDbLine
 10
288.0754994138941
 20
306.3002852290299
 30
0.0
 11
288.0754994138922
 21
173.1174394693503
 31
0.0
  0
LINE
  5
4115
330
1E
100
AcDbEntity
  8
HILF
100
AcDbLine
 10
285.0697696575764
 20
173.1174394693503
 30
0.0
 11
218.0812291702073
 21
173.1174394693503
 31
0.0
  0
LINE
  5
4116
330
1E
100
AcDbEntity
  8
STEMPEL
100
AcDbLine
 10
287.6437858525768
 20
168.1174394693503
 30
0.0
 11
215.5072129752068
 21
168.1174394693503
 31
0.0
  0
LINE
  5
4117
330
1E
100
AcDbEntity
  8
STEMPEL
100
AcDbLine
 10
215.0754994138922
 20
173.0519480549883
 30
0.0
 11
215.5072129752068
 21
168.1174394693503
 31
0.0
  0
LINE
  5
4118
330
1E
100
AcDbEntity
  8
STEMPEL
100
AcDbLine
 10
216.5754994138922
 20
173.1174394693503
 30
0.0
 11
217.0129427315219
 21
168.1174394693503
 31
0.0
  0
LINE
  5
4119
330
1E
100
AcDbEntity
  8
STEMPEL
100
AcDbLine
 10
286.5754994138922
 20
173.1174394693586
 30
0.0
 11
286.1380560962619
 21
168.1174394693503
 31
0.0
  0
LINE
  5
411A
330
1E
100
AcDbEntity
  8
STEMPEL
100
AcDbLine
 10
288.069791461029
 20
172.9867058552288
 30
0.0
 11
287.6437858525768
 21
168.1174394693503
 31
0.0
  0
HATCH
  5
411B
330
1E
100
AcDbEntity
  8
SCHRAFF
100
AcDbHatch
 10
0.0
 20
0.0
 30
0.0
210
0.0
220
0.0
230
1.0
  2
_USER
 70
     0
 71
     0
 91
        2
 92
        7
 72
     1
 73
     1
 93
        5
 10
209.7754994138924
 20
413.7121672552369
 42
0.0
 10
209.0823382879563
 20
414.4686198845814
 42
0.0
 10
207.6077836143361
 20
413.1174394693503
 42
0.0
 10
206.7902791111103
 20
414.0095890833828
 42
0.4436072552951912
 10
209.7754994138924
 20
410.7121672552368
 42
0.0
 97
        0
 92
        7
 72
     1
 73
     1
 93
        5
 10
296.3607197166742
 20
414.0095890833833
 42
0.0
 10
295.5432152134481
 20
413.1174394693503
 42
0.0
 10
294.0686605398279
 20
414.4686198845814
 42
0.0
 10
293.3754994138923
 20
413.7121672552372
 42
0.0
 10
293.3754994138923
 20
410.7121672552372
 42
0.4436072552951932
 97
        0
 75
     0
 76
     0
 52
45.0
 41
0.1
 77
     0
 78
     1
 53
45.0
 43
31.08896478471513
 44
-36.59366315087982
 45
-0.0707106781186548
 46
0.0707106781186548
 79
     0
 47
0.1418006302582077
 98
        2
 10
208.5623145631715
 20
412.1652620753602
 10
294.8418672175502
 20
412.5906645374905
  0
LINE
  5
411C
330
1E
100
AcDbEntity
  8
HILF
  6
Continuous
100
AcDbLine
 10
217.8217648895337
 20
309.2409118554066
 30
0.0
 11
285.3292339382541
 21
309.2409118554066
 31
0.0
  0
LINE
  5
411D
330
1E
100
AcDbEntity
  8
HILF
  6
Continuous
100
AcDbLine
 10
216.0383709583675
 20
313.762633779119
 30
0.0
 11
287.1126278694164
 21
313.762633779119
 31
0.0
  0
LINE
  5
411E
330
1E
100
AcDbEntity
  8
HILF
100
AcDbLine
 10
285.0697696575764
 20
323.1174394693502
 30
0.0
 11
218.081229170207
 21
323.1174394693502
 31
0.0
  0
LINE
  5
411F
330
1E
100
AcDbEntity
  8
STEMPEL
100
AcDbLine
 10
287.5505982134626
 20
318.1161449156227
 30
0.0
 11
215.600400614321
 21
318.1161449156227
 31
0.0
  0
LINE
  5
4120
102
{ACAD_REACTORS
330
4104
102
}
330
1E
100
AcDbEntity
  8
STEMPEL
100
AcDbLine
 10
287.6437858525767
 20
318.1174394693501
 30
0.0
 11
215.5072129752068
 21
318.1174394693501
 31
0.0
  0
LINE
  5
4121
330
1E
100
AcDbEntity
  8
STEMPEL
  6
Continuous
100
AcDbLine
 10
212.2754994138921
 20
391.6174394693509
 30
0.0
 11
212.275499413894
 21
316.5061658867679
 31
0.0
  0
LINE
  5
4122
330
1E
100
AcDbEntity
  8
STEMPEL
  6
Continuous
100
AcDbLine
 10
213.7754994138922
 20
391.6174394693509
 30
0.0
 11
213.775499413894
 21
316.5061658867679
 31
0.0
  0
LINE
  5
4123
102
{ACAD_REACTORS
330
4104
102
}
330
1E
100
AcDbEntity
  8
STEMPEL
100
AcDbLine
 10
215.0754994138922
 20
323.0519480549877
 30
0.0
 11
215.5072129752068
 21
318.1174394693501
 31
0.0
  0
LINE
  5
4124
102
{ACAD_REACTORS
330
4104
102
}
330
1E
100
AcDbEntity
  8
STEMPEL
100
AcDbLine
 10
216.575499413892
 20
323.1174394693502
 30
0.0
 11
217.0129427315217
 21
318.1174394693501
 31
0.0
  0
ARC
  5
4125
330
1E
100
AcDbEntity
  8
STEMPEL
  6
Continuous
100
AcDbCircle
 10
207.0754994138944
 20
306.3002852290297
 30
0.0
 40
9.499999999999602
100
AcDbArc
 50
0.0
 51
30.68341710897518
  0
ARC
  5
4126
330
1E
100
AcDbEntity
  8
STEMPEL
  6
Continuous
100
AcDbCircle
 10
207.0754994138944
 20
306.3002852290298
 30
0.0
 40
7.999999999999658
100
AcDbArc
 50
0.0
 51
30.68341710897518
  0
ARC
  5
4127
330
1E
100
AcDbEntity
  8
STEMPEL
  6
Continuous
100
AcDbCircle
 10
224.275499413894
 20
316.5061658867679
 30
0.0
 40
12.0
100
AcDbArc
 50
180.0
 51
210.6834171089752
  0
ARC
  5
4128
330
1E
100
AcDbEntity
  8
STEMPEL
  6
Continuous
100
AcDbCircle
 10
224.275499413894
 20
316.5061658867679
 30
0.0
 40
10.5
100
AcDbArc
 50
180.0
 51
210.6834171089752
  0
ARC
  5
4129
330
1E
100
AcDbEntity
  8
STEMPEL
  6
Continuous
100
AcDbCircle
 10
234.7754994138921
 20
404.9874394693508
 30
0.0
 40
23.50009324312573
100
AcDbArc
 50
179.8435140456656
 51
201.183154393037
  0
ARC
  5
412A
330
1E
100
AcDbEntity
  8
STEMPEL
  6
Continuous
100
AcDbCircle
 10
234.7754994138921
 20
404.9874394693508
 30
0.0
 40
25.00009324312574
100
AcDbArc
 50
179.8435140456656
 51
201.183154393037
  0
ARC
  5
412B
330
1E
100
AcDbEntity
  8
STEMPEL
  6
Continuous
100
AcDbCircle
 10
200.2754994138921
 20
391.6174394693509
 30
0.0
 40
13.5
100
AcDbArc
 50
0.0
 51
21.183154393037
  0
ARC
  5
412C
330
1E
100
AcDbEntity
  8
STEMPEL
  6
Continuous
100
AcDbCircle
 10
200.2754994138921
 20
391.6174394693509
 30
0.0
 40
12.0
100
AcDbArc
 50
0.0
 51
21.183154393037
  0
ARC
  5
412D
330
1E
100
AcDbEntity
  8
SCHRAFF
100
AcDbCircle
 10
209.7754994138924
 20
413.7121672552368
 30
0.0
 40
3.0
100
AcDbArc
 50
174.3103148957775
 51
270.0
  0
LINE
  5
412E
102
{ACAD_REACTORS
330
40DE
102
}
330
1E
100
AcDbEntity
  8
STEMPEL
100
AcDbLine
 10
207.607783614336
 20
413.1174394693501
 30
0.0
 11
209.0823382879563
 21
414.4686198845814
 31
0.0
  0
ARC
  5
412F
330
1E
100
AcDbEntity
  8
STEMPEL
100
AcDbCircle
 10
217.5754994138895
 20
417.6174394693513
 30
0.0
 40
4.0
100
AcDbArc
 50
184.6824168622688
 51
202.0243128370433
  0
ARC
  5
4130
330
1E
100
AcDbEntity
  8
STEMPEL
100
AcDbCircle
 10
217.5754994138895
 20
417.6174394693513
 30
0.0
 40
4.0
100
AcDbArc
 50
202.0243128370433
 51
231.3178125465761
  0
LINE
  5
4131
330
1E
100
AcDbEntity
  8
STEMPEL
100
AcDbLine
 10
211.8471465096052
 20
415.6608125335936
 30
0.0
 11
212.2524683360509
 21
417.6000631141908
 31
0.0
  0
LINE
  5
4132
330
1E
100
AcDbEntity
  8
STEMPEL
100
AcDbLine
 10
211.2754994138895
 20
415.6608125335936
 30
0.0
 11
214.0867158100718
 21
415.6608125335936
 31
0.0
  0
ARC
  5
4133
330
1E
100
AcDbEntity
  8
STEMPEL
100
AcDbCircle
 10
212.9109482475642
 20
417.403509730085
 30
0.0
 40
0.6871892218815297
100
AcDbArc
 50
350.5691490999344
 51
163.3798649374556
  0
LINE
  5
4134
330
1E
100
AcDbEntity
  8
STEMPEL
  6
Continuous
100
AcDbLine
 10
290.875499413892
 20
391.6174394693509
 30
0.0
 11
290.87549941389
 21
316.5061658867679
 31
0.0
  0
LINE
  5
4135
330
1E
100
AcDbEntity
  8
STEMPEL
  6
Continuous
100
AcDbLine
 10
289.375499413892
 20
391.6174394693509
 30
0.0
 11
289.37549941389
 21
316.5061658867679
 31
0.0
  0
LINE
  5
4136
102
{ACAD_REACTORS
330
4104
102
}
330
1E
100
AcDbEntity
  8
STEMPEL
100
AcDbLine
 10
286.575499413892
 20
323.1174394693563
 30
0.0
 11
286.1380560962616
 21
318.1174394693501
 31
0.0
  0
LINE
  5
4137
102
{ACAD_REACTORS
330
4104
102
}
330
1E
100
AcDbEntity
  8
STEMPEL
100
AcDbLine
 10
288.075499413892
 20
323.051948054997
 30
0.0
 11
287.6437858525767
 21
318.1174394693501
 31
0.0
  0
ARC
  5
4138
330
1E
100
AcDbEntity
  8
STEMPEL
  6
Continuous
100
AcDbCircle
 10
278.87549941389
 20
316.5061658867679
 30
0.0
 40
12.0
100
AcDbArc
 50
329.3165828910248
 51
0.0
  0
ARC
  5
4139
330
1E
100
AcDbEntity
  8
STEMPEL
  6
Continuous
100
AcDbCircle
 10
296.0754994138896
 20
306.3002852290297
 30
0.0
 40
9.499999999999602
100
AcDbArc
 50
149.3165828910248
 51
180.0
  0
ARC
  5
413A
330
1E
100
AcDbEntity
  8
STEMPEL
  6
Continuous
100
AcDbCircle
 10
296.0754994138898
 20
306.3002852290298
 30
0.0
 40
7.999999999999658
100
AcDbArc
 50
149.3165828910248
 51
180.0
  0
ARC
  5
413B
330
1E
100
AcDbEntity
  8
STEMPEL
  6
Continuous
100
AcDbCircle
 10
278.87549941389
 20
316.5061658867679
 30
0.0
 40
10.5
100
AcDbArc
 50
329.3165828910248
 51
0.0
  0
ARC
  5
413C
330
1E
100
AcDbEntity
  8
STEMPEL
  6
Continuous
100
AcDbCircle
 10
268.375499413892
 20
404.9874394693508
 30
0.0
 40
23.50009324312573
100
AcDbArc
 50
338.816845606963
 51
0.1564859543343451
  0
ARC
  5
413D
330
1E
100
AcDbEntity
  8
STEMPEL
  6
Continuous
100
AcDbCircle
 10
268.375499413892
 20
404.9874394693508
 30
0.0
 40
25.00009324312574
100
AcDbArc
 50
338.816845606963
 51
0.1564859543343451
  0
ARC
  5
413E
330
1E
100
AcDbEntity
  8
STEMPEL
  6
Continuous
100
AcDbCircle
 10
302.8754994138921
 20
391.6174394693509
 30
0.0
 40
12.0
100
AcDbArc
 50
158.816845606963
 51
180.0
  0
ARC
  5
413F
330
1E
100
AcDbEntity
  8
STEMPEL
  6
Continuous
100
AcDbCircle
 10
302.8754994138921
 20
391.6174394693509
 30
0.0
 40
13.5
100
AcDbArc
 50
158.816845606963
 51
180.0
  0
LINE
  5
4140
330
1E
100
AcDbEntity
  8
STEMPEL
100
AcDbLine
 10
291.3038523181738
 20
415.6608125335936
 30
0.0
 11
290.8985304917282
 21
417.6000631141908
 31
0.0
  0
LINE
  5
4141
330
1E
100
AcDbEntity
  8
STEMPEL
100
AcDbLine
 10
291.8754994138897
 20
415.6608125335936
 30
0.0
 11
289.0642830177073
 21
415.6608125335936
 31
0.0
  0
ARC
  5
4142
330
1E
100
AcDbEntity
  8
STEMPEL
100
AcDbCircle
 10
285.5754994138895
 20
417.6174394693513
 30
0.0
 40
4.0
100
AcDbArc
 50
337.9756871629567
 51
355.3175831377312
  0
ARC
  5
4143
330
1E
100
AcDbEntity
  8
STEMPEL
100
AcDbCircle
 10
290.2400505802148
 20
417.403509730085
 30
0.0
 40
0.6871892218815297
100
AcDbArc
 50
16.6201350625444
 51
189.4308509000656
  0
ARC
  5
4144
330
1E
100
AcDbEntity
  8
STEMPEL
100
AcDbCircle
 10
285.5754994138895
 20
417.6174394693513
 30
0.0
 40
4.0
100
AcDbArc
 50
308.682187453549
 51
337.9756871629567
  0
LINE
  5
4145
102
{ACAD_REACTORS
330
40DE
102
}
330
1E
100
AcDbEntity
  8
STEMPEL
100
AcDbLine
 10
295.543215213448
 20
413.1174394693501
 30
0.0
 11
294.0686605398279
 21
414.4686198845814
 31
0.0
  0
LINE
  5
414A
330
1E
100
AcDbEntity
  8
STEMPEL
100
AcDbLine
 10
197.5044316020264
 20
574.3600801564696
 30
0.0
 11
207.649019566315
 21
564.2154921921822
 31
0.0
  0
LINE
  5
414B
102
{ACAD_REACTORS
330
4104
102
}
330
1E
100
AcDbEntity
  8
STEMPEL
100
AcDbLine
 10
198.9186451643995
 20
575.7742937188427
 30
0.0
 11
214.6716934916067
 21
560.0212453916376
 31
0.0
  0
LINE
  5
414C
330
1E
100
AcDbEntity
  8
STEMPEL
100
AcDbLine
 10
139.5754994138918
 20
440.117439469351
 30
0.0
 11
215.0754994138932
 21
440.117439469351
 31
0.0
  0
LINE
  5
4153
102
{ACAD_REACTORS
330
493C
102
}
330
1E
100
AcDbEntity
  8
STEMPEL
100
AcDbLine
 10
166.5754994138918
 20
434.1174394693503
 30
0.0
 11
211.4667344887424
 21
434.1174394693502
 31
0.0
  0
LINE
  5
4156
102
{ACAD_REACTORS
330
493C
102
}
330
1E
100
AcDbEntity
  8
STEMPEL
100
AcDbLine
 10
139.5754994138918
 20
440.117439469351
 30
0.0
 11
215.0754994138932
 21
440.117439469351
 31
0.0
  0
LINE
  5
4157
102
{ACAD_REACTORS
330
40DE
330
5049
102
}
330
1E
100
AcDbEntity
  8
STEMPEL
100
AcDbLine
 10
129.0754994138918
 20
428.1174394693503
 30
0.0
 11
210.942459941527
 21
428.1174394693504
 31
0.0
  0
LINE
  5
4160
102
{ACAD_REACTORS
330
4BA9
330
40DE
102
}
330
1E
100
AcDbEntity
  8
STEMPEL
100
AcDbLine
 10
135.2930138351638
 20
426.1174394693505
 30
0.0
 11
193.2617909149072
 21
426.11743946935
 31
0.0
  0
LINE
  5
4161
330
1E
100
AcDbEntity
  8
STEMPEL
100
AcDbLine
 10
176.785096500804
 20
422.7638860787563
 30
0.0
 11
130.4897129762647
 21
422.7638860787563
 31
0.0
  0
ARC
  5
4168
102
{ACAD_REACTORS
330
40DE
102
}
330
1E
100
AcDbEntity
  8
STEMPEL
100
AcDbCircle
 10
135.2930138351638
 20
422.6174394693499
 30
0.0
 40
5.499999999999851
100
AcDbArc
 50
90.0
 51
135.0
  0
ARC
  5
4169
102
{ACAD_REACTORS
330
40DE
102
}
330
1E
100
AcDbEntity
  8
STEMPEL
100
AcDbCircle
 10
135.2930138351638
 20
422.6174394693499
 30
0.0
 40
3.499999999999851
100
AcDbArc
 50
90.0
 51
135.0
  0
LINE
  5
416A
102
{ACAD_REACTORS
330
493C
102
}
330
1E
100
AcDbEntity
  8
STEMPEL
100
AcDbLine
 10
139.5754994138918
 20
434.1174394693502
 30
0.0
 11
156.5754994138918
 21
434.1174394693503
 31
0.0
  0
LINE
  5
416D
102
{ACAD_REACTORS
330
40DE
102
}
330
1E
100
AcDbEntity
  8
STEMPEL
100
AcDbLine
 10
130.4897129762647
 20
422.7638860787565
 30
0.0
 11
132.8181401010107
 21
425.0923132035027
 31
0.0
  0
LINE
  5
416E
102
{ACAD_REACTORS
330
40DE
102
}
330
1E
100
AcDbEntity
  8
STEMPEL
100
AcDbLine
 10
129.0754994138916
 20
424.1780996411296
 30
0.0
 11
130.4897129762645
 21
422.7638860787563
 31
0.0
  0
LINE
  5
416F
102
{ACAD_REACTORS
330
40DE
102
}
330
1E
100
AcDbEntity
  8
STEMPEL
100
AcDbLine
 10
129.0754994138916
 20
424.1780996411296
 30
0.0
 11
131.4039265386376
 21
426.5065267658759
 31
0.0
  0
LINE
  5
4171
102
{ACAD_REACTORS
330
5049
102
}
330
1E
100
AcDbEntity
  8
STEMPEL
100
AcDbLine
 10
129.0754994138918
 20
431.1174394693503
 30
0.0
 11
129.0754994138918
 21
428.1174394693503
 31
0.0
  0
ARC
  5
4174
102
{ACAD_REACTORS
330
493C
102
}
330
1E
100
AcDbEntity
  8
STEMPEL
100
AcDbCircle
 10
139.5754994138918
 20
437.1174394693509
 30
0.0
 40
3.0
100
AcDbArc
 50
90.0
 51
270.0
  0
POINT
  5
4175
330
1E
100
AcDbEntity
  8
BEM
100
AcDbPoint
 10
136.5754994138918
 20
437.1174394693509
 30
0.0
  0
LINE
  5
4176
102
{ACAD_REACTORS
330
493C
102
}
330
1E
100
AcDbEntity
  8
STEMPEL
100
AcDbLine
 10
155.0754994138918
 20
440.117439469351
 30
0.0
 11
155.0754994138918
 21
434.1174394693503
 31
0.0
  0
LINE
  5
4177
330
1E
100
AcDbEntity
  8
STEMPEL
100
AcDbLine
 10
156.5754994138917
 20
440.117439469351
 30
0.0
 11
156.5754994138918
 21
428.1174394693503
 31
0.0
  0
LINE
  5
4178
330
1E
100
AcDbEntity
  8
HILF
100
AcDbLine
 10
157.5754994138918
 20
440.117439469351
 30
0.0
 11
157.5754994138918
 21
428.1174394693503
 31
0.0
  0
LINE
  5
4179
102
{ACAD_REACTORS
330
5049
102
}
330
1E
100
AcDbEntity
  8
STEMPEL
100
AcDbLine
 10
155.0754994138918
 20
431.1174394693503
 30
0.0
 11
155.0754994138918
 21
428.1174394693503
 31
0.0
  0
LINE
  5
4181
102
{ACAD_REACTORS
330
40DE
102
}
330
1E
100
AcDbEntity
  8
MITTEL
100
AcDbLine
 10
161.5754994138918
 20
458.1174394693503
 30
0.0
 11
161.5754994138918
 21
423.1174394693501
 31
0.0
  0
LINE
  5
4185
102
{ACAD_REACTORS
330
493C
102
}
330
1E
100
AcDbEntity
  8
STEMPEL
100
AcDbLine
 10
168.0754994138918
 20
440.117439469351
 30
0.0
 11
168.0754994138918
 21
434.1174394693502
 31
0.0
  0
LINE
  5
4186
330
1E
100
AcDbEntity
  8
HILF
100
AcDbLine
 10
165.5754994138918
 20
440.117439469351
 30
0.0
 11
165.5754994138918
 21
428.1174394693501
 31
0.0
  0
LINE
  5
4187
330
1E
100
AcDbEntity
  8
STEMPEL
100
AcDbLine
 10
166.5754994138918
 20
440.117439469351
 30
0.0
 11
166.5754994138918
 21
428.1174394693501
 31
0.0
  0
LINE
  5
4188
102
{ACAD_REACTORS
330
5049
102
}
330
1E
100
AcDbEntity
  8
STEMPEL
100
AcDbLine
 10
168.0754994138918
 20
431.1174394693503
 30
0.0
 11
168.0754994138918
 21
428.1174394693501
 31
0.0
  0
ARC
  5
418F
102
{ACAD_REACTORS
330
493C
102
}
330
1E
100
AcDbEntity
  8
STEMPEL
100
AcDbCircle
 10
186.0754994138921
 20
437.1174394693512
 30
0.0
 40
3.0
100
AcDbArc
 50
270.0
 51
90.0
  0
LINE
  5
4191
102
{ACAD_REACTORS
330
5049
102
}
330
1E
100
AcDbEntity
  8
STEMPEL
100
AcDbLine
 10
189.0754994138919
 20
431.1174394693504
 30
0.0
 11
189.0754994138918
 21
428.1174394693502
 31
0.0
  0
ARC
  5
4192
102
{ACAD_REACTORS
330
40DE
102
}
330
1E
100
AcDbEntity
  8
STEMPEL
100
AcDbCircle
 10
193.0554151667573
 20
420.11743946935
 30
0.0
 40
8.0
100
AcDbArc
 50
42.50000000000679
 51
90.0
  0
ARC
  5
4193
102
{ACAD_REACTORS
330
40DE
102
}
330
1E
100
AcDbEntity
  8
STEMPEL
100
AcDbCircle
 10
193.0554151667573
 20
420.11743946935
 30
0.0
 40
6.0
100
AcDbArc
 50
42.50000000000679
 51
90.0
  0
LINE
  5
4194
330
1E
100
AcDbEntity
  8
HILF
100
AcDbLine
 10
202.5754994138917
 20
434.1174394693502
 30
0.0
 11
202.5754994138917
 21
431.1174394693504
 31
0.0
  0
LINE
  5
4195
330
1E
100
AcDbEntity
  8
STEMPEL
100
AcDbLine
 10
201.5754994138918
 20
434.1174394693502
 30
0.0
 11
201.5754994138918
 21
431.1174394693504
 31
0.0
  0
LINE
  5
41A0
330
1E
100
AcDbEntity
  8
STEMPEL
100
AcDbLine
 10
135.2930138351637
 20
576.1174394693503
 30
0.0
 11
193.2617909149071
 21
576.1174394693498
 31
0.0
  0
LINE
  5
41A1
330
1E
100
AcDbEntity
  8
STEMPEL
100
AcDbLine
 10
199.1006256797395
 20
572.7638860787562
 30
0.0
 11
130.4897129762646
 21
572.7638860787562
 31
0.0
  0
ARC
  5
41B0
330
1E
100
AcDbEntity
  8
STEMPEL
100
AcDbCircle
 10
135.2930138351637
 20
572.6174394693497
 30
0.0
 40
5.499999999999851
100
AcDbArc
 50
90.0
 51
135.0
  0
ARC
  5
41B1
330
1E
100
AcDbEntity
  8
STEMPEL
100
AcDbCircle
 10
135.2930138351637
 20
572.6174394693497
 30
0.0
 40
3.499999999999851
100
AcDbArc
 50
90.0
 51
135.0
  0
LINE
  5
41B7
330
1E
100
AcDbEntity
  8
STEMPEL
100
AcDbLine
 10
130.4897129762646
 20
572.7638860787565
 30
0.0
 11
132.8181401010106
 21
575.0923132035025
 31
0.0
  0
LINE
  5
41B8
330
1E
100
AcDbEntity
  8
STEMPEL
100
AcDbLine
 10
129.0754994138915
 20
574.1780996411295
 30
0.0
 11
130.4897129762644
 21
572.7638860787562
 31
0.0
  0
LINE
  5
41B9
330
1E
100
AcDbEntity
  8
STEMPEL
100
AcDbLine
 10
129.0754994138915
 20
574.1780996411295
 30
0.0
 11
131.4039265386375
 21
576.5065267658757
 31
0.0
  0
ARC
  5
420B
330
1E
100
AcDbEntity
  8
STEMPEL
100
AcDbCircle
 10
193.2617909149073
 20
570.11743946935
 30
0.0
 40
8.0
100
AcDbArc
 50
45.0
 51
90.0
  0
ARC
  5
420C
330
1E
100
AcDbEntity
  8
STEMPEL
100
AcDbCircle
 10
193.2617909149073
 20
570.11743946935
 30
0.0
 40
6.0
100
AcDbArc
 50
45.0
 51
90.0
  0
TEXT
  5
4227
330
1E
100
AcDbEntity
  8
TEXT
 62
     1
100
AcDbText
 10
244.9667846841526
 20
430.3736931930614
 30
0.0
 40
7.0
  1
DN70
 50
90.0
 41
0.8
  7
GREEKS
100
AcDbText
  0
LINE
  5
422A
330
1E
100
AcDbEntity
  8
MITTEL
100
AcDbLine
 10
206.5754994138917
 20
458.1174394693503
 30
0.0
 11
206.5754994138917
 21
423.1174394693501
 31
0.0
  0
LINE
  5
422B
330
1E
100
AcDbEntity
  8
STEMPEL
100
AcDbLine
 10
212.110102085614
 20
431.1174394693512
 30
0.0
 11
209.7754994138895
 21
431.1174394693512
 31
0.0
  0
LINE
  5
422C
330
1E
100
AcDbEntity
  8
STEMPEL
100
AcDbLine
 10
209.7754994138895
 20
431.1174394693512
 30
0.0
 11
212.3073261811121
 21
435.6085243661836
 31
0.0
  0
ARC
  5
422D
330
1E
100
AcDbEntity
  8
STEMPEL
  6
Continuous
100
AcDbCircle
 10
234.7754994138921
 20
420.5685170622325
 30
0.0
 40
25.0
100
AcDbArc
 50
155.0418036876905
 51
180.0
  0
LINE
  5
422E
330
1E
100
AcDbEntity
  8
STEMPEL
100
AcDbLine
 10
215.0754994138895
 20
430.1174394693513
 30
0.0
 11
214.1632456514737
 21
435.2910876470182
 31
0.0
  0
ARC
  5
422F
330
1E
100
AcDbEntity
  8
STEMPEL
100
AcDbCircle
 10
213.1784378984614
 20
435.1174394693512
 30
0.0
 40
1.0
100
AcDbArc
 50
9.999999999998609
 51
150.5880863344665
  0
LINE
  5
4230
330
1E
100
AcDbEntity
  8
STEMPEL
100
AcDbLine
 10
213.1784378984614
 20
436.1174394693512
 30
0.0
 11
215.0754994138931
 21
436.1174394693512
 31
0.0
  0
LINE
  5
4231
330
1E
100
AcDbEntity
  8
STEMPEL
100
AcDbLine
 10
213.4700259253122
 20
430.4845041249219
 30
0.0
 11
212.1101020856166
 21
431.1174394693512
 31
0.0
  0
ARC
  5
4232
330
1E
100
AcDbEntity
  8
STEMPEL
  6
Continuous
100
AcDbCircle
 10
234.7754994138921
 20
420.5685170622325
 30
0.0
 40
23.5
100
AcDbArc
 50
155.0418036876905
 51
180.0
  0
LINE
  5
4237
330
1E
100
AcDbEntity
  8
STEMPEL
100
AcDbLine
 10
293.3754994138896
 20
431.1174394693512
 30
0.0
 11
291.0408967421649
 21
431.1174394693512
 31
0.0
  0
LINE
  5
4238
330
1E
100
AcDbEntity
  8
STEMPEL
100
AcDbLine
 10
293.3754994138896
 20
431.1174394693512
 30
0.0
 11
290.8436726466669
 21
435.6085243661836
 31
0.0
  0
ARC
  5
4239
330
1E
100
AcDbEntity
  8
STEMPEL
  6
Continuous
100
AcDbCircle
 10
268.375499413892
 20
420.5685170622325
 30
0.0
 40
23.5
100
AcDbArc
 50
0.0
 51
24.95819631230951
  0
ARC
  5
423A
330
1E
100
AcDbEntity
  8
STEMPEL
  6
Continuous
100
AcDbCircle
 10
268.375499413892
 20
420.5685170622325
 30
0.0
 40
25.0
100
AcDbArc
 50
0.0
 51
24.95819631230951
  0
LINE
  5
423B
330
1E
100
AcDbEntity
  8
STEMPEL
100
AcDbLine
 10
288.0754994138929
 20
436.1174394693512
 30
0.0
 11
289.9725609293175
 21
436.1174394693512
 31
0.0
  0
LINE
  5
423C
330
1E
100
AcDbEntity
  8
STEMPEL
100
AcDbLine
 10
288.0754994138895
 20
430.1174394693513
 30
0.0
 11
288.9877531763054
 21
435.2910876470182
 31
0.0
  0
ARC
  5
423D
330
1E
100
AcDbEntity
  8
STEMPEL
100
AcDbCircle
 10
289.9725609293175
 20
435.1174394693512
 30
0.0
 40
1.0
100
AcDbArc
 50
29.41191366553344
 51
170.0000000000014
  0
LINE
  5
423E
330
1E
100
AcDbEntity
  8
STEMPEL
100
AcDbLine
 10
289.680972902472
 20
430.4845041249219
 30
0.0
 11
291.0408967421675
 21
431.1174394693512
 31
0.0
  0
LINE
  5
423F
330
1E
100
AcDbEntity
  8
STEMPEL
100
AcDbLine
 10
209.0632331286881
 20
565.6297057545555
 30
0.0
 11
294.0877656990961
 21
565.6297057545555
 31
0.0
  0
LINE
  5
4240
330
1E
100
AcDbEntity
  8
HILF
100
AcDbLine
 10
217.6789611749978
 20
557.9124936242983
 30
0.0
 11
285.4720376527863
 21
557.9124936242983
 31
0.0
  0
ARC
  5
4247
102
{ACAD_REACTORS
330
4104
102
}
330
1E
100
AcDbEntity
  8
STEMPEL
100
AcDbCircle
 10
210.0754994138945
 20
555.4250513139248
 30
0.0
 40
6.5
100
AcDbArc
 50
0.0
 51
45.0
  0
LINE
  5
4248
102
{ACAD_REACTORS
330
4104
102
}
330
1E
100
AcDbEntity
  8
STEMPEL
100
AcDbLine
 10
208.0025729569083
 20
564.5690455827757
 30
0.0
 11
213.6110333198269
 21
558.9605852198578
 31
0.0
  0
ARC
  5
4249
330
1E
100
AcDbEntity
  8
SCHRAFF
100
AcDbCircle
 10
209.5754994138923
 20
565.1174394693514
 30
0.0
 40
3.5
100
AcDbArc
 50
169.8499045790557
 51
289.6230664748504
  0
LINE
  5
424A
102
{ACAD_REACTORS
330
4104
102
}
330
1E
100
AcDbEntity
  8
STEMPEL
100
AcDbLine
 10
209.063233128688
 20
565.6297057545552
 30
0.0
 11
207.6490195663149
 21
564.2154921921822
 31
0.0
  0
ARC
  5
424B
102
{ACAD_REACTORS
330
4104
102
}
330
1E
100
AcDbEntity
  8
STEMPEL
100
AcDbCircle
 10
210.0754994138945
 20
555.4250513139249
 30
0.0
 40
5.0
100
AcDbArc
 50
0.0
 51
45.0
  0
LINE
  5
426C
102
{ACAD_REACTORS
330
4104
102
}
330
1E
100
AcDbEntity
  8
STEMPEL
100
AcDbLine
 10
295.1361595856715
 20
564.5567792975716
 30
0.0
 11
289.5399655079575
 21
558.9605852198583
 31
0.0
  0
ARC
  5
426D
102
{ACAD_REACTORS
330
4104
102
}
330
1E
100
AcDbEntity
  8
STEMPEL
100
AcDbCircle
 10
293.0754994138899
 20
555.4250513139252
 30
0.0
 40
5.0
100
AcDbArc
 50
135.0
 51
180.0
  0
ARC
  5
426E
102
{ACAD_REACTORS
330
4104
102
}
330
1E
100
AcDbEntity
  8
STEMPEL
100
AcDbCircle
 10
293.0754994138899
 20
555.4250513139252
 30
0.0
 40
6.5
100
AcDbArc
 50
135.0
 51
180.0
  0
LINE
  5
426F
102
{ACAD_REACTORS
330
4104
102
}
330
1E
100
AcDbEntity
  8
STEMPEL
100
AcDbLine
 10
294.075499413892
 20
565.6174394693514
 30
0.0
 11
295.4897129762651
 21
564.2032259069781
 31
0.0
  0
LINE
  5
42AE
330
1E
100
AcDbEntity
  8
TEXT
 62
     2
100
AcDbLine
 10
318.2034871187432
 20
211.4625063661617
 30
0.0
 11
421.897946051774
 21
211.4625063661617
 31
0.0
  0
TEXT
  5
42AF
330
1E
100
AcDbEntity
  8
TEXT
 62
     1
100
AcDbText
 10
319.5548562669194
 20
214.2642013608336
 30
0.0
 40
7.0
  1
Unterteil DN70
 41
0.8
  7
GREEKS
100
AcDbText
  0
TEXT
  5
42B0
330
1E
100
AcDbEntity
  8
TEXT
 62
     1
100
AcDbText
 10
318.9478966543277
 20
200.5158028829137
 30
0.0
 40
7.0
  1
EDV-Art.Nr. 21971.070X
 41
0.8
  7
GREEKS
100
AcDbText
  0
LINE
  5
42B3
102
{ACAD_REACTORS
330
4BA9
330
40DE
102
}
330
1E
100
AcDbEntity
  8
STEMPEL
100
AcDbLine
 10
367.8579849926199
 20
426.1174394693505
 30
0.0
 11
309.8892079128764
 21
426.1174394693501
 31
0.0
  0
LINE
  5
42B4
330
1E
100
AcDbEntity
  8
STEMPEL
100
AcDbLine
 10
326.3659023269799
 20
422.7638860787563
 30
0.0
 11
372.661285851519
 21
422.7638860787563
 31
0.0
  0
ARC
  5
42BD
102
{ACAD_REACTORS
330
40DE
102
}
330
1E
100
AcDbEntity
  8
STEMPEL
100
AcDbCircle
 10
310.0955836610266
 20
420.11743946935
 30
0.0
 40
8.0
100
AcDbArc
 50
90.0
 51
137.4999999999932
  0
ARC
  5
42BE
102
{ACAD_REACTORS
330
40DE
102
}
330
1E
100
AcDbEntity
  8
STEMPEL
100
AcDbCircle
 10
310.0955836610266
 20
420.11743946935
 30
0.0
 40
6.0
100
AcDbArc
 50
90.0
 51
137.4999999999932
  0
ARC
  5
42BF
102
{ACAD_REACTORS
330
493C
102
}
330
1E
100
AcDbEntity
  8
STEMPEL
100
AcDbCircle
 10
317.0754994138917
 20
437.1174394693512
 30
0.0
 40
3.0
100
AcDbArc
 50
90.0
 51
270.0
  0
LINE
  5
42C0
102
{ACAD_REACTORS
330
5049
102
}
330
1E
100
AcDbEntity
  8
STEMPEL
100
AcDbLine
 10
314.0754994138919
 20
431.1174394693502
 30
0.0
 11
314.0754994138919
 21
428.1174394693502
 31
0.0
  0
LINE
  5
42C2
330
1E
100
AcDbEntity
  8
HILF
100
AcDbLine
 10
318.9754994138923
 20
434.1174394693502
 30
0.0
 11
318.9754994138921
 21
431.1174394693507
 31
0.0
  0
LINE
  5
42C3
330
1E
100
AcDbEntity
  8
STEMPEL
100
AcDbLine
 10
317.9754994138922
 20
434.1174394693502
 30
0.0
 11
317.9754994138922
 21
431.1174394693508
 31
0.0
  0
LINE
  5
42CC
102
{ACAD_REACTORS
330
493C
330
40DE
330
5049
102
}
330
1E
100
AcDbEntity
  8
MITTEL
100
AcDbLine
 10
322.9754994138918
 20
458.1174394693504
 30
0.0
 11
322.9754994138919
 21
423.1174394693501
 31
0.0
  0
LINE
  5
42CF
330
1E
100
AcDbEntity
  8
STEMPEL
100
AcDbLine
 10
327.975499413892
 20
434.1174394693502
 30
0.0
 11
327.9754994138922
 21
431.1174394693508
 31
0.0
  0
LINE
  5
42D0
330
1E
100
AcDbEntity
  8
HILF
100
AcDbLine
 10
326.9754994138922
 20
434.1174394693502
 30
0.0
 11
326.9754994138922
 21
431.1174394693508
 31
0.0
  0
LINE
  5
42D5
102
{ACAD_REACTORS
330
4912
330
493C
102
}
330
1E
100
AcDbEntity
  8
STEMPEL
100
AcDbLine
 10
365.1360559465295
 20
454.1174394693516
 30
0.0
 11
381.575499413892
 21
454.1174394693516
 31
0.0
  0
LINE
  5
42D6
330
1E
100
AcDbEntity
  8
STEMPEL
100
AcDbLine
 10
365.1360559465295
 20
454.1174394693521
 30
0.0
 11
364.9774371977382
 21
445.0301774371659
 31
0.0
  0
LINE
  5
42D7
102
{ACAD_REACTORS
330
493C
102
}
330
1E
100
AcDbEntity
  8
STEMPEL
100
AcDbLine
 10
365.5754994138917
 20
454.1174394693509
 30
0.0
 11
365.4168806651005
 21
445.030177437165
 31
0.0
  0
ARC
  5
42D8
330
1E
100
AcDbEntity
  8
STEMPEL
100
AcDbCircle
 10
359.9781987219562
 20
445.1174394693523
 30
0.0
 40
5.0
100
AcDbArc
 50
270.0
 51
358.9999999999982
  0
ARC
  5
42D9
102
{ACAD_REACTORS
330
493C
102
}
330
1E
100
AcDbEntity
  8
STEMPEL
100
AcDbCircle
 10
360.4176421893185
 20
445.1174394693512
 30
0.0
 40
5.0
100
AcDbArc
 50
270.0
 51
358.9999999999982
  0
LINE
  5
42DA
330
1E
100
AcDbEntity
  8
MITTEL
100
AcDbLine
 10
373.5754994138919
 20
459.1174394693516
 30
0.0
 11
373.5754994138917
 21
434.1174394693501
 31
0.0
  0
LINE
  5
42DF
102
{ACAD_REACTORS
330
493C
102
}
330
1E
100
AcDbEntity
  8
STEMPEL
100
AcDbLine
 10
381.5754994138917
 20
454.1174394693509
 30
0.0
 11
381.835802223377
 21
439.2047015015375
 31
0.0
  0
ARC
  5
42E0
102
{ACAD_REACTORS
330
4912
330
493C
102
}
330
1E
100
AcDbEntity
  8
STEMPEL
100
AcDbCircle
 10
376.8365637475952
 20
439.1174394693512
 30
0.0
 40
5.0
100
AcDbArc
 50
270.0
 51
1.000000000001761
  0
LINE
  5
42E1
102
{ACAD_REACTORS
330
40DE
102
}
330
1E
100
AcDbEntity
  8
STEMPEL
100
AcDbLine
 10
374.0754994138921
 20
424.1780996411296
 30
0.0
 11
371.7470722891461
 21
426.5065267658759
 31
0.0
  0
LINE
  5
42E2
102
{ACAD_REACTORS
330
40DE
102
}
330
1E
100
AcDbEntity
  8
STEMPEL
100
AcDbLine
 10
372.661285851519
 20
422.7638860787565
 30
0.0
 11
370.332858726773
 21
425.0923132035027
 31
0.0
  0
ARC
  5
42E3
102
{ACAD_REACTORS
330
40DE
102
}
330
1E
100
AcDbEntity
  8
STEMPEL
100
AcDbCircle
 10
367.8579849926199
 20
422.6174394693499
 30
0.0
 40
3.499999999999851
100
AcDbArc
 50
45.0
 51
90.0
  0
ARC
  5
42E4
102
{ACAD_REACTORS
330
40DE
102
}
330
1E
100
AcDbEntity
  8
STEMPEL
100
AcDbCircle
 10
367.8579849926199
 20
422.6174394693499
 30
0.0
 40
5.499999999999851
100
AcDbArc
 50
45.0
 51
90.0
  0
LINE
  5
42E6
102
{ACAD_REACTORS
330
5049
102
}
330
1E
100
AcDbEntity
  8
STEMPEL
100
AcDbLine
 10
379.0754994138918
 20
431.11743946935
 30
0.0
 11
379.0754994138918
 21
428.1174394693503
 31
0.0
  0
LINE
  5
42E7
102
{ACAD_REACTORS
330
40DE
102
}
330
1E
100
AcDbEntity
  8
STEMPEL
100
AcDbLine
 10
374.0754994138921
 20
424.1780996411296
 30
0.0
 11
372.6612858515192
 21
422.7638860787563
 31
0.0
  0
LINE
  5
42EC
330
1E
100
AcDbEntity
  8
STEMPEL
100
AcDbLine
 10
367.8579849926198
 20
576.1174394693503
 30
0.0
 11
309.8892079128764
 21
576.1174394693499
 31
0.0
  0
LINE
  5
42ED
330
1E
100
AcDbEntity
  8
STEMPEL
100
AcDbLine
 10
304.0503731480442
 20
572.7638860787562
 30
0.0
 11
372.6612858515189
 21
572.7638860787562
 31
0.0
  0
ARC
  5
42FD
330
1E
100
AcDbEntity
  8
STEMPEL
100
AcDbCircle
 10
309.8892079128766
 20
570.11743946935
 30
0.0
 40
6.0
100
AcDbArc
 50
90.0
 51
135.0
  0
ARC
  5
42FE
330
1E
100
AcDbEntity
  8
STEMPEL
100
AcDbCircle
 10
309.8892079128766
 20
570.11743946935
 30
0.0
 40
8.0
100
AcDbArc
 50
90.0
 51
135.0
  0
LINE
  5
4349
330
1E
100
AcDbEntity
  8
STEMPEL
100
AcDbLine
 10
374.075499413892
 20
574.1780996411295
 30
0.0
 11
371.747072289146
 21
576.5065267658757
 31
0.0
  0
LINE
  5
434A
330
1E
100
AcDbEntity
  8
STEMPEL
100
AcDbLine
 10
372.6612858515189
 20
572.7638860787565
 30
0.0
 11
370.3328587267729
 21
575.0923132035025
 31
0.0
  0
ARC
  5
434B
330
1E
100
AcDbEntity
  8
STEMPEL
100
AcDbCircle
 10
367.8579849926198
 20
572.6174394693497
 30
0.0
 40
3.499999999999851
100
AcDbArc
 50
45.0
 51
90.0
  0
ARC
  5
434C
330
1E
100
AcDbEntity
  8
STEMPEL
100
AcDbCircle
 10
367.8579849926198
 20
572.6174394693497
 30
0.0
 40
5.499999999999851
100
AcDbArc
 50
45.0
 51
90.0
  0
LINE
  5
434E
330
1E
100
AcDbEntity
  8
STEMPEL
100
AcDbLine
 10
374.075499413892
 20
574.1780996411295
 30
0.0
 11
372.6612858515191
 21
572.7638860787562
 31
0.0
  0
TEXT
  5
4379
330
1E
100
AcDbEntity
  8
TEXT
100
AcDbText
 10
482.3280000000001
 20
471.8550995097769
 30
0.0
 40
5.0
  1
Erstellt mit AUTOCAD 2000
 50
90.0
 41
0.8
  7
GREEKS
100
AcDbText
  0
TEXT
  5
437A
330
1E
100
AcDbEntity
  8
TEXT
100
AcDbText
 10
551.3702584697737
 20
654.9837501577826
 30
0.0
 40
4.0
  1
21723070W.DWG
 50
90.0
 41
0.8
  7
GREEKS
100
AcDbText
  0
TEXT
  5
437B
330
1E
100
AcDbEntity
  8
TEXT
100
AcDbText
 10
542.3598805695784
 20
655.1296391125315
 30
0.0
 40
5.0
  1
EDV-Art.Nr. 21723.070X
 50
90.0
 41
0.8
  7
GREEKS
100
AcDbText
  0
TEXT
  5
437C
330
1E
100
AcDbEntity
  8
TEXT
100
AcDbText
 10
522.4966558241471
 20
655.1296391125315
 30
0.0
 40
5.0
  1
DN70 mit Wärmedämmung und
 50
90.0
 41
0.7
  7
GREEKS
100
AcDbText
  0
TEXT
  5
437D
330
1E
100
AcDbEntity
  8
TEXT
 62
     1
100
AcDbText
 10
506.5825121074622
 20
654.3055652248178
 30
0.0
 40
7.0
  1
Drainlet-Kompletteinheit
 50
90.0
 41
0.7
  7
GREEKS
100
AcDbText
  0
LINE
  5
437E
330
1E
100
AcDbEntity
  8
STEMPEL
100
AcDbLine
 10
584.0
 20
480.0
 30
0.0
 11
584.0
 21
830.0
 31
0.0
  0
TEXT
  5
437F
330
1E
100
AcDbEntity
  8
TEXT
100
AcDbText
 10
563.1543942980694
 20
654.7422383911359
 30
0.0
 40
5.0
  1
Bauvorhaben
 50
90.0
 41
0.8
  7
GREEKS
100
AcDbText
  0
TEXT
  5
4380
330
1E
100
AcDbEntity
  8
TEXT
100
AcDbText
 10
491.4510671988221
 20
654.8779403809009
 30
0.0
 40
5.0
  1
Benennung
 50
90.0
 41
0.8
  7
GREEKS
100
AcDbText
  0
LINE
  5
4381
330
1E
100
AcDbEntity
  8
HILF
100
AcDbLine
 10
579.1060174197168
 20
653.4909699289885
 30
0.0
 11
579.1060174197168
 21
824.8588839326728
 31
0.0
  0
LINE
  5
4382
330
1E
100
AcDbEntity
  8
HILF
100
AcDbLine
 10
544.0000000000001
 20
654.7736801096948
 30
0.0
 11
544.0000000000001
 21
744.8353916556309
 31
0.0
  0
LINE
  5
4383
330
1E
100
AcDbEntity
  8
HILF
100
AcDbLine
 10
534.0000000000001
 20
654.7736801096948
 30
0.0
 11
534.0000000000001
 21
744.8353916556309
 31
0.0
  0
LINE
  5
4384
330
1E
100
AcDbEntity
  8
HILF
100
AcDbLine
 10
524.0000000000001
 20
654.7736801096948
 30
0.0
 11
524.0000000000001
 21
744.8353916556309
 31
0.0
  0
LINE
  5
4385
330
1E
100
AcDbEntity
  8
HILF
100
AcDbLine
 10
509.9624175243587
 20
654.7736801096948
 30
0.0
 11
509.9624175243587
 21
744.8353916556311
 31
0.0
  0
LINE
  5
4386
330
1E
100
AcDbEntity
  8
STEMPEL
100
AcDbLine
 10
514.0
 20
830.0
 30
0.0
 11
514.0000000000001
 21
566.0000000000002
 31
0.0
  0
LINE
  5
4387
330
1E
100
AcDbEntity
  8
STEMPEL
100
AcDbLine
 10
554.0
 20
830.0
 30
0.0
 11
554.0
 21
566.0000000000002
 31
0.0
  0
LINE
  5
4388
330
1E
100
AcDbEntity
  8
STEMPEL
100
AcDbLine
 10
484.0
 20
830.0
 30
0.0
 11
484.0
 21
470.0000000000001
 31
0.0
  0
INSERT
  5
4389
330
1E
100
AcDbEntity
  8
STEMPEL
100
AcDbBlockReference
  2
LOGO
 10
548.9789472355168
 20
570.9955485457795
 30
0.0
 41
2.0
 42
2.0
 43
2.0
 50
90.0
  0
LINE
  5
438A
330
1E
100
AcDbEntity
  8
STEMPEL
100
AcDbLine
 10
584.0
 20
470.0000000000001
 30
0.0
 11
484.0
 21
470.0000000000001
 31
0.0
  0
TEXT
  5
438B
330
1E
100
AcDbEntity
  8
TEXT
100
AcDbText
 10
575.3284373066019
 20
530.0571803261056
 30
0.0
 40
4.0
  1
Tag
 50
90.0
 41
0.8
  7
GREEKS
 72
     1
 11
575.3284373066019
 21
533.7905136594389
 31
0.0
100
AcDbText
  0
TEXT
  5
438C
330
1E
100
AcDbEntity
  8
TEXT
100
AcDbText
 10
580.3453415397281
 20
478.2664110704577
 30
0.0
 40
4.0
  1
Index
 50
180.0
 41
0.8
  7
GREEKS
100
AcDbText
  0
TEXT
  5
438D
330
1E
100
AcDbEntity
  8
TEXT
100
AcDbText
 10
575.3261810501586
 20
492.7826069847976
 30
0.0
 40
4.0
  1
Änderung
 50
90.0
 41
0.8
  7
GREEKS
 72
     1
 11
575.3261810501586
 21
503.5254641276548
 31
0.0
100
AcDbText
  0
LINE
  5
438E
330
1E
100
AcDbEntity
  8
VOLL
100
AcDbLine
 10
484.0000000000001
 20
544.0000000000002
 30
0.0
 11
584.0000000000001
 21
544.0000000000001
 31
0.0
  0
LINE
  5
438F
330
1E
100
AcDbEntity
  8
VOLL
100
AcDbLine
 10
484.0000000000001
 20
524.0000000000001
 30
0.0
 11
584.0000000000001
 21
524.0000000000001
 31
0.0
  0
LINE
  5
4390
330
1E
100
AcDbEntity
  8
VOLL
100
AcDbLine
 10
484.0
 20
484.0000000000002
 30
0.0
 11
584.0000000000001
 21
484.0000000000001
 31
0.0
  0
LINE
  5
4391
330
1E
100
AcDbEntity
  8
STEMPEL
100
AcDbLine
 10
484.0
 20
650.0
 30
0.0
 11
584.0000000000001
 21
650.0
 31
0.0
  0
LINE
  5
4392
330
1E
100
AcDbEntity
  8
STEMPEL
100
AcDbLine
 10
484.0000000000001
 20
566.0000000000002
 30
0.0
 11
584.0000000000001
 21
566.0000000000001
 31
0.0
  0
TEXT
  5
4393
330
1E
100
AcDbEntity
  8
TEXT
100
AcDbText
 10
575.4067578303359
 20
548.6614567187548
 30
0.0
 40
4.0
  1
Name
 50
90.0
 41
0.8
  7
GREEKS
 72
     1
 11
575.4067578303359
 21
554.9852662425642
 31
0.0
100
AcDbText
  0
LINE
  5
4394
330
1E
100
AcDbEntity
  8
HILF
100
AcDbLine
 10
554.0
 20
470.0000000000001
 30
0.0
 11
554.0
 21
566.0000000000002
 31
0.0
  0
LINE
  5
4395
330
1E
100
AcDbEntity
  8
HILF
100
AcDbLine
 10
544.0
 20
470.0000000000001
 30
0.0
 11
544.0000000000001
 21
566.0000000000002
 31
0.0
  0
LINE
  5
4396
330
1E
100
AcDbEntity
  8
HILF
100
AcDbLine
 10
534.0
 20
470.0000000000001
 30
0.0
 11
534.0000000000001
 21
566.0000000000002
 31
0.0
  0
LINE
  5
4397
330
1E
100
AcDbEntity
  8
HILF
100
AcDbLine
 10
524.0000000000001
 20
470.0000000000001
 30
0.0
 11
524.0000000000001
 21
566.0000000000002
 31
0.0
  0
LINE
  5
4398
330
1E
100
AcDbEntity
  8
HILF
100
AcDbLine
 10
514.0000000000001
 20
470.0000000000001
 30
0.0
 11
514.0000000000001
 21
566.0000000000002
 31
0.0
  0
LINE
  5
4399
330
1E
100
AcDbEntity
  8
HILF
100
AcDbLine
 10
504.0
 20
470.0000000000001
 30
0.0
 11
504.0
 21
566.0000000000002
 31
0.0
  0
LINE
  5
439A
330
1E
100
AcDbEntity
  8
HILF
100
AcDbLine
 10
494.0
 20
470.0000000000001
 30
0.0
 11
494.0
 21
566.0000000000002
 31
0.0
  0
LINE
  5
439B
330
1E
100
AcDbEntity
  8
STEMPEL
100
AcDbLine
 10
564.0000000000001
 20
566.0
 30
0.0
 11
564.0
 21
470.0000000000001
 31
0.0
  0
TEXT
  5
439C
330
1E
100
AcDbEntity
  8
TEXT
100
AcDbText
 10
530.8923495917427
 20
590.703759012998
 30
0.0
 40
4.0
  1
17.02.
 50
90.0
 41
0.8
  7
GREEKS
 72
     1
 11
530.8923495917427
 21
597.4085209177599
 31
0.0
100
AcDbText
  0
TEXT
  5
439D
330
1E
100
AcDbEntity
  8
TEXT
100
AcDbText
 10
530.9103608027649
 20
624.4216048581257
 30
0.0
 40
4.0
  1
Koeh
 50
90.0
 41
0.8
  7
GREEKS
 72
     1
 11
530.9103608027649
 21
629.6787477152686
 31
0.0
100
AcDbText
  0
TEXT
  5
439E
330
1E
100
AcDbEntity
  8
TEXT
100
AcDbText
 10
530.3700963038203
 20
567.5836127167616
 30
0.0
 40
4.0
  1
Gez.
 50
90.0
 41
0.8
  7
GREEKS
100
AcDbText
  0
LINE
  5
439F
330
1E
100
AcDbEntity
  8
VOLL
100
AcDbLine
 10
484.0000000000002
 20
610.0000000000002
 30
0.0
 11
554.0
 21
610.0
 31
0.0
  0
LINE
  5
43A0
330
1E
100
AcDbEntity
  8
VOLL
100
AcDbLine
 10
514.0000000000001
 20
584.0000000000002
 30
0.0
 11
554.0
 21
584.0000000000002
 31
0.0
  0
TEXT
  5
43A1
330
1E
100
AcDbEntity
  8
TEXT
100
AcDbText
 10
503.2363615897698
 20
612.6261322080839
 30
0.0
 40
4.0
  1
DIN EN1124-3
 50
90.0
 41
0.8
  7
GREEKS
 72
     1
 11
503.2363615897698
 21
629.6166083985601
 31
0.0
100
AcDbText
  0
TEXT
  5
43A2
330
1E
100
AcDbEntity
  8
TEXT
100
AcDbText
 10
491.581583156518
 20
614.2858954734052
 30
0.0
 40
5.0
  1
Zul. Abw.
 50
90.0
 41
0.8
  7
GREEKS
100
AcDbText
  0
LINE
  5
43A3
330
1E
100
AcDbEntity
  8
HILF
100
AcDbLine
 10
524.0000000000001
 20
566.0000000000002
 30
0.0
 11
524.0000000000001
 21
650.0
 31
0.0
  0
TEXT
  5
43A4
330
1E
100
AcDbEntity
  8
TEXT
 62
     1
100
AcDbText
 10
505.8509857108604
 20
580.5006306481888
 30
0.0
 40
7.0
  1
1:2
 50
90.0
 41
0.8
  7
GREEKS
100
AcDbText
  0
TEXT
  5
43A5
330
1E
100
AcDbEntity
  8
TEXT
100
AcDbText
 10
491.537910491291
 20
573.5163572150378
 30
0.0
 40
5.0
  1
Maßstab
 50
90.0
 41
0.8
  7
GREEKS
100
AcDbText
  0
TEXT
  5
43A6
330
1E
100
AcDbEntity
  8
TEXT
100
AcDbText
 10
520.8597452884832
 20
568.622109822104
 30
0.0
 40
4.0
  1
2011
 50
90.0
 41
0.8
  7
GREEKS
100
AcDbText
  0
TEXT
  5
43A7
330
1E
100
AcDbEntity
  8
TEXT
100
AcDbText
 10
520.6811949877008
 20
592.3311673153651
 30
0.0
 40
4.0
  1
Tag
 50
90.0
 41
0.8
  7
GREEKS
100
AcDbText
  0
TEXT
  5
43A8
330
1E
100
AcDbEntity
  8
TEXT
100
AcDbText
 10
520.6903890808478
 20
622.4626584226296
 30
0.0
 40
4.0
  1
Name
 50
90.0
 41
0.8
  7
GREEKS
100
AcDbText
  0
LINE
  5
43A9
330
1E
100
AcDbEntity
  8
HILF
100
AcDbLine
 10
544.0000000000001
 20
566.0000000000002
 30
0.0
 11
544.0000000000001
 21
650.0
 31
0.0
  0
LINE
  5
43AA
330
1E
100
AcDbEntity
  8
HILF
100
AcDbLine
 10
534.0000000000001
 20
566.0000000000002
 30
0.0
 11
534.0000000000001
 21
650.0
 31
0.0
  0
TEXT
  5
43AB
330
1E
100
AcDbEntity
  8
TEXT
100
AcDbText
 10
540.3107370857163
 20
567.5515086571673
 30
0.0
 40
4.0
  1
Gepr.
 50
90.0
 41
0.8
  7
GREEKS
100
AcDbText
  0
TEXT
  5
43AC
330
1E
100
AcDbEntity
  8
TEXT
100
AcDbText
 10
550.4705361035019
 20
567.6006777387304
 30
0.0
 40
4.0
  1
Norm.
 50
90.0
 41
0.8
  7
GREEKS
100
AcDbText
  0
LINE
  5
43AD
330
1E
100
AcDbEntity
  8
HILF
100
AcDbLine
 10
510.2201636304418
 20
756.7238616296992
 30
0.0
 11
510.2201636304418
 21
824.8588839326728
 31
0.0
  0
LINE
  5
43AE
330
1E
100
AcDbEntity
  8
VOLL
100
AcDbLine
 10
534.0
 20
752.0
 30
0.0
 11
534.0
 21
830.0
 31
0.0
  0
LINE
  5
43B0
330
1E
100
AcDbEntity
  8
STEMPEL
100
AcDbLine
 10
484.0000000000002
 20
752.0
 30
0.0
 11
554.0
 21
752.0
 31
0.0
  0
TEXT
  5
43B1
330
1E
100
AcDbEntity
  8
TEXT
 62
     1
100
AcDbText
 10
505.8509857108604
 20
767.4074767277959
 30
0.0
 40
7.0
  1
21723070W
 50
90.0
 41
0.8
  7
GREEKS
 72
     1
 11
505.8509857108604
 21
790.8741433944626
 31
0.0
100
AcDbText
  0
TEXT
  5
43B2
330
1E
100
AcDbEntity
  8
TEXT
100
AcDbText
 10
491.6867965462863
 20
756.178754957634
 30
0.0
 40
5.0
  1
Zeichnungs Nr.
 50
90.0
 41
0.8
  7
GREEKS
100
AcDbText
  0
TEXT
  5
43B3
330
1E
100
AcDbEntity
  8
TEXT
100
AcDbText
 10
520.8188176290002
 20
756.7238616296992
 30
0.0
 40
5.0
  1
Ersatz für:
 50
90.0
 41
0.8
  7
GREEKS
100
AcDbText
  0
TEXT
  5
43B4
330
1E
100
AcDbEntity
  8
TEXT
100
AcDbText
 10
541.925838221214
 20
757.2400861497006
 30
0.0
 40
5.0
  1
ersetzt durch:
 50
90.0
 41
0.8
  7
GREEKS
100
AcDbText
  0
TEXT
  5
4461
330
1E
100
AcDbEntity
  8
TEXT
 62
     1
100
AcDbText
 10
364.2845097794248
 20
489.4264648386403
 30
0.0
 40
7.0
  1
Ablaufkörper DN70
 41
0.8
  7
GREEKS
100
AcDbText
  0
LINE
  5
4462
330
1E
100
AcDbEntity
  8
TEXT
 62
     2
100
AcDbLine
 10
363.2038233805876
 20
485.8136965664466
 30
0.0
 11
288.0754994138932
 21
508.3134038458642
 31
0.0
  0
LINE
  5
4463
330
1E
100
AcDbEntity
  8
TEXT
 62
     2
100
AcDbLine
 10
469.3277179882654
 20
485.8136965664469
 30
0.0
 11
363.2038233805876
 21
485.8136965664466
 31
0.0
  0
TEXT
  5
4464
330
1E
100
AcDbEntity
  8
TEXT
 62
     1
100
AcDbText
 10
364.1039544852727
 20
476.3786926916611
 30
0.0
 40
7.0
  1
EDV-Art.Nr. 21981.070X
 41
0.8
  7
GREEKS
100
AcDbText
  0
TEXT
  5
4465
330
1E
100
AcDbEntity
  8
TEXT
 62
     1
100
AcDbText
 10
362.5128487241118
 20
542.1087110559344
 30
0.0
 40
7.0
  1
EDV-Art.Nr. 21907.070X
 41
0.8
100
AcDbText
  0
LINE
  5
4466
330
1E
100
AcDbEntity
  8
TEXT
 62
     2
100
AcDbLine
 10
467.8560574204905
 20
551.4012078637335
 30
0.0
 11
361.9174928453574
 21
551.4012078637335
 31
0.0
  0
TEXT
  5
4467
330
1E
100
AcDbEntity
  8
TEXT
 62
     1
100
AcDbText
 10
362.5128487241118
 20
554.885042024644
 30
0.0
 40
7.0
  1
Losflansch DN70
 41
0.8
100
AcDbText
  0
LINE
  5
4468
102
{ACAD_REACTORS
330
4FFC
102
}
330
1E
100
AcDbEntity
  8
TEXT
 62
     2
100
AcDbLine
 10
361.9174928453574
 20
551.4012078637335
 30
0.0
 11
345.0455465480989
 21
586.8716266006954
 31
0.0
  0
TEXT
  5
4469
330
1E
100
AcDbEntity
  8
TEXT
 62
     1
100
AcDbText
 10
364.598346099167
 20
506.2325290692365
 30
0.0
 40
7.0
  1
EDV-Art.Nr. 21920.070X
 41
0.8
100
AcDbText
  0
LINE
  5
446A
330
1E
100
AcDbEntity
  8
TEXT
 62
     2
100
AcDbLine
 10
467.8560574204905
 20
515.5250258770356
 30
0.0
 11
361.9174928453574
 21
515.5250258770356
 31
0.0
  0
TEXT
  5
446B
330
1E
100
AcDbEntity
  8
TEXT
 62
     1
100
AcDbText
 10
364.598346099167
 20
519.0088600379461
 30
0.0
 40
7.0
  1
Kompressionsdichtung
 41
0.8
100
AcDbText
  0
LINE
  5
446C
330
1E
100
AcDbEntity
  8
TEXT
 62
     2
100
AcDbLine
 10
361.9174928453574
 20
515.5250258770356
 30
0.0
 11
316.3453091010126
 21
579.6951738682127
 31
0.0
  0
LINE
  5
453D
330
1E
100
AcDbEntity
  8
TEXT
 62
     2
100
AcDbLine
 10
416.7032202795092
 20
396.3450928084374
 30
0.0
 11
357.7203192834384
 21
430.2580055339506
 31
0.0
  0
TEXT
  5
453E
330
1E
100
AcDbEntity
  8
TEXT
 62
     1
100
AcDbText
 10
419.3840735333187
 20
399.8289269693478
 30
0.0
 40
7.0
  1
Kompressionsdichtung
 41
0.8
100
AcDbText
  0
LINE
  5
453F
330
1E
100
AcDbEntity
  8
TEXT
 62
     2
100
AcDbLine
 10
522.6417848546422
 20
396.3450928084374
 30
0.0
 11
416.7032202795092
 21
396.3450928084374
 31
0.0
  0
TEXT
  5
4540
330
1E
100
AcDbEntity
  8
TEXT
 62
     1
100
AcDbText
 10
419.3840735333187
 20
387.0525960006382
 30
0.0
 40
7.0
  1
EDV-Art.Nr. 21920.070X
 41
0.8
100
AcDbText
  0
LINE
  5
4541
330
1E
100
AcDbEntity
  8
TEXT
 62
     2
100
AcDbLine
 10
419.7980031576255
 20
426.5505800960018
 30
0.0
 11
379.1993979035072
 21
442.9468593819462
 31
0.0
  0
TEXT
  5
4542
330
1E
100
AcDbEntity
  8
TEXT
 62
     1
100
AcDbText
 10
420.3933590363799
 20
430.0344142569122
 30
0.0
 40
7.0
  1
Losflansch DN70
 41
0.8
100
AcDbText
  0
LINE
  5
4543
330
1E
100
AcDbEntity
  8
TEXT
 62
     2
100
AcDbLine
 10
525.7365677327586
 20
426.5505800960018
 30
0.0
 11
419.7980031576255
 21
426.5505800960018
 31
0.0
  0
TEXT
  5
4544
330
1E
100
AcDbEntity
  8
TEXT
 62
     1
100
AcDbText
 10
420.3933590363799
 20
417.2580832882026
 30
0.0
 40
7.0
  1
EDV-Art.Nr. 21905.070X
 41
0.8
100
AcDbText
  0
TEXT
  5
4545
330
1E
100
AcDbEntity
  8
TEXT
 62
     1
100
AcDbText
 10
419.9481978623973
 20
355.2321217556571
 30
0.0
 40
7.0
  1
EDV-Art.Nr. 00911.070X
 41
0.8
  7
GREEKS
100
AcDbText
  0
LINE
  5
4546
330
1E
100
AcDbEntity
  8
TEXT
 62
     2
100
AcDbLine
 10
525.1719613653902
 20
364.6671256304428
 30
0.0
 11
419.0480667577124
 21
364.6671256304426
 31
0.0
  0
LINE
  5
4547
102
{ACAD_REACTORS
330
4BA9
102
}
330
1E
100
AcDbEntity
  8
TEXT
 62
     2
100
AcDbLine
 10
419.0480667577124
 20
364.6671256304426
 30
0.0
 11
288.4857128403986
 21
423.4121978270113
 31
0.0
  0
TEXT
  5
4548
330
1E
100
AcDbEntity
  8
TEXT
 62
     1
100
AcDbText
 10
420.1287531565494
 20
368.2798939026363
 30
0.0
 40
7.0
  1
Dichtelement DN70
 41
0.8
  7
GREEKS
100
AcDbText
  0
LINE
  5
48DB
102
{ACAD_REACTORS
330
4912
330
493C
102
}
330
1E
100
AcDbEntity
  8
STEMPEL
100
AcDbLine
 10
377.5754994138917
 20
451.117439469352
 30
0.0
 11
377.5754994138917
 21
454.117439469352
 31
0.0
  0
LINE
  5
48DC
102
{ACAD_REACTORS
330
4912
330
493C
102
}
330
1E
100
AcDbEntity
  8
STEMPEL
100
AcDbLine
 10
377.5754994138917
 20
451.117439469352
 30
0.0
 11
377.0754994138919
 21
451.117439469352
 31
0.0
  0
LINE
  5
48DD
102
{ACAD_REACTORS
330
4912
330
493C
102
}
330
1E
100
AcDbEntity
  8
STEMPEL
100
AcDbLine
 10
377.5754994138919
 20
440.1174394693521
 30
0.0
 11
377.5754994138917
 21
448.1174394693519
 31
0.0
  0
LINE
  5
48DE
102
{ACAD_REACTORS
330
4912
330
493C
102
}
330
1E
100
AcDbEntity
  8
STEMPEL
100
AcDbLine
 10
377.5754994138919
 20
440.1174394693522
 30
0.0
 11
377.0754994138919
 21
440.1174394693521
 31
0.0
  0
LINE
  5
48DF
102
{ACAD_REACTORS
330
4912
330
493C
102
}
330
1E
100
AcDbEntity
  8
STEMPEL
100
AcDbLine
 10
377.5754994138917
 20
448.1174394693519
 30
0.0
 11
377.0754994138919
 21
448.1174394693519
 31
0.0
  0
LINE
  5
48E0
102
{ACAD_REACTORS
330
4912
330
493C
102
}
330
1E
100
AcDbEntity
  8
STEMPEL
100
AcDbLine
 10
377.5754994138919
 20
434.1174394693521
 30
0.0
 11
377.5754994138919
 21
437.1174394693521
 31
0.0
  0
LINE
  5
48E1
102
{ACAD_REACTORS
330
4912
330
493C
102
}
330
1E
100
AcDbEntity
  8
STEMPEL
100
AcDbLine
 10
377.5754994138919
 20
437.1174394693521
 30
0.0
 11
377.0754994138918
 21
437.1174394693521
 31
0.0
  0
LINE
  5
48E2
102
{ACAD_REACTORS
330
4912
330
493C
102
}
330
1E
100
AcDbEntity
  8
STEMPEL
100
AcDbLine
 10
377.0754994138919
 20
437.1174394693521
 30
0.0
 11
377.0754994138919
 21
440.1174394693522
 31
0.0
  0
LINE
  5
48E3
102
{ACAD_REACTORS
330
4912
102
}
330
1E
100
AcDbEntity
  8
STEMPEL
100
AcDbLine
 10
375.5754994138917
 20
434.1174394693519
 30
0.0
 11
375.5754994138917
 21
454.1174394693516
 31
0.0
  0
LINE
  5
48E4
102
{ACAD_REACTORS
330
4912
102
}
330
1E
100
AcDbEntity
  8
HILF
100
AcDbLine
 10
376.5754994138918
 20
434.1174394693519
 30
0.0
 11
376.5754994138918
 21
454.1174394693517
 31
0.0
  0
LINE
  5
48E5
102
{ACAD_REACTORS
330
4912
330
493C
102
}
330
1E
100
AcDbEntity
  8
STEMPEL
100
AcDbLine
 10
377.0754994138919
 20
448.1174394693519
 30
0.0
 11
377.0754994138919
 21
451.117439469352
 31
0.0
  0
LINE
  5
48E6
102
{ACAD_REACTORS
330
4912
330
493C
102
}
330
1E
100
AcDbEntity
  8
STEMPEL
100
AcDbLine
 10
369.5754994138916
 20
451.1174394693519
 30
0.0
 11
369.5754994138917
 21
454.117439469352
 31
0.0
  0
LINE
  5
48E7
102
{ACAD_REACTORS
330
4912
330
493C
102
}
330
1E
100
AcDbEntity
  8
STEMPEL
100
AcDbLine
 10
370.0754994138919
 20
451.117439469352
 30
0.0
 11
369.5754994138917
 21
451.117439469352
 31
0.0
  0
LINE
  5
48E8
102
{ACAD_REACTORS
330
4912
330
493C
102
}
330
1E
100
AcDbEntity
  8
STEMPEL
100
AcDbLine
 10
369.5754994138919
 20
440.1174394693518
 30
0.0
 11
369.5754994138916
 21
448.1174394693519
 31
0.0
  0
LINE
  5
48E9
102
{ACAD_REACTORS
330
4912
330
493C
102
}
330
1E
100
AcDbEntity
  8
STEMPEL
100
AcDbLine
 10
370.0754994138919
 20
440.1174394693519
 30
0.0
 11
369.5754994138919
 21
440.1174394693519
 31
0.0
  0
LINE
  5
48EA
102
{ACAD_REACTORS
330
4912
330
493C
102
}
330
1E
100
AcDbEntity
  8
STEMPEL
100
AcDbLine
 10
370.0754994138919
 20
448.1174394693519
 30
0.0
 11
369.5754994138917
 21
448.1174394693519
 31
0.0
  0
LINE
  5
48EB
102
{ACAD_REACTORS
330
4912
330
493C
102
}
330
1E
100
AcDbEntity
  8
STEMPEL
100
AcDbLine
 10
369.5754994138919
 20
434.1174394693521
 30
0.0
 11
369.5754994138919
 21
437.1174394693521
 31
0.0
  0
LINE
  5
48EC
102
{ACAD_REACTORS
330
4912
330
493C
102
}
330
1E
100
AcDbEntity
  8
STEMPEL
100
AcDbLine
 10
370.0754994138919
 20
437.1174394693521
 30
0.0
 11
369.5754994138919
 21
437.1174394693521
 31
0.0
  0
LINE
  5
48ED
102
{ACAD_REACTORS
330
4912
330
493C
102
}
330
1E
100
AcDbEntity
  8
STEMPEL
100
AcDbLine
 10
370.0754994138919
 20
437.117439469352
 30
0.0
 11
370.0754994138919
 21
440.1174394693519
 31
0.0
  0
LINE
  5
48EE
102
{ACAD_REACTORS
330
4912
102
}
330
1E
100
AcDbEntity
  8
STEMPEL
100
AcDbLine
 10
371.5754994138917
 20
434.1174394693519
 30
0.0
 11
371.5754994138917
 21
454.1174394693516
 31
0.0
  0
LINE
  5
48EF
102
{ACAD_REACTORS
330
4912
102
}
330
1E
100
AcDbEntity
  8
HILF
100
AcDbLine
 10
370.5754994138918
 20
434.1174394693519
 30
0.0
 11
370.5754994138918
 21
454.1174394693517
 31
0.0
  0
LINE
  5
48F0
102
{ACAD_REACTORS
330
4912
330
493C
102
}
330
1E
100
AcDbEntity
  8
STEMPEL
100
AcDbLine
 10
370.0754994138919
 20
448.1174394693519
 30
0.0
 11
370.0754994138919
 21
451.117439469352
 31
0.0
  0
HATCH
  5
4912
330
1E
100
AcDbEntity
  8
SCHRAFF
100
AcDbHatch
 10
0.0
 20
0.0
 30
0.0
210
0.0
220
0.0
230
1.0
  2
_USER
 70
     0
 71
     1
 91
        4
 92
        7
 72
     1
 73
     1
 93
       13
 10
377.5754994138918
 20
454.1174394693517
 42
0.0
 10
376.5754994138918
 20
454.1174394693515
 42
0.0
 10
376.5754994138918
 20
434.1174394693502
 42
0.0
 10
376.8365637475952
 20
434.11743946935
 42
0.0370996223327146
 10
377.5754994138919
 20
434.1723435065729
 42
0.0
 10
377.5754994138919
 20
437.1174394693521
 42
0.0
 10
377.0754994138918
 20
437.1174394693521
 42
0.0
 10
377.0754994138919
 20
440.1174394693521
 42
0.0
 10
377.5754994138919
 20
440.1174394693522
 42
0.0
 10
377.5754994138917
 20
448.117439469352
 42
0.0
 10
377.0754994138919
 20
448.1174394693519
 42
0.0
 10
377.0754994138919
 20
451.117439469352
 42
0.0
 10
377.5754994138917
 20
451.117439469352
 42
0.0
 97
       13
330
42D5
330
48E4
330
40EB
330
42E0
330
48E0
330
48E1
330
48E2
330
48DE
330
48DD
330
48DF
330
48E5
330
48DC
330
48DB
 92
        7
 72
     0
 73
     1
 93
        4
 10
376.5754994138918
 20
454.1174394693516
 10
375.5754994138917
 20
454.1174394693516
 10
375.5754994138918
 20
434.1174394693502
 10
376.5754994138918
 20
434.11743946935
 97
        4
330
42D5
330
48E3
330
40EB
330
48E4
 92
        7
 72
     0
 73
     1
 93
        4
 10
371.5754994138917
 20
454.1174394693516
 10
370.5754994138918
 20
454.1174394693516
 10
370.5754994138918
 20
434.1174394693502
 10
371.5754994138917
 20
434.1174394693502
 97
        4
330
42D5
330
48EF
330
40EB
330
48EE
 92
        7
 72
     0
 73
     1
 93
       12
 10
370.5754994138918
 20
454.1174394693517
 10
369.5754994138917
 20
454.1174394693517
 10
369.5754994138916
 20
451.1174394693519
 10
370.0754994138919
 20
451.117439469352
 10
370.0754994138918
 20
448.1174394693519
 10
369.5754994138916
 20
448.1174394693519
 10
369.5754994138919
 20
440.1174394693519
 10
370.0754994138918
 20
440.1174394693519
 10
370.0754994138919
 20
437.1174394693521
 10
369.5754994138918
 20
437.1174394693521
 10
369.5754994138919
 20
434.1174394693501
 10
370.5754994138918
 20
434.11743946935
 97
       12
330
42D5
330
48E6
330
48E7
330
48F0
330
48EA
330
48E8
330
48E9
330
48ED
330
48EC
330
48EB
330
40EB
330
48EF
 75
     0
 76
     0
 52
135.0
 41
1.0
 77
     0
 78
     1
 53
135.0
 43
0.0
 44
0.0
 45
-0.7071067811865476
 46
-0.7071067811865475
 79
     0
 47
0.0663131668739094
 98
        4
 10
376.838082948796
 20
452.7454366708978
 10
375.9757212970917
 20
453.0770025852141
 10
371.2658872140792
 20
453.0770025852141
 10
370.2045159662926
 20
453.2759409602297
  0
HATCH
  5
493C
330
1E
100
AcDbEntity
  8
SCHRAFF
100
AcDbHatch
 10
0.0
 20
0.0
 30
0.0
210
0.0
220
0.0
230
1.0
  2
_USER
 70
     0
 71
     1
 91
        5
 92
        7
 72
     1
 73
     1
 93
       12
 10
381.5754994138917
 20
454.1174394693516
 42
0.0
 10
377.5754994138917
 20
454.1174394693515
 42
0.0
 10
377.5754994138916
 20
451.117439469352
 42
0.0
 10
377.0754994138919
 20
451.117439469352
 42
0.0
 10
377.0754994138919
 20
448.1174394693519
 42
0.0
 10
377.5754994138917
 20
448.1174394693519
 42
0.0
 10
377.5754994138919
 20
440.1174394693522
 42
0.0
 10
377.0754994138919
 20
440.1174394693521
 42
0.0
 10
377.0754994138918
 20
437.1174394693521
 42
0.0
 10
377.5754994138918
 20
437.1174394693522
 42
0.0
 10
377.5754994138919
 20
434.172343506574
 42
0.3763797779543542
 10
381.835802223377
 20
439.2047015015375
 42
0.0
 97
       12
330
42D5
330
48DB
330
48DC
330
48E5
330
48DF
330
48DD
330
48DE
330
48E2
330
48E1
330
48E0
330
42E0
330
42DF
 92
        7
 72
     1
 73
     1
 93
       15
 10
370.0754994138919
 20
440.1174394693519
 42
0.0
 10
369.5754994138918
 20
440.1174394693519
 42
0.0
 10
369.5754994138916
 20
448.1174394693519
 42
0.0
 10
370.0754994138919
 20
448.1174394693519
 42
0.0
 10
370.0754994138919
 20
451.1174394693519
 42
0.0
 10
369.5754994138916
 20
451.1174394693519
 42
0.0
 10
369.5754994138917
 20
454.1174394693515
 42
0.0
 10
365.5754994138918
 20
454.1174394693515
 42
0.0
 10
365.4168806651005
 20
445.030177437165
 42
-0.4091108014277236
 10
360.4176421893186
 20
440.1174394693511
 42
0.0
 10
322.9754994138919
 20
440.1174394693511
 42
0.0
 10
322.9754994138919
 20
434.1174394693502
 42
0.0
 10
369.5754994138918
 20
434.11743946935
 42
0.0
 10
369.5754994138918
 20
437.1174394693521
 42
0.0
 10
370.0754994138919
 20
437.1174394693522
 42
0.0
 97
       15
330
48E9
330
48E8
330
48EA
330
48F0
330
48E7
330
48E6
330
42D5
330
42D7
330
42D9
330
40ED
330
42CC
330
40EB
330
48EB
330
48EC
330
48ED
 92
        7
 72
     1
 73
     1
 93
        4
 10
322.9754994138919
 20
440.1174394693511
 42
0.0
 10
317.0754994138917
 20
440.1174394693511
 42
1.0
 10
317.0754994138917
 20
434.1174394693501
 42
0.0
 10
322.9754994138919
 20
434.11743946935
 42
0.0
 97
        4
330
40ED
330
42BF
330
40EB
330
42CC
 92
        7
 72
     1
 73
     1
 93
        4
 10
186.075499413892
 20
440.117439469351
 42
0.0
 10
168.0754994138918
 20
440.1174394693509
 42
0.0
 10
168.0754994138918
 20
434.1174394693503
 42
0.0
 10
186.0754994138921
 20
434.1174394693502
 42
1.0
 97
        4
330
4156
330
4185
330
4153
330
418F
 92
        7
 72
     1
 73
     1
 93
        4
 10
155.0754994138918
 20
440.117439469351
 42
0.0
 10
139.5754994138918
 20
440.117439469351
 42
1.0
 10
139.5754994138918
 20
434.1174394693503
 42
0.0
 10
155.0754994138918
 20
434.1174394693502
 42
0.0
 97
        4
330
4156
330
4174
330
416A
330
4176
 75
     0
 76
     0
 52
45.0
 41
5.0
 77
     0
 78
     1
 53
45.0
 43
0.0
 44
0.0
 45
-3.535533905932737
 46
3.535533905932737
 79
     0
 47
0.3409984845051603
 98
        5
 10
380.0119331665296
 20
448.5612487558758
 10
363.2973356604011
 20
438.6722928186521
 10
318.2702638380411
 20
437.649296297722
 10
181.1423587660856
 20
437.649296297722
 10
151.4654258186583
 20
437.649296297722
  0
LINE
  5
493D
330
1E
100
AcDbEntity
  8
STEMPEL
100
AcDbLine
 10
327.9754994138917
 20
452.1174394693508
 30
0.0
 11
326.9754994138917
 21
453.1174394693508
 31
0.0
  0
LINE
  5
493E
330
1E
100
AcDbEntity
  8
STEMPEL
100
AcDbLine
 10
317.9754994138917
 20
452.1174394693508
 30
0.0
 11
327.9754994138914
 21
452.1174394693508
 31
0.0
  0
LINE
  5
493F
330
1E
100
AcDbEntity
  8
STEMPEL
100
AcDbLine
 10
318.9754994138917
 20
453.1174394693508
 30
0.0
 11
317.9754994138917
 21
452.1174394693508
 31
0.0
  0
LINE
  5
4940
330
1E
100
AcDbEntity
  8
STEMPEL
100
AcDbLine
 10
317.9754994138917
 20
452.1174394693508
 30
0.0
 11
317.9754994138917
 21
450.1174394693511
 31
0.0
  0
LINE
  5
4941
330
1E
100
AcDbEntity
  8
HILF
100
AcDbLine
 10
326.9754994138917
 20
453.1174394693508
 30
0.0
 11
326.9754994138918
 21
450.1174394693513
 31
0.0
  0
LINE
  5
4942
330
1E
100
AcDbEntity
  8
HILF
100
AcDbLine
 10
318.9754994138917
 20
453.1174394693507
 30
0.0
 11
318.9754994138917
 21
450.1174394693513
 31
0.0
  0
LINE
  5
4943
330
1E
100
AcDbEntity
  8
STEMPEL
100
AcDbLine
 10
326.9754994138917
 20
453.1174394693508
 30
0.0
 11
318.9754994138917
 21
453.1174394693508
 31
0.0
  0
LINE
  5
4944
330
1E
100
AcDbEntity
  8
STEMPEL
100
AcDbLine
 10
327.9754994138917
 20
452.1174394693507
 30
0.0
 11
327.9754994138917
 21
450.1174394693511
 31
0.0
  0
ARC
  5
4945
330
1E
100
AcDbEntity
  8
STEMPEL
100
AcDbCircle
 10
322.9754994138917
 20
419.8065503368964
 30
0.0
 40
30.31088913245485
100
AcDbArc
 50
81.78678929826011
 51
98.21321070173988
  0
ARC
  5
4946
330
1E
100
AcDbEntity
  8
STEMPEL
100
AcDbCircle
 10
316.4803088855085
 20
442.4231337615666
 30
0.0
 40
7.694305707784447
100
AcDbArc
 50
73.65710669401345
 51
106.3428933059834
  0
ARC
  5
4947
330
1E
100
AcDbEntity
  8
STEMPEL
100
AcDbCircle
 10
329.470689942275
 20
442.4231337615666
 30
0.0
 40
7.694305707784447
100
AcDbArc
 50
73.65710669401345
 51
106.3428933059834
  0
ARC
  5
4948
330
1E
100
AcDbEntity
  8
HILF
100
AcDbCircle
 10
322.9754994138917
 20
420.21897842169
 30
0.0
 40
22.41111549782308
100
AcDbArc
 50
78.85962783890391
 51
101.1403721610961
  0
ARC
  5
4949
330
1E
100
AcDbEntity
  8
HILF
100
AcDbCircle
 10
329.470689942275
 20
436.8689533198216
 30
0.0
 40
5.761140599691502
100
AcDbArc
 50
67.92594526326054
 51
112.0740547367394
  0
ARC
  5
494A
330
1E
100
AcDbEntity
  8
HILF
100
AcDbCircle
 10
316.4803088855084
 20
436.8689533198216
 30
0.0
 40
5.761140599691502
100
AcDbArc
 50
67.92594526326054
 51
112.0740547367394
  0
POINT
  5
494B
330
1E
100
AcDbEntity
  8
0
100
AcDbPoint
 10
322.9754994138917
 20
440.1174394693511
 30
0.0
210
0.0000000000000001
220
1.0
230
0.0
  0
LINE
  5
494C
330
1E
100
AcDbEntity
  8
STEMPEL
100
AcDbLine
 10
315.4754994138917
 20
450.1174394693511
 30
0.0
 11
330.4754994138917
 21
450.1174394693511
 31
0.0
  0
LINE
  5
494D
330
1E
100
AcDbEntity
  8
STEMPEL
100
AcDbLine
 10
331.6357534517361
 20
442.207795985551
 30
0.0
 11
331.6357534517361
 21
449.8065503368959
 31
0.0
  0
LINE
  5
494E
330
1E
100
AcDbEntity
  8
STEMPEL
100
AcDbLine
 10
327.3056264328139
 20
442.207795985551
 30
0.0
 11
327.3056264328139
 21
449.8065503368959
 31
0.0
  0
LINE
  5
494F
330
1E
100
AcDbEntity
  8
STEMPEL
100
AcDbLine
 10
318.6453723949695
 20
442.207795985551
 30
0.0
 11
318.6453723949695
 21
449.8065503368959
 31
0.0
  0
LINE
  5
4950
330
1E
100
AcDbEntity
  8
STEMPEL
100
AcDbLine
 10
333.382014521386
 20
441.5722089349406
 30
0.0
 11
312.5689843063975
 21
441.5722089349406
 31
0.0
  0
LINE
  5
4951
330
1E
100
AcDbEntity
  8
STEMPEL
100
AcDbLine
 10
333.1254994138916
 20
440.1174394693511
 30
0.0
 11
312.8254994138917
 21
440.1174394693511
 31
0.0
  0
LINE
  5
4952
330
1E
100
AcDbEntity
  8
STEMPEL
100
AcDbLine
 10
314.3152453760474
 20
442.207795985551
 30
0.0
 11
314.3152453760474
 21
449.8065503368959
 31
0.0
  0
LINE
  5
4953
330
1E
100
AcDbEntity
  8
STEMPEL
100
AcDbLine
 10
315.4754994138917
 20
450.1174394693511
 30
0.0
 11
314.3152453760474
 21
449.8065503368959
 31
0.0
  0
LINE
  5
4954
330
1E
100
AcDbEntity
  8
STEMPEL
100
AcDbLine
 10
331.6357534517361
 20
449.8065503368959
 30
0.0
 11
330.4754994138917
 21
450.1174394693511
 31
0.0
  0
LINE
  5
4955
330
1E
100
AcDbEntity
  8
STEMPEL
100
AcDbLine
 10
333.382014521386
 20
441.5722089349406
 30
0.0
 11
331.6357534517361
 21
442.207795985551
 31
0.0
  0
LINE
  5
4956
330
1E
100
AcDbEntity
  8
STEMPEL
100
AcDbLine
 10
314.3152453760474
 20
442.207795985551
 30
0.0
 11
312.5689843063975
 21
441.5722089349406
 31
0.0
  0
ARC
  5
4957
330
1E
100
AcDbEntity
  8
STEMPEL
100
AcDbCircle
 10
312.8254994138917
 20
440.8674394693512
 30
0.0
 40
0.7500000000000013
100
AcDbArc
 50
110.0000000000006
 51
269.9999991462263
  0
ARC
  5
4958
330
1E
100
AcDbEntity
  8
STEMPEL
100
AcDbCircle
 10
333.1254994138916
 20
440.8674394693512
 30
0.0
 40
0.750000000000001
100
AcDbArc
 50
269.9999991462263
 51
69.99999999999935
  0
LINE
  5
4959
330
1E
100
AcDbEntity
  8
STEMPEL
100
AcDbLine
 10
210.5754994138916
 20
453.1174394693504
 30
0.0
 11
202.5754994138916
 21
453.1174394693504
 31
0.0
  0
LINE
  5
495A
330
1E
100
AcDbEntity
  8
STEMPEL
100
AcDbLine
 10
201.5754994138916
 20
452.1174394693504
 30
0.0
 11
211.5754994138914
 21
452.1174394693504
 31
0.0
  0
LINE
  5
495B
330
1E
100
AcDbEntity
  8
STEMPEL
100
AcDbLine
 10
201.5754994138916
 20
452.1174394693504
 30
0.0
 11
201.5754994138916
 21
450.1174394693511
 31
0.0
  0
LINE
  5
495C
330
1E
100
AcDbEntity
  8
HILF
100
AcDbLine
 10
202.5754994138916
 20
453.1174394693503
 30
0.0
 11
202.5754994138916
 21
450.117439469351
 31
0.0
  0
LINE
  5
495D
330
1E
100
AcDbEntity
  8
STEMPEL
100
AcDbLine
 10
202.5754994138916
 20
453.1174394693504
 30
0.0
 11
201.5754994138916
 21
452.1174394693504
 31
0.0
  0
LINE
  5
495E
330
1E
100
AcDbEntity
  8
HILF
100
AcDbLine
 10
210.5754994138916
 20
453.1174394693504
 30
0.0
 11
210.5754994138916
 21
450.1174394693511
 31
0.0
  0
LINE
  5
495F
330
1E
100
AcDbEntity
  8
STEMPEL
100
AcDbLine
 10
211.5754994138916
 20
452.1174394693502
 30
0.0
 11
211.5754994138916
 21
450.117439469351
 31
0.0
  0
LINE
  5
4960
330
1E
100
AcDbEntity
  8
STEMPEL
100
AcDbLine
 10
211.5754994138916
 20
452.1174394693504
 30
0.0
 11
210.5754994138916
 21
453.1174394693504
 31
0.0
  0
ARC
  5
4961
330
1E
100
AcDbEntity
  8
STEMPEL
100
AcDbCircle
 10
206.5754994138916
 20
419.8065503368962
 30
0.0
 40
30.31088913245485
100
AcDbArc
 50
81.78678929826174
 51
98.21321070173826
  0
ARC
  5
4962
330
1E
100
AcDbEntity
  8
STEMPEL
100
AcDbCircle
 10
200.0803088855083
 20
442.4231337615666
 30
0.0
 40
7.694305707784447
100
AcDbArc
 50
73.65710669401501
 51
106.342893305985
  0
ARC
  5
4963
330
1E
100
AcDbEntity
  8
STEMPEL
100
AcDbCircle
 10
213.0706899422749
 20
442.4231337615666
 30
0.0
 40
7.694305707784447
100
AcDbArc
 50
74.89685203626369
 51
106.342893305985
  0
ARC
  5
4964
330
1E
100
AcDbEntity
  8
HILF
100
AcDbCircle
 10
206.5754994138916
 20
420.2189784216897
 30
0.0
 40
22.41111549782308
100
AcDbArc
 50
78.85962783890552
 51
101.1403721610945
  0
ARC
  5
4965
330
1E
100
AcDbEntity
  8
HILF
100
AcDbCircle
 10
213.0706899422749
 20
436.8689533198214
 30
0.0
 40
5.761140599691502
100
AcDbArc
 50
69.63568072596782
 51
112.0740547367379
  0
ARC
  5
4966
330
1E
100
AcDbEntity
  8
HILF
100
AcDbCircle
 10
200.0803088855083
 20
436.8689533198214
 30
0.0
 40
5.761140599691502
100
AcDbArc
 50
67.92594526326206
 51
112.0740547367379
  0
POINT
  5
4967
330
1E
100
AcDbEntity
  8
0
100
AcDbPoint
 10
206.5754994138916
 20
440.1174394693511
 30
0.0
210
0.0000000000000001
220
1.0
230
0.0
  0
LINE
  5
4968
330
1E
100
AcDbEntity
  8
STEMPEL
100
AcDbLine
 10
199.0754994138916
 20
450.1174394693511
 30
0.0
 11
214.0754994138916
 21
450.1174394693511
 31
0.0
  0
LINE
  5
496A
330
1E
100
AcDbEntity
  8
STEMPEL
100
AcDbLine
 10
210.9056264328138
 20
442.2077959855509
 30
0.0
 11
210.9056264328138
 21
449.8065503368956
 31
0.0
  0
LINE
  5
496B
330
1E
100
AcDbEntity
  8
STEMPEL
100
AcDbLine
 10
202.2453723949694
 20
442.2077959855509
 30
0.0
 11
202.2453723949694
 21
449.8065503368956
 31
0.0
  0
LINE
  5
496C
330
1E
100
AcDbEntity
  8
STEMPEL
100
AcDbLine
 10
215.0754994138932
 20
441.5722089349404
 30
0.0
 11
196.1689843063973
 21
441.5722089349405
 31
0.0
  0
LINE
  5
496D
330
1E
100
AcDbEntity
  8
STEMPEL
100
AcDbLine
 10
215.0754994138932
 20
440.117439469351
 30
0.0
 11
196.4254994138916
 21
440.1174394693511
 31
0.0
  0
LINE
  5
496E
330
1E
100
AcDbEntity
  8
STEMPEL
100
AcDbLine
 10
197.9152453760472
 20
442.2077959855509
 30
0.0
 11
197.9152453760472
 21
449.8065503368956
 31
0.0
  0
LINE
  5
496F
330
1E
100
AcDbEntity
  8
STEMPEL
100
AcDbLine
 10
199.0754994138916
 20
450.1174394693511
 30
0.0
 11
197.9152453760472
 21
449.8065503368956
 31
0.0
  0
LINE
  5
4970
330
1E
100
AcDbEntity
  8
STEMPEL
100
AcDbLine
 10
215.0754994138933
 20
449.8494902769194
 30
0.0
 11
214.0754994138916
 21
450.1174394693511
 31
0.0
  0
LINE
  5
4972
330
1E
100
AcDbEntity
  8
STEMPEL
100
AcDbLine
 10
197.9152453760472
 20
442.2077959855509
 30
0.0
 11
196.1689843063973
 21
441.5722089349405
 31
0.0
  0
ARC
  5
4973
330
1E
100
AcDbEntity
  8
STEMPEL
100
AcDbCircle
 10
196.4254994138916
 20
440.8674394693512
 30
0.0
 40
0.7500000000000013
100
AcDbArc
 50
110.0000000000006
 51
269.9999991462263
  0
LINE
  5
4975
330
1E
100
AcDbEntity
  8
STEMPEL
100
AcDbLine
 10
166.5754994138918
 20
452.1174394693502
 30
0.0
 11
166.5754994138918
 21
450.1174394693509
 31
0.0
  0
LINE
  5
4976
330
1E
100
AcDbEntity
  8
HILF
100
AcDbLine
 10
165.5754994138918
 20
453.1174394693504
 30
0.0
 11
165.5754994138918
 21
450.1174394693509
 31
0.0
  0
LINE
  5
4977
330
1E
100
AcDbEntity
  8
STEMPEL
100
AcDbLine
 10
156.5754994138918
 20
452.1174394693504
 30
0.0
 11
156.5754994138918
 21
450.1174394693509
 31
0.0
  0
LINE
  5
4978
330
1E
100
AcDbEntity
  8
HILF
100
AcDbLine
 10
157.5754994138918
 20
453.1174394693503
 30
0.0
 11
157.5754994138918
 21
450.1174394693509
 31
0.0
  0
LINE
  5
4979
330
1E
100
AcDbEntity
  8
STEMPEL
100
AcDbLine
 10
156.5754994138918
 20
452.1174394693504
 30
0.0
 11
166.5754994138916
 21
452.1174394693504
 31
0.0
  0
LINE
  5
497A
330
1E
100
AcDbEntity
  8
STEMPEL
100
AcDbLine
 10
165.5754994138918
 20
453.1174394693504
 30
0.0
 11
157.5754994138918
 21
453.1174394693504
 31
0.0
  0
LINE
  5
497B
330
1E
100
AcDbEntity
  8
STEMPEL
100
AcDbLine
 10
157.5754994138918
 20
453.1174394693504
 30
0.0
 11
156.5754994138918
 21
452.1174394693504
 31
0.0
  0
LINE
  5
497C
330
1E
100
AcDbEntity
  8
STEMPEL
100
AcDbLine
 10
166.5754994138918
 20
452.1174394693504
 30
0.0
 11
165.5754994138918
 21
453.1174394693504
 31
0.0
  0
ARC
  5
497D
330
1E
100
AcDbEntity
  8
STEMPEL
100
AcDbCircle
 10
161.5754994138918
 20
419.8065503368961
 30
0.0
 40
30.31088913245485
100
AcDbArc
 50
81.78678929826174
 51
98.21321070173826
  0
ARC
  5
497E
330
1E
100
AcDbEntity
  8
STEMPEL
100
AcDbCircle
 10
155.0803088855085
 20
442.4231337615665
 30
0.0
 40
7.694305707784447
100
AcDbArc
 50
73.65710669401501
 51
106.342893305985
  0
ARC
  5
497F
330
1E
100
AcDbEntity
  8
STEMPEL
100
AcDbCircle
 10
168.0706899422751
 20
442.4231337615665
 30
0.0
 40
7.694305707784447
100
AcDbArc
 50
73.65710669401501
 51
106.342893305985
  0
ARC
  5
4980
330
1E
100
AcDbEntity
  8
HILF
100
AcDbCircle
 10
161.5754994138918
 20
420.2189784216897
 30
0.0
 40
22.41111549782308
100
AcDbArc
 50
78.85962783890552
 51
101.1403721610945
  0
ARC
  5
4981
330
1E
100
AcDbEntity
  8
HILF
100
AcDbCircle
 10
168.0706899422751
 20
436.8689533198214
 30
0.0
 40
5.761140599691502
100
AcDbArc
 50
67.92594526326206
 51
112.0740547367379
  0
ARC
  5
4982
330
1E
100
AcDbEntity
  8
HILF
100
AcDbCircle
 10
155.0803088855085
 20
436.8689533198214
 30
0.0
 40
5.761140599691502
100
AcDbArc
 50
67.92594526326206
 51
112.0740547367379
  0
POINT
  5
4983
330
1E
100
AcDbEntity
  8
0
100
AcDbPoint
 10
161.5754994138918
 20
440.1174394693509
 30
0.0
210
0.0000000000000001
220
1.0
230
0.0
  0
LINE
  5
4984
330
1E
100
AcDbEntity
  8
STEMPEL
100
AcDbLine
 10
154.0754994138918
 20
450.1174394693509
 30
0.0
 11
169.0754994138918
 21
450.1174394693509
 31
0.0
  0
LINE
  5
4985
330
1E
100
AcDbEntity
  8
STEMPEL
100
AcDbLine
 10
170.2357534517362
 20
442.2077959855508
 30
0.0
 11
170.2357534517362
 21
449.8065503368956
 31
0.0
  0
LINE
  5
4986
330
1E
100
AcDbEntity
  8
STEMPEL
100
AcDbLine
 10
165.905626432814
 20
442.2077959855508
 30
0.0
 11
165.905626432814
 21
449.8065503368956
 31
0.0
  0
LINE
  5
4987
330
1E
100
AcDbEntity
  8
STEMPEL
100
AcDbLine
 10
157.2453723949696
 20
442.2077959855508
 30
0.0
 11
157.2453723949696
 21
449.8065503368956
 31
0.0
  0
LINE
  5
4988
330
1E
100
AcDbEntity
  8
STEMPEL
100
AcDbLine
 10
171.9820145213861
 20
441.5722089349404
 30
0.0
 11
151.1689843063976
 21
441.5722089349404
 31
0.0
  0
LINE
  5
4989
330
1E
100
AcDbEntity
  8
STEMPEL
100
AcDbLine
 10
171.7254994138918
 20
440.1174394693509
 30
0.0
 11
151.4254994138918
 21
440.1174394693509
 31
0.0
  0
LINE
  5
498A
330
1E
100
AcDbEntity
  8
STEMPEL
100
AcDbLine
 10
152.9152453760474
 20
442.2077959855508
 30
0.0
 11
152.9152453760474
 21
449.8065503368956
 31
0.0
  0
LINE
  5
498B
330
1E
100
AcDbEntity
  8
STEMPEL
100
AcDbLine
 10
154.0754994138918
 20
450.1174394693509
 30
0.0
 11
152.9152453760474
 21
449.8065503368956
 31
0.0
  0
LINE
  5
498C
330
1E
100
AcDbEntity
  8
STEMPEL
100
AcDbLine
 10
170.2357534517362
 20
449.8065503368956
 30
0.0
 11
169.0754994138918
 21
450.1174394693509
 31
0.0
  0
LINE
  5
498D
330
1E
100
AcDbEntity
  8
STEMPEL
100
AcDbLine
 10
171.9820145213861
 20
441.5722089349404
 30
0.0
 11
170.2357534517362
 21
442.2077959855508
 31
0.0
  0
LINE
  5
498E
330
1E
100
AcDbEntity
  8
STEMPEL
100
AcDbLine
 10
152.9152453760474
 20
442.2077959855508
 30
0.0
 11
151.1689843063976
 21
441.5722089349404
 31
0.0
  0
ARC
  5
498F
330
1E
100
AcDbEntity
  8
STEMPEL
100
AcDbCircle
 10
151.4254994138918
 20
440.8674394693509
 30
0.0
 40
0.7500000000000013
100
AcDbArc
 50
110.0000000000006
 51
269.9999991462263
  0
ARC
  5
4990
330
1E
100
AcDbEntity
  8
STEMPEL
100
AcDbCircle
 10
171.7254994138918
 20
440.8674394693509
 30
0.0
 40
0.750000000000001
100
AcDbArc
 50
269.9999991462263
 51
69.99999999999935
  0
ARC
  5
49DA
102
{ACAD_REACTORS
330
4BA9
102
}
330
1E
100
AcDbEntity
  8
STEMPEL
100
AcDbCircle
 10
189.3938530779948
 20
269.1174394693498
 30
0.0
 40
3.0
100
AcDbArc
 50
183.5763343749981
 51
270.0
  0
ARC
  5
49DB
102
{ACAD_REACTORS
330
4BA9
102
}
330
1E
100
AcDbEntity
  8
STEMPEL
100
AcDbCircle
 10
313.7571457497892
 20
269.1174394693482
 30
0.0
 40
3.0
100
AcDbArc
 50
270.0
 51
356.4236656250018
  0
LINE
  5
49DD
102
{ACAD_REACTORS
330
4BA9
102
}
330
1E
100
AcDbEntity
  8
STEMPEL
100
AcDbLine
 10
209.0754994138922
 20
268.1174394693496
 30
0.0
 11
209.0754994138922
 21
266.1174394693496
 31
0.0
  0
LINE
  5
49DF
102
{ACAD_REACTORS
330
4BA9
102
}
330
1E
100
AcDbEntity
  8
STEMPEL
100
AcDbLine
 10
204.0754994138918
 20
356.1174394693499
 30
0.0
 11
198.0754994138919
 21
362.1174394693497
 31
0.0
  0
LINE
  5
49E0
102
{ACAD_REACTORS
330
4BA9
102
}
330
1E
100
AcDbEntity
  8
STEMPEL
100
AcDbLine
 10
204.0754994138918
 20
356.1174394693499
 30
0.0
 11
204.0754994138922
 21
290.117439469348
 31
0.0
  0
LINE
  5
49E1
102
{ACAD_REACTORS
330
4BA9
102
}
330
1E
100
AcDbEntity
  8
STEMPEL
100
AcDbLine
 10
215.0754994138936
 20
275.1574394693476
 30
0.0
 11
204.0754994138922
 21
290.117439469348
 31
0.0
  0
LINE
  5
49E2
102
{ACAD_REACTORS
330
4BA9
102
}
330
1E
100
AcDbEntity
  8
STEMPEL
100
AcDbLine
 10
299.075499413892
 20
356.1174394693501
 30
0.0
 11
305.0754994138918
 21
362.1174394693499
 31
0.0
  0
LINE
  5
49E3
330
1E
100
AcDbEntity
  8
STEMPEL
100
AcDbLine
 10
299.0754994138921
 20
356.1174394693501
 30
0.0
 11
298.1766906296014
 21
356.1174394693501
 31
0.0
  0
LINE
  5
49E4
330
1E
100
AcDbEntity
  8
STEMPEL
100
AcDbLine
 10
299.075499413892
 20
290.1174394693482
 30
0.0
 11
298.2754994138925
 21
290.1174394693482
 31
0.0
  0
LINE
  5
49E5
102
{ACAD_REACTORS
330
4BA9
102
}
330
1E
100
AcDbEntity
  8
STEMPEL
100
AcDbLine
 10
298.2754994138925
 20
289.0294394693489
 30
0.0
 11
299.0754994138921
 21
290.1174394693482
 31
0.0
  0
LINE
  5
49E6
102
{ACAD_REACTORS
330
4BA9
102
}
330
1E
100
AcDbEntity
  8
STEMPEL
100
AcDbLine
 10
299.075499413892
 20
356.1174394693501
 30
0.0
 11
299.0754994138921
 21
290.1174394693482
 31
0.0
  0
DIMENSION
  5
49E7
330
1E
100
AcDbEntity
  8
BEM
100
AcDbDimension
  2
*D3
 10
326.5754994138923
 20
463.4575785683195
 30
0.0
 11
251.5754994138922
 21
469.9575785683196
 31
0.0
 70
    32
  1
%%c<>
 71
     5
 42
150.0000000000002
  3
Standard
100
AcDbAlignedDimension
 13
176.575499413892
 23
426.1174394693498
 33
0.0
 14
326.5754994138923
 24
426.1174394693502
 34
0.0
100
AcDbRotatedDimension
1001
ACAD
1000
DSTYLE
1002
{
1070
    40
1040
2.0
1070
    41
1040
3.5
1070
    42
1040
1.0
1070
    43
1040
7.0
1070
    44
1040
1.0
1070
    73
1070
     0
1070
    74
1070
     0
1070
    77
1070
     1
1070
    78
1070
     8
1070
    79
1070
     2
1070
   140
1040
3.5
1070
   141
1040
1.5
1070
   146
1040
0.5
1070
   147
1040
1.5
1070
   172
1070
     1
1070
   178
1070
     1
1070
   179
1070
     2
1070
   271
1070
     2
1070
   272
1070
     2
1070
   284
1070
     8
1070
   285
1070
     8
1070
   286
1070
     8
1070
   340
1005
24
1002
}
  0
LINE
  5
49E8
102
{ACAD_REACTORS
330
4BA9
102
}
330
1E
100
AcDbEntity
  8
STEMPEL
100
AcDbLine
 10
313.7571457497891
 20
266.1174394693482
 30
0.0
 11
298.2754994138925
 21
266.1174394693484
 31
0.0
  0
DIMENSION
  5
49E9
330
1E
100
AcDbEntity
  8
BEM
100
AcDbDimension
  2
*D4
 10
316.5730440484136
 20
248.5280436263643
 30
0.0
 11
251.5754994138919
 21
255.0280436263643
 31
0.0
 70
    32
  1
%%c<>
 71
     5
 42
129.9950892690433
  3
Standard
100
AcDbAlignedDimension
 13
186.5779547793702
 23
266.1174394693499
 33
0.0
 14
316.5730440484136
 24
266.1174394693481
 34
0.0
100
AcDbRotatedDimension
1001
ACAD
1000
DSTYLE
1002
{
1070
    40
1040
2.0
1070
    41
1040
3.5
1070
    42
1040
1.0
1070
    43
1040
7.0
1070
    44
1040
1.0
1070
    73
1070
     0
1070
    74
1070
     0
1070
    77
1070
     1
1070
    78
1070
     8
1070
    79
1070
     2
1070
   140
1040
3.5
1070
   141
1040
1.5
1070
   146
1040
0.5
1070
   147
1040
1.5
1070
   172
1070
     1
1070
   178
1070
     1
1070
   179
1070
     2
1070
   271
1070
     2
1070
   272
1070
     2
1070
   284
1070
     8
1070
   285
1070
     8
1070
   286
1070
     8
1070
   340
1005
24
1002
}
  0
LINE
  5
49EA
330
1E
100
AcDbEntity
  8
STEMPEL
100
AcDbLine
 10
305.0754994138923
 20
416.11743946935
 30
0.0
 11
298.2922087355005
 21
416.11743946935
 31
0.0
  0
LINE
  5
49EB
330
1E
100
AcDbEntity
  8
STEMPEL
100
AcDbLine
 10
305.0754994138916
 20
362.1174394693499
 30
0.0
 11
297.2774877911096
 21
362.1174394693499
 31
0.0
  0
LINE
  5
49ED
102
{ACAD_REACTORS
330
4BA9
102
}
330
1E
100
AcDbEntity
  8
STEMPEL
100
AcDbLine
 10
176.575499413892
 20
426.1174394693498
 30
0.0
 11
186.3996953425461
 21
268.9303046108843
 31
0.0
  0
DIMENSION
  5
49EE
330
1E
100
AcDbEntity
  8
BEM
100
AcDbDimension
  2
*D5
 10
102.710030291551
 20
266.1174394693499
 30
0.0
 11
102.710030291551
 21
346.1174394693499
 31
0.0
 70
   160
 71
     5
 42
160.0
  3
Standard
100
AcDbAlignedDimension
 13
176.575499413892
 23
426.1174394693498
 33
0.0
 14
186.5779547793702
 24
266.1174394693499
 34
0.0
 50
90.0
100
AcDbRotatedDimension
1001
ACAD
1000
DSTYLE
1002
{
1070
    40
1040
2.0
1070
    41
1040
3.5
1070
    42
1040
1.0
1070
    43
1040
7.0
1070
    44
1040
1.0
1070
    73
1070
     0
1070
    74
1070
     0
1070
    77
1070
     1
1070
    78
1070
     8
1070
    79
1070
     2
1070
   140
1040
3.5
1070
   141
1040
1.5
1070
   146
1040
0.5
1070
   147
1040
1.5
1070
   172
1070
     1
1070
   178
1070
     1
1070
   179
1070
     2
1070
   271
1070
     2
1070
   272
1070
     2
1070
   284
1070
     8
1070
   285
1070
     8
1070
   286
1070
     8
1070
   340
1005
24
1002
}
  0
LINE
  5
49F0
102
{ACAD_REACTORS
330
4BA9
102
}
330
1E
100
AcDbEntity
  8
STEMPEL
100
AcDbLine
 10
198.0754994138922
 20
362.1174394693497
 30
0.0
 11
198.075499413892
 21
416.11743946935
 31
0.0
  0
LINE
  5
49F1
102
{ACAD_REACTORS
330
4BA9
102
}
330
1E
100
AcDbEntity
  8
STEMPEL
100
AcDbLine
 10
186.575499413892
 20
426.1174394693499
 30
0.0
 11
198.075499413892
 21
416.11743946935
 31
0.0
  0
LINE
  5
49F2
102
{ACAD_REACTORS
330
4BA9
102
}
330
1E
100
AcDbEntity
  8
STEMPEL
100
AcDbLine
 10
326.575499413892
 20
426.1174394693498
 30
0.0
 11
316.7513034852378
 21
268.9303046108827
 31
0.0
  0
LINE
  5
49F4
102
{ACAD_REACTORS
330
4BA9
102
}
330
1E
100
AcDbEntity
  8
STEMPEL
100
AcDbLine
 10
316.575499413892
 20
426.1174394693499
 30
0.0
 11
305.075499413892
 21
416.11743946935
 31
0.0
  0
LINE
  5
49F5
102
{ACAD_REACTORS
330
4BA9
102
}
330
1E
100
AcDbEntity
  8
STEMPEL
100
AcDbLine
 10
305.0754994138918
 20
362.1174394693497
 30
0.0
 11
305.075499413892
 21
416.11743946935
 31
0.0
  0
TEXT
  5
4A47
330
1E
100
AcDbEntity
  8
TEXT
 62
     1
100
AcDbText
 10
420.3933590363799
 20
318.9020266865453
 30
0.0
 40
7.0
  1
EDV-Art.Nr. 19842.070X
 41
0.8
100
AcDbText
  0
LINE
  5
4A48
330
1E
100
AcDbEntity
  8
TEXT
 62
     2
100
AcDbLine
 10
525.7365677327586
 20
328.1945234943444
 30
0.0
 11
419.7980031576255
 21
328.1945234943444
 31
0.0
  0
TEXT
  5
4A49
330
1E
100
AcDbEntity
  8
TEXT
 62
     1
100
AcDbText
 10
420.3933590363799
 20
331.6783576552548
 30
0.0
 40
7.0
  1
Wärmedämmung
 41
0.8
100
AcDbText
  0
LINE
  5
4A4A
330
1E
100
AcDbEntity
  8
TEXT
 62
     2
100
AcDbLine
 10
419.7980031576255
 20
328.1945234943444
 30
0.0
 11
315.2462687608425
 21
344.5908027802889
 31
0.0
  0
LINE
  5
4A4B
330
1E
100
AcDbEntity
  8
STEMPEL
100
AcDbLine
 10
204.8587900922836
 20
416.11743946935
 30
0.0
 11
198.075499413892
 21
416.11743946935
 31
0.0
  0
LINE
  5
4A4C
330
1E
100
AcDbEntity
  8
STEMPEL
100
AcDbLine
 10
212.2754994138928
 20
362.1174394693497
 30
0.0
 11
198.0754994138922
 21
362.1174394693497
 31
0.0
  0
LINE
  5
4A4D
330
1E
100
AcDbEntity
  8
STEMPEL
100
AcDbLine
 10
212.275499413893
 20
356.11743946935
 30
0.0
 11
204.0754994138918
 21
356.11743946935
 31
0.0
  0
LINE
  5
4A4E
330
1E
100
AcDbEntity
  8
STEMPEL
100
AcDbLine
 10
215.0754994138938
 20
290.1174394693495
 30
0.0
 11
204.0754994138922
 21
290.1174394693498
 31
0.0
  0
LINE
  5
4A4F
102
{ACAD_REACTORS
330
4BA9
102
}
330
1E
100
AcDbEntity
  8
STEMPEL
100
AcDbLine
 10
215.0754994138935
 20
268.1174394693495
 30
0.0
 11
209.0754994138922
 21
268.1174394693496
 31
0.0
  0
LINE
  5
4A50
102
{ACAD_REACTORS
330
4BA9
102
}
330
1E
100
AcDbEntity
  8
STEMPEL
100
AcDbLine
 10
215.0754994138935
 20
266.1174394693495
 30
0.0
 11
189.3938530779947
 21
266.1174394693499
 31
0.0
  0
LINE
  5
4AA9
330
1E
100
AcDbEntity
  8
MITTEL
100
AcDbLine
 10
251.5754994138919
 20
245.000281657253
 30
0.0
 11
251.5754994138919
 21
163.1174394693503
 31
0.0
  0
LINE
  5
4AAA
330
1E
100
AcDbEntity
  8
MITTEL
100
AcDbLine
 10
251.5754994138919
 20
459.9823738422698
 30
0.0
 11
251.5754994138919
 21
263.3110599346363
 31
0.0
  0
TEXT
  5
4AAB
330
1E
100
AcDbEntity
  8
TEXT
100
AcDbText
 10
532.496655824147
 20
655.1296391125315
 30
0.0
 40
5.0
  1
Heizung, zweiteilig
 50
90.0
 41
0.7
  7
GREEKS
100
AcDbText
  0
ARC
  5
4B21
102
{ACAD_REACTORS
330
4B42
330
4B43
102
}
330
1E
100
AcDbEntity
  8
STEMPEL
100
AcDbCircle
 10
292.8754994138921
 20
385.6174394693509
 30
0.0
 40
1.0
100
AcDbArc
 50
180.0
 51
270.0
  0
LINE
  5
4B22
102
{ACAD_REACTORS
330
4B42
330
4B43
102
}
330
1E
100
AcDbEntity
  8
STEMPEL
100
AcDbLine
 10
293.875499413892
 20
384.6174394693509
 30
0.0
 11
292.8754994138921
 21
384.6174394693509
 31
0.0
  0
ARC
  5
4B23
102
{ACAD_REACTORS
330
4B42
330
4B43
102
}
330
1E
100
AcDbEntity
  8
STEMPEL
100
AcDbCircle
 10
293.875499413892
 20
385.6174394693509
 30
0.0
 40
1.0
100
AcDbArc
 50
270.0
 51
0.0
  0
LINE
  5
4B24
102
{ACAD_REACTORS
330
4B42
330
4B43
102
}
330
1E
100
AcDbEntity
  8
STEMPEL
100
AcDbLine
 10
293.875499413892
 20
392.617439469351
 30
0.0
 11
292.8754994138921
 21
392.6174394693509
 31
0.0
  0
LINE
  5
4B25
102
{ACAD_REACTORS
330
4B42
330
4B43
102
}
330
1E
100
AcDbEntity
  8
STEMPEL
  6
Continuous
100
AcDbLine
 10
291.875499413892
 20
391.6174394693509
 30
0.0
 11
291.875499413892
 21
385.6174394693509
 31
0.0
  0
ARC
  5
4B26
102
{ACAD_REACTORS
330
4B42
330
4B43
102
}
330
1E
100
AcDbEntity
  8
STEMPEL
100
AcDbCircle
 10
292.8754994138921
 20
391.6174394693509
 30
0.0
 40
1.0
100
AcDbArc
 50
90.0
 51
180.0
  0
ARC
  5
4B27
102
{ACAD_REACTORS
330
4B42
330
4B43
102
}
330
1E
100
AcDbEntity
  8
STEMPEL
100
AcDbCircle
 10
293.875499413892
 20
391.617439469351
 30
0.0
 40
1.0
100
AcDbArc
 50
0.0
 51
90.0
  0
LINE
  5
4B28
102
{ACAD_REACTORS
330
4B42
330
4B43
102
}
330
1E
100
AcDbEntity
  8
STEMPEL
  6
Continuous
100
AcDbLine
 10
294.8754994138921
 20
391.617439469351
 30
0.0
 11
294.8754994138921
 21
385.6174394693509
 31
0.0
  0
ARC
  5
4B29
102
{ACAD_REACTORS
330
4B42
102
}
330
1E
100
AcDbEntity
  8
STEMPEL
100
AcDbCircle
 10
292.8754994138921
 20
385.6174394693509
 30
0.0
 40
2.0
100
AcDbArc
 50
180.0
 51
270.0
  0
ARC
  5
4B2A
102
{ACAD_REACTORS
330
4B42
102
}
330
1E
100
AcDbEntity
  8
STEMPEL
100
AcDbCircle
 10
292.8754994138921
 20
391.6174394693509
 30
0.0
 40
2.0
100
AcDbArc
 50
90.0
 51
180.0
  0
LINE
  5
4B2B
102
{ACAD_REACTORS
330
4B42
102
}
330
1E
100
AcDbEntity
  8
STEMPEL
  6
Continuous
100
AcDbLine
 10
290.875499413892
 20
391.6174394693509
 30
0.0
 11
290.875499413892
 21
385.6174394693509
 31
0.0
  0
ARC
  5
4B2C
102
{ACAD_REACTORS
330
4B42
102
}
330
1E
100
AcDbEntity
  8
STEMPEL
100
AcDbCircle
 10
293.875499413892
 20
385.6174394693509
 30
0.0
 40
2.0
100
AcDbArc
 50
270.0
 51
0.0
  0
ARC
  5
4B2D
102
{ACAD_REACTORS
330
4B42
102
}
330
1E
100
AcDbEntity
  8
STEMPEL
100
AcDbCircle
 10
293.875499413892
 20
391.617439469351
 30
0.0
 40
2.0
100
AcDbArc
 50
0.0
 51
90.0
  0
LINE
  5
4B2E
102
{ACAD_REACTORS
330
4B42
102
}
330
1E
100
AcDbEntity
  8
STEMPEL
100
AcDbLine
 10
293.875499413892
 20
393.617439469351
 30
0.0
 11
292.8754994138921
 21
393.6174394693509
 31
0.0
  0
LINE
  5
4B2F
102
{ACAD_REACTORS
330
4B42
102
}
330
1E
100
AcDbEntity
  8
STEMPEL
100
AcDbLine
 10
293.875499413892
 20
383.6174394693509
 30
0.0
 11
292.8754994138921
 21
383.6174394693509
 31
0.0
  0
LINE
  5
4B30
102
{ACAD_REACTORS
330
4B42
102
}
330
1E
100
AcDbEntity
  8
STEMPEL
  6
Continuous
100
AcDbLine
 10
295.875499413892
 20
391.617439469351
 30
0.0
 11
295.875499413892
 21
385.6174394693509
 31
0.0
  0
LINE
  5
4B31
102
{ACAD_REACTORS
330
4B42
102
}
330
1E
100
AcDbEntity
  8
STEMPEL
  6
Continuous
100
AcDbLine
 10
295.875499413892
 20
381.617439469351
 30
0.0
 11
295.875499413892
 21
375.6174394693509
 31
0.0
  0
LINE
  5
4B32
330
1E
100
AcDbEntity
  8
STEMPEL
100
AcDbLine
 10
293.875499413892
 20
373.6174394693509
 30
0.0
 11
292.8754994138921
 21
373.6174394693509
 31
0.0
  0
ARC
  5
4B33
102
{ACAD_REACTORS
330
4B42
102
}
330
1E
100
AcDbEntity
  8
STEMPEL
100
AcDbCircle
 10
293.875499413892
 20
381.617439469351
 30
0.0
 40
2.0
100
AcDbArc
 50
0.0
 51
90.0
  0
ARC
  5
4B34
102
{ACAD_REACTORS
330
4B42
102
}
330
1E
100
AcDbEntity
  8
STEMPEL
100
AcDbCircle
 10
293.875499413892
 20
375.6174394693509
 30
0.0
 40
2.0
100
AcDbArc
 50
270.0
 51
0.0
  0
ARC
  5
4B35
102
{ACAD_REACTORS
330
4B42
102
}
330
1E
100
AcDbEntity
  8
STEMPEL
100
AcDbCircle
 10
292.8754994138921
 20
381.6174394693509
 30
0.0
 40
2.0
100
AcDbArc
 50
90.0
 51
180.0
  0
ARC
  5
4B36
102
{ACAD_REACTORS
330
4B42
102
}
330
1E
100
AcDbEntity
  8
STEMPEL
100
AcDbCircle
 10
292.8754994138921
 20
375.6174394693509
 30
0.0
 40
2.0
100
AcDbArc
 50
180.0
 51
270.0
  0
LINE
  5
4B37
102
{ACAD_REACTORS
330
4B42
330
4B43
102
}
330
1E
100
AcDbEntity
  8
STEMPEL
  6
Continuous
100
AcDbLine
 10
294.8754994138921
 20
381.617439469351
 30
0.0
 11
294.8754994138921
 21
375.6174394693509
 31
0.0
  0
ARC
  5
4B38
102
{ACAD_REACTORS
330
4B42
330
4B43
102
}
330
1E
100
AcDbEntity
  8
STEMPEL
100
AcDbCircle
 10
293.875499413892
 20
381.617439469351
 30
0.0
 40
1.0
100
AcDbArc
 50
0.0
 51
90.0
  0
ARC
  5
4B39
102
{ACAD_REACTORS
330
4B42
330
4B43
102
}
330
1E
100
AcDbEntity
  8
STEMPEL
100
AcDbCircle
 10
292.8754994138921
 20
381.6174394693509
 30
0.0
 40
1.0
100
AcDbArc
 50
90.0
 51
180.0
  0
LINE
  5
4B3A
102
{ACAD_REACTORS
330
4B42
330
4B43
102
}
330
1E
100
AcDbEntity
  8
STEMPEL
  6
Continuous
100
AcDbLine
 10
291.875499413892
 20
381.6174394693509
 30
0.0
 11
291.875499413892
 21
375.6174394693509
 31
0.0
  0
LINE
  5
4B3B
102
{ACAD_REACTORS
330
4B42
330
4B43
102
}
330
1E
100
AcDbEntity
  8
STEMPEL
100
AcDbLine
 10
293.875499413892
 20
382.617439469351
 30
0.0
 11
292.8754994138921
 21
382.6174394693509
 31
0.0
  0
ARC
  5
4B3C
102
{ACAD_REACTORS
330
4B42
330
4B43
102
}
330
1E
100
AcDbEntity
  8
STEMPEL
100
AcDbCircle
 10
293.875499413892
 20
375.6174394693509
 30
0.0
 40
1.0
100
AcDbArc
 50
270.0
 51
0.0
  0
LINE
  5
4B3D
102
{ACAD_REACTORS
330
4B42
330
4B43
102
}
330
1E
100
AcDbEntity
  8
STEMPEL
100
AcDbLine
 10
293.875499413892
 20
374.6174394693509
 30
0.0
 11
292.8754994138921
 21
374.6174394693509
 31
0.0
  0
ARC
  5
4B3E
102
{ACAD_REACTORS
330
4B42
330
4B43
102
}
330
1E
100
AcDbEntity
  8
STEMPEL
100
AcDbCircle
 10
292.8754994138921
 20
375.6174394693509
 30
0.0
 40
1.0
100
AcDbArc
 50
180.0
 51
270.0
  0
LINE
  5
4B3F
102
{ACAD_REACTORS
330
4B42
102
}
330
1E
100
AcDbEntity
  8
STEMPEL
  6
Continuous
100
AcDbLine
 10
290.875499413892
 20
381.6174394693509
 30
0.0
 11
290.875499413892
 21
375.6174394693509
 31
0.0
  0
LINE
  5
4B40
102
{ACAD_REACTORS
330
4B42
102
}
330
1E
100
AcDbEntity
  8
STEMPEL
100
AcDbLine
 10
293.875499413892
 20
373.6174394693509
 30
0.0
 11
290.8184020558053
 21
373.6174394693509
 31
0.0
  0
ARC
  5
4B41
330
1E
100
AcDbEntity
  8
STEMPEL
100
AcDbCircle
 10
293.875499413892
 20
371.617439469351
 30
0.0
 40
2.0
100
AcDbArc
 50
4.246749565170591
 51
90.0
  0
HATCH
  5
4B42
330
1E
100
AcDbEntity
  8
SCHRAFF
100
AcDbHatch
 10
0.0
 20
0.0
 30
0.0
210
0.0
220
0.0
230
1.0
  2
NET
 70
     0
 71
     1
 91
        4
 92
        7
 72
     1
 73
     1
 93
        8
 10
295.875499413892
 20
391.617439469351
 42
0.4142135623731284
 10
293.8754994138918
 20
393.617439469351
 42
0.0
 10
292.8754994138921
 20
393.6174394693509
 42
0.4142135623730951
 10
290.875499413892
 20
391.6174394693509
 42
0.0
 10
290.875499413892
 20
385.6174394693509
 42
0.4142135623730951
 10
292.8754994138921
 20
383.6174394693509
 42
0.0
 10
293.875499413892
 20
383.6174394693509
 42
0.4142135623730951
 10
295.875499413892
 20
385.6174394693509
 42
0.0
 97
        8
330
4B2D
330
4B2E
330
4B2A
330
4B2B
330
4B29
330
4B2F
330
4B2C
330
4B30
 92
       22
 72
     1
 73
     1
 93
        8
 10
294.8754994138921
 20
385.6174394693509
 42
-0.4142135623730951
 10
293.875499413892
 20
384.6174394693509
 42
0.0
 10
292.8754994138921
 20
384.6174394693509
 42
-0.4142135623730951
 10
291.875499413892
 20
385.6174394693509
 42
0.0
 10
291.875499413892
 20
391.6174394693509
 42
-0.4142135623730951
 10
292.8754994138921
 20
392.6174394693509
 42
0.0
 10
293.875499413892
 20
392.617439469351
 42
-0.4142135623730951
 10
294.8754994138921
 20
391.617439469351
 42
0.0
 97
        8
330
4B23
330
4B22
330
4B21
330
4B25
330
4B26
330
4B24
330
4B27
330
4B28
 92
        7
 72
     1
 73
     1
 93
        8
 10
295.875499413892
 20
381.617439469351
 42
0.4142135623730784
 10
293.875499413892
 20
383.6174394693509
 42
0.0
 10
292.8754994138921
 20
383.6174394693509
 42
0.4142135623730951
 10
290.875499413892
 20
381.6174394693509
 42
0.0
 10
290.875499413892
 20
375.6174394693509
 42
0.4142135623730951
 10
292.8754994138921
 20
373.6174394693509
 42
0.0
 10
293.875499413892
 20
373.6174394693509
 42
0.4142135623730951
 10
295.875499413892
 20
375.6174394693509
 42
0.0
 97
        8
330
4B33
330
4B2F
330
4B35
330
4B3F
330
4B36
330
4B40
330
4B34
330
4B31
 92
       22
 72
     1
 73
     1
 93
        8
 10
294.8754994138921
 20
375.6174394693509
 42
-0.4142135623730951
 10
293.875499413892
 20
374.6174394693509
 42
0.0
 10
292.8754994138921
 20
374.6174394693509
 42
-0.4142135623730951
 10
291.875499413892
 20
375.6174394693509
 42
0.0
 10
291.875499413892
 20
381.6174394693509
 42
-0.4142135623730951
 10
292.8754994138921
 20
382.6174394693509
 42
0.0
 10
293.875499413892
 20
382.617439469351
 42
-0.4142135623730951
 10
294.8754994138921
 20
381.617439469351
 42
0.0
 97
        8
330
4B3C
330
4B3D
330
4B3E
330
4B3A
330
4B39
330
4B3B
330
4B38
330
4B37
 75
     0
 76
     1
 52
45.0
 41
10.0
 77
     0
 78
     2
 53
45.0
 43
42.94989605058822
 44
-73.71431979704306
 45
-0.8838834764831842
 46
0.8838834764831844
 79
     0
 53
135.0
 43
42.94989605058822
 44
-73.71431979704306
 45
-0.8838834764831844
 46
-0.8838834764831842
 79
     0
 47
0.1245679072124101
 98
        4
 10
295.5040679968356
 20
389.0128894404968
 10
295.5040679968356
 20
389.0128894404968
 10
295.6286740162802
 20
380.666839271928
 10
295.6286740162802
 20
380.666839271928
  0
HATCH
  5
4B43
330
1E
100
AcDbEntity
  8
SCHRAFF
100
AcDbHatch
 10
0.0
 20
0.0
 30
0.0
210
0.0
220
0.0
230
1.0
  2
_USER
 70
     0
 71
     1
 91
        2
 92
        7
 72
     1
 73
     1
 93
        8
 10
291.875499413892
 20
375.6174394693509
 42
0.4142135623730951
 10
292.8754994138921
 20
374.6174394693509
 42
0.0
 10
293.875499413892
 20
374.6174394693509
 42
0.4142135623730951
 10
294.8754994138921
 20
375.6174394693509
 42
0.0
 10
294.8754994138921
 20
381.617439469351
 42
0.4142135623731284
 10
293.8754994138919
 20
382.617439469351
 42
0.0
 10
292.8754994138921
 20
382.6174394693509
 42
0.4142135623730951
 10
291.875499413892
 20
381.6174394693509
 42
0.0
 97
        8
330
4B38
330
4B3B
330
4B39
330
4B3A
330
4B3E
330
4B3D
330
4B3C
330
4B37
 92
        7
 72
     1
 73
     1
 93
        8
 10
291.875499413892
 20
385.6174394693509
 42
0.4142135623730951
 10
292.8754994138921
 20
384.6174394693509
 42
0.0
 10
293.875499413892
 20
384.6174394693509
 42
0.4142135623730951
 10
294.8754994138921
 20
385.6174394693509
 42
0.0
 10
294.8754994138921
 20
391.617439469351
 42
0.4142135623731284
 10
293.8754994138919
 20
392.617439469351
 42
0.0
 10
292.8754994138921
 20
392.6174394693509
 42
0.4142135623730951
 10
291.875499413892
 20
391.6174394693509
 42
0.0
 97
        8
330
4B27
330
4B24
330
4B26
330
4B25
330
4B21
330
4B22
330
4B23
330
4B28
 75
     0
 76
     0
 52
45.0
 41
1.0
 77
     0
 78
     1
 53
45.0
 43
42.94989605058822
 44
-73.71431979704306
 45
-0.7071067811865475
 46
0.7071067811865476
 79
     0
 47
0.1758758460342324
 98
        2
 10
292.9770633244918
 20
379.3112521400802
 10
292.9770633244918
 20
388.4567951770319
  0
POLYLINE
  5
4B44
330
1E
100
AcDbEntity
  8
STEMPEL
100
AcDb2dPolyline
 66
     1
 10
0.0
 20
0.0
 30
0.0
 70
     2
  0
VERTEX
  5
4B45
330
4B44
100
AcDbEntity
  8
STEMPEL
100
AcDbVertex
100
AcDb2dVertex
 10
298.2754994138924
 20
352.2908967717037
 30
0.0
 42
0.0342239605027637
  0
VERTEX
  5
4B46
330
4B44
100
AcDbEntity
  8
STEMPEL
100
AcDbVertex
100
AcDb2dVertex
 10
298.1284255935884
 20
356.6280866454089
 30
0.0
 42
0.0339983197563386
 70
     1
  0
VERTEX
  5
4B47
330
4B44
100
AcDbEntity
  8
STEMPEL
100
AcDbVertex
100
AcDb2dVertex
 10
297.4261626929975
 20
360.9397549434744
 30
0.0
 42
0.0111732230029884
  0
VERTEX
  5
4B48
330
4B44
100
AcDbEntity
  8
STEMPEL
100
AcDbVertex
100
AcDb2dVertex
 10
297.1680406685323
 20
362.8519194849717
 30
0.0
 42
0.0023933927877125
 70
     1
  0
VERTEX
  5
4B49
330
4B44
100
AcDbEntity
  8
STEMPEL
100
AcDbVertex
100
AcDb2dVertex
 10
295.8700081893478
 20
371.7655432999219
 30
0.0
  0
SEQEND
  5
4B4A
330
4B44
100
AcDbEntity
  8
STEMPEL
  0
LINE
  5
4B4B
102
{ACAD_REACTORS
330
4BA9
102
}
330
1E
100
AcDbEntity
  8
STEMPEL
100
AcDbLine
 10
298.2754994138924
 20
352.2908967717037
 30
0.0
 11
298.2754994138925
 21
252.2431061048767
 31
0.0
  0
LINE
  5
4B4C
330
1E
100
AcDbEntity
  8
TEXT
 62
     2
100
AcDbLine
 10
402.888456194525
 20
243.8697868353626
 30
0.0
 11
510.1716652673504
 21
243.8697868353626
 31
0.0
  0
TEXT
  5
4B4D
330
1E
100
AcDbEntity
  8
TEXT
 62
     1
100
AcDbText
 10
404.6875481889913
 20
248.0149374450743
 30
0.0
 40
7.0
  1
Heizbandkabel
 41
0.8
  7
GREEKS
100
AcDbText
  0
TEXT
  5
4B4E
330
1E
100
AcDbEntity
  8
TEXT
 62
     1
100
AcDbText
 10
404.6875481889913
 20
233.0522316507078
 30
0.0
 40
7.0
  1
EDV-Art.Nr. 19853.000X
 41
0.8
  7
GREEKS
100
AcDbText
  0
LINE
  5
4B4F
330
1E
100
AcDbEntity
  8
TEXT
 62
     2
100
AcDbLine
 10
402.888456194525
 20
243.8697868353626
 30
0.0
 11
298.9473595072494
 21
225.6379418774177
 31
0.0
  0
POLYLINE
  5
4B50
330
1E
100
AcDbEntity
  8
STEMPEL
100
AcDb2dPolyline
 66
     1
 10
0.0
 20
0.0
 30
0.0
 70
     4
 75
     6
  0
VERTEX
  5
4B51
330
4B50
100
AcDbEntity
  8
STEMPEL
100
AcDbVertex
100
AcDb2dVertex
 10
288.2754994138924
 20
259.5421752696574
 30
0.0
 70
    16
  0
VERTEX
  5
4B52
330
4B50
100
AcDbEntity
  8
STEMPEL
100
AcDbVertex
100
AcDb2dVertex
 10
288.2754994138924
 20
259.5421752696574
 30
0.0
 70
     8
  0
VERTEX
  5
4B53
330
4B50
100
AcDbEntity
  8
STEMPEL
100
AcDbVertex
100
AcDb2dVertex
 10
288.9301545175279
 20
252.6205531793227
 30
0.0
 70
     8
  0
VERTEX
  5
4B54
330
4B50
100
AcDbEntity
  8
STEMPEL
100
AcDbVertex
100
AcDb2dVertex
 10
289.4962229956119
 20
247.1701699746538
 30
0.0
 70
     8
  0
VERTEX
  5
4B55
330
4B50
100
AcDbEntity
  8
STEMPEL
100
AcDbVertex
100
AcDb2dVertex
 10
290.0676871883819
 20
242.7076749309677
 30
0.0
 70
     8
  0
VERTEX
  5
4B56
330
4B50
100
AcDbEntity
  8
STEMPEL
100
AcDbVertex
100
AcDb2dVertex
 10
290.7385294360759
 20
238.7497173235812
 30
0.0
 70
     8
  0
VERTEX
  5
4B57
330
4B50
100
AcDbEntity
  8
STEMPEL
100
AcDbVertex
100
AcDb2dVertex
 10
291.6027320789315
 20
234.8129464278114
 30
0.0
 70
     8
  0
VERTEX
  5
4B58
330
4B50
100
AcDbEntity
  8
STEMPEL
100
AcDbVertex
100
AcDb2dVertex
 10
292.7542774571863
 20
230.4140115189753
 30
0.0
 70
     8
  0
VERTEX
  5
4B59
330
4B50
100
AcDbEntity
  8
STEMPEL
100
AcDbVertex
100
AcDb2dVertex
 10
294.2871479110783
 20
225.0695618723897
 30
0.0
 70
     8
  0
VERTEX
  5
4B5A
330
4B50
100
AcDbEntity
  8
STEMPEL
100
AcDbVertex
100
AcDb2dVertex
 10
296.2953257808451
 20
218.2962467633716
 30
0.0
 70
     8
  0
VERTEX
  5
4B5B
330
4B50
100
AcDbEntity
  8
STEMPEL
100
AcDbVertex
100
AcDb2dVertex
 10
290.2229017156449
 20
238.6932194259368
 30
0.0
 70
    16
  0
VERTEX
  5
4B5C
330
4B50
100
AcDbEntity
  8
STEMPEL
100
AcDbVertex
100
AcDb2dVertex
 10
296.2953257808452
 20
218.2962467633717
 30
0.0
 70
    16
  0
SEQEND
  5
4B5D
330
4B50
100
AcDbEntity
  8
STEMPEL
  0
POLYLINE
  5
4B5E
330
1E
100
AcDbEntity
  8
STEMPEL
100
AcDb2dPolyline
 66
     1
 10
0.0
 20
0.0
 30
0.0
  0
VERTEX
  5
4B5F
330
4B5E
100
AcDbEntity
  8
STEMPEL
100
AcDbVertex
100
AcDb2dVertex
 10
298.2754907360506
 20
259.5358194026911
 30
0.0
  0
VERTEX
  5
4B60
330
4B5E
100
AcDbEntity
  8
STEMPEL
100
AcDbVertex
100
AcDb2dVertex
 10
298.2700349446896
 20
252.6687283599351
 30
0.0
  0
VERTEX
  5
4B61
330
4B5E
100
AcDbEntity
  8
STEMPEL
100
AcDbVertex
100
AcDb2dVertex
 10
298.3374866192528
 20
247.4149822467134
 30
0.0
  0
VERTEX
  5
4B62
330
4B5E
100
AcDbEntity
  8
STEMPEL
100
AcDbVertex
100
AcDb2dVertex
 10
298.5349103058645
 20
243.3362028468258
 30
0.0
  0
VERTEX
  5
4B63
330
4B5E
100
AcDbEntity
  8
STEMPEL
100
AcDbVertex
100
AcDb2dVertex
 10
298.9098934947173
 20
239.9050912634637
 30
0.0
  0
VERTEX
  5
4B64
330
4B5E
100
AcDbEntity
  8
STEMPEL
100
AcDbVertex
100
AcDb2dVertex
 10
299.5350693518811
 20
236.4852351694094
 30
0.0
  0
VERTEX
  5
4B65
330
4B5E
100
AcDbEntity
  8
STEMPEL
100
AcDbVertex
100
AcDb2dVertex
 10
300.5231513662544
 20
232.4507042940003
 30
0.0
  0
VERTEX
  5
4B66
330
4B5E
100
AcDbEntity
  8
STEMPEL
100
AcDbVertex
100
AcDb2dVertex
 10
301.9771362208132
 20
227.2892226757747
 30
0.0
  0
VERTEX
  5
4B67
330
4B5E
100
AcDbEntity
  8
STEMPEL
100
AcDbVertex
100
AcDb2dVertex
 10
303.966523542781
 20
220.5662081941613
 30
0.0
  0
SEQEND
  5
4B68
330
4B5E
100
AcDbEntity
  8
STEMPEL
  0
LINE
  5
4B69
330
1E
100
AcDbEntity
  8
MITTEL
100
AcDbLine
 10
306.8432227035069
 20
221.4174437307075
 30
0.0
 11
293.4186266201194
 21
217.4450112268255
 31
0.0
  0
HATCH
  5
4B6A
330
1E
100
AcDbEntity
  8
SCHRAFF
100
AcDbHatch
 10
0.0
 20
0.0
 30
0.0
210
0.0
220
0.0
230
1.0
  2
_USER
 70
     0
 71
     1
 91
        2
 92
        7
 72
     1
 73
     1
 93
        8
 10
211.2754994138921
 20
381.6174394693509
 42
0.4142135623730951
 10
210.2754994138921
 20
382.6174394693509
 42
0.0
 10
209.2754994138921
 20
382.617439469351
 42
0.4142135623730951
 10
208.2754994138921
 20
381.617439469351
 42
0.0
 10
208.2754994138921
 20
375.6174394693509
 42
0.4142135623730951
 10
209.2754994138921
 20
374.6174394693509
 42
0.0
 10
210.2754994138921
 20
374.6174394693509
 42
0.4142135623730951
 10
211.2754994138921
 20
375.6174394693509
 42
0.0
 97
        8
330
4B74
330
4B71
330
4B73
330
4B72
330
4B6E
330
4B6F
330
4B70
330
4B75
 92
        7
 72
     1
 73
     1
 93
        8
 10
211.2754994138921
 20
391.6174394693509
 42
0.4142135623730951
 10
210.2754994138921
 20
392.6174394693509
 42
0.0
 10
209.2754994138921
 20
392.617439469351
 42
0.4142135623730951
 10
208.2754994138921
 20
391.617439469351
 42
0.0
 10
208.2754994138921
 20
385.6174394693509
 42
0.4142135623730951
 10
209.2754994138921
 20
384.6174394693509
 42
0.0
 10
210.2754994138921
 20
384.6174394693509
 42
0.4142135623730951
 10
211.2754994138921
 20
385.6174394693509
 42
0.0
 97
        8
330
4B85
330
4B88
330
4B86
330
4B87
330
4B8B
330
4B8A
330
4B89
330
4B84
 75
     0
 76
     0
 52
45.0
 41
1.0
 77
     0
 78
     1
 53
45.0
 43
33.35871628335269
 44
-58.3818354892935
 45
-0.7071067811865475
 46
0.7071067811865476
 79
     0
 47
0.1758758460342324
 98
        2
 10
210.1739355032923
 20
379.3112521400802
 10
210.1739355032923
 20
388.4567951770319
  0
HATCH
  5
4B6B
330
1E
100
AcDbEntity
  8
SCHRAFF
100
AcDbHatch
 10
0.0
 20
0.0
 30
0.0
210
0.0
220
0.0
230
1.0
  2
NET
 70
     0
 71
     1
 91
        4
 92
        7
 72
     1
 73
     1
 93
        8
 10
207.2754994138921
 20
385.6174394693509
 42
0.4142135623730951
 10
209.2754994138921
 20
383.6174394693509
 42
0.0
 10
210.2754994138921
 20
383.6174394693509
 42
0.4142135623730951
 10
212.2754994138921
 20
385.6174394693509
 42
0.0
 10
212.2754994138921
 20
391.6174394693509
 42
0.4142135623730951
 10
210.2754994138921
 20
393.6174394693509
 42
0.0
 10
209.2754994138921
 20
393.617439469351
 42
0.4142135623730951
 10
207.2754994138921
 20
391.617439469351
 42
0.0
 97
        8
330
4B7F
330
4B7E
330
4B82
330
4B81
330
4B83
330
4B7D
330
4B80
330
4B7C
 92
       22
 72
     1
 73
     1
 93
        8
 10
208.2754994138921
 20
391.617439469351
 42
-0.4142135623731284
 10
209.2754994138922
 20
392.617439469351
 42
0.0
 10
210.2754994138921
 20
392.6174394693509
 42
-0.4142135623730951
 10
211.2754994138921
 20
391.6174394693509
 42
0.0
 10
211.2754994138921
 20
385.6174394693509
 42
-0.4142135623730951
 10
210.2754994138921
 20
384.6174394693509
 42
0.0
 10
209.2754994138921
 20
384.6174394693509
 42
-0.4142135623730951
 10
208.2754994138921
 20
385.6174394693509
 42
0.0
 97
        8
330
4B89
330
4B8A
330
4B8B
330
4B87
330
4B86
330
4B88
330
4B85
330
4B84
 92
        7
 72
     1
 73
     1
 93
        8
 10
207.2754994138921
 20
375.6174394693509
 42
0.4142135623730951
 10
209.2754994138921
 20
373.6174394693509
 42
0.0
 10
210.2754994138921
 20
373.6174394693509
 42
0.4142135623730951
 10
212.2754994138921
 20
375.6174394693509
 42
0.0
 10
212.2754994138921
 20
381.6174394693509
 42
0.4142135623730951
 10
210.2754994138921
 20
383.6174394693509
 42
0.0
 10
209.2754994138921
 20
383.6174394693509
 42
0.4142135623730951
 10
207.2754994138921
 20
381.6174394693509
 42
0.0
 97
        8
330
4B79
330
4B7D
330
4B77
330
4B6D
330
4B76
330
4B6C
330
4B78
330
4B7B
 92
       22
 72
     1
 73
     1
 93
        8
 10
208.2754994138921
 20
381.617439469351
 42
-0.4142135623731284
 10
209.2754994138922
 20
382.617439469351
 42
0.0
 10
210.2754994138921
 20
382.6174394693509
 42
-0.4142135623730951
 10
211.2754994138921
 20
381.6174394693509
 42
0.0
 10
211.2754994138921
 20
375.6174394693509
 42
-0.4142135623730951
 10
210.2754994138921
 20
374.6174394693509
 42
0.0
 10
209.2754994138921
 20
374.6174394693509
 42
-0.4142135623730951
 10
208.2754994138921
 20
375.6174394693509
 42
0.0
 97
        8
330
4B70
330
4B6F
330
4B6E
330
4B72
330
4B73
330
4B71
330
4B74
330
4B75
 75
     0
 76
     1
 52
45.0
 41
10.0
 77
     0
 78
     2
 53
135.0
 43
460.2011027771959
 44
-73.71431979704306
 45
0.8838834764831842
 46
0.8838834764831844
 79
     0
 53
45.0
 43
460.2011027771959
 44
-73.71431979704306
 45
0.8838834764831844
 46
-0.8838834764831842
 79
     0
 47
0.1245679072124101
 98
        4
 10
207.6469308309486
 20
389.0128894404968
 10
207.6469308309486
 20
389.0128894404968
 10
207.5223248115039
 20
380.666839271928
 10
207.5223248115039
 20
380.666839271928
  0
LINE
  5
4B6C
102
{ACAD_REACTORS
330
4B6B
102
}
330
1E
100
AcDbEntity
  8
STEMPEL
100
AcDbLine
 10
209.2754994138921
 20
373.6174394693509
 30
0.0
 11
210.2754994138921
 21
373.6174394693509
 31
0.0
  0
LINE
  5
4B6D
102
{ACAD_REACTORS
330
4B6B
102
}
330
1E
100
AcDbEntity
  8
STEMPEL
  6
Continuous
100
AcDbLine
 10
212.2754994138921
 20
381.6174394693509
 30
0.0
 11
212.2754994138921
 21
375.6174394693509
 31
0.0
  0
ARC
  5
4B6E
102
{ACAD_REACTORS
330
4B6B
330
4B6A
102
}
330
1E
100
AcDbEntity
  8
STEMPEL
100
AcDbCircle
 10
210.2754994138921
 20
375.6174394693509
 30
0.0
 40
1.0
100
AcDbArc
 50
270.0
 51
0.0
  0
LINE
  5
4B6F
102
{ACAD_REACTORS
330
4B6B
330
4B6A
102
}
330
1E
100
AcDbEntity
  8
STEMPEL
100
AcDbLine
 10
209.2754994138921
 20
374.6174394693509
 30
0.0
 11
210.2754994138921
 21
374.6174394693509
 31
0.0
  0
ARC
  5
4B70
102
{ACAD_REACTORS
330
4B6B
330
4B6A
102
}
330
1E
100
AcDbEntity
  8
STEMPEL
100
AcDbCircle
 10
209.2754994138921
 20
375.6174394693509
 30
0.0
 40
1.0
100
AcDbArc
 50
180.0
 51
270.0
  0
LINE
  5
4B71
102
{ACAD_REACTORS
330
4B6B
330
4B6A
102
}
330
1E
100
AcDbEntity
  8
STEMPEL
100
AcDbLine
 10
209.2754994138921
 20
382.617439469351
 30
0.0
 11
210.2754994138921
 21
382.6174394693509
 31
0.0
  0
LINE
  5
4B72
102
{ACAD_REACTORS
330
4B6B
330
4B6A
102
}
330
1E
100
AcDbEntity
  8
STEMPEL
  6
Continuous
100
AcDbLine
 10
211.2754994138921
 20
381.6174394693509
 30
0.0
 11
211.2754994138921
 21
375.6174394693509
 31
0.0
  0
ARC
  5
4B73
102
{ACAD_REACTORS
330
4B6B
330
4B6A
102
}
330
1E
100
AcDbEntity
  8
STEMPEL
100
AcDbCircle
 10
210.2754994138921
 20
381.6174394693509
 30
0.0
 40
1.0
100
AcDbArc
 50
0.0
 51
90.0
  0
ARC
  5
4B74
102
{ACAD_REACTORS
330
4B6B
330
4B6A
102
}
330
1E
100
AcDbEntity
  8
STEMPEL
100
AcDbCircle
 10
209.2754994138921
 20
381.617439469351
 30
0.0
 40
1.0
100
AcDbArc
 50
90.0
 51
180.0
  0
LINE
  5
4B75
102
{ACAD_REACTORS
330
4B6B
330
4B6A
102
}
330
1E
100
AcDbEntity
  8
STEMPEL
  6
Continuous
100
AcDbLine
 10
208.2754994138921
 20
381.617439469351
 30
0.0
 11
208.2754994138921
 21
375.6174394693509
 31
0.0
  0
ARC
  5
4B76
102
{ACAD_REACTORS
330
4B6B
102
}
330
1E
100
AcDbEntity
  8
STEMPEL
100
AcDbCircle
 10
210.2754994138921
 20
375.6174394693509
 30
0.0
 40
2.0
100
AcDbArc
 50
270.0
 51
0.0
  0
ARC
  5
4B77
102
{ACAD_REACTORS
330
4B6B
102
}
330
1E
100
AcDbEntity
  8
STEMPEL
100
AcDbCircle
 10
210.2754994138921
 20
381.6174394693509
 30
0.0
 40
2.0
100
AcDbArc
 50
0.0
 51
90.0
  0
ARC
  5
4B78
102
{ACAD_REACTORS
330
4B6B
102
}
330
1E
100
AcDbEntity
  8
STEMPEL
100
AcDbCircle
 10
209.2754994138921
 20
375.6174394693509
 30
0.0
 40
2.0
100
AcDbArc
 50
180.0
 51
270.0
  0
ARC
  5
4B79
102
{ACAD_REACTORS
330
4B6B
102
}
330
1E
100
AcDbEntity
  8
STEMPEL
100
AcDbCircle
 10
209.2754994138921
 20
381.617439469351
 30
0.0
 40
2.0
100
AcDbArc
 50
90.0
 51
180.0
  0
LINE
  5
4B7A
330
1E
100
AcDbEntity
  8
STEMPEL
100
AcDbLine
 10
209.2754994138921
 20
373.6174394693509
 30
0.0
 11
210.2754994138921
 21
373.6174394693509
 31
0.0
  0
LINE
  5
4B7B
102
{ACAD_REACTORS
330
4B6B
102
}
330
1E
100
AcDbEntity
  8
STEMPEL
  6
Continuous
100
AcDbLine
 10
207.2754994138921
 20
381.617439469351
 30
0.0
 11
207.2754994138921
 21
375.6174394693509
 31
0.0
  0
LINE
  5
4B7C
102
{ACAD_REACTORS
330
4B6B
102
}
330
1E
100
AcDbEntity
  8
STEMPEL
  6
Continuous
100
AcDbLine
 10
207.2754994138921
 20
391.617439469351
 30
0.0
 11
207.2754994138921
 21
385.6174394693509
 31
0.0
  0
LINE
  5
4B7D
102
{ACAD_REACTORS
330
4B6B
102
}
330
1E
100
AcDbEntity
  8
STEMPEL
100
AcDbLine
 10
209.2754994138921
 20
383.6174394693509
 30
0.0
 11
210.2754994138921
 21
383.6174394693509
 31
0.0
  0
LINE
  5
4B7E
102
{ACAD_REACTORS
330
4B6B
102
}
330
1E
100
AcDbEntity
  8
STEMPEL
100
AcDbLine
 10
209.2754994138921
 20
393.617439469351
 30
0.0
 11
210.2754994138921
 21
393.6174394693509
 31
0.0
  0
ARC
  5
4B7F
102
{ACAD_REACTORS
330
4B6B
102
}
330
1E
100
AcDbEntity
  8
STEMPEL
100
AcDbCircle
 10
209.2754994138921
 20
391.617439469351
 30
0.0
 40
2.0
100
AcDbArc
 50
90.0
 51
180.0
  0
ARC
  5
4B80
102
{ACAD_REACTORS
330
4B6B
102
}
330
1E
100
AcDbEntity
  8
STEMPEL
100
AcDbCircle
 10
209.2754994138921
 20
385.6174394693509
 30
0.0
 40
2.0
100
AcDbArc
 50
180.0
 51
270.0
  0
LINE
  5
4B81
102
{ACAD_REACTORS
330
4B6B
102
}
330
1E
100
AcDbEntity
  8
STEMPEL
  6
Continuous
100
AcDbLine
 10
212.2754994138921
 20
391.6174394693509
 30
0.0
 11
212.2754994138921
 21
385.6174394693509
 31
0.0
  0
ARC
  5
4B82
102
{ACAD_REACTORS
330
4B6B
102
}
330
1E
100
AcDbEntity
  8
STEMPEL
100
AcDbCircle
 10
210.2754994138921
 20
391.6174394693509
 30
0.0
 40
2.0
100
AcDbArc
 50
0.0
 51
90.0
  0
ARC
  5
4B83
102
{ACAD_REACTORS
330
4B6B
102
}
330
1E
100
AcDbEntity
  8
STEMPEL
100
AcDbCircle
 10
210.2754994138921
 20
385.6174394693509
 30
0.0
 40
2.0
100
AcDbArc
 50
270.0
 51
0.0
  0
LINE
  5
4B84
102
{ACAD_REACTORS
330
4B6B
330
4B6A
102
}
330
1E
100
AcDbEntity
  8
STEMPEL
  6
Continuous
100
AcDbLine
 10
208.2754994138921
 20
391.617439469351
 30
0.0
 11
208.2754994138921
 21
385.6174394693509
 31
0.0
  0
ARC
  5
4B85
102
{ACAD_REACTORS
330
4B6B
330
4B6A
102
}
330
1E
100
AcDbEntity
  8
STEMPEL
100
AcDbCircle
 10
209.2754994138921
 20
391.617439469351
 30
0.0
 40
1.0
100
AcDbArc
 50
90.0
 51
180.0
  0
ARC
  5
4B86
102
{ACAD_REACTORS
330
4B6B
330
4B6A
102
}
330
1E
100
AcDbEntity
  8
STEMPEL
100
AcDbCircle
 10
210.2754994138921
 20
391.6174394693509
 30
0.0
 40
1.0
100
AcDbArc
 50
0.0
 51
90.0
  0
LINE
  5
4B87
102
{ACAD_REACTORS
330
4B6B
330
4B6A
102
}
330
1E
100
AcDbEntity
  8
STEMPEL
  6
Continuous
100
AcDbLine
 10
211.2754994138921
 20
391.6174394693509
 30
0.0
 11
211.2754994138921
 21
385.6174394693509
 31
0.0
  0
LINE
  5
4B88
102
{ACAD_REACTORS
330
4B6B
330
4B6A
102
}
330
1E
100
AcDbEntity
  8
STEMPEL
100
AcDbLine
 10
209.2754994138921
 20
392.617439469351
 30
0.0
 11
210.2754994138921
 21
392.6174394693509
 31
0.0
  0
ARC
  5
4B89
102
{ACAD_REACTORS
330
4B6B
330
4B6A
102
}
330
1E
100
AcDbEntity
  8
STEMPEL
100
AcDbCircle
 10
209.2754994138921
 20
385.6174394693509
 30
0.0
 40
1.0
100
AcDbArc
 50
180.0
 51
270.0
  0
LINE
  5
4B8A
102
{ACAD_REACTORS
330
4B6B
330
4B6A
102
}
330
1E
100
AcDbEntity
  8
STEMPEL
100
AcDbLine
 10
209.2754994138921
 20
384.6174394693509
 30
0.0
 11
210.2754994138921
 21
384.6174394693509
 31
0.0
  0
ARC
  5
4B8B
102
{ACAD_REACTORS
330
4B6B
330
4B6A
102
}
330
1E
100
AcDbEntity
  8
STEMPEL
100
AcDbCircle
 10
210.2754994138921
 20
385.6174394693509
 30
0.0
 40
1.0
100
AcDbArc
 50
270.0
 51
0.0
  0
HATCH
  5
4BA9
330
1E
100
AcDbEntity
  8
SCHRAFF
100
AcDbHatch
 10
0.0
 20
0.0
 30
0.0
210
0.0
220
0.0
230
1.0
  2
HONEY
 70
     0
 71
     1
 91
        3
 92
        7
 72
     0
 73
     1
 93
        5
 10
325.3692143514946
 20
406.8168784709908
 10
326.5754994138921
 20
426.1174394693503
 10
316.5754994138923
 20
426.1174394693502
 10
305.075499413892
 20
416.1174394693499
 10
305.0754994138919
 20
415.9478087382336
 97
        5
330
42B3
330
49F4
330
49F5
330
4547
330
49F2
 92
        7
 72
     1
 73
     1
 93
        9
 10
305.0754994138917
 20
362.1174394693499
 42
0.0
 10
299.075499413892
 20
356.1174394693501
 42
0.0
 10
299.0754994138921
 20
290.1174394693482
 42
0.0
 10
298.2754994138925
 20
289.0294394693489
 42
0.0
 10
298.2754994138924
 20
266.1174394693484
 42
0.0
 10
313.7571457497891
 20
266.1174394693482
 42
0.3960474615044538
 10
316.7513034852378
 20
268.9303046108827
 42
0.0
 10
325.3692143514946
 20
406.8168784709908
 42
0.0
 10
305.075499413892
 20
415.9478087382336
 42
0.0
 97
        9
330
4547
330
49F5
330
49E2
330
49E6
330
49E5
330
4B4B
330
49E8
330
49DB
330
49F2
 92
        7
 72
     1
 73
     1
 93
       12
 10
186.3996953425461
 20
268.9303046108843
 42
0.3960474615044457
 10
189.3938530779947
 20
266.1174394693499
 42
0.0
 10
209.0754994138922
 20
266.1174394693496
 42
0.0
 10
209.0754994138922
 20
268.1174394693496
 42
0.0
 10
215.0754994138936
 20
268.1174394693496
 42
0.0
 10
215.0754994138937
 20
275.1574394693475
 42
0.0
 10
204.0754994138922
 20
290.117439469348
 42
0.0
 10
204.0754994138918
 20
356.1174394693497
 42
0.0
 10
198.0754994138922
 20
362.1174394693495
 42
0.0
 10
198.075499413892
 20
416.1174394693499
 42
0.0
 10
186.5754994138919
 20
426.11743946935
 42
0.0
 10
176.575499413892
 20
426.1174394693501
 42
0.0
 97
       12
330
49DF
330
49F0
330
49F1
330
4160
330
49ED
330
49DA
330
4A50
330
49DD
330
4A4F
330
4112
330
49E1
330
49E0
 75
     0
 76
     1
 52
0.0
 41
30.0
 77
     0
 78
     3
 53
0.0
 43
0.0
 44
0.0
 45
5.625
 46
3.247595249999999
 79
     2
 49
3.75
 49
-7.5
 53
120.0
 43
0.0
 44
0.0
 45
-5.624999987709673
 46
3.247595271287468
 79
     2
 49
3.75
 49
-7.5
 53
60.0
 43
0.0
 44
0.0
 45
0.0000000122903263
 46
6.495190521287468
 79
     2
 49
-7.5
 49
3.75
 47
0.2474330820121898
 98
        3
 10
318.5081168612137
 20
417.1765989137846
 10
314.7953638449612
 20
396.6396531304647
 10
192.2744280896991
 20
324.1417586056493
  0
ARC
  5
4D4A
330
1E
100
AcDbEntity
  8
STEMPEL
100
AcDbCircle
 10
333.1254994138918
 20
590.8674394693511
 30
0.0
 40
0.750000000000001
100
AcDbArc
 50
269.9999991462263
 51
69.99999999999935
  0
LINE
  5
4D4B
330
1E
100
AcDbEntity
  8
STEMPEL
100
AcDbLine
 10
333.3820145213861
 20
591.5722089349405
 30
0.0
 11
331.6357534517361
 21
592.207795985551
 31
0.0
  0
LINE
  5
4D4C
330
1E
100
AcDbEntity
  8
STEMPEL
100
AcDbLine
 10
331.6357534517361
 20
599.8065503368957
 30
0.0
 11
330.4754994138917
 21
600.1174394693511
 31
0.0
  0
LINE
  5
4D4E
330
1E
100
AcDbEntity
  8
STEMPEL
100
AcDbLine
 10
333.3820145213861
 20
591.5722089349405
 30
0.0
 11
319.5002527173957
 21
591.5722089349405
 31
0.0
  0
LINE
  5
4D50
330
1E
100
AcDbEntity
  8
STEMPEL
100
AcDbLine
 10
327.3056264328139
 20
592.207795985551
 30
0.0
 11
327.3056264328139
 21
599.8065503368957
 31
0.0
  0
LINE
  5
4D51
330
1E
100
AcDbEntity
  8
STEMPEL
100
AcDbLine
 10
331.6357534517361
 20
592.207795985551
 30
0.0
 11
331.6357534517361
 21
599.8065503368957
 31
0.0
  0
LINE
  5
4D52
330
1E
100
AcDbEntity
  8
STEMPEL
100
AcDbLine
 10
319.058258034581
 20
600.1174394693511
 30
0.0
 11
330.4754994138917
 21
600.1174394693511
 31
0.0
  0
POINT
  5
4D53
330
1E
100
AcDbEntity
  8
0
100
AcDbPoint
 10
322.9754994138917
 20
590.117439469351
 30
0.0
210
0.0000000000000001
220
1.0
230
0.0
  0
ARC
  5
4D54
330
1E
100
AcDbEntity
  8
HILF
100
AcDbCircle
 10
329.4706899422751
 20
586.8689533198214
 30
0.0
 40
5.761140599691502
100
AcDbArc
 50
67.92594526326206
 51
112.0740547367379
  0
ARC
  5
4D55
330
1E
100
AcDbEntity
  8
HILF
100
AcDbCircle
 10
322.9754994138917
 20
570.2189784216898
 30
0.0
 40
22.41111549782308
100
AcDbArc
 50
78.85962783890552
 51
99.02521875168829
  0
ARC
  5
4D56
330
1E
100
AcDbEntity
  8
STEMPEL
100
AcDbCircle
 10
329.4706899422751
 20
592.4231337615666
 30
0.0
 40
7.694305707784447
100
AcDbArc
 50
73.65710669401501
 51
106.342893305985
  0
ARC
  5
4D58
330
1E
100
AcDbEntity
  8
STEMPEL
100
AcDbCircle
 10
322.9754994138917
 20
569.8065503368962
 30
0.0
 40
30.31088913245485
100
AcDbArc
 50
81.78678929826174
 51
97.40051944419846
  0
ARC
  5
4D59
330
1E
100
AcDbEntity
  8
STEMPEL
100
AcDbCircle
 10
171.7254994138919
 20
590.8674394693508
 30
0.0
 40
0.750000000000001
100
AcDbArc
 50
269.9999991462263
 51
69.99999999999935
  0
ARC
  5
4D5A
330
1E
100
AcDbEntity
  8
STEMPEL
100
AcDbCircle
 10
151.4254994138919
 20
590.8674394693508
 30
0.0
 40
0.7500000000000013
100
AcDbArc
 50
110.0000000000006
 51
269.9999991462263
  0
LINE
  5
4D5B
330
1E
100
AcDbEntity
  8
STEMPEL
100
AcDbLine
 10
152.9152453760475
 20
592.2077959855507
 30
0.0
 11
151.1689843063976
 21
591.5722089349404
 31
0.0
  0
LINE
  5
4D5C
330
1E
100
AcDbEntity
  8
STEMPEL
100
AcDbLine
 10
171.9820145213861
 20
591.5722089349404
 30
0.0
 11
170.2357534517363
 21
592.2077959855507
 31
0.0
  0
LINE
  5
4D5D
330
1E
100
AcDbEntity
  8
STEMPEL
100
AcDbLine
 10
170.2357534517363
 20
599.8065503368954
 30
0.0
 11
169.0754994138919
 21
600.1174394693508
 31
0.0
  0
LINE
  5
4D5E
330
1E
100
AcDbEntity
  8
STEMPEL
100
AcDbLine
 10
154.0754994138919
 20
600.1174394693508
 30
0.0
 11
152.9152453760475
 21
599.8065503368954
 31
0.0
  0
LINE
  5
4D5F
330
1E
100
AcDbEntity
  8
STEMPEL
100
AcDbLine
 10
152.9152453760475
 20
592.2077959855507
 30
0.0
 11
152.9152453760475
 21
599.8065503368954
 31
0.0
  0
LINE
  5
4D60
330
1E
100
AcDbEntity
  8
STEMPEL
100
AcDbLine
 10
171.7254994138919
 20
590.1174394693509
 30
0.0
 11
151.4254994138919
 21
590.1174394693509
 31
0.0
  0
LINE
  5
4D61
330
1E
100
AcDbEntity
  8
STEMPEL
100
AcDbLine
 10
171.9820145213861
 20
591.5722089349404
 30
0.0
 11
151.1689843063976
 21
591.5722089349404
 31
0.0
  0
LINE
  5
4D62
330
1E
100
AcDbEntity
  8
STEMPEL
100
AcDbLine
 10
157.2453723949697
 20
592.2077959855507
 30
0.0
 11
157.2453723949697
 21
599.8065503368954
 31
0.0
  0
LINE
  5
4D63
330
1E
100
AcDbEntity
  8
STEMPEL
100
AcDbLine
 10
165.9056264328141
 20
592.2077959855507
 30
0.0
 11
165.9056264328141
 21
599.8065503368954
 31
0.0
  0
LINE
  5
4D64
330
1E
100
AcDbEntity
  8
STEMPEL
100
AcDbLine
 10
170.2357534517363
 20
592.2077959855507
 30
0.0
 11
170.2357534517363
 21
599.8065503368954
 31
0.0
  0
LINE
  5
4D65
330
1E
100
AcDbEntity
  8
STEMPEL
100
AcDbLine
 10
154.0754994138919
 20
600.1174394693508
 30
0.0
 11
169.0754994138919
 21
600.1174394693508
 31
0.0
  0
POINT
  5
4D66
330
1E
100
AcDbEntity
  8
0
100
AcDbPoint
 10
161.5754994138919
 20
590.1174394693509
 30
0.0
210
0.0000000000000001
220
1.0
230
0.0
  0
ARC
  5
4D67
330
1E
100
AcDbEntity
  8
HILF
100
AcDbCircle
 10
155.0803088855086
 20
586.8689533198212
 30
0.0
 40
5.761140599691502
100
AcDbArc
 50
67.92594526326206
 51
112.0740547367379
  0
ARC
  5
4D68
330
1E
100
AcDbEntity
  8
HILF
100
AcDbCircle
 10
168.0706899422752
 20
586.8689533198212
 30
0.0
 40
5.761140599691502
100
AcDbArc
 50
67.92594526326206
 51
112.0740547367379
  0
ARC
  5
4D69
330
1E
100
AcDbEntity
  8
HILF
100
AcDbCircle
 10
161.5754994138919
 20
570.2189784216896
 30
0.0
 40
22.41111549782308
100
AcDbArc
 50
78.85962783890552
 51
101.1403721610945
  0
ARC
  5
4D6A
330
1E
100
AcDbEntity
  8
STEMPEL
100
AcDbCircle
 10
168.0706899422752
 20
592.4231337615664
 30
0.0
 40
7.694305707784447
100
AcDbArc
 50
73.65710669401501
 51
106.342893305985
  0
ARC
  5
4D6B
330
1E
100
AcDbEntity
  8
STEMPEL
100
AcDbCircle
 10
155.0803088855086
 20
592.4231337615664
 30
0.0
 40
7.694305707784447
100
AcDbArc
 50
73.65710669401501
 51
106.342893305985
  0
ARC
  5
4D6C
330
1E
100
AcDbEntity
  8
STEMPEL
100
AcDbCircle
 10
161.5754994138919
 20
569.8065503368959
 30
0.0
 40
30.31088913245485
100
AcDbArc
 50
81.78678929826174
 51
98.21321070173826
  0
DIMENSION
  5
4D6E
330
1E
100
AcDbEntity
  8
BEM
100
AcDbDimension
  2
*D6
 10
105.3972815330057
 20
584.1174394693496
 30
0.0
 11
98.89728153300564
 21
601.6174394693499
 31
0.0
 70
    32
 71
     5
 42
35.00000000000068
  3
Standard
100
AcDbAlignedDimension
 13
185.0754994138917
 23
619.1174394693502
 33
0.0
 14
134.5754994138923
 24
584.1174394693496
 34
0.0
 50
90.0
100
AcDbRotatedDimension
1001
ACAD
1000
DSTYLE
1002
{
1070
    40
1040
2.0
1070
    41
1040
3.5
1070
    42
1040
1.0
1070
    43
1040
7.0
1070
    44
1040
1.0
1070
    73
1070
     0
1070
    74
1070
     0
1070
    77
1070
     1
1070
    78
1070
     8
1070
    79
1070
     2
1070
   140
1040
3.5
1070
   141
1040
1.5
1070
   146
1040
0.5142857142857144
1070
   147
1040
1.5
1070
   172
1070
     1
1070
   178
1070
     1
1070
   179
1070
     2
1070
   271
1070
     2
1070
   272
1070
     2
1070
   284
1070
     8
1070
   285
1070
     8
1070
   286
1070
     8
1002
}
  0
LINE
  5
4D73
330
1E
100
AcDbEntity
  8
STEMPEL
100
AcDbLine
 10
318.0754994138918
 20
604.1174394693516
 30
0.0
 11
370.5754994138918
 21
604.1174394693516
 31
0.0
  0
LINE
  5
4D79
330
1E
100
AcDbEntity
  8
STEMPEL
100
AcDbLine
 10
259.075499413892
 20
661.6174394693518
 30
0.0
 11
259.075499413892
 21
636.6174394693516
 31
0.0
  0
LINE
  5
4D7A
330
1E
100
AcDbEntity
  8
STEMPEL
100
AcDbLine
 10
244.075499413892
 20
661.6174394693502
 30
0.0
 11
244.075499413892
 21
636.6174394693518
 31
0.0
  0
ARC
  5
4D7B
330
1E
100
AcDbEntity
  8
STEMPEL
100
AcDbCircle
 10
251.5754994138919
 20
636.6174394693518
 30
0.0
 40
7.5
100
AcDbArc
 50
180.0
 51
0.0
  0
ARC
  5
4D7C
330
1E
100
AcDbEntity
  8
STEMPEL
100
AcDbCircle
 10
251.575499413892
 20
661.6174394693518
 30
0.0
 40
7.5
100
AcDbArc
 50
0.0000000000260551
 51
180.000000000013
  0
ELLIPSE
  5
4D7D
330
1E
100
AcDbEntity
  8
STEMPEL
100
AcDbEllipse
 10
197.2046662402126
 20
661.6174394693518
 30
0.0
 11
0.0
 21
7.5
 31
0.0
210
0.0
220
0.0
230
1.0
 40
0.8660254037843856
 41
4.712388980384689
 42
7.853981633974482
  0
ELLIPSE
  5
4D7E
330
1E
100
AcDbEntity
  8
STEMPEL
100
AcDbEllipse
 10
197.2046662402126
 20
636.6174394693518
 30
0.0
 11
0.0
 21
-7.5
 31
0.0
210
0.0
220
0.0
230
-1.0
 40
0.8660254037843856
 41
4.712388980384689
 42
7.853981633974482
  0
ELLIPSE
  5
4D7F
330
1E
100
AcDbEntity
  8
STEMPEL
100
AcDbEllipse
 10
196.7034892447707
 20
636.6174394693518
 30
0.0
 11
0.0
 21
-7.5
 31
0.0
210
0.0
220
0.0
230
-1.0
 40
0.8660254037843856
 41
4.712388980384689
 42
6.24459510668465
  0
LINE
  5
4D80
330
1E
100
AcDbEntity
  8
STEMPEL
100
AcDbLine
 10
203.6998567685956
 20
661.6174394693518
 30
0.0
 11
203.6998567685956
 21
636.6174394693518
 31
0.0
  0
LINE
  5
4D81
330
1E
100
AcDbEntity
  8
STEMPEL
100
AcDbLine
 10
190.7094757118298
 20
661.6174394693518
 30
0.0
 11
190.7094757118298
 21
636.6174394693534
 31
0.0
  0
LINE
  5
4D82
330
1E
100
AcDbEntity
  8
STEMPEL
100
AcDbLine
 10
203.1986797731536
 20
661.6174394693518
 30
0.0
 11
203.1986797731536
 21
636.6174394693518
 31
0.0
  0
LINE
  5
4D83
330
1E
100
AcDbEntity
  8
STEMPEL
100
AcDbLine
 10
161.1524539072287
 20
661.6174394693518
 30
0.0
 11
161.1524539072287
 21
636.6174394693534
 31
0.0
  0
LINE
  5
4D84
330
1E
100
AcDbEntity
  8
STEMPEL
100
AcDbLine
 10
160.2843898875398
 20
636.6174394693518
 30
0.0
 11
160.2843898875398
 21
661.6174394693534
 31
0.0
  0
LINE
  5
4D85
330
1E
100
AcDbEntity
  8
STEMPEL
100
AcDbLine
 10
141.5754994138917
 20
669.1174394693514
 30
0.0
 11
142.5754994138917
 21
669.1174394693514
 31
0.0
  0
LINE
  5
4D86
330
1E
100
AcDbEntity
  8
STEMPEL
100
AcDbLine
 10
141.5754994138915
 20
629.1174394693514
 30
0.0
 11
142.5754994138917
 21
629.1174394693514
 31
0.0
  0
LINE
  5
4D87
330
1E
100
AcDbEntity
  8
STEMPEL
100
AcDbLine
 10
153.6524539072288
 20
661.6174394693518
 30
0.0
 11
153.6524539072288
 21
636.617439469355
 31
0.0
  0
ELLIPSE
  5
4D88
330
1E
100
AcDbEntity
  8
STEMPEL
100
AcDbEllipse
 10
157.4024539072288
 20
636.6174394693534
 30
0.0
 11
0.0
 21
-7.499999999999999
 31
0.0
210
0.0
220
0.0
230
-1.0
 40
0.4999999999999926
 41
4.712388980384689
 42
7.853981633974482
  0
ELLIPSE
  5
4D89
330
1E
100
AcDbEntity
  8
STEMPEL
100
AcDbEllipse
 10
156.5343898875398
 20
636.6174394693534
 30
0.0
 11
0.0
 21
-7.499999999999999
 31
0.0
210
0.0
220
0.0
230
-1.0
 40
0.4999999999999926
 41
4.712388980384689
 42
6.167183451052224
  0
ELLIPSE
  5
4D8A
330
1E
100
AcDbEntity
  8
STEMPEL
100
AcDbEllipse
 10
156.5343898875398
 20
661.6174394693518
 30
0.0
 11
0.0
 21
7.499999999999999
 31
0.0
210
0.0
220
0.0
230
1.0
 40
0.4999999999999926
 41
4.712388980384689
 42
6.167183451052224
  0
ELLIPSE
  5
4D8B
330
1E
100
AcDbEntity
  8
STEMPEL
100
AcDbEllipse
 10
157.4024539072288
 20
661.6174394693518
 30
0.0
 11
0.0
 21
7.499999999999999
 31
0.0
210
0.0
220
0.0
230
1.0
 40
0.4999999999999926
 41
4.712388980384689
 42
7.853981633974482
  0
ELLIPSE
  5
4D8C
330
1E
100
AcDbEntity
  8
STEMPEL
100
AcDbEllipse
 10
196.7034892447707
 20
661.6174394693518
 30
0.0
 11
0.0
 21
7.5
 31
0.0
210
0.0
220
0.0
230
1.0
 40
0.8660254037843856
 41
4.712388980384689
 42
6.24459510668465
  0
LINE
  5
4D8D
330
1E
100
AcDbEntity
  8
STEMPEL
100
AcDbLine
 10
361.5754994138918
 20
669.1174394693514
 30
0.0
 11
360.5754994138917
 21
669.1174394693514
 31
0.0
  0
LINE
  5
4D8E
330
1E
100
AcDbEntity
  8
STEMPEL
100
AcDbLine
 10
361.5754994138918
 20
629.1174394693514
 30
0.0
 11
360.5754994138917
 21
629.1174394693514
 31
0.0
  0
ELLIPSE
  5
4D8F
330
1E
100
AcDbEntity
  8
STEMPEL
100
AcDbEllipse
 10
345.7485449205551
 20
661.6174394693518
 30
0.0
 11
0.0
 21
7.499999999999999
 31
0.0
210
0.0
220
0.0
230
-1.0
 40
0.4999999999999926
 41
4.712388980384689
 42
7.853981633974482
  0
ELLIPSE
  5
4D90
330
1E
100
AcDbEntity
  8
STEMPEL
100
AcDbEllipse
 10
346.6166089402439
 20
661.6174394693518
 30
0.0
 11
0.0
 21
7.499999999999999
 31
0.0
210
0.0
220
0.0
230
-1.0
 40
0.4999999999999926
 41
4.712388980384689
 42
6.167183451052224
  0
ELLIPSE
  5
4D91
330
1E
100
AcDbEntity
  8
STEMPEL
100
AcDbEllipse
 10
345.7485449205551
 20
636.6174394693534
 30
0.0
 11
0.0
 21
-7.499999999999999
 31
0.0
210
0.0
220
0.0
230
1.0
 40
0.4999999999999926
 41
4.712388980384689
 42
7.853981633974482
  0
ELLIPSE
  5
4D92
330
1E
100
AcDbEntity
  8
STEMPEL
100
AcDbEllipse
 10
346.6166089402439
 20
636.6174394693534
 30
0.0
 11
0.0
 21
-7.499999999999999
 31
0.0
210
0.0
220
0.0
230
1.0
 40
0.4999999999999926
 41
4.712388980384689
 42
6.167183451052224
  0
LINE
  5
4D93
330
1E
100
AcDbEntity
  8
STEMPEL
100
AcDbLine
 10
342.8666089402441
 20
636.6174394693518
 30
0.0
 11
342.8666089402441
 21
661.6174394693534
 31
0.0
  0
LINE
  5
4D94
330
1E
100
AcDbEntity
  8
STEMPEL
100
AcDbLine
 10
341.9985449205551
 20
661.6174394693518
 30
0.0
 11
341.9985449205551
 21
636.6174394693534
 31
0.0
  0
LINE
  5
4D95
330
1E
100
AcDbEntity
  8
STEMPEL
100
AcDbLine
 10
349.498544920555
 20
661.6174394693518
 30
0.0
 11
349.498544920555
 21
636.617439469355
 31
0.0
  0
LINE
  5
4D96
330
1E
100
AcDbEntity
  8
STEMPEL
100
AcDbLine
 10
312.4415231159539
 20
661.6174394693518
 30
0.0
 11
312.4415231159539
 21
636.6174394693534
 31
0.0
  0
LINE
  5
4D97
330
1E
100
AcDbEntity
  8
STEMPEL
100
AcDbLine
 10
299.9523190546302
 20
661.6174394693518
 30
0.0
 11
299.9523190546302
 21
636.6174394693518
 31
0.0
  0
LINE
  5
4D98
330
1E
100
AcDbEntity
  8
STEMPEL
100
AcDbLine
 10
299.4511420591882
 20
661.6174394693518
 30
0.0
 11
299.4511420591882
 21
636.6174394693518
 31
0.0
  0
ELLIPSE
  5
4D99
330
1E
100
AcDbEntity
  8
STEMPEL
100
AcDbEllipse
 10
306.447509583013
 20
636.6174394693518
 30
0.0
 11
0.0
 21
-7.5
 31
0.0
210
0.0
220
0.0
230
1.0
 40
0.8660254037843856
 41
4.712388980384689
 42
6.24459510668465
  0
ELLIPSE
  5
4D9A
330
1E
100
AcDbEntity
  8
STEMPEL
100
AcDbEllipse
 10
305.9463325875711
 20
636.6174394693518
 30
0.0
 11
0.0
 21
-7.5
 31
0.0
210
0.0
220
0.0
230
1.0
 40
0.8660254037843856
 41
4.712388980384689
 42
7.853981633974482
  0
ELLIPSE
  5
4D9B
330
1E
100
AcDbEntity
  8
STEMPEL
100
AcDbEllipse
 10
305.9463325875711
 20
661.6174394693518
 30
0.0
 11
0.0
 21
7.5
 31
0.0
210
0.0
220
0.0
230
-1.0
 40
0.8660254037843856
 41
4.712388980384689
 42
7.853981633974482
  0
ELLIPSE
  5
4D9C
330
1E
100
AcDbEntity
  8
STEMPEL
100
AcDbEllipse
 10
306.447509583013
 20
661.6174394693518
 30
0.0
 11
0.0
 21
7.5
 31
0.0
210
0.0
220
0.0
230
-1.0
 40
0.8660254037843856
 41
4.712388980384689
 42
6.24459510668465
  0
HATCH
  5
4D9D
330
1E
100
AcDbEntity
  8
SCHRAFF
100
AcDbHatch
 10
0.0
 20
0.0
 30
0.0
210
0.0
220
0.0
230
1.0
  2
_U
 70
     0
 71
     0
 91
        5
 92
        7
 72
     1
 73
     1
 93
       39
 10
331.5754994138921
 20
694.1174394693514
 42
0.0
 10
277.0150140089487
 20
694.1174394693511
 42
-0.2679491924311848
 10
275.7159759032717
 20
694.8674394693512
 42
0.2859076546239628
 10
274.3169377975945
 20
695.6141024240608
 42
0.2859076546237491
 10
272.9178996919185
 20
694.8674394693512
 42
-0.2679491924311245
 10
271.6188615862418
 20
694.1174394693511
 42
0.0
 10
265.1650140089482
 20
694.1174394693511
 42
-0.2679491924311449
 10
263.8659759032715
 20
694.8674394693512
 42
0.2859076546238214
 10
262.466937797595
 20
695.6141024240608
 42
0.3607372083888889
 10
260.9145690427669
 20
694.4924394693511
 42
-0.3419987131196436
 10
260.4304461244909
 20
694.1174394693511
 42
0.0
 10
260.2416969318915
 20
694.1174394693511
 42
-0.341998713119513
 10
259.7575740136159
 20
694.4924394693511
 42
0.3419987131196436
 10
258.3052052587881
 20
695.6174394693512
 42
0.0
 10
251.5754994138919
 20
695.6174394693512
 42
0.0
 10
251.5754994138919
 20
694.6174394693512
 42
0.0
 10
258.3052052587882
 20
694.6174394693512
 42
-0.3419987131195064
 10
258.7893281770638
 20
694.2424394693512
 42
0.3596757619904947
 10
260.3360715281912
 20
693.1204112680225
 42
0.3596757619905158
 10
261.8828148793185
 20
694.2424394693512
 42
-0.3419987131196715
 10
262.3669377975945
 20
694.6174394693512
 42
0.0
 10
262.5669377975947
 20
694.6174394693512
 42
-0.267949192431149
 10
262.999950499487
 20
694.3674394693512
 42
0.2679491924311241
 10
265.1650140089482
 20
693.1174394693514
 42
0.0
 10
271.6188615862423
 20
693.1174394693514
 42
0.2679491924310771
 10
273.7839250957031
 20
694.3674394693509
 42
-0.2679491924312612
 10
274.2169377975954
 20
694.6174394693512
 42
0.0
 10
274.4169377975946
 20
694.6174394693512
 42
-0.2679491924313018
 10
274.8499504994874
 20
694.3674394693514
 42
0.2679491924311406
 10
277.0150140089486
 20
693.1174394693514
 42
0.0
 10
331.5754994138901
 20
693.1174394693514
 42
-0.1340385084113211
 10
334.1159990890686
 20
692.4239300824174
 42
0.0
 10
358.0948529820189
 20
678.4362769162326
 42
-0.2667503951500854
 10
360.575499413892
 20
674.1173815020358
 42
0.0
 10
360.575499413892
 20
669.1174394693514
 42
0.0
 10
361.5754994138921
 20
669.1174394693514
 42
0.0
 10
361.5754994138921
 20
674.1173815020356
 42
0.2662608607120724
 10
358.6081940355667
 20
679.2945200294143
 42
0.0
 10
334.5754994138403
 20
693.3135918920875
 42
0.1316524975848892
 97
        0
 92
        7
 72
     1
 73
     1
 93
        8
 10
361.5754994138921
 20
629.1174394693514
 42
0.0
 10
360.575499413892
 20
629.1174394693514
 42
0.0
 10
360.575499413892
 20
610.1174394693521
 42
0.4142135623731166
 10
366.575499413892
 20
604.1174394693516
 42
0.0
 10
369.575499413892
 20
604.1174394693516
 42
0.0
 10
369.5754994138919
 20
605.1174394693519
 42
0.0
 10
366.5754994138918
 20
605.1174394693521
 42
-0.4142135623730752
 10
361.5754994138921
 20
610.1174394693521
 42
0.0
 97
        0
 92
        7
 72
     0
 73
     1
 93
        4
 10
381.5754994138917
 20
605.1174394693516
 10
377.5754994138919
 20
605.1174394693518
 10
377.575499413892
 20
604.1174394693516
 10
381.5754994138919
 20
604.1174394693516
 97
        0
 92
        7
 72
     1
 73
     1
 93
        8
 10
142.5754994138919
 20
610.1174394693521
 42
0.0
 10
142.575499413892
 20
629.1174394693514
 42
0.0
 10
141.5754994138919
 20
629.1174394693514
 42
0.0
 10
141.5754994138918
 20
610.1174394693521
 42
-0.4142135623730909
 10
136.575499413892
 20
605.1174394693521
 42
0.0
 10
121.5754994138917
 20
605.1174394693516
 42
0.0
 10
121.5754994138916
 20
604.1174394693516
 42
0.0
 10
136.5754994138919
 20
604.1174394693516
 42
0.4142135623731175
 97
        0
 92
        7
 72
     1
 73
     1
 93
       40
 10
228.4789250957024
 20
694.3674394693512
 42
-0.2679491924310875
 10
228.9119377975946
 20
694.6174394693512
 42
0.0
 10
229.1119377975948
 20
694.6174394693512
 42
-0.2679491924312574
 10
229.5449504994873
 20
694.3674394693514
 42
0.267949192431145
 10
231.7100140089486
 20
693.1174394693512
 42
0.0
 10
233.768861586241
 20
693.1174394693512
 42
0.2679491924311416
 10
235.9339250957022
 20
694.3674394693514
 42
-0.2679491924310647
 10
236.3669377975944
 20
694.6174394693512
 42
0.0
 10
236.5669377975947
 20
694.6174394693512
 42
-0.267949192430994
 10
236.9999504994866
 20
694.3674394693512
 42
0.2679491924311175
 10
239.1650140089478
 20
693.1174394693512
 42
0.0
 10
245.6188615862419
 20
693.1174394693512
 42
0.2679491924310871
 10
247.7839250957028
 20
694.3674394693509
 42
-0.2679491924312534
 10
248.2169377975951
 20
694.6174394693512
 42
0.0
 10
251.5754994138919
 20
694.6174394693512
 42
0.0
 10
251.5754994138919
 20
695.6174394693512
 42
0.0
 10
248.2169377975946
 20
695.6174394693512
 42
0.2679491924310706
 10
246.9178996919183
 20
694.8674394693512
 42
-0.2679491924311357
 10
245.6188615862416
 20
694.1174394693511
 42
0.0
 10
239.1650140089477
 20
694.1174394693511
 42
-0.2679491924310962
 10
237.8659759032712
 20
694.8674394693512
 42
0.2859076546238522
 10
236.4669377975946
 20
695.6141024240608
 42
0.2859076546238809
 10
235.0678996919178
 20
694.8674394693512
 42
-0.2679491924311237
 10
233.7688615862412
 20
694.1174394693511
 42
0.0
 10
231.7100140089486
 20
694.1174394693511
 42
-0.2679491924311723
 10
230.4109759032717
 20
694.8674394693512
 42
0.2859076546238861
 10
229.0119377975949
 20
695.6141024240608
 42
0.2859076546239122
 10
227.612899691918
 20
694.8674394693512
 42
-0.267949192431137
 10
226.3138615862414
 20
694.1174394693511
 42
0.0
 10
171.5754994138918
 20
694.1174394693507
 42
0.1316524975836561
 10
168.5754994139682
 20
693.3135918921018
 42
0.0
 10
144.5428047921872
 20
679.2945200293968
 42
0.2662608607105233
 10
141.5754994138918
 20
674.1173815020361
 42
0.0
 10
141.5754994138918
 20
669.1174394693514
 42
0.0
 10
142.5754994138919
 20
669.1174394693514
 42
0.0
 10
142.5754994138919
 20
674.1173815020361
 42
-0.2667503951500889
 10
145.0561458457648
 20
678.4362769162323
 42
0.0
 10
169.0349997387057
 20
692.4239300824117
 42
-0.1340385084119114
 10
171.5754994138918
 20
693.1174394693512
 42
0.0
 10
226.3138615862413
 20
693.1174394693512
 42
0.2679491924311331
 97
        0
 75
     0
 76
     0
 52
45.0
 41
2.0
 77
     0
 78
     1
 53
45.0
 43
17.09098303921425
 44
175.5892295611921
 45
-1.414213562373094
 46
1.414213562373095
 79
     0
 47
0.2376111440341236
 98
        5
 10
313.6855770756181
 20
693.9122622522693
 10
361.3662913876094
 20
620.2479673738642
 10
379.8961672872786
 20
604.9000463422771
 10
128.4484903114118
 20
604.4763060111518
 10
178.8668009088217
 20
693.8180985320025
  0
LINE
  5
4DA0
330
1E
100
AcDbEntity
  8
STEMPEL
100
AcDbLine
 10
327.9754994138917
 20
602.1174394693505
 30
0.0
 11
327.9754994138917
 21
600.1174394693511
 31
0.0
  0
LINE
  5
4DA1
330
1E
100
AcDbEntity
  8
STEMPEL
100
AcDbLine
 10
326.9754994138917
 20
603.1174394693508
 30
0.0
 11
318.9754994138917
 21
603.1174394693508
 31
0.0
  0
LINE
  5
4DA2
330
1E
100
AcDbEntity
  8
HILF
100
AcDbLine
 10
318.9754994138917
 20
603.1174394693506
 30
0.0
 11
318.9754994138917
 21
601.7174394693442
 31
0.0
  0
LINE
  5
4DA3
330
1E
100
AcDbEntity
  8
HILF
100
AcDbLine
 10
326.9754994138917
 20
603.1174394693508
 30
0.0
 11
326.9754994138917
 21
600.1174394693511
 31
0.0
  0
LINE
  5
4DA4
330
1E
100
AcDbEntity
  8
STEMPEL
100
AcDbLine
 10
318.9754994138917
 20
603.1174394693508
 30
0.0
 11
318.906646954875
 21
603.048587010334
 31
0.0
  0
LINE
  5
4DA5
330
1E
100
AcDbEntity
  8
STEMPEL
100
AcDbLine
 10
318.954809758719
 20
602.1174394693506
 30
0.0
 11
327.9754994138915
 21
602.1174394693507
 31
0.0
  0
LINE
  5
4DA6
330
1E
100
AcDbEntity
  8
STEMPEL
100
AcDbLine
 10
327.9754994138917
 20
602.1174394693507
 30
0.0
 11
326.9754994138917
 21
603.1174394693508
 31
0.0
  0
LINE
  5
4DA7
330
1E
100
AcDbEntity
  8
STEMPEL
100
AcDbLine
 10
327.975499413892
 20
584.1174394693503
 30
0.0
 11
327.975499413892
 21
581.1174394693507
 31
0.0
  0
LINE
  5
4DA8
330
1E
100
AcDbEntity
  8
HILF
100
AcDbLine
 10
326.9754994138919
 20
584.1174394693503
 30
0.0
 11
326.9754994138919
 21
581.1174394693507
 31
0.0
  0
LINE
  5
4DA9
330
1E
100
AcDbEntity
  8
HILF
100
AcDbLine
 10
318.9754994138919
 20
584.1174394693503
 30
0.0
 11
318.9754994138919
 21
581.1174394693507
 31
0.0
  0
LINE
  5
4DAA
330
1E
100
AcDbEntity
  8
STEMPEL
100
AcDbLine
 10
317.975499413892
 20
584.1174394693503
 30
0.0
 11
317.975499413892
 21
581.1174394693507
 31
0.0
  0
LWPOLYLINE
  5
4DAB
330
1E
100
AcDbEntity
  8
STEMPEL
100
AcDbPolyline
 90
       10
 70
   128
 43
0.0
 10
-327.3859848000039
 20
604.1174394693528
 10
-326.749980440003
 20
604.2085929512795
 10
-326.1333007506469
 20
604.4792837446372
 10
-325.5546832322418
 20
604.9212870466463
 10
-325.03170888529
 20
605.521172810639
 10
-324.5802680206855
 20
606.2607138112337
 10
-324.2140774406595
 20
607.117439469353
 10
-323.9442636606846
 20
608.0653186093991
 10
-323.7790248359329
 20
609.0755504033515
 10
-323.7233816644798
 20
610.1174394693532
210
0.0
220
0.0
230
-1.0
  0
LWPOLYLINE
  5
4DAC
330
1E
100
AcDbEntity
  8
STEMPEL
100
AcDbPolyline
 90
        8
 70
   128
 43
0.0
 10
157.3036373679546
 20
604.1174394693509
 10
158.5573713835175
 20
604.9212870466444
 10
159.1804545575639
 20
605.5211728106372
 10
159.7183111626754
 20
606.2607138112319
 10
160.1545986980743
 20
607.1174394693512
 10
160.4760607877696
 20
608.0653186093972
 10
160.6729299688336
 20
609.0755504033498
 10
160.7392244708204
 20
610.1174394693514
  0
LINE
  5
4DAD
330
1E
100
AcDbEntity
  8
STEMPEL
100
AcDbLine
 10
158.7611089640258
 20
605.1174394693516
 30
0.0
 11
167.1238481906134
 21
605.1174394693516
 31
0.0
  0
LINE
  5
4DAE
330
1E
100
AcDbEntity
  8
STEMPEL
100
AcDbLine
 10
166.5754994138919
 20
590.117439469351
 30
0.0
 11
166.5754994138919
 21
578.1174394693502
 31
0.0
  0
LINE
  5
4DAF
330
1E
100
AcDbEntity
  8
HILF
100
AcDbLine
 10
165.5754994138919
 20
590.117439469351
 30
0.0
 11
165.5754994138919
 21
578.1174394693502
 31
0.0
  0
LINE
  5
4DB0
330
1E
100
AcDbEntity
  8
STEMPEL
100
AcDbLine
 10
156.5754994138919
 20
590.1174394693509
 30
0.0
 11
156.5754994138919
 21
578.1174394693502
 31
0.0
  0
LINE
  5
4DB1
330
1E
100
AcDbEntity
  8
HILF
100
AcDbLine
 10
157.5754994138919
 20
590.117439469351
 30
0.0
 11
157.5754994138919
 21
578.1174394693502
 31
0.0
  0
LINE
  5
4DB3
330
1E
100
AcDbEntity
  8
STEMPEL
100
AcDbLine
 10
168.0754994138918
 20
590.117439469351
 30
0.0
 11
168.0754994138918
 21
584.1174394693503
 31
0.0
  0
LINE
  5
4DB4
330
1E
100
AcDbEntity
  8
STEMPEL
100
AcDbLine
 10
155.0754994138918
 20
590.117439469351
 30
0.0
 11
155.0754994138917
 21
584.1174394693504
 31
0.0
  0
LINE
  5
4DB5
330
1E
100
AcDbEntity
  8
HILF
100
AcDbLine
 10
210.5754994138919
 20
584.1174394693503
 30
0.0
 11
210.5754994138919
 21
581.1174394693503
 31
0.0
  0
LINE
  5
4DB6
330
1E
100
AcDbEntity
  8
STEMPEL
100
AcDbLine
 10
211.5754994138918
 20
584.1174394693503
 30
0.0
 11
211.5754994138919
 21
581.1174394693503
 31
0.0
  0
LINE
  5
4DB7
330
1E
100
AcDbEntity
  8
HILF
100
AcDbLine
 10
202.5754994138919
 20
584.1174394693503
 30
0.0
 11
202.5754994138919
 21
581.1174394693503
 31
0.0
  0
LINE
  5
4DB8
330
1E
100
AcDbEntity
  8
STEMPEL
100
AcDbLine
 10
201.5754994138919
 20
584.1174394693503
 30
0.0
 11
201.5754994138919
 21
581.1174394693503
 31
0.0
  0
LINE
  5
4DB9
330
1E
100
AcDbEntity
  8
STEMPEL
100
AcDbLine
 10
166.5754994138919
 20
602.1174394693503
 30
0.0
 11
165.5754994138919
 21
603.1174394693502
 31
0.0
  0
LINE
  5
4DBA
330
1E
100
AcDbEntity
  8
STEMPEL
100
AcDbLine
 10
157.5754994138919
 20
603.1174394693502
 30
0.0
 11
156.5754994138919
 21
602.1174394693503
 31
0.0
  0
LINE
  5
4DBB
330
1E
100
AcDbEntity
  8
STEMPEL
100
AcDbLine
 10
165.5754994138919
 20
603.1174394693502
 30
0.0
 11
157.5754994138919
 21
603.1174394693502
 31
0.0
  0
LINE
  5
4DBC
330
1E
100
AcDbEntity
  8
STEMPEL
100
AcDbLine
 10
156.5754994138919
 20
602.1174394693503
 30
0.0
 11
166.5754994138916
 21
602.1174394693503
 31
0.0
  0
LINE
  5
4DBD
330
1E
100
AcDbEntity
  8
MITTEL
100
AcDbLine
 10
161.5754994138919
 20
608.1174394693503
 30
0.0
 11
161.5754994138919
 21
573.1174394693498
 31
0.0
  0
LINE
  5
4DBE
330
1E
100
AcDbEntity
  8
HILF
100
AcDbLine
 10
157.5754994138919
 20
603.1174394693502
 30
0.0
 11
157.5754994138919
 21
600.1174394693509
 31
0.0
  0
LINE
  5
4DBF
330
1E
100
AcDbEntity
  8
STEMPEL
100
AcDbLine
 10
156.5754994138919
 20
602.1174394693503
 30
0.0
 11
156.5754994138919
 21
600.1174394693509
 31
0.0
  0
LINE
  5
4DC0
330
1E
100
AcDbEntity
  8
HILF
100
AcDbLine
 10
165.5754994138919
 20
603.1174394693502
 30
0.0
 11
165.5754994138919
 21
600.1174394693509
 31
0.0
  0
LINE
  5
4DC1
330
1E
100
AcDbEntity
  8
STEMPEL
100
AcDbLine
 10
166.5754994138919
 20
602.1174394693502
 30
0.0
 11
166.5754994138919
 21
600.1174394693509
 31
0.0
  0
LINE
  5
4DC2
330
1E
100
AcDbEntity
  8
MITTEL
100
AcDbLine
 10
206.5754994138917
 20
590.117439469351
 30
0.0
 11
206.5754994138917
 21
573.1174394693498
 31
0.0
  0
LINE
  5
4DCA
330
1E
100
AcDbEntity
  8
STEMPEL
100
AcDbLine
 10
150.9017993179632
 20
605.1174394693521
 30
0.0
 11
148.7863918983616
 21
605.1174394693521
 31
0.0
  0
ARC
  5
4DCC
330
1E
100
AcDbEntity
  8
STEMPEL
100
AcDbCircle
 10
355.575499413892
 20
674.1173815020361
 30
0.0
 40
6.0
100
AcDbArc
 50
0.0
 51
59.74358352518254
  0
ARC
  5
4DCD
330
1E
100
AcDbEntity
  8
STEMPEL
100
AcDbCircle
 10
361.0866430182036
 20
683.6372764518134
 30
0.0
 40
5.0
100
AcDbArc
 50
239.7435628364698
 51
239.9329541615142
  0
ARC
  5
4DCE
330
1E
100
AcDbEntity
  8
STEMPEL
100
AcDbCircle
 10
355.575499413892
 20
674.1173815020361
 30
0.0
 40
5.0
100
AcDbArc
 50
0.0
 51
59.74358352518254
  0
ARC
  5
4DCF
330
1E
100
AcDbEntity
  8
STEMPEL
100
AcDbCircle
 10
331.5754994138921
 20
688.1174394693512
 30
0.0
 40
6.0
100
AcDbArc
 50
90.0
 51
90.0
  0
ARC
  5
4DD0
330
1E
100
AcDbEntity
  8
STEMPEL
100
AcDbCircle
 10
331.5754994138921
 20
688.1174394693512
 30
0.0
 40
5.0
100
AcDbArc
 50
59.46264995169811
 51
90.0
  0
ARC
  5
4DD1
330
1E
100
AcDbEntity
  8
STEMPEL
100
AcDbCircle
 10
331.5754994138921
 20
688.1174394693512
 30
0.0
 40
6.0
100
AcDbArc
 50
59.48712567237889
 51
90.0
  0
LINE
  5
4DD2
330
1E
100
AcDbEntity
  8
STEMPEL
100
AcDbLine
 10
358.6081940355999
 20
679.2945200293949
 30
0.0
 11
334.621891160133
 21
693.2865300400835
 31
0.0
  0
LINE
  5
4DD3
330
1E
100
AcDbEntity
  8
STEMPEL
100
AcDbLine
 10
358.0948529820191
 20
678.4362769162323
 30
0.0
 11
334.1159990890679
 21
692.4239300824178
 31
0.0
  0
ARC
  5
4DD4
330
1E
100
AcDbEntity
  8
STEMPEL
100
AcDbCircle
 10
274.4169377975946
 20
694.1174394693511
 30
0.0
 40
1.5
100
AcDbArc
 50
29.99999999999246
 51
90.0
  0
ARC
  5
4DD5
330
1E
100
AcDbEntity
  8
STEMPEL
100
AcDbCircle
 10
274.4169377975946
 20
694.1174394693511
 30
0.0
 40
0.5
100
AcDbArc
 50
29.99999999999246
 51
90.0
  0
LINE
  5
4DD6
330
1E
100
AcDbEntity
  8
STEMPEL
100
AcDbLine
 10
274.2169377975946
 20
694.6174394693512
 30
0.0
 11
274.4169377975946
 21
694.6174394693512
 31
0.0
  0
ARC
  5
4DD7
330
1E
100
AcDbEntity
  8
STEMPEL
100
AcDbCircle
 10
274.2169377975946
 20
694.1174394693511
 30
0.0
 40
0.5
100
AcDbArc
 50
90.0
 51
149.9999999999922
  0
ARC
  5
4DD8
330
1E
100
AcDbEntity
  8
STEMPEL
100
AcDbCircle
 10
274.2169377975946
 20
694.1174394693511
 30
0.0
 40
1.5
100
AcDbArc
 50
90.0
 51
149.9999999999922
  0
ARC
  5
4DD9
330
1E
100
AcDbEntity
  8
STEMPEL
100
AcDbCircle
 10
277.0150140089487
 20
695.6174394693512
 30
0.0
 40
1.5
100
AcDbArc
 50
209.9999999999925
 51
270.0
  0
ARC
  5
4DDA
330
1E
100
AcDbEntity
  8
STEMPEL
100
AcDbCircle
 10
277.0150140089487
 20
695.6174394693512
 30
0.0
 40
2.5
100
AcDbArc
 50
209.9999999999925
 51
270.0
  0
LINE
  5
4DDB
330
1E
100
AcDbEntity
  8
STEMPEL
100
AcDbLine
 10
265.1650140089482
 20
694.1174394693511
 30
0.0
 11
271.6188615862423
 21
694.1174394693511
 31
0.0
  0
LINE
  5
4DDC
330
1E
100
AcDbEntity
  8
STEMPEL
100
AcDbLine
 10
265.1650140089482
 20
694.1174394693514
 30
0.0
 11
271.6188615862423
 21
694.1174394693514
 31
0.0
  0
ARC
  5
4DDD
330
1E
100
AcDbEntity
  8
STEMPEL
100
AcDbCircle
 10
262.5669377975947
 20
694.1174394693511
 30
0.0
 40
0.5
100
AcDbArc
 50
29.99999999999973
 51
90.0
  0
LINE
  5
4DDE
330
1E
100
AcDbEntity
  8
STEMPEL
100
AcDbLine
 10
262.3669377975947
 20
694.6174394693514
 30
0.0
 11
262.5669377975947
 21
694.6174394693514
 31
0.0
  0
ARC
  5
4DDF
330
1E
100
AcDbEntity
  8
STEMPEL
100
AcDbCircle
 10
262.3669377975947
 20
694.1174394693511
 30
0.0
 40
0.5
100
AcDbArc
 50
90.0
 51
165.5224878140701
  0
LINE
  5
4DE0
330
1E
100
AcDbEntity
  8
STEMPEL
100
AcDbLine
 10
260.2416969318915
 20
694.1174394693511
 30
0.0
 11
260.4304461244907
 21
694.1174394693511
 31
0.0
  0
ARC
  5
4DE1
330
1E
100
AcDbEntity
  8
STEMPEL
100
AcDbCircle
 10
260.4304461244907
 20
694.6174394693512
 30
0.0
 40
0.5
100
AcDbArc
 50
270.0
 51
345.5224878140701
  0
ARC
  5
4DE2
330
1E
100
AcDbEntity
  8
STEMPEL
100
AcDbCircle
 10
262.3669377975947
 20
694.1174394693511
 30
0.0
 40
1.5
100
AcDbArc
 50
90.0
 51
165.5224878140701
  0
ARC
  5
4DE3
330
1E
100
AcDbEntity
  8
STEMPEL
100
AcDbCircle
 10
262.5669377975947
 20
694.1174394693511
 30
0.0
 40
1.5
100
AcDbArc
 50
29.99999999999973
 51
90.0
  0
ARC
  5
4DE4
330
1E
100
AcDbEntity
  8
STEMPEL
100
AcDbCircle
 10
258.3052052587882
 20
694.1174394693511
 30
0.0
 40
1.5
100
AcDbArc
 50
14.47751218592986
 51
90.0
  0
ARC
  5
4DE5
330
1E
100
AcDbEntity
  8
STEMPEL
100
AcDbCircle
 10
258.3052052587882
 20
694.1174394693511
 30
0.0
 40
0.5
100
AcDbArc
 50
14.47751218592986
 51
90.0
  0
ARC
  5
4DE6
330
1E
100
AcDbEntity
  8
STEMPEL
100
AcDbCircle
 10
260.2416969318915
 20
694.6174394693512
 30
0.0
 40
0.5
100
AcDbArc
 50
194.4775121859299
 51
270.0
  0
ARC
  5
4DE7
330
1E
100
AcDbEntity
  8
STEMPEL
100
AcDbCircle
 10
265.1650140089482
 20
695.6174394693512
 30
0.0
 40
1.5
100
AcDbArc
 50
209.9999999999997
 51
270.0
  0
ARC
  5
4DE8
330
1E
100
AcDbEntity
  8
STEMPEL
100
AcDbCircle
 10
265.1650140089482
 20
695.6174394693512
 30
0.0
 40
2.5
100
AcDbArc
 50
209.9999999999997
 51
270.0
  0
ARC
  5
4DE9
330
1E
100
AcDbEntity
  8
STEMPEL
100
AcDbCircle
 10
260.4304461244907
 20
694.6174394693512
 30
0.0
 40
1.5
100
AcDbArc
 50
270.0
 51
345.5224878140701
  0
ARC
  5
4DEA
330
1E
100
AcDbEntity
  8
STEMPEL
100
AcDbCircle
 10
260.2416969318915
 20
694.6174394693512
 30
0.0
 40
1.5
100
AcDbArc
 50
194.4775121859299
 51
270.0
  0
ARC
  5
4DEB
330
1E
100
AcDbEntity
  8
STEMPEL
100
AcDbCircle
 10
271.6188615862423
 20
695.6174394693512
 30
0.0
 40
2.5
100
AcDbArc
 50
270.0
 51
329.9999999999922
  0
ARC
  5
4DEC
330
1E
100
AcDbEntity
  8
STEMPEL
100
AcDbCircle
 10
271.6188615862423
 20
695.6174394693512
 30
0.0
 40
1.5
100
AcDbArc
 50
270.0
 51
329.9999999999922
  0
ARC
  5
4DED
330
1E
100
AcDbEntity
  8
STEMPEL
100
AcDbCircle
 10
248.2169377975946
 20
694.1174394693511
 30
0.0
 40
0.5
100
AcDbArc
 50
90.0
 51
149.9999999999922
  0
ARC
  5
4DEE
330
1E
100
AcDbEntity
  8
STEMPEL
100
AcDbCircle
 10
245.6188615862419
 20
695.6174394693512
 30
0.0
 40
1.5
100
AcDbArc
 50
270.0
 51
329.9999999999922
  0
ARC
  5
4DEF
330
1E
100
AcDbEntity
  8
STEMPEL
100
AcDbCircle
 10
248.2169377975946
 20
694.1174394693511
 30
0.0
 40
1.5
100
AcDbArc
 50
90.0
 51
149.9999999999922
  0
ARC
  5
4DF0
330
1E
100
AcDbEntity
  8
STEMPEL
100
AcDbCircle
 10
245.6188615862419
 20
695.6174394693512
 30
0.0
 40
2.5
100
AcDbArc
 50
270.0
 51
329.9999999999922
  0
ARC
  5
4DF1
330
1E
100
AcDbEntity
  8
STEMPEL
100
AcDbCircle
 10
236.5669377975947
 20
694.1174394693511
 30
0.0
 40
1.5
100
AcDbArc
 50
29.99999999999973
 51
90.0
  0
ARC
  5
4DF2
330
1E
100
AcDbEntity
  8
STEMPEL
100
AcDbCircle
 10
236.5669377975947
 20
694.1174394693511
 30
0.0
 40
0.5
100
AcDbArc
 50
29.99999999999973
 51
90.0
  0
LINE
  5
4DF3
330
1E
100
AcDbEntity
  8
STEMPEL
100
AcDbLine
 10
236.3669377975947
 20
694.6174394693514
 30
0.0
 11
236.5669377975947
 21
694.6174394693514
 31
0.0
  0
ARC
  5
4DF4
330
1E
100
AcDbEntity
  8
STEMPEL
100
AcDbCircle
 10
236.3669377975947
 20
694.1174394693511
 30
0.0
 40
0.5
100
AcDbArc
 50
90.0
 51
150.0000000000075
  0
ARC
  5
4DF5
330
1E
100
AcDbEntity
  8
STEMPEL
100
AcDbCircle
 10
239.1650140089477
 20
695.6174394693512
 30
0.0
 40
1.5
100
AcDbArc
 50
209.9999999999997
 51
270.0
  0
ARC
  5
4DF6
330
1E
100
AcDbEntity
  8
STEMPEL
100
AcDbCircle
 10
233.768861586241
 20
695.6174394693512
 30
0.0
 40
1.5
100
AcDbArc
 50
270.0
 51
330.0000000000076
  0
ARC
  5
4DF7
330
1E
100
AcDbEntity
  8
STEMPEL
100
AcDbCircle
 10
236.3669377975947
 20
694.1174394693511
 30
0.0
 40
1.5
100
AcDbArc
 50
90.0
 51
150.0000000000075
  0
ARC
  5
4DF8
330
1E
100
AcDbEntity
  8
STEMPEL
100
AcDbCircle
 10
228.9119377975948
 20
694.1174394693511
 30
0.0
 40
1.5
100
AcDbArc
 50
90.0
 51
149.9999999999994
  0
ARC
  5
4DF9
330
1E
100
AcDbEntity
  8
STEMPEL
100
AcDbCircle
 10
229.1119377975948
 20
694.1174394693511
 30
0.0
 40
1.5
100
AcDbArc
 50
29.99999999999246
 51
90.0
  0
ARC
  5
4DFA
330
1E
100
AcDbEntity
  8
STEMPEL
100
AcDbCircle
 10
229.1119377975948
 20
694.1174394693511
 30
0.0
 40
0.5
100
AcDbArc
 50
29.99999999999973
 51
90.0
  0
LINE
  5
4DFB
330
1E
100
AcDbEntity
  8
STEMPEL
100
AcDbLine
 10
228.9119377975948
 20
694.6174394693512
 30
0.0
 11
229.1119377975948
 21
694.6174394693512
 31
0.0
  0
ARC
  5
4DFC
330
1E
100
AcDbEntity
  8
STEMPEL
100
AcDbCircle
 10
228.9119377975948
 20
694.1174394693511
 30
0.0
 40
0.5
100
AcDbArc
 50
90.0
 51
149.9999999999994
  0
ARC
  5
4DFD
330
1E
100
AcDbEntity
  8
STEMPEL
100
AcDbCircle
 10
226.3138615862413
 20
695.6174394693512
 30
0.0
 40
1.5
100
AcDbArc
 50
270.0
 51
330.0000000000003
  0
ARC
  5
4DFE
330
1E
100
AcDbEntity
  8
STEMPEL
100
AcDbCircle
 10
231.7100140089487
 20
695.6174394693512
 30
0.0
 40
1.5
100
AcDbArc
 50
209.9999999999925
 51
270.0
  0
LINE
  5
4DFF
330
1E
100
AcDbEntity
  8
STEMPEL
100
AcDbLine
 10
231.7100140089487
 20
694.1174394693511
 30
0.0
 11
233.768861586241
 21
694.1174394693511
 31
0.0
  0
LINE
  5
4E00
330
1E
100
AcDbEntity
  8
STEMPEL
100
AcDbLine
 10
231.7100140089487
 20
694.1174394693511
 30
0.0
 11
233.768861586241
 21
694.1174394693511
 31
0.0
  0
ARC
  5
4E01
330
1E
100
AcDbEntity
  8
STEMPEL
100
AcDbCircle
 10
231.7100140089487
 20
695.6174394693512
 30
0.0
 40
2.5
100
AcDbArc
 50
209.9999999999925
 51
270.0
  0
ARC
  5
4E02
330
1E
100
AcDbEntity
  8
STEMPEL
100
AcDbCircle
 10
226.3138615862413
 20
695.6174394693512
 30
0.0
 40
2.5
100
AcDbArc
 50
270.0
 51
330.0000000000003
  0
ARC
  5
4E03
330
1E
100
AcDbEntity
  8
STEMPEL
100
AcDbCircle
 10
239.1650140089477
 20
695.6174394693512
 30
0.0
 40
2.5
100
AcDbArc
 50
209.9999999999997
 51
270.0
  0
ARC
  5
4E04
330
1E
100
AcDbEntity
  8
STEMPEL
100
AcDbCircle
 10
233.768861586241
 20
695.6174394693512
 30
0.0
 40
2.5
100
AcDbArc
 50
270.0
 51
330.0000000000076
  0
LINE
  5
4E05
330
1E
100
AcDbEntity
  8
STEMPEL
100
AcDbLine
 10
239.1650140089477
 20
694.1174394693511
 30
0.0
 11
245.6188615862419
 21
694.1174394693511
 31
0.0
  0
LINE
  5
4E06
330
1E
100
AcDbEntity
  8
STEMPEL
100
AcDbLine
 10
239.1650140089477
 20
694.1174394693511
 30
0.0
 11
245.6188615862419
 21
694.1174394693511
 31
0.0
  0
LINE
  5
4E07
330
1E
100
AcDbEntity
  8
STEMPEL
100
AcDbLine
 10
228.9119377975948
 20
695.6174394693512
 30
0.0
 11
274.4169377975946
 21
695.6174394693512
 31
0.0
  0
LINE
  5
4E08
330
1E
100
AcDbEntity
  8
STEMPEL
100
AcDbLine
 10
248.2169377975946
 20
694.6174394693514
 30
0.0
 11
258.3052052587882
 21
694.6174394693514
 31
0.0
  0
ARC
  5
4E09
330
1E
100
AcDbEntity
  8
STEMPEL
100
AcDbCircle
 10
171.5754994138919
 20
688.1174394693512
 30
0.0
 40
6.0
100
AcDbArc
 50
90.0
 51
90.0
  0
ARC
  5
4E0A
330
1E
100
AcDbEntity
  8
STEMPEL
100
AcDbCircle
 10
171.5754994138919
 20
688.1174394693512
 30
0.0
 40
6.0
100
AcDbArc
 50
90.0
 51
120.5128743276211
  0
ARC
  5
4E0B
330
1E
100
AcDbEntity
  8
STEMPEL
100
AcDbCircle
 10
171.5754994138919
 20
688.1174394693512
 30
0.0
 40
5.0
100
AcDbArc
 50
90.0
 51
120.5373500483019
  0
LINE
  5
4E0C
330
1E
100
AcDbEntity
  8
STEMPEL
100
AcDbLine
 10
171.5754994138919
 20
694.117439469351
 30
0.0
 11
226.3138615862413
 21
694.1174394693511
 31
0.0
  0
LINE
  5
4E0D
330
1E
100
AcDbEntity
  8
STEMPEL
100
AcDbLine
 10
277.0150140089487
 20
694.1174394693514
 30
0.0
 11
331.5754994138921
 21
694.1174394693517
 31
0.0
  0
LINE
  5
4E0E
330
1E
100
AcDbEntity
  8
STEMPEL
100
AcDbLine
 10
171.5754994138919
 20
693.117439469351
 30
0.0
 11
331.5754994138921
 21
693.1174394693516
 31
0.0
  0
LWPOLYLINE
  5
4E0F
330
1E
100
AcDbEntity
  8
STEMPEL
100
AcDbPolyline
 90
        7
 70
   128
 43
0.0
 10
359.8837550879756
 20
623.0794935251897
 10
359.7459260784053
 20
622.3273872882511
 10
359.6270618014391
 20
621.4046736775363
 10
359.5307137995379
 20
620.338922427632
 10
359.4597608519998
 20
619.1619770908109
 10
359.4163229599918
 20
617.9090035844092
 10
359.4016980030942
 20
616.6174394693499
  0
LWPOLYLINE
  5
4E10
330
1E
100
AcDbEntity
  8
STEMPEL
100
AcDbPolyline
 90
       18
 70
   128
 43
0.0
 10
360.3658121728567
 20
616.6174394693499
 10
360.3491437493799
 20
617.9955608529744
 10
360.2997061021195
 20
619.326751965754
 10
360.2191827708591
 20
620.5656806909307
 10
360.1103158810674
 20
621.6701567967
 10
359.9768127641052
 20
622.6025686739529
 10
359.823219708501
 20
623.3311641545142
 10
359.654767141549
 20
623.8311317931475
 10
359.47719151338
 20
624.0854457915641
 10
359.296539949033
 20
624.0854457915641
 10
359.118964320864
 20
623.8311317931475
 10
358.950511753912
 20
623.3311641545142
 10
358.7969186983079
 20
622.6025686739529
 10
358.6634155813456
 20
621.6701567967
 10
358.5545486915539
 20
620.5656806909307
 10
358.4740253602935
 20
619.326751965754
 10
358.4245877130332
 20
617.9955608529744
 10
358.4079192895563
 20
616.6174394693499
  0
LWPOLYLINE
  5
4E11
330
1E
100
AcDbEntity
  8
STEMPEL
100
AcDbPolyline
 90
        9
 70
   128
 43
0.0
 10
352.5027264516361
 20
624.019197714015
 10
352.0136659083673
 20
623.6927648162575
 10
351.5540529404664
 20
623.1474958030003
 10
351.1381031368421
 20
622.4002555598722
 10
350.7786816075505
 20
621.4741558370946
 10
350.486905072663
 20
620.3978404151244
 10
350.2717980279249
 20
619.2045991674936
 10
350.1400136218174
 20
617.9313384224179
 10
350.0956278771525
 20
616.6174394693514
  0
LWPOLYLINE
  5
4E12
330
1E
100
AcDbEntity
  8
STEMPEL
100
AcDbPolyline
 90
       18
 70
   128
 43
0.0
 10
354.9098250261229
 20
616.6174394693499
 10
354.8609556812067
 20
617.9955608529744
 10
354.7160118333866
 20
619.326751965754
 10
354.4799293715594
 20
620.5656806909307
 10
354.1607478008127
 20
621.6701567967
 10
353.7693364667223
 20
622.6025686739529
 10
353.3190244128243
 20
623.3311641545142
 10
352.8251464760249
 20
623.8311317931475
 10
352.3045210771199
 20
624.0854457915641
 10
351.7748774896481
 20
624.0854457915641
 10
351.2542520907432
 20
623.8311317931475
 10
350.7603741539437
 20
623.3311641545142
 10
350.3100621000458
 20
622.6025686739529
 10
349.9186507659554
 20
621.6701567967
 10
349.5994691952087
 20
620.5656806909307
 10
349.3633867333815
 20
619.326751965754
 10
349.2184428855614
 20
617.9955608529744
 10
349.1695735406452
 20
616.6174394693499
  0
LINE
  5
4E13
330
1E
100
AcDbEntity
  8
STEMPEL
100
AcDbLine
 10
381.5754994138917
 20
605.1174394693519
 30
0.0
 11
381.5754994138919
 21
604.1174394693516
 31
0.0
  0
LINE
  5
4E1B
330
1E
100
AcDbEntity
  8
STEMPEL
100
AcDbLine
 10
377.5754994138919
 20
605.1174394693516
 30
0.0
 11
377.5754994138919
 21
604.1174394693516
 31
0.0
  0
LINE
  5
4E21
330
1E
100
AcDbEntity
  8
STEMPEL
100
AcDbLine
 10
369.5754994138919
 20
605.1174394693521
 30
0.0
 11
369.5754994138919
 21
604.1174394693516
 31
0.0
  0
LINE
  5
4E25
330
1E
100
AcDbEntity
  8
STEMPEL
100
AcDbLine
 10
379.5754994138919
 20
605.1174394693516
 30
0.0
 11
367.5754994138917
 21
605.1174394693521
 31
0.0
  0
LINE
  5
4E27
330
1E
100
AcDbEntity
  8
STEMPEL
100
AcDbLine
 10
375.9254994138919
 20
590.717439469352
 30
0.0
 11
376.5754994138918
 21
591.3674394693519
 31
0.0
  0
LINE
  5
4E29
330
1E
100
AcDbEntity
  8
STEMPEL
100
AcDbLine
 10
370.5754994138918
 20
591.3674394693519
 30
0.0
 11
371.2254994138918
 21
590.717439469352
 31
0.0
  0
LINE
  5
4E2A
330
1E
100
AcDbEntity
  8
STEMPEL
100
AcDbLine
 10
370.5754994138918
 20
591.3674394693519
 30
0.0
 11
376.5754994138918
 21
591.3674394693519
 31
0.0
  0
LINE
  5
4E2B
330
1E
100
AcDbEntity
  8
STEMPEL
100
AcDbLine
 10
371.2254994138918
 20
590.717439469352
 30
0.0
 11
375.9254994138919
 21
590.717439469352
 31
0.0
  0
LINE
  5
4E2C
330
1E
100
AcDbEntity
  8
STEMPEL
100
AcDbLine
 10
376.5754994138918
 20
605.1174394693519
 30
0.0
 11
376.5754994138918
 21
591.3674394693519
 31
0.0
  0
LINE
  5
4E2D
330
1E
100
AcDbEntity
  8
HILF
100
AcDbLine
 10
375.9254994138919
 20
590.717439469352
 30
0.0
 11
375.9254994138919
 21
605.1174394693519
 31
0.0
  0
LINE
  5
4E2E
330
1E
100
AcDbEntity
  8
STEMPEL
100
AcDbLine
 10
370.5754994138918
 20
605.1174394693519
 30
0.0
 11
370.5754994138918
 21
591.3674394693519
 31
0.0
  0
LINE
  5
4E2F
330
1E
100
AcDbEntity
  8
HILF
100
AcDbLine
 10
371.2254994138918
 20
590.717439469352
 30
0.0
 11
371.2254994138918
 21
605.1174394693519
 31
0.0
  0
LWPOLYLINE
  5
4E34
330
1E
100
AcDbEntity
  8
STEMPEL
100
AcDbPolyline
 90
        7
 70
   128
 43
0.0
 10
-362.022157186765
 20
605.1174394693521
 10
-361.3454553116876
 20
605.7270401972111
 10
-360.7459058880536
 20
606.4545992811227
 10
-360.239617214904
 20
607.280569142803
 10
-359.8401919228584
 20
608.1827581680061
 10
-359.5583615075955
 20
609.1369269361998
 10
-359.401698003094
 20
610.1174394693521
210
0.0
220
0.0
230
-1.0
  0
LWPOLYLINE
  5
4E35
330
1E
100
AcDbEntity
  8
STEMPEL
100
AcDbPolyline
 90
       10
 70
   128
 43
0.0
 10
-363.9139080205871
 20
604.1174394693516
 10
-363.0558350243143
 20
604.1835666839242
 10
-362.2030228246921
 20
604.4361204336545
 10
-361.3822645177751
 20
604.867166149972
 10
-360.619346151376
 20
605.4631615204121
 10
-359.9382365958769
 20
606.2053819521326
 10
-359.3603345059312
 20
607.0705088489301
 10
-358.903796031525
 20
608.031362219646
 10
-358.5829643999274
 20
609.0577546013583
 10
-358.4079192895563
 20
610.117439469351
210
0.0
220
0.0
230
-1.0
  0
LINE
  5
4E36
330
1E
100
AcDbEntity
  8
STEMPEL
100
AcDbLine
 10
362.9862713565274
 20
605.1174394693516
 30
0.0
 11
362.0221571867647
 21
605.1174394693516
 31
0.0
  0
LWPOLYLINE
  5
4E37
330
1E
100
AcDbEntity
  8
STEMPEL
100
AcDbPolyline
 90
       10
 70
   128
 43
0.0
 10
-353.9849380672191
 20
604.1174394693516
 10
-353.1487587923775
 20
604.2085929512784
 10
-352.3379864016749
 20
604.4792837446362
 10
-351.5772558039321
 20
604.9212870466451
 10
-350.8896814134133
 20
605.5211728106378
 10
-350.2961548300449
 20
606.2607138112325
 10
-349.8147100587237
 20
607.1174394693518
 10
-349.4599755552033
 20
608.065318609398
 10
-349.2427297478692
 20
609.0755504033504
 10
-349.1695735406452
 20
610.1174394693521
210
0.0
220
0.0
230
-1.0
  0
LWPOLYLINE
  5
4E38
330
1E
100
AcDbEntity
  8
STEMPEL
100
AcDbPolyline
 90
        7
 70
   128
 43
0.0
 10
-352.2491995098211
 20
605.1174394693516
 10
-351.6291089867568
 20
605.7267773711925
 10
-351.0972888399733
 20
606.4542076444817
 10
-350.6680430402421
 20
607.2801651384254
 10
-350.3529166924447
 20
608.1824346888877
 10
-350.1603855154789
 20
609.1367486231308
 10
-350.0956278771525
 20
610.1174394693521
210
0.0
220
0.0
230
-1.0
  0
LWPOLYLINE
  5
4E39
330
1E
100
AcDbEntity
  8
STEMPEL
100
AcDbPolyline
 90
       10
 70
   128
 43
0.0
 10
-359.7251895526969
 20
604.1174394693516
 10
-358.8890102778553
 20
604.2085929512784
 10
-358.0782378871527
 20
604.4792837446362
 10
-357.3175072894098
 20
604.9212870466451
 10
-356.6299328988911
 20
605.5211728106378
 10
-356.0364063155227
 20
606.2607138112325
 10
-355.5549615442014
 20
607.1174394693518
 10
-355.2002270406811
 20
608.065318609398
 10
-354.9829812333469
 20
609.0755504033504
 10
-354.9098250261229
 20
610.1174394693521
210
0.0
220
0.0
230
-1.0
  0
LINE
  5
4E3A
330
1E
100
AcDbEntity
  8
STEMPEL
100
AcDbLine
 10
357.0633966587915
 20
605.1174394693516
 30
0.0
 11
352.2491995098201
 21
605.1174394693516
 31
0.0
  0
ARC
  5
4E3D
330
1E
100
AcDbEntity
  8
STEMPEL
100
AcDbCircle
 10
366.575499413892
 20
610.1174394693521
 30
0.0
 40
6.0
100
AcDbArc
 50
180.0
 51
269.9999999999968
  0
LWPOLYLINE
  5
4E3E
330
1E
100
AcDbEntity
  8
STEMPEL
100
AcDbPolyline
 90
       10
 70
   128
 43
0.0
 10
-365.8718009038876
 20
604.1174394693528
 10
-365.0137279076148
 20
604.1835666839253
 10
-364.1609157079926
 20
604.4361204336556
 10
-363.3401574010755
 20
604.8671661499732
 10
-362.5772390346765
 20
605.4631615204132
 10
-361.8961294791774
 20
606.2053819521338
 10
-361.3182273892316
 20
607.0705088489312
 10
-360.8616889148255
 20
608.0313622196472
 10
-360.5408572832279
 20
609.0577546013594
 10
-360.3658121728567
 20
610.1174394693521
210
0.0
220
0.0
230
-1.0
  0
ARC
  5
4E3F
330
1E
100
AcDbEntity
  8
STEMPEL
100
AcDbCircle
 10
366.575499413892
 20
610.1174394693521
 30
0.0
 40
5.0
100
AcDbArc
 50
180.0
 51
269.9999999999968
  0
LINE
  5
4E40
102
{ACAD_REACTORS
330
4FFC
102
}
330
1E
100
AcDbEntity
  8
STEMPEL
100
AcDbLine
 10
374.0754994138919
 20
581.1174394693502
 30
0.0
 11
374.0754994138919
 21
578.1174394693501
 31
0.0
  0
LINE
  5
4E43
330
1E
100
AcDbEntity
  8
STEMPEL
100
AcDbLine
 10
376.5754994138918
 20
604.1174394693516
 30
0.0
 11
381.575499413892
 21
604.1174394693516
 31
0.0
  0
LINE
  5
4E44
330
1E
100
AcDbEntity
  8
STEMPEL
100
AcDbLine
 10
381.5754994138917
 20
605.1174394693516
 30
0.0
 11
366.5754994138918
 21
605.1174394693521
 31
0.0
  0
LINE
  5
4E46
330
1E
100
AcDbEntity
  8
STEMPEL
100
AcDbLine
 10
359.4016980030941
 20
616.6174394693499
 30
0.0
 11
359.4016980030941
 21
610.1174394693521
 31
0.0
  0
LINE
  5
4E47
330
1E
100
AcDbEntity
  8
STEMPEL
100
AcDbLine
 10
358.4079192895563
 20
616.6174394693499
 30
0.0
 11
358.4079192895563
 21
610.117439469351
 31
0.0
  0
LINE
  5
4E48
330
1E
100
AcDbEntity
  8
STEMPEL
100
AcDbLine
 10
354.9098250261229
 20
616.6174394693499
 30
0.0
 11
354.9098250261229
 21
610.1174394693532
 31
0.0
  0
LINE
  5
4E49
330
1E
100
AcDbEntity
  8
STEMPEL
100
AcDbLine
 10
360.3658121728567
 20
616.6174394693499
 30
0.0
 11
360.3658121728567
 21
610.1174394693521
 31
0.0
  0
LINE
  5
4E4A
330
1E
100
AcDbEntity
  8
STEMPEL
100
AcDbLine
 10
349.1695735406452
 20
616.6174394693499
 30
0.0
 11
349.1695735406452
 21
610.1174394693532
 31
0.0
  0
LINE
  5
4E4B
330
1E
100
AcDbEntity
  8
STEMPEL
100
AcDbLine
 10
350.0956278771524
 20
616.6174394693499
 30
0.0
 11
350.0956278771524
 21
610.1174394693532
 31
0.0
  0
LWPOLYLINE
  5
4E4C
330
1E
100
AcDbEntity
  8
STEMPEL
100
AcDbPolyline
 90
       10
 70
   128
 43
0.0
 10
338.6412845262183
 20
624.117439469353
 10
337.8484571803586
 20
624.0034976169445
 10
337.0797194922129
 20
623.6651341252472
 10
336.3584291674353
 20
623.1126299977361
 10
335.7065022475539
 20
622.3627727927448
 10
335.1437472021382
 20
621.4383465420014
 10
334.6872630584753
 20
620.3674394693521
 10
334.3509198562785
 20
619.1825905442945
 10
334.1449372135485
 20
617.9198008018536
 10
334.0755738086524
 20
616.6174394693514
  0
LWPOLYLINE
  5
4E4D
330
1E
100
AcDbEntity
  8
STEMPEL
100
AcDbPolyline
 90
       18
 70
   128
 43
0.0
 10
342.4117743569633
 20
616.6174394693499
 10
342.3340344557032
 20
617.9955608529744
 10
342.1034620910214
 20
619.326751965754
 10
341.7279091282562
 20
620.5656806909307
 10
341.2201645731285
 20
621.6701567967
 10
340.5975190574906
 20
622.6025686739529
 10
339.8811760275965
 20
623.3311641545142
 10
339.0955296861706
 20
623.8311317931475
 10
338.2673342770912
 20
624.0854457915641
 10
337.4247930017035
 20
624.0854457915641
 10
336.5965975926241
 20
623.8311317931475
 10
335.8109512511983
 20
623.3311641545142
 10
335.0946082213042
 20
622.6025686739529
 10
334.4719627056662
 20
621.6701567967
 10
333.9642181505385
 20
620.5656806909307
 10
333.5886651877733
 20
619.326751965754
 10
333.3580928230915
 20
617.9955608529744
 10
333.2803529218314
 20
616.6174394693499
  0
LWPOLYLINE
  5
4E4E
330
1E
100
AcDbEntity
  8
STEMPEL
100
AcDbPolyline
 90
        8
 70
   128
 43
0.0
 10
318.078328836215
 20
624.1075735471736
 10
316.9619211148438
 20
623.9002664107663
 10
315.8966418631016
 20
623.4310116833126
 10
314.9208068800632
 20
622.716687446144
 10
314.0695148472052
 20
621.7829864027476
 10
313.3733849044688
 20
620.6634917675871
 10
312.8574553457775
 20
619.3984693502486
 10
312.7921574524882
 20
619.1174394693502
  0
LWPOLYLINE
  5
4E4F
330
1E
100
AcDbEntity
  8
STEMPEL
100
AcDbPolyline
 90
       17
 70
   128
 43
0.0
 10
323.7233816644799
 20
616.6174394693499
 10
323.6220690526756
 20
617.9955608529744
 10
323.3215812967463
 20
619.326751965754
 10
322.8321511468251
 20
620.5656806909307
 10
322.1704455596607
 20
621.6701567967
 10
321.3589981253956
 20
622.6025686739529
 10
320.4254417131799
 20
623.3311641545142
 10
319.4015674669538
 20
623.8311317931475
 10
318.322242196171
 20
624.0854457915641
 10
317.22422102842
 20
624.0854457915641
 10
316.1448957576372
 20
623.8311317931475
 10
315.1210215114111
 20
623.3311641545142
 10
314.1874650991954
 20
622.6025686739529
 10
313.3760176649303
 20
621.6701567967
 10
312.7143120777658
 20
620.5656806909307
 10
312.2248819278447
 20
619.326751965754
 10
312.1776341347003
 20
619.1174394693502
  0
LWPOLYLINE
  5
4E50
330
1E
100
AcDbEntity
  8
STEMPEL
100
AcDbPolyline
 90
       10
 70
   128
 43
0.0
 10
-346.7754805315693
 20
604.1174394693516
 10
-346.0177309064751
 20
604.2085929512784
 10
-345.2830051202996
 20
604.4792837446362
 10
-344.5936274442664
 20
604.9212870466451
 10
-343.97054427022
 20
605.5211728106378
 10
-343.4326876651086
 20
606.2607138112325
 10
-342.9964001297096
 20
607.1174394693518
 10
-342.6749380400143
 20
608.065318609398
 10
-342.4780688589503
 20
609.0755504033504
 10
-342.4117743569635
 20
610.1174394693521
210
0.0
220
0.0
230
-1.0
  0
LWPOLYLINE
  5
4E51
330
1E
100
AcDbEntity
  8
STEMPEL
100
AcDbPolyline
 90
        7
 70
   128
 43
0.0
 10
-336.0271506371706
 20
605.1174394693516
 10
-335.4652216639065
 20
605.7267773711925
 10
-334.9832837243194
 20
606.4542076444817
 10
-334.5942991445695
 20
607.2801651384254
 10
-334.3087301534631
 20
608.1824346888877
 10
-334.1342574876671
 20
609.136748623131
 10
-334.0755738086522
 20
610.1174394693521
210
0.0
220
0.0
230
-1.0
  0
LINE
  5
4E52
330
1E
100
AcDbEntity
  8
STEMPEL
100
AcDbLine
 10
344.3633511854819
 20
605.1174394693516
 30
0.0
 11
336.0271506371699
 21
605.1174394693516
 31
0.0
  0
LWPOLYLINE
  5
4E53
330
1E
100
AcDbEntity
  8
STEMPEL
100
AcDbPolyline
 90
       10
 70
   128
 43
0.0
 10
-337.6440590964374
 20
604.1174394693516
 10
-336.8863094713432
 20
604.2085929512784
 10
-336.1515836851677
 20
604.4792837446362
 10
-335.4622060091346
 20
604.9212870466451
 10
-334.8391228350881
 20
605.5211728106378
 10
-334.3012662299767
 20
606.2607138112325
 10
-333.8649786945778
 20
607.1174394693518
 10
-333.5435166048825
 20
608.065318609398
 10
-333.3466474238185
 20
609.0755504033504
 10
-333.2803529218316
 20
610.1174394693521
210
0.0
220
0.0
230
-1.0
  0
LINE
  5
4E54
330
1E
100
AcDbEntity
  8
STEMPEL
100
AcDbLine
 10
325.3836795323299
 20
605.1174394693514
 30
0.0
 11
318.0754994138918
 21
605.1174394693516
 31
0.0
  0
LINE
  5
4E55
102
{ACAD_REACTORS
330
4FFC
102
}
330
1E
100
AcDbEntity
  8
STEMPEL
100
AcDbLine
 10
314.0754994138918
 20
581.1174394693503
 30
0.0
 11
314.0754994138918
 21
578.1174394693501
 31
0.0
  0
LINE
  5
4E58
102
{ACAD_REACTORS
330
4FFC
102
}
330
1E
100
AcDbEntity
  8
MITTEL
100
AcDbLine
 10
322.9754994138917
 20
608.1174394693507
 30
0.0
 11
322.9754994138918
 21
573.1174394693499
 31
0.0
  0
LINE
  5
4E59
330
1E
100
AcDbEntity
  8
STEMPEL
100
AcDbLine
 10
333.2803529218316
 20
616.6174394693499
 30
0.0
 11
333.2803529218316
 21
610.1174394693532
 31
0.0
  0
LINE
  5
4E5A
330
1E
100
AcDbEntity
  8
STEMPEL
100
AcDbLine
 10
323.7233816644798
 20
616.6174394693499
 30
0.0
 11
323.7233816644798
 21
610.1174394693532
 31
0.0
  0
LINE
  5
4E5B
330
1E
100
AcDbEntity
  8
STEMPEL
100
AcDbLine
 10
342.4117743569634
 20
616.6174394693499
 30
0.0
 11
342.4117743569634
 21
610.1174394693532
 31
0.0
  0
LINE
  5
4E5C
330
1E
100
AcDbEntity
  8
STEMPEL
100
AcDbLine
 10
334.0755738086523
 20
616.6174394693499
 30
0.0
 11
334.0755738086523
 21
610.1174394693532
 31
0.0
  0
LWPOLYLINE
  5
4E5D
330
1E
100
AcDbEntity
  8
STEMPEL
100
AcDbPolyline
 90
        8
 70
   128
 43
0.0
 10
265.8345517826186
 20
624.1171492291246
 10
264.3932117987408
 20
623.9618478352008
 10
263.0091308952913
 20
623.5274475881865
 10
261.7349062827593
 20
622.8304563679114
 10
260.6189604630294
 20
621.8973609164656
 10
259.7037010995764
 20
620.7636203011222
 10
259.0239094608013
 20
619.4723184150527
 10
258.917812554694
 20
619.1174394693502
  0
LWPOLYLINE
  5
4E5E
330
1E
100
AcDbEntity
  8
STEMPEL
100
AcDbPolyline
 90
       16
 70
   128
 43
0.0
 10
272.7618911020378
 20
619.1174394693502
 10
272.7028460595009
 20
619.326751965754
 10
272.0912106349085
 20
620.5656806909307
 10
271.2642845090341
 20
621.6701567967
 10
270.2502276593059
 20
622.6025686739529
 10
269.0835725755142
 20
623.3311641545142
 10
267.8040482972889
 20
623.8311317931475
 10
266.4552274893048
 20
624.0854457915641
 10
265.0830426264455
 20
624.0854457915641
 10
263.7342218184614
 20
623.8311317931475
 10
262.4546975402361
 20
623.3311641545142
 10
261.2880424564444
 20
622.6025686739529
 10
260.2739856067161
 20
621.6701567967
 10
259.4470594808417
 20
620.5656806909307
 10
258.8354240562494
 20
619.326751965754
 10
258.7763790137126
 20
619.1174394693502
  0
LWPOLYLINE
  5
4E5F
330
1E
100
AcDbEntity
  8
STEMPEL
100
AcDbPolyline
 90
       16
 70
   128
 43
0.0
 10
-230.3891077257462
 20
619.1174394693502
 10
-230.4481527682831
 20
619.326751965754
 10
-231.0597881928754
 20
620.5656806909307
 10
-231.8867143187498
 20
621.6701567967
 10
-232.9007711684781
 20
622.6025686739529
 10
-234.0674262522698
 20
623.3311641545142
 10
-235.3469505304951
 20
623.8311317931475
 10
-236.6957713384792
 20
624.0854457915641
 10
-238.0679562013385
 20
624.0854457915641
 10
-239.4167770093226
 20
623.8311317931475
 10
-240.6963012875479
 20
623.3311641545142
 10
-241.8629563713396
 20
622.6025686739529
 10
-242.8770132210679
 20
621.6701567967
 10
-243.7039393469422
 20
620.5656806909307
 10
-244.3155747715346
 20
619.326751965754
 10
-244.3746198140715
 20
619.1174394693502
210
0.0
220
0.0
230
-1.0
  0
LWPOLYLINE
  5
4E60
330
1E
100
AcDbEntity
  8
STEMPEL
100
AcDbPolyline
 90
        8
 70
   128
 43
0.0
 10
-237.3164470451654
 20
624.1171492291246
 10
-238.7577870290432
 20
623.9618478352008
 10
-240.1418679324927
 20
623.5274475881865
 10
-241.4160925450246
 20
622.8304563679114
 10
-242.5320383647545
 20
621.8973609164656
 10
-243.4472977282076
 20
620.7636203011222
 10
-244.1270893669827
 20
619.4723184150527
 10
-244.23318627309
 20
619.1174394693502
210
0.0
220
0.0
230
-1.0
  0
LWPOLYLINE
  5
4E61
330
1E
100
AcDbEntity
  8
STEMPEL
100
AcDbPolyline
 90
       16
 70
   128
 43
0.0
 10
-203.4456540191605
 20
619.1174394693502
 10
-203.5006752396251
 20
619.326751965754
 10
-204.0706287208068
 20
620.5656806909307
 10
-204.8412011977629
 20
621.6701567967
 10
-205.7861517489904
 20
622.6025686739529
 10
-206.8733012168106
 20
623.3311641545142
 10
-208.0656280299888
 20
623.8311317931475
 10
-209.3225289289406
 20
624.0854457915641
 10
-210.6012016610389
 20
624.0854457915641
 10
-211.8581025599907
 20
623.8311317931475
 10
-213.0504293731689
 20
623.3311641545142
 10
-214.1375788409891
 20
622.6025686739529
 10
-215.0825293922166
 20
621.6701567967
 10
-215.8531018691727
 20
620.5656806909307
 10
-216.4230553503544
 20
619.326751965754
 10
-216.478076570819
 20
619.1174394693502
210
0.0
220
0.0
230
-1.0
  0
LWPOLYLINE
  5
4E62
330
1E
100
AcDbEntity
  8
STEMPEL
100
AcDbPolyline
 90
        8
 70
   128
 43
0.0
 10
-209.7700731621778
 20
624.1145658923898
 10
-211.0942826125077
 20
623.9357329853421
 10
-212.3622620096937
 20
623.4854570680179
 10
-213.5269806977794
 20
622.7804393358788
 10
-214.545238066386
 20
621.8468296194953
 10
-215.3792659056483
 20
620.7192564605193
 10
-215.9981292678422
 20
619.4395427035674
 10
-216.0867164479473
 20
619.1174394693502
210
0.0
220
0.0
230
-1.0
  0
LWPOLYLINE
  5
4E63
330
1E
100
AcDbEntity
  8
STEMPEL
100
AcDbPolyline
 90
        8
 70
   128
 43
0.0
 10
-185.072669991569
 20
624.1075735471736
 10
-186.1890777129402
 20
623.9002664107663
 10
-187.2543569646824
 20
623.4310116833126
 10
-188.2301919477208
 20
622.716687446144
 10
-189.0814839805787
 20
621.7829864027476
 10
-189.7776139233151
 20
620.6634917675871
 10
-190.2935434820065
 20
619.3984693502486
 10
-190.3588413752959
 20
619.1174394693502
210
0.0
220
0.0
230
-1.0
  0
LWPOLYLINE
  5
4E64
330
1E
100
AcDbEntity
  8
STEMPEL
100
AcDbPolyline
 90
       17
 70
   128
 43
0.0
 10
-179.427617163304
 20
616.6174394693499
 10
-179.5289297751084
 20
617.9955608529744
 10
-179.8294175310376
 20
619.326751965754
 10
-180.3188476809588
 20
620.5656806909307
 10
-180.9805532681232
 20
621.6701567967
 10
-181.7920007023884
 20
622.6025686739529
 10
-182.725557114604
 20
623.3311641545142
 10
-183.7494313608302
 20
623.8311317931475
 10
-184.8287566316129
 20
624.0854457915641
 10
-185.926777799364
 20
624.0854457915641
 10
-187.0061030701468
 20
623.8311317931475
 10
-188.0299773163729
 20
623.3311641545142
 10
-188.9635337285886
 20
622.6025686739529
 10
-189.7749811628537
 20
621.6701567967
 10
-190.4366867500181
 20
620.5656806909307
 10
-190.9261168999393
 20
619.326751965754
 10
-190.9733646930837
 20
619.1174394693502
210
0.0
220
0.0
230
-1.0
  0
LWPOLYLINE
  5
4E65
330
1E
100
AcDbEntity
  8
STEMPEL
100
AcDbPolyline
 90
       10
 70
   128
 43
0.0
 10
175.76501402778
 20
604.1174394693516
 10
176.4010183877809
 20
604.2085929512784
 10
177.0176980771371
 20
604.4792837446362
 10
177.5963155955421
 20
604.9212870466451
 10
178.119289942494
 20
605.5211728106378
 10
178.5707308070985
 20
606.2607138112325
 10
178.9369213871245
 20
607.1174394693518
 10
179.2067351670994
 20
608.065318609398
 10
179.3719739918511
 20
609.0755504033504
 10
179.4276171633041
 20
610.1174394693521
  0
LWPOLYLINE
  5
4E66
330
1E
100
AcDbEntity
  8
STEMPEL
100
AcDbPolyline
 90
        8
 70
   128
 43
0.0
 10
166.4350588030865
 20
604.1174394693515
 10
167.6887928186494
 20
604.9212870466451
 10
168.3118759926957
 20
605.5211728106378
 10
168.8497325978073
 20
606.2607138112325
 10
169.2860201332062
 20
607.1174394693518
 10
169.6074822229015
 20
608.065318609398
 10
169.8043514039655
 20
609.0755504033504
 10
169.8706459059523
 20
610.1174394693521
  0
LWPOLYLINE
  5
4E67
330
1E
100
AcDbEntity
  8
STEMPEL
100
AcDbPolyline
 90
        7
 70
   128
 43
0.0
 10
167.1238481906134
 20
605.1174394693516
 10
167.6857771638774
 20
605.7267773711925
 10
168.1677151034646
 20
606.4542076444817
 10
168.5566996832144
 20
607.2801651384254
 10
168.842268674321
 20
608.1824346888877
 10
169.0167413401168
 20
609.136748623131
 10
169.0754250191318
 20
610.1174394693521
  0
LINE
  5
4E68
330
1E
100
AcDbEntity
  8
STEMPEL
100
AcDbLine
 10
177.7895940871988
 20
605.1174394693516
 30
0.0
 11
184.351361482857
 21
605.1174394693516
 31
0.0
  0
LINE
  5
4E69
102
{ACAD_REACTORS
330
4FFC
102
}
330
1E
100
AcDbEntity
  8
STEMPEL
100
AcDbLine
 10
189.0754994138918
 20
581.1174394693503
 30
0.0
 11
189.0754994138918
 21
578.1174394693502
 31
0.0
  0
LINE
  5
4E6B
102
{ACAD_REACTORS
330
4FFC
102
}
330
1E
100
AcDbEntity
  8
STEMPEL
100
AcDbLine
 10
168.0754994138918
 20
581.1174394693503
 30
0.0
 11
168.0754994138918
 21
578.1174394693502
 31
0.0
  0
LINE
  5
4E6D
330
1E
100
AcDbEntity
  8
STEMPEL
100
AcDbLine
 10
179.4276171633041
 20
616.6174394693499
 30
0.0
 11
179.4276171633041
 21
610.1174394693532
 31
0.0
  0
LINE
  5
4E6E
330
1E
100
AcDbEntity
  8
STEMPEL
100
AcDbLine
 10
169.0754250191317
 20
616.6174394693499
 30
0.0
 11
169.0754250191317
 21
610.1174394693532
 31
0.0
  0
LINE
  5
4E6F
330
1E
100
AcDbEntity
  8
STEMPEL
100
AcDbLine
 10
169.8706459059524
 20
616.6174394693499
 30
0.0
 11
169.8706459059524
 21
610.1174394693532
 31
0.0
  0
LINE
  5
4E70
330
1E
100
AcDbEntity
  8
STEMPEL
100
AcDbLine
 10
121.5754994138916
 20
604.1174394693515
 30
0.0
 11
184.299637344926
 21
604.1174394693516
 31
0.0
  0
LWPOLYLINE
  5
4E71
330
1E
100
AcDbEntity
  8
STEMPEL
100
AcDbPolyline
 90
       16
 70
   128
 43
0.0
 10
299.7053448086235
 20
619.1174394693502
 10
299.650323588159
 20
619.326751965754
 10
299.0803701069772
 20
620.5656806909307
 10
298.3097976300211
 20
621.6701567967
 10
297.3648470787935
 20
622.6025686739529
 10
296.2776976109735
 20
623.3311641545142
 10
295.0853707977952
 20
623.8311317931475
 10
293.8284698988434
 20
624.0854457915641
 10
292.549797166745
 20
624.0854457915641
 10
291.2928962677932
 20
623.8311317931475
 10
290.1005694546149
 20
623.3311641545142
 10
289.0134199867949
 20
622.6025686739529
 10
288.0684694355674
 20
621.6701567967
 10
287.2978969586113
 20
620.5656806909307
 10
286.7279434774296
 20
619.326751965754
 10
286.6729222569651
 20
619.1174394693502
  0
LWPOLYLINE
  5
4E72
330
1E
100
AcDbEntity
  8
STEMPEL
100
AcDbPolyline
 90
        8
 70
   128
 43
0.0
 10
293.3809256656061
 20
624.1145658923898
 10
292.0567162152763
 20
623.9357329853421
 10
290.7887368180902
 20
623.4854570680179
 10
289.6240181300046
 20
622.7804393358788
 10
288.605760761398
 20
621.8468296194953
 10
287.7717329221357
 20
620.7192564605193
 10
287.1528695599418
 20
619.4395427035674
 10
287.0642823798367
 20
619.1174394693502
  0
LINE
  5
4E73
102
{ACAD_REACTORS
330
4FFC
102
}
330
1E
100
AcDbEntity
  8
STEMPEL
100
AcDbLine
 10
166.5754994138919
 20
581.1174394693503
 30
0.0
 11
374.0754994138919
 21
581.1174394693503
 31
0.0
  0
LINE
  5
4E76
330
1E
100
AcDbEntity
  8
STEMPEL
100
AcDbLine
 10
361.5754994138921
 20
674.1173815020361
 30
0.0
 11
361.5754994138921
 21
610.1174394693521
 31
0.0
  0
LINE
  5
4E77
330
1E
100
AcDbEntity
  8
STEMPEL
100
AcDbLine
 10
360.575499413892
 20
674.1173815020361
 30
0.0
 11
360.575499413892
 21
610.1174394693521
 31
0.0
  0
ARC
  5
4E78
330
1E
100
AcDbEntity
  8
STEMPEL
100
AcDbCircle
 10
142.0643558095803
 20
683.6372764518134
 30
0.0
 40
5.0
100
AcDbArc
 50
300.0670458384858
 51
300.2564371635302
  0
ARC
  5
4E79
330
1E
100
AcDbEntity
  8
STEMPEL
100
AcDbCircle
 10
147.575499413892
 20
674.1173815020361
 30
0.0
 40
5.0
100
AcDbArc
 50
120.2564164748174
 51
180.0
  0
ARC
  5
4E7A
330
1E
100
AcDbEntity
  8
STEMPEL
100
AcDbCircle
 10
147.575499413892
 20
674.1173815020361
 30
0.0
 40
6.0
100
AcDbArc
 50
120.2564164748174
 51
180.0
  0
LWPOLYLINE
  5
4E7B
330
1E
100
AcDbEntity
  8
STEMPEL
100
AcDbPolyline
 90
        9
 70
   128
 43
0.0
 10
-150.6482723761479
 20
624.019197714015
 10
-151.1373329194166
 20
623.6927648162575
 10
-151.5969458873176
 20
623.1474958030003
 10
-152.0128956909418
 20
622.4002555598722
 10
-152.3723172202334
 20
621.4741558370946
 10
-152.6640937551209
 20
620.3978404151244
 10
-152.8792007998591
 20
619.2045991674936
 10
-153.0109852059666
 20
617.9313384224179
 10
-153.0553709506314
 20
616.6174394693514
210
0.0
220
0.0
230
-1.0
  0
LWPOLYLINE
  5
4E7C
330
1E
100
AcDbEntity
  8
STEMPEL
100
AcDbPolyline
 90
        7
 70
   128
 43
0.0
 10
-143.2672437398084
 20
623.0794935251897
 10
-143.4050727493786
 20
622.3273872882511
 10
-143.5239370263448
 20
621.4046736775363
 10
-143.620285028246
 20
620.338922427632
 10
-143.6912379757842
 20
619.1619770908109
 10
-143.7346758677921
 20
617.9090035844092
 10
-143.7493008246897
 20
616.6174394693499
210
0.0
220
0.0
230
-1.0
  0
LWPOLYLINE
  5
4E7D
330
1E
100
AcDbEntity
  8
STEMPEL
100
AcDbPolyline
 90
       18
 70
   128
 43
0.0
 10
-142.7851866549272
 20
616.6174394693499
 10
-142.8018550784039
 20
617.9955608529744
 10
-142.8512927256644
 20
619.326751965754
 10
-142.9318160569248
 20
620.5656806909307
 10
-143.0406829467165
 20
621.6701567967
 10
-143.1741860636788
 20
622.6025686739529
 10
-143.3277791192829
 20
623.3311641545142
 10
-143.496231686235
 20
623.8311317931475
 10
-143.6738073144039
 20
624.0854457915641
 10
-143.854458878751
 20
624.0854457915641
 10
-144.0320345069199
 20
623.8311317931475
 10
-144.200487073872
 20
623.3311641545142
 10
-144.3540801294761
 20
622.6025686739529
 10
-144.4875832464384
 20
621.6701567967
 10
-144.59645013623
 20
620.5656806909307
 10
-144.6769734674905
 20
619.326751965754
 10
-144.7264111147509
 20
617.9955608529744
 10
-144.7430795382277
 20
616.6174394693499
210
0.0
220
0.0
230
-1.0
  0
LWPOLYLINE
  5
4E7E
330
1E
100
AcDbEntity
  8
STEMPEL
100
AcDbPolyline
 90
       18
 70
   128
 43
0.0
 10
-148.241173801661
 20
616.6174394693499
 10
-148.2900431465773
 20
617.9955608529744
 10
-148.4349869943974
 20
619.326751965754
 10
-148.6710694562246
 20
620.5656806909307
 10
-148.9902510269714
 20
621.6701567967
 10
-149.3816623610617
 20
622.6025686739529
 10
-149.8319744149596
 20
623.3311641545142
 10
-150.3258523517591
 20
623.8311317931475
 10
-150.846477750664
 20
624.0854457915641
 10
-151.3761213381358
 20
624.0854457915641
 10
-151.8967467370408
 20
623.8311317931475
 10
-152.3906246738402
 20
623.3311641545142
 10
-152.8409367277381
 20
622.6025686739529
 10
-153.2323480618285
 20
621.6701567967
 10
-153.5515296325753
 20
620.5656806909307
 10
-153.7876120944025
 20
619.326751965754
 10
-153.9325559422225
 20
617.9955608529744
 10
-153.9814252871388
 20
616.6174394693499
210
0.0
220
0.0
230
-1.0
  0
LWPOLYLINE
  5
4E7F
330
1E
100
AcDbEntity
  8
STEMPEL
100
AcDbPolyline
 90
        7
 70
   128
 43
0.0
 10
150.9017993179629
 20
605.1174394693516
 10
151.5218898410273
 20
605.7267773711925
 10
152.0537099878106
 20
606.4542076444817
 10
152.4829557875419
 20
607.2801651384254
 10
152.7980821353392
 20
608.1824346888877
 10
152.9906133123051
 20
609.1367486231308
 10
153.0553709506314
 20
610.1174394693521
  0
LWPOLYLINE
  5
4E80
330
1E
100
AcDbEntity
  8
STEMPEL
100
AcDbPolyline
 90
       10
 70
   128
 43
0.0
 10
143.4258092750871
 20
604.1174394693516
 10
144.2619885499287
 20
604.2085929512784
 10
145.0727609406313
 20
604.4792837446362
 10
145.8334915383741
 20
604.9212870466451
 10
146.5210659288929
 20
605.5211728106378
 10
147.1145925122613
 20
606.2607138112325
 10
147.5960372835825
 20
607.1174394693518
 10
147.9507717871029
 20
608.065318609398
 10
148.1680175944371
 20
609.0755504033504
 10
148.241173801661
 20
610.1174394693521
  0
LINE
  5
4E81
330
1E
100
AcDbEntity
  8
STEMPEL
100
AcDbLine
 10
140.1647274712566
 20
605.1174394693516
 30
0.0
 11
141.1288416410192
 21
605.1174394693516
 31
0.0
  0
LWPOLYLINE
  5
4E82
330
1E
100
AcDbEntity
  8
STEMPEL
100
AcDbPolyline
 90
        7
 70
   128
 43
0.0
 10
141.128841641019
 20
605.1174394693521
 10
141.8055435160965
 20
605.7270401972111
 10
142.4050929397304
 20
606.4545992811227
 10
142.9113816128801
 20
607.280569142803
 10
143.3108069049256
 20
608.1827581680061
 10
143.5926373201885
 20
609.1369269361998
 10
143.7493008246899
 20
610.1174394693521
  0
ARC
  5
4E83
330
1E
100
AcDbEntity
  8
STEMPEL
100
AcDbCircle
 10
136.575499413892
 20
610.1174394693521
 30
0.0
 40
6.0
100
AcDbArc
 50
270.0000000000033
 51
0.0
  0
ARC
  5
4E84
330
1E
100
AcDbEntity
  8
STEMPEL
100
AcDbCircle
 10
136.575499413892
 20
610.1174394693521
 30
0.0
 40
5.0
100
AcDbArc
 50
270.0
 51
0.0
  0
LWPOLYLINE
  5
4E85
330
1E
100
AcDbEntity
  8
STEMPEL
100
AcDbPolyline
 90
       10
 70
   128
 43
0.0
 10
137.2791979238964
 20
604.1174394693528
 10
138.1372709201692
 20
604.1835666839253
 10
138.9900831197914
 20
604.4361204336556
 10
139.8108414267084
 20
604.8671661499732
 10
140.5737597931073
 20
605.4631615204132
 10
141.2548693486066
 20
606.2053819521338
 10
141.8327714385523
 20
607.0705088489312
 10
142.2893099129585
 20
608.0313622196472
 10
142.6101415445561
 20
609.0577546013594
 10
142.7851866549272
 20
610.1174394693521
  0
LWPOLYLINE
  5
4E86
330
1E
100
AcDbEntity
  8
STEMPEL
100
AcDbPolyline
 90
       10
 70
   128
 43
0.0
 10
139.2370908071969
 20
604.1174394693516
 10
140.0951638034696
 20
604.1835666839242
 10
140.9479760030919
 20
604.4361204336545
 10
141.7687343100089
 20
604.867166149972
 10
142.5316526764078
 20
605.4631615204121
 10
143.2127622319071
 20
606.2053819521326
 10
143.7906643218528
 20
607.0705088489301
 10
144.247202796259
 20
608.031362219646
 10
144.5680344278566
 20
609.0577546013583
 10
144.7430795382277
 20
610.117439469351
  0
LINE
  5
4E89
330
1E
100
AcDbEntity
  8
STEMPEL
100
AcDbLine
 10
146.0876021689925
 20
605.1174394693516
 30
0.0
 11
150.9017993179639
 21
605.1174394693516
 31
0.0
  0
LINE
  5
4E8A
330
1E
100
AcDbEntity
  8
STEMPEL
100
AcDbLine
 10
143.7649459580242
 20
604.1174394693521
 30
0.0
 11
155.5754994138917
 21
604.1174394693512
 31
0.0
  0
LWPOLYLINE
  5
4E8B
330
1E
100
AcDbEntity
  8
STEMPEL
100
AcDbPolyline
 90
       10
 70
   128
 43
0.0
 10
149.1660607605648
 20
604.1174394693516
 10
150.0022400354064
 20
604.2085929512784
 10
150.813012426109
 20
604.4792837446362
 10
151.5737430238519
 20
604.9212870466451
 10
152.2613174143707
 20
605.5211728106378
 10
152.8548439977391
 20
606.2607138112325
 10
153.3362887690603
 20
607.1174394693518
 10
153.6910232725807
 20
608.065318609398
 10
153.9082690799148
 20
609.0755504033504
 10
153.9814252871388
 20
610.1174394693521
  0
LINE
  5
4E8C
102
{ACAD_REACTORS
330
4FFC
102
}
330
1E
100
AcDbEntity
  8
STEMPEL
100
AcDbLine
 10
155.0754994138917
 20
581.1174394693503
 30
0.0
 11
155.0754994138917
 21
578.1174394693502
 31
0.0
  0
LINE
  5
4E8E
102
{ACAD_REACTORS
330
4FFC
102
}
330
1E
100
AcDbEntity
  8
STEMPEL
100
AcDbLine
 10
129.0754994138917
 20
581.1174394693503
 30
0.0
 11
129.0754994138917
 21
578.1174394693502
 31
0.0
  0
LINE
  5
4E91
102
{ACAD_REACTORS
330
4FFC
102
}
330
1E
100
AcDbEntity
  8
STEMPEL
100
AcDbLine
 10
129.0754994138917
 20
581.1174394693503
 30
0.0
 11
156.5754994138919
 21
581.1174394693503
 31
0.0
  0
LINE
  5
4E95
330
1E
100
AcDbEntity
  8
STEMPEL
100
AcDbLine
 10
121.5754994138918
 20
605.1174394693519
 30
0.0
 11
121.5754994138916
 21
604.1174394693516
 31
0.0
  0
LINE
  5
4E96
330
1E
100
AcDbEntity
  8
STEMPEL
100
AcDbLine
 10
121.5754994138919
 20
605.1174394693516
 30
0.0
 11
136.5754994138921
 21
605.1174394693521
 31
0.0
  0
LINE
  5
4E97
330
1E
100
AcDbEntity
  8
STEMPEL
100
AcDbLine
 10
144.7430795382277
 20
616.6174394693499
 30
0.0
 11
144.7430795382277
 21
610.117439469351
 31
0.0
  0
LINE
  5
4E98
330
1E
100
AcDbEntity
  8
STEMPEL
100
AcDbLine
 10
143.7493008246898
 20
616.6174394693499
 30
0.0
 11
143.7493008246898
 21
610.1174394693521
 31
0.0
  0
LINE
  5
4E99
330
1E
100
AcDbEntity
  8
STEMPEL
100
AcDbLine
 10
142.7851866549272
 20
616.6174394693499
 30
0.0
 11
142.7851866549272
 21
610.1174394693521
 31
0.0
  0
LINE
  5
4E9A
330
1E
100
AcDbEntity
  8
STEMPEL
100
AcDbLine
 10
148.241173801661
 20
616.6174394693499
 30
0.0
 11
148.241173801661
 21
610.1174394693532
 31
0.0
  0
LINE
  5
4E9B
330
1E
100
AcDbEntity
  8
STEMPEL
100
AcDbLine
 10
160.7392244708206
 20
616.6174394693499
 30
0.0
 11
160.7392244708206
 21
610.1174394693532
 31
0.0
  0
LINE
  5
4E9C
330
1E
100
AcDbEntity
  8
STEMPEL
100
AcDbLine
 10
153.0553709506315
 20
616.6174394693499
 30
0.0
 11
153.0553709506315
 21
610.1174394693532
 31
0.0
  0
LINE
  5
4E9D
330
1E
100
AcDbEntity
  8
STEMPEL
100
AcDbLine
 10
153.9814252871388
 20
616.6174394693499
 30
0.0
 11
153.9814252871388
 21
610.1174394693532
 31
0.0
  0
LINE
  5
4E9E
330
1E
100
AcDbEntity
  8
STEMPEL
100
AcDbLine
 10
142.575499413892
 20
674.1173815020361
 30
0.0
 11
142.575499413892
 21
610.1174394693521
 31
0.0
  0
LINE
  5
4E9F
330
1E
100
AcDbEntity
  8
STEMPEL
100
AcDbLine
 10
141.5754994138919
 20
674.1173815020361
 30
0.0
 11
141.5754994138919
 21
610.1174394693521
 31
0.0
  0
DIMENSION
  5
4EA0
330
1E
100
AcDbEntity
  8
BEM
100
AcDbDimension
  2
*D7
 10
89.09084469718189
 20
584.1174394693496
 30
0.0
 11
82.5908446971818
 21
639.1174394693503
 31
0.0
 70
    32
 71
     5
 42
110.0000000000013
  3
Standard
100
AcDbAlignedDimension
 13
171.5754994138919
 23
694.117439469351
 33
0.0
 14
134.5754994138923
 24
584.1174394693496
 34
0.0
 50
90.0
100
AcDbRotatedDimension
1001
ACAD
1000
DSTYLE
1002
{
1070
    40
1040
2.0
1070
    41
1040
3.5
1070
    42
1040
1.0
1070
    43
1040
7.0
1070
    44
1040
1.0
1070
    73
1070
     0
1070
    74
1070
     0
1070
    77
1070
     1
1070
    78
1070
     8
1070
    79
1070
     2
1070
   140
1040
3.5
1070
   141
1040
1.5
1070
   146
1040
0.5142857142857144
1070
   147
1040
1.5
1070
   172
1070
     1
1070
   178
1070
     1
1070
   179
1070
     2
1070
   271
1070
     2
1070
   272
1070
     2
1070
   284
1070
     8
1070
   285
1070
     8
1070
   286
1070
     8
1002
}
  0
LINE
  5
4EA1
330
1E
100
AcDbEntity
  8
STEMPEL
100
AcDbLine
 10
145.0561458457648
 20
678.4362769162323
 30
0.0
 11
169.034999738716
 21
692.4239300824178
 31
0.0
  0
LINE
  5
4EA2
330
1E
100
AcDbEntity
  8
STEMPEL
100
AcDbLine
 10
144.542804792184
 20
679.2945200293949
 30
0.0
 11
168.5291076676509
 21
693.2865300400835
 31
0.0
  0
LWPOLYLINE
  5
4EA3
330
1E
100
AcDbEntity
  8
STEMPEL
100
AcDbPolyline
 90
       18
 70
   128
 43
0.0
 10
-160.7392244708207
 20
616.6174394693499
 10
-160.8169643720807
 20
617.9955608529744
 10
-161.0475367367626
 20
619.326751965754
 10
-161.4230896995277
 20
620.5656806909307
 10
-161.9308342546555
 20
621.6701567967
 10
-162.5534797702934
 20
622.6025686739529
 10
-163.2698228001874
 20
623.3311641545142
 10
-164.0554691416133
 20
623.8311317931475
 10
-164.8836645506927
 20
624.0854457915641
 10
-165.7262058260805
 20
624.0854457915641
 10
-166.5544012351598
 20
623.8311317931475
 10
-167.3400475765858
 20
623.3311641545142
 10
-168.0563906064798
 20
622.6025686739529
 10
-168.6790361221177
 20
621.6701567967
 10
-169.1867806772455
 20
620.5656806909307
 10
-169.5623336400106
 20
619.326751965754
 10
-169.7929060046925
 20
617.9955608529744
 10
-169.8706459059525
 20
616.6174394693499
210
0.0
220
0.0
230
-1.0
  0
LINE
  5
4EA4
330
1E
100
AcDbEntity
  8
HILF
100
AcDbLine
 10
353.9018324714225
 20
677.1174394693543
 30
0.0
 11
148.7491663563611
 21
677.1174394693542
 31
0.0
  0
LWPOLYLINE
  5
4EA5
330
1E
100
AcDbEntity
  8
STEMPEL
100
AcDbPolyline
 90
       10
 70
   128
 43
0.0
 10
-164.5097143015656
 20
624.117439469353
 10
-165.3025416474253
 20
624.0034976169445
 10
-166.071279335571
 20
623.6651341252472
 10
-166.7925696603486
 20
623.1126299977361
 10
-167.4444965802301
 20
622.3627727927448
 10
-168.0072516256457
 20
621.4383465420014
 10
-168.4637357693086
 20
620.3674394693521
 10
-168.8000789715054
 20
619.1825905442945
 10
-169.0060616142355
 20
617.9198008018536
 10
-169.0754250191316
 20
616.6174394693514
210
0.0
220
0.0
230
-1.0
  0
DIMENSION
  5
4EA6
330
1E
100
AcDbEntity
  8
BEM
100
AcDbDimension
  2
*D8
 10
361.5754994138921
 20
702.9297924660848
 30
0.0
 11
251.575499413892
 21
709.4297924660848
 31
0.0
 70
    32
  1
%%c<>
 71
     5
 42
220.0000000000002
  3
Standard
100
AcDbAlignedDimension
 13
141.5754994138919
 23
674.1173815020361
 33
0.0
 14
361.5754994138921
 24
674.1173815020361
 34
0.0
100
AcDbRotatedDimension
1001
ACAD
1000
DSTYLE
1002
{
1070
    40
1040
2.0
1070
    41
1040
3.5
1070
    42
1040
1.0
1070
    43
1040
7.0
1070
    44
1040
1.0
1070
    73
1070
     0
1070
    74
1070
     0
1070
    77
1070
     1
1070
    78
1070
     8
1070
    79
1070
     2
1070
   140
1040
3.5
1070
   141
1040
1.5
1070
   146
1040
0.5142857142857144
1070
   147
1040
1.5
1070
   172
1070
     1
1070
   178
1070
     1
1070
   179
1070
     2
1070
   271
1070
     2
1070
   272
1070
     2
1070
   284
1070
     8
1070
   285
1070
     8
1070
   286
1070
     8
1002
}
  0
DIMENSION
  5
4EA7
330
1E
100
AcDbEntity
  8
BEM
100
AcDbDimension
  2
*D9
 10
381.5754994138917
 20
716.4249937803922
 30
0.0
 11
251.5754994138918
 21
722.9249937803922
 31
0.0
 70
    32
  1
%%c<>
 71
     5
 42
259.9999999999999
  3
Standard
100
AcDbAlignedDimension
 13
121.5754994138919
 23
605.1174394693516
 33
0.0
 14
381.5754994138917
 24
605.1174394693519
 34
0.0
100
AcDbRotatedDimension
1001
ACAD
1000
DSTYLE
1002
{
1070
    40
1040
2.0
1070
    41
1040
3.5
1070
    42
1040
1.0
1070
    43
1040
7.0
1070
    44
1040
1.0
1070
    73
1070
     0
1070
    74
1070
     0
1070
    77
1070
     1
1070
    78
1070
     8
1070
    79
1070
     2
1070
   140
1040
3.5
1070
   141
1040
1.5
1070
   146
1040
0.5142857142857144
1070
   147
1040
1.5
1070
   172
1070
     1
1070
   178
1070
     1
1070
   179
1070
     2
1070
   271
1070
     2
1070
   272
1070
     2
1070
   284
1070
     8
1070
   285
1070
     8
1070
   286
1070
     8
1002
}
  0
LINE
  5
4EAA
330
1E
100
AcDbEntity
  8
TEXT
 62
     2
100
AcDbLine
 10
304.7021733284803
 20
693.2380139690856
 30
0.0
 11
306.6513444558049
 21
700.4657121607581
 31
0.0
  0
LINE
  5
4EAB
330
1E
100
AcDbEntity
  8
TEXT
 62
     2
100
AcDbLine
 10
308.0423989707985
 20
705.6238648039993
 30
0.0
 11
310.3333867857226
 21
714.1190493749909
 31
0.0
  0
TEXT
  5
4EAC
330
1E
100
AcDbEntity
  8
TEXT
 62
     1
100
AcDbText
 10
327.3530222724208
 20
761.704681879299
 30
0.0
 40
7.0
  1
EDV-Art.Nr. 21007.000X
 41
0.8
  7
GREEKS
100
AcDbText
  0
LINE
  5
4EAD
330
1E
100
AcDbEntity
  8
TEXT
 62
     2
100
AcDbLine
 10
326.0016531242446
 20
772.2183607664028
 30
0.0
 11
434.3052578487563
 21
772.2183607664028
 31
0.0
  0
TEXT
  5
4EAE
330
1E
100
AcDbEntity
  8
TEXT
 62
     1
100
AcDbText
 10
327.3530222724208
 20
775.3810223970345
 30
0.0
 40
7.0
  1
Siebkorb
 41
0.8
  7
GREEKS
100
AcDbText
  0
LINE
  5
4EAF
330
1E
100
AcDbEntity
  8
TEXT
 62
     2
100
AcDbLine
 10
311.6163011879962
 20
718.8762089570289
 30
0.0
 11
326.0016531242446
 21
772.2183607664028
 31
0.0
  0
DIMENSION
  5
4F17
330
1E
100
AcDbEntity
  8
BEM
100
AcDbDimension
  2
*D10
 10
89.0383112133043
 20
578.1174394693504
 30
0.0
 11
82.53831121330419
 21
503.1174394693504
 31
0.0
 70
    32
  1
min.35 - max.200
 71
     5
 42
150.0
  3
Standard
100
AcDbAlignedDimension
 13
129.0754994138918
 23
428.1174394693503
 33
0.0
 14
129.0754994138918
 24
578.1174394693504
 34
0.0
 50
90.0
100
AcDbRotatedDimension
1001
ACAD
1000
DSTYLE
1002
{
1070
    40
1040
2.0
1070
    41
1040
3.5
1070
    42
1040
1.0
1070
    43
1040
7.0
1070
    44
1040
1.0
1070
    73
1070
     0
1070
    74
1070
     0
1070
    77
1070
     1
1070
    78
1070
     8
1070
    79
1070
     2
1070
   140
1040
3.5
1070
   141
1040
1.5
1070
   146
1040
0.5142857142857144
1070
   147
1040
1.5
1070
   172
1070
     1
1070
   178
1070
     1
1070
   179
1070
     2
1070
   271
1070
     2
1070
   272
1070
     2
1070
   284
1070
     8
1070
   285
1070
     8
1070
   286
1070
     8
1070
   340
1005
24
1002
}
  0
LINE
  5
4F7F
330
1E
100
AcDbEntity
  8
STEMPEL
100
AcDbLine
 10
151.8563604073473
 20
606.1842704107792
 30
0.0
 11
148.0482808195325
 21
606.1842704107792
 31
0.0
  0
ARC
  5
4F80
330
1E
100
AcDbEntity
  8
STEMPEL
100
AcDbCircle
 10
148.2363918983615
 20
605.6674394693468
 30
0.0
 40
0.5500000000000003
100
AcDbArc
 50
110.0000000000006
 51
270.0
  0
LINE
  5
4F81
330
1E
100
AcDbEntity
  8
STEMPEL
100
AcDbLine
 10
149.0128892064652
 20
606.5353591513463
 30
0.0
 11
148.0482808195325
 21
606.1842704107792
 31
0.0
  0
ARC
  5
4F82
330
1E
100
AcDbEntity
  8
HILF
100
AcDbCircle
 10
150.4562648794393
 20
602.9761307075305
 30
0.0
 40
3.840760399790701
100
AcDbArc
 50
67.92594526323999
 51
112.07405473676
  0
ARC
  5
4F83
330
1E
100
AcDbEntity
  8
HILF
100
AcDbCircle
 10
154.7863918983615
 20
591.8761474421207
 30
0.0
 40
14.94074366520046
100
AcDbArc
 50
100.29090067769
 51
101.1403721611056
  0
LINE
  5
4F84
330
1E
100
AcDbEntity
  8
STEMPEL
100
AcDbLine
 10
153.0553709506315
 20
611.7174394693469
 30
0.0
 11
149.7863918983615
 21
611.7174394693469
 31
0.0
  0
LINE
  5
4F85
330
1E
100
AcDbEntity
  8
STEMPEL
100
AcDbLine
 10
151.8996405524134
 20
611.51018004771
 30
0.0
 11
151.8996405524134
 21
606.5353591513463
 31
0.0
  0
LINE
  5
4F86
330
1E
100
AcDbEntity
  8
STEMPEL
100
AcDbLine
 10
149.0128892064652
 20
611.51018004771
 30
0.0
 11
149.0128892064652
 21
606.5353591513463
 31
0.0
  0
LINE
  5
4F87
330
1E
100
AcDbEntity
  8
STEMPEL
100
AcDbLine
 10
149.7863918983615
 20
611.7174394693469
 30
0.0
 11
149.0128892064652
 21
611.51018004771
 31
0.0
  0
ARC
  5
4F88
330
1E
100
AcDbEntity
  8
STEMPEL
100
AcDbCircle
 10
150.4562648794393
 20
606.5879023308237
 30
0.0
 40
5.129537138523076
100
AcDbArc
 50
73.65710669401657
 51
106.3428933059834
  0
ARC
  5
4F89
330
1E
100
AcDbEntity
  8
STEMPEL
100
AcDbCircle
 10
154.7863918983615
 20
591.51018004771
 30
0.0
 40
20.20725942163691
100
AcDbArc
 50
94.91416948521033
 51
98.21321070173988
  0
ARC
  5
4F8A
330
1E
100
AcDbEntity
  8
STEMPEL
100
AcDbCircle
 10
161.3363918983615
 20
605.6674394693468
 30
0.0
 40
0.5500000000000009
100
AcDbArc
 50
270.0
 51
69.99999999999935
  0
LINE
  5
4F8B
330
1E
100
AcDbEntity
  8
STEMPEL
100
AcDbLine
 10
161.5245029771906
 20
606.1842704107792
 30
0.0
 11
160.5598945902578
 21
606.5353591513463
 31
0.0
  0
LINE
  5
4F8C
330
1E
100
AcDbEntity
  8
STEMPEL
100
AcDbLine
 10
160.5598945902578
 20
608.4955107411663
 30
0.0
 11
160.5598945902578
 21
606.5353591513463
 31
0.0
  0
LINE
  5
4F8D
330
1E
100
AcDbEntity
  8
STEMPEL
100
AcDbLine
 10
161.5245029771906
 20
606.1842704107792
 30
0.0
 11
159.6627150729148
 21
606.1842704107792
 31
0.0
  0
ARC
  5
4F8E
330
1E
100
AcDbEntity
  8
HILF
100
AcDbCircle
 10
159.1165189172838
 20
602.9749661456422
 30
0.0
 40
3.841839622940954
100
AcDbArc
 50
67.9324721810082
 51
77.4028413078025
  0
LINE
  5
4F8F
330
1E
100
AcDbEntity
  8
MITTEL
100
AcDbLine
 10
154.7863918983615
 20
616.717439469347
 30
0.0
 11
154.7863918983615
 21
588.1174394693508
 31
0.0
  0
LINE
  5
4F90
330
1E
100
AcDbEntity
  8
MITTEL
100
AcDbLine
 10
373.5754994138917
 20
616.717439469352
 30
0.0
 11
373.5754994138917
 21
584.1174394693503
 31
0.0
  0
ARC
  5
4F91
330
1E
100
AcDbEntity
  8
HILF
100
AcDbCircle
 10
373.5754994138917
 20
591.8761474421256
 30
0.0
 40
14.94074366520046
100
AcDbArc
 50
78.85962783889434
 51
101.1403721611056
  0
ARC
  5
4F92
330
1E
100
AcDbEntity
  8
HILF
100
AcDbCircle
 10
369.2453723949695
 20
602.9761307075355
 30
0.0
 40
3.840760399790701
100
AcDbArc
 50
67.92594526323999
 51
112.07405473676
  0
ARC
  5
4F93
330
1E
100
AcDbEntity
  8
HILF
100
AcDbCircle
 10
377.905626432814
 20
602.9749661456472
 30
0.0
 40
3.841839622940954
100
AcDbArc
 50
67.9324721810082
 51
112.0675278189918
  0
ARC
  5
4F94
330
1E
100
AcDbEntity
  8
STEMPEL
100
AcDbCircle
 10
373.5754994138917
 20
591.510180047715
 30
0.0
 40
20.20725942163691
100
AcDbArc
 50
81.78678929826011
 51
98.21321070173988
  0
ARC
  5
4F95
330
1E
100
AcDbEntity
  8
STEMPEL
100
AcDbCircle
 10
369.2453723949695
 20
606.5879023308288
 30
0.0
 40
5.129537138523076
100
AcDbArc
 50
73.65710669401657
 51
106.3428933059834
  0
LINE
  5
4F96
330
1E
100
AcDbEntity
  8
STEMPEL
100
AcDbLine
 10
368.5754994138918
 20
611.7174394693519
 30
0.0
 11
367.8019967219955
 21
611.510180047715
 31
0.0
  0
LINE
  5
4F97
330
1E
100
AcDbEntity
  8
STEMPEL
100
AcDbLine
 10
378.5754994138918
 20
611.7174394693519
 30
0.0
 11
379.3490021057881
 21
611.510180047715
 31
0.0
  0
ARC
  5
4F98
330
1E
100
AcDbEntity
  8
STEMPEL
100
AcDbCircle
 10
377.905626432814
 20
606.5879023308288
 30
0.0
 40
5.129537138523076
100
AcDbArc
 50
73.65710669401657
 51
106.3428933059834
  0
LINE
  5
4F99
330
1E
100
AcDbEntity
  8
STEMPEL
100
AcDbLine
 10
380.3136104927208
 20
606.1842704107841
 30
0.0
 11
366.8373883350627
 21
606.1842704107841
 31
0.0
  0
LINE
  5
4F9A
330
1E
100
AcDbEntity
  8
STEMPEL
100
AcDbLine
 10
380.1254994138917
 20
605.1174394693519
 30
0.0
 11
367.0254994138917
 21
605.1174394693519
 31
0.0
  0
LINE
  5
4F9B
330
1E
100
AcDbEntity
  8
STEMPEL
100
AcDbLine
 10
367.8019967219955
 20
611.510180047715
 30
0.0
 11
367.8019967219955
 21
606.5353591513512
 31
0.0
  0
LINE
  5
4F9C
330
1E
100
AcDbEntity
  8
STEMPEL
100
AcDbLine
 10
370.6887480679436
 20
611.510180047715
 30
0.0
 11
370.6887480679436
 21
606.5353591513512
 31
0.0
  0
LINE
  5
4F9D
330
1E
100
AcDbEntity
  8
STEMPEL
100
AcDbLine
 10
376.4622507598399
 20
611.510180047715
 30
0.0
 11
376.4622507598399
 21
606.5353591513512
 31
0.0
  0
LINE
  5
4F9E
330
1E
100
AcDbEntity
  8
STEMPEL
100
AcDbLine
 10
379.3490021057881
 20
611.510180047715
 30
0.0
 11
379.3490021057881
 21
606.5353591513512
 31
0.0
  0
LINE
  5
4F9F
330
1E
100
AcDbEntity
  8
STEMPEL
100
AcDbLine
 10
378.5754994138918
 20
611.7174394693519
 30
0.0
 11
368.5754994138918
 21
611.7174394693519
 31
0.0
  0
LINE
  5
4FA0
330
1E
100
AcDbEntity
  8
STEMPEL
100
AcDbLine
 10
367.8019967219955
 20
606.5353591513512
 30
0.0
 11
366.8373883350627
 21
606.1842704107841
 31
0.0
  0
LINE
  5
4FA1
330
1E
100
AcDbEntity
  8
STEMPEL
100
AcDbLine
 10
380.3136104927208
 20
606.1842704107841
 30
0.0
 11
379.349002105788
 21
606.5353591513512
 31
0.0
  0
ARC
  5
4FA2
330
1E
100
AcDbEntity
  8
STEMPEL
100
AcDbCircle
 10
380.1254994138917
 20
605.6674394693518
 30
0.0
 40
0.5500000000000009
100
AcDbArc
 50
270.0
 51
69.99999999999935
  0
ARC
  5
4FA3
330
1E
100
AcDbEntity
  8
STEMPEL
100
AcDbCircle
 10
367.0254994138917
 20
605.6674394693518
 30
0.0
 40
0.5500000000000003
100
AcDbArc
 50
110.0000000000006
 51
270.0
  0
HATCH
  5
4FFC
330
1E
100
AcDbEntity
  8
SCHRAFF
100
AcDbHatch
 10
0.0
 20
0.0
 30
0.0
210
0.0
220
0.0
230
1.0
  2
NET
 70
     0
 71
     1
 91
        5
 92
        7
 72
     0
 73
     1
 93
        4
 10
374.0754994138919
 20
581.1174394693503
 10
347.7825972997232
 20
581.1174394693503
 10
349.2095846512717
 20
578.1174394693501
 10
374.0754994138918
 20
578.11743946935
 97
        4
330
4E73
330
4468
330
40FD
330
4E40
 92
        7
 72
     0
 73
     1
 93
        4
 10
347.7825972997231
 20
581.1174394693503
 10
322.9754994138918
 20
581.1174394693502
 10
322.9754994138918
 20
578.1174394693501
 10
349.2095846512718
 20
578.1174394693501
 97
        4
330
4E73
330
4E58
330
40FD
330
4468
 92
        7
 72
     0
 73
     1
 93
        4
 10
322.9754994138918
 20
581.1174394693503
 10
314.0754994138918
 20
581.1174394693503
 10
314.0754994138918
 20
578.1174394693501
 10
322.9754994138918
 20
578.1174394693501
 97
        4
330
4E73
330
4E55
330
40FD
330
4E58
 92
        7
 72
     0
 73
     1
 93
        4
 10
189.0754994138918
 20
581.1174394693503
 10
168.0754994138918
 20
581.1174394693503
 10
168.0754994138918
 20
578.1174394693502
 10
189.0754994138917
 20
578.1174394693502
 97
        4
330
4E73
330
4E6B
330
40FD
330
4E69
 92
        7
 72
     0
 73
     1
 93
        4
 10
155.0754994138917
 20
581.1174394693505
 10
129.0754994138917
 20
581.1174394693503
 10
129.0754994138917
 20
578.1174394693502
 10
155.0754994138917
 20
578.1174394693504
 97
        4
330
4E91
330
4E8E
330
40FD
330
4E8C
 75
     0
 76
     1
 52
45.0
 41
15.0
 77
     0
 78
     2
 53
45.0
 43
0.0
 44
0.0
 45
-1.325825214724776
 46
1.325825214724776
 79
     0
 53
135.0
 43
0.0
 44
0.0
 45
-1.325825214724776
 46
-1.325825214724776
 79
     0
 47
0.4033228599313085
 98
        5
 10
358.7523715615712
 20
579.7560259604422
 10
334.9482483176985
 20
579.352703587481
 10
321.6340771136424
 20
579.7560259604422
 10
177.5989598762548
 20
579.7560259604422
 10
142.4979652048873
 20
579.352703587481
  0
LINE
  5
5033
102
{ACAD_REACTORS
330
40DE
330
5049
102
}
330
1E
100
AcDbEntity
  8
STEMPEL
100
AcDbLine
 10
129.0754994138918
 20
431.1174394693503
 30
0.0
 11
156.5754994138918
 21
431.1174394693503
 31
0.0
  0
LINE
  5
5034
102
{ACAD_REACTORS
330
5049
102
}
330
1E
100
AcDbEntity
  8
STEMPEL
100
AcDbLine
 10
166.5754994138918
 20
431.1174394693503
 30
0.0
 11
210.942459941527
 21
431.1174394693503
 31
0.0
  0
HATCH
  5
5049
330
1E
100
AcDbEntity
  8
SCHRAFF
100
AcDbHatch
 10
0.0
 20
0.0
 30
0.0
210
0.0
220
0.0
230
1.0
  2
NET
 70
     0
 71
     1
 91
        4
 92
        7
 72
     0
 73
     1
 93
        4
 10
379.0754994138918
 20
431.1174394693501
 10
322.9754994138919
 20
431.1174394693502
 10
322.9754994138919
 20
428.1174394693502
 10
379.0754994138918
 20
428.1174394693501
 97
        4
330
40E9
330
42CC
330
40E8
330
42E6
 92
        7
 72
     0
 73
     1
 93
        4
 10
322.9754994138919
 20
431.1174394693502
 10
314.0754994138919
 20
431.1174394693502
 10
314.0754994138919
 20
428.1174394693504
 10
322.975499413892
 20
428.1174394693504
 97
        4
330
40E9
330
42C0
330
40E8
330
42CC
 92
        7
 72
     0
 73
     1
 93
        4
 10
189.0754994138918
 20
431.1174394693503
 10
168.0754994138918
 20
431.1174394693504
 10
168.0754994138918
 20
428.1174394693504
 10
189.0754994138918
 20
428.1174394693504
 97
        4
330
5034
330
4188
330
4157
330
4191
 92
        7
 72
     0
 73
     1
 93
        4
 10
155.0754994138918
 20
431.1174394693503
 10
129.0754994138918
 20
431.1174394693503
 10
129.0754994138918
 20
428.1174394693504
 10
155.0754994138918
 20
428.1174394693504
 97
        4
330
5033
330
4171
330
4157
330
4179
 75
     0
 76
     1
 52
45.0
 41
15.0
 77
     0
 78
     2
 53
45.0
 43
0.0
 44
0.0
 45
-1.325825214724776
 46
1.325825214724776
 79
     0
 53
135.0
 43
0.0
 44
0.0
 45
-1.325825214724776
 46
-1.325825214724776
 79
     0
 47
0.2947120518883287
 98
        4
 10
370.8887680855446
 20
428.6875035974078
 10
318.1174115313538
 20
429.571638200033
 10
180.7349936829623
 20
429.8663503861669
 10
142.704238802446
 20
429.8663503861669
  0
LINE
  5
5096
330
1E
100
AcDbEntity
  8
HILF
100
AcDbLine
 10
370.5754994138918
 20
584.1174394693519
 30
0.0
 11
370.5754994138918
 21
604.1174394693521
 31
0.0
  0
LINE
  5
5097
330
1E
100
AcDbEntity
  8
STEMPEL
100
AcDbLine
 10
371.5754994138917
 20
584.1174394693519
 30
0.0
 11
371.5754994138917
 21
604.1174394693521
 31
0.0
  0
LINE
  5
5098
330
1E
100
AcDbEntity
  8
STEMPEL
100
AcDbLine
 10
369.5754994138919
 20
590.1174394693518
 30
0.0
 11
369.5754994138916
 21
598.1174394693521
 31
0.0
  0
LINE
  5
5099
330
1E
100
AcDbEntity
  8
HILF
100
AcDbLine
 10
376.5754994138918
 20
584.1174394693519
 30
0.0
 11
376.5754994138918
 21
604.1174394693521
 31
0.0
  0
LINE
  5
509A
330
1E
100
AcDbEntity
  8
STEMPEL
100
AcDbLine
 10
375.5754994138917
 20
584.1174394693519
 30
0.0
 11
375.5754994138917
 21
604.1174394693521
 31
0.0
  0
LINE
  5
509B
330
1E
100
AcDbEntity
  8
STEMPEL
100
AcDbLine
 10
377.5754994138919
 20
590.1174394693521
 30
0.0
 11
377.5754994138917
 21
598.1174394693521
 31
0.0
  0
HATCH
  5
509C
330
1E
100
AcDbEntity
  8
SCHRAFF
100
AcDbHatch
 10
0.0
 20
0.0
 30
0.0
210
0.0
220
0.0
230
1.0
  2
_USER
 70
     0
 71
     0
 91
        4
 92
        7
 72
     0
 73
     1
 93
       12
 10
370.5754994138918
 20
604.1174394693521
 10
369.5754994138917
 20
604.1174394693521
 10
369.5754994138916
 20
601.117439469352
 10
370.0754994138919
 20
601.117439469352
 10
370.0754994138919
 20
598.1174394693521
 10
369.5754994138916
 20
598.1174394693521
 10
369.5754994138919
 20
590.1174394693521
 10
370.0754994138919
 20
590.1174394693521
 10
370.0754994138918
 20
587.1174394693521
 10
369.5754994138919
 20
587.1174394693521
 10
369.5754994138919
 20
584.1174394693516
 10
370.5754994138918
 20
584.1174394693516
 97
        0
 92
        7
 72
     0
 73
     1
 93
        5
 10
371.5754994138917
 20
604.1174394693521
 10
370.5754994138918
 20
604.1174394693519
 10
370.5754994138918
 20
584.1174394693514
 10
370.8014196482934
 20
584.1174394693514
 10
371.5754994138917
 20
586.3810849232857
 97
        0
 92
        7
 72
     0
 73
     1
 93
        4
 10
376.5754994138918
 20
604.1174394693521
 10
375.5754994138917
 20
604.1174394693521
 10
375.5754994138917
 20
584.1174394693514
 10
376.5754994138918
 20
584.1174394693516
 97
        0
 92
        7
 72
     0
 73
     1
 93
       12
 10
377.5754994138917
 20
604.1174394693521
 10
376.5754994138916
 20
604.1174394693519
 10
376.5754994138918
 20
584.1174394693514
 10
377.5754994138917
 20
584.1174394693514
 10
377.5754994138919
 20
587.1174394693521
 10
377.0754994138919
 20
587.1174394693521
 10
377.0754994138919
 20
590.1174394693521
 10
377.5754994138919
 20
590.1174394693523
 10
377.5754994138917
 20
598.1174394693521
 10
377.0754994138918
 20
598.1174394693521
 10
377.0754994138919
 20
601.117439469352
 10
377.5754994138917
 20
601.117439469352
 97
        0
 75
     0
 76
     0
 52
135.0
 41
1.0
 77
     0
 78
     1
 53
135.0
 43
26.57549941389186
 44
81.09390385076592
 45
-0.7071067811865476
 46
-0.7071067811865475
 79
     0
 47
0.0527561546155446
 98
        4
 10
370.2374511529555
 20
602.5182701633006
 10
371.2932903856862
 20
602.5182701633006
 10
376.3613138059312
 20
602.7820505479232
 10
377.2059847469462
 20
602.7292936411397
  0
LINE
  5
509D
330
1E
100
AcDbEntity
  8
STEMPEL
100
AcDbLine
 10
365.1360559465294
 20
604.1174394693521
 30
0.0
 11
364.9259859016161
 21
592.0825346564766
 31
0.0
  0
LINE
  5
509E
330
1E
100
AcDbEntity
  8
STEMPEL
100
AcDbLine
 10
365.5754994138916
 20
604.1174394693509
 30
0.0
 11
365.3654293689784
 21
592.0825346564767
 31
0.0
  0
LINE
  5
509F
330
1E
100
AcDbEntity
  8
STEMPEL
100
AcDbLine
 10
381.5754994138917
 20
604.1174394693509
 30
0.0
 11
381.9157208635474
 21
584.6261656725697
 31
0.0
  0
ARC
  5
50A0
330
1E
100
AcDbEntity
  8
STEMPEL
100
AcDbCircle
 10
363.3657339786656
 20
592.1174394693512
 30
0.0
 40
2.0
100
AcDbArc
 50
270.0
 51
358.9999999999982
  0
ARC
  5
50A1
330
1E
100
AcDbEntity
  8
STEMPEL
100
AcDbCircle
 10
362.9262905113033
 20
592.1174394693512
 30
0.0
 40
2.0
100
AcDbArc
 50
270.0
 51
358.9999999999982
  0
LINE
  5
50A2
330
1E
100
AcDbEntity
  8
STEMPEL
100
AcDbLine
 10
369.5754994138919
 20
584.1174394693521
 30
0.0
 11
369.5754994138919
 21
587.1174394693521
 31
0.0
  0
LINE
  5
50A3
330
1E
100
AcDbEntity
  8
STEMPEL
100
AcDbLine
 10
370.0754994138919
 20
587.1174394693521
 30
0.0
 11
370.0754994138919
 21
590.1174394693521
 31
0.0
  0
LINE
  5
50A4
330
1E
100
AcDbEntity
  8
STEMPEL
100
AcDbLine
 10
370.0754994138919
 20
587.1174394693521
 30
0.0
 11
369.5754994138919
 21
587.1174394693521
 31
0.0
  0
LINE
  5
50A5
330
1E
100
AcDbEntity
  8
STEMPEL
100
AcDbLine
 10
370.0754994138919
 20
590.1174394693521
 30
0.0
 11
369.5754994138919
 21
590.1174394693521
 31
0.0
  0
LINE
  5
50A6
330
1E
100
AcDbEntity
  8
STEMPEL
100
AcDbLine
 10
377.5754994138919
 20
584.1174394693521
 30
0.0
 11
377.5754994138919
 21
587.1174394693521
 31
0.0
  0
ARC
  5
50A7
330
1E
100
AcDbEntity
  8
STEMPEL
100
AcDbCircle
 10
381.4157970159692
 20
584.6174394693512
 30
0.0
 40
0.5
100
AcDbArc
 50
270.0
 51
0.9999999999952489
  0
LINE
  5
50A8
330
1E
100
AcDbEntity
  8
STEMPEL
100
AcDbLine
 10
377.0754994138919
 20
587.1174394693521
 30
0.0
 11
377.0754994138919
 21
590.1174394693523
 31
0.0
  0
LINE
  5
50A9
330
1E
100
AcDbEntity
  8
STEMPEL
100
AcDbLine
 10
377.5754994138919
 20
587.1174394693521
 30
0.0
 11
377.0754994138918
 21
587.1174394693521
 31
0.0
  0
LINE
  5
50AA
330
1E
100
AcDbEntity
  8
STEMPEL
100
AcDbLine
 10
377.5754994138919
 20
590.1174394693523
 30
0.0
 11
377.0754994138919
 21
590.1174394693521
 31
0.0
  0
LINE
  5
50AB
330
1E
100
AcDbEntity
  8
STEMPEL
100
AcDbLine
 10
365.1360559465294
 20
604.1174394693523
 30
0.0
 11
381.5754994138917
 21
604.1174394693509
 31
0.0
  0
LINE
  5
50AC
330
1E
100
AcDbEntity
  8
STEMPEL
100
AcDbLine
 10
370.0754994138919
 20
601.117439469352
 30
0.0
 11
369.5754994138917
 21
601.117439469352
 31
0.0
  0
LINE
  5
50AD
330
1E
100
AcDbEntity
  8
STEMPEL
100
AcDbLine
 10
369.5754994138916
 20
601.1174394693519
 30
0.0
 11
369.5754994138917
 21
604.1174394693521
 31
0.0
  0
LINE
  5
50AE
330
1E
100
AcDbEntity
  8
STEMPEL
100
AcDbLine
 10
370.0754994138919
 20
598.1174394693521
 30
0.0
 11
370.0754994138919
 21
601.117439469352
 31
0.0
  0
LINE
  5
50AF
330
1E
100
AcDbEntity
  8
STEMPEL
100
AcDbLine
 10
370.0754994138919
 20
598.1174394693521
 30
0.0
 11
369.5754994138917
 21
598.1174394693521
 31
0.0
  0
LINE
  5
50B0
330
1E
100
AcDbEntity
  8
STEMPEL
100
AcDbLine
 10
377.0754994138919
 20
598.1174394693521
 30
0.0
 11
377.0754994138919
 21
601.117439469352
 31
0.0
  0
LINE
  5
50B1
330
1E
100
AcDbEntity
  8
STEMPEL
100
AcDbLine
 10
377.5754994138917
 20
598.1174394693521
 30
0.0
 11
377.0754994138919
 21
598.1174394693521
 31
0.0
  0
LINE
  5
50B2
330
1E
100
AcDbEntity
  8
STEMPEL
100
AcDbLine
 10
377.5754994138917
 20
601.117439469352
 30
0.0
 11
377.0754994138919
 21
601.117439469352
 31
0.0
  0
LINE
  5
50B3
330
1E
100
AcDbEntity
  8
STEMPEL
100
AcDbLine
 10
377.5754994138917
 20
601.117439469352
 30
0.0
 11
377.5754994138917
 21
604.1174394693521
 31
0.0
  0
HATCH
  5
50B4
330
1E
100
AcDbEntity
  8
SCHRAFF
100
AcDbHatch
 10
0.0
 20
0.0
 30
0.0
210
0.0
220
0.0
230
1.0
  2
_USER
 70
     0
 71
     0
 91
        5
 92
        7
 72
     1
 73
     1
 93
       13
 10
314.0754994138918
 20
584.1174394693508
 42
0.0
 10
369.5754994138919
 20
584.1174394693511
 42
0.0
 10
369.5754994138919
 20
587.1174394693522
 42
0.0
 10
370.0754994138919
 20
587.1174394693521
 42
0.0
 10
370.0754994138919
 20
590.1174394693521
 42
0.0
 10
369.5754994138919
 20
590.1174394693521
 42
0.0
 10
369.5754994138917
 20
597.6903722366071
 42
0.0
 10
365.5353715339408
 20
601.8185147666405
 42
0.0
 10
365.3654293689784
 20
592.0825346564767
 42
-0.4091108014277168
 10
363.3657339786656
 20
590.1174394693511
 42
0.0
 10
319.5754994138917
 20
590.117439469351
 42
0.0
 10
318.0754994138908
 20
619.1174394693513
 42
0.0
 10
315.5754994138908
 20
619.1174394693511
 42
0.0
 97
        0
 92
        7
 72
     0
 73
     1
 93
        6
 10
168.5754994138913
 20
590.117439469351
 10
168.5754994138913
 20
584.1174394693498
 10
189.0754994138917
 20
584.1174394693498
 10
187.5754994138909
 20
619.1174394693511
 10
185.0754994138913
 20
619.117439469351
 10
183.5754994138917
 20
590.117439469351
 97
        0
 92
        7
 72
     1
 73
     1
 93
        6
 10
154.5754994138913
 20
584.1174394693496
 42
0.0
 10
154.5754994138915
 20
590.117439469351
 42
0.0
 10
134.5754994138923
 20
590.1174394693509
 42
0.414213562373094
 10
134.0754994138923
 20
589.6174394693509
 42
0.0
 10
134.0754994138923
 20
584.6174394693496
 42
0.4142135623730971
 10
134.5754994138923
 20
584.1174394693496
 42
0.0
 97
        0
 92
        7
 72
     1
 73
     1
 93
       13
 10
381.5754994138917
 20
604.1174394693508
 42
0.0
 10
377.5754994138917
 20
604.1174394693512
 42
0.0
 10
377.5754994138917
 20
601.117439469352
 42
0.0
 10
377.0754994138918
 20
601.117439469352
 42
0.0
 10
377.0754994138919
 20
598.1174394693521
 42
0.0
 10
377.5754994138917
 20
598.1174394693521
 42
0.0
 10
377.5754994138919
 20
590.1174394693523
 42
0.0
 10
377.0754994138919
 20
590.1174394693521
 42
0.0
 10
377.0754994138919
 20
587.1174394693522
 42
0.0
 10
377.5754994138919
 20
587.1174394693522
 42
0.0
 10
377.5754994138919
 20
584.1174394693512
 42
0.0
 10
381.4157970159692
 20
584.1174394693512
 42
0.4193348017583757
 10
381.9157208635474
 20
584.6261656725697
 42
0.0
 97
        0
 92
       23
 72
     0
 73
     1
 93
        8
 10
365.5754994138916
 20
604.1174394693523
 10
365.5353715339409
 20
601.8185147666404
 10
369.5754994138916
 20
597.6903722366072
 10
369.5754994138916
 20
598.1174394693521
 10
370.0754994138919
 20
598.1174394693521
 10
370.0754994138919
 20
601.117439469352
 10
369.5754994138916
 20
601.117439469352
 10
369.5754994138917
 20
604.117439469352
 97
        0
 75
     0
 76
     0
 52
45.0
 41
5.0
 77
     0
 78
     1
 53
45.0
 43
50.14710974566384
 44
114.468733706652
 45
-3.535533905932737
 46
3.535533905932737
 79
     0
 47
0.2836031840932441
 98
        5
 10
315.9607452113963
 20
602.8636377565464
 10
175.5295352741155
 20
587.2654627002978
 10
142.3367028929761
 20
586.9818590396302
 10
380.3605123122805
 20
595.2063513671646
 10
368.4451355899867
 20
603.1472414172142
  0
LINE
  5
50B5
330
1E
100
AcDbEntity
  8
STEMPEL
100
AcDbLine
 10
185.0754994138909
 20
619.117439469351
 30
0.0
 11
318.0754994138908
 21
619.1174394693511
 31
0.0
  0
LINE
  5
50B6
330
1E
100
AcDbEntity
  8
STEMPEL
100
AcDbLine
 10
134.5754994138923
 20
584.1174394693496
 30
0.0
 11
156.5754994138919
 21
584.1174394693498
 31
0.0
  0
LINE
  5
50B7
330
1E
100
AcDbEntity
  8
STEMPEL
100
AcDbLine
 10
315.5754994138908
 20
619.1174394693511
 30
0.0
 11
314.0754994138918
 21
584.1174394693506
 31
0.0
  0
LINE
  5
50B8
330
1E
100
AcDbEntity
  8
STEMPEL
100
AcDbLine
 10
318.0754994138908
 20
619.1174394693511
 30
0.0
 11
319.5754994138917
 21
590.117439469351
 31
0.0
  0
LINE
  5
50B9
330
1E
100
AcDbEntity
  8
STEMPEL
100
AcDbLine
 10
319.5754994138917
 20
590.117439469351
 30
0.0
 11
363.3657339786656
 21
590.1174394693511
 31
0.0
  0
LINE
  5
50BA
330
1E
100
AcDbEntity
  8
STEMPEL
100
AcDbLine
 10
185.0754994138912
 20
619.1174394693491
 30
0.0
 11
183.5754994138917
 21
590.117439469351
 31
0.0
  0
LINE
  5
50BB
330
1E
100
AcDbEntity
  8
STEMPEL
100
AcDbLine
 10
187.5754994138909
 20
619.117439469351
 30
0.0
 11
189.0754994138918
 21
584.1174394693498
 31
0.0
  0
LINE
  5
50BC
330
1E
100
AcDbEntity
  8
STEMPEL
100
AcDbLine
 10
134.5754994138923
 20
590.1174394693509
 30
0.0
 11
183.5754994138917
 21
590.117439469351
 31
0.0
  0
LINE
  5
50BD
330
1E
100
AcDbEntity
  8
STEMPEL
100
AcDbLine
 10
165.995689889931
 20
604.1174394693505
 30
0.0
 11
166.020919796559
 21
602.6720190866831
 31
0.0
  0
LINE
  5
50BE
330
1E
100
AcDbEntity
  8
STEMPEL
100
AcDbLine
 10
156.6091112144778
 20
604.1174394693514
 30
0.0
 11
156.6091112144779
 21
602.1510512699363
 31
0.0
  0
LINE
  5
50BF
330
1E
100
AcDbEntity
  8
STEMPEL
100
AcDbLine
 10
143.7649459580242
 20
604.1174394693521
 30
0.0
 11
143.5205750490296
 21
590.1174394693509
 31
0.0
  0
LINE
  5
50C0
330
1E
100
AcDbEntity
  8
STEMPEL
100
AcDbLine
 10
134.0754994138923
 20
584.6174394693496
 30
0.0
 11
134.0754994138923
 21
589.6174394693509
 31
0.0
  0
ARC
  5
50C1
330
1E
100
AcDbEntity
  8
STEMPEL
100
AcDbCircle
 10
134.5754994138923
 20
584.6174394693496
 30
0.0
 40
0.5
100
AcDbArc
 50
180.0
 51
270.0
  0
ARC
  5
50C2
330
1E
100
AcDbEntity
  8
STEMPEL
100
AcDbCircle
 10
134.5754994138923
 20
589.6174394693509
 30
0.0
 40
0.5
100
AcDbArc
 50
90.0
 51
180.0
  0
LINE
  5
50C3
330
1E
100
AcDbEntity
  8
STEMPEL
100
AcDbLine
 10
154.5754994138915
 20
590.1174394693514
 30
0.0
 11
154.5754994138913
 21
584.1174394693494
 31
0.0
  0
LINE
  5
50C5
330
1E
100
AcDbEntity
  8
STEMPEL
100
AcDbLine
 10
168.5754994138913
 20
590.1174394693514
 30
0.0
 11
168.5754994138913
 21
584.1174394693496
 31
0.0
  0
LINE
  5
50C7
330
1E
100
AcDbEntity
  8
STEMPEL
100
AcDbLine
 10
143.7649459580242
 20
604.1174394693521
 30
0.0
 11
165.995689889931
 21
604.1174394693505
 31
0.0
  0
LINE
  5
50DA
330
1E
100
AcDbEntity
  8
STEMPEL
100
AcDbLine
 10
166.5754994138919
 20
584.1174394693499
 30
0.0
 11
381.4157970159692
 21
584.1174394693512
 31
0.0
  0
ENDSEC
  0
SECTION
  2
OBJECTS
  0
DICTIONARY
  5
C
330
0
100
AcDbDictionary
281
     1
  3
ACAD_COLOR
350
11A
  3
ACAD_GROUP
350
D
  3
ACAD_LAYOUT
350
19
  3
ACAD_MATERIAL
350
119
  3
ACAD_MLINESTYLE
350
16
  3
ACAD_PLOTSETTINGS
350
18
  3
ACAD_PLOTSTYLENAME
350
E
  3
AcDbVariableDictionary
350
125
  0
DICTIONARY
  5
DB
330
1E
100
AcDbDictionary
280
     1
281
     1
  3
ACAD_LAYOUTSELFREF
360
10F
  0
DICTIONARY
  5
DD
330
1A
100
AcDbDictionary
280
     1
281
     1
  3
ACAD_LAYOUTSELFREF
360
10E
  0
DICTIONARY
  5
11A
102
{ACAD_REACTORS
330
C
102
}
330
C
100
AcDbDictionary
281
     1
  0
DICTIONARY
  5
D
102
{ACAD_REACTORS
330
C
102
}
330
C
100
AcDbDictionary
281
     1
  0
DICTIONARY
  5
19
102
{ACAD_REACTORS
330
C
102
}
330
C
100
AcDbDictionary
281
     1
  3
Layout1
350
1D
  3
Model
350
21
  0
DICTIONARY
  5
119
102
{ACAD_REACTORS
330
C
102
}
330
C
100
AcDbDictionary
281
     1
  0
DICTIONARY
  5
16
102
{ACAD_REACTORS
330
C
102
}
330
C
100
AcDbDictionary
281
     1
  3
Standard
350
17
  0
DICTIONARY
  5
18
102
{ACAD_REACTORS
330
C
102
}
330
C
100
AcDbDictionary
281
     1
  0
ACDBDICTIONARYWDFLT
  5
E
102
{ACAD_REACTORS
330
C
102
}
330
C
100
AcDbDictionary
281
     1
  3
Normal
350
F
100
AcDbDictionaryWithDefault
340
F
  0
DICTIONARY
  5
125
102
{ACAD_REACTORS
330
C
102
}
330
C
100
AcDbDictionary
281
     1
  3
DIMASSOC
350
126
  3
PROJECTNAME
350
127
  0
XRECORD
  5
10F
102
{ACAD_REACTORS
330
DB
102
}
330
DB
100
AcDbXrecord
280
     1
340
1E
  0
XRECORD
  5
10E
102
{ACAD_REACTORS
330
DD
102
}
330
DD
100
AcDbXrecord
280
     1
340
1A
  0
LAYOUT
  5
1D
102
{ACAD_REACTORS
330
19
102
}
330
19
100
AcDbPlotSettings
  1

  2
\\NT_WORK01\HP LaserJet 5000 PCL 6
  4

  6

 40
0.0
 41
0.0
 42
0.0
 43
0.0
 44
0.0
 45
0.0
 46
0.0
 47
0.0
 48
0.0
 49
0.0
140
0.0
141
0.0
142
1.0
143
1.0
 70
   688
 72
     0
 73
     0
 74
     5
  7

 75
    16
147
1.0
 76
     0
 77
     2
 78
   300
148
0.0
149
0.0
100
AcDbLayout
  1
Layout1
 70
     0
 71
     1
 10
0.0
 20
0.0
 11
12.0
 21
9.0
 12
0.0
 22
0.0
 32
0.0
 14
1.000000000000000E+20
 24
1.000000000000000E+20
 34
1.000000000000000E+20
 15
-1.000000000000000E+20
 25
-1.000000000000000E+20
 35
-1.000000000000000E+20
146
0.0
 13
0.0
 23
0.0
 33
0.0
 16
1.0
 26
0.0
 36
0.0
 17
0.0
 27
1.0
 37
0.0
 76
     0
330
1A
  0
LAYOUT
  5
21
102
{ACAD_REACTORS
330
19
102
}
330
19
100
AcDbPlotSettings
  1

  2
\\NT_WORK01\HP LaserJet 5000 PCL 6
  4

  6

 40
0.0
 41
0.0
 42
0.0
 43
0.0
 44
0.0
 45
0.0
 46
0.0
 47
0.0
 48
0.0
 49
0.0
140
0.0
141
0.0
142
1.0
143
1.0
 70
  1712
 72
     0
 73
     0
 74
     0
  7

 75
     0
147
1.0
 76
     0
 77
     2
 78
   300
148
0.0
149
0.0
100
AcDbLayout
  1
Model
 70
     1
 71
     0
 10
0.0
 20
0.0
 11
12.0
 21
9.0
 12
0.0
 22
0.0
 32
0.0
 14
0.0
 24
0.0
 34
0.0
 15
0.0
 25
0.0
 35
0.0
146
0.0
 13
0.0
 23
0.0
 33
0.0
 16
1.0
 26
0.0
 36
0.0
 17
0.0
 27
1.0
 37
0.0
 76
     0
330
1E
  0
MLINESTYLE
  5
17
102
{ACAD_REACTORS
330
16
102
}
330
16
100
AcDbMlineStyle
  2
STANDARD
 70
     0
  3

 62
   256
 51
90.0
 52
90.0
 71
     2
 49
0.5
 62
   256
  6
BYLAYER
 49
-0.5
 62
   256
  6
BYLAYER
  0
ACDBPLACEHOLDER
  5
F
102
{ACAD_REACTORS
330
E
102
}
330
E
  0
DICTIONARYVAR
  5
126
102
{ACAD_REACTORS
330
125
102
}
330
125
100
DictionaryVariables
280
     0
  1
1
  0
DICTIONARYVAR
  5
127
102
{ACAD_REACTORS
330
125
102
}
330
125
100
DictionaryVariables
280
     0
  1

  0
ENDSEC
  0
EOF
