  0
SECTION
  2
HEADER
  9
$ACADVER
  1
AC1018
  9
$ACADMAINTVER
 70
     2
  9
$DWGCODEPAGE
  3
ANSI_1252
  9
$INSBASE
 10
0.0
 20
0.0
 30
0.0
  9
$EXTMIN
 10
0.0
 20
-0.0000000000000568
 30
0.0
  9
$EXTMAX
 10
594.0
 20
840.0
 30
0.0
  9
$LIMMIN
 10
0.0
 20
0.0
  9
$LIMMAX
 10
594.0
 20
840.0
  9
$ORTHOMODE
 70
     1
  9
$REGENMODE
 70
     1
  9
$FILLMODE
 70
     1
  9
$QTEXTMODE
 70
     0
  9
$MIRRTEXT
 70
     1
  9
$LTSCALE
 40
20.0
  9
$ATTMODE
 70
     1
  9
$TEXTSIZE
 40
3.5
  9
$TRACEWID
 40
1.0
  9
$TEXTSTYLE
  7
STANDARD
  9
$CLAYER
  8
SCHRAFF
  9
$CELTYPE
  6
ByLayer
  9
$CECOLOR
 62
   256
  9
$CELTSCALE
 40
1.0
  9
$DISPSILH
 70
     0
  9
$DIMSCALE
 40
2.0
  9
$DIMASZ
 40
3.5
  9
$DIMEXO
 40
1.0
  9
$DIMDLI
 40
7.0
  9
$DIMRND
 40
0.0
  9
$DIMDLE
 40
0.0
  9
$DIMEXE
 40
1.0
  9
$DIMTP
 40
0.0
  9
$DIMTM
 40
0.0
  9
$DIMTXT
 40
3.5
  9
$DIMCEN
 40
1.5
  9
$DIMTSZ
 40
0.0
  9
$DIMTOL
 70
     0
  9
$DIMLIM
 70
     0
  9
$DIMTIH
 70
     0
  9
$DIMTOH
 70
     0
  9
$DIMSE1
 70
     0
  9
$DIMSE2
 70
     0
  9
$DIMTAD
 70
     1
  9
$DIMZIN
 70
     8
  9
$DIMBLK
  1

  9
$DIMASO
 70
     1
  9
$DIMSHO
 70
     0
  9
$DIMPOST
  1

  9
$DIMAPOST
  1

  9
$DIMALT
 70
     0
  9
$DIMALTD
 70
     2
  9
$DIMALTF
 40
25.4
  9
$DIMLFAC
 40
1.0
  9
$DIMTOFL
 70
     1
  9
$DIMTVP
 40
0.0
  9
$DIMTIX
 70
     0
  9
$DIMSOXD
 70
     0
  9
$DIMSAH
 70
     0
  9
$DIMBLK1
  1

  9
$DIMBLK2
  1

  9
$DIMSTYLE
  2
Standard
  9
$DIMCLRD
 70
     0
  9
$DIMCLRE
 70
     0
  9
$DIMCLRT
 70
     1
  9
$DIMTFAC
 40
0.5142857142857144
  9
$DIMGAP
 40
1.5
  9
$DIMJUST
 70
     0
  9
$DIMSD1
 70
     0
  9
$DIMSD2
 70
     0
  9
$DIMTOLJ
 70
     1
  9
$DIMTZIN
 70
     8
  9
$DIMALTZ
 70
     8
  9
$DIMALTTZ
 70
     8
  9
$DIMUPT
 70
     0
  9
$DIMDEC
 70
     2
  9
$DIMTDEC
 70
     2
  9
$DIMALTU
 70
     2
  9
$DIMALTTD
 70
     2
  9
$DIMTXSTY
  7
STANDARD
  9
$DIMAUNIT
 70
     0
  9
$DIMADEC
 70
     2
  9
$DIMALTRND
 40
0.0
  9
$DIMAZIN
 70
     2
  9
$DIMDSEP
 70
    46
  9
$DIMATFIT
 70
     3
  9
$DIMFRAC
 70
     0
  9
$DIMLDRBLK
  1

  9
$DIMLUNIT
 70
     2
  9
$DIMLWD
 70
    -2
  9
$DIMLWE
 70
    -2
  9
$DIMTMOVE
 70
     0
  9
$LUNITS
 70
     2
  9
$LUPREC
 70
     2
  9
$SKETCHINC
 40
1.0
  9
$FILLETRAD
 40
0.0
  9
$AUNITS
 70
     0
  9
$AUPREC
 70
     0
  9
$MENU
  1
ACAD
  9
$ELEVATION
 40
0.0
  9
$PELEVATION
 40
0.0
  9
$THICKNESS
 40
0.0
  9
$LIMCHECK
 70
     0
  9
$CHAMFERA
 40
0.0
  9
$CHAMFERB
 40
0.0
  9
$CHAMFERC
 40
0.0
  9
$CHAMFERD
 40
0.0
  9
$SKPOLY
 70
     0
  9
$TDCREATE
 40
2455397.825393172
  9
$TDUCREATE
 40
2455397.783726505
  9
$TDUPDATE
 40
2455610.572078218
  9
$TDUUPDATE
 40
2455610.530411551
  9
$TDINDWG
 40
0.0749665972
  9
$TDUSRTIMER
 40
0.0749665972
  9
$USRTIMER
 70
     1
  9
$ANGBASE
 50
0.0
  9
$ANGDIR
 70
     0
  9
$PDMODE
 70
     0
  9
$PDSIZE
 40
0.0
  9
$PLINEWID
 40
0.0
  9
$SPLFRAME
 70
     0
  9
$SPLINETYPE
 70
     6
  9
$SPLINESEGS
 70
     8
  9
$HANDSEED
  5
C8A
  9
$SURFTAB1
 70
     6
  9
$SURFTAB2
 70
     6
  9
$SURFTYPE
 70
     6
  9
$SURFU
 70
     6
  9
$SURFV
 70
     6
  9
$UCSBASE
  2

  9
$UCSNAME
  2

  9
$UCSORG
 10
0.0
 20
0.0
 30
0.0
  9
$UCSXDIR
 10
1.0
 20
0.0
 30
0.0
  9
$UCSYDIR
 10
0.0
 20
1.0
 30
0.0
  9
$UCSORTHOREF
  2

  9
$UCSORTHOVIEW
 70
     0
  9
$UCSORGTOP
 10
0.0
 20
0.0
 30
0.0
  9
$UCSORGBOTTOM
 10
0.0
 20
0.0
 30
0.0
  9
$UCSORGLEFT
 10
0.0
 20
0.0
 30
0.0
  9
$UCSORGRIGHT
 10
0.0
 20
0.0
 30
0.0
  9
$UCSORGFRONT
 10
0.0
 20
0.0
 30
0.0
  9
$UCSORGBACK
 10
0.0
 20
0.0
 30
0.0
  9
$PUCSBASE
  2

  9
$PUCSNAME
  2

  9
$PUCSORG
 10
0.0
 20
0.0
 30
0.0
  9
$PUCSXDIR
 10
1.0
 20
0.0
 30
0.0
  9
$PUCSYDIR
 10
0.0
 20
1.0
 30
0.0
  9
$PUCSORTHOREF
  2

  9
$PUCSORTHOVIEW
 70
     0
  9
$PUCSORGTOP
 10
0.0
 20
0.0
 30
0.0
  9
$PUCSORGBOTTOM
 10
0.0
 20
0.0
 30
0.0
  9
$PUCSORGLEFT
 10
0.0
 20
0.0
 30
0.0
  9
$PUCSORGRIGHT
 10
0.0
 20
0.0
 30
0.0
  9
$PUCSORGFRONT
 10
0.0
 20
0.0
 30
0.0
  9
$PUCSORGBACK
 10
0.0
 20
0.0
 30
0.0
  9
$USERI1
 70
     0
  9
$USERI2
 70
     0
  9
$USERI3
 70
     0
  9
$USERI4
 70
     0
  9
$USERI5
 70
     0
  9
$USERR1
 40
0.0
  9
$USERR2
 40
0.0
  9
$USERR3
 40
0.0
  9
$USERR4
 40
0.0
  9
$USERR5
 40
0.0
  9
$WORLDVIEW
 70
     1
  9
$SHADEDGE
 70
     3
  9
$SHADEDIF
 70
    70
  9
$TILEMODE
 70
     1
  9
$MAXACTVP
 70
    16
  9
$PINSBASE
 10
0.0
 20
0.0
 30
0.0
  9
$PLIMCHECK
 70
     0
  9
$PEXTMIN
 10
1.000000000000000E+20
 20
1.000000000000000E+20
 30
1.000000000000000E+20
  9
$PEXTMAX
 10
-1.000000000000000E+20
 20
-1.000000000000000E+20
 30
-1.000000000000000E+20
  9
$PLIMMIN
 10
0.0
 20
0.0
  9
$PLIMMAX
 10
12.0
 20
9.0
  9
$UNITMODE
 70
     0
  9
$VISRETAIN
 70
     0
  9
$PLINEGEN
 70
     0
  9
$PSLTSCALE
 70
     0
  9
$TREEDEPTH
 70
  3020
  9
$CMLSTYLE
  2
Standard
  9
$CMLJUST
 70
     0
  9
$CMLSCALE
 40
1.0
  9
$PROXYGRAPHICS
 70
     1
  9
$MEASUREMENT
 70
     0
  9
$CELWEIGHT
370
    -1
  9
$ENDCAPS
280
     0
  9
$JOINSTYLE
280
     0
  9
$LWDISPLAY
290
     0
  9
$INSUNITS
 70
     0
  9
$HYPERLINKBASE
  1

  9
$STYLESHEET
  1
monochrome 1.ctb
  9
$XEDIT
290
     1
  9
$CEPSNTYPE
380
     0
  9
$PSTYLEMODE
290
     1
  9
$FINGERPRINTGUID
  2
{D68B0D0D-A558-11D7-B632-000102183313}
  9
$VERSIONGUID
  2
{5AF692E2-40E0-4B6A-B688-DDE7A0375B12}
  9
$EXTNAMES
290
     1
  9
$PSVPSCALE
 40
0.0
  9
$OLESTARTUP
290
     0
  9
$SORTENTS
280
   127
  9
$INDEXCTL
280
     0
  9
$HIDETEXT
280
     0
  9
$XCLIPFRAME
290
     0
  9
$HALOGAP
280
     0
  9
$OBSCOLOR
 70
   257
  9
$OBSLTYPE
280
     0
  9
$INTERSECTIONDISPLAY
280
     0
  9
$INTERSECTIONCOLOR
 70
   257
  9
$DIMASSOC
280
     1
  9
$PROJECTNAME
  1

  0
ENDSEC
  0
SECTION
  2
CLASSES
  0
CLASS
  1
ACDBDICTIONARYWDFLT
  2
AcDbDictionaryWithDefault
  3
ObjectDBX Classes
 90
        0
 91
        1
280
     0
281
     0
  0
CLASS
  1
DICTIONARYVAR
  2
AcDbDictionaryVar
  3
ObjectDBX Classes
 90
        0
 91
        2
280
     0
281
     0
  0
ENDSEC
  0
SECTION
  2
TABLES
  0
TABLE
  2
VPORT
  5
8
330
0
100
AcDbSymbolTable
 70
     2
  0
VPORT
  5
C89
330
8
100
AcDbSymbolTableRecord
100
AcDbViewportTableRecord
  2
*Active
 70
     0
 10
0.0
 20
0.0
 11
1.0
 21
1.0
 12
296.9999999999999
 22
420.0
 13
0.0
 23
0.0
 14
1.0
 24
1.0
 15
10.0
 25
10.0
 16
0.0
 26
0.0
 36
1.0
 17
0.0
 27
0.0
 37
0.0
 40
840.471480403457
 41
1.336927223719676
 42
50.0
 43
0.0
 44
0.0
 50
0.0
 51
0.0
 71
     0
 72
  1500
 73
     1
 74
     0
 75
     0
 76
     0
 77
     0
 78
     0
281
     0
 65
     1
110
0.0
120
0.0
130
0.0
111
1.0
121
0.0
131
0.0
112
0.0
122
1.0
132
0.0
 79
     0
146
0.0
  0
ENDTAB
  0
TABLE
  2
LTYPE
  5
5
330
0
100
AcDbSymbolTable
 70
     3
  0
LTYPE
  5
13
330
5
100
AcDbSymbolTableRecord
100
AcDbLinetypeTableRecord
  2
ByBlock
 70
     0
  3

 72
    65
 73
     0
 40
0.0
  0
LTYPE
  5
14
330
5
100
AcDbSymbolTableRecord
100
AcDbLinetypeTableRecord
  2
ByLayer
 70
     0
  3

 72
    65
 73
     0
 40
0.0
  0
LTYPE
  5
15
330
5
100
AcDbSymbolTableRecord
100
AcDbLinetypeTableRecord
  2
Continuous
 70
     0
  3
Solid line
 72
    65
 73
     0
 40
0.0
  0
LTYPE
  5
25
330
5
100
AcDbSymbolTableRecord
100
AcDbLinetypeTableRecord
  2
STRICHPUNKT
 70
     0
  3
__ . __ . __ . __ . __ . __ . __ . __ . __ . __
 72
    65
 73
     4
 40
1.0
 49
0.5
 74
     0
 49
-0.25
 74
     0
 49
0.0
 74
     0
 49
-0.25
 74
     0
  0
LTYPE
  5
34
330
5
100
AcDbSymbolTableRecord
100
AcDbLinetypeTableRecord
  2
AUSGEZOGEN
 70
     0
  3
Ausgezogene Linie
 72
    65
 73
     0
 40
0.0
  0
ENDTAB
  0
TABLE
  2
LAYER
  5
2
330
0
100
AcDbSymbolTable
 70
     9
  0
LAYER
  5
10
330
2
100
AcDbSymbolTableRecord
100
AcDbLayerTableRecord
  2
0
 70
     0
 62
     7
  6
Continuous
370
    -3
390
F
  0
LAYER
  5
2B
330
2
100
AcDbSymbolTableRecord
100
AcDbLayerTableRecord
  2
VOLL
 70
     0
 62
     1
  6
Continuous
370
    -3
390
F
  0
LAYER
  5
2C
330
2
100
AcDbSymbolTableRecord
100
AcDbLayerTableRecord
  2
HILF
 70
     0
 62
     2
  6
Continuous
370
    -3
390
F
  0
LAYER
  5
2D
330
2
100
AcDbSymbolTableRecord
100
AcDbLayerTableRecord
  2
MITTEL
 70
     0
 62
     2
  6
STRICHPUNKT
370
    -3
390
F
  0
LAYER
  5
2F
330
2
100
AcDbSymbolTableRecord
100
AcDbLayerTableRecord
  2
BEM
 70
     0
 62
     7
  6
Continuous
370
    -3
390
F
  0
LAYER
  5
30
330
2
100
AcDbSymbolTableRecord
100
AcDbLayerTableRecord
  2
STEMPEL
 70
     0
 62
     3
  6
Continuous
370
    -3
390
F
  0
LAYER
  5
33
330
2
100
AcDbSymbolTableRecord
100
AcDbLayerTableRecord
  2
TEXT
 70
     0
 62
     7
  6
Continuous
370
    -3
390
F
  0
LAYER
  5
1DD
330
2
100
AcDbSymbolTableRecord
100
AcDbLayerTableRecord
  2
DEFPOINTS
 70
     0
 62
     7
  6
AUSGEZOGEN
290
     0
370
    -3
390
F
  0
LAYER
  5
1DE
330
2
100
AcDbSymbolTableRecord
100
AcDbLayerTableRecord
  2
SCHRAFF
 70
     0
 62
     7
  6
AUSGEZOGEN
370
    -3
390
F
  0
ENDTAB
  0
TABLE
  2
STYLE
  5
3
330
0
100
AcDbSymbolTable
 70
     2
  0
STYLE
  5
11
330
3
100
AcDbSymbolTableRecord
100
AcDbTextStyleTableRecord
  2
STANDARD
 70
     0
 40
0.0
 41
0.8
 50
0.0
 71
     0
 42
3.5
  3
simplex.shx
  4

  0
STYLE
  5
24
330
3
100
AcDbSymbolTableRecord
100
AcDbTextStyleTableRecord
  2
GREEKS
 70
     0
 40
0.0
 41
0.8
 50
0.0
 71
     0
 42
2.5
  3
SIMPLEX.shx
  4

  0
ENDTAB
  0
TABLE
  2
VIEW
  5
6
330
0
100
AcDbSymbolTable
 70
     0
  0
ENDTAB
  0
TABLE
  2
UCS
  5
7
330
0
100
AcDbSymbolTable
 70
     0
  0
ENDTAB
  0
TABLE
  2
APPID
  5
9
330
0
100
AcDbSymbolTable
 70
     1
  0
APPID
  5
12
330
9
100
AcDbSymbolTableRecord
100
AcDbRegAppTableRecord
  2
ACAD
 70
     0
  0
ENDTAB
  0
TABLE
  2
DIMSTYLE
  5
A
330
0
100
AcDbSymbolTable
 70
     1
100
AcDbDimStyleTable
 71
     1
340
A2
  0
DIMSTYLE
105
A2
102
{ACAD_REACTORS
330
53F
330
3B2
330
843
330
844
330
84A
330
997
330
AC8
330
ACA
330
ACF
102
}
330
A
100
AcDbSymbolTableRecord
100
AcDbDimStyleTableRecord
  2
Standard
 70
     0
340
11
  0
ENDTAB
  0
TABLE
  2
BLOCK_RECORD
  5
1
330
0
100
AcDbSymbolTable
 70
    11
  0
BLOCK_RECORD
  5
1E
102
{ACAD_XDICTIONARY
360
DB
102
}
330
1
100
AcDbSymbolTableRecord
100
AcDbBlockTableRecord
  2
*Model_Space
340
21
  0
BLOCK_RECORD
  5
1A
102
{ACAD_XDICTIONARY
360
DD
102
}
330
1
100
AcDbSymbolTableRecord
100
AcDbBlockTableRecord
  2
*Paper_Space
340
1D
  0
BLOCK_RECORD
  5
22
330
1
100
AcDbSymbolTableRecord
100
AcDbBlockTableRecord
  2
LOGO
340
0
102
{BLKREFS
331
56
102
}
  0
BLOCK_RECORD
  5
23
330
1
100
AcDbSymbolTableRecord
100
AcDbBlockTableRecord
  2
LORO
340
0
102
{BLKREFS
331
9B
102
}
  0
BLOCK_RECORD
  5
57C
330
1
100
AcDbSymbolTableRecord
100
AcDbBlockTableRecord
  2
*D2
340
0
  0
BLOCK_RECORD
  5
588
330
1
100
AcDbSymbolTableRecord
100
AcDbBlockTableRecord
  2
*D3
340
0
  0
BLOCK_RECORD
  5
998
330
1
100
AcDbSymbolTableRecord
100
AcDbBlockTableRecord
  2
*D4
340
0
  0
BLOCK_RECORD
  5
9A4
330
1
100
AcDbSymbolTableRecord
100
AcDbBlockTableRecord
  2
*D5
340
0
  0
BLOCK_RECORD
  5
9B0
330
1
100
AcDbSymbolTableRecord
100
AcDbBlockTableRecord
  2
*D6
340
0
  0
BLOCK_RECORD
  5
9C8
330
1
100
AcDbSymbolTableRecord
100
AcDbBlockTableRecord
  2
*D7
340
0
  0
BLOCK_RECORD
  5
AD7
330
1
100
AcDbSymbolTableRecord
100
AcDbBlockTableRecord
  2
*D8
340
0
  0
BLOCK_RECORD
  5
AE3
330
1
100
AcDbSymbolTableRecord
100
AcDbBlockTableRecord
  2
*D9
340
0
  0
BLOCK_RECORD
  5
AEF
330
1
100
AcDbSymbolTableRecord
100
AcDbBlockTableRecord
  2
*D10
340
0
  0
ENDTAB
  0
ENDSEC
  0
SECTION
  2
BLOCKS
  0
BLOCK
  5
37
330
1E
100
AcDbEntity
  8
0
100
AcDbBlockBegin
  2
*Model_Space
 70
     0
 10
0.0
 20
0.0
 30
0.0
  3
*Model_Space
  1

  0
ENDBLK
  5
38
330
1E
100
AcDbEntity
  8
0
100
AcDbBlockEnd
  0
BLOCK
  5
35
330
1A
100
AcDbEntity
 67
     1
  8
0
100
AcDbBlockBegin
  2
*Paper_Space
 70
     0
 10
0.0
 20
0.0
 30
0.0
  3
*Paper_Space
  1

  0
ENDBLK
  5
36
330
1A
100
AcDbEntity
 67
     1
  8
0
100
AcDbBlockEnd
  0
BLOCK
  5
39
330
22
100
AcDbEntity
  8
0
100
AcDbBlockBegin
  2
LOGO
 70
     0
 10
0.0
 20
0.0
 30
0.0
  3
LOGO
  1

  0
ARC
  5
3A
330
22
100
AcDbEntity
  8
0
100
AcDbCircle
 10
11.59973089678112
 20
-9.271599258481501
 30
0.0
 40
4.5
100
AcDbArc
 50
270.0
 51
231.0575587310159
  0
LINE
  5
3B
330
22
100
AcDbEntity
  8
0
100
AcDbLine
 10
3.599730896781125
 20
-4.771599258481529
 30
0.0
 11
3.599730896781153
 21
-11.77159925848133
 31
0.0
  0
LINE
  5
3C
330
22
100
AcDbEntity
  8
0
100
AcDbLine
 10
2.599730896781125
 20
-4.771599258481529
 30
0.0
 11
2.599730896781153
 21
-11.77159925848133
 31
0.0
  0
CIRCLE
  5
3D
330
22
100
AcDbEntity
  8
0
100
AcDbCircle
 10
11.59973089678112
 20
-9.271599258481501
 30
0.0
 40
3.5
  0
ARC
  5
3E
330
22
100
AcDbEntity
  8
0
100
AcDbCircle
 10
31.59973089678115
 20
-9.271599258481472
 30
0.0
 40
4.5
100
AcDbArc
 50
270.0
 51
231.0575587310182
  0
LINE
  5
3F
330
22
100
AcDbEntity
  8
0
100
AcDbLine
 10
17.59973089678112
 20
-4.771599258481472
 30
0.0
 11
17.59973089678115
 21
-13.77159925848147
 31
0.0
  0
ARC
  5
40
330
22
100
AcDbEntity
  8
0
100
AcDbCircle
 10
22.59973089678116
 20
-7.271599258481472
 30
0.0
 40
2.5
100
AcDbArc
 50
293.1161887722295
 51
90.0
  0
CIRCLE
  5
41
330
22
100
AcDbEntity
  8
0
100
AcDbCircle
 10
31.59973089678115
 20
-9.271599258481472
 30
0.0
 40
3.5
  0
ARC
  5
42
330
22
100
AcDbEntity
  8
0
100
AcDbCircle
 10
4.599730896781153
 20
-11.77159925848133
 30
0.0
 40
1.0
100
AcDbArc
 50
180.0
 51
270.0
  0
ARC
  5
43
330
22
100
AcDbEntity
  8
0
100
AcDbCircle
 10
4.599730896781153
 20
-11.77159925848133
 30
0.0
 40
2.0
100
AcDbArc
 50
179.9999999999992
 51
270.0
  0
LINE
  5
44
330
22
100
AcDbEntity
  8
0
100
AcDbLine
 10
11.59973089678115
 20
-13.77159925848144
 30
0.0
 11
4.599730896781153
 21
-13.77159925848147
 31
0.0
  0
LINE
  5
45
330
22
100
AcDbEntity
  8
0
100
AcDbLine
 10
8.771303772034769
 20
-12.77159925848136
 30
0.0
 11
4.599730896781153
 21
-12.77159925848133
 31
0.0
  0
LINE
  5
46
330
22
100
AcDbEntity
  8
0
100
AcDbLine
 10
31.59973089678115
 20
-13.77159925848147
 30
0.0
 11
23.6715276665056
 21
-13.77159925848144
 31
0.0
  0
LINE
  5
47
330
22
100
AcDbEntity
  8
0
100
AcDbLine
 10
23.56565672307022
 20
-9.51278021337896
 30
0.0
 11
24.4388546544846
 21
-12.77159925848144
 31
0.0
  0
LINE
  5
48
330
22
100
AcDbEntity
  8
0
100
AcDbLine
 10
22.59973089678116
 20
-9.771599258481472
 30
0.0
 11
18.59973089678112
 21
-9.771599258481472
 31
0.0
  0
LINE
  5
49
330
22
100
AcDbEntity
  8
0
100
AcDbLine
 10
18.59973089678115
 20
-13.77159925848144
 30
0.0
 11
17.59973089678115
 21
-13.77159925848144
 31
0.0
  0
LINE
  5
4A
330
22
100
AcDbEntity
  8
0
100
AcDbLine
 10
18.59973089678115
 20
-9.771599258481472
 30
0.0
 11
18.59973089678115
 21
-13.77159925848144
 31
0.0
  0
LINE
  5
4B
330
22
100
AcDbEntity
  8
0
100
AcDbLine
 10
22.59973089678116
 20
-9.771599258481472
 30
0.0
 11
23.67152766650562
 21
-13.77159925848147
 31
0.0
  0
ARC
  5
4C
330
22
100
AcDbEntity
  8
0
100
AcDbCircle
 10
22.59973089678116
 20
-7.271599258481472
 30
0.0
 40
2.5
100
AcDbArc
 50
270.0
 51
270.0000000000007
  0
LINE
  5
4D
330
22
100
AcDbEntity
  8
0
100
AcDbLine
 10
28.77130377203494
 20
-12.77159925848147
 30
0.0
 11
24.43885465448463
 21
-12.77159925848144
 31
0.0
  0
LINE
  5
4E
330
22
100
AcDbEntity
  8
0
100
AcDbLine
 10
3.599730896781125
 20
-4.771599258481472
 30
0.0
 11
2.599730896781125
 21
-4.771599258481472
 31
0.0
  0
LINE
  5
4F
330
22
100
AcDbEntity
  8
0
100
AcDbLine
 10
22.59973089678116
 20
-8.771599258481472
 30
0.0
 11
18.59973089678115
 21
-8.771599258481472
 31
0.0
  0
LINE
  5
50
330
22
100
AcDbEntity
  8
0
100
AcDbLine
 10
22.59973089678116
 20
-5.771599258481472
 30
0.0
 11
18.59973089678115
 21
-5.771599258481472
 31
0.0
  0
LINE
  5
51
330
22
100
AcDbEntity
  8
0
100
AcDbLine
 10
22.59973089678116
 20
-4.771599258481472
 30
0.0
 11
17.59973089678115
 21
-4.771599258481472
 31
0.0
  0
LINE
  5
52
330
22
100
AcDbEntity
  8
0
100
AcDbLine
 10
18.59973089678115
 20
-5.771599258481472
 30
0.0
 11
18.59973089678115
 21
-8.771599258481472
 31
0.0
  0
ARC
  5
53
330
22
100
AcDbEntity
  8
0
100
AcDbCircle
 10
22.59973089678116
 20
-7.271599258481472
 30
0.0
 40
1.5
100
AcDbArc
 50
270.0
 51
90.0
  0
ENDBLK
  5
54
330
22
100
AcDbEntity
  8
0
100
AcDbBlockEnd
  0
BLOCK
  5
55
330
23
100
AcDbEntity
  8
0
100
AcDbBlockBegin
  2
LORO
 70
     0
 10
0.0
 20
0.0
 30
0.0
  3
LORO
  1

  0
INSERT
  5
56
330
23
100
AcDbEntity
  8
STEMPEL
100
AcDbBlockReference
  2
LOGO
 10
-1.748032802467321
 20
3.771489518552062
 30
0.0
  0
ENDBLK
  5
57
330
23
100
AcDbEntity
  8
0
100
AcDbBlockEnd
  0
BLOCK
  5
586
330
57C
100
AcDbEntity
  8
0
100
AcDbBlockBegin
  2
*D2
 70
     1
 10
0.0
 20
0.0
 30
0.0
  3
*D2
  1

  0
LINE
  5
BBD
330
57C
100
AcDbEntity
  8
BEM
 62
     0
370
    -2
100
AcDbLine
 10
210.394389837001
 20
217.8399894665572
 30
0.0
 11
83.88483391986186
 21
217.8399894665572
 31
0.0
  0
LINE
  5
BBE
330
57C
100
AcDbEntity
  8
BEM
 62
     0
370
    -2
100
AcDbLine
 10
123.8694886365717
 20
477.8412840202846
 30
0.0
 11
83.88483391986193
 21
477.8412840202846
 31
0.0
  0
LINE
  5
BBF
330
57C
100
AcDbEntity
  8
BEM
 62
     0
370
    -2
100
AcDbLine
 10
85.88483391986189
 20
224.8399894665572
 30
0.0
 11
85.88483391986192
 21
470.8412840202846
 31
0.0
  0
SOLID
  5
BC0
330
57C
100
AcDbEntity
  8
BEM
 62
     0
100
AcDbTrace
 10
84.71816725319522
 20
224.8399894665572
 30
0.0
 11
87.05150058652856
 21
224.8399894665572
 31
0.0
 12
85.88483391986187
 22
217.8399894665572
 32
0.0
 13
85.88483391986187
 23
217.8399894665572
 33
0.0
  0
SOLID
  5
BC1
330
57C
100
AcDbEntity
  8
BEM
 62
     0
100
AcDbTrace
 10
84.71816725319525
 20
470.8412840202846
 30
0.0
 11
87.0515005865286
 21
470.8412840202846
 31
0.0
 12
85.88483391986192
 22
477.8412840202846
 32
0.0
 13
85.88483391986192
 23
477.8412840202846
 33
0.0
  0
MTEXT
  5
BC2
330
57C
100
AcDbEntity
  8
BEM
 62
     1
100
AcDbMText
 10
79.38483391986185
 20
347.8406367434209
 30
0.0
 40
7.0
 41
0.0
 71
     5
 72
     1
  1
\A1;260
 11
0.0000000000000001
 21
1.0
 31
0.0
 73
     1
 44
1.0
  0
POINT
  5
BC3
330
57C
100
AcDbEntity
  8
DEFPOINTS
 62
     0
100
AcDbPoint
 10
212.394389837001
 20
217.8399894665572
 30
0.0
  0
POINT
  5
BC4
330
57C
100
AcDbEntity
  8
DEFPOINTS
 62
     0
100
AcDbPoint
 10
125.8694886365717
 20
477.8412840202846
 30
0.0
  0
POINT
  5
BC5
330
57C
100
AcDbEntity
  8
DEFPOINTS
 62
     0
100
AcDbPoint
 10
85.88483391986192
 20
477.8412840202846
 30
0.0
  0
ENDBLK
  5
587
330
57C
100
AcDbEntity
  8
0
100
AcDbBlockEnd
  0
BLOCK
  5
592
330
588
100
AcDbEntity
  8
0
100
AcDbBlockBegin
  2
*D3
 70
     1
 10
0.0
 20
0.0
 30
0.0
  3
*D3
  1

  0
LINE
  5
5C1
330
588
100
AcDbEntity
  8
BEM
 62
     0
370
    -2
100
AcDbLine
 10
211.8694886365722
 20
220.7757926059222
 30
0.0
 11
211.8694886365722
 21
196.0061554916056
 31
0.0
  0
LINE
  5
5C2
330
588
100
AcDbEntity
  8
BEM
 62
     0
370
    -2
100
AcDbLine
 10
284.8694886365722
 20
220.7757926059221
 30
0.0
 11
284.8694886365722
 21
196.0061554916056
 31
0.0
  0
LINE
  5
5C3
330
588
100
AcDbEntity
  8
BEM
 62
     0
370
    -2
100
AcDbLine
 10
218.8694886365722
 20
198.0061554916055
 30
0.0
 11
277.8694886365721
 21
198.0061554916055
 31
0.0
  0
SOLID
  5
5C4
330
588
100
AcDbEntity
  8
BEM
 62
     0
100
AcDbTrace
 10
218.8694886365722
 20
199.1728221582722
 30
0.0
 11
218.8694886365722
 21
196.8394888249389
 31
0.0
 12
211.8694886365722
 22
198.0061554916055
 32
0.0
 13
211.8694886365722
 23
198.0061554916055
 33
0.0
  0
SOLID
  5
5C5
330
588
100
AcDbEntity
  8
BEM
 62
     0
100
AcDbTrace
 10
277.8694886365721
 20
199.1728221582722
 30
0.0
 11
277.8694886365721
 21
196.8394888249389
 31
0.0
 12
284.8694886365722
 22
198.0061554916055
 32
0.0
 13
284.8694886365722
 23
198.0061554916055
 33
0.0
  0
MTEXT
  5
5C6
330
588
100
AcDbEntity
  8
BEM
 62
     1
100
AcDbMText
 10
248.3694886365721
 20
204.5061554916056
 30
0.0
 40
7.0
 41
0.0
 71
     5
 72
     1
  1
\A1;%%c73
 73
     1
 44
1.0
  0
POINT
  5
5C7
330
588
100
AcDbEntity
  8
DEFPOINTS
 62
     0
100
AcDbPoint
 10
211.8694886365722
 20
222.7757926059222
 30
0.0
  0
POINT
  5
5C8
330
588
100
AcDbEntity
  8
DEFPOINTS
 62
     0
100
AcDbPoint
 10
284.8694886365722
 20
222.7757926059221
 30
0.0
  0
POINT
  5
5C9
330
588
100
AcDbEntity
  8
DEFPOINTS
 62
     0
100
AcDbPoint
 10
284.8694886365722
 20
198.0061554916055
 30
0.0
  0
ENDBLK
  5
593
330
588
100
AcDbEntity
  8
0
100
AcDbBlockEnd
  0
BLOCK
  5
9A2
330
998
100
AcDbEntity
  8
0
100
AcDbBlockBegin
  2
*D4
 70
     1
 10
0.0
 20
0.0
 30
0.0
  3
*D4
  1

  0
LINE
  5
9D4
330
998
100
AcDbEntity
  8
BEM
 62
     0
370
    -2
100
AcDbLine
 10
118.3694886365719
 20
506.841284020286
 30
0.0
 11
118.3694886365719
 21
618.1488383313267
 31
0.0
  0
LINE
  5
9D5
330
998
100
AcDbEntity
  8
BEM
 62
     0
370
    -2
100
AcDbLine
 10
378.3694886365718
 20
506.8412840202863
 30
0.0
 11
378.3694886365718
 21
618.1488383313267
 31
0.0
  0
LINE
  5
9D6
330
998
100
AcDbEntity
  8
BEM
 62
     0
370
    -2
100
AcDbLine
 10
125.3694886365719
 20
616.1488383313267
 30
0.0
 11
371.3694886365718
 21
616.1488383313267
 31
0.0
  0
SOLID
  5
9D7
330
998
100
AcDbEntity
  8
BEM
 62
     0
100
AcDbTrace
 10
125.3694886365719
 20
617.3155049979933
 30
0.0
 11
125.3694886365719
 21
614.98217166466
 31
0.0
 12
118.3694886365719
 22
616.1488383313267
 32
0.0
 13
118.3694886365719
 23
616.1488383313267
 33
0.0
  0
SOLID
  5
9D8
330
998
100
AcDbEntity
  8
BEM
 62
     0
100
AcDbTrace
 10
371.3694886365718
 20
617.3155049979933
 30
0.0
 11
371.3694886365718
 21
614.98217166466
 31
0.0
 12
378.3694886365718
 22
616.1488383313267
 32
0.0
 13
378.3694886365718
 23
616.1488383313267
 33
0.0
  0
MTEXT
  5
9D9
330
998
100
AcDbEntity
  8
BEM
 62
     1
100
AcDbMText
 10
248.3694886365719
 20
622.6488383313267
 30
0.0
 40
7.0
 41
0.0
 71
     5
 72
     1
  1
\A1;%%c260
 73
     1
 44
1.0
  0
POINT
  5
9DA
330
998
100
AcDbEntity
  8
DEFPOINTS
 62
     0
100
AcDbPoint
 10
118.3694886365719
 20
504.841284020286
 30
0.0
  0
POINT
  5
9DB
330
998
100
AcDbEntity
  8
DEFPOINTS
 62
     0
100
AcDbPoint
 10
378.3694886365718
 20
504.8412840202863
 30
0.0
  0
POINT
  5
9DC
330
998
100
AcDbEntity
  8
DEFPOINTS
 62
     0
100
AcDbPoint
 10
378.3694886365718
 20
616.1488383313267
 30
0.0
  0
ENDBLK
  5
9A3
330
998
100
AcDbEntity
  8
0
100
AcDbBlockEnd
  0
BLOCK
  5
9AE
330
9A4
100
AcDbEntity
  8
0
100
AcDbBlockBegin
  2
*D5
 70
     1
 10
0.0
 20
0.0
 30
0.0
  3
*D5
  1

  0
LINE
  5
9DD
330
9A4
100
AcDbEntity
  8
BEM
 62
     0
370
    -2
100
AcDbLine
 10
138.3694886365719
 20
575.8412260529706
 30
0.0
 11
138.3694886365719
 21
604.6536370170192
 31
0.0
  0
LINE
  5
9DE
330
9A4
100
AcDbEntity
  8
BEM
 62
     0
370
    -2
100
AcDbLine
 10
358.3694886365722
 20
575.8412260529706
 30
0.0
 11
358.3694886365722
 21
604.6536370170192
 31
0.0
  0
LINE
  5
9DF
330
9A4
100
AcDbEntity
  8
BEM
 62
     0
370
    -2
100
AcDbLine
 10
145.3694886365719
 20
602.6536370170192
 30
0.0
 11
351.3694886365722
 21
602.6536370170192
 31
0.0
  0
SOLID
  5
9E0
330
9A4
100
AcDbEntity
  8
BEM
 62
     0
100
AcDbTrace
 10
145.3694886365719
 20
603.8203036836859
 30
0.0
 11
145.3694886365719
 21
601.4869703503526
 31
0.0
 12
138.3694886365719
 22
602.6536370170192
 32
0.0
 13
138.3694886365719
 23
602.6536370170192
 33
0.0
  0
SOLID
  5
9E1
330
9A4
100
AcDbEntity
  8
BEM
 62
     0
100
AcDbTrace
 10
351.3694886365722
 20
603.8203036836859
 30
0.0
 11
351.3694886365722
 21
601.4869703503526
 31
0.0
 12
358.3694886365722
 22
602.6536370170192
 32
0.0
 13
358.3694886365722
 23
602.6536370170192
 33
0.0
  0
MTEXT
  5
9E2
330
9A4
100
AcDbEntity
  8
BEM
 62
     1
100
AcDbMText
 10
248.3694886365721
 20
609.1536370170192
 30
0.0
 40
7.0
 41
0.0
 71
     5
 72
     1
  1
\A1;%%c220
 73
     1
 44
1.0
  0
POINT
  5
9E3
330
9A4
100
AcDbEntity
  8
DEFPOINTS
 62
     0
100
AcDbPoint
 10
138.3694886365719
 20
573.8412260529705
 30
0.0
  0
POINT
  5
9E4
330
9A4
100
AcDbEntity
  8
DEFPOINTS
 62
     0
100
AcDbPoint
 10
358.3694886365722
 20
573.8412260529705
 30
0.0
  0
POINT
  5
9E5
330
9A4
100
AcDbEntity
  8
DEFPOINTS
 62
     0
100
AcDbPoint
 10
358.3694886365722
 20
602.6536370170192
 30
0.0
  0
ENDBLK
  5
9AF
330
9A4
100
AcDbEntity
  8
0
100
AcDbBlockEnd
  0
BLOCK
  5
9BA
330
9B0
100
AcDbEntity
  8
0
100
AcDbBlockBegin
  2
*D6
 70
     1
 10
0.0
 20
0.0
 30
0.0
  3
*D6
  1

  0
LINE
  5
C73
330
9B0
100
AcDbEntity
  8
BEM
 62
     0
370
    -2
100
AcDbLine
 10
166.3694886365719
 20
593.8412840202854
 30
0.0
 11
83.88483391986195
 21
593.8412840202854
 31
0.0
  0
LINE
  5
C74
330
9B0
100
AcDbEntity
  8
BEM
 62
     0
370
    -2
100
AcDbLine
 10
129.3694886365724
 20
483.8412840202847
 30
0.0
 11
83.88483391986193
 21
483.8412840202847
 31
0.0
  0
LINE
  5
C75
330
9B0
100
AcDbEntity
  8
BEM
 62
     0
370
    -2
100
AcDbLine
 10
85.88483391986194
 20
586.8412840202855
 30
0.0
 11
85.88483391986192
 21
490.8412840202847
 31
0.0
  0
SOLID
  5
C76
330
9B0
100
AcDbEntity
  8
BEM
 62
     0
100
AcDbTrace
 10
84.71816725319527
 20
586.8412840202855
 30
0.0
 11
87.05150058652861
 21
586.8412840202855
 31
0.0
 12
85.88483391986194
 22
593.8412840202854
 32
0.0
 13
85.88483391986194
 23
593.8412840202854
 33
0.0
  0
SOLID
  5
C77
330
9B0
100
AcDbEntity
  8
BEM
 62
     0
100
AcDbTrace
 10
84.71816725319525
 20
490.8412840202847
 30
0.0
 11
87.0515005865286
 21
490.8412840202847
 31
0.0
 12
85.88483391986192
 22
483.8412840202847
 32
0.0
 13
85.88483391986192
 23
483.8412840202847
 33
0.0
  0
MTEXT
  5
C78
330
9B0
100
AcDbEntity
  8
BEM
 62
     1
100
AcDbMText
 10
79.38483391986185
 20
538.8412840202851
 30
0.0
 40
7.0
 41
0.0
 71
     5
 72
     1
  1
\A1;110
 11
0.0000000000000001
 21
1.0
 31
0.0
 73
     1
 44
1.0
  0
POINT
  5
C79
330
9B0
100
AcDbEntity
  8
DEFPOINTS
 62
     0
100
AcDbPoint
 10
168.3694886365719
 20
593.8412840202854
 30
0.0
  0
POINT
  5
C7A
330
9B0
100
AcDbEntity
  8
DEFPOINTS
 62
     0
100
AcDbPoint
 10
131.3694886365724
 20
483.8412840202847
 30
0.0
  0
POINT
  5
C7B
330
9B0
100
AcDbEntity
  8
DEFPOINTS
 62
     0
100
AcDbPoint
 10
85.88483391986192
 20
483.8412840202847
 30
0.0
  0
ENDBLK
  5
9BB
330
9B0
100
AcDbEntity
  8
0
100
AcDbBlockEnd
  0
BLOCK
  5
9D2
330
9C8
100
AcDbEntity
  8
0
100
AcDbBlockBegin
  2
*D7
 70
     1
 10
0.0
 20
0.0
 30
0.0
  3
*D7
  1

  0
LINE
  5
C6A
330
9C8
100
AcDbEntity
  8
BEM
 62
     0
370
    -2
100
AcDbLine
 10
179.8694886365718
 20
518.8412840202846
 30
0.0
 11
100.1912707556857
 21
518.8412840202846
 31
0.0
  0
LINE
  5
C6B
330
9C8
100
AcDbEntity
  8
BEM
 62
     0
370
    -2
100
AcDbLine
 10
129.3694886365724
 20
483.8412840202847
 30
0.0
 11
100.1912707556857
 21
483.8412840202847
 31
0.0
  0
LINE
  5
C6C
330
9C8
100
AcDbEntity
  8
BEM
 62
     0
370
    -2
100
AcDbLine
 10
102.1912707556857
 20
511.8412840202847
 30
0.0
 11
102.1912707556857
 21
490.8412840202847
 31
0.0
  0
SOLID
  5
C6D
330
9C8
100
AcDbEntity
  8
BEM
 62
     0
100
AcDbTrace
 10
101.0246040890191
 20
511.8412840202847
 30
0.0
 11
103.3579374223524
 21
511.8412840202847
 31
0.0
 12
102.1912707556857
 22
518.8412840202846
 32
0.0
 13
102.1912707556857
 23
518.8412840202846
 33
0.0
  0
SOLID
  5
C6E
330
9C8
100
AcDbEntity
  8
BEM
 62
     0
100
AcDbTrace
 10
101.0246040890191
 20
490.8412840202847
 30
0.0
 11
103.3579374223524
 21
490.8412840202847
 31
0.0
 12
102.1912707556857
 22
483.8412840202847
 32
0.0
 13
102.1912707556857
 23
483.8412840202847
 33
0.0
  0
MTEXT
  5
C6F
330
9C8
100
AcDbEntity
  8
BEM
 62
     1
100
AcDbMText
 10
95.69127075568568
 20
501.3412840202847
 30
0.0
 40
7.0
 41
0.0
 71
     5
 72
     1
  1
\A1;35
 11
0.0000000000000001
 21
1.0
 31
0.0
 73
     1
 44
1.0
  0
POINT
  5
C70
330
9C8
100
AcDbEntity
  8
DEFPOINTS
 62
     0
100
AcDbPoint
 10
181.8694886365718
 20
518.8412840202846
 30
0.0
  0
POINT
  5
C71
330
9C8
100
AcDbEntity
  8
DEFPOINTS
 62
     0
100
AcDbPoint
 10
131.3694886365724
 20
483.8412840202847
 30
0.0
  0
POINT
  5
C72
330
9C8
100
AcDbEntity
  8
DEFPOINTS
 62
     0
100
AcDbPoint
 10
102.1912707556857
 20
483.8412840202847
 30
0.0
  0
ENDBLK
  5
9D3
330
9C8
100
AcDbEntity
  8
0
100
AcDbBlockEnd
  0
BLOCK
  5
AE1
330
AD7
100
AcDbEntity
  8
0
100
AcDbBlockBegin
  2
*D8
 70
     1
 10
0.0
 20
0.0
 30
0.0
  3
*D8
  1

  0
LINE
  5
AFB
330
AD7
100
AcDbEntity
  8
BEM
 62
     0
370
    -2
100
AcDbLine
 10
173.369488636572
 20
473.841284020284
 30
0.0
 11
173.369488636572
 21
438.6895763165309
 31
0.0
  0
LINE
  5
AFC
330
AD7
100
AcDbEntity
  8
BEM
 62
     0
370
    -2
100
AcDbLine
 10
323.3694886365723
 20
473.8412840202844
 30
0.0
 11
323.3694886365723
 21
438.6895763165309
 31
0.0
  0
LINE
  5
AFD
330
AD7
100
AcDbEntity
  8
BEM
 62
     0
370
    -2
100
AcDbLine
 10
180.369488636572
 20
440.689576316531
 30
0.0
 11
316.3694886365723
 21
440.689576316531
 31
0.0
  0
SOLID
  5
AFE
330
AD7
100
AcDbEntity
  8
BEM
 62
     0
100
AcDbTrace
 10
180.369488636572
 20
441.8562429831976
 30
0.0
 11
180.369488636572
 21
439.5229096498643
 31
0.0
 12
173.369488636572
 22
440.689576316531
 32
0.0
 13
173.369488636572
 23
440.689576316531
 33
0.0
  0
SOLID
  5
AFF
330
AD7
100
AcDbEntity
  8
BEM
 62
     0
100
AcDbTrace
 10
316.3694886365723
 20
441.8562429831976
 30
0.0
 11
316.3694886365723
 21
439.5229096498643
 31
0.0
 12
323.3694886365723
 22
440.689576316531
 32
0.0
 13
323.3694886365723
 23
440.689576316531
 33
0.0
  0
MTEXT
  5
B00
330
AD7
100
AcDbEntity
  8
BEM
 62
     1
100
AcDbMText
 10
248.3694886365721
 20
447.1895763165309
 30
0.0
 40
7.0
 41
0.0
 71
     5
 72
     1
  1
\A1;%%c150
  7
GREEKS
 73
     1
 44
1.0
  0
POINT
  5
B01
330
AD7
100
AcDbEntity
  8
DEFPOINTS
 62
     0
100
AcDbPoint
 10
173.369488636572
 20
475.8412840202841
 30
0.0
  0
POINT
  5
B02
330
AD7
100
AcDbEntity
  8
DEFPOINTS
 62
     0
100
AcDbPoint
 10
323.3694886365723
 20
475.8412840202844
 30
0.0
  0
POINT
  5
B03
330
AD7
100
AcDbEntity
  8
DEFPOINTS
 62
     0
100
AcDbPoint
 10
323.3694886365723
 20
440.689576316531
 30
0.0
  0
ENDBLK
  5
AE2
330
AD7
100
AcDbEntity
  8
0
100
AcDbBlockEnd
  0
BLOCK
  5
AED
330
AE3
100
AcDbEntity
  8
0
100
AcDbBlockBegin
  2
*D9
 70
     1
 10
0.0
 20
0.0
 30
0.0
  3
*D9
  1

  0
LINE
  5
B17
330
AE3
100
AcDbEntity
  8
BEM
 62
     0
370
    -2
100
AcDbLine
 10
183.3719440020502
 20
313.8412840202841
 30
0.0
 11
183.3719440020502
 21
296.22164000549
 31
0.0
  0
LINE
  5
B18
330
AE3
100
AcDbEntity
  8
BEM
 62
     0
370
    -2
100
AcDbLine
 10
313.3670332710936
 20
313.8412840202824
 30
0.0
 11
313.3670332710936
 21
296.22164000549
 31
0.0
  0
LINE
  5
B19
330
AE3
100
AcDbEntity
  8
BEM
 62
     0
370
    -2
100
AcDbLine
 10
190.3719440020502
 20
298.22164000549
 30
0.0
 11
306.3670332710936
 21
298.22164000549
 31
0.0
  0
SOLID
  5
B1A
330
AE3
100
AcDbEntity
  8
BEM
 62
     0
100
AcDbTrace
 10
190.3719440020502
 20
299.3883066721567
 30
0.0
 11
190.3719440020502
 21
297.0549733388233
 31
0.0
 12
183.3719440020502
 22
298.22164000549
 32
0.0
 13
183.3719440020502
 23
298.22164000549
 33
0.0
  0
SOLID
  5
B1B
330
AE3
100
AcDbEntity
  8
BEM
 62
     0
100
AcDbTrace
 10
306.3670332710936
 20
299.3883066721567
 30
0.0
 11
306.3670332710936
 21
297.0549733388233
 31
0.0
 12
313.3670332710936
 22
298.22164000549
 32
0.0
 13
313.3670332710936
 23
298.22164000549
 33
0.0
  0
MTEXT
  5
B1C
330
AE3
100
AcDbEntity
  8
BEM
 62
     1
100
AcDbMText
 10
248.3694886365719
 20
304.72164000549
 30
0.0
 40
7.0
 41
0.0
 71
     5
 72
     1
  1
\A1;%%c130
  7
GREEKS
 73
     1
 44
1.0
  0
POINT
  5
B1D
330
AE3
100
AcDbEntity
  8
DEFPOINTS
 62
     0
100
AcDbPoint
 10
183.3719440020502
 20
315.8412840202841
 30
0.0
  0
POINT
  5
B1E
330
AE3
100
AcDbEntity
  8
DEFPOINTS
 62
     0
100
AcDbPoint
 10
313.3670332710936
 20
315.8412840202824
 30
0.0
  0
POINT
  5
B1F
330
AE3
100
AcDbEntity
  8
DEFPOINTS
 62
     0
100
AcDbPoint
 10
313.3670332710936
 20
298.22164000549
 30
0.0
  0
ENDBLK
  5
AEE
330
AE3
100
AcDbEntity
  8
0
100
AcDbBlockEnd
  0
BLOCK
  5
AF9
330
AEF
100
AcDbEntity
  8
0
100
AcDbBlockBegin
  2
*D10
 70
     1
 10
0.0
 20
0.0
 30
0.0
  3
*D10
  1

  0
LINE
  5
B27
330
AEF
100
AcDbEntity
  8
BEM
 62
     0
370
    -2
100
AcDbLine
 10
130.0870030578438
 20
475.841284020284
 30
0.0
 11
101.0403983064198
 21
475.8412840202841
 31
0.0
  0
LINE
  5
B28
330
AEF
100
AcDbEntity
  8
BEM
 62
     0
370
    -2
100
AcDbLine
 10
181.3719440020502
 20
315.8412840202841
 30
0.0
 11
101.0403983064198
 21
315.8412840202842
 31
0.0
  0
LINE
  5
B29
330
AEF
100
AcDbEntity
  8
BEM
 62
     0
370
    -2
100
AcDbLine
 10
103.0403983064198
 20
468.8412840202841
 30
0.0
 11
103.0403983064198
 21
322.8412840202842
 31
0.0
  0
SOLID
  5
B2A
330
AEF
100
AcDbEntity
  8
BEM
 62
     0
100
AcDbTrace
 10
101.8737316397532
 20
468.8412840202841
 30
0.0
 11
104.2070649730865
 21
468.8412840202841
 31
0.0
 12
103.0403983064198
 22
475.8412840202841
 32
0.0
 13
103.0403983064198
 23
475.8412840202841
 33
0.0
  0
SOLID
  5
B2B
330
AEF
100
AcDbEntity
  8
BEM
 62
     0
100
AcDbTrace
 10
101.8737316397531
 20
322.8412840202842
 30
0.0
 11
104.2070649730865
 21
322.8412840202842
 31
0.0
 12
103.0403983064198
 22
315.8412840202842
 32
0.0
 13
103.0403983064198
 23
315.8412840202842
 33
0.0
  0
MTEXT
  5
B2C
330
AEF
100
AcDbEntity
  8
BEM
 62
     1
100
AcDbMText
 10
96.54039830641979
 20
395.8412840202841
 30
0.0
 40
7.0
 41
0.0
 71
     5
 72
     1
  1
\A1;160
  7
GREEKS
 11
0.0000000000000001
 21
1.0
 31
0.0
 73
     1
 44
1.0
  0
POINT
  5
B2D
330
AEF
100
AcDbEntity
  8
DEFPOINTS
 62
     0
100
AcDbPoint
 10
132.0870030578438
 20
475.841284020284
 30
0.0
  0
POINT
  5
B2E
330
AEF
100
AcDbEntity
  8
DEFPOINTS
 62
     0
100
AcDbPoint
 10
183.3719440020502
 20
315.8412840202841
 30
0.0
  0
POINT
  5
B2F
330
AEF
100
AcDbEntity
  8
DEFPOINTS
 62
     0
100
AcDbPoint
 10
103.0403983064198
 20
315.8412840202842
 30
0.0
  0
ENDBLK
  5
AFA
330
AEF
100
AcDbEntity
  8
0
100
AcDbBlockEnd
  0
ENDSEC
  0
SECTION
  2
ENTITIES
  0
LINE
  5
58
330
1E
100
AcDbEntity
  8
STEMPEL
100
AcDbLine
 10
484.0
 20
830.0000000000002
 30
0.0
 11
484.0
 21
470.0000000000001
 31
0.0
  0
LINE
  5
59
330
1E
100
AcDbEntity
  8
STEMPEL
100
AcDbLine
 10
484.0
 20
470.0000000000001
 30
0.0
 11
584.0
 21
470.0000000000001
 31
0.0
  0
LINE
  5
5A
330
1E
100
AcDbEntity
  8
STEMPEL
100
AcDbLine
 10
484.0000000000001
 20
566.0000000000002
 30
0.0
 11
584.0000000000001
 21
566.0
 31
0.0
  0
LINE
  5
5B
330
1E
100
AcDbEntity
  8
STEMPEL
100
AcDbLine
 10
484.0
 20
650.0
 30
0.0
 11
584.0
 21
650.0
 31
0.0
  0
LINE
  5
5C
330
1E
100
AcDbEntity
  8
STEMPEL
100
AcDbLine
 10
484.0000000000003
 20
752.0000000000002
 30
0.0
 11
554.0
 21
752.0000000000002
 31
0.0
  0
LINE
  5
5D
330
1E
100
AcDbEntity
  8
STEMPEL
100
AcDbLine
 10
564.0
 20
566.0
 30
0.0
 11
564.0
 21
470.0000000000001
 31
0.0
  0
LINE
  5
5E
330
1E
100
AcDbEntity
  8
STEMPEL
100
AcDbLine
 10
554.0
 20
830.0000000000002
 30
0.0
 11
554.0
 21
566.0
 31
0.0
  0
LINE
  5
5F
330
1E
100
AcDbEntity
  8
STEMPEL
100
AcDbLine
 10
514.0
 20
830.0000000000002
 30
0.0
 11
514.0
 21
566.0000000000002
 31
0.0
  0
LINE
  5
60
330
1E
100
AcDbEntity
  8
VOLL
100
AcDbLine
 10
484.0
 20
484.0000000000001
 30
0.0
 11
584.0
 21
484.0
 31
0.0
  0
LINE
  5
61
330
1E
100
AcDbEntity
  8
VOLL
100
AcDbLine
 10
484.0000000000001
 20
524.0000000000001
 30
0.0
 11
584.0000000000001
 21
524.0
 31
0.0
  0
LINE
  5
62
330
1E
100
AcDbEntity
  8
VOLL
100
AcDbLine
 10
484.0000000000001
 20
544.0000000000002
 30
0.0
 11
584.0000000000001
 21
544.0
 31
0.0
  0
LINE
  5
63
330
1E
100
AcDbEntity
  8
VOLL
100
AcDbLine
 10
514.0
 20
584.0000000000002
 30
0.0
 11
554.0
 21
584.0000000000002
 31
0.0
  0
LINE
  5
64
330
1E
100
AcDbEntity
  8
VOLL
100
AcDbLine
 10
484.0000000000002
 20
610.0000000000002
 30
0.0
 11
554.0
 21
610.0
 31
0.0
  0
LINE
  5
65
330
1E
100
AcDbEntity
  8
HILF
100
AcDbLine
 10
494.0
 20
470.0000000000001
 30
0.0
 11
494.0
 21
566.0000000000002
 31
0.0
  0
LINE
  5
66
330
1E
100
AcDbEntity
  8
HILF
100
AcDbLine
 10
504.0
 20
470.0000000000001
 30
0.0
 11
504.0
 21
566.0000000000002
 31
0.0
  0
LINE
  5
67
330
1E
100
AcDbEntity
  8
HILF
100
AcDbLine
 10
514.0
 20
470.0000000000001
 30
0.0
 11
514.0
 21
566.0000000000002
 31
0.0
  0
LINE
  5
68
330
1E
100
AcDbEntity
  8
HILF
100
AcDbLine
 10
524.0
 20
470.0000000000001
 30
0.0
 11
524.0
 21
566.0000000000002
 31
0.0
  0
LINE
  5
69
330
1E
100
AcDbEntity
  8
HILF
100
AcDbLine
 10
534.0
 20
470.0000000000001
 30
0.0
 11
534.0
 21
566.0000000000002
 31
0.0
  0
LINE
  5
6A
330
1E
100
AcDbEntity
  8
HILF
100
AcDbLine
 10
544.0
 20
470.0000000000001
 30
0.0
 11
544.0
 21
566.0000000000002
 31
0.0
  0
LINE
  5
6B
330
1E
100
AcDbEntity
  8
HILF
100
AcDbLine
 10
554.0
 20
470.0000000000001
 30
0.0
 11
554.0
 21
566.0000000000002
 31
0.0
  0
LINE
  5
6C
330
1E
100
AcDbEntity
  8
HILF
100
AcDbLine
 10
524.0
 20
566.0000000000002
 30
0.0
 11
524.0
 21
650.0
 31
0.0
  0
LINE
  5
6D
330
1E
100
AcDbEntity
  8
HILF
100
AcDbLine
 10
534.0
 20
566.0000000000002
 30
0.0
 11
534.0
 21
650.0
 31
0.0
  0
LINE
  5
6E
330
1E
100
AcDbEntity
  8
HILF
100
AcDbLine
 10
544.0
 20
566.0000000000002
 30
0.0
 11
544.0
 21
650.0
 31
0.0
  0
LINE
  5
6F
330
1E
100
AcDbEntity
  8
HILF
100
AcDbLine
 10
509.9624175243587
 20
654.7736801096948
 30
0.0
 11
509.9624175243587
 21
746.6297842514811
 31
0.0
  0
LINE
  5
70
330
1E
100
AcDbEntity
  8
HILF
100
AcDbLine
 10
524.0
 20
654.7736801096948
 30
0.0
 11
524.0
 21
746.6297842514811
 31
0.0
  0
LINE
  5
71
330
1E
100
AcDbEntity
  8
HILF
100
AcDbLine
 10
534.0
 20
654.7736801096948
 30
0.0
 11
534.0
 21
746.6297842514811
 31
0.0
  0
LINE
  5
72
330
1E
100
AcDbEntity
  8
HILF
100
AcDbLine
 10
544.0
 20
654.7736801096948
 30
0.0
 11
544.0
 21
746.6297842514811
 31
0.0
  0
LINE
  5
73
330
1E
100
AcDbEntity
  8
VOLL
100
AcDbLine
 10
534.0
 20
752.0000000000002
 30
0.0
 11
534.0
 21
830.0000000000002
 31
0.0
  0
LINE
  5
74
330
1E
100
AcDbEntity
  8
HILF
100
AcDbLine
 10
510.2201636304418
 20
756.7238616296995
 30
0.0
 11
510.2201636304418
 21
824.858883932673
 31
0.0
  0
LINE
  5
75
330
1E
100
AcDbEntity
  8
HILF
100
AcDbLine
 10
579.1060174197169
 20
654.7736801096948
 30
0.0
 11
579.1060174197169
 21
824.858883932673
 31
0.0
  0
TEXT
  5
76
330
1E
100
AcDbEntity
  8
TEXT
100
AcDbText
 10
575.3261810501587
 20
492.3998239263297
 30
0.0
 40
4.0
  1
Änderung
 50
90.0
 41
0.8
  7
GREEKS
 72
     1
 11
575.3261810501587
 21
503.1426810691868
 31
0.0
100
AcDbText
  0
TEXT
  5
78
330
1E
100
AcDbEntity
  8
TEXT
100
AcDbText
 10
491.5379104912911
 20
573.5163572150376
 30
0.0
 40
5.0
  1
Maßstab
 50
90.0
 41
0.8
  7
GREEKS
100
AcDbText
  0
TEXT
  5
79
330
1E
100
AcDbEntity
  8
TEXT
100
AcDbText
 10
491.4510671988221
 20
654.8779403809009
 30
0.0
 40
5.0
  1
Benennung
 50
90.0
 41
0.8
  7
GREEKS
100
AcDbText
  0
TEXT
  5
7A
330
1E
100
AcDbEntity
  8
TEXT
100
AcDbText
 10
491.6867965462863
 20
756.1787549576343
 30
0.0
 40
5.0
  1
Zeichnungs Nr.
 50
90.0
 41
0.8
  7
GREEKS
100
AcDbText
  0
TEXT
  5
7B
330
1E
100
AcDbEntity
  8
TEXT
100
AcDbText
 10
563.1543942980694
 20
654.7422383911359
 30
0.0
 40
5.0
  1
Bauvorhaben
 50
90.0
 41
0.8
  7
GREEKS
100
AcDbText
  0
TEXT
  5
7C
330
1E
100
AcDbEntity
  8
TEXT
100
AcDbText
 10
520.8188176290003
 20
756.7238616296995
 30
0.0
 40
5.0
  1
Ersatz für:
 50
90.0
 41
0.8
  7
GREEKS
100
AcDbText
  0
TEXT
  5
7D
330
1E
100
AcDbEntity
  8
TEXT
100
AcDbText
 10
580.3453415397281
 20
478.2664110704577
 30
0.0
 40
4.0
  1
Index
 50
180.0
 41
0.8
  7
GREEKS
100
AcDbText
  0
TEXT
  5
7E
330
1E
100
AcDbEntity
  8
TEXT
100
AcDbText
 10
575.3284373066019
 20
529.8990113186978
 30
0.0
 40
4.0
  1
Tag
 50
90.0
 41
0.8
  7
GREEKS
 72
     1
 11
575.3284373066019
 21
533.6323446520311
 31
0.0
100
AcDbText
  0
TEXT
  5
7F
330
1E
100
AcDbEntity
  8
TEXT
100
AcDbText
 10
575.4067578303359
 20
548.9795678138292
 30
0.0
 40
4.0
  1
Name
 50
90.0
 41
0.8
  7
GREEKS
 72
     1
 11
575.4067578303359
 21
555.3033773376387
 31
0.0
100
AcDbText
  0
TEXT
  5
80
330
1E
100
AcDbEntity
  8
TEXT
100
AcDbText
 10
520.6811949877008
 20
592.3311673153651
 30
0.0
 40
4.0
  1
Tag
 50
90.0
 41
0.8
  7
GREEKS
100
AcDbText
  0
TEXT
  5
81
330
1E
100
AcDbEntity
  8
TEXT
100
AcDbText
 10
520.6903890808478
 20
622.4626584226296
 30
0.0
 40
4.0
  1
Name
 50
90.0
 41
0.8
  7
GREEKS
100
AcDbText
  0
TEXT
  5
82
330
1E
100
AcDbEntity
  8
TEXT
100
AcDbText
 10
530.3700963038204
 20
567.5836127167615
 30
0.0
 40
4.0
  1
Gez.
 50
90.0
 41
0.8
  7
GREEKS
100
AcDbText
  0
TEXT
  5
83
330
1E
100
AcDbEntity
  8
TEXT
100
AcDbText
 10
540.3107370857163
 20
567.5515086571672
 30
0.0
 40
4.0
  1
Gepr.
 50
90.0
 41
0.8
  7
GREEKS
100
AcDbText
  0
TEXT
  5
84
330
1E
100
AcDbEntity
  8
TEXT
100
AcDbText
 10
550.470536103502
 20
567.6006777387303
 30
0.0
 40
4.0
  1
Norm.
 50
90.0
 41
0.8
  7
GREEKS
100
AcDbText
  0
TEXT
  5
85
330
1E
100
AcDbEntity
  8
TEXT
100
AcDbText
 10
541.925838221214
 20
757.2400861497007
 30
0.0
 40
5.0
  1
ersetzt durch:
 50
90.0
 41
0.8
  7
GREEKS
100
AcDbText
  0
TEXT
  5
86
330
1E
100
AcDbEntity
  8
TEXT
100
AcDbText
 10
521.0331740347627
 20
568.8693027807324
 30
0.0
 40
4.0
  1
2011
 50
90.0
 41
0.8
  7
GREEKS
100
AcDbText
  0
LINE
  5
87
330
1E
100
AcDbEntity
  8
HILF
100
AcDbLine
 10
594.0
 20
-0.0000000000000568
 30
0.0
 11
594.0
 21
840.0
 31
0.0
  0
LINE
  5
88
330
1E
100
AcDbEntity
  8
HILF
100
AcDbLine
 10
594.0
 20
840.0
 30
0.0
 11
0.0
 21
840.0
 31
0.0
  0
LINE
  5
89
330
1E
100
AcDbEntity
  8
HILF
100
AcDbLine
 10
0.0
 20
840.0
 30
0.0
 11
0.0
 21
0.0
 31
0.0
  0
LINE
  5
8B
330
1E
100
AcDbEntity
  8
STEMPEL
100
AcDbLine
 10
10.0
 20
830.0
 30
0.0
 11
10.0
 21
39.99999999999995
 31
0.0
  0
LINE
  5
8D
330
1E
100
AcDbEntity
  8
STEMPEL
100
AcDbLine
 10
584.0
 20
39.99999999999995
 30
0.0
 11
584.0
 21
830.0
 31
0.0
  0
LINE
  5
8E
330
1E
100
AcDbEntity
  8
STEMPEL
100
AcDbLine
 10
584.0
 20
830.0
 30
0.0
 11
10.0
 21
830.0
 31
0.0
  0
TEXT
  5
8F
330
1E
100
AcDbEntity
  8
TEXT
 62
     1
100
AcDbText
 10
506.6265692434746
 20
655.0390572473189
 30
0.0
 40
7.0
  1
Drainlet-Notablauf DN70
 50
90.0
 41
0.7
  7
GREEKS
100
AcDbText
  0
TEXT
  5
90
330
1E
100
AcDbEntity
  8
TEXT
 62
     1
100
AcDbText
 10
506.6265692434746
 20
767.1961422184136
 30
0.0
 40
7.0
  1
21712070W
 50
90.0
 41
0.8
  7
GREEKS
 72
     1
 11
506.6265692434746
 21
790.1294755517469
 31
0.0
100
AcDbText
  0
TEXT
  5
91
330
1E
100
AcDbEntity
  8
TEXT
100
AcDbText
 10
491.16010388621
 20
618.5090226415829
 30
0.0
 40
5.0
  1
Zul.Abw.
 50
90.0
 41
0.8
  7
GREEKS
100
AcDbText
  0
TEXT
  5
93
330
1E
100
AcDbEntity
  8
TEXT
100
AcDbText
 10
530.8491412387978
 20
590.4612856559488
 30
0.0
 40
4.0
  1
17.02.
 50
90.0
 41
0.8
  7
GREEKS
 72
     1
 11
530.8491412387978
 21
597.1660475607107
 31
0.0
100
AcDbText
  0
TEXT
  5
94
330
1E
100
AcDbEntity
  8
TEXT
100
AcDbText
 10
531.0570234483452
 20
624.0231753226609
 30
0.0
 40
4.0
  1
Koeh
 50
90.0
 41
0.8
  7
GREEKS
 72
     1
 11
531.0570234483452
 21
629.2803181798038
 31
0.0
100
AcDbText
  0
TEXT
  5
95
330
1E
100
AcDbEntity
  8
TEXT
100
AcDbText
 10
521.8997861689246
 20
654.3410940884991
 30
0.0
 40
5.0
  1
Kompletteinheit, einteilig
 50
90.0
 41
0.8
  7
GREEKS
100
AcDbText
  0
TEXT
  5
96
330
1E
100
AcDbEntity
  8
TEXT
100
AcDbText
 10
531.6544091479096
 20
654.3410940884991
 30
0.0
 40
5.0
  1

 50
90.0
 41
0.8
  7
GREEKS
100
AcDbText
  0
TEXT
  5
97
330
1E
100
AcDbEntity
  8
TEXT
100
AcDbText
 10
541.4090266215394
 20
654.3410940884991
 30
0.0
 40
5.0
  1
EDV-Art.Nr. 21712.070X
 50
90.0
 41
0.8
  7
GREEKS
100
AcDbText
  0
TEXT
  5
98
330
1E
100
AcDbEntity
  8
TEXT
100
AcDbText
 10
550.6887237520849
 20
654.1676050109347
 30
0.0
 40
4.0
  1
21712070W.DWG
 50
90.0
 41
0.8
  7
GREEKS
100
AcDbText
  0
TEXT
  5
99
330
1E
100
AcDbEntity
  8
TEXT
 62
     1
100
AcDbText
 10
506.5292291158502
 20
582.703491203422
 30
0.0
 40
7.0
  1
1:2
 50
90.0
 41
0.8
  7
GREEKS
100
AcDbText
  0
TEXT
  5
9A
330
1E
100
AcDbEntity
  8
TEXT
100
AcDbText
 10
479.8856414948956
 20
470.0441139350127
 30
0.0
 40
5.0
  1
Erstellt mit AUTOCAD 2004
 50
90.0
 41
0.8
  7
GREEKS
100
AcDbText
  0
INSERT
  5
9B
330
1E
100
AcDbEntity
  8
HILF
100
AcDbBlockReference
  2
LORO
 10
557.0194069970104
 20
573.0624985962354
 30
0.0
 41
2.0
 42
2.0
 43
2.0
 50
90.0
  0
LINE
  5
9C
330
1E
100
AcDbEntity
  8
BEM
100
AcDbLine
 10
594.0
 20
455.9999999999999
 30
0.0
 11
584.0
 21
455.9999999999999
 31
0.0
  0
LINE
  5
13E
330
1E
100
AcDbEntity
  8
HILF
100
AcDbLine
 10
594.0
 20
-0.0000000000000568
 30
0.0
 11
0.0
 21
0.0
 31
0.0
  0
LINE
  5
13F
330
1E
100
AcDbEntity
  8
STEMPEL
100
AcDbLine
 10
584.0
 20
39.99999999999995
 30
0.0
 11
10.0
 21
39.99999999999995
 31
0.0
  0
LINE
  5
14A
330
1E
100
AcDbEntity
  8
HILF
100
AcDbLine
 10
297.0
 20
-0.0000000000000568
 30
0.0
 11
297.0
 21
39.99999999999995
 31
0.0
  0
TEXT
  5
15B
330
1E
100
AcDbEntity
  8
BEM
100
AcDbText
 10
583.8320989200114
 20
837.3022923857165
 30
0.0
 40
4.0
  1
Diese Zeichnung ist urheberrechtlich geschützt und bleibt unser Eigentum. Sie darf weder ganz noch teilweise verfielfältigt und nicht an Dritte weitergegeben werden.
 50
180.0
 41
0.8
  7
GREEKS
100
AcDbText
  0
LINE
  5
19C
330
1E
100
AcDbEntity
  8
BEM
100
AcDbLine
 10
0.0
 20
455.9999999999999
 30
0.0
 11
10.0
 21
455.9999999999999
 31
0.0
  0
DIMENSION
  5
3B2
330
1E
100
AcDbEntity
  8
BEM
100
AcDbDimension
  2
*D3
 10
284.8694886365722
 20
198.0061554916055
 30
0.0
 11
248.3694886365721
 21
204.5061554916056
 31
0.0
 70
    32
  1
%%c<>
 71
     5
 42
73.0
  3
Standard
100
AcDbAlignedDimension
 13
211.8694886365722
 23
222.7757926059222
 33
0.0
 14
284.8694886365722
 24
222.7757926059221
 34
0.0
100
AcDbRotatedDimension
1001
ACAD
1000
DSTYLE
1002
{
1070
    40
1040
2.0
1070
    41
1040
3.5
1070
    42
1040
1.0
1070
    43
1040
7.0
1070
    44
1040
1.0
1070
    47
1040
2.0
1070
    48
1040
2.0
1070
    73
1070
     0
1070
    74
1070
     0
1070
    77
1070
     1
1070
    78
1070
     8
1070
    79
1070
     2
1070
   140
1040
3.5
1070
   141
1040
1.5
1070
   146
1040
0.5142857142857144
1070
   147
1040
1.5
1070
   172
1070
     1
1070
   178
1070
     1
1070
   179
1070
     2
1070
   279
1070
     0
1002
}
  0
TEXT
  5
3B6
330
1E
100
AcDbEntity
  8
TEXT
 62
     1
100
AcDbText
 10
366.4681936438894
 20
235.530483427805
 30
0.0
 40
7.0
  1
EDV-Art.Nr. 21981.070X
 41
0.8
  7
GREEKS
100
AcDbText
  0
LINE
  5
3B7
330
1E
100
AcDbEntity
  8
TEXT
 62
     2
100
AcDbLine
 10
471.6919571468823
 20
244.9654873025906
 30
0.0
 11
365.5680625392045
 21
244.9654873025904
 31
0.0
  0
LINE
  5
3B8
330
1E
100
AcDbEntity
  8
MITTEL
100
AcDbLine
 10
248.3694886365718
 20
600.3412840202856
 30
0.0
 11
248.3694886365718
 21
548.8444396674934
 31
0.0
  0
LINE
  5
3B9
330
1E
100
AcDbEntity
  8
TEXT
 62
     2
100
AcDbLine
 10
365.5680625392045
 20
244.9654873025904
 30
0.0
 11
284.8694886365733
 21
267.465194582008
 31
0.0
  0
TEXT
  5
3BA
330
1E
100
AcDbEntity
  8
TEXT
 62
     1
100
AcDbText
 10
366.6487489380415
 20
248.5782555747842
 30
0.0
 40
7.0
  1
Ablaufkörper DN70
 41
0.8
  7
GREEKS
100
AcDbText
  0
LINE
  5
3C0
102
{ACAD_REACTORS
330
BFC
102
}
330
1E
100
AcDbEntity
  8
STEMPEL
100
AcDbLine
 10
125.8694886365717
 20
477.8412840202846
 30
0.0
 11
370.8694886365719
 21
477.8412840202845
 31
0.0
  0
LINE
  5
524
102
{ACAD_REACTORS
330
57A
330
BFC
102
}
330
1E
100
AcDbEntity
  8
STEMPEL
100
AcDbLine
 10
132.0870030578441
 20
477.8412840202847
 30
0.0
 11
364.6519742152997
 21
477.8412840202845
 31
0.0
  0
LINE
  5
525
330
1E
100
AcDbEntity
  8
STEMPEL
100
AcDbLine
 10
173.5790857234841
 20
472.4877306296907
 30
0.0
 11
127.2837021989447
 21
472.4877306296908
 31
0.0
  0
LINE
  5
526
102
{ACAD_REACTORS
330
57A
102
}
330
1E
100
AcDbEntity
  8
STEMPEL
100
AcDbLine
 10
125.8694886365716
 20
473.9019441920639
 30
0.0
 11
128.1979157613176
 21
476.2303713168101
 31
0.0
  0
LINE
  5
527
102
{ACAD_REACTORS
330
57A
102
}
330
1E
100
AcDbEntity
  8
STEMPEL
100
AcDbLine
 10
125.8694886365716
 20
473.9019441920639
 30
0.0
 11
127.2837021989444
 21
472.4877306296908
 31
0.0
  0
ARC
  5
528
102
{ACAD_REACTORS
330
57A
102
}
330
1E
100
AcDbEntity
  8
STEMPEL
100
AcDbCircle
 10
132.0870030578438
 20
472.3412840202842
 30
0.0
 40
3.499999999999851
100
AcDbArc
 50
90.0
 51
134.9999999999994
  0
ARC
  5
529
102
{ACAD_REACTORS
330
57A
102
}
330
1E
100
AcDbEntity
  8
STEMPEL
100
AcDbCircle
 10
132.0870030578438
 20
472.3412840202842
 30
0.0
 40
5.499999999999851
100
AcDbArc
 50
90.0
 51
134.9999999999994
  0
LINE
  5
52A
102
{ACAD_REACTORS
330
57A
102
}
330
1E
100
AcDbEntity
  8
STEMPEL
100
AcDbLine
 10
127.2837021989447
 20
472.4877306296909
 30
0.0
 11
129.6121293236907
 21
474.8161577544371
 31
0.0
  0
LINE
  5
52B
330
1E
100
AcDbEntity
  8
STEMPEL
100
AcDbLine
 10
323.15989154966
 20
472.4877306296907
 30
0.0
 11
369.4552750741989
 21
472.4877306296908
 31
0.0
  0
ARC
  5
52C
102
{ACAD_REACTORS
330
57A
102
}
330
1E
100
AcDbEntity
  8
STEMPEL
100
AcDbCircle
 10
364.6519742152999
 20
472.3412840202842
 30
0.0
 40
5.499999999999851
100
AcDbArc
 50
45.00000000000057
 51
90.0
  0
LINE
  5
52D
102
{ACAD_REACTORS
330
57A
102
}
330
1E
100
AcDbEntity
  8
STEMPEL
100
AcDbLine
 10
369.4552750741989
 20
472.4877306296909
 30
0.0
 11
367.1268479494529
 21
474.8161577544371
 31
0.0
  0
ARC
  5
52E
102
{ACAD_REACTORS
330
57A
102
}
330
1E
100
AcDbEntity
  8
STEMPEL
100
AcDbCircle
 10
364.6519742152999
 20
472.3412840202842
 30
0.0
 40
3.499999999999851
100
AcDbArc
 50
45.00000000000057
 51
90.0
  0
LINE
  5
52F
102
{ACAD_REACTORS
330
57A
102
}
330
1E
100
AcDbEntity
  8
STEMPEL
100
AcDbLine
 10
370.869488636572
 20
473.9019441920639
 30
0.0
 11
368.5410615118261
 21
476.2303713168101
 31
0.0
  0
LINE
  5
530
102
{ACAD_REACTORS
330
57A
102
}
330
1E
100
AcDbEntity
  8
STEMPEL
100
AcDbLine
 10
370.869488636572
 20
473.9019441920639
 30
0.0
 11
369.4552750741991
 21
472.4877306296908
 31
0.0
  0
LINE
  5
531
102
{ACAD_REACTORS
330
57A
330
B4F
102
}
330
1E
100
AcDbEntity
  8
STEMPEL
100
AcDbLine
 10
132.0870030578438
 20
475.8412840202848
 30
0.0
 11
190.0557801375872
 21
475.8412840202844
 31
0.0
  0
LINE
  5
532
102
{ACAD_REACTORS
330
57A
330
B4F
102
}
330
1E
100
AcDbEntity
  8
STEMPEL
100
AcDbLine
 10
364.6519742152999
 20
475.8412840202848
 30
0.0
 11
306.6831971355563
 21
475.8412840202844
 31
0.0
  0
TEXT
  5
533
330
1E
100
AcDbEntity
  8
TEXT
 62
     1
100
AcDbText
 10
244.6611984380556
 20
374.3577634103377
 30
0.0
 40
7.0
  1
DN70
 50
90.0
 41
0.8
  7
GREEKS
100
AcDbText
  0
LINE
  5
534
102
{ACAD_REACTORS
330
57B
102
}
330
1E
100
AcDbEntity
  8
STEMPEL
  6
Continuous
100
AcDbLine
 10
213.3694886365743
 20
455.1488958648591
 30
0.0
 11
213.3694886365721
 21
222.8412840202846
 31
0.0
  0
LINE
  5
535
102
{ACAD_REACTORS
330
57B
330
B4F
102
}
330
1E
100
AcDbEntity
  8
STEMPEL
  6
Continuous
100
AcDbLine
 10
211.8694886365743
 20
455.1488958648593
 30
0.0
 11
211.8694886365722
 21
222.7757926059222
 31
0.0
  0
LINE
  5
536
102
{ACAD_REACTORS
330
57B
102
}
330
1E
100
AcDbEntity
  8
STEMPEL
  6
Continuous
100
AcDbLine
 10
283.3694886365744
 20
455.1488958648596
 30
0.0
 11
283.3694886365719
 21
222.8412840202908
 31
0.0
  0
LINE
  5
537
102
{ACAD_REACTORS
330
57B
330
B4F
102
}
330
1E
100
AcDbEntity
  8
STEMPEL
  6
Continuous
100
AcDbLine
 10
284.8694886365743
 20
455.1488958648596
 30
0.0
 11
284.869488636572
 21
222.7757926059314
 31
0.0
  0
LINE
  5
538
102
{ACAD_REACTORS
330
57B
102
}
330
1E
100
AcDbEntity
  8
STEMPEL
100
AcDbLine
 10
284.4377750752567
 20
217.8412840202846
 30
0.0
 11
212.3012021978868
 21
217.8412840202846
 31
0.0
  0
LINE
  5
539
330
1E
100
AcDbEntity
  8
STEMPEL
100
AcDbLine
 10
284.3445874361426
 20
217.8399894665572
 30
0.0
 11
212.394389837001
 21
217.8399894665572
 31
0.0
  0
LINE
  5
53A
330
1E
100
AcDbEntity
  8
HILF
100
AcDbLine
 10
281.8637588802564
 20
222.8412840202846
 30
0.0
 11
214.8752183928871
 21
222.8412840202846
 31
0.0
  0
LINE
  5
53B
102
{ACAD_REACTORS
330
57B
102
}
330
1E
100
AcDbEntity
  8
STEMPEL
100
AcDbLine
 10
213.3694886365721
 20
222.8412840202846
 30
0.0
 11
213.8069319542017
 21
217.8412840202846
 31
0.0
  0
LINE
  5
53C
102
{ACAD_REACTORS
330
57B
102
}
330
1E
100
AcDbEntity
  8
STEMPEL
100
AcDbLine
 10
211.8694886365722
 20
222.7757926059222
 30
0.0
 11
212.3012021978868
 21
217.8412840202846
 31
0.0
  0
LINE
  5
53D
102
{ACAD_REACTORS
330
57B
102
}
330
1E
100
AcDbEntity
  8
STEMPEL
100
AcDbLine
 10
284.869488636572
 20
222.7757926059314
 30
0.0
 11
284.4377750752567
 21
217.8412840202846
 31
0.0
  0
LINE
  5
53E
102
{ACAD_REACTORS
330
57B
102
}
330
1E
100
AcDbEntity
  8
STEMPEL
100
AcDbLine
 10
283.3694886365719
 20
222.8412840202908
 30
0.0
 11
282.9320453189417
 21
217.8412840202846
 31
0.0
  0
DIMENSION
  5
53F
330
1E
100
AcDbEntity
  8
BEM
100
AcDbDimension
  2
*D2
 10
85.88483391986192
 20
477.8412840202846
 30
0.0
 11
79.38483391986185
 21
347.8406367434209
 31
0.0
 70
    32
 71
     5
 42
260.0012945537275
  3
Standard
100
AcDbAlignedDimension
 13
212.394389837001
 23
217.8399894665572
 33
0.0
 14
125.8694886365717
 24
477.8412840202846
 34
0.0
 50
90.0
100
AcDbRotatedDimension
1001
ACAD
1000
DSTYLE
1002
{
1070
    40
1040
2.0
1070
    41
1040
3.5
1070
    42
1040
1.0
1070
    43
1040
7.0
1070
    44
1040
1.0
1070
    73
1070
     0
1070
    74
1070
     0
1070
    77
1070
     1
1070
    78
1070
     8
1070
    79
1070
     2
1070
   140
1040
3.5
1070
   141
1040
1.5
1070
   146
1040
0.5142857142857144
1070
   147
1040
1.5
1070
   172
1070
     1
1070
   178
1070
     1
1070
   179
1070
     2
1070
   271
1070
     2
1070
   272
1070
     2
1070
   284
1070
     8
1070
   285
1070
     8
1070
   286
1070
     8
1002
}
  0
HATCH
  5
565
330
1E
100
AcDbEntity
  8
SCHRAFF
100
AcDbHatch
 10
0.0
 20
0.0
 30
0.0
210
0.0
220
0.0
230
1.0
  2
_U
 70
     0
 71
     0
 91
        2
 92
        7
 72
     1
 73
     1
 93
        4
 10
204.7965621795882
 20
464.2928901337099
 42
0.0
 10
204.4430087889947
 20
463.9393367431165
 42
0.0
 10
202.92426547304
 20
465.4580800590711
 42
0.5760313318603869
 10
207.5448964422924
 20
461.5445558710063
 42
0.0
 97
        0
 92
        7
 72
     1
 73
     1
 93
        4
 10
293.8147118001041
 20
465.4580800590714
 42
0.0
 10
292.2837021989447
 20
463.9270704579123
 42
0.0
 10
291.9301488083513
 20
464.2806238485057
 42
0.0
 10
289.1940808308514
 20
461.5445558710064
 42
0.5760313318604339
 97
        0
 75
     0
 76
     0
 52
0.0
 41
0.1
 77
     0
 78
     1
 53
0.0
 43
25.43073770465714
 44
21.71223967511389
 45
0.0
 46
0.1
 79
     0
 47
0.1173469678841337
 98
        2
 10
204.9468317064227
 20
462.6424599913445
 10
291.7356277038369
 20
462.5251129288302
  0
LINE
  5
566
330
1E
100
AcDbEntity
  8
HILF
100
AcDbLine
 10
214.4729503976776
 20
457.6363381752327
 30
0.0
 11
282.2660268754662
 21
457.6363381752327
 31
0.0
  0
LINE
  5
567
330
1E
100
AcDbEntity
  8
STEMPEL
100
AcDbLine
 10
205.857222351368
 20
465.3535503054898
 30
0.0
 11
290.8817549217759
 21
465.3535503054898
 31
0.0
  0
ARC
  5
568
330
1E
100
AcDbEntity
  8
SCHRAFF
100
AcDbCircle
 10
206.3694886365722
 20
464.8412840202857
 30
0.0
 40
3.5
100
AcDbArc
 50
169.8499045790552
 51
289.6230664748536
  0
LINE
  5
569
102
{ACAD_REACTORS
330
57A
330
57B
102
}
330
1E
100
AcDbEntity
  8
STEMPEL
100
AcDbLine
 10
195.7126343870794
 20
475.4981382697771
 30
0.0
 11
211.4656827142866
 21
459.745089942572
 31
0.0
  0
LINE
  5
56A
102
{ACAD_REACTORS
330
57A
102
}
330
1E
100
AcDbEntity
  8
STEMPEL
100
AcDbLine
 10
194.2984208247063
 20
474.0839247074039
 30
0.0
 11
204.4430087889949
 21
463.9393367431165
 31
0.0
  0
ARC
  5
56B
102
{ACAD_REACTORS
330
57A
102
}
330
1E
100
AcDbEntity
  8
STEMPEL
100
AcDbCircle
 10
190.0557801375872
 20
469.8412840202844
 30
0.0
 40
8.0
100
AcDbArc
 50
45.00000000000057
 51
90.0
  0
ARC
  5
56C
102
{ACAD_REACTORS
330
57A
102
}
330
1E
100
AcDbEntity
  8
STEMPEL
100
AcDbCircle
 10
190.0557801375872
 20
469.8412840202844
 30
0.0
 40
6.0
100
AcDbArc
 50
45.00000000000057
 51
90.0
  0
LINE
  5
56D
102
{ACAD_REACTORS
330
57B
102
}
330
1E
100
AcDbEntity
  8
STEMPEL
100
AcDbLine
 10
204.7965621795882
 20
464.2928901337101
 30
0.0
 11
210.4050225425067
 21
458.6844297707924
 31
0.0
  0
LINE
  5
56E
102
{ACAD_REACTORS
330
57A
330
57B
102
}
330
1E
100
AcDbEntity
  8
STEMPEL
100
AcDbLine
 10
205.8572223513678
 20
465.3535503054896
 30
0.0
 11
204.4430087889947
 21
463.9393367431165
 31
0.0
  0
LINE
  5
56F
102
{ACAD_REACTORS
330
57A
102
}
330
1E
100
AcDbEntity
  8
STEMPEL
100
AcDbLine
 10
302.4405564484376
 20
474.0839247074039
 30
0.0
 11
292.2837021989448
 21
463.9270704579124
 31
0.0
  0
ARC
  5
570
102
{ACAD_REACTORS
330
57A
102
}
330
1E
100
AcDbEntity
  8
STEMPEL
100
AcDbCircle
 10
306.6831971355564
 20
469.8412840202844
 30
0.0
 40
8.0
100
AcDbArc
 50
90.0
 51
134.9999999999994
  0
ARC
  5
571
102
{ACAD_REACTORS
330
57B
102
}
330
1E
100
AcDbEntity
  8
STEMPEL
100
AcDbCircle
 10
289.8694886365698
 20
455.1488958648596
 30
0.0
 40
6.5
100
AcDbArc
 50
134.9999999999994
 51
180.0
  0
ARC
  5
572
102
{ACAD_REACTORS
330
57B
102
}
330
1E
100
AcDbEntity
  8
STEMPEL
100
AcDbCircle
 10
289.8694886365698
 20
455.1488958648596
 30
0.0
 40
5.0
100
AcDbArc
 50
134.9999999999994
 51
180.0
  0
ARC
  5
573
330
1E
100
AcDbEntity
  8
SCHRAFF
100
AcDbCircle
 10
290.3694886365719
 20
464.8412840202857
 30
0.0
 40
3.5
100
AcDbArc
 50
250.3769335251433
 51
10.15009542095131
  0
LINE
  5
574
102
{ACAD_REACTORS
330
57A
330
57B
102
}
330
1E
100
AcDbEntity
  8
STEMPEL
100
AcDbLine
 10
301.0263428860645
 20
475.4981382697771
 30
0.0
 11
285.2732945588577
 21
459.7450899425722
 31
0.0
  0
LINE
  5
575
102
{ACAD_REACTORS
330
57B
102
}
330
1E
100
AcDbEntity
  8
STEMPEL
100
AcDbLine
 10
291.9301488083513
 20
464.280623848506
 30
0.0
 11
286.3339547306373
 21
458.6844297707926
 31
0.0
  0
LINE
  5
576
102
{ACAD_REACTORS
330
57A
330
57B
102
}
330
1E
100
AcDbEntity
  8
STEMPEL
100
AcDbLine
 10
290.8694886365718
 20
465.3412840202857
 30
0.0
 11
292.2837021989449
 21
463.9270704579124
 31
0.0
  0
ARC
  5
577
102
{ACAD_REACTORS
330
57A
102
}
330
1E
100
AcDbEntity
  8
STEMPEL
100
AcDbCircle
 10
306.6831971355564
 20
469.8412840202844
 30
0.0
 40
6.0
100
AcDbArc
 50
90.0
 51
134.9999999999994
  0
ARC
  5
578
102
{ACAD_REACTORS
330
57B
102
}
330
1E
100
AcDbEntity
  8
STEMPEL
100
AcDbCircle
 10
206.8694886365743
 20
455.1488958648591
 30
0.0
 40
6.5
100
AcDbArc
 50
0.0
 51
45.00000000000287
  0
ARC
  5
579
102
{ACAD_REACTORS
330
57B
102
}
330
1E
100
AcDbEntity
  8
STEMPEL
100
AcDbCircle
 10
206.8694886365743
 20
455.1488958648594
 30
0.0
 40
5.0
100
AcDbArc
 50
0.0
 51
45.00000000000287
  0
HATCH
  5
57A
330
1E
100
AcDbEntity
  8
SCHRAFF
100
AcDbHatch
 10
0.0
 20
0.0
 30
0.0
210
0.0
220
0.0
230
1.0
  2
_USER
 70
     0
 71
     1
 91
        2
 92
        7
 72
     1
 73
     1
 93
       12
 10
190.0557801375871
 20
477.8412840202846
 42
0.0
 10
132.0870030578441
 20
477.8412840202847
 42
0.1989123673796999
 10
128.1979157613176
 20
476.2303713168101
 42
0.0
 10
125.8694886365716
 20
473.9019441920639
 42
0.0
 10
127.2837021989444
 20
472.4877306296908
 42
0.0
 10
129.6121293236907
 20
474.8161577544371
 42
-0.1989123673796757
 10
132.0870030578434
 20
475.8412840202848
 42
0.0
 10
190.0557801375872
 20
475.8412840202844
 42
-0.198912367379648
 10
194.2984208247063
 20
474.0839247074039
 42
0.0
 10
204.4430087889948
 20
463.9393367431166
 42
0.0
 10
205.857222351368
 20
465.3535503054898
 42
0.0
 10
195.7126343870794
 20
475.4981382697771
 42
0.1989123673796531
 97
       12
330
524
330
529
330
526
330
527
330
52A
330
528
330
531
330
56C
330
56A
330
56E
330
569
330
56B
 92
        7
 72
     1
 73
     1
 93
       12
 10
364.6519742152997
 20
477.8412840202845
 42
0.0
 10
306.6831971355564
 20
477.8412840202846
 42
0.1989123673796333
 10
301.0263428860647
 20
475.4981382697772
 42
0.0
 10
290.8694886365719
 20
465.3412840202857
 42
0.0
 10
292.2837021989449
 20
463.9270704579125
 42
0.0
 10
302.4405564484376
 20
474.0839247074039
 42
-0.1989123673796295
 10
306.6831971355563
 20
475.8412840202844
 42
0.0
 10
364.6519742152999
 20
475.8412840202848
 42
-0.1989123673797032
 10
367.1268479494529
 20
474.8161577544371
 42
0.0
 10
369.4552750741991
 20
472.4877306296907
 42
0.0
 10
370.869488636572
 20
473.9019441920639
 42
0.0
 10
368.5410615118261
 20
476.2303713168101
 42
0.1989123673796859
 97
       12
330
524
330
570
330
574
330
576
330
56F
330
577
330
532
330
52E
330
52D
330
530
330
52F
330
52C
 75
     0
 76
     0
 52
45.0
 41
2.0
 77
     0
 78
     1
 53
45.0
 43
13.88497226189429
 44
75.31307411212651
 45
-1.414213562373094
 46
1.414213562373095
 79
     0
 47
0.6506880114234938
 98
        2
 10
140.0463848462041
 20
476.6552079103424
 10
315.8506628807322
 20
476.6552079103424
  0
HATCH
  5
57B
330
1E
100
AcDbEntity
  8
SCHRAFF
100
AcDbHatch
 10
0.0
 20
0.0
 30
0.0
210
0.0
220
0.0
230
1.0
  2
_USER
 70
     0
 71
     1
 91
        2
 92
        7
 72
     1
 73
     1
 93
       10
 10
213.3694886365743
 20
455.1488958648591
 42
0.1989123673796762
 10
211.4656827142866
 20
459.745089942572
 42
0.0
 10
205.8572223513681
 20
465.3535503054897
 42
0.0
 10
204.7965621795883
 20
464.29289013371
 42
0.0
 10
210.4050225425067
 20
458.6844297707924
 42
-0.1989123673796839
 10
211.8694886365743
 20
455.1488958648593
 42
0.0
 10
211.8694886365722
 20
222.7757926059224
 42
0.0
 10
212.3012021978868
 20
217.8412840202846
 42
0.0
 10
213.8069319542017
 20
217.8412840202846
 42
0.0
 10
213.3694886365721
 20
222.8412840202846
 42
0.0
 97
       10
330
578
330
569
330
56E
330
56D
330
579
330
535
330
53C
330
538
330
53B
330
534
 92
        7
 72
     1
 73
     1
 93
       10
 10
283.369488636572
 20
222.8412840202905
 42
0.0
 10
282.9320453189417
 20
217.8412840202846
 42
0.0
 10
284.4377750752567
 20
217.8412840202846
 42
0.0
 10
284.869488636572
 20
222.775792605931
 42
0.0
 10
284.8694886365743
 20
455.1488958648596
 42
-0.198912367379581
 10
286.3339547306373
 20
458.6844297707926
 42
0.0
 10
291.9301488083514
 20
464.2806238485061
 42
0.0
 10
290.8694886365719
 20
465.3412840202858
 42
0.0
 10
285.2732945588577
 20
459.7450899425722
 42
0.1989123673796053
 10
283.3694886365744
 20
455.1488958648593
 42
0.0
 97
       10
330
572
330
575
330
576
330
574
330
571
330
536
330
53E
330
538
330
53D
330
537
 75
     0
 76
     0
 52
135.0
 41
2.0
 77
     0
 78
     1
 53
135.0
 43
13.88497226189429
 44
75.31307411212651
 45
-1.414213562373095
 46
-1.414213562373094
 79
     0
 47
0.6506880114234938
 98
        2
 10
212.9726040160326
 20
441.5180542184066
 10
283.9454419939325
 20
338.0586608145968
  0
TEXT
  5
663
330
1E
100
AcDbEntity
  8
TEXT
100
AcDbText
 10
504.5307583482736
 20
612.2898419893275
 30
0.0
 40
4.0
  1
DIN EN1124-3
 50
90.0
 41
0.8
  7
GREEKS
 72
     1
 11
504.5307583482736
 21
629.2803181798038
 31
0.0
100
AcDbText
  0
TEXT
  5
664
330
1E
100
AcDbEntity
  8
TEXT
 62
     1
100
AcDbText
 10
531.5924625427206
 20
790.1294755517469
 30
0.0
 40
7.0
  1

 50
90.0
 41
0.8
  7
GREEKS
 72
     1
 11
531.5924625427206
 21
790.1294755517469
 31
0.0
100
AcDbText
  0
LINE
  5
675
330
1E
100
AcDbEntity
  8
TEXT
 62
     2
100
AcDbLine
 10
365.5680625392045
 20
415.2488704279701
 30
0.0
 11
313.1392983236926
 21
479.5773060757881
 31
0.0
  0
TEXT
  5
676
330
1E
100
AcDbEntity
  8
TEXT
 62
     1
100
AcDbText
 10
368.248915793014
 20
418.7327045888805
 30
0.0
 40
7.0
  1
Kompressionsdichtung
 41
0.8
100
AcDbText
  0
LINE
  5
677
330
1E
100
AcDbEntity
  8
TEXT
 62
     2
100
AcDbLine
 10
471.5066271143375
 20
415.2488704279701
 30
0.0
 11
365.5680625392045
 21
415.2488704279701
 31
0.0
  0
TEXT
  5
678
330
1E
100
AcDbEntity
  8
TEXT
 62
     1
100
AcDbText
 10
368.248915793014
 20
405.956373620171
 30
0.0
 40
7.0
  1
EDV-Art.Nr. 21920.070X
 41
0.8
100
AcDbText
  0
LINE
  5
679
102
{ACAD_REACTORS
330
BFC
102
}
330
1E
100
AcDbEntity
  8
TEXT
 62
     2
100
AcDbLine
 10
365.5680625392045
 20
451.1250524146681
 30
0.0
 11
341.8395357707789
 21
486.5954711516299
 31
0.0
  0
TEXT
  5
67A
330
1E
100
AcDbEntity
  8
TEXT
 62
     1
100
AcDbText
 10
366.1634184179588
 20
454.6088865755784
 30
0.0
 40
7.0
  1
Losflansch DN70
 41
0.8
100
AcDbText
  0
LINE
  5
67B
330
1E
100
AcDbEntity
  8
TEXT
 62
     2
100
AcDbLine
 10
471.5066271143375
 20
451.1250524146681
 30
0.0
 11
365.5680625392045
 21
451.1250524146681
 31
0.0
  0
TEXT
  5
67C
330
1E
100
AcDbEntity
  8
TEXT
 62
     1
100
AcDbText
 10
366.1634184179588
 20
441.8325556068689
 30
0.0
 40
7.0
  1
EDV-Art.Nr. 21907.070X
 41
0.8
100
AcDbText
  0
LINE
  5
68E
330
1E
100
AcDbEntity
  8
TEXT
 62
     2
100
AcDbLine
 10
308.4102904106762
 20
618.6000535079633
 30
0.0
 11
322.7956423469247
 21
671.9422053173373
 31
0.0
  0
TEXT
  5
68F
330
1E
100
AcDbEntity
  8
TEXT
 62
     1
100
AcDbText
 10
324.1470114951009
 20
675.1048669479688
 30
0.0
 40
7.0
  1
Siebkorb
 41
0.8
  7
GREEKS
100
AcDbText
  0
LINE
  5
690
330
1E
100
AcDbEntity
  8
TEXT
 62
     2
100
AcDbLine
 10
322.7956423469247
 20
671.9422053173373
 30
0.0
 11
431.0992470714364
 21
671.9422053173373
 31
0.0
  0
TEXT
  5
691
330
1E
100
AcDbEntity
  8
TEXT
 62
     1
100
AcDbText
 10
324.1470114951009
 20
661.4285264302333
 30
0.0
 40
7.0
  1
EDV-Art.Nr. 21007.000X
 41
0.8
  7
GREEKS
100
AcDbText
  0
LINE
  5
692
330
1E
100
AcDbEntity
  8
TEXT
 62
     2
100
AcDbLine
 10
304.8363881934786
 20
605.3477093549337
 30
0.0
 11
307.1273760084026
 21
613.8428939259254
 31
0.0
  0
LINE
  5
693
330
1E
100
AcDbEntity
  8
TEXT
 62
     2
100
AcDbLine
 10
301.4961625511603
 20
592.96185852002
 30
0.0
 11
303.4453336784849
 21
600.1895567116926
 31
0.0
  0
DIMENSION
  5
843
330
1E
100
AcDbEntity
  8
BEM
100
AcDbDimension
  2
*D4
 10
378.3694886365718
 20
616.1488383313267
 30
0.0
 11
248.3694886365719
 21
622.6488383313267
 31
0.0
 70
    32
  1
%%c<>
 71
     5
 42
259.9999999999999
  3
Standard
100
AcDbAlignedDimension
 13
118.3694886365719
 23
504.841284020286
 33
0.0
 14
378.3694886365718
 24
504.8412840202863
 34
0.0
100
AcDbRotatedDimension
1001
ACAD
1000
DSTYLE
1002
{
1070
    40
1040
2.0
1070
    41
1040
3.5
1070
    42
1040
1.0
1070
    43
1040
7.0
1070
    44
1040
1.0
1070
    73
1070
     0
1070
    74
1070
     0
1070
    77
1070
     1
1070
    78
1070
     8
1070
    79
1070
     2
1070
   140
1040
3.5
1070
   141
1040
1.5
1070
   146
1040
0.5142857142857144
1070
   147
1040
1.5
1070
   172
1070
     1
1070
   178
1070
     1
1070
   179
1070
     2
1070
   271
1070
     2
1070
   272
1070
     2
1070
   284
1070
     8
1070
   285
1070
     8
1070
   286
1070
     8
1002
}
  0
DIMENSION
  5
844
330
1E
100
AcDbEntity
  8
BEM
100
AcDbDimension
  2
*D5
 10
358.3694886365722
 20
602.6536370170192
 30
0.0
 11
248.3694886365721
 21
609.1536370170192
 31
0.0
 70
    32
  1
%%c<>
 71
     5
 42
220.0000000000002
  3
Standard
100
AcDbAlignedDimension
 13
138.3694886365719
 23
573.8412260529705
 33
0.0
 14
358.3694886365722
 24
573.8412260529705
 34
0.0
100
AcDbRotatedDimension
1001
ACAD
1000
DSTYLE
1002
{
1070
    40
1040
2.0
1070
    41
1040
3.5
1070
    42
1040
1.0
1070
    43
1040
7.0
1070
    44
1040
1.0
1070
    73
1070
     0
1070
    74
1070
     0
1070
    77
1070
     1
1070
    78
1070
     8
1070
    79
1070
     2
1070
   140
1040
3.5
1070
   141
1040
1.5
1070
   146
1040
0.5142857142857144
1070
   147
1040
1.5
1070
   172
1070
     1
1070
   178
1070
     1
1070
   179
1070
     2
1070
   271
1070
     2
1070
   272
1070
     2
1070
   284
1070
     8
1070
   285
1070
     8
1070
   286
1070
     8
1002
}
  0
LWPOLYLINE
  5
845
330
1E
100
AcDbEntity
  8
STEMPEL
100
AcDbPolyline
 90
       10
 70
   128
 43
0.0
 10
-161.3037035242457
 20
523.8412840202875
 10
-162.0965308701054
 20
523.7273421678789
 10
-162.8652685582511
 20
523.3889786761816
 10
-163.5865588830286
 20
522.8364745486706
 10
-164.2384858029101
 20
522.0866173436793
 10
-164.8012408483258
 20
521.1621910929359
 10
-165.2577249919887
 20
520.0912840202866
 10
-165.5940681941854
 20
518.9064350952289
 10
-165.8000508369155
 20
517.643645352788
 10
-165.8694142418116
 20
516.3412840202859
210
0.0
220
0.0
230
-1.0
  0
LINE
  5
846
330
1E
100
AcDbEntity
  8
HILF
100
AcDbLine
 10
350.6958216941026
 20
576.8412840202889
 30
0.0
 11
145.5431555790412
 21
576.8412840202886
 31
0.0
  0
LWPOLYLINE
  5
847
330
1E
100
AcDbEntity
  8
STEMPEL
100
AcDbPolyline
 90
       18
 70
   128
 43
0.0
 10
-157.5332136935007
 20
516.3412840202843
 10
-157.6109535947608
 20
517.7194054039087
 10
-157.8415259594426
 20
519.0505965166885
 10
-158.2170789222078
 20
520.2895252418652
 10
-158.7248234773355
 20
521.3940013476344
 10
-159.3474689929734
 20
522.3264132248873
 10
-160.0638120228675
 20
523.0550087054487
 10
-160.8494583642934
 20
523.5549763440819
 10
-161.6776537733728
 20
523.8092903424985
 10
-162.5201950487605
 20
523.8092903424985
 10
-163.3483904578399
 20
523.5549763440819
 10
-164.1340367992658
 20
523.0550087054487
 10
-164.8503798291598
 20
522.3264132248873
 10
-165.4730253447978
 20
521.3940013476344
 10
-165.9807698999255
 20
520.2895252418652
 10
-166.3563228626906
 20
519.0505965166885
 10
-166.5868952273725
 20
517.7194054039087
 10
-166.6646351286326
 20
516.3412840202843
210
0.0
220
0.0
230
-1.0
  0
LINE
  5
848
330
1E
100
AcDbEntity
  8
STEMPEL
100
AcDbLine
 10
141.3367940148641
 20
579.0183645803295
 30
0.0
 11
165.323096890331
 21
593.010374591018
 31
0.0
  0
LINE
  5
849
330
1E
100
AcDbEntity
  8
STEMPEL
100
AcDbLine
 10
141.8501350684449
 20
578.1601214671668
 30
0.0
 11
165.8289889613961
 21
592.1477746333523
 31
0.0
  0
DIMENSION
  5
84A
330
1E
100
AcDbEntity
  8
BEM
100
AcDbDimension
  2
*D6
 10
85.88483391986192
 20
483.8412840202847
 30
0.0
 11
79.38483391986185
 21
538.8412840202851
 31
0.0
 70
    32
 71
     5
 42
110.0000000000006
  3
Standard
100
AcDbAlignedDimension
 13
168.3694886365719
 23
593.8412840202854
 33
0.0
 14
131.3694886365724
 24
483.8412840202847
 34
0.0
 50
90.0
100
AcDbRotatedDimension
1001
ACAD
1000
DSTYLE
1002
{
1070
    40
1040
2.0
1070
    41
1040
3.5
1070
    42
1040
1.0
1070
    43
1040
7.0
1070
    44
1040
1.0
1070
    73
1070
     0
1070
    74
1070
     0
1070
    77
1070
     1
1070
    78
1070
     8
1070
    79
1070
     2
1070
   140
1040
3.5
1070
   141
1040
1.5
1070
   146
1040
0.5142857142857144
1070
   147
1040
1.5
1070
   172
1070
     1
1070
   178
1070
     1
1070
   179
1070
     2
1070
   271
1070
     2
1070
   272
1070
     2
1070
   284
1070
     8
1070
   285
1070
     8
1070
   286
1070
     8
1002
}
  0
LINE
  5
84B
330
1E
100
AcDbEntity
  8
STEMPEL
100
AcDbLine
 10
138.3694886365719
 20
573.8412260529705
 30
0.0
 11
138.3694886365719
 21
509.8412840202865
 31
0.0
  0
LINE
  5
84C
330
1E
100
AcDbEntity
  8
STEMPEL
100
AcDbLine
 10
139.369488636572
 20
573.8412260529705
 30
0.0
 11
139.369488636572
 21
509.8412840202865
 31
0.0
  0
LINE
  5
84D
330
1E
100
AcDbEntity
  8
STEMPEL
100
AcDbLine
 10
150.7754145098188
 20
516.3412840202843
 30
0.0
 11
150.7754145098188
 21
509.8412840202876
 31
0.0
  0
LINE
  5
84E
330
1E
100
AcDbEntity
  8
STEMPEL
100
AcDbLine
 10
149.8493601733116
 20
516.3412840202843
 30
0.0
 11
149.8493601733116
 21
509.8412840202876
 31
0.0
  0
LINE
  5
84F
330
1E
100
AcDbEntity
  8
STEMPEL
100
AcDbLine
 10
157.5332136935006
 20
516.3412840202843
 30
0.0
 11
157.5332136935006
 21
509.8412840202876
 31
0.0
  0
LINE
  5
850
330
1E
100
AcDbEntity
  8
STEMPEL
100
AcDbLine
 10
145.0351630243411
 20
516.3412840202843
 30
0.0
 11
145.0351630243411
 21
509.8412840202876
 31
0.0
  0
LINE
  5
851
330
1E
100
AcDbEntity
  8
STEMPEL
100
AcDbLine
 10
139.5791758776072
 20
516.3412840202843
 30
0.0
 11
139.5791758776072
 21
509.8412840202865
 31
0.0
  0
LINE
  5
852
330
1E
100
AcDbEntity
  8
STEMPEL
100
AcDbLine
 10
140.5432900473699
 20
516.3412840202843
 30
0.0
 11
140.5432900473699
 21
509.8412840202865
 31
0.0
  0
LINE
  5
853
330
1E
100
AcDbEntity
  8
STEMPEL
100
AcDbLine
 10
141.5370687609077
 20
516.3412840202843
 30
0.0
 11
141.5370687609077
 21
509.8412840202853
 31
0.0
  0
LINE
  5
854
330
1E
100
AcDbEntity
  8
STEMPEL
100
AcDbLine
 10
118.3694886365719
 20
504.841284020286
 30
0.0
 11
133.3694886365721
 21
504.8412840202864
 31
0.0
  0
LINE
  5
855
330
1E
100
AcDbEntity
  8
STEMPEL
100
AcDbLine
 10
118.3694886365718
 20
504.8412840202863
 30
0.0
 11
118.3694886365717
 21
503.8412840202861
 31
0.0
  0
LINE
  5
859
102
{ACAD_REACTORS
330
BFC
102
}
330
1E
100
AcDbEntity
  8
STEMPEL
100
AcDbLine
 10
125.8694886365717
 20
480.8412840202847
 30
0.0
 11
153.3694886365719
 21
480.8412840202848
 31
0.0
  0
LINE
  5
85C
102
{ACAD_REACTORS
330
BFC
102
}
330
1E
100
AcDbEntity
  8
STEMPEL
100
AcDbLine
 10
125.8694886365717
 20
480.8412840202847
 30
0.0
 11
125.8694886365717
 21
477.8412840202847
 31
0.0
  0
LINE
  5
85E
102
{ACAD_REACTORS
330
BFC
102
}
330
1E
100
AcDbEntity
  8
STEMPEL
100
AcDbLine
 10
151.8694886365717
 20
480.8412840202847
 30
0.0
 11
151.8694886365717
 21
477.8412840202847
 31
0.0
  0
LWPOLYLINE
  5
85F
330
1E
100
AcDbEntity
  8
STEMPEL
100
AcDbPolyline
 90
       10
 70
   128
 43
0.0
 10
145.9600499832449
 20
503.8412840202861
 10
146.7962292580865
 20
503.9324375022128
 10
147.6070016487891
 20
504.2031282955706
 10
148.3677322465319
 20
504.6451315975795
 10
149.0553066370507
 20
505.2450173615723
 10
149.6488332204191
 20
505.984558362167
 10
150.1302779917403
 20
506.8412840202863
 10
150.4850124952607
 20
507.7891631603323
 10
150.7022583025949
 20
508.7993949542848
 10
150.7754145098188
 20
509.8412840202865
  0
LINE
  5
860
330
1E
100
AcDbEntity
  8
STEMPEL
100
AcDbLine
 10
140.5589351807043
 20
503.8412840202865
 30
0.0
 11
152.3694886365718
 21
503.8412840202856
 31
0.0
  0
LINE
  5
861
330
1E
100
AcDbEntity
  8
STEMPEL
100
AcDbLine
 10
142.8815913916725
 20
504.841284020286
 30
0.0
 11
147.6957885406439
 21
504.841284020286
 31
0.0
  0
LWPOLYLINE
  5
864
330
1E
100
AcDbEntity
  8
STEMPEL
100
AcDbPolyline
 90
       10
 70
   128
 43
0.0
 10
136.0310800298769
 20
503.8412840202861
 10
136.8891530261497
 20
503.9074112348587
 10
137.7419652257719
 20
504.1599649845889
 10
138.5627235326889
 20
504.5910107009064
 10
139.3256418990879
 20
505.1870060713464
 10
140.0067514545871
 20
505.929226503067
 10
140.5846535445328
 20
506.7943533998644
 10
141.041192018939
 20
507.7552067705806
 10
141.3620236505366
 20
508.7815991522927
 10
141.5370687609077
 20
509.8412840202853
  0
LWPOLYLINE
  5
865
330
1E
100
AcDbEntity
  8
STEMPEL
100
AcDbPolyline
 90
       10
 70
   128
 43
0.0
 10
134.0731871465764
 20
503.8412840202872
 10
134.9312601428492
 20
503.9074112348599
 10
135.7840723424714
 20
504.1599649845901
 10
136.6048306493885
 20
504.5910107009076
 10
137.3677490157874
 20
505.1870060713476
 10
138.0488585712866
 20
505.9292265030681
 10
138.6267606612323
 20
506.7943533998656
 10
139.0832991356386
 20
507.7552067705816
 10
139.4041307672361
 20
508.7815991522939
 10
139.5791758776072
 20
509.8412840202865
  0
ARC
  5
866
330
1E
100
AcDbEntity
  8
STEMPEL
100
AcDbCircle
 10
133.369488636572
 20
509.8412840202865
 30
0.0
 40
5.0
100
AcDbArc
 50
270.0
 51
0.0
  0
ARC
  5
867
330
1E
100
AcDbEntity
  8
STEMPEL
100
AcDbCircle
 10
133.369488636572
 20
509.8412840202865
 30
0.0
 40
6.0
100
AcDbArc
 50
270.0000000000033
 51
0.0
  0
LWPOLYLINE
  5
868
330
1E
100
AcDbEntity
  8
STEMPEL
100
AcDbPolyline
 90
        7
 70
   128
 43
0.0
 10
137.922830863699
 20
504.8412840202865
 10
138.5995327387765
 20
505.4508847481455
 10
139.1990821624104
 20
506.1784438320572
 10
139.7053708355601
 20
507.0044136937374
 10
140.1047961276056
 20
507.9066027189405
 10
140.3866265428685
 20
508.8607714871342
 10
140.54329004737
 20
509.8412840202865
  0
LINE
  5
869
330
1E
100
AcDbEntity
  8
STEMPEL
100
AcDbLine
 10
136.9587166939366
 20
504.841284020286
 30
0.0
 11
137.9228308636993
 21
504.841284020286
 31
0.0
  0
LWPOLYLINE
  5
86A
330
1E
100
AcDbEntity
  8
STEMPEL
100
AcDbPolyline
 90
       10
 70
   128
 43
0.0
 10
140.2197984977671
 20
503.8412840202861
 10
141.0559777726087
 20
503.9324375022128
 10
141.8667501633113
 20
504.2031282955706
 10
142.6274807610542
 20
504.6451315975795
 10
143.3150551515729
 20
505.2450173615723
 10
143.9085817349414
 20
505.984558362167
 10
144.3900265062626
 20
506.8412840202863
 10
144.7447610097829
 20
507.7891631603323
 10
144.9620068171171
 20
508.7993949542848
 10
145.0351630243411
 20
509.8412840202865
  0
LWPOLYLINE
  5
86B
330
1E
100
AcDbEntity
  8
STEMPEL
100
AcDbPolyline
 90
        7
 70
   128
 43
0.0
 10
147.6957885406429
 20
504.841284020286
 10
148.3158790637073
 20
505.4506219221269
 10
148.8476992104907
 20
506.1780521954161
 10
149.2769450102219
 20
507.0040096893598
 10
149.5920713580192
 20
507.9062792398221
 10
149.7846025349851
 20
508.8605931740653
 10
149.8493601733114
 20
509.8412840202865
  0
LWPOLYLINE
  5
86C
330
1E
100
AcDbEntity
  8
STEMPEL
100
AcDbPolyline
 90
       18
 70
   128
 43
0.0
 10
-145.0351630243411
 20
516.3412840202843
 10
-145.0840323692574
 20
517.7194054039087
 10
-145.2289762170774
 20
519.0505965166885
 10
-145.4650586789046
 20
520.2895252418652
 10
-145.7842402496514
 20
521.3940013476344
 10
-146.1756515837417
 20
522.3264132248873
 10
-146.6259636376397
 20
523.0550087054487
 10
-147.1198415744391
 20
523.5549763440819
 10
-147.640466973344
 20
523.8092903424985
 10
-148.1701105608158
 20
523.8092903424985
 10
-148.6907359597208
 20
523.5549763440819
 10
-149.1846138965202
 20
523.0550087054487
 10
-149.6349259504182
 20
522.3264132248873
 10
-150.0263372845085
 20
521.3940013476344
 10
-150.3455188552553
 20
520.2895252418652
 10
-150.5816013170825
 20
519.0505965166885
 10
-150.7265451649026
 20
517.7194054039087
 10
-150.7754145098188
 20
516.3412840202843
210
0.0
220
0.0
230
-1.0
  0
LWPOLYLINE
  5
86D
330
1E
100
AcDbEntity
  8
STEMPEL
100
AcDbPolyline
 90
       18
 70
   128
 43
0.0
 10
-139.5791758776072
 20
516.3412840202843
 10
-139.595844301084
 20
517.7194054039087
 10
-139.6452819483444
 20
519.0505965166885
 10
-139.7258052796049
 20
520.2895252418652
 10
-139.8346721693966
 20
521.3940013476344
 10
-139.9681752863588
 20
522.3264132248873
 10
-140.121768341963
 20
523.0550087054487
 10
-140.290220908915
 20
523.5549763440819
 10
-140.467796537084
 20
523.8092903424985
 10
-140.648448101431
 20
523.8092903424985
 10
-140.8260237296
 20
523.5549763440819
 10
-140.994476296552
 20
523.0550087054487
 10
-141.1480693521561
 20
522.3264132248873
 10
-141.2815724691184
 20
521.3940013476344
 10
-141.3904393589101
 20
520.2895252418652
 10
-141.4709626901705
 20
519.0505965166885
 10
-141.520400337431
 20
517.7194054039087
 10
-141.5370687609077
 20
516.3412840202843
210
0.0
220
0.0
230
-1.0
  0
LWPOLYLINE
  5
86E
330
1E
100
AcDbEntity
  8
STEMPEL
100
AcDbPolyline
 90
        7
 70
   128
 43
0.0
 10
-140.0612329624884
 20
522.8033380761241
 10
-140.1990619720587
 20
522.0512318391855
 10
-140.3179262490249
 20
521.1285182284707
 10
-140.4142742509261
 20
520.0627669785665
 10
-140.4852271984643
 20
518.8858216417454
 10
-140.5286650904722
 20
517.6328481353436
 10
-140.5432900473698
 20
516.3412840202843
210
0.0
220
0.0
230
-1.0
  0
LWPOLYLINE
  5
86F
330
1E
100
AcDbEntity
  8
STEMPEL
100
AcDbPolyline
 90
        9
 70
   128
 43
0.0
 10
-147.442261598828
 20
523.7430422649493
 10
-147.9313221420967
 20
523.416609367192
 10
-148.3909351099976
 20
522.8713403539347
 10
-148.8068849136219
 20
522.1241001108067
 10
-149.1663064429135
 20
521.1980003880292
 10
-149.458082977801
 20
520.1216849660588
 10
-149.6731900225391
 20
518.928443718428
 10
-149.8049744286466
 20
517.6551829733522
 10
-149.8493601733114
 20
516.3412840202859
210
0.0
220
0.0
230
-1.0
  0
ARC
  5
870
330
1E
100
AcDbEntity
  8
STEMPEL
100
AcDbCircle
 10
144.369488636572
 20
573.8412260529705
 30
0.0
 40
6.0
100
AcDbArc
 50
120.2564164748158
 51
180.0
  0
ARC
  5
871
330
1E
100
AcDbEntity
  8
STEMPEL
100
AcDbCircle
 10
144.369488636572
 20
573.8412260529705
 30
0.0
 40
5.0
100
AcDbArc
 50
120.2564164748158
 51
180.0
  0
ARC
  5
872
330
1E
100
AcDbEntity
  8
STEMPEL
100
AcDbCircle
 10
138.8583450322604
 20
583.3611210027479
 30
0.0
 40
5.0
100
AcDbArc
 50
300.0670458384858
 51
300.2564371635302
  0
LINE
  5
873
330
1E
100
AcDbEntity
  8
STEMPEL
100
AcDbLine
 10
357.369488636572
 20
573.8412260529705
 30
0.0
 11
357.369488636572
 21
509.8412840202865
 31
0.0
  0
LINE
  5
874
330
1E
100
AcDbEntity
  8
STEMPEL
100
AcDbLine
 10
358.3694886365722
 20
573.8412260529705
 30
0.0
 11
358.3694886365722
 21
509.8412840202865
 31
0.0
  0
LINE
  5
877
102
{ACAD_REACTORS
330
BFC
102
}
330
1E
100
AcDbEntity
  8
STEMPEL
100
AcDbLine
 10
163.369488636572
 20
480.8412840202847
 30
0.0
 11
370.8694886365719
 21
480.8412840202846
 31
0.0
  0
LWPOLYLINE
  5
878
330
1E
100
AcDbEntity
  8
STEMPEL
100
AcDbPolyline
 90
        8
 70
   128
 43
0.0
 10
290.1749148882862
 20
523.8384104433244
 10
288.8507054379564
 20
523.6595775362766
 10
287.5827260407703
 20
523.2093016189524
 10
286.4180073526847
 20
522.5042838868132
 10
285.399749984078
 20
521.5706741704297
 10
284.5657221448158
 20
520.4431010114537
 10
283.9468587826218
 20
519.1633872545018
 10
283.8582716025168
 20
518.8412840202848
  0
LWPOLYLINE
  5
879
330
1E
100
AcDbEntity
  8
STEMPEL
100
AcDbPolyline
 90
       16
 70
   128
 43
0.0
 10
296.4993340313035
 20
518.8412840202848
 10
296.444312810839
 20
519.0505965166885
 10
295.8743593296572
 20
520.2895252418652
 10
295.1037868527011
 20
521.3940013476344
 10
294.1588363014736
 20
522.3264132248873
 10
293.0716868336536
 20
523.0550087054487
 10
291.8793600204753
 20
523.5549763440819
 10
290.6224591215235
 20
523.8092903424985
 10
289.3437863894251
 20
523.8092903424985
 10
288.0868854904733
 20
523.5549763440819
 10
286.894558677295
 20
523.0550087054487
 10
285.807409209475
 20
522.3264132248873
 10
284.8624586582475
 20
521.3940013476344
 10
284.0918861812914
 20
520.2895252418652
 10
283.5219327001096
 20
519.0505965166885
 10
283.4669114796451
 20
518.8412840202848
  0
LINE
  5
87A
330
1E
100
AcDbEntity
  8
STEMPEL
100
AcDbLine
 10
118.3694886365717
 20
503.8412840202859
 30
0.0
 11
181.093626567606
 21
503.841284020286
 31
0.0
  0
LINE
  5
87B
330
1E
100
AcDbEntity
  8
STEMPEL
100
AcDbLine
 10
166.6646351286324
 20
516.3412840202843
 30
0.0
 11
166.6646351286324
 21
509.8412840202876
 31
0.0
  0
LINE
  5
87C
330
1E
100
AcDbEntity
  8
STEMPEL
100
AcDbLine
 10
165.8694142418117
 20
516.3412840202843
 30
0.0
 11
165.8694142418117
 21
509.8412840202876
 31
0.0
  0
LINE
  5
87D
330
1E
100
AcDbEntity
  8
STEMPEL
100
AcDbLine
 10
176.2216063859842
 20
516.3412840202843
 30
0.0
 11
176.2216063859842
 21
509.8412840202876
 31
0.0
  0
LINE
  5
87F
102
{ACAD_REACTORS
330
BFC
102
}
330
1E
100
AcDbEntity
  8
STEMPEL
100
AcDbLine
 10
164.8694886365718
 20
480.8412840202847
 30
0.0
 11
164.8694886365718
 21
477.8412840202847
 31
0.0
  0
LINE
  5
881
102
{ACAD_REACTORS
330
BFC
102
}
330
1E
100
AcDbEntity
  8
STEMPEL
100
AcDbLine
 10
185.8694886365718
 20
480.8412840202847
 30
0.0
 11
185.8694886365718
 21
477.8412840202846
 31
0.0
  0
LINE
  5
882
330
1E
100
AcDbEntity
  8
STEMPEL
100
AcDbLine
 10
174.5835833098788
 20
504.841284020286
 30
0.0
 11
181.1453507055371
 21
504.841284020286
 31
0.0
  0
LWPOLYLINE
  5
883
330
1E
100
AcDbEntity
  8
STEMPEL
100
AcDbPolyline
 90
        7
 70
   128
 43
0.0
 10
163.9178374132934
 20
504.841284020286
 10
164.4797663865575
 20
505.4506219221269
 10
164.9617043261447
 20
506.1780521954162
 10
165.3506889058945
 20
507.0040096893598
 10
165.636257897001
 20
507.9062792398221
 10
165.8107305627969
 20
508.8605931740653
 10
165.8694142418118
 20
509.8412840202865
  0
LWPOLYLINE
  5
884
330
1E
100
AcDbEntity
  8
STEMPEL
100
AcDbPolyline
 90
        8
 70
   128
 43
0.0
 10
163.2290480257666
 20
503.8412840202859
 10
164.4827820413294
 20
504.6451315975795
 10
165.1058652153758
 20
505.2450173615723
 10
165.6437218204873
 20
505.984558362167
 10
166.0800093558862
 20
506.8412840202863
 10
166.4014714455815
 20
507.7891631603323
 10
166.5983406266455
 20
508.7993949542848
 10
166.6646351286323
 20
509.8412840202865
  0
LWPOLYLINE
  5
885
330
1E
100
AcDbEntity
  8
STEMPEL
100
AcDbPolyline
 90
       10
 70
   128
 43
0.0
 10
172.5590032504601
 20
503.8412840202861
 10
173.195007610461
 20
503.9324375022128
 10
173.8116872998171
 20
504.2031282955706
 10
174.3903048182222
 20
504.6451315975795
 10
174.913279165174
 20
505.2450173615723
 10
175.3647200297785
 20
505.984558362167
 10
175.7309106098045
 20
506.8412840202863
 10
176.0007243897794
 20
507.7891631603323
 10
176.1659632145311
 20
508.7993949542848
 10
176.2216063859842
 20
509.8412840202865
  0
LWPOLYLINE
  5
886
330
1E
100
AcDbEntity
  8
STEMPEL
100
AcDbPolyline
 90
       17
 70
   128
 43
0.0
 10
-176.2216063859841
 20
516.3412840202843
 10
-176.3229189977884
 20
517.7194054039087
 10
-176.6234067537177
 20
519.0505965166885
 10
-177.1128369036389
 20
520.2895252418652
 10
-177.7745424908033
 20
521.3940013476344
 10
-178.5859899250684
 20
522.3264132248873
 10
-179.5195463372841
 20
523.0550087054487
 10
-180.5434205835102
 20
523.5549763440819
 10
-181.622745854293
 20
523.8092903424985
 10
-182.720767022044
 20
523.8092903424985
 10
-183.8000922928268
 20
523.5549763440819
 10
-184.8239665390529
 20
523.0550087054487
 10
-185.7575229512686
 20
522.3264132248873
 10
-186.5689703855337
 20
521.3940013476344
 10
-187.2306759726981
 20
520.2895252418652
 10
-187.7201061226194
 20
519.0505965166885
 10
-187.7673539157638
 20
518.8412840202846
210
0.0
220
0.0
230
-1.0
  0
LWPOLYLINE
  5
887
330
1E
100
AcDbEntity
  8
STEMPEL
100
AcDbPolyline
 90
        8
 70
   128
 43
0.0
 10
-181.866659214249
 20
523.8314180981079
 10
-182.9830669356202
 20
523.6241109617008
 10
-184.0483461873624
 20
523.154856234247
 10
-185.0241811704008
 20
522.4405319970785
 10
-185.8754732032587
 20
521.506830953682
 10
-186.5716031459952
 20
520.3873363185216
 10
-187.0875327046865
 20
519.122313901183
 10
-187.152830597976
 20
518.8412840202846
210
0.0
220
0.0
230
-1.0
  0
LWPOLYLINE
  5
888
330
1E
100
AcDbEntity
  8
STEMPEL
100
AcDbPolyline
 90
        8
 70
   128
 43
0.0
 10
-206.5640623848579
 20
523.8384104433244
 10
-207.8882718351877
 20
523.6595775362766
 10
-209.1562512323738
 20
523.2093016189524
 10
-210.3209699204594
 20
522.5042838868132
 10
-211.339227289066
 20
521.5706741704297
 10
-212.1732551283283
 20
520.4431010114537
 10
-212.7921184905222
 20
519.1633872545018
 10
-212.8807056706273
 20
518.8412840202848
210
0.0
220
0.0
230
-1.0
  0
LWPOLYLINE
  5
889
330
1E
100
AcDbEntity
  8
STEMPEL
100
AcDbPolyline
 90
       16
 70
   128
 43
0.0
 10
-200.2396432418405
 20
518.8412840202846
 10
-200.2946644623051
 20
519.0505965166885
 10
-200.8646179434868
 20
520.2895252418652
 10
-201.6351904204429
 20
521.3940013476344
 10
-202.5801409716704
 20
522.3264132248873
 10
-203.6672904394906
 20
523.0550087054487
 10
-204.8596172526688
 20
523.5549763440819
 10
-206.1165181516206
 20
523.8092903424985
 10
-207.395190883719
 20
523.8092903424985
 10
-208.6520917826708
 20
523.5549763440819
 10
-209.8444185958489
 20
523.0550087054487
 10
-210.9315680636691
 20
522.3264132248873
 10
-211.8765186148966
 20
521.3940013476344
 10
-212.6470910918527
 20
520.2895252418652
 10
-213.2170445730344
 20
519.0505965166885
 10
-213.272065793499
 20
518.8412840202848
210
0.0
220
0.0
230
-1.0
  0
LWPOLYLINE
  5
88A
330
1E
100
AcDbEntity
  8
STEMPEL
100
AcDbPolyline
 90
        8
 70
   128
 43
0.0
 10
-234.1104362678454
 20
523.840993780059
 10
-235.5517762517232
 20
523.6856923861353
 10
-236.9358571551728
 20
523.251292139121
 10
-238.2100817677047
 20
522.5543009188458
 10
-239.3260275874346
 20
521.6212054674001
 10
-240.2412869508876
 20
520.4874648520566
 10
-240.9210785896627
 20
519.1961629659872
 10
-241.0271754957701
 20
518.8412840202848
210
0.0
220
0.0
230
-1.0
  0
LWPOLYLINE
  5
88B
330
1E
100
AcDbEntity
  8
STEMPEL
100
AcDbPolyline
 90
       16
 70
   128
 43
0.0
 10
-227.1830969484263
 20
518.8412840202848
 10
-227.2421419909631
 20
519.0505965166885
 10
-227.8537774155555
 20
520.2895252418652
 10
-228.6807035414299
 20
521.3940013476344
 10
-229.6947603911581
 20
522.3264132248873
 10
-230.8614154749498
 20
523.0550087054487
 10
-232.1409397531752
 20
523.5549763440819
 10
-233.4897605611593
 20
523.8092903424985
 10
-234.8619454240185
 20
523.8092903424985
 10
-236.2107662320026
 20
523.5549763440819
 10
-237.4902905102279
 20
523.0550087054487
 10
-238.6569455940196
 20
522.3264132248873
 10
-239.6710024437479
 20
521.3940013476344
 10
-240.4979285696223
 20
520.2895252418652
 10
-241.1095639942146
 20
519.0505965166885
 10
-241.1686090367515
 20
518.8412840202848
210
0.0
220
0.0
230
-1.0
  0
LWPOLYLINE
  5
88C
330
1E
100
AcDbEntity
  8
STEMPEL
100
AcDbPolyline
 90
       16
 70
   128
 43
0.0
 10
269.5558803247178
 20
518.8412840202848
 10
269.4968352821809
 20
519.0505965166885
 10
268.8851998575886
 20
520.2895252418652
 10
268.0582737317142
 20
521.3940013476344
 10
267.044216881986
 20
522.3264132248873
 10
265.8775617981942
 20
523.0550087054487
 10
264.598037519969
 20
523.5549763440819
 10
263.2492167119849
 20
523.8092903424985
 10
261.8770318491256
 20
523.8092903424985
 10
260.5282110411414
 20
523.5549763440819
 10
259.2486867629162
 20
523.0550087054487
 10
258.0820316791244
 20
522.3264132248873
 10
257.0679748293962
 20
521.3940013476344
 10
256.2410487035218
 20
520.2895252418652
 10
255.6294132789294
 20
519.0505965166885
 10
255.5703682363926
 20
518.8412840202848
  0
LWPOLYLINE
  5
88D
330
1E
100
AcDbEntity
  8
STEMPEL
100
AcDbPolyline
 90
        8
 70
   128
 43
0.0
 10
262.6285410052987
 20
523.840993780059
 10
261.1872010214209
 20
523.6856923861353
 10
259.8031201179713
 20
523.251292139121
 10
258.5288955054394
 20
522.5543009188458
 10
257.4129496857095
 20
521.6212054674001
 10
256.4976903222564
 20
520.4874648520566
 10
255.8178986834814
 20
519.1961629659872
 10
255.7118017773741
 20
518.8412840202848
  0
LINE
  5
88E
330
1E
100
AcDbEntity
  8
STEMPEL
100
AcDbLine
 10
330.8695630313323
 20
516.3412840202843
 30
0.0
 11
330.8695630313323
 21
509.8412840202876
 31
0.0
  0
LINE
  5
88F
330
1E
100
AcDbEntity
  8
STEMPEL
100
AcDbLine
 10
339.2057635796435
 20
516.3412840202843
 30
0.0
 11
339.2057635796435
 21
509.8412840202876
 31
0.0
  0
LINE
  5
890
330
1E
100
AcDbEntity
  8
STEMPEL
100
AcDbLine
 10
320.5173708871599
 20
516.3412840202843
 30
0.0
 11
320.5173708871599
 21
509.8412840202876
 31
0.0
  0
LINE
  5
891
330
1E
100
AcDbEntity
  8
STEMPEL
100
AcDbLine
 10
330.0743421445116
 20
516.3412840202843
 30
0.0
 11
330.0743421445116
 21
509.8412840202876
 31
0.0
  0
LINE
  5
892
102
{ACAD_REACTORS
330
BFC
102
}
330
1E
100
AcDbEntity
  8
MITTEL
100
AcDbLine
 10
319.7694886365717
 20
507.8412840202851
 30
0.0
 11
319.7694886365718
 21
472.8412840202843
 31
0.0
  0
LINE
  5
895
102
{ACAD_REACTORS
330
BFC
102
}
330
1E
100
AcDbEntity
  8
STEMPEL
100
AcDbLine
 10
310.8694886365718
 20
480.8412840202846
 30
0.0
 11
310.8694886365718
 21
477.8412840202846
 31
0.0
  0
LINE
  5
896
330
1E
100
AcDbEntity
  8
STEMPEL
100
AcDbLine
 10
322.1776687550099
 20
504.8412840202858
 30
0.0
 11
315.5936265676059
 21
504.841284020286
 31
0.0
  0
LWPOLYLINE
  5
897
330
1E
100
AcDbEntity
  8
STEMPEL
100
AcDbPolyline
 90
       10
 70
   128
 43
0.0
 10
-334.4380483191175
 20
503.8412840202861
 10
-333.6802986940233
 20
503.9324375022128
 10
-332.9455729078477
 20
504.2031282955706
 10
-332.2561952318146
 20
504.6451315975795
 10
-331.6331120577682
 20
505.2450173615723
 10
-331.0952554526568
 20
505.984558362167
 10
-330.6589679172578
 20
506.8412840202863
 10
-330.3375058275626
 20
507.7891631603323
 10
-330.1406366464985
 20
508.7993949542848
 10
-330.0743421445117
 20
509.8412840202865
210
0.0
220
0.0
230
-1.0
  0
LINE
  5
898
330
1E
100
AcDbEntity
  8
STEMPEL
100
AcDbLine
 10
341.1573404081619
 20
504.841284020286
 30
0.0
 11
332.82113985985
 21
504.841284020286
 31
0.0
  0
LWPOLYLINE
  5
899
330
1E
100
AcDbEntity
  8
STEMPEL
100
AcDbPolyline
 90
        7
 70
   128
 43
0.0
 10
-332.8211398598507
 20
504.841284020286
 10
-332.2592108865866
 20
505.4506219221269
 10
-331.7772729469994
 20
506.1780521954162
 10
-331.3882883672496
 20
507.0040096893598
 10
-331.1027193761432
 20
507.9062792398221
 10
-330.9282467103472
 20
508.8605931740653
 10
-330.8695630313323
 20
509.8412840202865
210
0.0
220
0.0
230
-1.0
  0
LWPOLYLINE
  5
89A
330
1E
100
AcDbEntity
  8
STEMPEL
100
AcDbPolyline
 90
       10
 70
   128
 43
0.0
 10
-343.5694697542494
 20
503.8412840202861
 10
-342.8117201291552
 20
503.9324375022128
 10
-342.0769943429796
 20
504.2031282955706
 10
-341.3876166669465
 20
504.6451315975795
 10
-340.7645334929001
 20
505.2450173615723
 10
-340.2266768877887
 20
505.984558362167
 10
-339.7903893523897
 20
506.8412840202863
 10
-339.4689272626944
 20
507.7891631603323
 10
-339.2720580816304
 20
508.7993949542848
 10
-339.2057635796436
 20
509.8412840202865
210
0.0
220
0.0
230
-1.0
  0
LWPOLYLINE
  5
89B
330
1E
100
AcDbEntity
  8
STEMPEL
100
AcDbPolyline
 90
       17
 70
   128
 43
0.0
 10
320.51737088716
 20
516.3412840202843
 10
320.4160582753556
 20
517.7194054039087
 10
320.1155705194264
 20
519.0505965166885
 10
319.6261403695052
 20
520.2895252418652
 10
318.9644347823408
 20
521.3940013476344
 10
318.1529873480757
 20
522.3264132248873
 10
317.21943093586
 20
523.0550087054487
 10
316.1955566896339
 20
523.5549763440819
 10
315.1162314188511
 20
523.8092903424985
 10
314.0182102511
 20
523.8092903424985
 10
312.9388849803173
 20
523.5549763440819
 10
311.9150107340912
 20
523.0550087054487
 10
310.9814543218754
 20
522.3264132248873
 10
310.1700068876103
 20
521.3940013476344
 10
309.5083013004459
 20
520.2895252418652
 10
309.0188711505247
 20
519.0505965166885
 10
308.9716233573803
 20
518.8412840202848
  0
LWPOLYLINE
  5
89C
330
1E
100
AcDbEntity
  8
STEMPEL
100
AcDbPolyline
 90
        8
 70
   128
 43
0.0
 10
314.872318058895
 20
523.8314180981079
 10
313.7559103375239
 20
523.6241109617008
 10
312.6906310857816
 20
523.154856234247
 10
311.7147961027433
 20
522.4405319970785
 10
310.8635040698853
 20
521.506830953682
 10
310.1673741271489
 20
520.3873363185216
 10
309.6514445684575
 20
519.122313901183
 10
309.5861466751681
 20
518.8412840202848
  0
LWPOLYLINE
  5
89D
330
1E
100
AcDbEntity
  8
STEMPEL
100
AcDbPolyline
 90
       18
 70
   128
 43
0.0
 10
339.2057635796434
 20
516.3412840202843
 10
339.1280236783833
 20
517.7194054039087
 10
338.8974513137014
 20
519.0505965166885
 10
338.5218983509363
 20
520.2895252418652
 10
338.0141537958086
 20
521.3940013476344
 10
337.3915082801706
 20
522.3264132248873
 10
336.6751652502765
 20
523.0550087054487
 10
335.8895189088507
 20
523.5549763440819
 10
335.0613234997713
 20
523.8092903424985
 10
334.2187822243836
 20
523.8092903424985
 10
333.3905868153042
 20
523.5549763440819
 10
332.6049404738784
 20
523.0550087054487
 10
331.8885974439842
 20
522.3264132248873
 10
331.2659519283463
 20
521.3940013476344
 10
330.7582073732186
 20
520.2895252418652
 10
330.3826544104534
 20
519.0505965166885
 10
330.1520820457716
 20
517.7194054039087
 10
330.0743421445115
 20
516.3412840202843
  0
LWPOLYLINE
  5
89E
330
1E
100
AcDbEntity
  8
STEMPEL
100
AcDbPolyline
 90
       10
 70
   128
 43
0.0
 10
335.4352737488984
 20
523.8412840202875
 10
334.6424464030387
 20
523.7273421678789
 10
333.873708714893
 20
523.3889786761816
 10
333.1524183901154
 20
522.8364745486706
 10
332.5004914702339
 20
522.0866173436793
 10
331.9377364248183
 20
521.1621910929359
 10
331.4812522811554
 20
520.0912840202866
 10
331.1449090789586
 20
518.9064350952289
 10
330.9389264362285
 20
517.643645352788
 10
330.8695630313325
 20
516.3412840202859
  0
LINE
  5
89F
330
1E
100
AcDbEntity
  8
STEMPEL
100
AcDbLine
 10
346.8896170998325
 20
516.3412840202843
 30
0.0
 11
346.8896170998325
 21
509.8412840202876
 31
0.0
  0
LINE
  5
8A0
330
1E
100
AcDbEntity
  8
STEMPEL
100
AcDbLine
 10
345.9635627633252
 20
516.3412840202843
 30
0.0
 11
345.9635627633252
 21
509.8412840202876
 31
0.0
  0
LINE
  5
8A1
330
1E
100
AcDbEntity
  8
STEMPEL
100
AcDbLine
 10
357.1598013955368
 20
516.3412840202843
 30
0.0
 11
357.1598013955368
 21
509.8412840202865
 31
0.0
  0
LINE
  5
8A2
330
1E
100
AcDbEntity
  8
STEMPEL
100
AcDbLine
 10
351.703814248803
 20
516.3412840202843
 30
0.0
 11
351.703814248803
 21
509.8412840202876
 31
0.0
  0
LINE
  5
8A3
330
1E
100
AcDbEntity
  8
STEMPEL
100
AcDbLine
 10
355.2019085122363
 20
516.3412840202843
 30
0.0
 11
355.2019085122363
 21
509.8412840202853
 31
0.0
  0
LINE
  5
8A4
330
1E
100
AcDbEntity
  8
STEMPEL
100
AcDbLine
 10
356.1956872257742
 20
516.3412840202843
 30
0.0
 11
356.1956872257742
 21
509.8412840202865
 31
0.0
  0
LINE
  5
8A6
330
1E
100
AcDbEntity
  8
STEMPEL
100
AcDbLine
 10
378.3694886365717
 20
504.841284020286
 30
0.0
 11
363.3694886365718
 21
504.8412840202864
 31
0.0
  0
LINE
  5
8A7
330
1E
100
AcDbEntity
  8
STEMPEL
100
AcDbLine
 10
373.3694886365718
 20
503.8412840202861
 30
0.0
 11
378.369488636572
 21
503.8412840202861
 31
0.0
  0
LINE
  5
8AA
102
{ACAD_REACTORS
330
BFC
102
}
330
1E
100
AcDbEntity
  8
STEMPEL
100
AcDbLine
 10
370.8694886365719
 20
480.8412840202846
 30
0.0
 11
370.8694886365719
 21
477.8412840202846
 31
0.0
  0
ARC
  5
8AB
330
1E
100
AcDbEntity
  8
STEMPEL
100
AcDbCircle
 10
363.3694886365721
 20
509.8412840202865
 30
0.0
 40
5.0
100
AcDbArc
 50
180.0
 51
269.9999999999968
  0
LWPOLYLINE
  5
8AC
330
1E
100
AcDbEntity
  8
STEMPEL
100
AcDbPolyline
 90
       10
 70
   128
 43
0.0
 10
-362.6657901265676
 20
503.8412840202872
 10
-361.8077171302949
 20
503.9074112348599
 10
-360.9549049306726
 20
504.1599649845901
 10
-360.1341466237556
 20
504.5910107009076
 10
-359.3712282573566
 20
505.1870060713476
 10
-358.6901187018574
 20
505.9292265030681
 10
-358.1122166119117
 20
506.7943533998656
 10
-357.6556781375055
 20
507.7552067705816
 10
-357.3348465059079
 20
508.7815991522939
 10
-357.1598013955368
 20
509.8412840202865
210
0.0
220
0.0
230
-1.0
  0
ARC
  5
8AD
330
1E
100
AcDbEntity
  8
STEMPEL
100
AcDbCircle
 10
363.3694886365721
 20
509.8412840202865
 30
0.0
 40
6.0
100
AcDbArc
 50
180.0
 51
269.9999999999968
  0
LINE
  5
8B0
330
1E
100
AcDbEntity
  8
STEMPEL
100
AcDbLine
 10
353.8573858814715
 20
504.841284020286
 30
0.0
 11
349.0431887325001
 21
504.841284020286
 31
0.0
  0
LWPOLYLINE
  5
8B1
330
1E
100
AcDbEntity
  8
STEMPEL
100
AcDbPolyline
 90
       10
 70
   128
 43
0.0
 10
-356.5191787753769
 20
503.8412840202861
 10
-355.6829995005354
 20
503.9324375022128
 10
-354.8722271098327
 20
504.2031282955706
 10
-354.1114965120899
 20
504.6451315975795
 10
-353.4239221215711
 20
505.2450173615723
 10
-352.8303955382027
 20
505.984558362167
 10
-352.3489507668815
 20
506.8412840202863
 10
-351.9942162633611
 20
507.7891631603323
 10
-351.776970456027
 20
508.7993949542848
 10
-351.703814248803
 20
509.8412840202865
210
0.0
220
0.0
230
-1.0
  0
LWPOLYLINE
  5
8B2
330
1E
100
AcDbEntity
  8
STEMPEL
100
AcDbPolyline
 90
        7
 70
   128
 43
0.0
 10
-349.0431887325012
 20
504.841284020286
 10
-348.4230982094369
 20
505.4506219221269
 10
-347.8912780626534
 20
506.1780521954161
 10
-347.4620322629221
 20
507.0040096893598
 10
-347.1469059151248
 20
507.9062792398221
 10
-346.9543747381589
 20
508.8605931740653
 10
-346.8896170998326
 20
509.8412840202865
210
0.0
220
0.0
230
-1.0
  0
LWPOLYLINE
  5
8B3
330
1E
100
AcDbEntity
  8
STEMPEL
100
AcDbPolyline
 90
       10
 70
   128
 43
0.0
 10
-350.7789272898992
 20
503.8412840202861
 10
-349.9427480150576
 20
503.9324375022128
 10
-349.131975624355
 20
504.2031282955706
 10
-348.3712450266121
 20
504.6451315975795
 10
-347.6836706360934
 20
505.2450173615723
 10
-347.090144052725
 20
505.984558362167
 10
-346.6086992814037
 20
506.8412840202863
 10
-346.2539647778834
 20
507.7891631603323
 10
-346.0367189705492
 20
508.7993949542848
 10
-345.9635627633252
 20
509.8412840202865
210
0.0
220
0.0
230
-1.0
  0
LINE
  5
8B4
330
1E
100
AcDbEntity
  8
STEMPEL
100
AcDbLine
 10
359.7802605792074
 20
504.841284020286
 30
0.0
 11
358.8161464094448
 21
504.841284020286
 31
0.0
  0
LWPOLYLINE
  5
8B5
330
1E
100
AcDbEntity
  8
STEMPEL
100
AcDbPolyline
 90
       10
 70
   128
 43
0.0
 10
-360.7078972432672
 20
503.8412840202861
 10
-359.8498242469944
 20
503.9074112348587
 10
-358.9970120473722
 20
504.1599649845889
 10
-358.1762537404551
 20
504.5910107009064
 10
-357.4133353740561
 20
505.1870060713464
 10
-356.732225818557
 20
505.929226503067
 10
-356.1543237286112
 20
506.7943533998644
 10
-355.6977852542051
 20
507.7552067705806
 10
-355.3769536226075
 20
508.7815991522927
 10
-355.2019085122363
 20
509.8412840202853
210
0.0
220
0.0
230
-1.0
  0
LWPOLYLINE
  5
8B6
330
1E
100
AcDbEntity
  8
STEMPEL
100
AcDbPolyline
 90
        7
 70
   128
 43
0.0
 10
-358.816146409445
 20
504.8412840202865
 10
-358.1394445343677
 20
505.4508847481455
 10
-357.5398951107337
 20
506.1784438320572
 10
-357.0336064375841
 20
507.0044136937374
 10
-356.6341811455384
 20
507.9066027189405
 10
-356.3523507302755
 20
508.8607714871342
 10
-356.1956872257741
 20
509.8412840202865
210
0.0
220
0.0
230
-1.0
  0
LINE
  5
8B8
330
1E
100
AcDbEntity
  8
HILF
100
AcDbLine
 10
367.3694886365717
 20
491.0912840202863
 30
0.0
 11
367.3694886365717
 21
483.8412840202847
 31
0.0
  0
LINE
  5
8BB
330
1E
100
AcDbEntity
  8
HILF
100
AcDbLine
 10
368.0194886365719
 20
490.4412840202864
 30
0.0
 11
368.0194886365719
 21
504.8412840202863
 31
0.0
  0
LINE
  5
8BC
330
1E
100
AcDbEntity
  8
STEMPEL
100
AcDbLine
 10
367.3694886365718
 20
504.8412840202863
 30
0.0
 11
367.3694886365718
 21
491.0912840202863
 31
0.0
  0
LINE
  5
8BD
330
1E
100
AcDbEntity
  8
HILF
100
AcDbLine
 10
372.7194886365719
 20
490.4412840202864
 30
0.0
 11
372.7194886365719
 21
504.8412840202863
 31
0.0
  0
LINE
  5
8BE
330
1E
100
AcDbEntity
  8
STEMPEL
100
AcDbLine
 10
373.3694886365718
 20
504.8412840202863
 30
0.0
 11
373.3694886365718
 21
491.0912840202863
 31
0.0
  0
LINE
  5
8BF
330
1E
100
AcDbEntity
  8
STEMPEL
100
AcDbLine
 10
368.0194886365719
 20
490.4412840202864
 30
0.0
 11
372.7194886365719
 21
490.4412840202864
 31
0.0
  0
LINE
  5
8C0
330
1E
100
AcDbEntity
  8
STEMPEL
100
AcDbLine
 10
367.3694886365718
 20
491.0912840202863
 30
0.0
 11
373.3694886365718
 21
491.0912840202863
 31
0.0
  0
LINE
  5
8C1
330
1E
100
AcDbEntity
  8
STEMPEL
100
AcDbLine
 10
367.3694886365718
 20
491.0912840202863
 30
0.0
 11
368.0194886365719
 21
490.4412840202864
 31
0.0
  0
LINE
  5
8C2
330
1E
100
AcDbEntity
  8
STEMPEL
100
AcDbLine
 10
368.0194886365718
 20
490.4412840202864
 30
0.0
 11
368.0194886365718
 21
483.8412840202847
 31
0.0
  0
LINE
  5
8C3
330
1E
100
AcDbEntity
  8
STEMPEL
100
AcDbLine
 10
372.7194886365719
 20
490.4412840202864
 30
0.0
 11
373.3694886365718
 21
491.0912840202863
 31
0.0
  0
LINE
  5
8C9
330
1E
100
AcDbEntity
  8
STEMPEL
100
AcDbLine
 10
366.3694886365719
 20
504.8412840202865
 30
0.0
 11
366.3694886365719
 21
503.8412840202861
 31
0.0
  0
LINE
  5
8CF
330
1E
100
AcDbEntity
  8
STEMPEL
100
AcDbLine
 10
374.369488636572
 20
504.841284020286
 30
0.0
 11
374.369488636572
 21
503.8412840202861
 31
0.0
  0
LINE
  5
8D7
330
1E
100
AcDbEntity
  8
STEMPEL
100
AcDbLine
 10
378.3694886365718
 20
504.8412840202863
 30
0.0
 11
378.3694886365719
 21
503.8412840202861
 31
0.0
  0
LWPOLYLINE
  5
8D8
330
1E
100
AcDbEntity
  8
STEMPEL
100
AcDbPolyline
 90
       18
 70
   128
 43
0.0
 10
351.703814248803
 20
516.3412840202843
 10
351.6549449038867
 20
517.7194054039087
 10
351.5100010560666
 20
519.0505965166885
 10
351.2739185942394
 20
520.2895252418652
 10
350.9547370234928
 20
521.3940013476344
 10
350.5633256894023
 20
522.3264132248873
 10
350.1130136355044
 20
523.0550087054487
 10
349.619135698705
 20
523.5549763440819
 10
349.0985102998
 20
523.8092903424985
 10
348.5688667123282
 20
523.8092903424985
 10
348.0482413134233
 20
523.5549763440819
 10
347.5543633766238
 20
523.0550087054487
 10
347.1040513227259
 20
522.3264132248873
 10
346.7126399886354
 20
521.3940013476344
 10
346.3934584178888
 20
520.2895252418652
 10
346.1573759560616
 20
519.0505965166885
 10
346.0124321082415
 20
517.7194054039087
 10
345.9635627633252
 20
516.3412840202843
  0
LWPOLYLINE
  5
8D9
330
1E
100
AcDbEntity
  8
STEMPEL
100
AcDbPolyline
 90
        9
 70
   128
 43
0.0
 10
349.2967156743162
 20
523.7430422649493
 10
348.8076551310474
 20
523.416609367192
 10
348.3480421631464
 20
522.8713403539347
 10
347.9320923595222
 20
522.1241001108067
 10
347.5726708302306
 20
521.1980003880292
 10
347.2808942953431
 20
520.1216849660588
 10
347.065787250605
 20
518.928443718428
 10
346.9340028444975
 20
517.6551829733522
 10
346.8896170998326
 20
516.3412840202859
  0
LWPOLYLINE
  5
8DA
330
1E
100
AcDbEntity
  8
STEMPEL
100
AcDbPolyline
 90
       18
 70
   128
 43
0.0
 10
357.1598013955368
 20
516.3412840202843
 10
357.14313297206
 20
517.7194054039087
 10
357.0936953247996
 20
519.0505965166885
 10
357.0131719935392
 20
520.2895252418652
 10
356.9043051037475
 20
521.3940013476344
 10
356.7708019867852
 20
522.3264132248873
 10
356.6172089311811
 20
523.0550087054487
 10
356.448756364229
 20
523.5549763440819
 10
356.2711807360601
 20
523.8092903424985
 10
356.090529171713
 20
523.8092903424985
 10
355.9129535435441
 20
523.5549763440819
 10
355.7445009765921
 20
523.0550087054487
 10
355.5909079209879
 20
522.3264132248873
 10
355.4574048040257
 20
521.3940013476344
 10
355.348537914234
 20
520.2895252418652
 10
355.2680145829735
 20
519.0505965166885
 10
355.2185769357132
 20
517.7194054039087
 10
355.2019085122363
 20
516.3412840202843
  0
LWPOLYLINE
  5
8DB
330
1E
100
AcDbEntity
  8
STEMPEL
100
AcDbPolyline
 90
        7
 70
   128
 43
0.0
 10
356.6777443106557
 20
522.8033380761241
 10
356.5399153010854
 20
522.0512318391855
 10
356.4210510241192
 20
521.1285182284707
 10
356.324703022218
 20
520.0627669785665
 10
356.2537500746799
 20
518.8858216417454
 10
356.2103121826719
 20
517.6328481353436
 10
356.1956872257743
 20
516.3412840202843
  0
LINE
  5
8DC
330
1E
100
AcDbEntity
  8
STEMPEL
100
AcDbLine
 10
168.3694886365719
 20
592.8412840202854
 30
0.0
 11
328.3694886365722
 21
592.8412840202861
 31
0.0
  0
LINE
  5
8DD
330
1E
100
AcDbEntity
  8
STEMPEL
100
AcDbLine
 10
273.8090032316288
 20
593.8412840202858
 30
0.0
 11
328.3694886365722
 21
593.8412840202861
 31
0.0
  0
LINE
  5
8DE
330
1E
100
AcDbEntity
  8
STEMPEL
100
AcDbLine
 10
168.3694886365719
 20
593.8412840202854
 30
0.0
 11
223.1078508089213
 21
593.8412840202857
 31
0.0
  0
ARC
  5
8DF
330
1E
100
AcDbEntity
  8
STEMPEL
100
AcDbCircle
 10
168.3694886365719
 20
587.8412840202856
 30
0.0
 40
5.0
100
AcDbArc
 50
90.0
 51
120.5373500483019
  0
ARC
  5
8E0
330
1E
100
AcDbEntity
  8
STEMPEL
100
AcDbCircle
 10
168.3694886365719
 20
587.8412840202856
 30
0.0
 40
6.0
100
AcDbArc
 50
90.0
 51
120.5128743276211
  0
ARC
  5
8E1
330
1E
100
AcDbEntity
  8
STEMPEL
100
AcDbCircle
 10
168.3694886365719
 20
587.8412840202856
 30
0.0
 40
6.0
100
AcDbArc
 50
90.0
 51
90.0
  0
LINE
  5
8E2
330
1E
100
AcDbEntity
  8
STEMPEL
100
AcDbLine
 10
245.0109270202747
 20
594.3412840202859
 30
0.0
 11
255.0991944814683
 21
594.3412840202859
 31
0.0
  0
LINE
  5
8E3
330
1E
100
AcDbEntity
  8
STEMPEL
100
AcDbLine
 10
225.7059270202748
 20
595.3412840202856
 30
0.0
 11
271.2109270202747
 21
595.3412840202856
 31
0.0
  0
LINE
  5
8E4
330
1E
100
AcDbEntity
  8
STEMPEL
100
AcDbLine
 10
235.9590032316277
 20
593.8412840202857
 30
0.0
 11
242.412850808922
 21
593.8412840202857
 31
0.0
  0
LINE
  5
8E5
330
1E
100
AcDbEntity
  8
STEMPEL
100
AcDbLine
 10
235.9590032316277
 20
593.8412840202857
 30
0.0
 11
242.412850808922
 21
593.8412840202857
 31
0.0
  0
ARC
  5
8E6
330
1E
100
AcDbEntity
  8
STEMPEL
100
AcDbCircle
 10
230.562850808921
 20
595.3412840202856
 30
0.0
 40
2.5
100
AcDbArc
 50
270.0
 51
330.0000000000076
  0
ARC
  5
8E7
330
1E
100
AcDbEntity
  8
STEMPEL
100
AcDbCircle
 10
235.9590032316277
 20
595.3412840202856
 30
0.0
 40
2.5
100
AcDbArc
 50
210.0000000000005
 51
270.0
  0
ARC
  5
8E8
330
1E
100
AcDbEntity
  8
STEMPEL
100
AcDbCircle
 10
223.1078508089213
 20
595.3412840202856
 30
0.0
 40
2.5
100
AcDbArc
 50
270.0
 51
329.9999999999995
  0
ARC
  5
8E9
330
1E
100
AcDbEntity
  8
STEMPEL
100
AcDbCircle
 10
228.5040032316287
 20
595.3412840202856
 30
0.0
 40
2.5
100
AcDbArc
 50
209.9999999999925
 51
270.0
  0
LINE
  5
8EA
330
1E
100
AcDbEntity
  8
STEMPEL
100
AcDbLine
 10
228.5040032316287
 20
593.8412840202857
 30
0.0
 11
230.562850808921
 21
593.8412840202857
 31
0.0
  0
LINE
  5
8EB
330
1E
100
AcDbEntity
  8
STEMPEL
100
AcDbLine
 10
228.5040032316287
 20
593.8412840202857
 30
0.0
 11
230.562850808921
 21
593.8412840202857
 31
0.0
  0
ARC
  5
8EC
330
1E
100
AcDbEntity
  8
STEMPEL
100
AcDbCircle
 10
228.5040032316287
 20
595.3412840202856
 30
0.0
 40
1.5
100
AcDbArc
 50
209.9999999999925
 51
270.0
  0
ARC
  5
8ED
330
1E
100
AcDbEntity
  8
STEMPEL
100
AcDbCircle
 10
223.1078508089213
 20
595.3412840202856
 30
0.0
 40
1.5
100
AcDbArc
 50
270.0
 51
329.9999999999995
  0
ARC
  5
8EE
330
1E
100
AcDbEntity
  8
STEMPEL
100
AcDbCircle
 10
225.7059270202748
 20
593.8412840202857
 30
0.0
 40
0.5
100
AcDbArc
 50
90.0
 51
149.9999999999994
  0
LINE
  5
8EF
330
1E
100
AcDbEntity
  8
STEMPEL
100
AcDbLine
 10
225.7059270202748
 20
594.3412840202856
 30
0.0
 11
225.9059270202749
 21
594.3412840202856
 31
0.0
  0
ARC
  5
8F0
330
1E
100
AcDbEntity
  8
STEMPEL
100
AcDbCircle
 10
225.9059270202749
 20
593.8412840202857
 30
0.0
 40
0.5
100
AcDbArc
 50
30.00000000000055
 51
90.0
  0
ARC
  5
8F1
330
1E
100
AcDbEntity
  8
STEMPEL
100
AcDbCircle
 10
225.9059270202749
 20
593.8412840202857
 30
0.0
 40
1.5
100
AcDbArc
 50
29.99999999999246
 51
90.0
  0
ARC
  5
8F2
330
1E
100
AcDbEntity
  8
STEMPEL
100
AcDbCircle
 10
225.7059270202748
 20
593.8412840202857
 30
0.0
 40
1.5
100
AcDbArc
 50
90.0
 51
149.9999999999994
  0
ARC
  5
8F3
330
1E
100
AcDbEntity
  8
STEMPEL
100
AcDbCircle
 10
233.1609270202747
 20
593.8412840202857
 30
0.0
 40
1.5
100
AcDbArc
 50
90.0
 51
150.0000000000075
  0
ARC
  5
8F4
330
1E
100
AcDbEntity
  8
STEMPEL
100
AcDbCircle
 10
230.562850808921
 20
595.3412840202856
 30
0.0
 40
1.5
100
AcDbArc
 50
270.0
 51
330.0000000000076
  0
ARC
  5
8F5
330
1E
100
AcDbEntity
  8
STEMPEL
100
AcDbCircle
 10
235.9590032316277
 20
595.3412840202856
 30
0.0
 40
1.5
100
AcDbArc
 50
210.0000000000005
 51
270.0
  0
ARC
  5
8F6
330
1E
100
AcDbEntity
  8
STEMPEL
100
AcDbCircle
 10
233.1609270202747
 20
593.8412840202857
 30
0.0
 40
0.5
100
AcDbArc
 50
90.0
 51
150.0000000000075
  0
LINE
  5
8F7
330
1E
100
AcDbEntity
  8
STEMPEL
100
AcDbLine
 10
233.1609270202747
 20
594.3412840202859
 30
0.0
 11
233.3609270202748
 21
594.3412840202859
 31
0.0
  0
ARC
  5
8F8
330
1E
100
AcDbEntity
  8
STEMPEL
100
AcDbCircle
 10
233.3609270202748
 20
593.8412840202857
 30
0.0
 40
0.5
100
AcDbArc
 50
30.00000000000055
 51
90.0
  0
ARC
  5
8F9
330
1E
100
AcDbEntity
  8
STEMPEL
100
AcDbCircle
 10
233.3609270202748
 20
593.8412840202857
 30
0.0
 40
1.5
100
AcDbArc
 50
30.00000000000055
 51
90.0
  0
ARC
  5
8FA
330
1E
100
AcDbEntity
  8
STEMPEL
100
AcDbCircle
 10
242.412850808922
 20
595.3412840202856
 30
0.0
 40
2.5
100
AcDbArc
 50
270.0
 51
329.9999999999922
  0
ARC
  5
8FB
330
1E
100
AcDbEntity
  8
STEMPEL
100
AcDbCircle
 10
245.0109270202747
 20
593.8412840202857
 30
0.0
 40
1.5
100
AcDbArc
 50
90.0
 51
149.9999999999922
  0
ARC
  5
8FC
330
1E
100
AcDbEntity
  8
STEMPEL
100
AcDbCircle
 10
242.412850808922
 20
595.3412840202856
 30
0.0
 40
1.5
100
AcDbArc
 50
270.0
 51
329.9999999999922
  0
ARC
  5
8FD
330
1E
100
AcDbEntity
  8
STEMPEL
100
AcDbCircle
 10
245.0109270202747
 20
593.8412840202857
 30
0.0
 40
0.5
100
AcDbArc
 50
90.0
 51
149.9999999999922
  0
ARC
  5
8FE
330
1E
100
AcDbEntity
  8
STEMPEL
100
AcDbCircle
 10
268.4128508089223
 20
595.3412840202856
 30
0.0
 40
1.5
100
AcDbArc
 50
270.0
 51
329.9999999999922
  0
ARC
  5
8FF
330
1E
100
AcDbEntity
  8
STEMPEL
100
AcDbCircle
 10
268.4128508089223
 20
595.3412840202856
 30
0.0
 40
2.5
100
AcDbArc
 50
270.0
 51
329.9999999999922
  0
ARC
  5
900
330
1E
100
AcDbEntity
  8
STEMPEL
100
AcDbCircle
 10
257.0356861545716
 20
594.3412840202856
 30
0.0
 40
1.5
100
AcDbArc
 50
194.4775121859299
 51
270.0
  0
ARC
  5
901
330
1E
100
AcDbEntity
  8
STEMPEL
100
AcDbCircle
 10
257.2244353471707
 20
594.3412840202856
 30
0.0
 40
1.5
100
AcDbArc
 50
270.0
 51
345.5224878140701
  0
ARC
  5
902
330
1E
100
AcDbEntity
  8
STEMPEL
100
AcDbCircle
 10
261.9590032316283
 20
595.3412840202856
 30
0.0
 40
2.5
100
AcDbArc
 50
210.0000000000005
 51
270.0
  0
ARC
  5
903
330
1E
100
AcDbEntity
  8
STEMPEL
100
AcDbCircle
 10
261.9590032316283
 20
595.3412840202856
 30
0.0
 40
1.5
100
AcDbArc
 50
210.0000000000005
 51
270.0
  0
ARC
  5
904
330
1E
100
AcDbEntity
  8
STEMPEL
100
AcDbCircle
 10
257.0356861545716
 20
594.3412840202856
 30
0.0
 40
0.5
100
AcDbArc
 50
194.4775121859299
 51
270.0
  0
ARC
  5
905
330
1E
100
AcDbEntity
  8
STEMPEL
100
AcDbCircle
 10
255.0991944814683
 20
593.8412840202857
 30
0.0
 40
0.5
100
AcDbArc
 50
14.47751218592986
 51
90.0
  0
ARC
  5
906
330
1E
100
AcDbEntity
  8
STEMPEL
100
AcDbCircle
 10
255.0991944814683
 20
593.8412840202857
 30
0.0
 40
1.5
100
AcDbArc
 50
14.47751218592986
 51
90.0
  0
ARC
  5
907
330
1E
100
AcDbEntity
  8
STEMPEL
100
AcDbCircle
 10
259.3609270202748
 20
593.8412840202857
 30
0.0
 40
1.5
100
AcDbArc
 50
30.00000000000055
 51
90.0
  0
ARC
  5
908
330
1E
100
AcDbEntity
  8
STEMPEL
100
AcDbCircle
 10
259.1609270202748
 20
593.8412840202857
 30
0.0
 40
1.5
100
AcDbArc
 50
90.0
 51
165.5224878140701
  0
ARC
  5
909
330
1E
100
AcDbEntity
  8
STEMPEL
100
AcDbCircle
 10
257.2244353471707
 20
594.3412840202856
 30
0.0
 40
0.5
100
AcDbArc
 50
270.0
 51
345.5224878140701
  0
LINE
  5
90A
330
1E
100
AcDbEntity
  8
STEMPEL
100
AcDbLine
 10
257.0356861545716
 20
593.8412840202857
 30
0.0
 11
257.2244353471707
 21
593.8412840202857
 31
0.0
  0
ARC
  5
90B
330
1E
100
AcDbEntity
  8
STEMPEL
100
AcDbCircle
 10
259.1609270202748
 20
593.8412840202857
 30
0.0
 40
0.5
100
AcDbArc
 50
90.0
 51
165.5224878140701
  0
LINE
  5
90C
330
1E
100
AcDbEntity
  8
STEMPEL
100
AcDbLine
 10
259.1609270202748
 20
594.3412840202859
 30
0.0
 11
259.3609270202748
 21
594.3412840202859
 31
0.0
  0
ARC
  5
90D
330
1E
100
AcDbEntity
  8
STEMPEL
100
AcDbCircle
 10
259.3609270202748
 20
593.8412840202857
 30
0.0
 40
0.5
100
AcDbArc
 50
30.00000000000055
 51
90.0
  0
LINE
  5
90E
330
1E
100
AcDbEntity
  8
STEMPEL
100
AcDbLine
 10
261.9590032316283
 20
593.8412840202858
 30
0.0
 11
268.4128508089223
 21
593.8412840202858
 31
0.0
  0
LINE
  5
90F
330
1E
100
AcDbEntity
  8
STEMPEL
100
AcDbLine
 10
261.9590032316283
 20
593.8412840202857
 30
0.0
 11
268.4128508089223
 21
593.8412840202857
 31
0.0
  0
ARC
  5
910
330
1E
100
AcDbEntity
  8
STEMPEL
100
AcDbCircle
 10
273.8090032316288
 20
595.3412840202856
 30
0.0
 40
2.5
100
AcDbArc
 50
209.9999999999925
 51
270.0
  0
ARC
  5
911
330
1E
100
AcDbEntity
  8
STEMPEL
100
AcDbCircle
 10
273.8090032316288
 20
595.3412840202856
 30
0.0
 40
1.5
100
AcDbArc
 50
209.9999999999925
 51
270.0
  0
ARC
  5
912
330
1E
100
AcDbEntity
  8
STEMPEL
100
AcDbCircle
 10
271.0109270202746
 20
593.8412840202857
 30
0.0
 40
1.5
100
AcDbArc
 50
90.0
 51
149.9999999999922
  0
ARC
  5
913
330
1E
100
AcDbEntity
  8
STEMPEL
100
AcDbCircle
 10
271.0109270202746
 20
593.8412840202857
 30
0.0
 40
0.5
100
AcDbArc
 50
90.0
 51
149.9999999999922
  0
LINE
  5
914
330
1E
100
AcDbEntity
  8
STEMPEL
100
AcDbLine
 10
271.0109270202746
 20
594.3412840202856
 30
0.0
 11
271.2109270202747
 21
594.3412840202856
 31
0.0
  0
ARC
  5
915
330
1E
100
AcDbEntity
  8
STEMPEL
100
AcDbCircle
 10
271.2109270202747
 20
593.8412840202857
 30
0.0
 40
0.5
100
AcDbArc
 50
29.99999999999246
 51
90.0
  0
ARC
  5
916
330
1E
100
AcDbEntity
  8
STEMPEL
100
AcDbCircle
 10
271.2109270202747
 20
593.8412840202857
 30
0.0
 40
1.5
100
AcDbArc
 50
29.99999999999246
 51
90.0
  0
LINE
  5
917
330
1E
100
AcDbEntity
  8
STEMPEL
100
AcDbLine
 10
354.8888422046992
 20
578.1601214671668
 30
0.0
 11
330.909988311748
 21
592.1477746333523
 31
0.0
  0
LINE
  5
918
330
1E
100
AcDbEntity
  8
STEMPEL
100
AcDbLine
 10
355.40218325828
 20
579.0183645803295
 30
0.0
 11
331.4158803828131
 21
593.010374591018
 31
0.0
  0
ARC
  5
919
330
1E
100
AcDbEntity
  8
STEMPEL
100
AcDbCircle
 10
328.3694886365722
 20
587.8412840202856
 30
0.0
 40
6.0
100
AcDbArc
 50
59.48712567237889
 51
90.0
  0
ARC
  5
91A
330
1E
100
AcDbEntity
  8
STEMPEL
100
AcDbCircle
 10
328.3694886365722
 20
587.8412840202856
 30
0.0
 40
5.0
100
AcDbArc
 50
59.46264995169811
 51
90.0
  0
ARC
  5
91B
330
1E
100
AcDbEntity
  8
STEMPEL
100
AcDbCircle
 10
328.3694886365722
 20
587.8412840202856
 30
0.0
 40
6.0
100
AcDbArc
 50
90.0
 51
90.0
  0
ARC
  5
91C
330
1E
100
AcDbEntity
  8
STEMPEL
100
AcDbCircle
 10
352.3694886365721
 20
573.8412260529705
 30
0.0
 40
5.0
100
AcDbArc
 50
0.0
 51
59.74358352518418
  0
ARC
  5
91D
330
1E
100
AcDbEntity
  8
STEMPEL
100
AcDbCircle
 10
357.8806322408837
 20
583.3611210027479
 30
0.0
 40
5.0
100
AcDbArc
 50
239.7435628364698
 51
239.9329541615142
  0
ARC
  5
91E
330
1E
100
AcDbEntity
  8
STEMPEL
100
AcDbCircle
 10
352.3694886365721
 20
573.8412260529705
 30
0.0
 40
6.0
100
AcDbArc
 50
0.0
 51
59.74358352518418
  0
LINE
  5
920
330
1E
100
AcDbEntity
  8
STEMPEL
100
AcDbLine
 10
147.6957885406433
 20
504.8412840202864
 30
0.0
 11
145.5803811210416
 21
504.8412840202865
 31
0.0
  0
LINE
  5
928
330
1E
100
AcDbEntity
  8
MITTEL
100
AcDbLine
 10
203.3694886365718
 20
489.8412840202853
 30
0.0
 11
203.3694886365717
 21
472.8412840202842
 31
0.0
  0
LINE
  5
929
330
1E
100
AcDbEntity
  8
STEMPEL
100
AcDbLine
 10
163.3694886365719
 20
501.8412840202846
 30
0.0
 11
163.3694886365719
 21
499.8412840202853
 31
0.0
  0
LINE
  5
92A
330
1E
100
AcDbEntity
  8
HILF
100
AcDbLine
 10
162.3694886365719
 20
502.8412840202847
 30
0.0
 11
162.3694886365719
 21
499.8412840202854
 31
0.0
  0
LINE
  5
92B
330
1E
100
AcDbEntity
  8
STEMPEL
100
AcDbLine
 10
153.3694886365719
 20
501.8412840202847
 30
0.0
 11
153.3694886365719
 21
499.8412840202854
 31
0.0
  0
LINE
  5
92C
330
1E
100
AcDbEntity
  8
HILF
100
AcDbLine
 10
154.3694886365719
 20
502.8412840202846
 30
0.0
 11
154.3694886365719
 21
499.8412840202853
 31
0.0
  0
LINE
  5
92D
330
1E
100
AcDbEntity
  8
MITTEL
100
AcDbLine
 10
158.3694886365719
 20
507.8412840202847
 30
0.0
 11
158.3694886365719
 21
472.8412840202842
 31
0.0
  0
LINE
  5
92E
330
1E
100
AcDbEntity
  8
STEMPEL
100
AcDbLine
 10
153.3694886365719
 20
501.8412840202847
 30
0.0
 11
163.3694886365717
 21
501.8412840202847
 31
0.0
  0
LINE
  5
92F
330
1E
100
AcDbEntity
  8
STEMPEL
100
AcDbLine
 10
162.3694886365719
 20
502.8412840202847
 30
0.0
 11
154.3694886365719
 21
502.8412840202847
 31
0.0
  0
LINE
  5
930
330
1E
100
AcDbEntity
  8
STEMPEL
100
AcDbLine
 10
154.3694886365719
 20
502.8412840202847
 30
0.0
 11
153.3694886365719
 21
501.8412840202847
 31
0.0
  0
LINE
  5
931
330
1E
100
AcDbEntity
  8
STEMPEL
100
AcDbLine
 10
163.3694886365719
 20
501.8412840202847
 30
0.0
 11
162.3694886365719
 21
502.8412840202847
 31
0.0
  0
LINE
  5
932
330
1E
100
AcDbEntity
  8
STEMPEL
100
AcDbLine
 10
198.3694886365719
 20
483.8412840202846
 30
0.0
 11
198.3694886365719
 21
480.8412840202847
 31
0.0
  0
LINE
  5
933
330
1E
100
AcDbEntity
  8
HILF
100
AcDbLine
 10
199.369488636572
 20
483.8412840202847
 30
0.0
 11
199.3694886365719
 21
480.8412840202847
 31
0.0
  0
LINE
  5
934
330
1E
100
AcDbEntity
  8
STEMPEL
100
AcDbLine
 10
208.3694886365718
 20
483.8412840202846
 30
0.0
 11
208.3694886365719
 21
480.8412840202847
 31
0.0
  0
LINE
  5
935
330
1E
100
AcDbEntity
  8
HILF
100
AcDbLine
 10
207.3694886365719
 20
483.8412840202846
 30
0.0
 11
207.3694886365719
 21
480.8412840202847
 31
0.0
  0
LINE
  5
93C
330
1E
100
AcDbEntity
  8
HILF
100
AcDbLine
 10
154.3694886365719
 20
489.8412840202853
 30
0.0
 11
154.3694886365719
 21
477.8412840202847
 31
0.0
  0
LINE
  5
93D
330
1E
100
AcDbEntity
  8
STEMPEL
100
AcDbLine
 10
153.3694886365719
 20
489.8412840202852
 30
0.0
 11
153.3694886365719
 21
477.8412840202847
 31
0.0
  0
LINE
  5
93E
330
1E
100
AcDbEntity
  8
HILF
100
AcDbLine
 10
162.3694886365719
 20
489.8412840202854
 30
0.0
 11
162.3694886365719
 21
477.8412840202846
 31
0.0
  0
LINE
  5
93F
330
1E
100
AcDbEntity
  8
STEMPEL
100
AcDbLine
 10
163.3694886365719
 20
489.8412840202853
 30
0.0
 11
163.3694886365719
 21
477.8412840202846
 31
0.0
  0
LINE
  5
94B
330
1E
100
AcDbEntity
  8
STEMPEL
100
AcDbLine
 10
155.5550981867059
 20
504.841284020286
 30
0.0
 11
163.9178374132934
 21
504.841284020286
 31
0.0
  0
LWPOLYLINE
  5
94C
330
1E
100
AcDbEntity
  8
STEMPEL
100
AcDbPolyline
 90
        8
 70
   128
 43
0.0
 10
154.0976265906347
 20
503.8412840202853
 10
155.3513606061976
 20
504.6451315975788
 10
155.9744437802439
 20
505.2450173615716
 10
156.5123003853554
 20
505.9845583621664
 10
156.9485879207544
 20
506.8412840202856
 10
157.2700500104496
 20
507.7891631603317
 10
157.4669191915137
 20
508.7993949542842
 10
157.5332136935005
 20
509.8412840202859
  0
LWPOLYLINE
  5
94D
330
1E
100
AcDbEntity
  8
STEMPEL
100
AcDbPolyline
 90
       10
 70
   128
 43
0.0
 10
-324.179974022684
 20
503.8412840202872
 10
-323.5439696626831
 20
503.932437502214
 10
-322.927289973327
 20
504.2031282955718
 10
-322.3486724549219
 20
504.6451315975806
 10
-321.82569810797
 20
505.2450173615734
 10
-321.3742572433655
 20
505.9845583621681
 10
-321.0080666633396
 20
506.8412840202874
 10
-320.7382528833646
 20
507.7891631603335
 10
-320.573014058613
 20
508.799394954286
 10
-320.5173708871599
 20
509.8412840202876
210
0.0
220
0.0
230
-1.0
  0
LINE
  5
94E
330
1E
100
AcDbEntity
  8
STEMPEL
100
AcDbLine
 10
314.769488636572
 20
483.8412840202846
 30
0.0
 11
314.769488636572
 21
480.8412840202851
 31
0.0
  0
LINE
  5
94F
330
1E
100
AcDbEntity
  8
HILF
100
AcDbLine
 10
315.7694886365721
 20
483.8412840202847
 30
0.0
 11
315.769488636572
 21
480.841284020285
 31
0.0
  0
LINE
  5
950
330
1E
100
AcDbEntity
  8
HILF
100
AcDbLine
 10
323.769488636572
 20
483.8412840202845
 30
0.0
 11
323.769488636572
 21
480.8412840202851
 31
0.0
  0
LINE
  5
951
330
1E
100
AcDbEntity
  8
STEMPEL
100
AcDbLine
 10
324.7694886365719
 20
483.8412840202845
 30
0.0
 11
324.769488636572
 21
480.8412840202851
 31
0.0
  0
LINE
  5
952
330
1E
100
AcDbEntity
  8
STEMPEL
100
AcDbLine
 10
324.7694886365718
 20
501.841284020285
 30
0.0
 11
323.7694886365718
 21
502.8412840202851
 31
0.0
  0
LINE
  5
953
330
1E
100
AcDbEntity
  8
STEMPEL
100
AcDbLine
 10
315.7487989813991
 20
501.8412840202849
 30
0.0
 11
324.7694886365716
 21
501.841284020285
 31
0.0
  0
LINE
  5
958
330
1E
100
AcDbEntity
  8
STEMPEL
100
AcDbLine
 10
315.7694886365718
 20
502.8412840202851
 30
0.0
 11
315.7006361775552
 21
502.7724315612686
 31
0.0
  0
LINE
  5
95B
330
1E
100
AcDbEntity
  8
HILF
100
AcDbLine
 10
323.7694886365718
 20
502.8412840202851
 30
0.0
 11
323.7694886365718
 21
499.8412840202854
 31
0.0
  0
LINE
  5
95C
330
1E
100
AcDbEntity
  8
HILF
100
AcDbLine
 10
315.7694886365718
 20
502.841284020285
 30
0.0
 11
315.7694886365718
 21
501.4412840202801
 31
0.0
  0
LINE
  5
95D
330
1E
100
AcDbEntity
  8
STEMPEL
100
AcDbLine
 10
323.7694886365718
 20
502.8412840202851
 30
0.0
 11
315.7694886365718
 21
502.8412840202851
 31
0.0
  0
LINE
  5
95E
330
1E
100
AcDbEntity
  8
STEMPEL
100
AcDbLine
 10
324.7694886365718
 20
501.841284020285
 30
0.0
 11
324.7694886365717
 21
499.8412840202854
 31
0.0
  0
HATCH
  5
966
330
1E
100
AcDbEntity
  8
SCHRAFF
100
AcDbHatch
 10
0.0
 20
0.0
 30
0.0
210
0.0
220
0.0
230
1.0
  2
_U
 70
     0
 71
     0
 91
        5
 92
        7
 72
     1
 73
     1
 93
       39
 10
328.3694886365721
 20
593.8412840202858
 42
0.0
 10
273.8090032316287
 20
593.8412840202857
 42
-0.2679491924311848
 10
272.5099651259517
 20
594.5912840202857
 42
0.2859076546239628
 10
271.1109270202745
 20
595.3379469749952
 42
0.2859076546237491
 10
269.7118889145985
 20
594.5912840202857
 42
-0.2679491924311245
 10
268.4128508089218
 20
593.8412840202857
 42
0.0
 10
261.9590032316282
 20
593.8412840202857
 42
-0.2679491924311449
 10
260.6599651259515
 20
594.5912840202857
 42
0.2859076546238214
 10
259.2609270202751
 20
595.3379469749952
 42
0.3607372083888889
 10
257.7085582654468
 20
594.2162840202857
 42
-0.3419987131196436
 10
257.2244353471709
 20
593.8412840202857
 42
0.0
 10
257.0356861545715
 20
593.8412840202857
 42
-0.341998713119513
 10
256.5515632362959
 20
594.2162840202857
 42
0.3419987131196436
 10
255.0991944814682
 20
595.3412840202856
 42
0.0
 10
248.369488636572
 20
595.3412840202856
 42
0.0
 10
248.369488636572
 20
594.3412840202856
 42
0.0
 10
255.0991944814682
 20
594.3412840202856
 42
-0.3419987131195064
 10
255.5833173997438
 20
593.9662840202856
 42
0.3596757619904947
 10
257.1300607508712
 20
592.8442558189569
 42
0.3596757619905158
 10
258.6768041019986
 20
593.9662840202856
 42
-0.3419987131196715
 10
259.1609270202745
 20
594.3412840202856
 42
0.0
 10
259.3609270202748
 20
594.3412840202856
 42
-0.267949192431149
 10
259.7939397221671
 20
594.0912840202856
 42
0.2679491924311241
 10
261.9590032316282
 20
592.8412840202859
 42
0.0
 10
268.4128508089222
 20
592.8412840202859
 42
0.2679491924310771
 10
270.5779143183832
 20
594.0912840202854
 42
-0.2679491924312612
 10
271.0109270202754
 20
594.3412840202856
 42
0.0
 10
271.2109270202747
 20
594.3412840202856
 42
-0.2679491924313018
 10
271.6439397221674
 20
594.0912840202859
 42
0.2679491924311406
 10
273.8090032316286
 20
592.8412840202859
 42
0.0
 10
328.36948863657
 20
592.8412840202859
 42
-0.1340385084113211
 10
330.9099883117486
 20
592.1477746333518
 42
0.0
 10
354.8888422046989
 20
578.1601214671669
 42
-0.2667503951500854
 10
357.369488636572
 20
573.8412260529703
 42
0.0
 10
357.369488636572
 20
568.8412840202858
 42
0.0
 10
358.3694886365721
 20
568.8412840202858
 42
0.0
 10
358.3694886365721
 20
573.8412260529701
 42
0.2662608607120724
 10
355.4021832582467
 20
579.0183645803487
 42
0.0
 10
331.3694886365204
 20
593.0374364430219
 42
0.1316524975848892
 97
        0
 92
        7
 72
     1
 73
     1
 93
        8
 10
358.3694886365721
 20
528.8412840202859
 42
0.0
 10
357.369488636572
 20
528.8412840202859
 42
0.0
 10
357.369488636572
 20
509.8412840202865
 42
0.4142135623731166
 10
363.369488636572
 20
503.8412840202861
 42
0.0
 10
366.369488636572
 20
503.8412840202861
 42
0.0
 10
366.3694886365719
 20
504.8412840202863
 42
0.0
 10
363.3694886365717
 20
504.8412840202864
 42
-0.4142135623730752
 10
358.3694886365721
 20
509.8412840202865
 42
0.0
 97
        0
 92
        7
 72
     0
 73
     1
 93
        4
 10
378.3694886365718
 20
504.841284020286
 10
374.3694886365719
 20
504.8412840202861
 10
374.369488636572
 20
503.8412840202861
 10
378.3694886365719
 20
503.841284020286
 97
        0
 92
        7
 72
     1
 73
     1
 93
        8
 10
139.369488636572
 20
509.8412840202865
 42
0.0
 10
139.369488636572
 20
528.8412840202859
 42
0.0
 10
138.3694886365719
 20
528.8412840202859
 42
0.0
 10
138.3694886365719
 20
509.8412840202865
 42
-0.4142135623730909
 10
133.369488636572
 20
504.8412840202864
 42
0.0
 10
118.3694886365717
 20
504.841284020286
 42
0.0
 10
118.3694886365716
 20
503.8412840202861
 42
0.0
 10
133.369488636572
 20
503.8412840202861
 42
0.4142135623731175
 97
        0
 92
        7
 72
     1
 73
     1
 93
       40
 10
225.2729143183825
 20
594.0912840202856
 42
-0.2679491924310875
 10
225.7059270202747
 20
594.3412840202856
 42
0.0
 10
225.9059270202748
 20
594.3412840202856
 42
-0.2679491924312574
 10
226.3389397221674
 20
594.0912840202859
 42
0.267949192431145
 10
228.5040032316286
 20
592.8412840202857
 42
0.0
 10
230.562850808921
 20
592.8412840202857
 42
0.2679491924311416
 10
232.7279143183822
 20
594.0912840202859
 42
-0.2679491924310647
 10
233.1609270202744
 20
594.3412840202856
 42
0.0
 10
233.3609270202747
 20
594.3412840202856
 42
-0.267949192430994
 10
233.7939397221667
 20
594.0912840202856
 42
0.2679491924311175
 10
235.9590032316278
 20
592.8412840202857
 42
0.0
 10
242.412850808922
 20
592.8412840202857
 42
0.2679491924310871
 10
244.5779143183828
 20
594.0912840202854
 42
-0.2679491924312534
 10
245.0109270202752
 20
594.3412840202856
 42
0.0
 10
248.369488636572
 20
594.3412840202856
 42
0.0
 10
248.369488636572
 20
595.3412840202856
 42
0.0
 10
245.0109270202746
 20
595.3412840202856
 42
0.2679491924310706
 10
243.7118889145983
 20
594.5912840202857
 42
-0.2679491924311357
 10
242.4128508089216
 20
593.8412840202857
 42
0.0
 10
235.9590032316277
 20
593.8412840202857
 42
-0.2679491924310962
 10
234.6599651259512
 20
594.5912840202857
 42
0.2859076546238522
 10
233.2609270202746
 20
595.3379469749952
 42
0.2859076546238809
 10
231.8618889145979
 20
594.5912840202857
 42
-0.2679491924311237
 10
230.5628508089212
 20
593.8412840202857
 42
0.0
 10
228.5040032316287
 20
593.8412840202857
 42
-0.2679491924311723
 10
227.2049651259518
 20
594.5912840202857
 42
0.2859076546238861
 10
225.805927020275
 20
595.3379469749952
 42
0.2859076546239122
 10
224.4068889145981
 20
594.5912840202857
 42
-0.267949192431137
 10
223.1078508089214
 20
593.8412840202857
 42
0.0
 10
168.3694886365719
 20
593.8412840202852
 42
0.1316524975836561
 10
165.3694886366482
 20
593.0374364430362
 42
0.0
 10
141.3367940148672
 20
579.0183645803312
 42
0.2662608607105233
 10
138.3694886365719
 20
573.8412260529705
 42
0.0
 10
138.3694886365719
 20
568.8412840202858
 42
0.0
 10
139.369488636572
 20
568.8412840202858
 42
0.0
 10
139.369488636572
 20
573.8412260529705
 42
-0.2667503951500889
 10
141.8501350684449
 20
578.1601214671668
 42
0.0
 10
165.8289889613858
 20
592.1477746333462
 42
-0.1340385084119114
 10
168.3694886365719
 20
592.8412840202857
 42
0.0
 10
223.1078508089213
 20
592.8412840202857
 42
0.2679491924311331
 97
        0
 75
     0
 76
     0
 52
45.0
 41
2.0
 77
     0
 78
     1
 53
45.0
 43
13.88497226189429
 44
75.31307411212657
 45
-1.414213562373094
 46
1.414213562373095
 79
     0
 47
0.2376111440341236
 98
        5
 10
310.4795662982981
 20
593.6361068032038
 10
358.1602806102894
 20
519.9718119247986
 10
376.6901565099586
 20
504.6238908932116
 10
125.2424795340919
 20
504.2001505620862
 10
175.6607901315017
 20
593.5419430829369
  0
ELLIPSE
  5
967
330
1E
100
AcDbEntity
  8
STEMPEL
100
AcDbEllipse
 10
303.241498805693
 20
561.3412840202862
 30
0.0
 11
0.0
 21
7.5
 31
0.0
210
0.0
220
0.0
230
-1.0
 40
0.8660254037843856
 41
4.712388980384689
 42
6.24459510668465
  0
ELLIPSE
  5
968
330
1E
100
AcDbEntity
  8
STEMPEL
100
AcDbEllipse
 10
302.7403218102511
 20
561.3412840202862
 30
0.0
 11
0.0
 21
7.5
 31
0.0
210
0.0
220
0.0
230
-1.0
 40
0.8660254037843856
 41
4.712388980384689
 42
7.853981633974482
  0
ELLIPSE
  5
969
330
1E
100
AcDbEntity
  8
STEMPEL
100
AcDbEllipse
 10
302.7403218102511
 20
536.3412840202862
 30
0.0
 11
0.0
 21
-7.5
 31
0.0
210
0.0
220
0.0
230
1.0
 40
0.8660254037843856
 41
4.712388980384689
 42
7.853981633974482
  0
ELLIPSE
  5
96A
330
1E
100
AcDbEntity
  8
STEMPEL
100
AcDbEllipse
 10
303.241498805693
 20
536.3412840202862
 30
0.0
 11
0.0
 21
-7.5
 31
0.0
210
0.0
220
0.0
230
1.0
 40
0.8660254037843856
 41
4.712388980384689
 42
6.24459510668465
  0
LINE
  5
96B
330
1E
100
AcDbEntity
  8
STEMPEL
100
AcDbLine
 10
296.2451312818682
 20
561.3412840202862
 30
0.0
 11
296.2451312818682
 21
536.3412840202862
 31
0.0
  0
LINE
  5
96C
330
1E
100
AcDbEntity
  8
STEMPEL
100
AcDbLine
 10
296.7463082773102
 20
561.3412840202862
 30
0.0
 11
296.7463082773102
 21
536.3412840202862
 31
0.0
  0
LINE
  5
96D
330
1E
100
AcDbEntity
  8
STEMPEL
100
AcDbLine
 10
309.235512338634
 20
561.3412840202862
 30
0.0
 11
309.235512338634
 21
536.3412840202878
 31
0.0
  0
LINE
  5
96E
330
1E
100
AcDbEntity
  8
STEMPEL
100
AcDbLine
 10
346.292534143235
 20
561.3412840202862
 30
0.0
 11
346.292534143235
 21
536.3412840202894
 31
0.0
  0
LINE
  5
96F
330
1E
100
AcDbEntity
  8
STEMPEL
100
AcDbLine
 10
338.7925341432351
 20
561.3412840202862
 30
0.0
 11
338.7925341432351
 21
536.3412840202878
 31
0.0
  0
LINE
  5
970
330
1E
100
AcDbEntity
  8
STEMPEL
100
AcDbLine
 10
339.6605981629241
 20
536.3412840202862
 30
0.0
 11
339.6605981629241
 21
561.3412840202878
 31
0.0
  0
ELLIPSE
  5
971
330
1E
100
AcDbEntity
  8
STEMPEL
100
AcDbEllipse
 10
343.4105981629238
 20
536.3412840202878
 30
0.0
 11
0.0
 21
-7.499999999999999
 31
0.0
210
0.0
220
0.0
230
1.0
 40
0.4999999999999926
 41
4.712388980384689
 42
6.167183451052224
  0
ELLIPSE
  5
972
330
1E
100
AcDbEntity
  8
STEMPEL
100
AcDbEllipse
 10
342.5425341432351
 20
536.3412840202878
 30
0.0
 11
0.0
 21
-7.499999999999999
 31
0.0
210
0.0
220
0.0
230
1.0
 40
0.4999999999999926
 41
4.712388980384689
 42
7.853981633974482
  0
ELLIPSE
  5
973
330
1E
100
AcDbEntity
  8
STEMPEL
100
AcDbEllipse
 10
343.4105981629238
 20
561.3412840202862
 30
0.0
 11
0.0
 21
7.499999999999999
 31
0.0
210
0.0
220
0.0
230
-1.0
 40
0.4999999999999926
 41
4.712388980384689
 42
6.167183451052224
  0
ELLIPSE
  5
974
330
1E
100
AcDbEntity
  8
STEMPEL
100
AcDbEllipse
 10
342.5425341432351
 20
561.3412840202862
 30
0.0
 11
0.0
 21
7.499999999999999
 31
0.0
210
0.0
220
0.0
230
-1.0
 40
0.4999999999999926
 41
4.712388980384689
 42
7.853981633974482
  0
LINE
  5
975
330
1E
100
AcDbEntity
  8
STEMPEL
100
AcDbLine
 10
358.3694886365718
 20
528.8412840202859
 30
0.0
 11
357.3694886365718
 21
528.8412840202859
 31
0.0
  0
LINE
  5
976
330
1E
100
AcDbEntity
  8
STEMPEL
100
AcDbLine
 10
358.3694886365718
 20
568.8412840202858
 30
0.0
 11
357.3694886365718
 21
568.8412840202858
 31
0.0
  0
ELLIPSE
  5
977
330
1E
100
AcDbEntity
  8
STEMPEL
100
AcDbEllipse
 10
193.4974784674507
 20
561.3412840202862
 30
0.0
 11
0.0
 21
7.5
 31
0.0
210
0.0
220
0.0
230
1.0
 40
0.8660254037843856
 41
4.712388980384689
 42
6.24459510668465
  0
ELLIPSE
  5
978
330
1E
100
AcDbEntity
  8
STEMPEL
100
AcDbEllipse
 10
154.1964431299088
 20
561.3412840202862
 30
0.0
 11
0.0
 21
7.499999999999999
 31
0.0
210
0.0
220
0.0
230
1.0
 40
0.4999999999999926
 41
4.712388980384689
 42
7.853981633974482
  0
ELLIPSE
  5
979
330
1E
100
AcDbEntity
  8
STEMPEL
100
AcDbEllipse
 10
153.3283791102198
 20
561.3412840202862
 30
0.0
 11
0.0
 21
7.499999999999999
 31
0.0
210
0.0
220
0.0
230
1.0
 40
0.4999999999999926
 41
4.712388980384689
 42
6.167183451052224
  0
ELLIPSE
  5
97A
330
1E
100
AcDbEntity
  8
STEMPEL
100
AcDbEllipse
 10
153.3283791102198
 20
536.3412840202878
 30
0.0
 11
0.0
 21
-7.499999999999999
 31
0.0
210
0.0
220
0.0
230
-1.0
 40
0.4999999999999926
 41
4.712388980384689
 42
6.167183451052224
  0
ELLIPSE
  5
97B
330
1E
100
AcDbEntity
  8
STEMPEL
100
AcDbEllipse
 10
154.1964431299088
 20
536.3412840202878
 30
0.0
 11
0.0
 21
-7.499999999999999
 31
0.0
210
0.0
220
0.0
230
-1.0
 40
0.4999999999999926
 41
4.712388980384689
 42
7.853981633974482
  0
LINE
  5
97C
330
1E
100
AcDbEntity
  8
STEMPEL
100
AcDbLine
 10
150.4464431299088
 20
561.3412840202862
 30
0.0
 11
150.4464431299088
 21
536.3412840202894
 31
0.0
  0
LINE
  5
97D
330
1E
100
AcDbEntity
  8
STEMPEL
100
AcDbLine
 10
138.3694886365715
 20
528.8412840202859
 30
0.0
 11
139.3694886365717
 21
528.8412840202859
 31
0.0
  0
LINE
  5
97E
330
1E
100
AcDbEntity
  8
STEMPEL
100
AcDbLine
 10
138.3694886365717
 20
568.8412840202858
 30
0.0
 11
139.3694886365717
 21
568.8412840202858
 31
0.0
  0
LINE
  5
97F
330
1E
100
AcDbEntity
  8
STEMPEL
100
AcDbLine
 10
157.0783791102199
 20
536.3412840202862
 30
0.0
 11
157.0783791102199
 21
561.3412840202878
 31
0.0
  0
LINE
  5
980
330
1E
100
AcDbEntity
  8
STEMPEL
100
AcDbLine
 10
157.9464431299087
 20
561.3412840202862
 30
0.0
 11
157.9464431299087
 21
536.3412840202878
 31
0.0
  0
LINE
  5
981
330
1E
100
AcDbEntity
  8
STEMPEL
100
AcDbLine
 10
199.9926689958336
 20
561.3412840202862
 30
0.0
 11
199.9926689958336
 21
536.3412840202862
 31
0.0
  0
LINE
  5
982
330
1E
100
AcDbEntity
  8
STEMPEL
100
AcDbLine
 10
187.5034649345098
 20
561.3412840202862
 30
0.0
 11
187.5034649345098
 21
536.3412840202878
 31
0.0
  0
LINE
  5
983
330
1E
100
AcDbEntity
  8
STEMPEL
100
AcDbLine
 10
200.4938459912757
 20
561.3412840202862
 30
0.0
 11
200.4938459912757
 21
536.3412840202862
 31
0.0
  0
ELLIPSE
  5
984
330
1E
100
AcDbEntity
  8
STEMPEL
100
AcDbEllipse
 10
193.4974784674507
 20
536.3412840202862
 30
0.0
 11
0.0
 21
-7.5
 31
0.0
210
0.0
220
0.0
230
-1.0
 40
0.8660254037843856
 41
4.712388980384689
 42
6.24459510668465
  0
ELLIPSE
  5
985
330
1E
100
AcDbEntity
  8
STEMPEL
100
AcDbEllipse
 10
193.9986554628927
 20
536.3412840202862
 30
0.0
 11
0.0
 21
-7.5
 31
0.0
210
0.0
220
0.0
230
-1.0
 40
0.8660254037843856
 41
4.712388980384689
 42
7.853981633974482
  0
ELLIPSE
  5
986
330
1E
100
AcDbEntity
  8
STEMPEL
100
AcDbEllipse
 10
193.9986554628927
 20
561.3412840202862
 30
0.0
 11
0.0
 21
7.5
 31
0.0
210
0.0
220
0.0
230
1.0
 40
0.8660254037843856
 41
4.712388980384689
 42
7.853981633974482
  0
ARC
  5
987
330
1E
100
AcDbEntity
  8
STEMPEL
100
AcDbCircle
 10
248.369488636572
 20
561.3412840202862
 30
0.0
 40
7.5
100
AcDbArc
 50
0.0000000000260551
 51
180.000000000013
  0
ARC
  5
988
330
1E
100
AcDbEntity
  8
STEMPEL
100
AcDbCircle
 10
248.3694886365719
 20
536.3412840202862
 30
0.0
 40
7.5
100
AcDbArc
 50
180.0
 51
0.0
  0
LINE
  5
989
330
1E
100
AcDbEntity
  8
STEMPEL
100
AcDbLine
 10
240.869488636572
 20
561.3412840202847
 30
0.0
 11
240.8694886365721
 21
536.3412840202862
 31
0.0
  0
LINE
  5
98A
330
1E
100
AcDbEntity
  8
STEMPEL
100
AcDbLine
 10
255.869488636572
 20
561.3412840202862
 30
0.0
 11
255.869488636572
 21
536.3412840202861
 31
0.0
  0
LINE
  5
990
330
1E
100
AcDbEntity
  8
STEMPEL
100
AcDbLine
 10
315.645350705537
 20
503.8412840202861
 30
0.0
 11
367.3694886365717
 21
503.8412840202861
 31
0.0
  0
DIMENSION
  5
997
330
1E
100
AcDbEntity
  8
BEM
100
AcDbDimension
  2
*D7
 10
102.1912707556857
 20
483.8412840202847
 30
0.0
 11
95.69127075568568
 21
501.3412840202847
 31
0.0
 70
    32
 71
     5
 42
34.99999999999989
  3
Standard
100
AcDbAlignedDimension
 13
181.8694886365718
 23
518.8412840202846
 33
0.0
 14
131.3694886365724
 24
483.8412840202847
 34
0.0
 50
90.0
100
AcDbRotatedDimension
1001
ACAD
1000
DSTYLE
1002
{
1070
    40
1040
2.0
1070
    41
1040
3.5
1070
    42
1040
1.0
1070
    43
1040
7.0
1070
    44
1040
1.0
1070
    73
1070
     0
1070
    74
1070
     0
1070
    77
1070
     1
1070
    78
1070
     8
1070
    79
1070
     2
1070
   140
1040
3.5
1070
   141
1040
1.5
1070
   146
1040
0.5142857142857144
1070
   147
1040
1.5
1070
   172
1070
     1
1070
   178
1070
     1
1070
   179
1070
     2
1070
   271
1070
     2
1070
   272
1070
     2
1070
   284
1070
     8
1070
   285
1070
     8
1070
   286
1070
     8
1002
}
  0
LINE
  5
A01
330
1E
100
AcDbEntity
  8
MITTEL
100
AcDbLine
 10
248.3694886365718
 20
535.2258823241775
 30
0.0
 11
248.3694886365718
 21
452.4795683667598
 31
0.0
  0
TEXT
  5
A22
330
1E
100
AcDbEntity
  8
VOLL
100
AcDbText
 10
212.1152027752795
 20
443.7974467582088
 30
0.0
 40
1.8
  1

  7
GREEKS
100
AcDbText
  0
ARC
  5
A38
330
1E
100
AcDbEntity
  8
STEMPEL
100
AcDbCircle
 10
158.3694886365719
 20
469.5303948878303
 30
0.0
 40
30.31088913245485
100
AcDbArc
 50
81.78678929826221
 51
98.2132107017378
  0
ARC
  5
A39
330
1E
100
AcDbEntity
  8
STEMPEL
100
AcDbCircle
 10
151.8742981081886
 20
492.1469783125008
 30
0.0
 40
7.694305707784447
100
AcDbArc
 50
73.65710669401501
 51
106.342893305985
  0
ARC
  5
A3A
330
1E
100
AcDbEntity
  8
STEMPEL
100
AcDbCircle
 10
164.8646791649552
 20
492.1469783125008
 30
0.0
 40
7.694305707784447
100
AcDbArc
 50
73.65710669401501
 51
106.342893305985
  0
ARC
  5
A3B
330
1E
100
AcDbEntity
  8
HILF
100
AcDbCircle
 10
158.3694886365719
 20
469.942822972624
 30
0.0
 40
22.41111549782308
100
AcDbArc
 50
78.85962783890615
 51
101.1403721610938
  0
ARC
  5
A3C
330
1E
100
AcDbEntity
  8
HILF
100
AcDbCircle
 10
164.8646791649552
 20
486.5927978707556
 30
0.0
 40
5.761140599691502
100
AcDbArc
 50
67.92594526326206
 51
112.0740547367379
  0
ARC
  5
A3D
330
1E
100
AcDbEntity
  8
HILF
100
AcDbCircle
 10
151.8742981081886
 20
486.5927978707556
 30
0.0
 40
5.761140599691502
100
AcDbArc
 50
67.92594526326206
 51
112.0740547367379
  0
POINT
  5
A3E
330
1E
100
AcDbEntity
  8
0
100
AcDbPoint
 10
158.3694886365719
 20
489.8412840202852
 30
0.0
210
0.0000000000000001
220
1.0
230
0.0
  0
LINE
  5
A3F
330
1E
100
AcDbEntity
  8
STEMPEL
100
AcDbLine
 10
150.8694886365719
 20
499.8412840202853
 30
0.0
 11
165.8694886365719
 21
499.8412840202853
 31
0.0
  0
LINE
  5
A40
330
1E
100
AcDbEntity
  8
STEMPEL
100
AcDbLine
 10
167.0297426744163
 20
491.9316405364851
 30
0.0
 11
167.0297426744163
 21
499.5303948878299
 31
0.0
  0
LINE
  5
A41
330
1E
100
AcDbEntity
  8
STEMPEL
100
AcDbLine
 10
162.6996156554941
 20
491.9316405364851
 30
0.0
 11
162.6996156554941
 21
499.5303948878299
 31
0.0
  0
LINE
  5
A42
330
1E
100
AcDbEntity
  8
STEMPEL
100
AcDbLine
 10
154.0393616176497
 20
491.9316405364851
 30
0.0
 11
154.0393616176497
 21
499.5303948878299
 31
0.0
  0
LINE
  5
A43
330
1E
100
AcDbEntity
  8
STEMPEL
100
AcDbLine
 10
168.7760037440662
 20
491.2960534858747
 30
0.0
 11
147.9629735290776
 21
491.2960534858747
 31
0.0
  0
LINE
  5
A44
330
1E
100
AcDbEntity
  8
STEMPEL
100
AcDbLine
 10
168.5194886365719
 20
489.8412840202852
 30
0.0
 11
148.2194886365719
 21
489.8412840202852
 31
0.0
  0
LINE
  5
A45
330
1E
100
AcDbEntity
  8
STEMPEL
100
AcDbLine
 10
149.7092345987275
 20
491.9316405364851
 30
0.0
 11
149.7092345987275
 21
499.5303948878299
 31
0.0
  0
LINE
  5
A46
330
1E
100
AcDbEntity
  8
STEMPEL
100
AcDbLine
 10
150.8694886365719
 20
499.8412840202853
 30
0.0
 11
149.7092345987275
 21
499.5303948878299
 31
0.0
  0
LINE
  5
A47
330
1E
100
AcDbEntity
  8
STEMPEL
100
AcDbLine
 10
167.0297426744163
 20
499.5303948878299
 30
0.0
 11
165.8694886365719
 21
499.8412840202853
 31
0.0
  0
LINE
  5
A48
330
1E
100
AcDbEntity
  8
STEMPEL
100
AcDbLine
 10
168.7760037440662
 20
491.2960534858747
 30
0.0
 11
167.0297426744163
 21
491.9316405364851
 31
0.0
  0
LINE
  5
A49
330
1E
100
AcDbEntity
  8
STEMPEL
100
AcDbLine
 10
149.7092345987275
 20
491.9316405364851
 30
0.0
 11
147.9629735290776
 21
491.2960534858747
 31
0.0
  0
ARC
  5
A4A
330
1E
100
AcDbEntity
  8
STEMPEL
100
AcDbCircle
 10
148.2194886365719
 20
490.5912840202852
 30
0.0
 40
0.7500000000000013
100
AcDbArc
 50
109.9999999999995
 51
269.9999991462263
  0
ARC
  5
A4B
330
1E
100
AcDbEntity
  8
STEMPEL
100
AcDbCircle
 10
168.5194886365719
 20
490.5912840202852
 30
0.0
 40
0.750000000000001
100
AcDbArc
 50
269.9999991462263
 51
70.00000000000047
  0
ARC
  5
A4C
330
1E
100
AcDbEntity
  8
STEMPEL
100
AcDbCircle
 10
319.7694886365718
 20
469.5303948878306
 30
0.0
 40
30.31088913245485
100
AcDbArc
 50
81.78678929826221
 51
97.40051944419846
  0
ARC
  5
A4E
330
1E
100
AcDbEntity
  8
STEMPEL
100
AcDbCircle
 10
326.264679164955
 20
492.1469783125011
 30
0.0
 40
7.694305707784447
100
AcDbArc
 50
73.65710669401501
 51
106.342893305985
  0
ARC
  5
A4F
330
1E
100
AcDbEntity
  8
HILF
100
AcDbCircle
 10
319.7694886365718
 20
469.9428229726243
 30
0.0
 40
22.41111549782308
100
AcDbArc
 50
78.85962783890615
 51
99.02521875168831
  0
ARC
  5
A50
330
1E
100
AcDbEntity
  8
HILF
100
AcDbCircle
 10
326.264679164955
 20
486.5927978707558
 30
0.0
 40
5.761140599691502
100
AcDbArc
 50
67.92594526326206
 51
112.0740547367379
  0
POINT
  5
A52
330
1E
100
AcDbEntity
  8
0
100
AcDbPoint
 10
319.7694886365718
 20
489.8412840202855
 30
0.0
210
0.0000000000000001
220
1.0
230
0.0
  0
LINE
  5
A53
330
1E
100
AcDbEntity
  8
STEMPEL
100
AcDbLine
 10
315.8522472572612
 20
499.8412840202854
 30
0.0
 11
327.2694886365718
 21
499.8412840202854
 31
0.0
  0
LINE
  5
A54
330
1E
100
AcDbEntity
  8
STEMPEL
100
AcDbLine
 10
328.4297426744162
 20
491.9316405364853
 30
0.0
 11
328.4297426744162
 21
499.5303948878301
 31
0.0
  0
LINE
  5
A55
330
1E
100
AcDbEntity
  8
STEMPEL
100
AcDbLine
 10
324.099615655494
 20
491.9316405364853
 30
0.0
 11
324.099615655494
 21
499.5303948878301
 31
0.0
  0
LINE
  5
A57
330
1E
100
AcDbEntity
  8
STEMPEL
100
AcDbLine
 10
330.1760037440661
 20
491.2960534858749
 30
0.0
 11
316.2942419400758
 21
491.296053485875
 31
0.0
  0
LINE
  5
A5B
330
1E
100
AcDbEntity
  8
STEMPEL
100
AcDbLine
 10
328.4297426744162
 20
499.5303948878301
 30
0.0
 11
327.2694886365718
 21
499.8412840202854
 31
0.0
  0
LINE
  5
A5C
330
1E
100
AcDbEntity
  8
STEMPEL
100
AcDbLine
 10
330.1760037440661
 20
491.2960534858749
 30
0.0
 11
328.4297426744162
 21
491.9316405364853
 31
0.0
  0
ARC
  5
A5F
330
1E
100
AcDbEntity
  8
STEMPEL
100
AcDbCircle
 10
329.9194886365719
 20
490.5912840202855
 30
0.0
 40
0.750000000000001
100
AcDbArc
 50
269.9999991462263
 51
70.00000000000047
  0
LINE
  5
A6F
330
1E
100
AcDbEntity
  8
TEXT
 62
     2
100
AcDbLine
 10
365.5680625392045
 20
362.929024918466
 30
0.0
 11
308.222824879527
 21
380.9002329841267
 31
0.0
  0
TEXT
  5
A70
330
1E
100
AcDbEntity
  8
TEXT
 62
     1
100
AcDbText
 10
366.1634184179588
 20
366.4128590793764
 30
0.0
 40
7.0
  1
Wärmedämmung
 41
0.8
100
AcDbText
  0
LINE
  5
A71
330
1E
100
AcDbEntity
  8
TEXT
 62
     2
100
AcDbLine
 10
471.5066271143375
 20
362.929024918466
 30
0.0
 11
365.5680625392045
 21
362.929024918466
 31
0.0
  0
TEXT
  5
A72
330
1E
100
AcDbEntity
  8
TEXT
 62
     1
100
AcDbText
 10
366.1634184179588
 20
353.6365281106669
 30
0.0
 40
7.0
  1
EDV-Art.Nr. 19842.070X
 41
0.8
100
AcDbText
  0
ARC
  5
ABB
102
{ACAD_REACTORS
330
B4F
102
}
330
1E
100
AcDbEntity
  8
STEMPEL
100
AcDbCircle
 10
186.1878423006748
 20
318.8412840202841
 30
0.0
 40
3.0
100
AcDbArc
 50
183.5763343749981
 51
270.0
  0
ARC
  5
ABC
102
{ACAD_REACTORS
330
B4F
102
}
330
1E
100
AcDbEntity
  8
STEMPEL
100
AcDbCircle
 10
310.5511349724692
 20
318.8412840202825
 30
0.0
 40
3.0
100
AcDbArc
 50
270.0
 51
356.4236656250018
  0
LINE
  5
ABD
102
{ACAD_REACTORS
330
B4F
102
}
330
1E
100
AcDbEntity
  8
STEMPEL
100
AcDbLine
 10
290.8694886365723
 20
317.8412840202826
 30
0.0
 11
290.8694886365723
 21
315.8412840202826
 31
0.0
  0
LINE
  5
ABE
102
{ACAD_REACTORS
330
B4F
102
}
330
1E
100
AcDbEntity
  8
STEMPEL
100
AcDbLine
 10
205.8694886365723
 20
317.8412840202838
 30
0.0
 11
205.8694886365723
 21
315.8412840202839
 31
0.0
  0
LINE
  5
ABF
102
{ACAD_REACTORS
330
B4F
102
}
330
1E
100
AcDbEntity
  8
STEMPEL
100
AcDbLine
 10
290.8694886365723
 20
317.8412840202827
 30
0.0
 11
284.869488636573
 21
317.8412840202828
 31
0.0
  0
LINE
  5
AC0
102
{ACAD_REACTORS
330
B4F
102
}
330
1E
100
AcDbEntity
  8
STEMPEL
100
AcDbLine
 10
200.8694886365717
 20
405.8412840202841
 30
0.0
 11
194.869488636572
 21
411.8412840202839
 31
0.0
  0
LINE
  5
AC1
102
{ACAD_REACTORS
330
B4F
102
}
330
1E
100
AcDbEntity
  8
STEMPEL
100
AcDbLine
 10
200.8694886365717
 20
405.8412840202841
 30
0.0
 11
200.8694886365723
 21
339.8412840202822
 31
0.0
  0
LINE
  5
AC2
102
{ACAD_REACTORS
330
B4F
102
}
330
1E
100
AcDbEntity
  8
STEMPEL
100
AcDbLine
 10
211.8694886365731
 20
324.8812840202825
 30
0.0
 11
200.8694886365723
 21
339.8412840202822
 31
0.0
  0
LINE
  5
AC3
102
{ACAD_REACTORS
330
B4F
102
}
330
1E
100
AcDbEntity
  8
STEMPEL
100
AcDbLine
 10
295.869488636572
 20
405.8412840202843
 30
0.0
 11
301.8694886365718
 21
411.8412840202841
 31
0.0
  0
LINE
  5
AC4
330
1E
100
AcDbEntity
  8
STEMPEL
100
AcDbLine
 10
295.8694886365721
 20
405.8412840202843
 30
0.0
 11
284.8694886365739
 21
405.8412840202842
 31
0.0
  0
LINE
  5
AC5
330
1E
100
AcDbEntity
  8
STEMPEL
100
AcDbLine
 10
295.869488636572
 20
339.8412840202825
 30
0.0
 11
284.8694886365732
 21
339.8412840202827
 31
0.0
  0
LINE
  5
AC6
102
{ACAD_REACTORS
330
B4F
102
}
330
1E
100
AcDbEntity
  8
STEMPEL
100
AcDbLine
 10
284.8694886365731
 20
324.8812840202851
 30
0.0
 11
295.8694886365721
 21
339.8412840202825
 31
0.0
  0
LINE
  5
AC7
102
{ACAD_REACTORS
330
B4F
102
}
330
1E
100
AcDbEntity
  8
STEMPEL
100
AcDbLine
 10
295.869488636572
 20
405.8412840202843
 30
0.0
 11
295.8694886365721
 21
339.8412840202825
 31
0.0
  0
DIMENSION
  5
AC8
330
1E
100
AcDbEntity
  8
BEM
100
AcDbDimension
  2
*D8
 10
323.3694886365723
 20
440.689576316531
 30
0.0
 11
248.3694886365721
 21
447.1895763165309
 31
0.0
 70
    32
  1
%%c<>
 71
     5
 42
150.0000000000002
  3
Standard
100
AcDbAlignedDimension
 13
173.369488636572
 23
475.8412840202841
 33
0.0
 14
323.3694886365723
 24
475.8412840202844
 34
0.0
100
AcDbRotatedDimension
1001
ACAD
1000
DSTYLE
1002
{
1070
    40
1040
2.0
1070
    41
1040
3.5
1070
    42
1040
1.0
1070
    43
1040
7.0
1070
    44
1040
1.0
1070
    73
1070
     0
1070
    74
1070
     0
1070
    77
1070
     1
1070
    78
1070
     8
1070
    79
1070
     2
1070
   140
1040
3.5
1070
   141
1040
1.5
1070
   146
1040
0.5
1070
   147
1040
1.5
1070
   172
1070
     1
1070
   178
1070
     1
1070
   179
1070
     2
1070
   271
1070
     2
1070
   272
1070
     2
1070
   284
1070
     8
1070
   285
1070
     8
1070
   286
1070
     8
1070
   340
1005
24
1002
}
  0
LINE
  5
AC9
102
{ACAD_REACTORS
330
B4F
102
}
330
1E
100
AcDbEntity
  8
STEMPEL
100
AcDbLine
 10
310.5511349724691
 20
315.8412840202824
 30
0.0
 11
284.869488636573
 21
315.8412840202828
 31
0.0
  0
DIMENSION
  5
ACA
330
1E
100
AcDbEntity
  8
BEM
100
AcDbDimension
  2
*D9
 10
313.3670332710936
 20
298.22164000549
 30
0.0
 11
248.3694886365719
 21
304.72164000549
 31
0.0
 70
    32
  1
%%c<>
 71
     5
 42
129.9950892690433
  3
Standard
100
AcDbAlignedDimension
 13
183.3719440020502
 23
315.8412840202841
 33
0.0
 14
313.3670332710936
 24
315.8412840202824
 34
0.0
100
AcDbRotatedDimension
1001
ACAD
1000
DSTYLE
1002
{
1070
    40
1040
2.0
1070
    41
1040
3.5
1070
    42
1040
1.0
1070
    43
1040
7.0
1070
    44
1040
1.0
1070
    73
1070
     0
1070
    74
1070
     0
1070
    77
1070
     1
1070
    78
1070
     8
1070
    79
1070
     2
1070
   140
1040
3.5
1070
   141
1040
1.5
1070
   146
1040
0.5
1070
   147
1040
1.5
1070
   172
1070
     1
1070
   178
1070
     1
1070
   179
1070
     2
1070
   271
1070
     2
1070
   272
1070
     2
1070
   284
1070
     8
1070
   285
1070
     8
1070
   286
1070
     8
1070
   340
1005
24
1002
}
  0
LINE
  5
ACB
330
1E
100
AcDbEntity
  8
STEMPEL
100
AcDbLine
 10
301.8694886365723
 20
465.8412840202843
 30
0.0
 11
294.1979157613169
 21
465.8412840202843
 31
0.0
  0
LINE
  5
ACC
330
1E
100
AcDbEntity
  8
STEMPEL
100
AcDbLine
 10
301.8694886365716
 20
411.8412840202841
 30
0.0
 11
284.8694886365739
 21
411.8412840202841
 31
0.0
  0
LINE
  5
ACE
102
{ACAD_REACTORS
330
B4F
102
}
330
1E
100
AcDbEntity
  8
STEMPEL
100
AcDbLine
 10
173.369488636572
 20
475.8412840202841
 30
0.0
 11
183.1936845652261
 21
318.6541491618186
 31
0.0
  0
DIMENSION
  5
ACF
330
1E
100
AcDbEntity
  8
BEM
100
AcDbDimension
  2
*D10
 10
103.0403983064198
 20
315.8412840202842
 30
0.0
 11
96.54039830641979
 21
395.8412840202841
 31
0.0
 70
    32
 71
     5
 42
159.9999999999999
  3
Standard
100
AcDbAlignedDimension
 13
132.0870030578438
 23
475.841284020284
 33
0.0
 14
183.3719440020502
 24
315.8412840202841
 34
0.0
 50
90.0
100
AcDbRotatedDimension
1001
ACAD
1000
DSTYLE
1002
{
1070
    40
1040
2.0
1070
    41
1040
3.5
1070
    42
1040
1.0
1070
    43
1040
7.0
1070
    44
1040
1.0
1070
    73
1070
     0
1070
    74
1070
     0
1070
    77
1070
     1
1070
    78
1070
     8
1070
    79
1070
     2
1070
   140
1040
3.5
1070
   141
1040
1.5
1070
   146
1040
0.5
1070
   147
1040
1.5
1070
   172
1070
     1
1070
   178
1070
     1
1070
   179
1070
     2
1070
   271
1070
     2
1070
   272
1070
     2
1070
   284
1070
     8
1070
   285
1070
     8
1070
   286
1070
     8
1070
   340
1005
24
1002
}
  0
LINE
  5
AD1
102
{ACAD_REACTORS
330
B4F
102
}
330
1E
100
AcDbEntity
  8
STEMPEL
100
AcDbLine
 10
194.8694886365722
 20
411.8412840202839
 30
0.0
 11
194.869488636572
 21
465.8412840202841
 31
0.0
  0
LINE
  5
AD2
102
{ACAD_REACTORS
330
B4F
102
}
330
1E
100
AcDbEntity
  8
STEMPEL
100
AcDbLine
 10
183.369488636572
 20
475.8412840202842
 30
0.0
 11
194.869488636572
 21
465.8412840202841
 31
0.0
  0
LINE
  5
AD3
102
{ACAD_REACTORS
330
B4F
102
}
330
1E
100
AcDbEntity
  8
STEMPEL
100
AcDbLine
 10
323.3694886365721
 20
475.8412840202841
 30
0.0
 11
313.5452927079179
 21
318.6541491618169
 31
0.0
  0
LINE
  5
AD5
102
{ACAD_REACTORS
330
B4F
102
}
330
1E
100
AcDbEntity
  8
STEMPEL
100
AcDbLine
 10
313.3694886365721
 20
475.8412840202842
 30
0.0
 11
301.869488636572
 21
465.8412840202841
 31
0.0
  0
LINE
  5
AD6
102
{ACAD_REACTORS
330
B4F
102
}
330
1E
100
AcDbEntity
  8
STEMPEL
100
AcDbLine
 10
301.8694886365718
 20
411.8412840202839
 30
0.0
 11
301.869488636572
 21
465.8412840202841
 31
0.0
  0
LINE
  5
B16
330
1E
100
AcDbEntity
  8
MITTEL
100
AcDbLine
 10
248.3694886365718
 20
439.234015752144
 30
0.0
 11
248.3694886365718
 21
312.279267701306
 31
0.0
  0
LINE
  5
B20
330
1E
100
AcDbEntity
  8
MITTEL
100
AcDbLine
 10
248.3694886365718
 20
296.6250215339266
 30
0.0
 11
248.3694886365719
 21
212.8412840202847
 31
0.0
  0
LINE
  5
B21
330
1E
100
AcDbEntity
  8
STEMPEL
100
AcDbLine
 10
202.541061511827
 20
465.8412840202842
 30
0.0
 11
194.869488636572
 21
465.8412840202841
 31
0.0
  0
LINE
  5
B22
330
1E
100
AcDbEntity
  8
STEMPEL
100
AcDbLine
 10
211.8694886365739
 20
411.841284020284
 30
0.0
 11
194.8694886365722
 21
411.8412840202839
 31
0.0
  0
LINE
  5
B23
330
1E
100
AcDbEntity
  8
STEMPEL
100
AcDbLine
 10
211.8694886365739
 20
405.8412840202842
 30
0.0
 11
200.8694886365717
 21
405.8412840202842
 31
0.0
  0
LINE
  5
B24
330
1E
100
AcDbEntity
  8
STEMPEL
100
AcDbLine
 10
211.8694886365733
 20
339.8412840202838
 30
0.0
 11
200.8694886365723
 21
339.841284020284
 31
0.0
  0
LINE
  5
B25
102
{ACAD_REACTORS
330
B4F
102
}
330
1E
100
AcDbEntity
  8
STEMPEL
100
AcDbLine
 10
211.869488636573
 20
317.8412840202837
 30
0.0
 11
205.8694886365723
 21
317.8412840202838
 31
0.0
  0
LINE
  5
B26
102
{ACAD_REACTORS
330
B4F
102
}
330
1E
100
AcDbEntity
  8
STEMPEL
100
AcDbLine
 10
211.869488636573
 20
315.8412840202837
 30
0.0
 11
186.1878423006747
 21
315.8412840202841
 31
0.0
  0
HATCH
  5
B4F
330
1E
100
AcDbEntity
  8
BEM
100
AcDbHatch
 10
0.0
 20
0.0
 30
0.0
210
0.0
220
0.0
230
1.0
  2
HONEY
 70
     0
 71
     1
 91
        2
 92
        7
 72
     1
 73
     1
 93
       12
 10
323.3694886365721
 20
475.8412840202844
 42
0.0
 10
313.3694886365723
 20
475.8412840202844
 42
0.0
 10
301.869488636572
 20
465.8412840202841
 42
0.0
 10
301.8694886365718
 20
411.8412840202841
 42
0.0
 10
295.869488636572
 20
405.8412840202844
 42
0.0
 10
295.8694886365721
 20
339.8412840202825
 42
0.0
 10
284.8694886365731
 20
324.8812840202851
 42
0.0
 10
284.8694886365731
 20
317.8412840202828
 42
0.0
 10
290.8694886365723
 20
317.8412840202827
 42
0.0
 10
290.8694886365723
 20
315.8412840202827
 42
0.0
 10
310.5511349724691
 20
315.8412840202824
 42
0.3960474615044538
 10
313.5452927079179
 20
318.6541491618169
 42
0.0
 97
       12
330
532
330
AD5
330
AD6
330
AC3
330
AC7
330
AC6
330
537
330
ABF
330
ABD
330
AC9
330
ABC
330
AD3
 92
        7
 72
     1
 73
     1
 93
       12
 10
194.869488636572
 20
465.8412840202841
 42
0.0
 10
183.3694886365717
 20
475.8412840202844
 42
0.0
 10
173.369488636572
 20
475.8412840202844
 42
0.0
 10
183.1936845652261
 20
318.6541491618186
 42
0.3960474615044457
 10
186.1878423006747
 20
315.8412840202841
 42
0.0
 10
205.8694886365723
 20
315.8412840202838
 42
0.0
 10
205.8694886365723
 20
317.8412840202838
 42
0.0
 10
211.869488636573
 20
317.8412840202837
 42
0.0
 10
211.8694886365731
 20
324.8812840202826
 42
0.0
 10
200.8694886365722
 20
339.8412840202822
 42
0.0
 10
200.8694886365717
 20
405.841284020284
 42
0.0
 10
194.8694886365722
 20
411.8412840202837
 42
0.0
 97
       12
330
AD2
330
531
330
ACE
330
ABB
330
B26
330
ABE
330
B25
330
535
330
AC2
330
AC1
330
AC0
330
AD1
 75
     0
 76
     1
 52
0.0
 41
30.0
 77
     0
 78
     3
 53
0.0
 43
0.0
 44
0.0
 45
5.625
 46
3.247595249999999
 79
     2
 49
3.75
 49
-7.5
 53
120.0
 43
0.0
 44
0.0
 45
-5.624999987709673
 46
3.247595271287468
 79
     2
 49
3.75
 49
-7.5
 53
60.0
 43
0.0
 44
0.0
 45
0.0000000122903263
 46
6.495190521287468
 79
     2
 49
-7.5
 49
3.75
 47
0.3475294851107551
 98
        2
 10
309.5977675830754
 20
453.6277855527146
 10
182.3588171308879
 20
415.7470704095608
  0
LINE
  5
B86
330
1E
100
AcDbEntity
  8
STEMPEL
100
AcDbLine
 10
148.6503496300273
 20
505.9081149617138
 30
0.0
 11
144.8422700422125
 21
505.9081149617138
 31
0.0
  0
ARC
  5
B87
330
1E
100
AcDbEntity
  8
STEMPEL
100
AcDbCircle
 10
145.0303811210416
 20
505.3912840202815
 30
0.0
 40
0.5500000000000003
100
AcDbArc
 50
110.0000000000006
 51
270.0
  0
LINE
  5
B88
330
1E
100
AcDbEntity
  8
STEMPEL
100
AcDbLine
 10
145.8068784291453
 20
506.2592037022809
 30
0.0
 11
144.8422700422125
 21
505.9081149617138
 31
0.0
  0
ARC
  5
B89
330
1E
100
AcDbEntity
  8
HILF
100
AcDbCircle
 10
147.2502541021194
 20
502.6999752584651
 30
0.0
 40
3.840760399790701
100
AcDbArc
 50
67.92594526323878
 51
112.0740547367612
  0
ARC
  5
B8A
330
1E
100
AcDbEntity
  8
HILF
100
AcDbCircle
 10
151.5803811210416
 20
491.5999919930553
 30
0.0
 40
14.94074366520046
100
AcDbArc
 50
100.29090067769
 51
101.1403721611056
  0
LINE
  5
B8B
330
1E
100
AcDbEntity
  8
STEMPEL
100
AcDbLine
 10
149.8493601733116
 20
511.4412840202815
 30
0.0
 11
146.5803811210416
 21
511.4412840202815
 31
0.0
  0
LINE
  5
B8C
330
1E
100
AcDbEntity
  8
STEMPEL
100
AcDbLine
 10
148.6936297750935
 20
511.2340245986446
 30
0.0
 11
148.6936297750935
 21
506.2592037022809
 31
0.0
  0
LINE
  5
B8D
330
1E
100
AcDbEntity
  8
STEMPEL
100
AcDbLine
 10
145.8068784291453
 20
511.2340245986446
 30
0.0
 11
145.8068784291453
 21
506.2592037022809
 31
0.0
  0
LINE
  5
B8E
330
1E
100
AcDbEntity
  8
STEMPEL
100
AcDbLine
 10
146.5803811210416
 20
511.4412840202815
 30
0.0
 11
145.8068784291453
 21
511.2340245986446
 31
0.0
  0
ARC
  5
B8F
330
1E
100
AcDbEntity
  8
STEMPEL
100
AcDbCircle
 10
147.2502541021194
 20
506.3117468817584
 30
0.0
 40
5.129537138523076
100
AcDbArc
 50
73.6571066940175
 51
106.3428933059825
  0
ARC
  5
B90
330
1E
100
AcDbEntity
  8
STEMPEL
100
AcDbCircle
 10
151.5803811210416
 20
491.2340245986446
 30
0.0
 40
20.20725942163691
100
AcDbArc
 50
94.91416948521004
 51
98.2132107017394
  0
ARC
  5
B91
330
1E
100
AcDbEntity
  8
STEMPEL
100
AcDbCircle
 10
158.1303811210416
 20
505.3912840202815
 30
0.0
 40
0.5500000000000009
100
AcDbArc
 50
270.0
 51
69.99999999999935
  0
LINE
  5
B92
330
1E
100
AcDbEntity
  8
STEMPEL
100
AcDbLine
 10
158.3184921998707
 20
505.9081149617138
 30
0.0
 11
157.3538838129378
 21
506.2592037022809
 31
0.0
  0
LINE
  5
B93
330
1E
100
AcDbEntity
  8
STEMPEL
100
AcDbLine
 10
157.3538838129379
 20
508.2193552921009
 30
0.0
 11
157.3538838129379
 21
506.2592037022809
 31
0.0
  0
LINE
  5
B94
330
1E
100
AcDbEntity
  8
STEMPEL
100
AcDbLine
 10
158.3184921998707
 20
505.9081149617138
 30
0.0
 11
156.4567042955949
 21
505.9081149617138
 31
0.0
  0
ARC
  5
B95
330
1E
100
AcDbEntity
  8
HILF
100
AcDbCircle
 10
155.9105081399638
 20
502.6988106965768
 30
0.0
 40
3.841839622940954
100
AcDbArc
 50
67.9324721810082
 51
77.4028413078025
  0
LINE
  5
B96
330
1E
100
AcDbEntity
  8
MITTEL
100
AcDbLine
 10
151.5803811210416
 20
516.4412840202817
 30
0.0
 11
151.5803811210416
 21
487.8412840202854
 31
0.0
  0
LINE
  5
B97
330
1E
100
AcDbEntity
  8
MITTEL
100
AcDbLine
 10
370.3694886365718
 20
516.4412840202867
 30
0.0
 11
370.3694886365718
 21
483.8412840202849
 31
0.0
  0
ARC
  5
B98
330
1E
100
AcDbEntity
  8
HILF
100
AcDbCircle
 10
370.3694886365718
 20
491.5999919930603
 30
0.0
 40
14.94074366520046
100
AcDbArc
 50
78.85962783889434
 51
101.1403721611056
  0
ARC
  5
B99
330
1E
100
AcDbEntity
  8
HILF
100
AcDbCircle
 10
366.0393616176496
 20
502.6999752584701
 30
0.0
 40
3.840760399790701
100
AcDbArc
 50
67.92594526323878
 51
112.0740547367612
  0
ARC
  5
B9A
330
1E
100
AcDbEntity
  8
HILF
100
AcDbCircle
 10
374.699615655494
 20
502.6988106965819
 30
0.0
 40
3.841839622940954
100
AcDbArc
 50
67.9324721810082
 51
112.0675278189918
  0
ARC
  5
B9B
330
1E
100
AcDbEntity
  8
STEMPEL
100
AcDbCircle
 10
370.3694886365718
 20
491.2340245986497
 30
0.0
 40
20.20725942163691
100
AcDbArc
 50
81.78678929826059
 51
98.2132107017394
  0
ARC
  5
B9C
330
1E
100
AcDbEntity
  8
STEMPEL
100
AcDbCircle
 10
366.0393616176496
 20
506.3117468817634
 30
0.0
 40
5.129537138523076
100
AcDbArc
 50
73.6571066940175
 51
106.3428933059825
  0
LINE
  5
B9D
330
1E
100
AcDbEntity
  8
STEMPEL
100
AcDbLine
 10
365.3694886365718
 20
511.4412840202866
 30
0.0
 11
364.5959859446755
 21
511.2340245986496
 31
0.0
  0
LINE
  5
B9E
330
1E
100
AcDbEntity
  8
STEMPEL
100
AcDbLine
 10
375.3694886365718
 20
511.4412840202866
 30
0.0
 11
376.1429913284681
 21
511.2340245986496
 31
0.0
  0
ARC
  5
B9F
330
1E
100
AcDbEntity
  8
STEMPEL
100
AcDbCircle
 10
374.699615655494
 20
506.3117468817634
 30
0.0
 40
5.129537138523076
100
AcDbArc
 50
73.6571066940175
 51
106.3428933059825
  0
LINE
  5
BA0
330
1E
100
AcDbEntity
  8
STEMPEL
100
AcDbLine
 10
377.1075997154009
 20
505.9081149617187
 30
0.0
 11
363.6313775577427
 21
505.9081149617187
 31
0.0
  0
LINE
  5
BA1
330
1E
100
AcDbEntity
  8
STEMPEL
100
AcDbLine
 10
376.9194886365718
 20
504.8412840202865
 30
0.0
 11
363.8194886365718
 21
504.8412840202865
 31
0.0
  0
LINE
  5
BA2
330
1E
100
AcDbEntity
  8
STEMPEL
100
AcDbLine
 10
364.5959859446755
 20
511.2340245986496
 30
0.0
 11
364.5959859446755
 21
506.2592037022858
 31
0.0
  0
LINE
  5
BA3
330
1E
100
AcDbEntity
  8
STEMPEL
100
AcDbLine
 10
367.4827372906237
 20
511.2340245986496
 30
0.0
 11
367.4827372906237
 21
506.2592037022858
 31
0.0
  0
LINE
  5
BA4
330
1E
100
AcDbEntity
  8
STEMPEL
100
AcDbLine
 10
373.25623998252
 20
511.2340245986496
 30
0.0
 11
373.25623998252
 21
506.2592037022858
 31
0.0
  0
LINE
  5
BA5
330
1E
100
AcDbEntity
  8
STEMPEL
100
AcDbLine
 10
376.1429913284681
 20
511.2340245986496
 30
0.0
 11
376.1429913284681
 21
506.2592037022858
 31
0.0
  0
LINE
  5
BA6
330
1E
100
AcDbEntity
  8
STEMPEL
100
AcDbLine
 10
375.3694886365718
 20
511.4412840202866
 30
0.0
 11
365.3694886365718
 21
511.4412840202866
 31
0.0
  0
LINE
  5
BA7
330
1E
100
AcDbEntity
  8
STEMPEL
100
AcDbLine
 10
364.5959859446755
 20
506.2592037022858
 30
0.0
 11
363.6313775577427
 21
505.9081149617187
 31
0.0
  0
LINE
  5
BA8
330
1E
100
AcDbEntity
  8
STEMPEL
100
AcDbLine
 10
377.1075997154009
 20
505.9081149617187
 30
0.0
 11
376.142991328468
 21
506.2592037022858
 31
0.0
  0
ARC
  5
BA9
330
1E
100
AcDbEntity
  8
STEMPEL
100
AcDbCircle
 10
376.9194886365718
 20
505.3912840202865
 30
0.0
 40
0.5500000000000009
100
AcDbArc
 50
270.0
 51
69.99999999999935
  0
ARC
  5
BAA
330
1E
100
AcDbEntity
  8
STEMPEL
100
AcDbCircle
 10
363.8194886365718
 20
505.3912840202865
 30
0.0
 40
0.5500000000000003
100
AcDbArc
 50
110.0000000000006
 51
270.0
  0
HATCH
  5
BFC
330
1E
100
AcDbEntity
  8
SCHRAFF
100
AcDbHatch
 10
0.0
 20
0.0
 30
0.0
210
0.0
220
0.0
230
1.0
  2
NET
 70
     0
 71
     1
 91
        5
 92
        7
 72
     0
 73
     1
 93
        5
 10
370.8694886365718
 20
480.8412840202846
 10
345.6888949900534
 20
480.8412840202844
 10
347.6957949038425
 20
477.8412840202845
 10
364.6519742152997
 20
477.8412840202845
 10
370.8694886365718
 20
477.8412840202845
 97
        5
330
877
330
679
330
524
330
3C0
330
8AA
 92
        7
 72
     0
 73
     1
 93
        4
 10
345.6888949900534
 20
480.8412840202846
 10
319.7694886365718
 20
480.8412840202846
 10
319.7694886365718
 20
477.8412840202846
 10
347.6957949038428
 20
477.8412840202846
 97
        4
330
877
330
892
330
524
330
679
 92
        7
 72
     0
 73
     1
 93
        4
 10
319.7694886365718
 20
480.8412840202847
 10
310.8694886365718
 20
480.8412840202846
 10
310.8694886365718
 20
477.8412840202846
 10
319.7694886365719
 20
477.8412840202846
 97
        4
330
877
330
895
330
524
330
892
 92
        7
 72
     0
 73
     1
 93
        4
 10
185.8694886365718
 20
480.8412840202848
 10
164.8694886365719
 20
480.8412840202847
 10
164.8694886365719
 20
477.8412840202848
 10
185.8694886365718
 20
477.8412840202848
 97
        4
330
877
330
87F
330
524
330
881
 92
        7
 72
     0
 73
     1
 93
        4
 10
151.8694886365717
 20
480.8412840202848
 10
125.8694886365717
 20
480.8412840202847
 10
125.8694886365717
 20
477.8412840202846
 10
151.8694886365717
 20
477.8412840202845
 97
        4
330
859
330
85C
330
3C0
330
85E
 75
     0
 76
     1
 52
45.0
 41
15.0
 77
     0
 78
     2
 53
45.0
 43
0.0
 44
0.0
 45
-1.325825214724776
 46
1.325825214724776
 79
     0
 53
135.0
 43
0.0
 44
0.0
 45
-1.325825214724776
 46
-1.325825214724776
 79
     0
 47
0.3363216766453499
 98
        5
 10
355.5828911613071
 20
479.2058199317055
 10
338.4246650900691
 20
479.878462613726
 10
317.9020801965612
 20
479.878462613726
 10
180.9727140461127
 20
478.8694976127469
 10
148.6748771969983
 20
478.8694976127469
  0
LINE
  5
C37
330
1E
100
AcDbEntity
  8
HILF
100
AcDbLine
 10
367.3694886365718
 20
483.841284020287
 30
0.0
 11
367.3694886365718
 21
503.8412840202872
 31
0.0
  0
LINE
  5
C38
330
1E
100
AcDbEntity
  8
STEMPEL
100
AcDbLine
 10
368.3694886365718
 20
483.841284020287
 30
0.0
 11
368.3694886365718
 21
503.8412840202872
 31
0.0
  0
LINE
  5
C39
330
1E
100
AcDbEntity
  8
STEMPEL
100
AcDbLine
 10
366.3694886365719
 20
489.8412840202871
 30
0.0
 11
366.3694886365717
 21
497.8412840202872
 31
0.0
  0
LINE
  5
C3A
330
1E
100
AcDbEntity
  8
HILF
100
AcDbLine
 10
373.3694886365718
 20
483.841284020287
 30
0.0
 11
373.3694886365718
 21
503.8412840202872
 31
0.0
  0
LINE
  5
C3B
330
1E
100
AcDbEntity
  8
STEMPEL
100
AcDbLine
 10
372.3694886365718
 20
483.841284020287
 30
0.0
 11
372.3694886365718
 21
503.8412840202872
 31
0.0
  0
LINE
  5
C3C
330
1E
100
AcDbEntity
  8
STEMPEL
100
AcDbLine
 10
374.369488636572
 20
489.8412840202873
 30
0.0
 11
374.3694886365717
 21
497.8412840202872
 31
0.0
  0
HATCH
  5
C3D
330
1E
100
AcDbEntity
  8
SCHRAFF
100
AcDbHatch
 10
0.0
 20
0.0
 30
0.0
210
0.0
220
0.0
230
1.0
  2
_USER
 70
     0
 71
     0
 91
        4
 92
        7
 72
     0
 73
     1
 93
       12
 10
367.3694886365718
 20
503.8412840202872
 10
366.3694886365718
 20
503.8412840202872
 10
366.3694886365717
 20
500.8412840202872
 10
366.8694886365719
 20
500.8412840202872
 10
366.8694886365719
 20
497.8412840202872
 10
366.3694886365717
 20
497.8412840202872
 10
366.3694886365719
 20
489.8412840202872
 10
366.8694886365719
 20
489.8412840202872
 10
366.8694886365718
 20
486.8412840202873
 10
366.3694886365719
 20
486.8412840202873
 10
366.3694886365719
 20
483.8412840202868
 10
367.3694886365718
 20
483.8412840202868
 97
        0
 92
        7
 72
     0
 73
     1
 93
        5
 10
368.3694886365718
 20
503.8412840202872
 10
367.3694886365718
 20
503.841284020287
 10
367.3694886365718
 20
483.8412840202866
 10
367.5954088709735
 20
483.8412840202866
 10
368.3694886365718
 20
486.1049294742208
 97
        0
 92
        7
 72
     0
 73
     1
 93
        4
 10
373.3694886365718
 20
503.8412840202873
 10
372.3694886365718
 20
503.8412840202873
 10
372.3694886365718
 20
483.8412840202866
 10
373.3694886365718
 20
483.8412840202868
 97
        0
 92
        7
 72
     0
 73
     1
 93
       12
 10
374.3694886365718
 20
503.8412840202872
 10
373.3694886365717
 20
503.841284020287
 10
373.3694886365718
 20
483.8412840202866
 10
374.3694886365718
 20
483.8412840202866
 10
374.369488636572
 20
486.8412840202873
 10
373.8694886365719
 20
486.8412840202873
 10
373.8694886365719
 20
489.8412840202873
 10
374.369488636572
 20
489.8412840202874
 10
374.3694886365717
 20
497.8412840202872
 10
373.8694886365718
 20
497.8412840202872
 10
373.8694886365719
 20
500.8412840202872
 10
374.3694886365718
 20
500.8412840202872
 97
        0
 75
     0
 76
     0
 52
135.0
 41
1.0
 77
     0
 78
     1
 53
135.0
 43
23.36948863657193
 44
-19.18225159829893
 45
-0.7071067811865476
 46
-0.7071067811865475
 79
     0
 47
0.0527561546155446
 98
        4
 10
367.0314403756356
 20
502.2421147142359
 10
368.0872796083662
 20
502.2421147142359
 10
373.1553030286113
 20
502.5058950988585
 10
373.9999739696263
 20
502.4531381920749
  0
LINE
  5
C3E
330
1E
100
AcDbEntity
  8
STEMPEL
100
AcDbLine
 10
361.9300451692094
 20
503.8412840202872
 30
0.0
 11
361.7199751242962
 21
491.8063792074118
 31
0.0
  0
LINE
  5
C3F
330
1E
100
AcDbEntity
  8
STEMPEL
100
AcDbLine
 10
362.3694886365717
 20
503.8412840202861
 30
0.0
 11
362.1594185916584
 21
491.8063792074119
 31
0.0
  0
LINE
  5
C40
330
1E
100
AcDbEntity
  8
STEMPEL
100
AcDbLine
 10
378.3694886365717
 20
503.8412840202861
 30
0.0
 11
378.7097100862275
 21
484.3500102235049
 31
0.0
  0
ARC
  5
C41
330
1E
100
AcDbEntity
  8
STEMPEL
100
AcDbCircle
 10
360.1597232013456
 20
491.8412840202864
 30
0.0
 40
2.0
100
AcDbArc
 50
270.0
 51
359.0000000000015
  0
ARC
  5
C42
330
1E
100
AcDbEntity
  8
STEMPEL
100
AcDbCircle
 10
359.7202797339834
 20
491.8412840202863
 30
0.0
 40
2.0
100
AcDbArc
 50
270.0
 51
359.0000000000015
  0
LINE
  5
C43
330
1E
100
AcDbEntity
  8
STEMPEL
100
AcDbLine
 10
366.3694886365719
 20
483.8412840202873
 30
0.0
 11
366.3694886365719
 21
486.8412840202873
 31
0.0
  0
LINE
  5
C44
330
1E
100
AcDbEntity
  8
STEMPEL
100
AcDbLine
 10
366.8694886365719
 20
486.8412840202871
 30
0.0
 11
366.8694886365719
 21
489.8412840202872
 31
0.0
  0
LINE
  5
C45
330
1E
100
AcDbEntity
  8
STEMPEL
100
AcDbLine
 10
366.8694886365719
 20
486.8412840202873
 30
0.0
 11
366.3694886365719
 21
486.8412840202873
 31
0.0
  0
LINE
  5
C46
330
1E
100
AcDbEntity
  8
STEMPEL
100
AcDbLine
 10
366.8694886365719
 20
489.8412840202872
 30
0.0
 11
366.3694886365719
 21
489.8412840202872
 31
0.0
  0
LINE
  5
C47
330
1E
100
AcDbEntity
  8
STEMPEL
100
AcDbLine
 10
374.369488636572
 20
483.8412840202873
 30
0.0
 11
374.369488636572
 21
486.8412840202873
 31
0.0
  0
ARC
  5
C48
330
1E
100
AcDbEntity
  8
STEMPEL
100
AcDbCircle
 10
378.2097862386493
 20
484.3412840202863
 30
0.0
 40
0.5
100
AcDbArc
 50
270.0
 51
0.9999999999985053
  0
LINE
  5
C49
330
1E
100
AcDbEntity
  8
STEMPEL
100
AcDbLine
 10
373.8694886365719
 20
486.8412840202873
 30
0.0
 11
373.8694886365719
 21
489.8412840202874
 31
0.0
  0
LINE
  5
C4A
330
1E
100
AcDbEntity
  8
STEMPEL
100
AcDbLine
 10
374.369488636572
 20
486.8412840202873
 30
0.0
 11
373.8694886365718
 21
486.8412840202873
 31
0.0
  0
LINE
  5
C4B
330
1E
100
AcDbEntity
  8
STEMPEL
100
AcDbLine
 10
374.369488636572
 20
489.8412840202874
 30
0.0
 11
373.8694886365719
 21
489.8412840202873
 31
0.0
  0
LINE
  5
C4C
330
1E
100
AcDbEntity
  8
STEMPEL
100
AcDbLine
 10
361.9300451692094
 20
503.8412840202875
 30
0.0
 11
378.3694886365717
 21
503.8412840202861
 31
0.0
  0
LINE
  5
C4D
330
1E
100
AcDbEntity
  8
STEMPEL
100
AcDbLine
 10
366.8694886365719
 20
500.8412840202872
 30
0.0
 11
366.3694886365718
 21
500.8412840202872
 31
0.0
  0
LINE
  5
C4E
330
1E
100
AcDbEntity
  8
STEMPEL
100
AcDbLine
 10
366.3694886365717
 20
500.8412840202871
 30
0.0
 11
366.3694886365718
 21
503.8412840202872
 31
0.0
  0
LINE
  5
C4F
330
1E
100
AcDbEntity
  8
STEMPEL
100
AcDbLine
 10
366.8694886365719
 20
497.8412840202872
 30
0.0
 11
366.8694886365719
 21
500.8412840202873
 31
0.0
  0
LINE
  5
C50
330
1E
100
AcDbEntity
  8
STEMPEL
100
AcDbLine
 10
366.8694886365719
 20
497.8412840202872
 30
0.0
 11
366.3694886365718
 21
497.8412840202872
 31
0.0
  0
LINE
  5
C51
330
1E
100
AcDbEntity
  8
STEMPEL
100
AcDbLine
 10
373.8694886365719
 20
497.8412840202872
 30
0.0
 11
373.8694886365719
 21
500.8412840202873
 31
0.0
  0
LINE
  5
C52
330
1E
100
AcDbEntity
  8
STEMPEL
100
AcDbLine
 10
374.3694886365718
 20
497.8412840202872
 30
0.0
 11
373.8694886365719
 21
497.8412840202872
 31
0.0
  0
LINE
  5
C53
330
1E
100
AcDbEntity
  8
STEMPEL
100
AcDbLine
 10
374.3694886365718
 20
500.8412840202872
 30
0.0
 11
373.8694886365719
 21
500.8412840202872
 31
0.0
  0
LINE
  5
C54
330
1E
100
AcDbEntity
  8
STEMPEL
100
AcDbLine
 10
374.3694886365717
 20
500.8412840202872
 30
0.0
 11
374.3694886365718
 21
503.8412840202872
 31
0.0
  0
HATCH
  5
C55
330
1E
100
AcDbEntity
  8
SCHRAFF
100
AcDbHatch
 10
0.0
 20
0.0
 30
0.0
210
0.0
220
0.0
230
1.0
  2
_USER
 70
     0
 71
     0
 91
        5
 92
        7
 72
     1
 73
     1
 93
       13
 10
310.8694886365719
 20
483.841284020286
 42
0.0
 10
366.3694886365719
 20
483.8412840202862
 42
0.0
 10
366.3694886365719
 20
486.8412840202873
 42
0.0
 10
366.8694886365719
 20
486.8412840202873
 42
0.0
 10
366.8694886365719
 20
489.8412840202872
 42
0.0
 10
366.3694886365719
 20
489.8412840202872
 42
0.0
 10
366.3694886365718
 20
497.4142167875422
 42
0.0
 10
362.3293607566208
 20
501.5423593175756
 42
0.0
 10
362.1594185916584
 20
491.8063792074119
 42
-0.4091108014277168
 10
360.1597232013456
 20
489.8412840202864
 42
0.0
 10
316.3694886365718
 20
489.8412840202861
 42
0.0
 10
314.8694886365709
 20
518.8412840202865
 42
0.0
 10
312.3694886365708
 20
518.8412840202864
 42
0.0
 97
        0
 92
        7
 72
     0
 73
     1
 93
        6
 10
165.3694886365713
 20
489.8412840202861
 10
165.3694886365713
 20
483.8412840202849
 10
185.8694886365718
 20
483.841284020285
 10
184.3694886365709
 20
518.8412840202864
 10
181.8694886365713
 20
518.8412840202861
 10
180.3694886365718
 20
489.8412840202862
 97
        0
 92
        7
 72
     1
 73
     1
 93
        6
 10
151.3694886365713
 20
483.8412840202847
 42
0.0
 10
151.3694886365716
 20
489.841284020286
 42
0.0
 10
131.3694886365724
 20
489.841284020286
 42
0.414213562373094
 10
130.8694886365724
 20
489.341284020286
 42
0.0
 10
130.8694886365724
 20
484.3412840202847
 42
0.4142135623730971
 10
131.3694886365724
 20
483.8412840202847
 42
0.0
 97
        0
 92
        7
 72
     1
 73
     1
 93
       13
 10
378.3694886365717
 20
503.841284020286
 42
0.0
 10
374.3694886365718
 20
503.8412840202864
 42
0.0
 10
374.3694886365717
 20
500.8412840202872
 42
0.0
 10
373.8694886365719
 20
500.8412840202872
 42
0.0
 10
373.8694886365719
 20
497.8412840202872
 42
0.0
 10
374.3694886365717
 20
497.8412840202872
 42
0.0
 10
374.369488636572
 20
489.8412840202874
 42
0.0
 10
373.8694886365719
 20
489.8412840202873
 42
0.0
 10
373.869488636572
 20
486.8412840202873
 42
0.0
 10
374.369488636572
 20
486.8412840202873
 42
0.0
 10
374.369488636572
 20
483.8412840202863
 42
0.0
 10
378.2097862386493
 20
483.8412840202862
 42
0.4193348017583757
 10
378.7097100862275
 20
484.3500102235049
 42
0.0
 97
        0
 92
       23
 72
     0
 73
     1
 93
        8
 10
362.3694886365717
 20
503.8412840202875
 10
362.3293607566209
 20
501.5423593175756
 10
366.3694886365717
 20
497.4142167875424
 10
366.3694886365717
 20
497.8412840202873
 10
366.8694886365719
 20
497.8412840202872
 10
366.8694886365719
 20
500.8412840202872
 10
366.3694886365717
 20
500.8412840202872
 10
366.3694886365718
 20
503.8412840202871
 97
        0
 75
     0
 76
     0
 52
45.0
 41
5.0
 77
     0
 78
     1
 53
45.0
 43
46.9410989683439
 44
14.19257825758717
 45
-3.535533905932737
 46
3.535533905932737
 79
     0
 47
0.2836031840932441
 98
        5
 10
312.7547344340763
 20
502.5874823074816
 10
172.3235244967956
 20
486.9893072512328
 10
139.1306921156562
 20
486.7057035905654
 10
377.1545015349606
 20
494.9301959180997
 10
365.2391248126668
 20
502.8710859681493
  0
LINE
  5
C56
330
1E
100
AcDbEntity
  8
STEMPEL
100
AcDbLine
 10
181.869488636571
 20
518.8412840202861
 30
0.0
 11
314.8694886365709
 21
518.8412840202864
 31
0.0
  0
LINE
  5
C57
330
1E
100
AcDbEntity
  8
STEMPEL
100
AcDbLine
 10
131.3694886365724
 20
483.8412840202847
 30
0.0
 11
153.3694886365719
 21
483.8412840202848
 31
0.0
  0
LINE
  5
C58
330
1E
100
AcDbEntity
  8
STEMPEL
100
AcDbLine
 10
312.3694886365709
 20
518.8412840202864
 30
0.0
 11
310.8694886365719
 21
483.8412840202858
 31
0.0
  0
LINE
  5
C59
330
1E
100
AcDbEntity
  8
STEMPEL
100
AcDbLine
 10
314.8694886365709
 20
518.8412840202864
 30
0.0
 11
316.3694886365718
 21
489.8412840202862
 31
0.0
  0
LINE
  5
C5A
330
1E
100
AcDbEntity
  8
STEMPEL
100
AcDbLine
 10
316.3694886365718
 20
489.8412840202862
 30
0.0
 11
360.1597232013456
 21
489.8412840202864
 31
0.0
  0
LINE
  5
C5B
330
1E
100
AcDbEntity
  8
STEMPEL
100
AcDbLine
 10
181.8694886365712
 20
518.8412840202842
 30
0.0
 11
180.3694886365718
 21
489.8412840202862
 31
0.0
  0
LINE
  5
C5C
330
1E
100
AcDbEntity
  8
STEMPEL
100
AcDbLine
 10
184.369488636571
 20
518.8412840202861
 30
0.0
 11
185.8694886365718
 21
483.8412840202849
 31
0.0
  0
LINE
  5
C5D
330
1E
100
AcDbEntity
  8
STEMPEL
100
AcDbLine
 10
131.3694886365724
 20
489.841284020286
 30
0.0
 11
180.3694886365718
 21
489.8412840202862
 31
0.0
  0
LINE
  5
C5E
330
1E
100
AcDbEntity
  8
STEMPEL
100
AcDbLine
 10
162.789679112611
 20
503.8412840202856
 30
0.0
 11
162.814909019239
 21
502.3958636376175
 31
0.0
  0
LINE
  5
C5F
330
1E
100
AcDbEntity
  8
STEMPEL
100
AcDbLine
 10
153.4031004371579
 20
503.8412840202865
 30
0.0
 11
153.4031004371579
 21
501.8748958208707
 31
0.0
  0
LINE
  5
C60
330
1E
100
AcDbEntity
  8
STEMPEL
100
AcDbLine
 10
140.5589351807043
 20
503.8412840202873
 30
0.0
 11
140.3145642717096
 21
489.841284020286
 31
0.0
  0
LINE
  5
C61
330
1E
100
AcDbEntity
  8
STEMPEL
100
AcDbLine
 10
130.8694886365724
 20
484.3412840202847
 30
0.0
 11
130.8694886365724
 21
489.341284020286
 31
0.0
  0
ARC
  5
C62
330
1E
100
AcDbEntity
  8
STEMPEL
100
AcDbCircle
 10
131.3694886365724
 20
484.3412840202847
 30
0.0
 40
0.5
100
AcDbArc
 50
180.0
 51
270.0
  0
ARC
  5
C63
330
1E
100
AcDbEntity
  8
STEMPEL
100
AcDbCircle
 10
131.3694886365724
 20
489.341284020286
 30
0.0
 40
0.5
100
AcDbArc
 50
90.0
 51
180.0
  0
LINE
  5
C64
330
1E
100
AcDbEntity
  8
STEMPEL
100
AcDbLine
 10
151.3694886365716
 20
489.8412840202865
 30
0.0
 11
151.3694886365713
 21
483.8412840202845
 31
0.0
  0
LINE
  5
C66
330
1E
100
AcDbEntity
  8
STEMPEL
100
AcDbLine
 10
165.3694886365713
 20
489.8412840202865
 30
0.0
 11
165.3694886365713
 21
483.8412840202847
 31
0.0
  0
LINE
  5
C68
330
1E
100
AcDbEntity
  8
STEMPEL
100
AcDbLine
 10
140.5589351807043
 20
503.8412840202873
 30
0.0
 11
162.789679112611
 21
503.8412840202856
 31
0.0
  0
LINE
  5
C69
330
1E
100
AcDbEntity
  8
STEMPEL
100
AcDbLine
 10
163.3694886365719
 20
483.8412840202849
 30
0.0
 11
378.2097862386493
 21
483.8412840202862
 31
0.0
  0
ENDSEC
  0
SECTION
  2
OBJECTS
  0
DICTIONARY
  5
C
330
0
100
AcDbDictionary
281
     1
  3
ACAD_COLOR
350
11A
  3
ACAD_GROUP
350
D
  3
ACAD_LAYOUT
350
19
  3
ACAD_MATERIAL
350
119
  3
ACAD_MLINESTYLE
350
16
  3
ACAD_PLOTSETTINGS
350
18
  3
ACAD_PLOTSTYLENAME
350
E
  3
AcDbVariableDictionary
350
125
  0
DICTIONARY
  5
DB
330
1E
100
AcDbDictionary
280
     1
281
     1
  3
ACAD_LAYOUTSELFREF
360
10F
  0
DICTIONARY
  5
DD
330
1A
100
AcDbDictionary
280
     1
281
     1
  3
ACAD_LAYOUTSELFREF
360
10E
  0
DICTIONARY
  5
11A
102
{ACAD_REACTORS
330
C
102
}
330
C
100
AcDbDictionary
281
     1
  0
DICTIONARY
  5
D
102
{ACAD_REACTORS
330
C
102
}
330
C
100
AcDbDictionary
281
     1
  0
DICTIONARY
  5
19
102
{ACAD_REACTORS
330
C
102
}
330
C
100
AcDbDictionary
281
     1
  3
Layout1
350
1D
  3
Model
350
21
  0
DICTIONARY
  5
119
102
{ACAD_REACTORS
330
C
102
}
330
C
100
AcDbDictionary
281
     1
  0
DICTIONARY
  5
16
102
{ACAD_REACTORS
330
C
102
}
330
C
100
AcDbDictionary
281
     1
  3
Standard
350
17
  0
DICTIONARY
  5
18
102
{ACAD_REACTORS
330
C
102
}
330
C
100
AcDbDictionary
281
     1
  0
ACDBDICTIONARYWDFLT
  5
E
102
{ACAD_REACTORS
330
C
102
}
330
C
100
AcDbDictionary
281
     1
  3
Normal
350
F
100
AcDbDictionaryWithDefault
340
F
  0
DICTIONARY
  5
125
102
{ACAD_REACTORS
330
C
102
}
330
C
100
AcDbDictionary
281
     1
  3
DIMASSOC
350
126
  3
PROJECTNAME
350
127
  0
XRECORD
  5
10F
102
{ACAD_REACTORS
330
DB
102
}
330
DB
100
AcDbXrecord
280
     1
340
1E
  0
XRECORD
  5
10E
102
{ACAD_REACTORS
330
DD
102
}
330
DD
100
AcDbXrecord
280
     1
340
1A
  0
LAYOUT
  5
1D
102
{ACAD_REACTORS
330
19
102
}
330
19
100
AcDbPlotSettings
  1

  2
\\NT_WORK01\HP LaserJet 5000 PCL 6
  4

  6

 40
0.0
 41
0.0
 42
0.0
 43
0.0
 44
0.0
 45
0.0
 46
0.0
 47
0.0
 48
0.0
 49
0.0
140
0.0
141
0.0
142
1.0
143
1.0
 70
   688
 72
     0
 73
     0
 74
     5
  7

 75
    16
147
1.0
 76
     0
 77
     2
 78
   300
148
0.0
149
0.0
100
AcDbLayout
  1
Layout1
 70
     0
 71
     1
 10
0.0
 20
0.0
 11
12.0
 21
9.0
 12
0.0
 22
0.0
 32
0.0
 14
1.000000000000000E+20
 24
1.000000000000000E+20
 34
1.000000000000000E+20
 15
-1.000000000000000E+20
 25
-1.000000000000000E+20
 35
-1.000000000000000E+20
146
0.0
 13
0.0
 23
0.0
 33
0.0
 16
1.0
 26
0.0
 36
0.0
 17
0.0
 27
1.0
 37
0.0
 76
     0
330
1A
  0
LAYOUT
  5
21
102
{ACAD_REACTORS
330
19
102
}
330
19
100
AcDbPlotSettings
  1

  2
none_device
  4
Letter_(8.50_x_11.00_Inches)
  6

 40
6.349999904632568
 41
6.349999904632568
 42
6.350006103515625
 43
6.350006103515625
 44
215.8999938964844
 45
279.3999938964844
 46
0.0
 47
0.0
 48
0.0
 49
0.0
140
0.0
141
0.0
142
1.0
143
1.0
 70
 11952
 72
     0
 73
     1
 74
     0
  7

 75
     0
147
1.0
 76
     0
 77
     2
 78
   300
148
3124.2
149
0.0
100
AcDbLayout
  1
Model
 70
     1
 71
     0
 10
0.0
 20
0.0
 11
12.0
 21
9.0
 12
0.0
 22
0.0
 32
0.0
 14
0.0
 24
0.0
 34
0.0
 15
0.0
 25
0.0
 35
0.0
146
0.0
 13
0.0
 23
0.0
 33
0.0
 16
1.0
 26
0.0
 36
0.0
 17
0.0
 27
1.0
 37
0.0
 76
     0
330
1E
  0
MLINESTYLE
  5
17
102
{ACAD_REACTORS
330
16
102
}
330
16
100
AcDbMlineStyle
  2
STANDARD
 70
     0
  3

 62
   256
 51
90.0
 52
90.0
 71
     2
 49
0.5
 62
   256
  6
BYLAYER
 49
-0.5
 62
   256
  6
BYLAYER
  0
ACDBPLACEHOLDER
  5
F
102
{ACAD_REACTORS
330
E
102
}
330
E
  0
DICTIONARYVAR
  5
126
102
{ACAD_REACTORS
330
125
102
}
330
125
100
DictionaryVariables
280
     0
  1
1
  0
DICTIONARYVAR
  5
127
102
{ACAD_REACTORS
330
125
102
}
330
125
100
DictionaryVariables
280
     0
  1

  0
ENDSEC
  0
EOF
