  0
SECTION
  2
HEADER
  9
$ACADVER
  1
AC1018
  9
$ACADMAINTVER
 70
     2
  9
$DWGCODEPAGE
  3
ANSI_1252
  9
$INSBASE
 10
0.0
 20
0.0
 30
0.0
  9
$EXTMIN
 10
0.0
 20
-0.0000000000000568
 30
0.0
  9
$EXTMAX
 10
594.0
 20
840.0
 30
0.0
  9
$LIMMIN
 10
0.0
 20
0.0
  9
$LIMMAX
 10
594.0
 20
840.0
  9
$ORTHOMODE
 70
     1
  9
$REGENMODE
 70
     1
  9
$FILLMODE
 70
     1
  9
$QTEXTMODE
 70
     0
  9
$MIRRTEXT
 70
     1
  9
$LTSCALE
 40
20.0
  9
$ATTMODE
 70
     1
  9
$TEXTSIZE
 40
3.5
  9
$TRACEWID
 40
1.0
  9
$TEXTSTYLE
  7
STANDARD
  9
$CLAYER
  8
SCHRAFF
  9
$CELTYPE
  6
ByLayer
  9
$CECOLOR
 62
   256
  9
$CELTSCALE
 40
1.0
  9
$DISPSILH
 70
     0
  9
$DIMSCALE
 40
2.0
  9
$DIMASZ
 40
3.5
  9
$DIMEXO
 40
1.0
  9
$DIMDLI
 40
7.0
  9
$DIMRND
 40
0.0
  9
$DIMDLE
 40
0.0
  9
$DIMEXE
 40
1.0
  9
$DIMTP
 40
0.0
  9
$DIMTM
 40
0.0
  9
$DIMTXT
 40
3.5
  9
$DIMCEN
 40
1.5
  9
$DIMTSZ
 40
0.0
  9
$DIMTOL
 70
     0
  9
$DIMLIM
 70
     0
  9
$DIMTIH
 70
     0
  9
$DIMTOH
 70
     0
  9
$DIMSE1
 70
     0
  9
$DIMSE2
 70
     0
  9
$DIMTAD
 70
     1
  9
$DIMZIN
 70
     8
  9
$DIMBLK
  1

  9
$DIMASO
 70
     1
  9
$DIMSHO
 70
     0
  9
$DIMPOST
  1

  9
$DIMAPOST
  1

  9
$DIMALT
 70
     0
  9
$DIMALTD
 70
     2
  9
$DIMALTF
 40
25.4
  9
$DIMLFAC
 40
1.0
  9
$DIMTOFL
 70
     1
  9
$DIMTVP
 40
0.0
  9
$DIMTIX
 70
     0
  9
$DIMSOXD
 70
     0
  9
$DIMSAH
 70
     0
  9
$DIMBLK1
  1

  9
$DIMBLK2
  1

  9
$DIMSTYLE
  2
Standard
  9
$DIMCLRD
 70
     0
  9
$DIMCLRE
 70
     0
  9
$DIMCLRT
 70
     1
  9
$DIMTFAC
 40
0.5
  9
$DIMGAP
 40
1.5
  9
$DIMJUST
 70
     0
  9
$DIMSD1
 70
     0
  9
$DIMSD2
 70
     0
  9
$DIMTOLJ
 70
     1
  9
$DIMTZIN
 70
     8
  9
$DIMALTZ
 70
     8
  9
$DIMALTTZ
 70
     8
  9
$DIMUPT
 70
     0
  9
$DIMDEC
 70
     2
  9
$DIMTDEC
 70
     2
  9
$DIMALTU
 70
     2
  9
$DIMALTTD
 70
     2
  9
$DIMTXSTY
  7
STANDARD
  9
$DIMAUNIT
 70
     0
  9
$DIMADEC
 70
     2
  9
$DIMALTRND
 40
0.0
  9
$DIMAZIN
 70
     2
  9
$DIMDSEP
 70
    46
  9
$DIMATFIT
 70
     3
  9
$DIMFRAC
 70
     0
  9
$DIMLDRBLK
  1

  9
$DIMLUNIT
 70
     2
  9
$DIMLWD
 70
    -2
  9
$DIMLWE
 70
    -2
  9
$DIMTMOVE
 70
     0
  9
$LUNITS
 70
     2
  9
$LUPREC
 70
     2
  9
$SKETCHINC
 40
1.0
  9
$FILLETRAD
 40
0.0
  9
$AUNITS
 70
     0
  9
$AUPREC
 70
     0
  9
$MENU
  1
ACAD
  9
$ELEVATION
 40
0.0
  9
$PELEVATION
 40
0.0
  9
$THICKNESS
 40
0.0
  9
$LIMCHECK
 70
     0
  9
$CHAMFERA
 40
0.0
  9
$CHAMFERB
 40
0.0
  9
$CHAMFERC
 40
0.0
  9
$CHAMFERD
 40
0.0
  9
$SKPOLY
 70
     0
  9
$TDCREATE
 40
2455397.825393172
  9
$TDUCREATE
 40
2455397.783726505
  9
$TDUPDATE
 40
2455593.606176805
  9
$TDUUPDATE
 40
2455593.564510139
  9
$TDINDWG
 40
0.1151742824
  9
$TDUSRTIMER
 40
0.1151742824
  9
$USRTIMER
 70
     1
  9
$ANGBASE
 50
0.0
  9
$ANGDIR
 70
     0
  9
$PDMODE
 70
     0
  9
$PDSIZE
 40
0.0
  9
$PLINEWID
 40
0.0
  9
$SPLFRAME
 70
     0
  9
$SPLINETYPE
 70
     6
  9
$SPLINESEGS
 70
     8
  9
$HANDSEED
  5
F7B
  9
$SURFTAB1
 70
     6
  9
$SURFTAB2
 70
     6
  9
$SURFTYPE
 70
     6
  9
$SURFU
 70
     6
  9
$SURFV
 70
     6
  9
$UCSBASE
  2

  9
$UCSNAME
  2

  9
$UCSORG
 10
0.0
 20
0.0
 30
0.0
  9
$UCSXDIR
 10
1.0
 20
0.0
 30
0.0
  9
$UCSYDIR
 10
0.0
 20
1.0
 30
0.0
  9
$UCSORTHOREF
  2

  9
$UCSORTHOVIEW
 70
     0
  9
$UCSORGTOP
 10
0.0
 20
0.0
 30
0.0
  9
$UCSORGBOTTOM
 10
0.0
 20
0.0
 30
0.0
  9
$UCSORGLEFT
 10
0.0
 20
0.0
 30
0.0
  9
$UCSORGRIGHT
 10
0.0
 20
0.0
 30
0.0
  9
$UCSORGFRONT
 10
0.0
 20
0.0
 30
0.0
  9
$UCSORGBACK
 10
0.0
 20
0.0
 30
0.0
  9
$PUCSBASE
  2

  9
$PUCSNAME
  2

  9
$PUCSORG
 10
0.0
 20
0.0
 30
0.0
  9
$PUCSXDIR
 10
1.0
 20
0.0
 30
0.0
  9
$PUCSYDIR
 10
0.0
 20
1.0
 30
0.0
  9
$PUCSORTHOREF
  2

  9
$PUCSORTHOVIEW
 70
     0
  9
$PUCSORGTOP
 10
0.0
 20
0.0
 30
0.0
  9
$PUCSORGBOTTOM
 10
0.0
 20
0.0
 30
0.0
  9
$PUCSORGLEFT
 10
0.0
 20
0.0
 30
0.0
  9
$PUCSORGRIGHT
 10
0.0
 20
0.0
 30
0.0
  9
$PUCSORGFRONT
 10
0.0
 20
0.0
 30
0.0
  9
$PUCSORGBACK
 10
0.0
 20
0.0
 30
0.0
  9
$USERI1
 70
     0
  9
$USERI2
 70
     0
  9
$USERI3
 70
     0
  9
$USERI4
 70
     0
  9
$USERI5
 70
     0
  9
$USERR1
 40
0.0
  9
$USERR2
 40
0.0
  9
$USERR3
 40
0.0
  9
$USERR4
 40
0.0
  9
$USERR5
 40
0.0
  9
$WORLDVIEW
 70
     1
  9
$SHADEDGE
 70
     3
  9
$SHADEDIF
 70
    70
  9
$TILEMODE
 70
     1
  9
$MAXACTVP
 70
    16
  9
$PINSBASE
 10
0.0
 20
0.0
 30
0.0
  9
$PLIMCHECK
 70
     0
  9
$PEXTMIN
 10
1.000000000000000E+20
 20
1.000000000000000E+20
 30
1.000000000000000E+20
  9
$PEXTMAX
 10
-1.000000000000000E+20
 20
-1.000000000000000E+20
 30
-1.000000000000000E+20
  9
$PLIMMIN
 10
0.0
 20
0.0
  9
$PLIMMAX
 10
12.0
 20
9.0
  9
$UNITMODE
 70
     0
  9
$VISRETAIN
 70
     0
  9
$PLINEGEN
 70
     0
  9
$PSLTSCALE
 70
     0
  9
$TREEDEPTH
 70
  3020
  9
$CMLSTYLE
  2
Standard
  9
$CMLJUST
 70
     0
  9
$CMLSCALE
 40
1.0
  9
$PROXYGRAPHICS
 70
     1
  9
$MEASUREMENT
 70
     0
  9
$CELWEIGHT
370
    -1
  9
$ENDCAPS
280
     0
  9
$JOINSTYLE
280
     0
  9
$LWDISPLAY
290
     0
  9
$INSUNITS
 70
     0
  9
$HYPERLINKBASE
  1

  9
$STYLESHEET
  1
monochrome 1.ctb
  9
$XEDIT
290
     1
  9
$CEPSNTYPE
380
     0
  9
$PSTYLEMODE
290
     1
  9
$FINGERPRINTGUID
  2
{D68B0D0D-A558-11D7-B632-000102183313}
  9
$VERSIONGUID
  2
{63F1D325-273F-46FB-A161-F3821DD3D238}
  9
$EXTNAMES
290
     1
  9
$PSVPSCALE
 40
0.0
  9
$OLESTARTUP
290
     0
  9
$SORTENTS
280
   127
  9
$INDEXCTL
280
     0
  9
$HIDETEXT
280
     0
  9
$XCLIPFRAME
290
     0
  9
$HALOGAP
280
     0
  9
$OBSCOLOR
 70
   257
  9
$OBSLTYPE
280
     0
  9
$INTERSECTIONDISPLAY
280
     0
  9
$INTERSECTIONCOLOR
 70
   257
  9
$DIMASSOC
280
     1
  9
$PROJECTNAME
  1

  0
ENDSEC
  0
SECTION
  2
CLASSES
  0
CLASS
  1
ACDBDICTIONARYWDFLT
  2
AcDbDictionaryWithDefault
  3
ObjectDBX Classes
 90
        0
 91
        1
280
     0
281
     0
  0
CLASS
  1
DICTIONARYVAR
  2
AcDbDictionaryVar
  3
ObjectDBX Classes
 90
        0
 91
        2
280
     0
281
     0
  0
ENDSEC
  0
SECTION
  2
TABLES
  0
TABLE
  2
VPORT
  5
8
330
0
100
AcDbSymbolTable
 70
     2
  0
VPORT
  5
F7A
330
8
100
AcDbSymbolTableRecord
100
AcDbViewportTableRecord
  2
*Active
 70
     0
 10
0.0
 20
0.0
 11
1.0
 21
1.0
 12
296.9999999999999
 22
420.0
 13
0.0
 23
0.0
 14
1.0
 24
1.0
 15
10.0
 25
10.0
 16
0.0
 26
0.0
 36
1.0
 17
0.0
 27
0.0
 37
0.0
 40
840.0840529888156
 41
1.336927223719676
 42
50.0
 43
0.0
 44
0.0
 50
0.0
 51
0.0
 71
     0
 72
  1500
 73
     1
 74
     0
 75
     0
 76
     0
 77
     0
 78
     0
281
     0
 65
     1
110
0.0
120
0.0
130
0.0
111
1.0
121
0.0
131
0.0
112
0.0
122
1.0
132
0.0
 79
     0
146
0.0
  0
ENDTAB
  0
TABLE
  2
LTYPE
  5
5
330
0
100
AcDbSymbolTable
 70
     3
  0
LTYPE
  5
13
330
5
100
AcDbSymbolTableRecord
100
AcDbLinetypeTableRecord
  2
ByBlock
 70
     0
  3

 72
    65
 73
     0
 40
0.0
  0
LTYPE
  5
14
330
5
100
AcDbSymbolTableRecord
100
AcDbLinetypeTableRecord
  2
ByLayer
 70
     0
  3

 72
    65
 73
     0
 40
0.0
  0
LTYPE
  5
15
330
5
100
AcDbSymbolTableRecord
100
AcDbLinetypeTableRecord
  2
Continuous
 70
     0
  3
Solid line
 72
    65
 73
     0
 40
0.0
  0
LTYPE
  5
25
330
5
100
AcDbSymbolTableRecord
100
AcDbLinetypeTableRecord
  2
STRICHPUNKT
 70
     0
  3
__ . __ . __ . __ . __ . __ . __ . __ . __ . __
 72
    65
 73
     4
 40
1.0
 49
0.5
 74
     0
 49
-0.25
 74
     0
 49
0.0
 74
     0
 49
-0.25
 74
     0
  0
LTYPE
  5
34
330
5
100
AcDbSymbolTableRecord
100
AcDbLinetypeTableRecord
  2
AUSGEZOGEN
 70
     0
  3
Ausgezogene Linie
 72
    65
 73
     0
 40
0.0
  0
ENDTAB
  0
TABLE
  2
LAYER
  5
2
330
0
100
AcDbSymbolTable
 70
     9
  0
LAYER
  5
10
330
2
100
AcDbSymbolTableRecord
100
AcDbLayerTableRecord
  2
0
 70
     0
 62
     7
  6
Continuous
370
    -3
390
F
  0
LAYER
  5
2B
330
2
100
AcDbSymbolTableRecord
100
AcDbLayerTableRecord
  2
VOLL
 70
     0
 62
     1
  6
Continuous
370
    -3
390
F
  0
LAYER
  5
2C
330
2
100
AcDbSymbolTableRecord
100
AcDbLayerTableRecord
  2
HILF
 70
     0
 62
     2
  6
Continuous
370
    -3
390
F
  0
LAYER
  5
2D
330
2
100
AcDbSymbolTableRecord
100
AcDbLayerTableRecord
  2
MITTEL
 70
     0
 62
     2
  6
STRICHPUNKT
370
    -3
390
F
  0
LAYER
  5
2F
330
2
100
AcDbSymbolTableRecord
100
AcDbLayerTableRecord
  2
BEM
 70
     0
 62
     7
  6
Continuous
370
    -3
390
F
  0
LAYER
  5
30
330
2
100
AcDbSymbolTableRecord
100
AcDbLayerTableRecord
  2
STEMPEL
 70
     0
 62
     3
  6
Continuous
370
    -3
390
F
  0
LAYER
  5
33
330
2
100
AcDbSymbolTableRecord
100
AcDbLayerTableRecord
  2
TEXT
 70
     0
 62
     7
  6
Continuous
370
    -3
390
F
  0
LAYER
  5
205
330
2
100
AcDbSymbolTableRecord
100
AcDbLayerTableRecord
  2
DEFPOINTS
 70
     0
 62
     7
  6
AUSGEZOGEN
290
     0
370
    -3
390
F
  0
LAYER
  5
206
330
2
100
AcDbSymbolTableRecord
100
AcDbLayerTableRecord
  2
SCHRAFF
 70
     0
 62
     7
  6
AUSGEZOGEN
370
    -3
390
F
  0
ENDTAB
  0
TABLE
  2
STYLE
  5
3
330
0
100
AcDbSymbolTable
 70
     2
  0
STYLE
  5
11
330
3
100
AcDbSymbolTableRecord
100
AcDbTextStyleTableRecord
  2
STANDARD
 70
     0
 40
0.0
 41
0.8
 50
0.0
 71
     0
 42
3.5
  3
simplex.shx
  4

  0
STYLE
  5
24
330
3
100
AcDbSymbolTableRecord
100
AcDbTextStyleTableRecord
  2
GREEKS
 70
     0
 40
0.0
 41
0.8
 50
0.0
 71
     0
 42
2.5
  3
SIMPLEX.shx
  4

  0
ENDTAB
  0
TABLE
  2
VIEW
  5
6
330
0
100
AcDbSymbolTable
 70
     0
  0
ENDTAB
  0
TABLE
  2
UCS
  5
7
330
0
100
AcDbSymbolTable
 70
     0
  0
ENDTAB
  0
TABLE
  2
APPID
  5
9
330
0
100
AcDbSymbolTable
 70
     1
  0
APPID
  5
12
330
9
100
AcDbSymbolTableRecord
100
AcDbRegAppTableRecord
  2
ACAD
 70
     0
  0
ENDTAB
  0
TABLE
  2
DIMSTYLE
  5
A
330
0
100
AcDbSymbolTable
 70
     1
100
AcDbDimStyleTable
 71
     1
340
A2
  0
DIMSTYLE
105
A2
102
{ACAD_REACTORS
330
5A4
330
5A5
330
5AE
330
4AE
330
4C8
330
567
330
568
330
E55
330
E5C
330
E62
102
}
330
A
100
AcDbSymbolTableRecord
100
AcDbDimStyleTableRecord
  2
Standard
 70
     0
340
11
  0
ENDTAB
  0
TABLE
  2
BLOCK_RECORD
  5
1
330
0
100
AcDbSymbolTable
 70
    12
  0
BLOCK_RECORD
  5
1E
102
{ACAD_XDICTIONARY
360
DB
102
}
330
1
100
AcDbSymbolTableRecord
100
AcDbBlockTableRecord
  2
*Model_Space
340
21
  0
BLOCK_RECORD
  5
1A
102
{ACAD_XDICTIONARY
360
DD
102
}
330
1
100
AcDbSymbolTableRecord
100
AcDbBlockTableRecord
  2
*Paper_Space
340
1D
  0
BLOCK_RECORD
  5
22
330
1
100
AcDbSymbolTableRecord
100
AcDbBlockTableRecord
  2
LOGO
340
0
102
{BLKREFS
331
56
102
}
  0
BLOCK_RECORD
  5
23
330
1
100
AcDbSymbolTableRecord
100
AcDbBlockTableRecord
  2
LORO
340
0
102
{BLKREFS
331
9B
102
}
  0
BLOCK_RECORD
  5
743
330
1
100
AcDbSymbolTableRecord
100
AcDbBlockTableRecord
  2
*D2
340
0
  0
BLOCK_RECORD
  5
74F
330
1
100
AcDbSymbolTableRecord
100
AcDbBlockTableRecord
  2
*D3
340
0
  0
BLOCK_RECORD
  5
75B
330
1
100
AcDbSymbolTableRecord
100
AcDbBlockTableRecord
  2
*D4
340
0
  0
BLOCK_RECORD
  5
773
330
1
100
AcDbSymbolTableRecord
100
AcDbBlockTableRecord
  2
*D5
340
0
  0
BLOCK_RECORD
  5
784
330
1
100
AcDbSymbolTableRecord
100
AcDbBlockTableRecord
  2
*D6
340
0
  0
BLOCK_RECORD
  5
79C
330
1
100
AcDbSymbolTableRecord
100
AcDbBlockTableRecord
  2
*D7
340
0
  0
BLOCK_RECORD
  5
7A8
330
1
100
AcDbSymbolTableRecord
100
AcDbBlockTableRecord
  2
*D8
340
0
  0
BLOCK_RECORD
  5
E6C
330
1
100
AcDbSymbolTableRecord
100
AcDbBlockTableRecord
  2
*D9
340
0
  0
BLOCK_RECORD
  5
E78
330
1
100
AcDbSymbolTableRecord
100
AcDbBlockTableRecord
  2
*D10
340
0
  0
BLOCK_RECORD
  5
E84
330
1
100
AcDbSymbolTableRecord
100
AcDbBlockTableRecord
  2
*D11
340
0
  0
ENDTAB
  0
ENDSEC
  0
SECTION
  2
BLOCKS
  0
BLOCK
  5
37
330
1E
100
AcDbEntity
  8
0
100
AcDbBlockBegin
  2
*Model_Space
 70
     0
 10
0.0
 20
0.0
 30
0.0
  3
*Model_Space
  1

  0
ENDBLK
  5
38
330
1E
100
AcDbEntity
  8
0
100
AcDbBlockEnd
  0
BLOCK
  5
35
330
1A
100
AcDbEntity
 67
     1
  8
0
100
AcDbBlockBegin
  2
*Paper_Space
 70
     0
 10
0.0
 20
0.0
 30
0.0
  3
*Paper_Space
  1

  0
ENDBLK
  5
36
330
1A
100
AcDbEntity
 67
     1
  8
0
100
AcDbBlockEnd
  0
BLOCK
  5
39
330
22
100
AcDbEntity
  8
0
100
AcDbBlockBegin
  2
LOGO
 70
     0
 10
0.0
 20
0.0
 30
0.0
  3
LOGO
  1

  0
ARC
  5
3A
330
22
100
AcDbEntity
  8
0
100
AcDbCircle
 10
11.59973089678112
 20
-9.271599258481501
 30
0.0
 40
4.5
100
AcDbArc
 50
270.0
 51
231.0575587310159
  0
LINE
  5
3B
330
22
100
AcDbEntity
  8
0
100
AcDbLine
 10
3.599730896781125
 20
-4.771599258481529
 30
0.0
 11
3.599730896781153
 21
-11.77159925848133
 31
0.0
  0
LINE
  5
3C
330
22
100
AcDbEntity
  8
0
100
AcDbLine
 10
2.599730896781125
 20
-4.771599258481529
 30
0.0
 11
2.599730896781153
 21
-11.77159925848133
 31
0.0
  0
CIRCLE
  5
3D
330
22
100
AcDbEntity
  8
0
100
AcDbCircle
 10
11.59973089678112
 20
-9.271599258481501
 30
0.0
 40
3.5
  0
ARC
  5
3E
330
22
100
AcDbEntity
  8
0
100
AcDbCircle
 10
31.59973089678115
 20
-9.271599258481472
 30
0.0
 40
4.5
100
AcDbArc
 50
270.0
 51
231.0575587310182
  0
LINE
  5
3F
330
22
100
AcDbEntity
  8
0
100
AcDbLine
 10
17.59973089678112
 20
-4.771599258481472
 30
0.0
 11
17.59973089678115
 21
-13.77159925848147
 31
0.0
  0
ARC
  5
40
330
22
100
AcDbEntity
  8
0
100
AcDbCircle
 10
22.59973089678116
 20
-7.271599258481472
 30
0.0
 40
2.5
100
AcDbArc
 50
293.1161887722295
 51
90.0
  0
CIRCLE
  5
41
330
22
100
AcDbEntity
  8
0
100
AcDbCircle
 10
31.59973089678115
 20
-9.271599258481472
 30
0.0
 40
3.5
  0
ARC
  5
42
330
22
100
AcDbEntity
  8
0
100
AcDbCircle
 10
4.599730896781153
 20
-11.77159925848133
 30
0.0
 40
1.0
100
AcDbArc
 50
180.0
 51
270.0
  0
ARC
  5
43
330
22
100
AcDbEntity
  8
0
100
AcDbCircle
 10
4.599730896781153
 20
-11.77159925848133
 30
0.0
 40
2.0
100
AcDbArc
 50
179.9999999999992
 51
270.0
  0
LINE
  5
44
330
22
100
AcDbEntity
  8
0
100
AcDbLine
 10
11.59973089678115
 20
-13.77159925848144
 30
0.0
 11
4.599730896781153
 21
-13.77159925848147
 31
0.0
  0
LINE
  5
45
330
22
100
AcDbEntity
  8
0
100
AcDbLine
 10
8.771303772034769
 20
-12.77159925848136
 30
0.0
 11
4.599730896781153
 21
-12.77159925848133
 31
0.0
  0
LINE
  5
46
330
22
100
AcDbEntity
  8
0
100
AcDbLine
 10
31.59973089678115
 20
-13.77159925848147
 30
0.0
 11
23.6715276665056
 21
-13.77159925848144
 31
0.0
  0
LINE
  5
47
330
22
100
AcDbEntity
  8
0
100
AcDbLine
 10
23.56565672307022
 20
-9.51278021337896
 30
0.0
 11
24.4388546544846
 21
-12.77159925848144
 31
0.0
  0
LINE
  5
48
330
22
100
AcDbEntity
  8
0
100
AcDbLine
 10
22.59973089678116
 20
-9.771599258481472
 30
0.0
 11
18.59973089678112
 21
-9.771599258481472
 31
0.0
  0
LINE
  5
49
330
22
100
AcDbEntity
  8
0
100
AcDbLine
 10
18.59973089678115
 20
-13.77159925848144
 30
0.0
 11
17.59973089678115
 21
-13.77159925848144
 31
0.0
  0
LINE
  5
4A
330
22
100
AcDbEntity
  8
0
100
AcDbLine
 10
18.59973089678115
 20
-9.771599258481472
 30
0.0
 11
18.59973089678115
 21
-13.77159925848144
 31
0.0
  0
LINE
  5
4B
330
22
100
AcDbEntity
  8
0
100
AcDbLine
 10
22.59973089678116
 20
-9.771599258481472
 30
0.0
 11
23.67152766650562
 21
-13.77159925848147
 31
0.0
  0
ARC
  5
4C
330
22
100
AcDbEntity
  8
0
100
AcDbCircle
 10
22.59973089678116
 20
-7.271599258481472
 30
0.0
 40
2.5
100
AcDbArc
 50
270.0
 51
270.0000000000007
  0
LINE
  5
4D
330
22
100
AcDbEntity
  8
0
100
AcDbLine
 10
28.77130377203494
 20
-12.77159925848147
 30
0.0
 11
24.43885465448463
 21
-12.77159925848144
 31
0.0
  0
LINE
  5
4E
330
22
100
AcDbEntity
  8
0
100
AcDbLine
 10
3.599730896781125
 20
-4.771599258481472
 30
0.0
 11
2.599730896781125
 21
-4.771599258481472
 31
0.0
  0
LINE
  5
4F
330
22
100
AcDbEntity
  8
0
100
AcDbLine
 10
22.59973089678116
 20
-8.771599258481472
 30
0.0
 11
18.59973089678115
 21
-8.771599258481472
 31
0.0
  0
LINE
  5
50
330
22
100
AcDbEntity
  8
0
100
AcDbLine
 10
22.59973089678116
 20
-5.771599258481472
 30
0.0
 11
18.59973089678115
 21
-5.771599258481472
 31
0.0
  0
LINE
  5
51
330
22
100
AcDbEntity
  8
0
100
AcDbLine
 10
22.59973089678116
 20
-4.771599258481472
 30
0.0
 11
17.59973089678115
 21
-4.771599258481472
 31
0.0
  0
LINE
  5
52
330
22
100
AcDbEntity
  8
0
100
AcDbLine
 10
18.59973089678115
 20
-5.771599258481472
 30
0.0
 11
18.59973089678115
 21
-8.771599258481472
 31
0.0
  0
ARC
  5
53
330
22
100
AcDbEntity
  8
0
100
AcDbCircle
 10
22.59973089678116
 20
-7.271599258481472
 30
0.0
 40
1.5
100
AcDbArc
 50
270.0
 51
90.0
  0
ENDBLK
  5
54
330
22
100
AcDbEntity
  8
0
100
AcDbBlockEnd
  0
BLOCK
  5
55
330
23
100
AcDbEntity
  8
0
100
AcDbBlockBegin
  2
LORO
 70
     0
 10
0.0
 20
0.0
 30
0.0
  3
LORO
  1

  0
INSERT
  5
56
330
23
100
AcDbEntity
  8
STEMPEL
100
AcDbBlockReference
  2
LOGO
 10
-1.748032802467321
 20
3.771489518552062
 30
0.0
  0
ENDBLK
  5
57
330
23
100
AcDbEntity
  8
0
100
AcDbBlockEnd
  0
BLOCK
  5
74D
330
743
100
AcDbEntity
  8
0
100
AcDbBlockBegin
  2
*D2
 70
     1
 10
0.0
 20
0.0
 30
0.0
  3
*D2
  1

  0
LINE
  5
98F
330
743
100
AcDbEntity
  8
BEM
 62
     0
370
    -2
100
AcDbLine
 10
118.5236626852116
 20
664.3826859848933
 30
0.0
 11
118.5236626852116
 21
693.7043806539552
 31
0.0
  0
LINE
  5
990
330
743
100
AcDbEntity
  8
BEM
 62
     0
370
    -2
100
AcDbLine
 10
338.5236626852119
 20
664.3826859848933
 30
0.0
 11
338.5236626852119
 21
693.7043806539552
 31
0.0
  0
LINE
  5
991
330
743
100
AcDbEntity
  8
BEM
 62
     0
370
    -2
100
AcDbLine
 10
125.5236626852116
 20
691.7043806539552
 30
0.0
 11
331.5236626852119
 21
691.7043806539552
 31
0.0
  0
SOLID
  5
992
330
743
100
AcDbEntity
  8
BEM
 62
     0
100
AcDbTrace
 10
125.5236626852116
 20
692.8710473206218
 30
0.0
 11
125.5236626852116
 21
690.5377139872886
 31
0.0
 12
118.5236626852116
 22
691.7043806539552
 32
0.0
 13
118.5236626852116
 23
691.7043806539552
 33
0.0
  0
SOLID
  5
993
330
743
100
AcDbEntity
  8
BEM
 62
     0
100
AcDbTrace
 10
331.5236626852119
 20
692.8710473206218
 30
0.0
 11
331.5236626852119
 21
690.5377139872886
 31
0.0
 12
338.5236626852119
 22
691.7043806539552
 32
0.0
 13
338.5236626852119
 23
691.7043806539552
 33
0.0
  0
MTEXT
  5
994
330
743
100
AcDbEntity
  8
BEM
 62
     1
100
AcDbMText
 10
228.5236626852118
 20
698.2043806539552
 30
0.0
 40
7.0
 41
0.0
 71
     5
 72
     1
  1
\A1;%%c220
 73
     1
 44
1.0
  0
POINT
  5
995
330
743
100
AcDbEntity
  8
DEFPOINTS
 62
     0
100
AcDbPoint
 10
118.5236626852116
 20
662.3826859848933
 30
0.0
  0
POINT
  5
996
330
743
100
AcDbEntity
  8
DEFPOINTS
 62
     0
100
AcDbPoint
 10
338.5236626852119
 20
662.3826859848933
 30
0.0
  0
POINT
  5
997
330
743
100
AcDbEntity
  8
DEFPOINTS
 62
     0
100
AcDbPoint
 10
338.5236626852119
 20
691.7043806539552
 30
0.0
  0
ENDBLK
  5
74E
330
743
100
AcDbEntity
  8
0
100
AcDbBlockEnd
  0
BLOCK
  5
759
330
74F
100
AcDbEntity
  8
0
100
AcDbBlockBegin
  2
*D3
 70
     1
 10
0.0
 20
0.0
 30
0.0
  3
*D3
  1

  0
LINE
  5
998
330
74F
100
AcDbEntity
  8
BEM
 62
     0
370
    -2
100
AcDbLine
 10
98.52366268521166
 20
595.3827439522089
 30
0.0
 11
98.52366268521166
 21
707.4901309822796
 31
0.0
  0
LINE
  5
999
330
74F
100
AcDbEntity
  8
BEM
 62
     0
370
    -2
100
AcDbLine
 10
358.5236626852114
 20
595.3827439522091
 30
0.0
 11
358.5236626852114
 21
707.4901309822796
 31
0.0
  0
LINE
  5
99A
330
74F
100
AcDbEntity
  8
BEM
 62
     0
370
    -2
100
AcDbLine
 10
105.5236626852116
 20
705.4901309822796
 30
0.0
 11
351.5236626852114
 21
705.4901309822796
 31
0.0
  0
SOLID
  5
99B
330
74F
100
AcDbEntity
  8
BEM
 62
     0
100
AcDbTrace
 10
105.5236626852116
 20
706.6567976489462
 30
0.0
 11
105.5236626852116
 21
704.323464315613
 31
0.0
 12
98.52366268521166
 22
705.4901309822796
 32
0.0
 13
98.52366268521166
 23
705.4901309822796
 33
0.0
  0
SOLID
  5
99C
330
74F
100
AcDbEntity
  8
BEM
 62
     0
100
AcDbTrace
 10
351.5236626852114
 20
706.6567976489462
 30
0.0
 11
351.5236626852114
 21
704.323464315613
 31
0.0
 12
358.5236626852114
 22
705.4901309822796
 32
0.0
 13
358.5236626852114
 23
705.4901309822796
 33
0.0
  0
MTEXT
  5
99D
330
74F
100
AcDbEntity
  8
BEM
 62
     1
100
AcDbMText
 10
228.5236626852115
 20
711.9901309822796
 30
0.0
 40
7.0
 41
0.0
 71
     5
 72
     1
  1
\A1;%%c260
 73
     1
 44
1.0
  0
POINT
  5
99E
330
74F
100
AcDbEntity
  8
DEFPOINTS
 62
     0
100
AcDbPoint
 10
98.52366268521166
 20
593.3827439522088
 30
0.0
  0
POINT
  5
99F
330
74F
100
AcDbEntity
  8
DEFPOINTS
 62
     0
100
AcDbPoint
 10
358.5236626852114
 20
593.3827439522091
 30
0.0
  0
POINT
  5
9A0
330
74F
100
AcDbEntity
  8
DEFPOINTS
 62
     0
100
AcDbPoint
 10
358.5236626852114
 20
705.4901309822796
 30
0.0
  0
ENDBLK
  5
75A
330
74F
100
AcDbEntity
  8
0
100
AcDbBlockEnd
  0
BLOCK
  5
765
330
75B
100
AcDbEntity
  8
0
100
AcDbBlockBegin
  2
*D4
 70
     1
 10
0.0
 20
0.0
 30
0.0
  3
*D4
  1

  0
LINE
  5
F10
330
75B
100
AcDbEntity
  8
BEM
 62
     0
370
    -2
100
AcDbLine
 10
146.5236626852116
 20
682.3827439522082
 30
0.0
 11
64.03900796850158
 21
682.3827439522082
 31
0.0
  0
LINE
  5
F11
330
75B
100
AcDbEntity
  8
BEM
 62
     0
370
    -2
100
AcDbLine
 10
114.5236626852114
 20
572.3827439522083
 30
0.0
 11
64.03900796850155
 21
572.3827439522083
 31
0.0
  0
LINE
  5
F12
330
75B
100
AcDbEntity
  8
BEM
 62
     0
370
    -2
100
AcDbLine
 10
66.03900796850158
 20
675.3827439522082
 30
0.0
 11
66.03900796850155
 21
579.3827439522083
 31
0.0
  0
SOLID
  5
F13
330
75B
100
AcDbEntity
  8
BEM
 62
     0
100
AcDbTrace
 10
64.87234130183491
 20
675.3827439522082
 30
0.0
 11
67.20567463516825
 21
675.3827439522082
 31
0.0
 12
66.03900796850158
 22
682.3827439522082
 32
0.0
 13
66.03900796850158
 23
682.3827439522082
 33
0.0
  0
SOLID
  5
F14
330
75B
100
AcDbEntity
  8
BEM
 62
     0
100
AcDbTrace
 10
64.87234130183487
 20
579.3827439522083
 30
0.0
 11
67.20567463516822
 21
579.3827439522083
 31
0.0
 12
66.03900796850155
 22
572.3827439522083
 32
0.0
 13
66.03900796850155
 23
572.3827439522083
 33
0.0
  0
MTEXT
  5
F15
330
75B
100
AcDbEntity
  8
BEM
 62
     1
100
AcDbMText
 10
59.53900796850145
 20
627.3827439522083
 30
0.0
 40
7.0
 41
0.0
 71
     5
 72
     1
  1
\A1;110
 11
0.0000000000000001
 21
1.0
 31
0.0
 73
     1
 44
1.0
  0
POINT
  5
F16
330
75B
100
AcDbEntity
  8
DEFPOINTS
 62
     0
100
AcDbPoint
 10
148.5236626852116
 20
682.3827439522082
 30
0.0
  0
POINT
  5
F17
330
75B
100
AcDbEntity
  8
DEFPOINTS
 62
     0
100
AcDbPoint
 10
116.5236626852114
 20
572.3827439522083
 30
0.0
  0
POINT
  5
F18
330
75B
100
AcDbEntity
  8
DEFPOINTS
 62
     0
100
AcDbPoint
 10
66.03900796850155
 20
572.3827439522083
 30
0.0
  0
ENDBLK
  5
766
330
75B
100
AcDbEntity
  8
0
100
AcDbBlockEnd
  0
BLOCK
  5
782
330
773
100
AcDbEntity
  8
0
100
AcDbBlockBegin
  2
*D5
 70
     1
 10
0.0
 20
0.0
 30
0.0
  3
*D5
  1

  0
LINE
  5
92B
330
773
100
AcDbEntity
  8
BEM
 62
     0
370
    -2
100
AcDbLine
 10
230.5236626852115
 20
262.2693746925508
 30
0.0
 11
297.3447995973423
 21
262.2693746925504
 31
0.0
  0
ARC
  5
92C
330
773
100
AcDbEntity
  8
BEM
 62
     0
370
    -2
100
AcDbCircle
 10
228.5236626852114
 20
262.2693746925508
 30
0.0
 40
66.82113691213095
100
AcDbArc
 50
344.9736357326496
 51
357.0
  0
LINE
  5
92D
330
773
100
AcDbEntity
  8
BEM
 62
     0
370
    -2
100
AcDbLine
 10
293.0599597519726
 20
244.9450940685104
 30
0.0
 11
289.8450925757288
 21
232.9690918541189
 31
0.0
  0
ARC
  5
92E
330
773
100
AcDbEntity
  8
BEM
 62
     0
370
    -2
100
AcDbCircle
 10
228.5236626852114
 20
262.2693746925508
 30
0.0
 40
66.82113691213095
100
AcDbArc
 50
344.9902051111601
 51
350.9951025555801
  0
ARC
  5
92F
330
773
100
AcDbEntity
  8
BEM
 62
     0
370
    -2
100
AcDbCircle
 10
228.5236626852114
 20
262.2693746925508
 30
0.0
 40
66.82113691213095
100
AcDbArc
 50
6.004897444419503
 51
12.00979488883948
  0
ARC
  5
930
330
773
100
AcDbEntity
  8
BEM
 62
     0
370
    -2
100
AcDbCircle
 10
228.5236626852114
 20
262.2693746925508
 30
0.0
 40
66.82113691213095
100
AcDbArc
 50
357.0
 51
359.9999999999996
  0
SOLID
  5
931
330
773
100
AcDbEntity
  8
BEM
 62
     0
100
AcDbTrace
 10
293.3609564487461
 20
251.9326040672146
 30
0.0
 11
295.6814971119674
 21
251.6886051434854
 31
0.0
 12
295.2532235515445
 22
258.7722265950138
 32
0.0
 13
295.2532235515445
 23
258.7722265950138
 33
0.0
  0
SOLID
  5
932
330
773
100
AcDbEntity
  8
BEM
 62
     0
100
AcDbTrace
 10
296.1432143260641
 20
269.3208741807493
 30
0.0
 11
293.8130839661767
 21
269.1986573636754
 31
0.0
 12
295.3447995973424
 22
262.2693746925504
 32
0.0
 13
295.3447995973424
 23
262.2693746925504
 33
0.0
  0
MTEXT
  5
933
330
773
100
AcDbEntity
  8
BEM
 62
     1
100
AcDbMText
 10
285.1747830675971
 20
240.6423055940231
 30
0.0
 40
7.0
 41
0.0
 71
     5
 72
     1
  1
\A1;3°
 11
0.2592634819551407
 21
0.9658066301928645
 31
0.0
 73
     1
 44
1.0
  0
POINT
  5
934
330
773
100
AcDbEntity
  8
DEFPOINTS
 62
     0
100
AcDbPoint
 10
295.3346224145351
 20
261.1031850525586
 30
0.0
  0
POINT
  5
935
330
773
100
AcDbEntity
  8
DEFPOINTS
 62
     0
100
AcDbPoint
 10
228.5236626852113
 20
262.2693746925508
 30
0.0
  0
POINT
  5
936
330
773
100
AcDbEntity
  8
DEFPOINTS
 62
     0
100
AcDbPoint
 10
228.5236626852115
 20
262.2693746925508
 30
0.0
  0
POINT
  5
937
330
773
100
AcDbEntity
  8
DEFPOINTS
 62
     0
100
AcDbPoint
 10
226.5236626852115
 20
262.2693746925508
 30
0.0
  0
POINT
  5
938
330
773
100
AcDbEntity
  8
DEFPOINTS
 62
     0
100
AcDbPoint
 10
519.0866022111772
 20
247.0416162900423
 30
0.0
  0
ENDBLK
  5
783
330
773
100
AcDbEntity
  8
0
100
AcDbBlockEnd
  0
BLOCK
  5
78E
330
784
100
AcDbEntity
  8
0
100
AcDbBlockBegin
  2
*D6
 70
     1
 10
0.0
 20
0.0
 30
0.0
  3
*D6
  1

  0
LINE
  5
F19
330
784
100
AcDbEntity
  8
BEM
 62
     0
370
    -2
100
AcDbLine
 10
104.0236626852114
 20
329.1674298717904
 30
0.0
 11
64.03900796850149
 21
329.1674298717904
 31
0.0
  0
LINE
  5
F1A
330
784
100
AcDbEntity
  8
BEM
 62
     0
370
    -2
100
AcDbLine
 10
104.0236626852114
 20
566.3827439522075
 30
0.0
 11
64.03900796850155
 21
566.3827439522075
 31
0.0
  0
LINE
  5
F1B
330
784
100
AcDbEntity
  8
BEM
 62
     0
370
    -2
100
AcDbLine
 10
66.03900796850149
 20
336.1674298717904
 30
0.0
 11
66.03900796850155
 21
559.3827439522075
 31
0.0
  0
SOLID
  5
F1C
330
784
100
AcDbEntity
  8
BEM
 62
     0
100
AcDbTrace
 10
64.87234130183482
 20
336.1674298717904
 30
0.0
 11
67.20567463516816
 21
336.1674298717904
 31
0.0
 12
66.03900796850149
 22
329.1674298717904
 32
0.0
 13
66.03900796850149
 23
329.1674298717904
 33
0.0
  0
SOLID
  5
F1D
330
784
100
AcDbEntity
  8
BEM
 62
     0
100
AcDbTrace
 10
64.87234130183487
 20
559.3827439522075
 30
0.0
 11
67.20567463516822
 21
559.3827439522075
 31
0.0
 12
66.03900796850155
 22
566.3827439522075
 32
0.0
 13
66.03900796850155
 23
566.3827439522075
 33
0.0
  0
MTEXT
  5
F1E
330
784
100
AcDbEntity
  8
BEM
 62
     1
100
AcDbMText
 10
59.53900796850145
 20
447.7750869119989
 30
0.0
 40
7.0
 41
0.0
 71
     5
 72
     1
  1
\A1;min.35 - max.230
 11
0.0000000000000001
 21
1.0
 31
0.0
 73
     1
 44
1.0
  0
POINT
  5
F1F
330
784
100
AcDbEntity
  8
DEFPOINTS
 62
     0
100
AcDbPoint
 10
106.0236626852114
 20
329.1674298717904
 30
0.0
  0
POINT
  5
F20
330
784
100
AcDbEntity
  8
DEFPOINTS
 62
     0
100
AcDbPoint
 10
106.0236626852114
 20
566.3827439522075
 30
0.0
  0
POINT
  5
F21
330
784
100
AcDbEntity
  8
DEFPOINTS
 62
     0
100
AcDbPoint
 10
66.03900796850155
 20
566.3827439522075
 30
0.0
  0
ENDBLK
  5
78F
330
784
100
AcDbEntity
  8
0
100
AcDbBlockEnd
  0
BLOCK
  5
7A6
330
79C
100
AcDbEntity
  8
0
100
AcDbBlockBegin
  2
*D7
 70
     1
 10
0.0
 20
0.0
 30
0.0
  3
*D7
  1

  0
LINE
  5
922
330
79C
100
AcDbEntity
  8
BEM
 62
     0
370
    -2
100
AcDbLine
 10
510.4407774143066
 20
284.0448153966407
 30
0.0
 11
538.9311603371091
 21
282.551697696733
 31
0.0
  0
LINE
  5
923
330
79C
100
AcDbEntity
  8
BEM
 62
     0
370
    -2
100
AcDbLine
 10
506.6202526085711
 20
211.1448593595567
 30
0.0
 11
535.1106355313736
 21
209.6517416596489
 31
0.0
  0
LINE
  5
924
330
79C
100
AcDbEntity
  8
BEM
 62
     0
370
    -2
100
AcDbLine
 10
536.5675495738992
 20
275.6659628659368
 30
0.0
 11
533.479728155565
 21
216.7468203154168
 31
0.0
  0
SOLID
  5
925
330
79C
100
AcDbEntity
  8
BEM
 62
     0
100
AcDbTrace
 10
535.4024817833521
 20
275.7270214815536
 30
0.0
 11
537.7326173644461
 21
275.60490425032
 31
0.0
 12
536.9339012675999
 22
282.6563696092189
 32
0.0
 13
536.9339012675999
 23
282.6563696092189
 33
0.0
  0
SOLID
  5
926
330
79C
100
AcDbEntity
  8
BEM
 62
     0
100
AcDbTrace
 10
532.314660365018
 20
216.8078789310336
 30
0.0
 11
534.644795946112
 21
216.6857616998
 31
0.0
 12
533.1133764618645
 22
209.7564135721348
 32
0.0
 13
533.1133764618645
 23
209.7564135721348
 33
0.0
  0
MTEXT
  5
927
330
79C
100
AcDbEntity
  8
BEM
 62
     1
100
AcDbMText
 10
528.5325468888273
 20
246.5465753062561
 30
0.0
 40
7.0
 41
0.0
 71
     5
 72
     1
  1
\A1;%%c73
 11
0.0523359562429513
 21
0.9986295347545734
 31
0.0
 73
     1
 44
1.0
  0
POINT
  5
928
330
79C
100
AcDbEntity
  8
DEFPOINTS
 62
     0
100
AcDbPoint
 10
508.4435183447975
 20
284.1494873091266
 30
0.0
  0
POINT
  5
929
330
79C
100
AcDbEntity
  8
DEFPOINTS
 62
     0
100
AcDbPoint
 10
504.622993539062
 20
211.2495312720426
 30
0.0
  0
POINT
  5
92A
330
79C
100
AcDbEntity
  8
DEFPOINTS
 62
     0
100
AcDbPoint
 10
533.1133764618645
 20
209.7564135721348
 30
0.0
  0
ENDBLK
  5
7A7
330
79C
100
AcDbEntity
  8
0
100
AcDbBlockEnd
  0
BLOCK
  5
7B2
330
7A8
100
AcDbEntity
  8
0
100
AcDbBlockBegin
  2
*D8
 70
     1
 10
0.0
 20
0.0
 30
0.0
  3
*D8
  1

  0
LINE
  5
919
330
7A8
100
AcDbEntity
  8
BEM
 62
     0
370
    -2
100
AcDbLine
 10
353.0236626852115
 20
329.1674298717897
 30
0.0
 11
558.7976055755563
 21
329.1674298717897
 31
0.0
  0
LINE
  5
91A
330
7A8
100
AcDbEntity
  8
BEM
 62
     0
370
    -2
100
AcDbLine
 10
537.0826901688895
 20
247.333157596884
 30
0.0
 11
558.7976055755563
 21
247.333157596884
 31
0.0
  0
LINE
  5
91B
330
7A8
100
AcDbEntity
  8
BEM
 62
     0
370
    -2
100
AcDbLine
 10
556.7976055755564
 20
322.1674298717897
 30
0.0
 11
556.7976055755563
 21
254.333157596884
 31
0.0
  0
SOLID
  5
91C
330
7A8
100
AcDbEntity
  8
BEM
 62
     0
100
AcDbTrace
 10
555.6309389088897
 20
322.1674298717897
 30
0.0
 11
557.964272242223
 21
322.1674298717897
 31
0.0
 12
556.7976055755564
 22
329.1674298717897
 32
0.0
 13
556.7976055755564
 23
329.1674298717897
 33
0.0
  0
SOLID
  5
91D
330
7A8
100
AcDbEntity
  8
BEM
 62
     0
100
AcDbTrace
 10
555.6309389088896
 20
254.333157596884
 30
0.0
 11
557.9642722422229
 21
254.333157596884
 31
0.0
 12
556.7976055755563
 22
247.333157596884
 32
0.0
 13
556.7976055755563
 23
247.333157596884
 33
0.0
  0
MTEXT
  5
91E
330
7A8
100
AcDbEntity
  8
BEM
 62
     1
100
AcDbMText
 10
550.2976055755563
 20
288.2502937343369
 30
0.0
 40
7.0
 41
0.0
 71
     5
 72
     1
  1
\A1;82
 11
0.0000000000000001
 21
1.0
 31
0.0
 73
     1
 44
1.0
  0
POINT
  5
91F
330
7A8
100
AcDbEntity
  8
DEFPOINTS
 62
     0
100
AcDbPoint
 10
351.0236626852115
 20
329.1674298717897
 30
0.0
  0
POINT
  5
920
330
7A8
100
AcDbEntity
  8
DEFPOINTS
 62
     0
100
AcDbPoint
 10
535.0826901688894
 20
247.333157596884
 30
0.0
  0
POINT
  5
921
330
7A8
100
AcDbEntity
  8
DEFPOINTS
 62
     0
100
AcDbPoint
 10
556.7976055755563
 20
247.333157596884
 30
0.0
  0
ENDBLK
  5
7B3
330
7A8
100
AcDbEntity
  8
0
100
AcDbBlockEnd
  0
BLOCK
  5
E76
330
E6C
100
AcDbEntity
  8
0
100
AcDbBlockBegin
  2
*D9
 70
     1
 10
0.0
 20
0.0
 30
0.0
  3
*D9
  1

  0
LINE
  5
E90
330
E6C
100
AcDbEntity
  8
BEM
 62
     0
370
    -2
100
AcDbLine
 10
415.3954552678848
 20
190.8138764811962
 30
0.0
 11
415.3954552678848
 21
173.6065842139915
 31
0.0
  0
LINE
  5
E91
330
E6C
100
AcDbEntity
  8
BEM
 62
     0
370
    -2
100
AcDbLine
 10
166.3981392611246
 20
190.8138764811962
 30
0.0
 11
166.3981392611246
 21
173.6065842139915
 31
0.0
  0
LINE
  5
E92
330
E6C
100
AcDbEntity
  8
BEM
 62
     0
370
    -2
100
AcDbLine
 10
408.3954552678847
 20
175.6065842139915
 30
0.0
 11
173.3981392611246
 21
175.6065842139915
 31
0.0
  0
SOLID
  5
E93
330
E6C
100
AcDbEntity
  8
BEM
 62
     0
100
AcDbTrace
 10
408.3954552678847
 20
176.7732508806581
 30
0.0
 11
408.3954552678847
 21
174.4399175473248
 31
0.0
 12
415.3954552678848
 22
175.6065842139915
 32
0.0
 13
415.3954552678848
 23
175.6065842139915
 33
0.0
  0
SOLID
  5
E94
330
E6C
100
AcDbEntity
  8
BEM
 62
     0
100
AcDbTrace
 10
173.3981392611246
 20
176.7732508806581
 30
0.0
 11
173.3981392611246
 21
174.4399175473248
 31
0.0
 12
166.3981392611246
 22
175.6065842139915
 32
0.0
 13
166.3981392611246
 23
175.6065842139915
 33
0.0
  0
MTEXT
  5
E95
330
E6C
100
AcDbEntity
  8
BEM
 62
     1
100
AcDbMText
 10
290.8967972645047
 20
182.1065842139915
 30
0.0
 40
7.0
 41
0.0
 71
     5
 72
     1
  1
\A1;249
 73
     1
 44
1.0
  0
POINT
  5
E96
330
E6C
100
AcDbEntity
  8
DEFPOINTS
 62
     0
100
AcDbPoint
 10
415.3954552678848
 20
192.8138764811962
 30
0.0
  0
POINT
  5
E97
330
E6C
100
AcDbEntity
  8
DEFPOINTS
 62
     0
100
AcDbPoint
 10
166.3981392611246
 20
192.8138764811962
 30
0.0
  0
POINT
  5
E98
330
E6C
100
AcDbEntity
  8
DEFPOINTS
 62
     0
100
AcDbPoint
 10
166.3981392611246
 20
175.6065842139915
 30
0.0
  0
ENDBLK
  5
E77
330
E6C
100
AcDbEntity
  8
0
100
AcDbBlockEnd
  0
BLOCK
  5
E82
330
E78
100
AcDbEntity
  8
0
100
AcDbBlockBegin
  2
*D10
 70
     1
 10
0.0
 20
0.0
 30
0.0
  3
*D10
  1

  0
LINE
  5
E99
330
E78
100
AcDbEntity
  8
BEM
 62
     0
370
    -2
100
AcDbLine
 10
228.523662685211
 20
173.6065842139915
 30
0.0
 11
228.523662685211
 21
157.5221536617852
 31
0.0
  0
LINE
  5
E9A
330
E78
100
AcDbEntity
  8
BEM
 62
     0
370
    -2
100
AcDbLine
 10
513.5236626852114
 20
245.333157596884
 30
0.0
 11
513.5236626852114
 21
157.5221536617852
 31
0.0
  0
LINE
  5
E9B
330
E78
100
AcDbEntity
  8
BEM
 62
     0
370
    -2
100
AcDbLine
 10
235.5236626852111
 20
159.5221536617852
 30
0.0
 11
506.5236626852114
 21
159.5221536617852
 31
0.0
  0
SOLID
  5
E9C
330
E78
100
AcDbEntity
  8
BEM
 62
     0
100
AcDbTrace
 10
235.5236626852111
 20
160.6888203284518
 30
0.0
 11
235.5236626852111
 21
158.3554869951185
 31
0.0
 12
228.523662685211
 22
159.5221536617852
 32
0.0
 13
228.523662685211
 23
159.5221536617852
 33
0.0
  0
SOLID
  5
E9D
330
E78
100
AcDbEntity
  8
BEM
 62
     0
100
AcDbTrace
 10
506.5236626852114
 20
160.6888203284518
 30
0.0
 11
506.5236626852114
 21
158.3554869951185
 31
0.0
 12
513.5236626852114
 22
159.5221536617852
 32
0.0
 13
513.5236626852114
 23
159.5221536617852
 33
0.0
  0
MTEXT
  5
E9E
330
E78
100
AcDbEntity
  8
BEM
 62
     1
100
AcDbMText
 10
371.0236626852112
 20
166.0221536617852
 30
0.0
 40
7.0
 41
0.0
 71
     5
 72
     1
  1
\A1;285
 73
     1
 44
1.0
  0
POINT
  5
E9F
330
E78
100
AcDbEntity
  8
DEFPOINTS
 62
     0
100
AcDbPoint
 10
228.523662685211
 20
175.6065842139915
 30
0.0
  0
POINT
  5
EA0
330
E78
100
AcDbEntity
  8
DEFPOINTS
 62
     0
100
AcDbPoint
 10
513.5236626852114
 20
247.333157596884
 30
0.0
  0
POINT
  5
EA1
330
E78
100
AcDbEntity
  8
DEFPOINTS
 62
     0
100
AcDbPoint
 10
513.5236626852114
 20
159.5221536617852
 30
0.0
  0
ENDBLK
  5
E83
330
E78
100
AcDbEntity
  8
0
100
AcDbBlockEnd
  0
BLOCK
  5
E8E
330
E84
100
AcDbEntity
  8
0
100
AcDbBlockBegin
  2
*D11
 70
     1
 10
0.0
 20
0.0
 30
0.0
  3
*D11
  1

  0
LINE
  5
EA2
330
E84
100
AcDbEntity
  8
BEM
 62
     0
370
    -2
100
AcDbLine
 10
164.3981392611246
 20
192.8138764811962
 30
0.0
 11
64.03900796850146
 21
192.8138764811962
 31
0.0
  0
LINE
  5
EA3
330
E84
100
AcDbEntity
  8
BEM
 62
     0
370
    -2
100
AcDbLine
 10
104.0236626852114
 20
329.1674298717904
 30
0.0
 11
64.03900796850149
 21
329.1674298717904
 31
0.0
  0
LINE
  5
EA4
330
E84
100
AcDbEntity
  8
BEM
 62
     0
370
    -2
100
AcDbLine
 10
66.03900796850147
 20
199.8138764811962
 30
0.0
 11
66.03900796850149
 21
322.1674298717904
 31
0.0
  0
SOLID
  5
EA5
330
E84
100
AcDbEntity
  8
BEM
 62
     0
100
AcDbTrace
 10
64.87234130183479
 20
199.8138764811962
 30
0.0
 11
67.20567463516814
 21
199.8138764811962
 31
0.0
 12
66.03900796850147
 22
192.8138764811962
 32
0.0
 13
66.03900796850147
 23
192.8138764811962
 33
0.0
  0
SOLID
  5
EA6
330
E84
100
AcDbEntity
  8
BEM
 62
     0
100
AcDbTrace
 10
64.87234130183482
 20
322.1674298717904
 30
0.0
 11
67.20567463516816
 21
322.1674298717904
 31
0.0
 12
66.03900796850149
 22
329.1674298717904
 32
0.0
 13
66.03900796850149
 23
329.1674298717904
 33
0.0
  0
MTEXT
  5
EA7
330
E84
100
AcDbEntity
  8
BEM
 62
     1
100
AcDbMText
 10
59.53900796850144
 20
260.9906531764933
 30
0.0
 40
7.0
 41
0.0
 71
     5
 72
     1
  1
\A1;137
 11
0.0000000000000001
 21
1.0
 31
0.0
 73
     1
 44
1.0
  0
POINT
  5
EA8
330
E84
100
AcDbEntity
  8
DEFPOINTS
 62
     0
100
AcDbPoint
 10
166.3981392611246
 20
192.8138764811962
 30
0.0
  0
POINT
  5
EA9
330
E84
100
AcDbEntity
  8
DEFPOINTS
 62
     0
100
AcDbPoint
 10
106.0236626852114
 20
329.1674298717904
 30
0.0
  0
POINT
  5
EAA
330
E84
100
AcDbEntity
  8
DEFPOINTS
 62
     0
100
AcDbPoint
 10
66.03900796850149
 20
329.1674298717904
 30
0.0
  0
ENDBLK
  5
E8F
330
E84
100
AcDbEntity
  8
0
100
AcDbBlockEnd
  0
ENDSEC
  0
SECTION
  2
ENTITIES
  0
LINE
  5
58
330
1E
100
AcDbEntity
  8
STEMPEL
100
AcDbLine
 10
484.0
 20
830.0000000000002
 30
0.0
 11
484.0
 21
470.0000000000001
 31
0.0
  0
LINE
  5
59
330
1E
100
AcDbEntity
  8
STEMPEL
100
AcDbLine
 10
484.0
 20
470.0000000000001
 30
0.0
 11
584.0
 21
470.0000000000001
 31
0.0
  0
LINE
  5
5A
330
1E
100
AcDbEntity
  8
STEMPEL
100
AcDbLine
 10
484.0000000000001
 20
566.0000000000002
 30
0.0
 11
584.0000000000001
 21
566.0
 31
0.0
  0
LINE
  5
5B
330
1E
100
AcDbEntity
  8
STEMPEL
100
AcDbLine
 10
484.0
 20
650.0
 30
0.0
 11
584.0
 21
650.0
 31
0.0
  0
LINE
  5
5C
330
1E
100
AcDbEntity
  8
STEMPEL
100
AcDbLine
 10
484.0000000000003
 20
752.0000000000002
 30
0.0
 11
554.0
 21
752.0000000000002
 31
0.0
  0
LINE
  5
5D
330
1E
100
AcDbEntity
  8
STEMPEL
100
AcDbLine
 10
564.0
 20
566.0
 30
0.0
 11
564.0
 21
470.0000000000001
 31
0.0
  0
LINE
  5
5E
330
1E
100
AcDbEntity
  8
STEMPEL
100
AcDbLine
 10
554.0
 20
830.0000000000002
 30
0.0
 11
554.0
 21
566.0
 31
0.0
  0
LINE
  5
5F
330
1E
100
AcDbEntity
  8
STEMPEL
100
AcDbLine
 10
514.0
 20
830.0000000000002
 30
0.0
 11
514.0
 21
566.0000000000002
 31
0.0
  0
LINE
  5
60
330
1E
100
AcDbEntity
  8
VOLL
100
AcDbLine
 10
484.0
 20
484.0000000000001
 30
0.0
 11
584.0
 21
484.0
 31
0.0
  0
LINE
  5
61
330
1E
100
AcDbEntity
  8
VOLL
100
AcDbLine
 10
484.0000000000001
 20
524.0000000000001
 30
0.0
 11
584.0000000000001
 21
524.0
 31
0.0
  0
LINE
  5
62
330
1E
100
AcDbEntity
  8
VOLL
100
AcDbLine
 10
484.0000000000001
 20
544.0000000000002
 30
0.0
 11
584.0000000000001
 21
544.0
 31
0.0
  0
LINE
  5
63
330
1E
100
AcDbEntity
  8
VOLL
100
AcDbLine
 10
514.0
 20
584.0000000000002
 30
0.0
 11
554.0
 21
584.0000000000002
 31
0.0
  0
LINE
  5
64
330
1E
100
AcDbEntity
  8
VOLL
100
AcDbLine
 10
484.0000000000002
 20
610.0000000000002
 30
0.0
 11
554.0
 21
610.0
 31
0.0
  0
LINE
  5
65
330
1E
100
AcDbEntity
  8
HILF
100
AcDbLine
 10
494.0
 20
470.0000000000001
 30
0.0
 11
494.0
 21
566.0000000000002
 31
0.0
  0
LINE
  5
66
330
1E
100
AcDbEntity
  8
HILF
100
AcDbLine
 10
504.0
 20
470.0000000000001
 30
0.0
 11
504.0
 21
566.0000000000002
 31
0.0
  0
LINE
  5
67
330
1E
100
AcDbEntity
  8
HILF
100
AcDbLine
 10
514.0
 20
470.0000000000001
 30
0.0
 11
514.0
 21
566.0000000000002
 31
0.0
  0
LINE
  5
68
330
1E
100
AcDbEntity
  8
HILF
100
AcDbLine
 10
524.0
 20
470.0000000000001
 30
0.0
 11
524.0
 21
566.0000000000002
 31
0.0
  0
LINE
  5
69
330
1E
100
AcDbEntity
  8
HILF
100
AcDbLine
 10
534.0
 20
470.0000000000001
 30
0.0
 11
534.0
 21
566.0000000000002
 31
0.0
  0
LINE
  5
6A
330
1E
100
AcDbEntity
  8
HILF
100
AcDbLine
 10
544.0
 20
470.0000000000001
 30
0.0
 11
544.0
 21
566.0000000000002
 31
0.0
  0
LINE
  5
6B
330
1E
100
AcDbEntity
  8
HILF
100
AcDbLine
 10
554.0
 20
470.0000000000001
 30
0.0
 11
554.0
 21
566.0000000000002
 31
0.0
  0
LINE
  5
6C
330
1E
100
AcDbEntity
  8
HILF
100
AcDbLine
 10
524.0
 20
566.0000000000002
 30
0.0
 11
524.0
 21
650.0
 31
0.0
  0
LINE
  5
6D
330
1E
100
AcDbEntity
  8
HILF
100
AcDbLine
 10
534.0
 20
566.0000000000002
 30
0.0
 11
534.0
 21
650.0
 31
0.0
  0
LINE
  5
6E
330
1E
100
AcDbEntity
  8
HILF
100
AcDbLine
 10
544.0
 20
566.0000000000002
 30
0.0
 11
544.0
 21
650.0
 31
0.0
  0
LINE
  5
6F
330
1E
100
AcDbEntity
  8
HILF
100
AcDbLine
 10
509.9624175243587
 20
654.7736801096948
 30
0.0
 11
509.9624175243587
 21
746.6297842514811
 31
0.0
  0
LINE
  5
70
330
1E
100
AcDbEntity
  8
HILF
100
AcDbLine
 10
524.0
 20
654.7736801096948
 30
0.0
 11
524.0
 21
746.6297842514811
 31
0.0
  0
LINE
  5
71
330
1E
100
AcDbEntity
  8
HILF
100
AcDbLine
 10
534.0
 20
654.7736801096948
 30
0.0
 11
534.0
 21
746.6297842514811
 31
0.0
  0
LINE
  5
72
330
1E
100
AcDbEntity
  8
HILF
100
AcDbLine
 10
544.0
 20
654.7736801096948
 30
0.0
 11
544.0
 21
746.6297842514811
 31
0.0
  0
LINE
  5
73
330
1E
100
AcDbEntity
  8
VOLL
100
AcDbLine
 10
534.0
 20
752.0000000000002
 30
0.0
 11
534.0
 21
830.0000000000002
 31
0.0
  0
LINE
  5
74
330
1E
100
AcDbEntity
  8
HILF
100
AcDbLine
 10
510.2201636304418
 20
756.7238616296995
 30
0.0
 11
510.2201636304418
 21
824.858883932673
 31
0.0
  0
LINE
  5
75
330
1E
100
AcDbEntity
  8
HILF
100
AcDbLine
 10
579.1060174197169
 20
654.7736801096948
 30
0.0
 11
579.1060174197169
 21
824.858883932673
 31
0.0
  0
TEXT
  5
76
330
1E
100
AcDbEntity
  8
TEXT
100
AcDbText
 10
575.3261810501587
 20
492.3998239263297
 30
0.0
 40
4.0
  1
Änderung
 50
90.0
 41
0.8
  7
GREEKS
 72
     1
 11
575.3261810501587
 21
503.1426810691868
 31
0.0
100
AcDbText
  0
TEXT
  5
78
330
1E
100
AcDbEntity
  8
TEXT
100
AcDbText
 10
491.5379104912911
 20
573.5163572150376
 30
0.0
 40
5.0
  1
Maßstab
 50
90.0
 41
0.8
  7
GREEKS
100
AcDbText
  0
TEXT
  5
79
330
1E
100
AcDbEntity
  8
TEXT
100
AcDbText
 10
491.4510671988221
 20
654.8779403809009
 30
0.0
 40
5.0
  1
Benennung
 50
90.0
 41
0.8
  7
GREEKS
100
AcDbText
  0
TEXT
  5
7A
330
1E
100
AcDbEntity
  8
TEXT
100
AcDbText
 10
491.6867965462863
 20
756.1787549576343
 30
0.0
 40
5.0
  1
Zeichnungs Nr.
 50
90.0
 41
0.8
  7
GREEKS
100
AcDbText
  0
TEXT
  5
7B
330
1E
100
AcDbEntity
  8
TEXT
100
AcDbText
 10
563.1543942980694
 20
654.7422383911359
 30
0.0
 40
5.0
  1
Bauvorhaben
 50
90.0
 41
0.8
  7
GREEKS
100
AcDbText
  0
TEXT
  5
7C
330
1E
100
AcDbEntity
  8
TEXT
100
AcDbText
 10
520.8188176290003
 20
756.7238616296995
 30
0.0
 40
5.0
  1
Ersatz für:
 50
90.0
 41
0.8
  7
GREEKS
100
AcDbText
  0
TEXT
  5
7D
330
1E
100
AcDbEntity
  8
TEXT
100
AcDbText
 10
580.3453415397281
 20
478.2664110704576
 30
0.0
 40
4.0
  1
Index
 50
180.0
 41
0.8
  7
GREEKS
100
AcDbText
  0
TEXT
  5
7E
330
1E
100
AcDbEntity
  8
TEXT
100
AcDbText
 10
575.3284373066019
 20
529.8990113186978
 30
0.0
 40
4.0
  1
Tag
 50
90.0
 41
0.8
  7
GREEKS
 72
     1
 11
575.3284373066019
 21
533.6323446520311
 31
0.0
100
AcDbText
  0
TEXT
  5
7F
330
1E
100
AcDbEntity
  8
TEXT
100
AcDbText
 10
575.4067578303359
 20
548.9795678138292
 30
0.0
 40
4.0
  1
Name
 50
90.0
 41
0.8
  7
GREEKS
 72
     1
 11
575.4067578303359
 21
555.3033773376387
 31
0.0
100
AcDbText
  0
TEXT
  5
80
330
1E
100
AcDbEntity
  8
TEXT
100
AcDbText
 10
520.6811949877008
 20
592.3311673153651
 30
0.0
 40
4.0
  1
Tag
 50
90.0
 41
0.8
  7
GREEKS
100
AcDbText
  0
TEXT
  5
81
330
1E
100
AcDbEntity
  8
TEXT
100
AcDbText
 10
520.6903890808478
 20
622.4626584226296
 30
0.0
 40
4.0
  1
Name
 50
90.0
 41
0.8
  7
GREEKS
100
AcDbText
  0
TEXT
  5
82
330
1E
100
AcDbEntity
  8
TEXT
100
AcDbText
 10
530.3700963038204
 20
567.5836127167615
 30
0.0
 40
4.0
  1
Gez.
 50
90.0
 41
0.8
  7
GREEKS
100
AcDbText
  0
TEXT
  5
83
330
1E
100
AcDbEntity
  8
TEXT
100
AcDbText
 10
540.3107370857163
 20
567.5515086571672
 30
0.0
 40
4.0
  1
Gepr.
 50
90.0
 41
0.8
  7
GREEKS
100
AcDbText
  0
TEXT
  5
84
330
1E
100
AcDbEntity
  8
TEXT
100
AcDbText
 10
550.470536103502
 20
567.6006777387303
 30
0.0
 40
4.0
  1
Norm.
 50
90.0
 41
0.8
  7
GREEKS
100
AcDbText
  0
TEXT
  5
85
330
1E
100
AcDbEntity
  8
TEXT
100
AcDbText
 10
541.925838221214
 20
757.2400861497007
 30
0.0
 40
5.0
  1
ersetzt durch:
 50
90.0
 41
0.8
  7
GREEKS
100
AcDbText
  0
TEXT
  5
86
330
1E
100
AcDbEntity
  8
TEXT
100
AcDbText
 10
521.0331740347627
 20
568.8693027807324
 30
0.0
 40
4.0
  1
2011
 50
90.0
 41
0.8
  7
GREEKS
100
AcDbText
  0
LINE
  5
87
330
1E
100
AcDbEntity
  8
HILF
100
AcDbLine
 10
594.0
 20
-0.0000000000000568
 30
0.0
 11
594.0
 21
840.0
 31
0.0
  0
LINE
  5
88
330
1E
100
AcDbEntity
  8
HILF
100
AcDbLine
 10
594.0
 20
840.0
 30
0.0
 11
0.0
 21
840.0
 31
0.0
  0
LINE
  5
89
330
1E
100
AcDbEntity
  8
HILF
100
AcDbLine
 10
0.0
 20
840.0
 30
0.0
 11
0.0
 21
0.0
 31
0.0
  0
LINE
  5
8B
330
1E
100
AcDbEntity
  8
STEMPEL
100
AcDbLine
 10
10.0
 20
830.0
 30
0.0
 11
10.0
 21
39.99999999999995
 31
0.0
  0
LINE
  5
8D
330
1E
100
AcDbEntity
  8
STEMPEL
100
AcDbLine
 10
584.0
 20
39.99999999999995
 30
0.0
 11
584.0
 21
830.0
 31
0.0
  0
LINE
  5
8E
330
1E
100
AcDbEntity
  8
STEMPEL
100
AcDbLine
 10
584.0
 20
830.0
 30
0.0
 11
10.0
 21
830.0
 31
0.0
  0
TEXT
  5
91
330
1E
100
AcDbEntity
  8
TEXT
100
AcDbText
 10
491.16010388621
 20
618.5090226415829
 30
0.0
 40
5.0
  1
Zul.Abw.
 50
90.0
 41
0.8
  7
GREEKS
100
AcDbText
  0
TEXT
  5
99
330
1E
100
AcDbEntity
  8
TEXT
 62
     1
100
AcDbText
 10
506.5292291158502
 20
582.703491203422
 30
0.0
 40
7.0
  1
1:2
 50
90.0
 41
0.8
  7
GREEKS
100
AcDbText
  0
TEXT
  5
9A
330
1E
100
AcDbEntity
  8
TEXT
100
AcDbText
 10
479.8856414948956
 20
470.0441139350127
 30
0.0
 40
5.0
  1
Erstellt mit AUTOCAD 2004
 50
90.0
 41
0.8
  7
GREEKS
100
AcDbText
  0
INSERT
  5
9B
330
1E
100
AcDbEntity
  8
HILF
100
AcDbBlockReference
  2
LORO
 10
557.0194069970104
 20
573.0624985962354
 30
0.0
 41
2.0
 42
2.0
 43
2.0
 50
90.0
  0
LINE
  5
9C
330
1E
100
AcDbEntity
  8
BEM
100
AcDbLine
 10
594.0
 20
455.9999999999999
 30
0.0
 11
584.0
 21
455.9999999999999
 31
0.0
  0
LINE
  5
13E
330
1E
100
AcDbEntity
  8
HILF
100
AcDbLine
 10
594.0
 20
-0.0000000000000568
 30
0.0
 11
0.0
 21
0.0
 31
0.0
  0
LINE
  5
13F
330
1E
100
AcDbEntity
  8
STEMPEL
100
AcDbLine
 10
584.0
 20
39.99999999999995
 30
0.0
 11
10.0
 21
39.99999999999995
 31
0.0
  0
LINE
  5
14A
330
1E
100
AcDbEntity
  8
HILF
100
AcDbLine
 10
297.0
 20
-0.0000000000000568
 30
0.0
 11
297.0
 21
39.99999999999995
 31
0.0
  0
TEXT
  5
15B
330
1E
100
AcDbEntity
  8
BEM
100
AcDbText
 10
583.8320989200114
 20
837.3022923857165
 30
0.0
 40
4.0
  1
Diese Zeichnung ist urheberrechtlich geschützt und bleibt unser Eigentum. Sie darf weder ganz noch teilweise verfielfältigt und nicht an Dritte weitergegeben werden.
 50
180.0
 41
0.8
  7
GREEKS
100
AcDbText
  0
HATCH
  5
4A7
330
1E
100
AcDbEntity
  8
SCHRAFF
100
AcDbHatch
 10
0.0
 20
0.0
 30
0.0
210
0.0
220
0.0
230
1.0
  2
_USER
 70
     0
 71
     1
 91
        3
 92
        7
 72
     1
 73
     1
 93
        9
 10
170.0035784380769
 20
327.1674298717901
 42
-0.2102773852970904
 10
174.4272424589377
 20
325.2209711174843
 42
0.0
 10
184.5559468856554
 20
314.1674298717906
 42
0.0
 10
186.0305015592756
 20
315.5186102870219
 42
0.0
 10
175.9017971325574
 20
326.5721515327162
 42
0.2102773852970676
 10
170.0035784380768
 20
329.1674298717904
 42
0.0
 10
138.5236626852114
 20
329.1674298717904
 42
0.0
 10
138.5236626852114
 20
328.1674298717903
 42
0.0
 10
138.5236626852114
 20
327.1674298717904
 42
0.0
 97
        9
330
4CF
330
50D
330
50F
330
4EA
330
520
330
51A
330
527
330
51B
330
51F
 92
        7
 72
     1
 73
     1
 93
       12
 10
287.0437469323461
 20
329.1674298717904
 42
0.2102773852970793
 10
281.1455282378652
 20
326.5721515327161
 42
0.0
 10
271.0168238111471
 20
315.5186102870219
 42
0.0
 10
272.4913784847674
 20
314.1674298717906
 42
0.0
 10
282.6200829114855
 20
325.2209711174848
 42
-0.2102773852970665
 10
287.043746932346
 20
327.1674298717902
 42
0.0
 10
344.8061482639396
 20
327.1674298717905
 42
-0.1989123673797153
 10
347.2810219980929
 20
326.1423036059428
 42
0.0
 10
349.609449122839
 20
323.8138764811964
 42
0.0
 10
351.0236626852121
 20
325.2280900435697
 42
0.0
 10
348.6952355604658
 20
327.5565171683159
 42
0.1989123673796813
 10
344.8061482639396
 20
329.1674298717903
 42
0.0
 97
       12
330
4B3
330
55A
330
53C
330
54F
330
53B
330
559
330
4C1
330
581
330
580
330
585
330
57F
330
582
 92
        7
 72
     1
 73
     1
 93
        8
 10
138.5236626852114
 20
327.1674298717903
 42
0.0
 10
138.5236626852114
 20
329.1674298717904
 42
0.0
 10
112.2411771064835
 20
329.1674298717904
 42
0.1989123673796805
 10
108.3520898099573
 20
327.5565171683159
 42
0.0
 10
106.0236626852115
 20
325.2280900435698
 42
0.0
 10
107.4378762475843
 20
323.8138764811965
 42
0.0
 10
109.7663033723306
 20
326.1423036059428
 42
-0.1989123673796742
 10
112.2411771064834
 20
327.1674298717905
 42
0.0
 97
        8
330
4CF
330
4D2
330
4D9
330
4D8
330
4D7
330
4D3
330
4EA
330
50F
 75
     0
 76
     0
 52
45.0
 41
2.0
 77
     0
 78
     1
 53
45.0
 43
0.0
 44
-0.0000000000001137
 45
-1.414213562373094
 46
1.414213562373095
 79
     0
 47
0.3337348384044811
 98
        3
 10
162.7469622850708
 20
327.6626621341214
 10
295.6732151806313
 20
328.3301318035636
 10
117.9928973564019
 20
327.9963969688425
  0
LINE
  5
4A8
102
{ACAD_REACTORS
330
954
102
}
330
1E
100
AcDbEntity
  8
STEMPEL
100
AcDbLine
 10
265.0236626852116
 20
296.9065813776438
 30
0.0
 11
508.4435183447975
 21
284.1494873091267
 31
0.0
  0
LINE
  5
4A9
102
{ACAD_REACTORS
330
954
102
}
330
1E
100
AcDbEntity
  8
STEMPEL
100
AcDbLine
 10
263.5236626852115
 20
295.4831345275716
 30
0.0
 11
508.335235493318
 21
282.6531036539102
 31
0.0
  0
LINE
  5
4AC
102
{ACAD_REACTORS
330
954
102
}
330
1E
100
AcDbEntity
  8
STEMPEL
100
AcDbLine
 10
192.0236626852113
 20
227.6321680074576
 30
0.0
 11
504.6229935390621
 21
211.2495312720426
 31
0.0
  0
LINE
  5
4AD
102
{ACAD_REACTORS
330
954
102
}
330
1E
100
AcDbEntity
  8
STEMPEL
100
AcDbLine
 10
193.5236626852113
 20
229.0556148575301
 30
0.0
 11
504.6480675263731
 21
212.7502757190467
 31
0.0
  0
DIMENSION
  5
4AE
330
1E
100
AcDbEntity
  8
BEM
100
AcDbDimension
  2
*D5
 10
519.0866022111773
 20
247.0416162900423
 30
0.0
 11
285.1747830675971
 21
240.6423055940231
 31
0.0
 70
    34
 71
     5
 42
0.0523598775598222
  3
Standard
100
AcDb2LineAngularDimension
 13
228.5236626852115
 23
262.2693746925508
 33
0.0
 14
226.5236626852115
 24
262.2693746925508
 34
0.0
 15
228.5236626852113
 25
262.2693746925508
 35
0.0
 16
295.3346224145351
 26
261.1031850525586
 36
0.0
1001
ACAD
1000
DSTYLE
1002
{
1070
    40
1040
2.0
1070
    41
1040
3.5
1070
    42
1040
1.0
1070
    43
1040
7.0
1070
    44
1040
1.0
1070
    47
1040
2.0
1070
    48
1040
2.0
1070
    73
1070
     0
1070
    74
1070
     0
1070
    77
1070
     1
1070
    78
1070
     8
1070
    79
1070
     2
1070
   140
1040
3.5
1070
   141
1040
1.5
1070
   146
1040
0.5142857142857144
1070
   147
1040
1.5
1070
   172
1070
     1
1070
   178
1070
     1
1070
   179
1070
     1
1070
   271
1070
     1
1070
   272
1070
     1
1070
   279
1070
     0
1002
}
  0
LINE
  5
4AF
330
1E
100
AcDbEntity
  8
MITTEL
100
AcDbLine
 10
228.5236626852115
 20
262.2693746925508
 30
0.0
 11
518.5168103589844
 21
247.0714778156692
 31
0.0
  0
LINE
  5
4B1
330
1E
100
AcDbEntity
  8
STEMPEL
100
AcDbLine
 10
269.6961726353094
 20
335.1674298717904
 30
0.0
 11
353.7847270189147
 21
335.1674298717903
 31
0.0
  0
LINE
  5
4B3
102
{ACAD_REACTORS
330
4A7
102
}
330
1E
100
AcDbEntity
  8
STEMPEL
100
AcDbLine
 10
277.198501176943
 20
329.1674298717904
 30
0.0
 11
344.8061482639396
 21
329.1674298717903
 31
0.0
  0
LINE
  5
4B5
330
1E
100
AcDbEntity
  8
STEMPEL
100
AcDbLine
 10
269.6470183064718
 20
329.1674298717904
 30
0.0
 11
351.0236626852115
 21
329.1674298717904
 31
0.0
  0
LINE
  5
4BC
330
1E
100
AcDbEntity
  8
STEMPEL
100
AcDbLine
 10
265.0236626852119
 20
341.167429871791
 30
0.0
 11
337.3658054606381
 21
341.1674298717912
 31
0.0
  0
LINE
  5
4C1
102
{ACAD_REACTORS
330
4A7
102
}
330
1E
100
AcDbEntity
  8
STEMPEL
100
AcDbLine
 10
344.8061482639396
 20
327.1674298717905
 30
0.0
 11
287.043746932346
 21
327.1674298717902
 31
0.0
  0
LINE
  5
4C2
330
1E
100
AcDbEntity
  8
STEMPEL
100
AcDbLine
 10
281.3307182314616
 20
323.8138764811964
 30
0.0
 11
349.6094491228387
 21
323.8138764811964
 31
0.0
  0
HATCH
  5
4C3
330
1E
100
AcDbEntity
  8
SCHRAFF
100
AcDbHatch
 10
0.0
 20
0.0
 30
0.0
210
0.0
220
0.0
230
1.0
  2
_USER
 70
     0
 71
     1
 91
        2
 92
        7
 72
     1
 73
     1
 93
       10
 10
193.5236626852134
 20
542.5586711618702
 42
0.1989123673796959
 10
191.6198567629239
 20
547.1548652395829
 42
0.0
 10
186.0358743653605
 20
552.7388476371461
 42
0.0
 10
184.9289047703755
 20
551.7244968885718
 42
0.0
 10
190.5591965911439
 20
546.0942050678029
 42
-0.1989123673797161
 10
192.0236626852139
 20
542.5586711618701
 42
0.0
 10
192.0236626852119
 20
311.3185470915728
 42
0.0
 10
192.4554895053019
 20
306.3827439522075
 42
0.0
 10
193.9612192616168
 20
306.3827439522075
 42
0.0
 10
193.5236626852116
 20
311.3840385059352
 42
0.0
 97
       10
330
5D1
330
5D0
330
65C
330
5CF
330
5D2
330
4C4
330
531
330
4E1
330
532
330
4C5
 92
        7
 72
     1
 73
     1
 93
       10
 10
265.023662685214
 20
542.5586711618702
 42
-0.1989123673796056
 10
266.4881287792791
 20
546.0942050678029
 42
0.0
 10
272.1184206000478
 20
551.7244968885719
 42
0.0
 10
271.0114510050626
 20
552.7388476371461
 42
0.0
 10
265.4274686074991
 20
547.1548652395829
 42
0.1989123673796139
 10
263.523662685214
 20
542.5586711618705
 42
0.0
 10
263.5236626852117
 20
311.3840385059414
 42
0.0
 10
263.0861061088058
 20
306.3827439522074
 42
0.0
 10
264.5918358651209
 20
306.3827439522074
 42
0.0
 10
265.0236626852116
 20
311.3185470915821
 42
0.0
 97
       10
330
674
330
672
330
697
330
671
330
675
330
4C7
330
54C
330
4E1
330
54D
330
4C6
 75
     0
 76
     0
 52
135.0
 41
2.0
 77
     0
 78
     1
 53
135.0
 43
0.0
 44
-0.0000000000001137
 45
-1.414213562373095
 46
-1.414213562373094
 79
     0
 47
0.534510612474807
 98
        2
 10
193.1443087705697
 20
481.3783571680905
 10
264.2876260862781
 20
462.1359750968967
  0
LINE
  5
4C4
102
{ACAD_REACTORS
330
4C3
102
}
330
1E
100
AcDbEntity
  8
STEMPEL
  6
Continuous
100
AcDbLine
 10
192.0236626852139
 20
542.5586711618702
 30
0.0
 11
192.0236626852119
 21
311.3185470915726
 31
0.0
  0
LINE
  5
4C5
102
{ACAD_REACTORS
330
4C3
102
}
330
1E
100
AcDbEntity
  8
STEMPEL
  6
Continuous
100
AcDbLine
 10
193.5236626852134
 20
542.5586711618702
 30
0.0
 11
193.5236626852116
 21
311.384038505935
 31
0.0
  0
LINE
  5
4C6
102
{ACAD_REACTORS
330
4C3
102
}
330
1E
100
AcDbEntity
  8
STEMPEL
  6
Continuous
100
AcDbLine
 10
265.023662685214
 20
542.5586711618702
 30
0.0
 11
265.0236626852116
 21
311.3185470915817
 31
0.0
  0
LINE
  5
4C7
102
{ACAD_REACTORS
330
4C3
102
}
330
1E
100
AcDbEntity
  8
STEMPEL
  6
Continuous
100
AcDbLine
 10
263.523662685214
 20
542.5586711618704
 30
0.0
 11
263.5236626852117
 21
311.3840385059412
 31
0.0
  0
DIMENSION
  5
4C8
330
1E
100
AcDbEntity
  8
BEM
100
AcDbDimension
  2
*D6
 10
66.03900796850155
 20
566.3827439522075
 30
0.0
 11
59.53900796850145
 21
447.7750869119989
 31
0.0
 70
    32
  1
min.35 - max.230
 71
     5
 42
237.2153140804172
  3
Standard
100
AcDbAlignedDimension
 13
106.0236626852114
 23
329.1674298717904
 33
0.0
 14
106.0236626852114
 24
566.3827439522075
 34
0.0
 50
90.0
100
AcDbRotatedDimension
1001
ACAD
1000
DSTYLE
1002
{
1070
    40
1040
2.0
1070
    41
1040
3.5
1070
    42
1040
1.0
1070
    43
1040
7.0
1070
    44
1040
1.0
1070
    47
1040
2.0
1070
    48
1040
2.0
1070
    73
1070
     0
1070
    74
1070
     0
1070
    77
1070
     1
1070
    78
1070
     8
1070
    79
1070
     2
1070
   140
1040
3.5
1070
   141
1040
1.5
1070
   146
1040
0.5142857142857144
1070
   147
1040
1.5
1070
   172
1070
     1
1070
   178
1070
     1
1070
   179
1070
     1
1070
   271
1070
     1
1070
   272
1070
     1
1070
   279
1070
     0
1002
}
  0
LINE
  5
4C9
330
1E
100
AcDbEntity
  8
MITTEL
100
AcDbLine
 10
228.5236626852115
 20
688.8827439522085
 30
0.0
 11
228.5236626852115
 21
262.2693746925508
 31
0.0
  0
LINE
  5
4CE
330
1E
100
AcDbEntity
  8
STEMPEL
100
AcDbLine
 10
116.5236626852121
 20
335.1674298717903
 30
0.0
 11
133.5236626852119
 21
335.1674298717903
 31
0.0
  0
LINE
  5
4CF
102
{ACAD_REACTORS
330
4A7
102
}
330
1E
100
AcDbEntity
  8
STEMPEL
100
AcDbLine
 10
106.0236626852114
 20
329.1674298717904
 30
0.0
 11
187.400307063951
 21
329.1674298717904
 31
0.0
  0
ARC
  5
4D2
102
{ACAD_REACTORS
330
4A7
102
}
330
1E
100
AcDbEntity
  8
STEMPEL
100
AcDbCircle
 10
112.2411771064835
 20
323.66742987179
 30
0.0
 40
5.499999999999851
100
AcDbArc
 50
90.0
 51
134.9999999999996
  0
ARC
  5
4D3
102
{ACAD_REACTORS
330
4A7
102
}
330
1E
100
AcDbEntity
  8
STEMPEL
100
AcDbCircle
 10
112.2411771064835
 20
323.66742987179
 30
0.0
 40
3.499999999999851
100
AcDbArc
 50
90.0
 51
134.9999999999996
  0
LINE
  5
4D4
330
1E
100
AcDbEntity
  8
STEMPEL
100
AcDbLine
 10
175.7166071389611
 20
323.8138764811964
 30
0.0
 11
107.4378762475844
 21
323.8138764811964
 31
0.0
  0
LINE
  5
4D7
102
{ACAD_REACTORS
330
4A7
102
}
330
1E
100
AcDbEntity
  8
STEMPEL
100
AcDbLine
 10
107.4378762475844
 20
323.8138764811966
 30
0.0
 11
109.7663033723306
 21
326.1423036059428
 31
0.0
  0
LINE
  5
4D8
102
{ACAD_REACTORS
330
4A7
102
}
330
1E
100
AcDbEntity
  8
STEMPEL
100
AcDbLine
 10
106.0236626852115
 20
325.2280900435697
 30
0.0
 11
107.4378762475844
 21
323.8138764811964
 31
0.0
  0
LINE
  5
4D9
102
{ACAD_REACTORS
330
4A7
102
}
330
1E
100
AcDbEntity
  8
STEMPEL
100
AcDbLine
 10
106.0236626852115
 20
325.2280900435697
 30
0.0
 11
108.3520898099573
 21
327.5565171683159
 31
0.0
  0
HATCH
  5
4DA
330
1E
100
AcDbEntity
  8
SCHRAFF
100
AcDbHatch
 10
0.0
 20
0.0
 30
0.0
210
0.0
220
0.0
230
1.0
  2
_USER
 70
     0
 71
     0
 91
        2
 92
        7
 72
     1
 73
     1
 93
        5
 10
186.5723747534831
 20
315.5260736084256
 42
0.0
 10
186.0386463453696
 20
315.5260736084256
 42
0.0
 10
184.5559468856553
 20
314.1674298717906
 42
0.0
 10
183.0452812564935
 20
315.8160321151678
 42
0.5672726747274003
 10
187.1819635639573
 20
312.7483873263607
 42
-0.0620596133380967
 97
        0
 92
        7
 72
     1
 73
     1
 93
        5
 10
274.0088829879931
 20
315.8234954365716
 42
0.0
 10
272.4913784847674
 20
314.1674298717906
 42
0.0
 10
271.0086790250532
 20
315.5260736084256
 42
0.0
 10
270.47495061694
 20
315.5260736084256
 42
-0.0618515723663038
 10
269.8685372624207
 20
312.7573762147722
 42
0.5677098725483689
 97
        0
 75
     0
 76
     0
 52
0.0
 41
0.1
 77
     0
 78
     1
 53
0.0
 43
0.0
 44
0.0
 45
0.0
 46
0.1
 79
     0
 47
0.2816684337430427
 98
        2
 10
184.7026072526278
 20
314.2119943202634
 10
271.5216607377615
 20
313.9303268037012
  0
HATCH
  5
4DB
330
1E
100
AcDbEntity
  8
SCHRAFF
100
AcDbHatch
 10
0.0
 20
0.0
 30
0.0
210
0.0
220
0.0
230
1.0
  2
_USER
 70
     0
 71
     0
 91
        2
 92
        7
 72
     1
 73
     1
 93
       14
 10
193.5236626852113
 20
301.2962439452835
 42
0.1316524975874043
 10
191.9829548287325
 20
307.046243945284
 42
0.0
 10
189.3634086473669
 20
311.5834310241821
 42
-0.1316524975873951
 10
188.0236626852113
 20
316.5834310241821
 42
0.0
 10
188.0236626852113
 20
322.6185074646719
 42
-0.1174534402570155
 10
190.5363403089807
 20
333.1674298717905
 42
0.0
 10
188.8686136706651
 20
333.1674298717905
 42
0.1098063296705094
 10
186.5236626852113
 20
322.6185074646717
 42
0.0
 10
186.5236626852113
 20
316.5834310241821
 42
0.1316524975873904
 10
188.0643705416903
 20
310.8334310241823
 42
0.0
 10
190.6839167230559
 20
306.2962439452836
 42
-0.1316524975873914
 10
192.0236626852113
 20
301.2962439452837
 42
0.0
 10
192.0236626852113
 20
227.6321680074576
 42
0.0
 10
193.5236626852113
 20
229.05561485753
 42
0.0
 97
        0
 92
        7
 72
     1
 73
     1
 93
       14
 10
268.1787116997579
 20
333.1674298717905
 42
0.0
 10
266.5109850614424
 20
333.1674298717905
 42
-0.1174534402570096
 10
269.0236626852116
 20
322.6185074646725
 42
0.0
 10
269.0236626852118
 20
316.5834310241821
 42
-0.1316524975873954
 10
267.6839167230562
 20
311.5834310241821
 42
0.0
 10
265.0643705416903
 20
307.0462439452838
 42
0.1316524975873947
 10
263.5236626852115
 20
301.2962439452838
 42
0.0
 10
263.5236626852115
 20
295.4831345275716
 42
0.0
 10
265.0236626852113
 20
296.9065813776435
 42
0.0
 10
265.0236626852113
 20
301.2962439452835
 42
-0.1316524975873911
 10
266.3634086473669
 20
306.2962439452833
 42
0.0
 10
268.9829548287328
 20
310.8334310241823
 42
0.1316524975873896
 10
270.5236626852116
 20
316.5834310241821
 42
0.0
 10
270.5236626852116
 20
322.6185074646719
 42
0.1098063296705072
 97
        0
 75
     0
 76
     0
 52
135.0
 41
2.0
 77
     0
 78
     1
 53
135.0
 43
-118.6874292927634
 44
-38.645101589158
 45
-1.414213562373095
 46
-1.414213562373094
 79
     0
 47
0.2171429602251947
 98
        2
 10
192.5846427374511
 20
298.5259911994665
 10
269.5109992799578
 20
323.2802880088498
  0
LINE
  5
4DC
330
1E
100
AcDbEntity
  8
TEXT
 62
     2
100
AcDbLine
 10
194.6783428402075
 20
304.2726629639626
 30
0.0
 11
262.3689825302156
 21
304.2726629639626
 31
0.0
  0
HATCH
  5
4DD
330
1E
100
AcDbEntity
  8
SCHRAFF
100
AcDbHatch
 10
0.0
 20
0.0
 30
0.0
210
0.0
220
0.0
230
1.0
  2
NET
 70
     0
 71
     0
 91
        2
 92
        7
 72
     1
 73
     1
 93
       11
 10
188.0236626852114
 20
322.6185074646718
 42
0.0
 10
188.0236626852114
 20
319.0938987483233
 42
0.0
 10
188.3479968810425
 20
319.6948698243893
 42
-0.746481108894411
 10
190.0370127433097
 20
319.3408992595456
 42
0.0758130451094012
 10
190.3155634416638
 20
318.1674298717904
 42
0.1672335555029141
 10
192.0236626852119
 20
316.2033282566524
 42
0.0
 10
192.0236626852121
 20
332.1674298717929
 42
0.0
 10
190.5630519878958
 20
337.518228767537
 42
0.6373886688734817
 10
188.7554894524343
 20
337.6585147686229
 42
0.0
 10
186.2236626852116
 20
333.1674298717905
 42
0.0
 10
190.5363403089807
 20
333.1674298717905
 42
0.117453440257017
 97
        0
 92
        7
 72
     1
 73
     1
 93
       11
 10
265.0236626852118
 20
316.2033282566529
 42
0.1672335555028723
 10
266.7317619287594
 20
318.1674298717904
 42
0.075813045109402
 10
267.0103126271136
 20
319.3408992595456
 42
-0.746481108894327
 10
268.6993284893806
 20
319.6948698243893
 42
0.0
 10
269.0236626852116
 20
319.0938987483236
 42
0.0
 10
269.0236626852116
 20
322.6185074646719
 42
0.1174534402570158
 10
266.5109850614422
 20
333.1674298717905
 42
0.0
 10
270.8236626852117
 20
333.1674298717905
 42
0.0
 10
268.291835917989
 20
337.6585147686229
 42
0.637388668873721
 10
266.4842733825273
 20
337.5182287675366
 42
0.0
 10
265.023662685212
 20
332.1674298717879
 42
0.0
 97
        0
 75
     0
 76
     1
 52
45.0
 41
15.0
 77
     0
 78
     2
 53
45.0
 43
0.0
 44
0.0
 45
-1.325825214724776
 46
1.325825214724776
 79
     0
 53
135.0
 43
0.0
 44
0.0
 45
-1.325825214724776
 46
-1.325825214724776
 79
     0
 47
0.1680730794582934
 98
        2
 10
189.8322429103733
 20
323.8028563392
 10
266.5248433404887
 20
324.6432205629186
  0
HATCH
  5
4DE
330
1E
100
AcDbEntity
  8
BEM
100
AcDbHatch
 10
0.0
 20
0.0
 30
0.0
210
0.0
220
0.0
230
1.0
  2
_USER
 70
     0
 71
     0
 91
        2
 92
        7
 72
     1
 73
     1
 93
        3
 10
265.0236626852113
 20
299.9065813776438
 42
0.0
 10
265.0236626852113
 20
296.9065813776438
 42
0.0
 10
268.0195512894752
 20
296.7495735089151
 42
0.4296339059668427
 97
        0
 92
        7
 72
     1
 73
     1
 93
        3
 10
195.9319345199862
 20
227.4273441597626
 42
0.0
 10
192.0236626852113
 20
227.6321680074575
 42
0.0
 10
192.0236626852113
 20
231.5458033434438
 42
1.39845799594815
 97
        0
 75
     0
 76
     0
 52
0.0
 41
0.1
 77
     0
 78
     1
 53
0.0
 43
0.0
 44
0.0
 45
0.0
 46
0.1
 79
     0
 47
0.2198132944329655
 98
        2
 10
266.2248357874166
 20
298.3509256466009
 10
192.9787811282883
 20
226.691788522969
  0
LINE
  5
4DF
102
{ACAD_REACTORS
330
954
102
}
330
1E
100
AcDbEntity
  8
STEMPEL
100
AcDbLine
 10
265.0236626852113
 20
296.9065813776438
 30
0.0
 11
192.0236626852113
 21
227.6321680074576
 31
0.0
  0
LINE
  5
4E0
330
1E
100
AcDbEntity
  8
HILF
100
AcDbLine
 10
262.0179329288961
 20
311.384038505935
 30
0.0
 11
195.0293924415267
 21
311.384038505935
 31
0.0
  0
LINE
  5
4E1
102
{ACAD_REACTORS
330
4C3
102
}
330
1E
100
AcDbEntity
  8
STEMPEL
100
AcDbLine
 10
264.5918358651209
 20
306.3827439522074
 30
0.0
 11
192.4554895053019
 21
306.3827439522075
 31
0.0
  0
LINE
  5
4E2
330
1E
100
AcDbEntity
  8
STEMPEL
100
AcDbLine
 10
193.5236626852113
 20
301.2962439452835
 30
0.0
 11
193.5236626852113
 21
229.0556148575301
 31
0.0
  0
LINE
  5
4E3
330
1E
100
AcDbEntity
  8
STEMPEL
100
AcDbLine
 10
192.0236626852113
 20
301.2962439452835
 30
0.0
 11
192.0236626852113
 21
227.6321680074576
 31
0.0
  0
ARC
  5
4E5
330
1E
100
AcDbEntity
  8
SCHRAFF
100
AcDbCircle
 10
193.2741756274331
 20
228.8188604798445
 30
0.0
 40
3.0
100
AcDbArc
 50
114.6350953132649
 51
332.3649046867312
  0
LINE
  5
4E7
330
1E
100
AcDbEntity
  8
STEMPEL
100
AcDbLine
 10
143.523662685212
 20
335.1674298717903
 30
0.0
 11
187.3511527351139
 21
335.1674298717903
 31
0.0
  0
LINE
  5
4E9
330
1E
100
AcDbEntity
  8
STEMPEL
100
AcDbLine
 10
116.5236626852113
 20
341.167429871791
 30
0.0
 11
192.0236626852121
 21
341.167429871791
 31
0.0
  0
LINE
  5
4EA
102
{ACAD_REACTORS
330
4A7
102
}
330
1E
100
AcDbEntity
  8
STEMPEL
100
AcDbLine
 10
112.2411771064835
 20
327.1674298717905
 30
0.0
 11
170.0035784380769
 21
327.1674298717901
 31
0.0
  0
LINE
  5
4EB
330
1E
100
AcDbEntity
  8
STEMPEL
100
AcDbLine
 10
112.2411771064835
 20
329.1674298717904
 30
0.0
 11
187.4003070639511
 21
329.1674298717904
 31
0.0
  0
LINE
  5
4ED
330
1E
100
AcDbEntity
  8
MITTEL
100
AcDbLine
 10
131.7345551696812
 20
360.1674298717914
 30
0.0
 11
131.7345551696812
 21
346.3505193110388
 31
0.0
  0
LINE
  5
4EE
330
1E
100
AcDbEntity
  8
STEMPEL
100
AcDbLine
 10
120.7131092293439
 20
355.1674298717922
 30
0.0
 11
120.5544904805526
 21
346.0801678396062
 31
0.0
  0
LINE
  5
4EF
330
1E
100
AcDbEntity
  8
STEMPEL
100
AcDbLine
 10
133.5572744857975
 20
355.1674298717914
 30
0.0
 11
133.5572744857975
 21
353.2010416723762
 31
0.0
  0
LINE
  5
4F0
330
1E
100
AcDbEntity
  8
STEMPEL
100
AcDbLine
 10
142.9438531612506
 20
355.1674298717905
 30
0.0
 11
142.9690830678786
 21
353.7220094891236
 31
0.0
  0
ARC
  5
4F9
330
1E
100
AcDbEntity
  8
STEMPEL
100
AcDbCircle
 10
116.5236626852121
 20
338.1674298717903
 30
0.0
 40
3.000000000000682
100
AcDbArc
 50
90.00000000001303
 51
269.999999999987
  0
LWPOLYLINE
  5
4FA
330
1E
100
AcDbEntity
  8
STEMPEL
100
AcDbPolyline
 90
       10
 70
   128
 43
0.0
 10
118.9199203618832
 20
341.167429871791
 10
119.2037604842589
 20
341.2420654003843
 10
119.4789762681464
 20
341.4637042233954
 10
119.737205421218
 20
341.8256119573417
 10
119.9706017813278
 20
342.3167922188614
 10
120.1720737181783
 20
342.9223207442575
 10
120.3354996089178
 20
343.6237988556979
 10
120.4559138405541
 20
344.3999124957317
 10
120.529657687591
 20
345.2270798441388
 10
120.5544904805526
 20
346.0801678396048
  0
LINE
  5
4FB
330
1E
100
AcDbEntity
  8
STEMPEL
100
AcDbLine
 10
133.5236626852119
 20
341.167429871791
 30
0.0
 11
133.523662685212
 21
329.1674298717904
 31
0.0
  0
LINE
  5
4FC
330
1E
100
AcDbEntity
  8
HILF
100
AcDbLine
 10
134.523662685212
 20
341.1674298717909
 30
0.0
 11
134.523662685212
 21
329.1674298717904
 31
0.0
  0
LINE
  5
4FD
330
1E
100
AcDbEntity
  8
STEMPEL
100
AcDbLine
 10
132.0236626852116
 20
341.1674298717924
 30
0.0
 11
132.0236626852114
 21
335.1674298717903
 31
0.0
  0
LINE
  5
50B
330
1E
100
AcDbEntity
  8
HILF
100
AcDbLine
 10
142.523662685212
 20
341.1674298717909
 30
0.0
 11
142.523662685212
 21
329.1674298717903
 31
0.0
  0
LINE
  5
50C
330
1E
100
AcDbEntity
  8
STEMPEL
100
AcDbLine
 10
143.523662685212
 20
341.167429871791
 30
0.0
 11
143.523662685212
 21
329.1674298717903
 31
0.0
  0
LINE
  5
50D
102
{ACAD_REACTORS
330
4A7
102
}
330
1E
100
AcDbEntity
  8
MITTEL
100
AcDbLine
 10
138.5236626852114
 20
328.1674298717903
 30
0.0
 11
138.5236626852114
 21
359.1674298717907
 31
0.0
  0
LINE
  5
50E
330
1E
100
AcDbEntity
  8
STEMPEL
100
AcDbLine
 10
145.0236626852114
 20
341.1674298717922
 30
0.0
 11
145.0236626852114
 21
335.1674298717903
 31
0.0
  0
LINE
  5
50F
102
{ACAD_REACTORS
330
4A7
102
}
330
1E
100
AcDbEntity
  8
MITTEL
100
AcDbLine
 10
138.5236626852114
 20
324.1674298717903
 30
0.0
 11
138.5236626852114
 21
336.1674298717904
 31
0.0
  0
LINE
  5
519
330
1E
100
AcDbEntity
  8
STEMPEL
100
AcDbLine
 10
120.7131092293439
 20
355.1674298717922
 30
0.0
 11
142.9438531612506
 21
355.1674298717905
 31
0.0
  0
LINE
  5
51A
102
{ACAD_REACTORS
330
4A7
102
}
330
1E
100
AcDbEntity
  8
STEMPEL
100
AcDbLine
 10
174.4272424589373
 20
325.2209711174848
 30
0.0
 11
184.5559468856554
 21
314.1674298717906
 31
0.0
  0
LINE
  5
51B
102
{ACAD_REACTORS
330
4A7
102
}
330
1E
100
AcDbEntity
  8
STEMPEL
100
AcDbLine
 10
175.9017971325574
 20
326.5721515327162
 30
0.0
 11
186.0305015592756
 21
315.5186102870219
 31
0.0
  0
ARC
  5
51C
330
1E
100
AcDbEntity
  8
STEMPEL
100
AcDbCircle
 10
163.0236626852112
 20
338.1674298717908
 30
0.0
 40
3.000000000000397
100
AcDbArc
 50
270.0000000000065
 51
89.99999999999349
  0
ARC
  5
51F
102
{ACAD_REACTORS
330
4A7
102
}
330
1E
100
AcDbEntity
  8
STEMPEL
100
AcDbCircle
 10
170.0035784380768
 20
321.1674298717905
 30
0.0
 40
8.0
100
AcDbArc
 50
42.50000000000706
 51
90.0
  0
ARC
  5
520
102
{ACAD_REACTORS
330
4A7
102
}
330
1E
100
AcDbEntity
  8
STEMPEL
100
AcDbCircle
 10
170.0035784380768
 20
321.1674298717905
 30
0.0
 40
6.0
100
AcDbArc
 50
42.50000000000706
 51
90.0
  0
LINE
  5
521
330
1E
100
AcDbEntity
  8
STEMPEL
100
AcDbLine
 10
188.0236626852113
 20
322.6185074646719
 30
0.0
 11
188.0236626852113
 21
316.5834310241821
 31
0.0
  0
LINE
  5
522
330
1E
100
AcDbEntity
  8
STEMPEL
100
AcDbLine
 10
186.5236626852113
 20
322.6185074646719
 30
0.0
 11
186.5236626852113
 21
316.5834310241821
 31
0.0
  0
ARC
  5
523
330
1E
100
AcDbEntity
  8
STEMPEL
100
AcDbCircle
 10
182.0236626852115
 20
301.2962439452835
 30
0.0
 40
11.5
100
AcDbArc
 50
0.0
 51
30.00000000000003
  0
ARC
  5
524
330
1E
100
AcDbEntity
  8
STEMPEL
100
AcDbCircle
 10
182.0236626852115
 20
301.2962439452835
 30
0.0
 40
10.0
100
AcDbArc
 50
0.0
 51
30.00000000000003
  0
ARC
  5
525
330
1E
100
AcDbEntity
  8
SCHRAFF
100
AcDbCircle
 10
186.0305015592756
 20
315.5186102870219
 30
0.0
 40
3.0
100
AcDbArc
 50
174.3103148957775
 51
292.5705454002759
  0
ARC
  5
526
330
1E
100
AcDbEntity
  8
STEMPEL
100
AcDbCircle
 10
198.0236626852113
 20
316.5834310241821
 30
0.0
 40
11.5
100
AcDbArc
 50
180.0
 51
210.0
  0
LINE
  5
527
102
{ACAD_REACTORS
330
4A7
102
}
330
1E
100
AcDbEntity
  8
STEMPEL
100
AcDbLine
 10
184.5559468856554
 20
314.1674298717906
 30
0.0
 11
186.0305015592756
 21
315.5186102870219
 31
0.0
  0
LINE
  5
528
330
1E
100
AcDbEntity
  8
STEMPEL
100
AcDbLine
 10
186.0236626852118
 20
315.5260736084256
 30
0.0
 11
186.5236626852113
 21
315.5260736084256
 31
0.0
  0
ARC
  5
529
330
1E
100
AcDbEntity
  8
STEMPEL
100
AcDbCircle
 10
198.0236626852113
 20
316.5834310241821
 30
0.0
 40
10.0
100
AcDbArc
 50
180.0
 51
210.0
  0
LINE
  5
52A
330
1E
100
AcDbEntity
  8
STEMPEL
100
AcDbLine
 10
190.6839167230559
 20
306.2962439452836
 30
0.0
 11
188.0643705416903
 21
310.8334310241823
 31
0.0
  0
LINE
  5
52B
330
1E
100
AcDbEntity
  8
STEMPEL
100
AcDbLine
 10
191.9829548287325
 20
307.0462439452838
 30
0.0
 11
189.3634086473669
 21
311.5834310241821
 31
0.0
  0
ARC
  5
52C
330
1E
100
AcDbEntity
  8
STEMPEL
100
AcDbCircle
 10
194.0236626852116
 20
319.6674298717905
 30
0.0
 40
4.0
100
AcDbArc
 50
184.6824168622686
 51
202.0243128370422
  0
LINE
  5
52D
330
1E
100
AcDbEntity
  8
STEMPEL
100
AcDbLine
 10
188.0236626852113
 20
319.0938987483233
 30
0.0
 11
188.3479968810425
 21
319.6948698243893
 31
0.0
  0
ARC
  5
52E
330
1E
100
AcDbEntity
  8
STEMPEL
100
AcDbCircle
 10
189.1400165063817
 20
319.2674298717905
 30
0.0
 40
0.9
100
AcDbArc
 50
4.682416862268575
 51
151.6449939715936
  0
LINE
  5
52F
330
1E
100
AcDbEntity
  8
STEMPEL
100
AcDbLine
 10
188.0236626852114
 20
318.1674298717905
 30
0.0
 11
190.3155634416638
 21
318.1674298717905
 31
0.0
  0
ARC
  5
530
330
1E
100
AcDbEntity
  8
STEMPEL
100
AcDbCircle
 10
194.0236626852116
 20
319.6674298717905
 30
0.0
 40
4.0
100
AcDbArc
 50
202.0243128370422
 51
240.000000000008
  0
LINE
  5
531
102
{ACAD_REACTORS
330
4C3
102
}
330
1E
100
AcDbEntity
  8
STEMPEL
100
AcDbLine
 10
192.0236626852119
 20
311.3185470915726
 30
0.0
 11
192.4554895053019
 21
306.3827439522075
 31
0.0
  0
LINE
  5
532
102
{ACAD_REACTORS
330
4C3
102
}
330
1E
100
AcDbEntity
  8
STEMPEL
100
AcDbLine
 10
193.5236626852116
 20
311.384038505935
 30
0.0
 11
193.9611060028413
 21
306.3840385059349
 31
0.0
  0
ARC
  5
533
330
1E
100
AcDbEntity
  8
STEMPEL
100
AcDbCircle
 10
189.6266011697835
 20
337.1674298717906
 30
0.0
 40
1.0
100
AcDbArc
 50
9.999999999998536
 51
150.5880863344673
  0
ARC
  5
534
330
1E
100
AcDbEntity
  8
STEMPEL
100
AcDbCircle
 10
211.4236626852114
 20
322.6185074646719
 30
0.0
 40
24.9
100
AcDbArc
 50
154.934662284811
 51
180.0
  0
LINE
  5
535
330
1E
100
AcDbEntity
  8
STEMPEL
100
AcDbLine
 10
186.2236626852116
 20
333.1674298717905
 30
0.0
 11
190.5363403089807
 21
333.1674298717905
 31
0.0
  0
LINE
  5
536
330
1E
100
AcDbEntity
  8
STEMPEL
100
AcDbLine
 10
186.2236626852116
 20
333.1674298717905
 30
0.0
 11
188.7554894524343
 21
337.6585147686229
 31
0.0
  0
ARC
  5
537
330
1E
100
AcDbEntity
  8
STEMPEL
100
AcDbCircle
 10
211.4236626852114
 20
322.6185074646719
 30
0.0
 40
23.4
100
AcDbArc
 50
153.2044220687671
 51
180.0
  0
LINE
  5
538
330
1E
100
AcDbEntity
  8
STEMPEL
100
AcDbLine
 10
192.0236626852128
 20
332.1674298717905
 30
0.0
 11
190.6114089227957
 21
337.3410780494574
 31
0.0
  0
LINE
  5
539
330
1E
100
AcDbEntity
  8
STEMPEL
100
AcDbLine
 10
189.6266011697835
 20
338.1674298717905
 30
0.0
 11
192.0236626852128
 21
338.1674298717905
 31
0.0
  0
ARC
  5
53A
330
1E
100
AcDbEntity
  8
SCHRAFF
100
AcDbCircle
 10
271.0236626852111
 20
315.5260736084256
 30
0.0
 40
3.0
100
AcDbArc
 50
247.3536642463041
 51
5.689685104215999
  0
LINE
  5
53B
102
{ACAD_REACTORS
330
4A7
102
}
330
1E
100
AcDbEntity
  8
STEMPEL
100
AcDbLine
 10
282.6200829114855
 20
325.2209711174848
 30
0.0
 11
272.4913784847674
 21
314.1674298717906
 31
0.0
  0
LINE
  5
53C
102
{ACAD_REACTORS
330
4A7
102
}
330
1E
100
AcDbEntity
  8
STEMPEL
100
AcDbLine
 10
281.1455282378654
 20
326.5721515327162
 30
0.0
 11
271.0168238111471
 21
315.5186102870219
 31
0.0
  0
LINE
  5
53D
330
1E
100
AcDbEntity
  8
STEMPEL
100
AcDbLine
 10
270.5236626852116
 20
322.6185074646719
 30
0.0
 11
270.5236626852116
 21
316.5834310241821
 31
0.0
  0
LINE
  5
53E
330
1E
100
AcDbEntity
  8
STEMPEL
100
AcDbLine
 10
269.0236626852116
 20
322.6185074646719
 30
0.0
 11
269.0236626852118
 21
316.5834310241821
 31
0.0
  0
ARC
  5
53F
330
1E
100
AcDbEntity
  8
STEMPEL
100
AcDbCircle
 10
275.0236626852113
 20
301.2962439452835
 30
0.0
 40
10.0
100
AcDbArc
 50
149.9999999999999
 51
180.0
  0
ARC
  5
540
330
1E
100
AcDbEntity
  8
STEMPEL
100
AcDbCircle
 10
275.0236626852113
 20
301.2962439452835
 30
0.0
 40
11.5
100
AcDbArc
 50
149.9999999999999
 51
180.0
  0
ARC
  5
541
330
1E
100
AcDbEntity
  8
SCHRAFF
100
AcDbCircle
 10
265.0236626852113
 20
296.9065813776438
 30
0.0
 40
3.0
100
AcDbArc
 50
357.0000000000009
 51
90.0
  0
ARC
  5
542
330
1E
100
AcDbEntity
  8
SCHRAFF
100
AcDbCircle
 10
265.0236626852113
 20
296.9065813776438
 30
0.0
 40
3.0
100
AcDbArc
 50
357.0000000000009
 51
90.0
  0
LINE
  5
543
330
1E
100
AcDbEntity
  8
STEMPEL
100
AcDbLine
 10
265.0236626852113
 20
301.2962439452835
 30
0.0
 11
265.0236626852113
 21
296.9065813776438
 31
0.0
  0
LINE
  5
544
330
1E
100
AcDbEntity
  8
STEMPEL
100
AcDbLine
 10
263.5236626852115
 20
301.2962439452838
 30
0.0
 11
263.5236626852115
 21
295.4831345275716
 31
0.0
  0
ARC
  5
545
330
1E
100
AcDbEntity
  8
STEMPEL
100
AcDbCircle
 10
259.0236626852118
 20
316.5834310241821
 30
0.0
 40
10.0
100
AcDbArc
 50
330.0
 51
0.0
  0
LINE
  5
546
330
1E
100
AcDbEntity
  8
STEMPEL
100
AcDbLine
 10
266.3634086473669
 20
306.2962439452836
 30
0.0
 11
268.9829548287328
 21
310.8334310241823
 31
0.0
  0
ARC
  5
547
330
1E
100
AcDbEntity
  8
STEMPEL
100
AcDbCircle
 10
267.9073088640416
 20
319.2674298717905
 30
0.0
 40
0.9
100
AcDbArc
 50
28.35500602840642
 51
175.3175831377314
  0
LINE
  5
548
330
1E
100
AcDbEntity
  8
STEMPEL
100
AcDbLine
 10
269.0236626852118
 20
318.1674298717905
 30
0.0
 11
266.7317619287595
 21
318.1674298717905
 31
0.0
  0
LINE
  5
549
330
1E
100
AcDbEntity
  8
STEMPEL
100
AcDbLine
 10
265.0643705416903
 20
307.0462439452838
 30
0.0
 11
267.6839167230562
 21
311.5834310241821
 31
0.0
  0
ARC
  5
54A
330
1E
100
AcDbEntity
  8
STEMPEL
100
AcDbCircle
 10
263.0236626852116
 20
319.6674298717905
 30
0.0
 40
4.0
100
AcDbArc
 50
337.9756871629578
 51
355.3175831377314
  0
ARC
  5
54B
330
1E
100
AcDbEntity
  8
STEMPEL
100
AcDbCircle
 10
263.0236626852116
 20
319.6674298717905
 30
0.0
 40
4.0
100
AcDbArc
 50
300.0000000000025
 51
337.9756871629578
  0
LINE
  5
54C
102
{ACAD_REACTORS
330
4C3
102
}
330
1E
100
AcDbEntity
  8
STEMPEL
100
AcDbLine
 10
263.5236626852117
 20
311.3840385059412
 30
0.0
 11
263.0862193675813
 21
306.3840385059349
 31
0.0
  0
LINE
  5
54D
102
{ACAD_REACTORS
330
4C3
102
}
330
1E
100
AcDbEntity
  8
STEMPEL
100
AcDbLine
 10
265.0236626852116
 20
311.3185470915817
 30
0.0
 11
264.5918358651209
 21
306.3827439522074
 31
0.0
  0
LINE
  5
54E
330
1E
100
AcDbEntity
  8
STEMPEL
100
AcDbLine
 10
270.4749506169398
 20
315.5260736084256
 30
0.0
 11
271.0236626852111
 21
315.5260736084256
 31
0.0
  0
LINE
  5
54F
102
{ACAD_REACTORS
330
4A7
102
}
330
1E
100
AcDbEntity
  8
STEMPEL
100
AcDbLine
 10
272.4913784847674
 20
314.1674298717906
 30
0.0
 11
271.0168238111471
 21
315.5186102870219
 31
0.0
  0
ARC
  5
550
330
1E
100
AcDbEntity
  8
STEMPEL
100
AcDbCircle
 10
259.0236626852118
 20
316.5834310241821
 30
0.0
 40
11.5
100
AcDbArc
 50
330.0
 51
0.0
  0
LINE
  5
551
330
1E
100
AcDbEntity
  8
STEMPEL
100
AcDbLine
 10
269.0236626852117
 20
319.0938987483236
 30
0.0
 11
268.6993284893806
 21
319.6948698243893
 31
0.0
  0
ARC
  5
552
330
1E
100
AcDbEntity
  8
STEMPEL
100
AcDbCircle
 10
267.4207242006397
 20
337.1674298717906
 30
0.0
 40
1.0
100
AcDbArc
 50
29.41191366553264
 51
170.0000000000014
  0
ARC
  5
553
330
1E
100
AcDbEntity
  8
STEMPEL
100
AcDbCircle
 10
245.6236626852115
 20
322.6185074646719
 30
0.0
 40
23.4
100
AcDbArc
 50
0.0
 51
26.79557793123291
  0
LINE
  5
554
330
1E
100
AcDbEntity
  8
STEMPEL
100
AcDbLine
 10
270.8236626852117
 20
333.1674298717905
 30
0.0
 11
266.5109850614422
 21
333.1674298717905
 31
0.0
  0
LINE
  5
555
330
1E
100
AcDbEntity
  8
STEMPEL
100
AcDbLine
 10
265.0236626852126
 20
332.1674298717905
 30
0.0
 11
266.4359164476274
 21
337.3410780494574
 31
0.0
  0
ARC
  5
556
330
1E
100
AcDbEntity
  8
STEMPEL
100
AcDbCircle
 10
245.6236626852115
 20
322.6185074646719
 30
0.0
 40
24.9
100
AcDbArc
 50
0.0
 51
25.065337715189
  0
LINE
  5
557
330
1E
100
AcDbEntity
  8
STEMPEL
100
AcDbLine
 10
270.8236626852117
 20
333.1674298717905
 30
0.0
 11
268.291835917989
 21
337.6585147686229
 31
0.0
  0
LINE
  5
558
330
1E
100
AcDbEntity
  8
STEMPEL
100
AcDbLine
 10
265.0236626852127
 20
338.1674298717906
 30
0.0
 11
267.4207242006397
 21
338.1674298717905
 31
0.0
  0
ARC
  5
559
102
{ACAD_REACTORS
330
4A7
102
}
330
1E
100
AcDbEntity
  8
STEMPEL
100
AcDbCircle
 10
287.043746932346
 20
321.1674298717905
 30
0.0
 40
6.0
100
AcDbArc
 50
90.0
 51
137.4999999999929
  0
ARC
  5
55A
102
{ACAD_REACTORS
330
4A7
102
}
330
1E
100
AcDbEntity
  8
STEMPEL
100
AcDbCircle
 10
287.043746932346
 20
321.1674298717905
 30
0.0
 40
8.0
100
AcDbArc
 50
90.0
 51
137.4999999999929
  0
ARC
  5
55B
330
1E
100
AcDbEntity
  8
STEMPEL
100
AcDbCircle
 10
294.0236626852117
 20
338.1674298717909
 30
0.0
 40
3.0
100
AcDbArc
 50
90.0
 51
270.0
  0
DIMENSION
  5
567
330
1E
100
AcDbEntity
  8
BEM
100
AcDbDimension
  2
*D7
 10
533.1133764618645
 20
209.7564135721348
 30
0.0
 11
528.5325468888273
 21
246.5465753062561
 31
0.0
 70
    33
  1
%%c<>
 71
     5
 42
73.0000000000002
  3
Standard
100
AcDbAlignedDimension
 13
508.4435183447975
 23
284.1494873091267
 33
0.0
 14
504.6229935390621
 24
211.2495312720426
 34
0.0
1001
ACAD
1000
DSTYLE
1002
{
1070
    40
1040
2.0
1070
    41
1040
3.5
1070
    42
1040
1.0
1070
    43
1040
7.0
1070
    44
1040
1.0
1070
    47
1040
2.0
1070
    48
1040
2.0
1070
    73
1070
     0
1070
    74
1070
     0
1070
    77
1070
     1
1070
    78
1070
     8
1070
    79
1070
     2
1070
   140
1040
3.5
1070
   141
1040
1.5
1070
   146
1040
0.5142857142857144
1070
   147
1040
1.5
1070
   172
1070
     1
1070
   178
1070
     1
1070
   179
1070
     1
1070
   271
1070
     1
1070
   272
1070
     1
1070
   279
1070
     0
1002
}
  0
DIMENSION
  5
568
330
1E
100
AcDbEntity
  8
BEM
100
AcDbDimension
  2
*D8
 10
556.7976055755563
 20
247.333157596884
 30
0.0
 11
550.2976055755563
 21
288.2502937343369
 31
0.0
 70
    32
 71
     5
 42
81.83427227490572
  3
Standard
100
AcDbAlignedDimension
 13
351.0236626852115
 23
329.1674298717897
 33
0.0
 14
535.0826901688894
 24
247.333157596884
 34
0.0
 50
90.0
100
AcDbRotatedDimension
1001
ACAD
1000
DSTYLE
1002
{
1070
    72
1070
     0
1070
    71
1070
     0
1070
   271
1070
     0
1070
    40
1040
2.0
1070
    41
1040
3.5
1070
    42
1040
1.0
1070
    43
1040
7.0
1070
    44
1040
1.0
1070
    47
1040
0.0
1070
    48
1040
8.0
1070
    73
1070
     0
1070
    74
1070
     0
1070
    77
1070
     1
1070
    78
1070
     8
1070
    79
1070
     2
1070
   140
1040
3.5
1070
   141
1040
1.5
1070
   146
1040
0.5142857142857144
1070
   147
1040
1.5
1070
   172
1070
     1
1070
   178
1070
     1
1070
   179
1070
     2
1070
   279
1070
     0
1002
}
  0
LINE
  5
569
330
1E
100
AcDbEntity
  8
STEMPEL
100
AcDbLine
 10
342.0842192178491
 20
355.1674298717924
 30
0.0
 11
358.5236626852113
 21
355.1674298717909
 31
0.0
  0
LINE
  5
56A
330
1E
100
AcDbEntity
  8
STEMPEL
100
AcDbLine
 10
342.5236626852113
 20
355.1674298717909
 30
0.0
 11
342.3650439364201
 21
346.080167839605
 31
0.0
  0
LINE
  5
56B
330
1E
100
AcDbEntity
  8
STEMPEL
100
AcDbLine
 10
342.0842192178491
 20
355.1674298717921
 30
0.0
 11
341.9256004690578
 21
346.080167839606
 31
0.0
  0
LINE
  5
56C
330
1E
100
AcDbEntity
  8
MITTEL
100
AcDbLine
 10
299.9236626852114
 20
359.1674298717903
 30
0.0
 11
299.9236626852114
 21
329.1674298717903
 31
0.0
  0
ARC
  5
576
330
1E
100
AcDbEntity
  8
STEMPEL
100
AcDbCircle
 10
337.3658054606381
 20
346.1674298717912
 30
0.0
 40
5.0
100
AcDbArc
 50
270.0
 51
358.9999999999982
  0
ARC
  5
577
330
1E
100
AcDbEntity
  8
STEMPEL
100
AcDbCircle
 10
336.9263619932758
 20
346.1674298717923
 30
0.0
 40
5.0
100
AcDbArc
 50
270.0
 51
358.9999999999982
  0
LINE
  5
578
330
1E
100
AcDbEntity
  8
STEMPEL
100
AcDbLine
 10
358.5236626852113
 20
355.1674298717909
 30
0.0
 11
358.7839654946965
 21
340.2546919039775
 31
0.0
  0
LINE
  5
57B
330
1E
100
AcDbEntity
  8
MITTEL
100
AcDbLine
 10
350.5236626852116
 20
360.1674298717916
 30
0.0
 11
350.5236626852116
 21
335.1674298717912
 31
0.0
  0
ARC
  5
57E
330
1E
100
AcDbEntity
  8
STEMPEL
100
AcDbCircle
 10
353.7847270189147
 20
340.1674298717912
 30
0.0
 40
5.0
100
AcDbArc
 50
270.0
 51
1.000000000001775
  0
LINE
  5
57F
102
{ACAD_REACTORS
330
4A7
102
}
330
1E
100
AcDbEntity
  8
STEMPEL
100
AcDbLine
 10
351.023662685212
 20
325.2280900435697
 30
0.0
 11
348.6952355604658
 21
327.5565171683159
 31
0.0
  0
LINE
  5
580
102
{ACAD_REACTORS
330
4A7
102
}
330
1E
100
AcDbEntity
  8
STEMPEL
100
AcDbLine
 10
349.6094491228387
 20
323.8138764811966
 30
0.0
 11
347.2810219980929
 21
326.1423036059428
 31
0.0
  0
ARC
  5
581
102
{ACAD_REACTORS
330
4A7
102
}
330
1E
100
AcDbEntity
  8
STEMPEL
100
AcDbCircle
 10
344.8061482639396
 20
323.66742987179
 30
0.0
 40
3.499999999999851
100
AcDbArc
 50
45.00000000000036
 51
90.0
  0
ARC
  5
582
102
{ACAD_REACTORS
330
4A7
102
}
330
1E
100
AcDbEntity
  8
STEMPEL
100
AcDbCircle
 10
344.8061482639396
 20
323.66742987179
 30
0.0
 40
5.499999999999851
100
AcDbArc
 50
45.00000000000036
 51
90.0
  0
LINE
  5
585
102
{ACAD_REACTORS
330
4A7
102
}
330
1E
100
AcDbEntity
  8
STEMPEL
100
AcDbLine
 10
351.023662685212
 20
325.2280900435697
 30
0.0
 11
349.6094491228391
 21
323.8138764811964
 31
0.0
  0
TEXT
  5
586
330
1E
100
AcDbEntity
  8
TEXT
 62
     1
100
AcDbText
 10
392.6233668626703
 20
257.6756672194325
 30
0.0
 40
7.0
  1
DN70
 50
357.0000000000009
 41
0.8
  7
GREEKS
100
AcDbText
  0
LINE
  5
587
330
1E
100
AcDbEntity
  8
HILF
100
AcDbLine
 10
508.2865104760681
 20
281.153598704863
 30
0.0
 11
504.7800014077908
 21
214.2454198763063
 31
0.0
  0
LINE
  5
588
102
{ACAD_REACTORS
330
954
102
}
330
1E
100
AcDbEntity
  8
STEMPEL
100
AcDbLine
 10
515.4193532913012
 20
283.5050891693206
 30
0.0
 11
511.6395682604653
 21
211.3824943457192
 31
0.0
  0
LINE
  5
589
102
{ACAD_REACTORS
330
954
102
}
330
1E
100
AcDbEntity
  8
STEMPEL
100
AcDbLine
 10
504.6480675263731
 20
212.7502757190467
 30
0.0
 11
511.7182722051778
 21
212.8842550726407
 31
0.0
  0
LINE
  5
58A
102
{ACAD_REACTORS
330
954
102
}
330
1E
100
AcDbEntity
  8
STEMPEL
100
AcDbLine
 10
504.6229935390621
 20
211.2495312720426
 30
0.0
 11
511.6395682604656
 21
211.3824943457193
 31
0.0
  0
LINE
  5
58B
102
{ACAD_REACTORS
330
954
102
}
330
1E
100
AcDbEntity
  8
STEMPEL
100
AcDbLine
 10
508.335235493318
 20
282.6531036539102
 30
0.0
 11
515.2813770775402
 21
282.0114484613735
 31
0.0
  0
LINE
  5
58C
102
{ACAD_REACTORS
330
954
102
}
330
1E
100
AcDbEntity
  8
STEMPEL
100
AcDbLine
 10
508.4435183447975
 20
284.1494873091267
 30
0.0
 11
515.4193532913012
 21
283.5050891693206
 31
0.0
  0
HATCH
  5
58D
330
1E
100
AcDbEntity
  8
SCHRAFF
100
AcDbHatch
 10
0.0
 20
0.0
 30
0.0
210
0.0
220
0.0
230
1.0
  2
_USER
 70
     0
 71
     1
 91
        2
 92
        7
 72
     1
 73
     1
 93
       12
 10
170.0035784380769
 20
566.3827439522075
 42
0.0
 10
112.2411771064838
 20
566.3827439522076
 42
0.1989123673797054
 10
108.3520898099572
 20
564.771831248733
 42
0.0
 10
106.0236626852112
 20
562.4434041239868
 42
0.0
 10
107.437876247584
 20
561.0291905616137
 42
0.0
 10
109.7663033723303
 20
563.3576176863599
 42
-0.1989123673796765
 10
112.2411771064831
 20
564.3827439522076
 42
0.0
 10
170.0035784380771
 20
564.3827439522071
 42
-0.2102773852970917
 10
174.427242458938
 20
562.4362851979013
 42
0.0
 10
184.5559468856556
 20
551.3827439522073
 42
0.0
 10
186.0305015592757
 20
552.7339243674386
 42
0.0
 10
175.9017971325577
 20
563.7874656131329
 42
0.2102773852970793
 97
       12
330
591
330
5A7
330
5B2
330
5B1
330
5B0
330
5A8
330
5D3
330
648
330
638
330
65C
330
639
330
647
 92
        7
 72
     1
 73
     1
 93
       12
 10
344.8061482639395
 20
566.3827439522074
 42
0.0
 10
287.0437469323463
 20
566.3827439522075
 42
0.2102773852970683
 10
281.1455282378657
 20
563.7874656131331
 42
0.0
 10
271.0168238111474
 20
552.7339243674388
 42
0.0
 10
272.4913784847676
 20
551.3827439522072
 42
0.0
 10
282.6200829114857
 20
562.4362851979017
 42
-0.21027738529707
 10
287.0437469323462
 20
564.3827439522072
 42
0.0
 10
344.8061482639395
 20
564.3827439522076
 42
-0.1989123673796966
 10
347.2810219980926
 20
563.3576176863599
 42
0.0
 10
349.6094491228387
 20
561.0291905616137
 42
0.0
 10
351.0236626852117
 20
562.4434041239868
 42
0.0
 10
348.6952355604657
 20
564.771831248733
 42
0.1989123673796782
 97
       12
330
591
330
6A0
330
694
330
697
330
693
330
69F
330
58F
330
720
330
71F
330
722
330
71E
330
721
 75
     0
 76
     0
 52
45.0
 41
2.0
 77
     0
 78
     1
 53
45.0
 43
0.0
 44
-0.0000000000001137
 45
-1.414213562373094
 46
1.414213562373095
 79
     0
 47
0.3342552444986401
 98
        2
 10
166.0995772411111
 20
564.9671383556214
 10
311.6098426267572
 20
565.3013934085805
  0
LINE
  5
58F
102
{ACAD_REACTORS
330
58D
102
}
330
1E
100
AcDbEntity
  8
STEMPEL
100
AcDbLine
 10
344.8061482639395
 20
564.3827439522076
 30
0.0
 11
287.0437469323462
 21
564.3827439522072
 31
0.0
  0
LINE
  5
590
330
1E
100
AcDbEntity
  8
STEMPEL
100
AcDbLine
 10
281.3307182314621
 20
561.0291905616135
 30
0.0
 11
349.6094491228386
 21
561.0291905616135
 31
0.0
  0
LINE
  5
591
102
{ACAD_REACTORS
330
58D
102
}
330
1E
100
AcDbEntity
  8
STEMPEL
100
AcDbLine
 10
112.2411771064838
 20
566.3827439522076
 30
0.0
 11
344.8061482639395
 21
566.3827439522074
 31
0.0
  0
LINE
  5
5A3
330
1E
100
AcDbEntity
  8
STEMPEL
100
AcDbLine
 10
106.0236626852114
 20
566.3827439522075
 30
0.0
 11
351.0236626852115
 21
566.3827439522074
 31
0.0
  0
DIMENSION
  5
5A4
330
1E
100
AcDbEntity
  8
BEM
100
AcDbDimension
  2
*D2
 10
338.5236626852119
 20
691.7043806539552
 30
0.0
 11
228.5236626852118
 21
698.2043806539552
 31
0.0
 70
    32
  1
%%c<>
 71
     5
 42
220.0000000000002
  3
Standard
100
AcDbAlignedDimension
 13
118.5236626852116
 23
662.3826859848933
 33
0.0
 14
338.5236626852119
 24
662.3826859848933
 34
0.0
100
AcDbRotatedDimension
1001
ACAD
1000
DSTYLE
1002
{
1070
    40
1040
2.0
1070
    41
1040
3.5
1070
    42
1040
1.0
1070
    43
1040
7.0
1070
    44
1040
1.0
1070
    47
1040
2.0
1070
    48
1040
2.0
1070
    73
1070
     0
1070
    74
1070
     0
1070
    77
1070
     1
1070
    78
1070
     8
1070
    79
1070
     2
1070
   140
1040
3.5
1070
   141
1040
1.5
1070
   146
1040
0.5142857142857144
1070
   147
1040
1.5
1070
   172
1070
     1
1070
   178
1070
     1
1070
   179
1070
     1
1070
   271
1070
     1
1070
   272
1070
     1
1070
   279
1070
     0
1002
}
  0
DIMENSION
  5
5A5
330
1E
100
AcDbEntity
  8
BEM
100
AcDbDimension
  2
*D3
 10
358.5236626852114
 20
705.4901309822796
 30
0.0
 11
228.5236626852115
 21
711.9901309822796
 31
0.0
 70
    32
  1
%%c<>
 71
     5
 42
259.9999999999998
  3
Standard
100
AcDbAlignedDimension
 13
98.52366268521166
 23
593.3827439522088
 33
0.0
 14
358.5236626852114
 24
593.3827439522091
 34
0.0
100
AcDbRotatedDimension
1001
ACAD
1000
DSTYLE
1002
{
1070
    40
1040
2.0
1070
    41
1040
3.5
1070
    42
1040
1.0
1070
    43
1040
7.0
1070
    44
1040
1.0
1070
    47
1040
2.0
1070
    48
1040
2.0
1070
    73
1070
     0
1070
    74
1070
     0
1070
    77
1070
     1
1070
    78
1070
     8
1070
    79
1070
     2
1070
   140
1040
3.5
1070
   141
1040
1.5
1070
   146
1040
0.5142857142857144
1070
   147
1040
1.5
1070
   172
1070
     1
1070
   178
1070
     1
1070
   179
1070
     1
1070
   271
1070
     1
1070
   272
1070
     1
1070
   279
1070
     0
1002
}
  0
ARC
  5
5A7
102
{ACAD_REACTORS
330
58D
102
}
330
1E
100
AcDbEntity
  8
STEMPEL
100
AcDbCircle
 10
112.2411771064834
 20
560.882743952207
 30
0.0
 40
5.499999999999851
100
AcDbArc
 50
90.0
 51
134.9999999999996
  0
ARC
  5
5A8
102
{ACAD_REACTORS
330
58D
102
}
330
1E
100
AcDbEntity
  8
STEMPEL
100
AcDbCircle
 10
112.2411771064834
 20
560.882743952207
 30
0.0
 40
3.499999999999851
100
AcDbArc
 50
90.0
 51
134.9999999999996
  0
LINE
  5
5A9
330
1E
100
AcDbEntity
  8
STEMPEL
100
AcDbLine
 10
175.7166071389612
 20
561.0291905616135
 30
0.0
 11
107.4378762475843
 21
561.0291905616135
 31
0.0
  0
DIMENSION
  5
5AE
330
1E
100
AcDbEntity
  8
BEM
100
AcDbDimension
  2
*D4
 10
66.03900796850155
 20
572.3827439522083
 30
0.0
 11
59.53900796850145
 21
627.3827439522083
 31
0.0
 70
    32
 71
     5
 42
109.9999999999999
  3
Standard
100
AcDbAlignedDimension
 13
148.5236626852116
 23
682.3827439522082
 33
0.0
 14
116.5236626852114
 24
572.3827439522083
 34
0.0
 50
90.0
100
AcDbRotatedDimension
1001
ACAD
1000
DSTYLE
1002
{
1070
    40
1040
2.0
1070
    41
1040
3.5
1070
    42
1040
1.0
1070
    43
1040
7.0
1070
    44
1040
1.0
1070
    47
1040
2.0
1070
    48
1040
2.0
1070
    73
1070
     0
1070
    74
1070
     0
1070
    77
1070
     1
1070
    78
1070
     8
1070
    79
1070
     2
1070
   140
1040
3.5
1070
   141
1040
1.5
1070
   146
1040
0.5142857142857144
1070
   147
1040
1.5
1070
   172
1070
     1
1070
   178
1070
     1
1070
   179
1070
     1
1070
   271
1070
     1
1070
   272
1070
     1
1070
   279
1070
     0
1002
}
  0
LINE
  5
5B0
102
{ACAD_REACTORS
330
58D
102
}
330
1E
100
AcDbEntity
  8
STEMPEL
100
AcDbLine
 10
107.4378762475843
 20
561.0291905616138
 30
0.0
 11
109.7663033723303
 21
563.3576176863599
 31
0.0
  0
LINE
  5
5B1
102
{ACAD_REACTORS
330
58D
102
}
330
1E
100
AcDbEntity
  8
STEMPEL
100
AcDbLine
 10
106.0236626852112
 20
562.4434041239868
 30
0.0
 11
107.4378762475841
 21
561.0291905616135
 31
0.0
  0
LINE
  5
5B2
102
{ACAD_REACTORS
330
58D
102
}
330
1E
100
AcDbEntity
  8
STEMPEL
100
AcDbLine
 10
106.0236626852112
 20
562.4434041239868
 30
0.0
 11
108.3520898099572
 21
564.771831248733
 31
0.0
  0
HATCH
  5
5CB
330
1E
100
AcDbEntity
  8
SCHRAFF
100
AcDbHatch
 10
0.0
 20
0.0
 30
0.0
210
0.0
220
0.0
230
1.0
  2
_USER
 70
     0
 71
     1
 91
        2
 92
        7
 72
     1
 73
     1
 93
        4
 10
186.8077391200915
 20
549.8456625388555
 42
0.0
 10
184.9289047703754
 20
551.7244968885716
 42
0.0
 10
184.5559468856557
 20
551.3827439522073
 42
0.0
 10
183.0384423824299
 20
553.0388095169883
 42
0.5252365674411881
 97
        4
330
65C
330
638
330
5CE
330
5CF
 92
        7
 72
     1
 73
     1
 93
        4
 10
272.4913784847677
 20
551.3827439522073
 42
0.0
 10
272.1184206000478
 20
551.7244968885718
 42
0.0
 10
270.2395862503317
 20
549.8456625388556
 42
0.5252365674411985
 10
274.0088829879934
 20
553.0388095169883
 42
0.0
 97
        4
330
693
330
697
330
672
330
670
 75
     0
 76
     0
 52
0.0
 41
0.1
 77
     0
 78
     1
 53
0.0
 43
0.0
 44
0.0
 45
0.0
 46
0.1
 79
     0
 47
0.1173904646505602
 98
        2
 10
185.1900787352544
 20
550.3947505709077
 10
272.2417648897369
 20
550.8643120701458
  0
LINE
  5
5CC
330
1E
100
AcDbEntity
  8
STEMPEL
100
AcDbLine
 10
186.023662685212
 20
552.7413876888424
 30
0.0
 11
271.0236626852113
 21
552.7413876888424
 31
0.0
  0
LINE
  5
5CD
330
1E
100
AcDbEntity
  8
HILF
100
AcDbLine
 10
194.6271244463148
 20
545.0461134722433
 30
0.0
 11
262.420200924108
 21
545.0461134722432
 31
0.0
  0
ARC
  5
5CE
102
{ACAD_REACTORS
330
5CB
102
}
330
1E
100
AcDbEntity
  8
SCHRAFF
100
AcDbCircle
 10
186.023662685212
 20
552.7413876888424
 30
0.0
 40
3.0
100
AcDbArc
 50
174.3103148957775
 51
285.1507044993655
  0
LINE
  5
5CF
102
{ACAD_REACTORS
330
5CB
330
4C3
102
}
330
1E
100
AcDbEntity
  8
STEMPEL
100
AcDbLine
 10
184.9289047703753
 20
551.7244968885718
 30
0.0
 11
190.5591965911439
 21
546.0942050678029
 31
0.0
  0
LINE
  5
5D0
102
{ACAD_REACTORS
330
4C3
102
}
330
1E
100
AcDbEntity
  8
STEMPEL
100
AcDbLine
 10
186.0337758646128
 20
552.7409461378938
 30
0.0
 11
191.6198567629239
 21
547.1548652395829
 31
0.0
  0
ARC
  5
5D1
102
{ACAD_REACTORS
330
4C3
102
}
330
1E
100
AcDbEntity
  8
STEMPEL
100
AcDbCircle
 10
187.0236626852113
 20
542.5586711618702
 30
0.0
 40
6.5
100
AcDbArc
 50
0.0
 51
45.00000000000036
  0
ARC
  5
5D2
102
{ACAD_REACTORS
330
4C3
102
}
330
1E
100
AcDbEntity
  8
STEMPEL
100
AcDbCircle
 10
187.0236626852113
 20
542.5586711618702
 30
0.0
 40
5.0
100
AcDbArc
 50
0.0
 51
45.00000000000036
  0
LINE
  5
5D3
102
{ACAD_REACTORS
330
58D
102
}
330
1E
100
AcDbEntity
  8
STEMPEL
100
AcDbLine
 10
112.2411771064834
 20
564.3827439522076
 30
0.0
 11
170.0035784380771
 21
564.3827439522071
 31
0.0
  0
POINT
  5
5E4
330
1E
100
AcDbEntity
  8
BEM
100
AcDbPoint
 10
113.5236626852114
 20
575.3827439522081
 30
0.0
  0
LINE
  5
638
102
{ACAD_REACTORS
330
5CB
330
58D
102
}
330
1E
100
AcDbEntity
  8
STEMPEL
100
AcDbLine
 10
174.4272424589376
 20
562.4362851979017
 30
0.0
 11
184.5559468856556
 21
551.3827439522073
 31
0.0
  0
LINE
  5
639
102
{ACAD_REACTORS
330
58D
102
}
330
1E
100
AcDbEntity
  8
STEMPEL
100
AcDbLine
 10
175.9017971325577
 20
563.7874656131329
 30
0.0
 11
186.0305015592757
 21
552.7339243674386
 31
0.0
  0
ARC
  5
647
102
{ACAD_REACTORS
330
58D
102
}
330
1E
100
AcDbEntity
  8
STEMPEL
100
AcDbCircle
 10
170.003578438077
 20
558.3827439522074
 30
0.0
 40
8.0
100
AcDbArc
 50
42.50000000000727
 51
90.0
  0
ARC
  5
648
102
{ACAD_REACTORS
330
58D
102
}
330
1E
100
AcDbEntity
  8
STEMPEL
100
AcDbCircle
 10
170.003578438077
 20
558.3827439522074
 30
0.0
 40
6.0
100
AcDbArc
 50
42.50000000000727
 51
90.0
  0
LINE
  5
65C
102
{ACAD_REACTORS
330
5CB
330
58D
330
4C3
102
}
330
1E
100
AcDbEntity
  8
STEMPEL
100
AcDbLine
 10
184.5559468856556
 20
551.3827439522073
 30
0.0
 11
186.0305015592757
 21
552.7339243674386
 31
0.0
  0
ARC
  5
670
102
{ACAD_REACTORS
330
5CB
102
}
330
1E
100
AcDbEntity
  8
SCHRAFF
100
AcDbCircle
 10
271.0236626852113
 20
552.7413876888424
 30
0.0
 40
3.0
100
AcDbArc
 50
254.849295500629
 51
5.689685104222541
  0
LINE
  5
671
102
{ACAD_REACTORS
330
4C3
102
}
330
1E
100
AcDbEntity
  8
STEMPEL
100
AcDbLine
 10
271.0135495058103
 20
552.7409461378938
 30
0.0
 11
265.4274686074991
 21
547.1548652395829
 31
0.0
  0
LINE
  5
672
102
{ACAD_REACTORS
330
5CB
330
4C3
102
}
330
1E
100
AcDbEntity
  8
STEMPEL
100
AcDbLine
 10
272.1184206000478
 20
551.7244968885718
 30
0.0
 11
266.4881287792791
 21
546.0942050678029
 31
0.0
  0
TEXT
  5
673
330
1E
100
AcDbEntity
  8
TEXT
 62
     1
100
AcDbText
 10
225.926038432845
 20
456.7287768227528
 30
0.0
 40
7.0
  1
DN70
 50
90.0
 41
0.8
  7
GREEKS
100
AcDbText
  0
ARC
  5
674
102
{ACAD_REACTORS
330
4C3
102
}
330
1E
100
AcDbEntity
  8
STEMPEL
100
AcDbCircle
 10
270.0236626852118
 20
542.5586711618702
 30
0.0
 40
5.0
100
AcDbArc
 50
134.9999999999996
 51
180.0
  0
ARC
  5
675
102
{ACAD_REACTORS
330
4C3
102
}
330
1E
100
AcDbEntity
  8
STEMPEL
100
AcDbCircle
 10
270.0236626852118
 20
542.5586711618702
 30
0.0
 40
6.5
100
AcDbArc
 50
134.9999999999996
 51
180.0
  0
LINE
  5
693
102
{ACAD_REACTORS
330
5CB
330
58D
102
}
330
1E
100
AcDbEntity
  8
STEMPEL
100
AcDbLine
 10
282.6200829114857
 20
562.4362851979017
 30
0.0
 11
272.4913784847676
 21
551.3827439522073
 31
0.0
  0
LINE
  5
694
102
{ACAD_REACTORS
330
58D
102
}
330
1E
100
AcDbEntity
  8
STEMPEL
100
AcDbLine
 10
281.1455282378656
 20
563.7874656131329
 30
0.0
 11
271.0168238111474
 21
552.7339243674386
 31
0.0
  0
LINE
  5
697
102
{ACAD_REACTORS
330
5CB
330
58D
330
4C3
102
}
330
1E
100
AcDbEntity
  8
STEMPEL
100
AcDbLine
 10
272.4913784847676
 20
551.3827439522073
 30
0.0
 11
271.0168238111474
 21
552.7339243674386
 31
0.0
  0
ARC
  5
69F
102
{ACAD_REACTORS
330
58D
102
}
330
1E
100
AcDbEntity
  8
STEMPEL
100
AcDbCircle
 10
287.0437469323463
 20
558.3827439522074
 30
0.0
 40
6.0
100
AcDbArc
 50
90.0
 51
137.4999999999927
  0
ARC
  5
6A0
102
{ACAD_REACTORS
330
58D
102
}
330
1E
100
AcDbEntity
  8
STEMPEL
100
AcDbCircle
 10
287.0437469323463
 20
558.3827439522074
 30
0.0
 40
8.0
100
AcDbArc
 50
90.0
 51
137.4999999999927
  0
LINE
  5
71E
102
{ACAD_REACTORS
330
58D
102
}
330
1E
100
AcDbEntity
  8
STEMPEL
100
AcDbLine
 10
351.0236626852117
 20
562.4434041239868
 30
0.0
 11
348.6952355604657
 21
564.771831248733
 31
0.0
  0
LINE
  5
71F
102
{ACAD_REACTORS
330
58D
102
}
330
1E
100
AcDbEntity
  8
STEMPEL
100
AcDbLine
 10
349.6094491228386
 20
561.0291905616138
 30
0.0
 11
347.2810219980926
 21
563.3576176863599
 31
0.0
  0
ARC
  5
720
102
{ACAD_REACTORS
330
58D
102
}
330
1E
100
AcDbEntity
  8
STEMPEL
100
AcDbCircle
 10
344.8061482639395
 20
560.882743952207
 30
0.0
 40
3.499999999999851
100
AcDbArc
 50
45.00000000000036
 51
90.0
  0
ARC
  5
721
102
{ACAD_REACTORS
330
58D
102
}
330
1E
100
AcDbEntity
  8
STEMPEL
100
AcDbCircle
 10
344.8061482639395
 20
560.882743952207
 30
0.0
 40
5.499999999999851
100
AcDbArc
 50
45.00000000000036
 51
90.0
  0
LINE
  5
722
102
{ACAD_REACTORS
330
58D
102
}
330
1E
100
AcDbEntity
  8
STEMPEL
100
AcDbLine
 10
351.0236626852117
 20
562.4434041239868
 30
0.0
 11
349.6094491228388
 21
561.0291905616135
 31
0.0
  0
TEXT
  5
8F3
330
1E
100
AcDbEntity
  8
TEXT
 62
     1
100
AcDbText
 10
507.6686886850768
 20
766.9044394842365
 30
0.0
 40
7.0
  1
21525070W
 50
90.0
 41
0.8
 72
     1
 11
507.6686886850768
 21
790.3711061509032
 31
0.0
100
AcDbText
  0
TEXT
  5
8F4
330
1E
100
AcDbEntity
  8
TEXT
 62
     1
100
AcDbText
 10
507.4109425789936
 20
654.9791173409951
 30
0.0
 40
7.0
  1
Drainlet Kompletteinheit
 50
90.0
 41
0.7
100
AcDbText
  0
TEXT
  5
8F5
330
1E
100
AcDbEntity
  8
TEXT
100
AcDbText
 10
522.0
 20
654.8629872542571
 30
0.0
 40
5.0
  1
DN70 mit Wärmedämmung
 50
90.0
 41
0.8
100
AcDbText
  0
TEXT
  5
8F7
330
1E
100
AcDbEntity
  8
TEXT
100
AcDbText
 10
542.0
 20
655.1623031583292
 30
0.0
 40
5.0
  1
EDV-Art.Nr. 21525.070X
 50
90.0
 41
0.8
100
AcDbText
  0
TEXT
  5
8F8
330
1E
100
AcDbEntity
  8
TEXT
100
AcDbText
 10
552.0
 20
654.9713400534565
 30
0.0
 40
4.0
  1
21525070W.DWG
 50
90.0
 41
0.8
100
AcDbText
  0
TEXT
  5
8F9
330
1E
100
AcDbEntity
  8
TEXT
100
AcDbText
 10
506.0254814117801
 20
613.0095238095239
 30
0.0
 40
4.0
  1
DIN EN1124-3
 50
90.0
 41
0.8
 72
     1
 11
506.0254814117801
 21
630.0000000000001
 31
0.0
100
AcDbText
  0
TEXT
  5
8FA
330
1E
100
AcDbEntity
  8
TEXT
100
AcDbText
 10
531.0
 20
624.7428571428572
 30
0.0
 40
4.0
  1
Koeh
 50
90.0
 41
0.8
 72
     4
 11
529.0
 21
630.0000000000001
 31
0.0
100
AcDbText
  0
TEXT
  5
8FB
330
1E
100
AcDbEntity
  8
TEXT
100
AcDbText
 10
531.0
 20
590.6000000000001
 30
0.0
 40
4.0
  1
31.01.
 50
90.0
 41
0.8
 72
     4
 11
529.0
 21
597.0000000000001
 31
0.0
100
AcDbText
  0
HATCH
  5
954
330
1E
100
AcDbEntity
  8
SCHRAFF
100
AcDbHatch
 10
0.0
 20
0.0
 30
0.0
210
0.0
220
0.0
230
1.0
  2
_USER
 70
     0
 71
     1
 91
        2
 92
        7
 72
     0
 73
     1
 93
        6
 10
265.0236626852114
 20
296.9065813776439
 10
263.5236626852113
 20
295.4831345275716
 10
508.3352354933175
 20
282.6531036539104
 10
515.340787281532
 20
282.0059603979041
 10
515.4193532913011
 20
283.5050891693206
 10
508.4435183447973
 20
284.1494873091268
 97
        6
330
4DF
330
4A9
330
58B
330
588
330
58C
330
4A8
 92
        7
 72
     0
 73
     1
 93
        6
 10
193.5236626852115
 20
229.0556148575301
 10
192.0236626852113
 20
227.6321680074576
 10
504.6229935390623
 20
211.2495312720426
 10
511.6395682604654
 20
211.3824943457193
 10
511.7182722051778
 20
212.8842550726407
 10
504.6480675263729
 20
212.7502757190467
 97
        6
330
4DF
330
4AC
330
58A
330
588
330
589
330
4AD
 75
     0
 76
     0
 52
45.0
 41
2.0
 77
     0
 78
     1
 53
45.0
 43
0.0
 44
0.0
 45
-1.414213562373094
 46
1.414213562373095
 79
     0
 47
0.4541901744963907
 98
        2
 10
404.908596468661
 20
288.7194406868657
 10
389.0010678278227
 20
217.8657720751798
  0
TEXT
  5
97C
330
1E
100
AcDbEntity
  8
TEXT
 62
     1
100
AcDbText
 10
346.8029229866813
 20
463.2535232560871
 30
0.0
 40
7.0
  1
Ablaufkörper DN70
 41
0.8
  7
GREEKS
100
AcDbText
  0
LINE
  5
97D
330
1E
100
AcDbEntity
  8
TEXT
 62
     2
100
AcDbLine
 10
345.7222365878442
 20
459.6407549838934
 30
0.0
 11
264.7531193880638
 21
482.140462263311
 31
0.0
  0
LINE
  5
97E
330
1E
100
AcDbEntity
  8
TEXT
 62
     2
100
AcDbLine
 10
451.846131195522
 20
459.6407549838936
 30
0.0
 11
345.7222365878442
 21
459.6407549838934
 31
0.0
  0
TEXT
  5
97F
330
1E
100
AcDbEntity
  8
TEXT
 62
     1
100
AcDbText
 10
346.6223676925292
 20
450.2057511091079
 30
0.0
 40
7.0
  1
EDV-Art.Nr. 21981.070X
 41
0.8
  7
GREEKS
100
AcDbText
  0
TEXT
  5
980
330
1E
100
AcDbEntity
  8
TEXT
 62
     1
100
AcDbText
 10
346.3175924665986
 20
530.3740155387917
 30
0.0
 40
7.0
  1
EDV-Art.Nr. 21905.070X
 41
0.8
100
AcDbText
  0
LINE
  5
981
330
1E
100
AcDbEntity
  8
TEXT
 62
     2
100
AcDbLine
 10
451.6608011629773
 20
539.6665123465909
 30
0.0
 11
345.7222365878442
 21
539.6665123465909
 31
0.0
  0
TEXT
  5
982
330
1E
100
AcDbEntity
  8
TEXT
 62
     1
100
AcDbText
 10
346.3175924665986
 20
543.1503465075013
 30
0.0
 40
7.0
  1
Losflansch DN70
 41
0.8
100
AcDbText
  0
LINE
  5
983
330
1E
100
AcDbEntity
  8
TEXT
 62
     2
100
AcDbLine
 10
345.7222365878442
 20
539.6665123465909
 30
0.0
 11
321.9937098194187
 21
575.1369310835527
 31
0.0
  0
TEXT
  5
984
330
1E
100
AcDbEntity
  8
TEXT
 62
     1
100
AcDbText
 10
348.4030898416538
 20
494.4978335520938
 30
0.0
 40
7.0
  1
EDV-Art.Nr. 21920.070X
 41
0.8
100
AcDbText
  0
LINE
  5
985
330
1E
100
AcDbEntity
  8
TEXT
 62
     2
100
AcDbLine
 10
451.6608011629773
 20
503.790330359893
 30
0.0
 11
345.7222365878442
 21
503.790330359893
 31
0.0
  0
TEXT
  5
986
330
1E
100
AcDbEntity
  8
TEXT
 62
     1
100
AcDbText
 10
348.4030898416538
 20
507.2741645208034
 30
0.0
 40
7.0
  1
Kompressionsdichtung
 41
0.8
100
AcDbText
  0
LINE
  5
987
330
1E
100
AcDbEntity
  8
TEXT
 62
     2
100
AcDbLine
 10
345.7222365878442
 20
503.790330359893
 30
0.0
 11
293.2934723723324
 21
568.1187660077109
 31
0.0
  0
TEXT
  5
989
330
1E
100
AcDbEntity
  8
TEXT
 62
     1
100
AcDbText
 10
304.3011855437407
 20
749.9699863621562
 30
0.0
 40
7.0
  1
EDV-Art.Nr. 21004.000X
 41
0.8
  7
GREEKS
100
AcDbText
  0
LINE
  5
98A
330
1E
100
AcDbEntity
  8
TEXT
 62
     2
100
AcDbLine
 10
302.9498163955644
 20
760.4836652492601
 30
0.0
 11
411.2534211200761
 21
760.4836652492601
 31
0.0
  0
TEXT
  5
98B
330
1E
100
AcDbEntity
  8
TEXT
 62
     1
100
AcDbText
 10
304.3011855437407
 20
763.6463268798917
 30
0.0
 40
7.0
  1
Siebkorb
 41
0.8
  7
GREEKS
100
AcDbText
  0
LINE
  5
98C
330
1E
100
AcDbEntity
  8
TEXT
 62
     2
100
AcDbLine
 10
288.564464459316
 20
707.1415134398862
 30
0.0
 11
302.9498163955644
 21
760.4836652492601
 31
0.0
  0
LINE
  5
98D
330
1E
100
AcDbEntity
  8
TEXT
 62
     2
100
AcDbLine
 10
284.9905622421184
 20
693.8891692868565
 30
0.0
 11
287.2815500570424
 21
702.3843538578482
 31
0.0
  0
LINE
  5
98E
330
1E
100
AcDbEntity
  8
TEXT
 62
     2
100
AcDbLine
 10
281.6503365998001
 20
681.5033184519429
 30
0.0
 11
283.5995077271247
 21
688.7310166436154
 31
0.0
  0
LINE
  5
9A3
330
1E
100
AcDbEntity
  8
TEXT
 62
     2
100
AcDbLine
 10
406.8441703251619
 20
351.9089954510339
 30
0.0
 11
348.6957386665695
 21
330.2507361751698
 31
0.0
  0
TEXT
  5
9A4
330
1E
100
AcDbEntity
  8
TEXT
 62
     1
100
AcDbText
 10
409.5250235789714
 20
355.3928296119443
 30
0.0
 40
7.0
  1
Kompressionsdichtung
 41
0.8
100
AcDbText
  0
LINE
  5
9A5
330
1E
100
AcDbEntity
  8
TEXT
 62
     2
100
AcDbLine
 10
512.782734900295
 20
351.9089954510339
 30
0.0
 11
406.8441703251619
 21
351.9089954510339
 31
0.0
  0
TEXT
  5
9A6
330
1E
100
AcDbEntity
  8
TEXT
 62
     1
100
AcDbText
 10
409.5250235789714
 20
342.6164986432348
 30
0.0
 40
7.0
  1
EDV-Art.Nr. 21920.070X
 41
0.8
100
AcDbText
  0
LINE
  5
9A7
330
1E
100
AcDbEntity
  8
TEXT
 62
     2
100
AcDbLine
 10
409.0871814139531
 20
383.8620432088428
 30
0.0
 11
354.5173100136508
 21
353.1996280844067
 31
0.0
  0
TEXT
  5
9A8
330
1E
100
AcDbEntity
  8
TEXT
 62
     1
100
AcDbText
 10
409.6825372927075
 20
387.3458773697532
 30
0.0
 40
7.0
  1
Losflansch DN70
 41
0.8
100
AcDbText
  0
LINE
  5
9A9
330
1E
100
AcDbEntity
  8
TEXT
 62
     2
100
AcDbLine
 10
515.0257459890863
 20
383.8620432088428
 30
0.0
 11
409.0871814139531
 21
383.8620432088428
 31
0.0
  0
TEXT
  5
9AA
330
1E
100
AcDbEntity
  8
TEXT
 62
     1
100
AcDbText
 10
409.6825372927075
 20
374.5695464010437
 30
0.0
 40
7.0
  1
EDV-Art.Nr. 21905.070X
 41
0.8
100
AcDbText
  0
TEXT
  5
9CF
330
1E
100
AcDbEntity
  8
TEXT
 62
     1
100
AcDbText
 10
346.8029229866813
 20
422.1736185956634
 30
0.0
 40
7.0
  1
Dichtelement DN70
 41
0.8
  7
GREEKS
100
AcDbText
  0
LINE
  5
9D0
330
1E
100
AcDbEntity
  8
TEXT
 62
     2
100
AcDbLine
 10
345.7222365878442
 20
418.5608503234695
 30
0.0
 11
266.9599497098912
 21
336.0173111556719
 31
0.0
  0
LINE
  5
9D1
330
1E
100
AcDbEntity
  8
TEXT
 62
     2
100
AcDbLine
 10
451.846131195522
 20
418.5608503234698
 30
0.0
 11
345.7222365878442
 21
418.5608503234695
 31
0.0
  0
TEXT
  5
9D2
330
1E
100
AcDbEntity
  8
TEXT
 62
     1
100
AcDbText
 10
346.6223676925292
 20
409.125846448684
 30
0.0
 40
7.0
  1
EDV-Art.Nr. 00911.070X
 41
0.8
  7
GREEKS
100
AcDbText
  0
HATCH
  5
B8B
330
1E
100
AcDbEntity
  8
SCHRAFF
100
AcDbHatch
 10
0.0
 20
0.0
 30
0.0
210
0.0
220
0.0
230
1.0
  2
_USER
 70
     0
 71
     1
 91
        4
 92
        7
 72
     0
 73
     1
 93
       13
 10
347.5236626852116
 20
592.3827439522091
 10
346.5236626852114
 20
592.3827439522091
 10
346.5236626852114
 20
589.3827439522095
 10
347.0236626852117
 20
589.3827439522095
 10
347.0236626852115
 20
586.3827439522095
 10
346.5236626852113
 20
586.3827439522095
 10
346.5236626852117
 20
578.3827439522095
 10
347.0236626852115
 20
578.3827439522095
 10
347.0236626852117
 20
575.3827439522097
 10
346.5236626852115
 20
575.3827439522097
 10
346.5236626852117
 20
572.3827439522076
 10
347.5236626852116
 20
572.3827439522076
 10
347.5236626852116
 20
579.6327439522094
 97
       13
330
BC1
330
CC7
330
CC8
330
CD1
330
CCB
330
CC9
330
CCA
330
CCE
330
CCD
330
CCC
330
BBA
330
CD0
330
C22
 92
        7
 72
     1
 73
     1
 93
       14
 10
354.5236626852116
 20
592.3827439522091
 42
0.0
 10
353.5236626852114
 20
592.3827439522091
 42
0.0
 10
353.5236626852115
 20
579.6327439522094
 42
0.0
 10
353.5236626852114
 20
572.3827439522076
 42
0.0
 10
353.7847270189149
 20
572.3827439522076
 42
0.0370996223327203
 10
354.5236626852116
 20
572.4376479894305
 42
0.0
 10
354.5236626852116
 20
575.3827439522097
 42
0.0
 10
354.0236626852116
 20
575.3827439522096
 42
0.0
 10
354.0236626852117
 20
578.3827439522097
 42
0.0
 10
354.5236626852116
 20
578.3827439522098
 42
0.0
 10
354.5236626852114
 20
586.3827439522095
 42
0.0
 10
354.0236626852117
 20
586.3827439522095
 42
0.0
 10
354.0236626852117
 20
589.3827439522095
 42
0.0
 10
354.5236626852114
 20
589.3827439522096
 42
0.0
 97
       14
330
C0F
330
C24
330
CC5
330
BBA
330
C10
330
CC1
330
CC2
330
CC3
330
CBF
330
CBE
330
CC0
330
CC6
330
CBD
330
CBC
 92
        7
 72
     0
 73
     1
 93
        5
 10
353.5236626852115
 20
579.6327439522092
 10
352.8736626852117
 20
578.9827439522094
 10
352.5236626852116
 20
578.9827439522094
 10
352.5236626852116
 20
572.3827439522076
 10
353.5236626852115
 20
572.3827439522076
 97
        5
330
C28
330
C25
330
CC4
330
BBA
330
CC5
 92
        7
 72
     0
 73
     1
 93
        5
 10
348.5236626852115
 20
578.9827439522095
 10
348.1736626852117
 20
578.9827439522094
 10
347.5236626852116
 20
579.6327439522094
 10
347.5236626852116
 20
572.3827439522076
 10
348.5236626852115
 20
572.3827439522076
 97
        5
330
C25
330
C27
330
CD0
330
BBA
330
CCF
 75
     0
 76
     0
 52
135.0
 41
1.0
 77
     0
 78
     1
 53
135.0
 43
-23.05183672868023
 44
-11.73469551714254
 45
-0.7071067811865476
 46
-0.7071067811865475
 79
     0
 47
0.0709247460704967
 98
        4
 10
347.1630820420998
 20
591.5166045832507
 10
354.1160651964399
 20
590.3108826103549
 10
353.0518320996659
 20
576.0550093942307
 10
348.0854165083272
 20
577.7572020141525
  0
LWPOLYLINE
  5
B8C
330
1E
100
AcDbEntity
  8
STEMPEL
100
AcDbPolyline
 90
       10
 70
   128
 43
0.0
 10
-141.4578775728854
 20
612.3827439522105
 10
-142.2507049187451
 20
612.2688020998019
 10
-143.0194426068908
 20
611.9304386081044
 10
-143.7407329316684
 20
611.3779344805935
 10
-144.3926598515498
 20
610.6280772756023
 10
-144.9554148969655
 20
609.7036510248589
 10
-145.4118990406284
 20
608.6327439522095
 10
-145.7482422428252
 20
607.4478950271519
 10
-145.9542248855552
 20
606.185105284711
 10
-146.0235882904513
 20
604.8827439522089
210
0.0
220
0.0
230
-1.0
  0
LINE
  5
B8D
330
1E
100
AcDbEntity
  8
HILF
100
AcDbLine
 10
330.8499957427423
 20
665.3827439522118
 30
0.0
 11
125.6973296276809
 21
665.3827439522116
 31
0.0
  0
LWPOLYLINE
  5
B8E
330
1E
100
AcDbEntity
  8
STEMPEL
100
AcDbPolyline
 90
       18
 70
   128
 43
0.0
 10
-137.6873877421404
 20
604.8827439522073
 10
-137.7651276434005
 20
606.2608653358316
 10
-137.9957000080824
 20
607.5920564486115
 10
-138.3712529708475
 20
608.8309851737882
 10
-138.8789975259752
 20
609.9354612795574
 10
-139.5016430416132
 20
610.8678731568103
 10
-140.2179860715072
 20
611.5964686373716
 10
-141.0036324129331
 20
612.0964362760049
 10
-141.8318278220125
 20
612.3507502744216
 10
-142.6743690974002
 20
612.3507502744216
 10
-143.5025645064796
 20
612.0964362760049
 10
-144.2882108479056
 20
611.5964686373716
 10
-145.0045538777996
 20
610.8678731568103
 10
-145.6271993934375
 20
609.9354612795574
 10
-146.1349439485652
 20
608.8309851737882
 10
-146.5104969113304
 20
607.5920564486115
 10
-146.7410692760122
 20
606.2608653358316
 10
-146.8188091772723
 20
604.8827439522073
210
0.0
220
0.0
230
-1.0
  0
LINE
  5
B8F
330
1E
100
AcDbEntity
  8
STEMPEL
100
AcDbLine
 10
121.4909680635038
 20
667.5598245122524
 30
0.0
 11
145.4772709389707
 21
681.551834522941
 31
0.0
  0
LINE
  5
B90
330
1E
100
AcDbEntity
  8
STEMPEL
100
AcDbLine
 10
122.0043091170846
 20
666.7015813990898
 30
0.0
 11
145.9831630100358
 21
680.6892345652753
 31
0.0
  0
LINE
  5
B91
330
1E
100
AcDbEntity
  8
STEMPEL
100
AcDbLine
 10
118.5236626852116
 20
662.3826859848935
 30
0.0
 11
118.5236626852116
 21
598.3827439522094
 31
0.0
  0
LINE
  5
B92
330
1E
100
AcDbEntity
  8
STEMPEL
100
AcDbLine
 10
119.5236626852117
 20
662.3826859848935
 30
0.0
 11
119.5236626852117
 21
598.3827439522094
 31
0.0
  0
LINE
  5
B93
330
1E
100
AcDbEntity
  8
STEMPEL
100
AcDbLine
 10
130.9295885584586
 20
604.8827439522073
 30
0.0
 11
130.9295885584586
 21
598.3827439522107
 31
0.0
  0
LINE
  5
B94
330
1E
100
AcDbEntity
  8
STEMPEL
100
AcDbLine
 10
130.0035342219513
 20
604.8827439522073
 30
0.0
 11
130.0035342219513
 21
598.3827439522107
 31
0.0
  0
LINE
  5
B95
330
1E
100
AcDbEntity
  8
STEMPEL
100
AcDbLine
 10
137.6873877421403
 20
604.8827439522073
 30
0.0
 11
137.6873877421403
 21
598.3827439522107
 31
0.0
  0
LINE
  5
B96
330
1E
100
AcDbEntity
  8
STEMPEL
100
AcDbLine
 10
125.1893370729808
 20
604.8827439522073
 30
0.0
 11
125.1893370729808
 21
598.3827439522107
 31
0.0
  0
LINE
  5
B97
330
1E
100
AcDbEntity
  8
STEMPEL
100
AcDbLine
 10
119.733349926247
 20
604.8827439522073
 30
0.0
 11
119.733349926247
 21
598.3827439522095
 31
0.0
  0
LINE
  5
B98
330
1E
100
AcDbEntity
  8
STEMPEL
100
AcDbLine
 10
120.6974640960096
 20
604.8827439522073
 30
0.0
 11
120.6974640960096
 21
598.3827439522095
 31
0.0
  0
LINE
  5
B99
330
1E
100
AcDbEntity
  8
STEMPEL
100
AcDbLine
 10
121.6912428095475
 20
604.8827439522073
 30
0.0
 11
121.6912428095475
 21
598.3827439522084
 31
0.0
  0
LINE
  5
B9A
330
1E
100
AcDbEntity
  8
STEMPEL
100
AcDbLine
 10
98.52366268521166
 20
593.3827439522091
 30
0.0
 11
113.5236626852119
 21
593.3827439522095
 31
0.0
  0
LINE
  5
B9B
330
1E
100
AcDbEntity
  8
STEMPEL
100
AcDbLine
 10
98.52366268521155
 20
593.3827439522093
 30
0.0
 11
98.52366268521144
 21
592.3827439522091
 31
0.0
  0
ARC
  5
B9C
330
1E
100
AcDbEntity
  8
STEMPEL
100
AcDbCircle
 10
116.5236626852113
 20
575.3827439522082
 30
0.0
 40
2.999999999999943
100
AcDbArc
 50
89.99999999999836
 51
270.0000000000017
  0
LINE
  5
B9E
330
1E
100
AcDbEntity
  8
STEMPEL
100
AcDbLine
 10
116.5236626852113
 20
572.3827439522077
 30
0.0
 11
133.5236626852116
 21
572.3827439522077
 31
0.0
  0
LWPOLYLINE
  5
BA4
330
1E
100
AcDbEntity
  8
STEMPEL
100
AcDbPolyline
 90
       10
 70
   128
 43
0.0
 10
126.1142240318846
 20
592.3827439522091
 10
126.9504033067262
 20
592.4738974341359
 10
127.7611756974288
 20
592.7445882274936
 10
128.5219062951717
 20
593.1865915295024
 10
129.2094806856904
 20
593.7864772934952
 10
129.8030072690588
 20
594.5260182940899
 10
130.2844520403801
 20
595.3827439522093
 10
130.6391865439004
 20
596.3306230922553
 10
130.8564323512346
 20
597.3408548862079
 10
130.9295885584586
 20
598.3827439522095
  0
LINE
  5
BA5
330
1E
100
AcDbEntity
  8
STEMPEL
100
AcDbLine
 10
120.713109229344
 20
592.3827439522096
 30
0.0
 11
132.5236626852115
 21
592.3827439522086
 31
0.0
  0
LINE
  5
BA6
330
1E
100
AcDbEntity
  8
STEMPEL
100
AcDbLine
 10
123.0357654403122
 20
593.3827439522091
 30
0.0
 11
127.8499625892836
 21
593.3827439522091
 31
0.0
  0
LINE
  5
BA7
330
1E
100
AcDbEntity
  8
STEMPEL
100
AcDbLine
 10
120.713109229344
 20
592.3827439522096
 30
0.0
 11
120.5544904805528
 21
583.2954819200235
 31
0.0
  0
LWPOLYLINE
  5
BA8
330
1E
100
AcDbEntity
  8
STEMPEL
100
AcDbPolyline
 90
       10
 70
   128
 43
0.0
 10
118.9199203618833
 20
578.3827439522083
 10
119.2037604842591
 20
578.4573794808017
 10
119.4789762681465
 20
578.6790183038127
 10
119.7372054212181
 20
579.040926037759
 10
119.9706017813279
 20
579.5321062992788
 10
120.1720737181784
 20
580.1376348246748
 10
120.335499608918
 20
580.8391129361153
 10
120.4559138405542
 20
581.615226576149
 10
120.5296576875911
 20
582.4423939245561
 10
120.5544904805528
 20
583.2954819200222
  0
LWPOLYLINE
  5
BA9
330
1E
100
AcDbEntity
  8
STEMPEL
100
AcDbPolyline
 90
       10
 70
   128
 43
0.0
 10
116.1852540785166
 20
592.3827439522091
 10
117.0433270747894
 20
592.4488711667817
 10
117.8961392744116
 20
592.7014249165118
 10
118.7168975813287
 20
593.1324706328295
 10
119.4798159477276
 20
593.7284660032694
 10
120.1609255032268
 20
594.4706864349901
 10
120.7388275931726
 20
595.3358133317875
 10
121.1953660675788
 20
596.2966667025035
 10
121.5161976991763
 20
597.3230590842157
 10
121.6912428095475
 20
598.3827439522084
  0
LWPOLYLINE
  5
BAA
330
1E
100
AcDbEntity
  8
STEMPEL
100
AcDbPolyline
 90
       10
 70
   128
 43
0.0
 10
114.2273611952162
 20
592.3827439522102
 10
115.0854341914889
 20
592.4488711667828
 10
115.9382463911112
 20
592.701424916513
 10
116.7590046980282
 20
593.1324706328306
 10
117.5219230644271
 20
593.7284660032705
 10
118.2030326199263
 20
594.4706864349911
 10
118.7809347098721
 20
595.3358133317887
 10
119.2374731842783
 20
596.2966667025047
 10
119.5583048158759
 20
597.3230590842169
 10
119.733349926247
 20
598.3827439522095
  0
ARC
  5
BAB
330
1E
100
AcDbEntity
  8
STEMPEL
100
AcDbCircle
 10
113.5236626852117
 20
598.3827439522095
 30
0.0
 40
5.0
100
AcDbArc
 50
270.0000000000017
 51
0.0
  0
ARC
  5
BAC
330
1E
100
AcDbEntity
  8
STEMPEL
100
AcDbCircle
 10
113.5236626852117
 20
598.3827439522095
 30
0.0
 40
6.0
100
AcDbArc
 50
270.0000000000017
 51
0.0
  0
LWPOLYLINE
  5
BAD
330
1E
100
AcDbEntity
  8
STEMPEL
100
AcDbPolyline
 90
        7
 70
   128
 43
0.0
 10
118.0770049123388
 20
593.3827439522096
 10
118.7537067874162
 20
593.9923446800686
 10
119.3532562110501
 20
594.7199037639801
 10
119.8595448841998
 20
595.5458736256604
 10
120.2589701762454
 20
596.4480626508636
 10
120.5408005915083
 20
597.4022314190571
 10
120.6974640960097
 20
598.3827439522095
  0
LINE
  5
BAE
330
1E
100
AcDbEntity
  8
STEMPEL
100
AcDbLine
 10
117.1128907425764
 20
593.3827439522091
 30
0.0
 11
118.077004912339
 21
593.3827439522091
 31
0.0
  0
LWPOLYLINE
  5
BAF
330
1E
100
AcDbEntity
  8
STEMPEL
100
AcDbPolyline
 90
       10
 70
   128
 43
0.0
 10
120.3739725464069
 20
592.3827439522091
 10
121.2101518212485
 20
592.4738974341359
 10
122.020924211951
 20
592.7445882274936
 10
122.7816548096939
 20
593.1865915295024
 10
123.4692292002127
 20
593.7864772934952
 10
124.0627557835811
 20
594.5260182940899
 10
124.5442005549023
 20
595.3827439522093
 10
124.8989350584227
 20
596.3306230922553
 10
125.1161808657568
 20
597.3408548862079
 10
125.1893370729808
 20
598.3827439522095
  0
LWPOLYLINE
  5
BB0
330
1E
100
AcDbEntity
  8
STEMPEL
100
AcDbPolyline
 90
        7
 70
   128
 43
0.0
 10
127.8499625892826
 20
593.3827439522091
 10
128.470053112347
 20
593.9920818540498
 10
129.0018732591304
 20
594.7195121273392
 10
129.4311190588616
 20
595.5454696212829
 10
129.746245406659
 20
596.4477391717451
 10
129.9387765836248
 20
597.4020531059883
 10
130.0035342219512
 20
598.3827439522095
  0
LWPOLYLINE
  5
BB1
330
1E
100
AcDbEntity
  8
STEMPEL
100
AcDbPolyline
 90
       18
 70
   128
 43
0.0
 10
-125.1893370729808
 20
604.8827439522073
 10
-125.2382064178971
 20
606.2608653358316
 10
-125.3831502657172
 20
607.5920564486115
 10
-125.6192327275444
 20
608.8309851737882
 10
-125.9384142982911
 20
609.9354612795574
 10
-126.3298256323814
 20
610.8678731568103
 10
-126.7801376862794
 20
611.5964686373716
 10
-127.2740156230788
 20
612.0964362760049
 10
-127.7946410219838
 20
612.3507502744216
 10
-128.3242846094556
 20
612.3507502744216
 10
-128.8449100083605
 20
612.0964362760049
 10
-129.33878794516
 20
611.5964686373716
 10
-129.7890999990579
 20
610.8678731568103
 10
-130.1805113331482
 20
609.9354612795574
 10
-130.499692903895
 20
608.8309851737882
 10
-130.7357753657222
 20
607.5920564486115
 10
-130.8807192135423
 20
606.2608653358316
 10
-130.9295885584586
 20
604.8827439522073
210
0.0
220
0.0
230
-1.0
  0
LWPOLYLINE
  5
BB2
330
1E
100
AcDbEntity
  8
STEMPEL
100
AcDbPolyline
 90
       18
 70
   128
 43
0.0
 10
-119.733349926247
 20
604.8827439522073
 10
-119.7500183497237
 20
606.2608653358316
 10
-119.7994559969842
 20
607.5920564486115
 10
-119.8799793282446
 20
608.8309851737882
 10
-119.9888462180363
 20
609.9354612795574
 10
-120.1223493349986
 20
610.8678731568103
 10
-120.2759423906027
 20
611.5964686373716
 10
-120.4443949575548
 20
612.0964362760049
 10
-120.6219705857237
 20
612.3507502744216
 10
-120.8026221500707
 20
612.3507502744216
 10
-120.9801977782397
 20
612.0964362760049
 10
-121.1486503451917
 20
611.5964686373716
 10
-121.3022434007958
 20
610.8678731568103
 10
-121.4357465177581
 20
609.9354612795574
 10
-121.5446134075498
 20
608.8309851737882
 10
-121.6251367388103
 20
607.5920564486115
 10
-121.6745743860707
 20
606.2608653358316
 10
-121.6912428095475
 20
604.8827439522073
210
0.0
220
0.0
230
-1.0
  0
LWPOLYLINE
  5
BB3
330
1E
100
AcDbEntity
  8
STEMPEL
100
AcDbPolyline
 90
        7
 70
   128
 43
0.0
 10
-120.2154070111281
 20
611.3447980080469
 10
-120.3532360206984
 20
610.5926917711084
 10
-120.4721002976646
 20
609.6699781603937
 10
-120.5684482995658
 20
608.6042269104894
 10
-120.639401247104
 20
607.4272815736684
 10
-120.6828391391119
 20
606.1743080672664
 10
-120.6974640960095
 20
604.8827439522073
210
0.0
220
0.0
230
-1.0
  0
LWPOLYLINE
  5
BB4
330
1E
100
AcDbEntity
  8
STEMPEL
100
AcDbPolyline
 90
        9
 70
   128
 43
0.0
 10
-127.5964356474677
 20
612.2845021968722
 10
-128.0854961907364
 20
611.9580692991149
 10
-128.5451091586374
 20
611.4128002858578
 10
-128.9610589622616
 20
610.6655600427297
 10
-129.3204804915532
 20
609.7394603199521
 10
-129.6122570264407
 20
608.6631448979818
 10
-129.8273640711788
 20
607.469903650351
 10
-129.9591484772863
 20
606.1966429052751
 10
-130.0035342219512
 20
604.8827439522089
210
0.0
220
0.0
230
-1.0
  0
ARC
  5
BB5
330
1E
100
AcDbEntity
  8
STEMPEL
100
AcDbCircle
 10
124.5236626852118
 20
662.3826859848935
 30
0.0
 40
6.0
100
AcDbArc
 50
120.2564164748189
 51
180.0
  0
ARC
  5
BB6
330
1E
100
AcDbEntity
  8
STEMPEL
100
AcDbCircle
 10
124.5236626852118
 20
662.3826859848935
 30
0.0
 40
5.0
100
AcDbArc
 50
120.2564164748189
 51
180.0
  0
ARC
  5
BB7
330
1E
100
AcDbEntity
  8
STEMPEL
100
AcDbCircle
 10
119.0125190809001
 20
671.9025809346709
 30
0.0
 40
5.0
100
AcDbArc
 50
300.0670458384858
 51
300.2564371635302
  0
LINE
  5
BB8
330
1E
100
AcDbEntity
  8
STEMPEL
100
AcDbLine
 10
337.5236626852118
 20
662.3826859848935
 30
0.0
 11
337.5236626852118
 21
598.3827439522095
 31
0.0
  0
LINE
  5
BB9
330
1E
100
AcDbEntity
  8
STEMPEL
100
AcDbLine
 10
338.5236626852119
 20
662.3826859848935
 30
0.0
 11
338.5236626852119
 21
598.3827439522095
 31
0.0
  0
LINE
  5
BBA
102
{ACAD_REACTORS
330
B8B
102
}
330
1E
100
AcDbEntity
  8
STEMPEL
100
AcDbLine
 10
143.5236626852116
 20
572.3827439522077
 30
0.0
 11
353.7847270189149
 21
572.3827439522076
 31
0.0
  0
LWPOLYLINE
  5
BBD
330
1E
100
AcDbEntity
  8
STEMPEL
100
AcDbPolyline
 90
       10
 70
   128
 43
0.0
 10
-265.9305436374876
 20
592.3827439522091
 10
-265.457813679734
 20
592.4738974341359
 10
-264.9994473825338
 20
592.7445882274936
 10
-264.5693719738831
 20
593.1865915295024
 10
-264.1806550774449
 20
593.7864772934952
 10
-263.8451076594172
 20
594.5260182940899
 10
-263.5729251583016
 20
595.3827439522093
 10
-263.3723777016635
 20
596.3306230922553
 10
-263.2495588224911
 20
597.3408548862079
 10
-263.2082003102786
 20
598.3827439522095
210
0.0
220
0.0
230
-1.0
  0
LWPOLYLINE
  5
BBE
330
1E
100
AcDbEntity
  8
STEMPEL
100
AcDbPolyline
 90
        9
 70
   128
 43
0.0
 10
270.3290889369259
 20
612.3798703752473
 10
269.0048794865961
 20
612.2010374681996
 10
267.73690008941
 20
611.7507615508753
 10
266.5721814013244
 20
611.0457438187362
 10
265.5539240327178
 20
610.1121341023528
 10
264.7198961934555
 20
608.9845609433766
 10
264.1010328312616
 20
607.7048471864249
 10
263.7202882227874
 20
606.3204587268893
 10
263.5917845759556
 20
604.8827439522089
  0
LWPOLYLINE
  5
BBF
330
1E
100
AcDbEntity
  8
STEMPEL
100
AcDbPolyline
 90
       18
 70
   128
 43
0.0
 10
277.0663932979495
 20
604.8827439522073
 10
276.9484122626684
 20
606.2608653358316
 10
276.5984868594787
 20
607.5920564486115
 10
276.028533378297
 20
608.8309851737882
 10
275.2579609013409
 20
609.9354612795574
 10
274.3130103501134
 20
610.8678731568103
 10
273.2258608822933
 20
611.5964686373716
 10
272.033534069115
 20
612.0964362760049
 10
270.7766331701632
 20
612.3507502744216
 10
269.4979604380649
 20
612.3507502744216
 10
268.2410595391131
 20
612.0964362760049
 10
267.0487327259348
 20
611.5964686373716
 10
265.9615832581147
 20
610.8678731568103
 10
265.0166327068872
 20
609.9354612795574
 10
264.2460602299311
 20
608.8309851737882
 10
263.6761067487494
 20
607.5920564486115
 10
263.3261813455597
 20
606.2608653358316
 10
263.2082003102786
 20
604.8827439522073
  0
LWPOLYLINE
  5
BC0
330
1E
100
AcDbEntity
  8
STEMPEL
100
AcDbPolyline
 90
        7
 70
   128
 43
0.0
 10
-264.8092960086847
 20
593.3827439522091
 10
-264.4587307942727
 20
593.9920818540498
 10
-264.158068815334
 20
594.7195121273392
 10
-263.9153967533994
 20
595.5454696212829
 10
-263.7372415783509
 20
596.4477391717451
 10
-263.6283949973704
 20
597.4020531059883
 10
-263.5917845759556
 20
598.3827439522095
210
0.0
220
0.0
230
-1.0
  0
LINE
  5
BC1
102
{ACAD_REACTORS
330
B8B
102
}
330
1E
100
AcDbEntity
  8
STEMPEL
100
AcDbLine
 10
98.52366268521144
 20
592.3827439522089
 30
0.0
 11
347.5236626852116
 21
592.3827439522091
 31
0.0
  0
LINE
  5
BC2
330
1E
100
AcDbEntity
  8
STEMPEL
100
AcDbLine
 10
193.839125060145
 20
604.8827439522057
 30
0.0
 11
193.839125060145
 21
598.3827439522107
 31
0.0
  0
LINE
  5
BC3
330
1E
100
AcDbEntity
  8
STEMPEL
100
AcDbLine
 10
193.455540794468
 20
604.8827439522073
 30
0.0
 11
193.455540794468
 21
598.3827439522107
 31
0.0
  0
LINE
  5
BC4
330
1E
100
AcDbEntity
  8
STEMPEL
100
AcDbLine
 10
179.980932072474
 20
604.8827439522073
 30
0.0
 11
179.980932072474
 21
598.3827439522107
 31
0.0
  0
LINE
  5
BC5
330
1E
100
AcDbEntity
  8
STEMPEL
100
AcDbLine
 10
168.2760805389928
 20
604.8827439522073
 30
0.0
 11
168.2760805389928
 21
598.3827439522107
 31
0.0
  0
LINE
  5
BC6
330
1E
100
AcDbEntity
  8
STEMPEL
100
AcDbLine
 10
167.6658860911304
 20
604.8827439522073
 30
0.0
 11
167.6658860911304
 21
598.3827439522107
 31
0.0
  0
LINE
  5
BC7
330
1E
100
AcDbEntity
  8
STEMPEL
100
AcDbLine
 10
146.8188091772722
 20
604.8827439522073
 30
0.0
 11
146.8188091772722
 21
598.3827439522107
 31
0.0
  0
LINE
  5
BC8
330
1E
100
AcDbEntity
  8
STEMPEL
100
AcDbLine
 10
146.0235882904514
 20
604.8827439522073
 30
0.0
 11
146.0235882904514
 21
598.3827439522107
 31
0.0
  0
LINE
  5
BC9
330
1E
100
AcDbEntity
  8
STEMPEL
100
AcDbLine
 10
156.3757804346239
 20
604.8827439522073
 30
0.0
 11
156.3757804346239
 21
598.3827439522107
 31
0.0
  0
ARC
  5
BCA
330
1E
100
AcDbEntity
  8
STEMPEL
100
AcDbCircle
 10
163.0236626852112
 20
575.3827439522082
 30
0.0
 40
3.000000000000397
100
AcDbArc
 50
270.0000000000081
 51
89.99999999999186
  0
LINE
  5
BCE
330
1E
100
AcDbEntity
  8
STEMPEL
100
AcDbLine
 10
154.7377573585186
 20
593.3827439522091
 30
0.0
 11
166.0278630150257
 21
593.3827439522091
 31
0.0
  0
LWPOLYLINE
  5
BCF
330
1E
100
AcDbEntity
  8
STEMPEL
100
AcDbPolyline
 90
        7
 70
   128
 43
0.0
 10
144.0720114619331
 20
593.3827439522091
 10
144.6339404351972
 20
593.9920818540498
 10
145.1158783747844
 20
594.7195121273392
 10
145.5048629545342
 20
595.5454696212829
 10
145.7904319456407
 20
596.4477391717451
 10
145.9649046114366
 20
597.4020531059883
 10
146.0235882904516
 20
598.3827439522095
  0
LWPOLYLINE
  5
BD0
330
1E
100
AcDbEntity
  8
STEMPEL
100
AcDbPolyline
 90
        8
 70
   128
 43
0.0
 10
143.3832220744063
 20
592.3827439522089
 10
144.6369560899692
 20
593.1865915295024
 10
145.2600392640155
 20
593.7864772934952
 10
145.797895869127
 20
594.5260182940899
 10
146.234183404526
 20
595.3827439522093
 10
146.5556454942212
 20
596.3306230922553
 10
146.7525146752853
 20
597.3408548862079
 10
146.8188091772721
 20
598.3827439522095
  0
LWPOLYLINE
  5
BD1
330
1E
100
AcDbEntity
  8
STEMPEL
100
AcDbPolyline
 90
       10
 70
   128
 43
0.0
 10
152.7131772990998
 20
592.3827439522091
 10
153.3491816591007
 20
592.4738974341359
 10
153.9658613484569
 20
592.7445882274936
 10
154.5444788668619
 20
593.1865915295024
 10
155.0674532138138
 20
593.7864772934952
 10
155.5188940784183
 20
594.5260182940899
 10
155.8850846584443
 20
595.3827439522093
 10
156.1548984384192
 20
596.3306230922553
 10
156.3201372631708
 20
597.3408548862079
 10
156.3757804346239
 20
598.3827439522095
  0
LWPOLYLINE
  5
BD2
330
1E
100
AcDbEntity
  8
STEMPEL
100
AcDbPolyline
 90
        7
 70
   128
 43
0.0
 10
166.0278630150251
 20
593.3827439522091
 10
166.4995086155919
 20
593.9920818540499
 10
166.9040150919747
 20
594.7195121273392
 10
167.2305027344638
 20
595.5454696212829
 10
167.470190247872
 20
596.4477391717451
 10
167.616630935498
 20
597.4020531059883
 10
167.6658860911304
 20
598.3827439522095
  0
LWPOLYLINE
  5
BD3
330
1E
100
AcDbEntity
  8
STEMPEL
100
AcDbPolyline
 90
       10
 70
   128
 43
0.0
 10
164.6134774034686
 20
592.3827439522091
 10
165.2494817634696
 20
592.4738974341359
 10
165.8661614528257
 20
592.7445882274936
 10
166.4447789712308
 20
593.1865915295024
 10
166.9677533181826
 20
593.7864772934952
 10
167.4191941827871
 20
594.5260182940899
 10
167.7853847628131
 20
595.3827439522093
 10
168.055198542788
 20
596.3306230922553
 10
168.2204373675397
 20
597.3408548862079
 10
168.2760805389928
 20
598.3827439522095
  0
LINE
  5
BD4
330
1E
100
AcDbEntity
  8
STEMPEL
100
AcDbLine
 10
178.7468642102258
 20
593.3827439522093
 30
0.0
 11
192.2380293617393
 21
593.3827439522091
 31
0.0
  0
LWPOLYLINE
  5
BD5
330
1E
100
AcDbEntity
  8
STEMPEL
100
AcDbPolyline
 90
       10
 70
   128
 43
0.0
 10
191.1167817329359
 20
592.3827439522091
 10
191.5895116906895
 20
592.4738974341359
 10
192.0478779878897
 20
592.7445882274936
 10
192.4779533965404
 20
593.1865915295024
 10
192.8666702929787
 20
593.7864772934952
 10
193.2022177110063
 20
594.5260182940899
 10
193.4744002121219
 20
595.3827439522093
 10
193.6749476687601
 20
596.3306230922553
 10
193.7977665479325
 20
597.3408548862079
 10
193.839125060145
 20
598.3827439522095
  0
LWPOLYLINE
  5
BD6
330
1E
100
AcDbEntity
  8
STEMPEL
100
AcDbPolyline
 90
        7
 70
   128
 43
0.0
 10
192.2380293617388
 20
593.3827439522091
 10
192.5885945761508
 20
593.9920818540498
 10
192.8892565550895
 20
594.7195121273392
 10
193.1319286170242
 20
595.5454696212829
 10
193.3100837920726
 20
596.4477391717451
 10
193.4189303730532
 20
597.4020531059883
 10
193.455540794468
 20
598.3827439522095
  0
LWPOLYLINE
  5
BD7
330
1E
100
AcDbEntity
  8
STEMPEL
100
AcDbPolyline
 90
       18
 70
   128
 43
0.0
 10
-156.3757804346238
 20
604.8827439522073
 10
-156.4770930464282
 20
606.2608653358316
 10
-156.7775808023574
 20
607.5920564486115
 10
-157.2670109522786
 20
608.8309851737882
 10
-157.928716539443
 20
609.9354612795574
 10
-158.7401639737081
 20
610.8678731568103
 10
-159.6737203859238
 20
611.5964686373716
 10
-160.6975946321499
 20
612.0964362760049
 10
-161.7769199029327
 20
612.3507502744216
 10
-162.8749410706838
 20
612.3507502744216
 10
-163.9542663414665
 20
612.0964362760049
 10
-164.9781405876927
 20
611.5964686373716
 10
-165.9116969999083
 20
610.8678731568103
 10
-166.7231444341735
 20
609.9354612795574
 10
-167.3848500213379
 20
608.8309851737882
 10
-167.8742801712591
 20
607.5920564486115
 10
-168.1747679271883
 20
606.2608653358316
 10
-168.2760805389927
 20
604.8827439522073
210
0.0
220
0.0
230
-1.0
  0
LWPOLYLINE
  5
BD8
330
1E
100
AcDbEntity
  8
STEMPEL
100
AcDbPolyline
 90
        9
 70
   128
 43
0.0
 10
-162.0208332628888
 20
612.3728780300308
 10
-163.1372409842599
 20
612.1655708936238
 10
-164.2025202360022
 20
611.6963161661701
 10
-165.1783552190405
 20
610.9819919290015
 10
-166.0296472518985
 20
610.0482908856051
 10
-166.7257771946349
 20
608.9287962504446
 10
-167.2417067533263
 20
607.6637738331059
 10
-167.5588790535422
 20
606.2987237638966
 10
-167.6658860911303
 20
604.8827439522089
210
0.0
220
0.0
230
-1.0
  0
LWPOLYLINE
  5
BD9
330
1E
100
AcDbEntity
  8
STEMPEL
100
AcDbPolyline
 90
        9
 70
   128
 43
0.0
 10
-186.7182364334976
 20
612.3798703752473
 10
-188.0424458838274
 20
612.2010374681996
 10
-189.3104252810135
 20
611.7507615508753
 10
-190.4751439690991
 20
611.0457438187362
 10
-191.4934013377058
 20
610.1121341023528
 10
-192.327429176968
 20
608.9845609433766
 10
-192.9462925391619
 20
607.7048471864249
 10
-193.3270371476361
 20
606.3204587268893
 10
-193.455540794468
 20
604.8827439522089
210
0.0
220
0.0
230
-1.0
  0
LWPOLYLINE
  5
BDA
330
1E
100
AcDbEntity
  8
STEMPEL
100
AcDbPolyline
 90
       18
 70
   128
 43
0.0
 10
-179.980932072474
 20
604.8827439522073
 10
-180.0989131077551
 20
606.2608653358316
 10
-180.4488385109448
 20
607.5920564486115
 10
-181.0187919921266
 20
608.8309851737882
 10
-181.7893644690826
 20
609.9354612795574
 10
-182.7343150203102
 20
610.8678731568103
 10
-183.8214644881303
 20
611.5964686373716
 10
-185.0137913013085
 20
612.0964362760049
 10
-186.2706922002603
 20
612.3507502744216
 10
-187.5493649323587
 20
612.3507502744216
 10
-188.8062658313105
 20
612.0964362760049
 10
-189.9985926444886
 20
611.5964686373716
 10
-191.0857421123088
 20
610.8678731568103
 10
-192.0306926635363
 20
609.9354612795574
 10
-192.8012651404924
 20
608.8309851737882
 10
-193.3712186216742
 20
607.5920564486115
 10
-193.7211440248638
 20
606.2608653358316
 10
-193.839125060145
 20
604.8827439522073
210
0.0
220
0.0
230
-1.0
  0
LINE
  5
BDB
330
1E
100
AcDbEntity
  8
STEMPEL
100
AcDbLine
 10
250.1531347894989
 20
604.8827439522089
 30
0.0
 11
250.1531347894989
 21
598.3827439522107
 31
0.0
  0
LINE
  5
BDC
330
1E
100
AcDbEntity
  8
STEMPEL
100
AcDbLine
 10
263.5917845759556
 20
604.8827439522073
 30
0.0
 11
263.5917845759556
 21
598.3827439522107
 31
0.0
  0
LINE
  5
BDD
330
1E
100
AcDbEntity
  8
STEMPEL
100
AcDbLine
 10
263.2082003102786
 20
604.8827439522057
 30
0.0
 11
263.2082003102786
 21
598.3827439522107
 31
0.0
  0
LINE
  5
BDE
330
1E
100
AcDbEntity
  8
STEMPEL
100
AcDbLine
 10
235.4122953185778
 20
604.8827439522073
 30
0.0
 11
235.4122953185778
 21
598.3827439522107
 31
0.0
  0
LINE
  5
BDF
330
1E
100
AcDbEntity
  8
STEMPEL
100
AcDbLine
 10
235.2814618688912
 20
604.8827439522057
 30
0.0
 11
235.2814618688912
 21
598.3827439522107
 31
0.0
  0
LINE
  5
BE0
330
1E
100
AcDbEntity
  8
STEMPEL
100
AcDbLine
 10
221.7658635015323
 20
604.8827439522057
 30
0.0
 11
221.7658635015323
 21
598.3827439522107
 31
0.0
  0
LINE
  5
BE1
330
1E
100
AcDbEntity
  8
STEMPEL
100
AcDbLine
 10
221.6350300518458
 20
604.8827439522073
 30
0.0
 11
221.6350300518458
 21
598.3827439522107
 31
0.0
  0
LINE
  5
BE2
330
1E
100
AcDbEntity
  8
STEMPEL
100
AcDbLine
 10
206.8941905809246
 20
604.8827439522089
 30
0.0
 11
206.8941905809246
 21
598.3827439522107
 31
0.0
  0
LINE
  5
BE3
330
1E
100
AcDbEntity
  8
STEMPEL
100
AcDbLine
 10
206.3076160586677
 20
593.3827439522091
 30
0.0
 11
221.0484555295891
 21
593.3827439522091
 31
0.0
  0
LWPOLYLINE
  5
BE4
330
1E
100
AcDbEntity
  8
STEMPEL
100
AcDbPolyline
 90
       10
 70
   128
 43
0.0
 10
205.5826158444169
 20
592.3827439522091
 10
205.8103684072854
 20
592.4738974341359
 10
206.0312008237796
 20
592.7445882274936
 10
206.2384032126709
 20
593.1865915295024
 10
206.425679834222
 20
593.7864772934952
 10
206.5873403830539
 20
594.5260182940899
 10
206.7184728851946
 20
595.3827439522093
 10
206.8150929459225
 20
596.3306230922553
 10
206.8742648135848
 20
597.3408548862079
 10
206.8941905809247
 20
598.3827439522095
  0
LWPOLYLINE
  5
BE5
330
1E
100
AcDbEntity
  8
STEMPEL
100
AcDbPolyline
 90
       10
 70
   128
 43
0.0
 10
220.4542887650244
 20
592.3827439522091
 10
220.682041327893
 20
592.4738974341359
 10
220.9028737443872
 20
592.7445882274936
 10
221.1100761332784
 20
593.1865915295024
 10
221.2973527548296
 20
593.7864772934952
 10
221.4590133036615
 20
594.5260182940899
 10
221.5901458058022
 20
595.3827439522093
 10
221.6867658665301
 20
596.3306230922553
 10
221.7459377341924
 20
597.3408548862079
 10
221.7658635015323
 20
598.3827439522095
  0
LWPOLYLINE
  5
BE6
330
1E
100
AcDbEntity
  8
STEMPEL
100
AcDbPolyline
 90
        7
 70
   128
 43
0.0
 10
221.0484555295888
 20
593.3827439522091
 10
221.2173513753572
 20
593.9920818540498
 10
221.3622047639299
 20
594.7195121273392
 10
221.479119681497
 20
595.5454696212829
 10
221.5649515545146
 20
596.4477391717451
 10
221.6173918269603
 20
597.4020531059883
 10
221.6350300518457
 20
598.3827439522095
  0
LINE
  5
BE7
330
1E
100
AcDbEntity
  8
STEMPEL
100
AcDbLine
 10
250.7397093117558
 20
593.3827439522091
 30
0.0
 11
235.9988698408344
 21
593.3827439522091
 31
0.0
  0
LWPOLYLINE
  5
BE8
330
1E
100
AcDbEntity
  8
STEMPEL
100
AcDbPolyline
 90
       10
 70
   128
 43
0.0
 10
-236.5930366053991
 20
592.3827439522091
 10
-236.3652840425305
 20
592.4738974341359
 10
-236.1444516260363
 20
592.7445882274936
 10
-235.9372492371451
 20
593.1865915295024
 10
-235.7499726155939
 20
593.7864772934952
 10
-235.588312066762
 20
594.5260182940899
 10
-235.4571795646213
 20
595.3827439522093
 10
-235.3605595038934
 20
596.3306230922553
 10
-235.3013876362312
 20
597.3408548862079
 10
-235.2814618688912
 20
598.3827439522095
210
0.0
220
0.0
230
-1.0
  0
LWPOLYLINE
  5
BE9
330
1E
100
AcDbEntity
  8
STEMPEL
100
AcDbPolyline
 90
        7
 70
   128
 43
0.0
 10
-235.9988698408348
 20
593.3827439522091
 10
-235.8299739950663
 20
593.9920818540498
 10
-235.6851206064936
 20
594.7195121273392
 10
-235.5682056889266
 20
595.5454696212829
 10
-235.4823738159089
 20
596.4477391717451
 10
-235.4299335434632
 20
597.4020531059883
 10
-235.4122953185779
 20
598.3827439522095
210
0.0
220
0.0
230
-1.0
  0
LWPOLYLINE
  5
BEA
330
1E
100
AcDbEntity
  8
STEMPEL
100
AcDbPolyline
 90
       10
 70
   128
 43
0.0
 10
-251.4647095260067
 20
592.3827439522091
 10
-251.2369569631381
 20
592.4738974341359
 10
-251.0161245466439
 20
592.7445882274936
 10
-250.8089221577527
 20
593.1865915295024
 10
-250.6216455362015
 20
593.7864772934952
 10
-250.4599849873696
 20
594.5260182940899
 10
-250.3288524852289
 20
595.3827439522093
 10
-250.232232424501
 20
596.3306230922553
 10
-250.1730605568388
 20
597.3408548862079
 10
-250.1531347894988
 20
598.3827439522095
210
0.0
220
0.0
230
-1.0
  0
LWPOLYLINE
  5
BEB
330
1E
100
AcDbEntity
  8
STEMPEL
100
AcDbPolyline
 90
        9
 70
   128
 43
0.0
 10
-214.2646103164851
 20
612.382453711982
 10
-215.7059503003629
 20
612.2271523180582
 10
-217.0900312038125
 20
611.7927520710439
 10
-218.3642558163445
 20
611.0957608507686
 10
-219.4802016360743
 20
610.1626653993231
 10
-220.3954609995274
 20
609.0289247839795
 10
-221.0752526383024
 20
607.7376228979102
 10
-221.4937434209519
 20
606.3378312057506
 10
-221.6350300518458
 20
604.8827439522089
210
0.0
220
0.0
230
-1.0
  0
LWPOLYLINE
  5
BEC
330
1E
100
AcDbEntity
  8
STEMPEL
100
AcDbPolyline
 90
       18
 70
   128
 43
0.0
 10
-206.8941905809248
 20
604.8827439522073
 10
-207.0207998271012
 20
606.2608653358316
 10
-207.3963160396029
 20
607.5920564486115
 10
-208.0079514641952
 20
608.8309851737882
 10
-208.8348775900696
 20
609.9354612795574
 10
-209.8489344397978
 20
610.8678731568103
 10
-211.0155895235896
 20
611.5964686373716
 10
-212.2951138018148
 20
612.0964362760049
 10
-213.643934609799
 20
612.3507502744216
 10
-215.0161194726583
 20
612.3507502744216
 10
-216.3649402806424
 20
612.0964362760049
 10
-217.6444645588676
 20
611.5964686373716
 10
-218.8111196426594
 20
610.8678731568103
 10
-219.8251764923877
 20
609.9354612795574
 10
-220.652102618262
 20
608.8309851737882
 10
-221.2637380428544
 20
607.5920564486115
 10
-221.639254255356
 20
606.2608653358316
 10
-221.7658635015324
 20
604.8827439522073
210
0.0
220
0.0
230
-1.0
  0
LWPOLYLINE
  5
BED
330
1E
100
AcDbEntity
  8
STEMPEL
100
AcDbPolyline
 90
       18
 70
   128
 43
0.0
 10
250.1531347894987
 20
604.8827439522073
 10
250.0265255433223
 20
606.2608653358316
 10
249.6510093308206
 20
607.5920564486115
 10
249.0393739062283
 20
608.8309851737882
 10
248.2124477803539
 20
609.9354612795574
 10
247.1983909306257
 20
610.8678731568103
 10
246.0317358468339
 20
611.5964686373716
 10
244.7522115686087
 20
612.0964362760049
 10
243.4033907606246
 20
612.3507502744216
 10
242.0312058977653
 20
612.3507502744216
 10
240.6823850897811
 20
612.0964362760049
 10
239.4028608115559
 20
611.5964686373716
 10
238.2362057277641
 20
610.8678731568103
 10
237.2221488780359
 20
609.9354612795574
 10
236.3952227521615
 20
608.8309851737882
 10
235.7835873275692
 20
607.5920564486115
 10
235.4080711150675
 20
606.2608653358316
 10
235.2814618688911
 20
604.8827439522073
  0
LWPOLYLINE
  5
BEE
330
1E
100
AcDbEntity
  8
STEMPEL
100
AcDbPolyline
 90
        9
 70
   128
 43
0.0
 10
242.7827150539384
 20
612.382453711982
 10
241.3413750700606
 20
612.2271523180582
 10
239.957294166611
 20
611.7927520710439
 10
238.6830695540791
 20
611.0957608507686
 10
237.5671237343492
 20
610.1626653993231
 10
236.6518643708962
 20
609.0289247839795
 10
235.9720727321211
 20
607.7376228979102
 10
235.5535819494716
 20
606.3378312057506
 10
235.4122953185778
 20
604.8827439522089
  0
LINE
  5
BEF
330
1E
100
AcDbEntity
  8
STEMPEL
100
AcDbLine
 10
311.0237370799721
 20
604.8827439522073
 30
0.0
 11
311.0237370799721
 21
598.3827439522107
 31
0.0
  0
LINE
  5
BF0
330
1E
100
AcDbEntity
  8
STEMPEL
100
AcDbLine
 10
319.3599376282832
 20
604.8827439522073
 30
0.0
 11
319.3599376282832
 21
598.3827439522107
 31
0.0
  0
LINE
  5
BF1
330
1E
100
AcDbEntity
  8
STEMPEL
100
AcDbLine
 10
300.6715449357996
 20
604.8827439522073
 30
0.0
 11
300.6715449357996
 21
598.3827439522107
 31
0.0
  0
LINE
  5
BF2
330
1E
100
AcDbEntity
  8
STEMPEL
100
AcDbLine
 10
310.2285161931513
 20
604.8827439522073
 30
0.0
 11
310.2285161931513
 21
598.3827439522107
 31
0.0
  0
LINE
  5
BF3
330
1E
100
AcDbEntity
  8
STEMPEL
100
AcDbLine
 10
289.3814392792931
 20
604.8827439522073
 30
0.0
 11
289.3814392792931
 21
598.3827439522107
 31
0.0
  0
LINE
  5
BF4
330
1E
100
AcDbEntity
  8
STEMPEL
100
AcDbLine
 10
288.7712448314307
 20
604.8827439522073
 30
0.0
 11
288.7712448314307
 21
598.3827439522107
 31
0.0
  0
LINE
  5
BF5
330
1E
100
AcDbEntity
  8
STEMPEL
100
AcDbLine
 10
277.0663932979495
 20
604.8827439522073
 30
0.0
 11
277.0663932979495
 21
598.3827439522107
 31
0.0
  0
LINE
  5
BF6
330
1E
100
AcDbEntity
  8
MITTEL
100
AcDbLine
 10
299.9236626852114
 20
596.3827439522075
 30
0.0
 11
299.9236626852117
 21
561.3827439522073
 31
0.0
  0
ARC
  5
BF7
330
1E
100
AcDbEntity
  8
STEMPEL
100
AcDbCircle
 10
294.0236626852117
 20
575.3827439522082
 30
0.0
 40
3.0
100
AcDbArc
 50
90.0
 51
270.0
  0
LINE
  5
BFA
330
1E
100
AcDbEntity
  8
STEMPEL
100
AcDbLine
 10
278.2839047306786
 20
593.3827439522091
 30
0.0
 11
264.8092960086842
 21
593.3827439522091
 31
0.0
  0
LWPOLYLINE
  5
BFB
330
1E
100
AcDbEntity
  8
STEMPEL
100
AcDbPolyline
 90
       10
 70
   128
 43
0.0
 10
-279.7887366251586
 20
592.3827439522091
 10
-279.316006667405
 20
592.4738974341359
 10
-278.8576403702048
 20
592.7445882274936
 10
-278.427564961554
 20
593.1865915295024
 10
-278.0388480651158
 20
593.7864772934952
 10
-277.7033006470881
 20
594.5260182940899
 10
-277.4311181459725
 20
595.3827439522093
 10
-277.2305706893344
 20
596.3306230922553
 10
-277.107751810162
 20
597.3408548862079
 10
-277.0663932979495
 20
598.3827439522095
210
0.0
220
0.0
230
-1.0
  0
LINE
  5
BFC
330
1E
100
AcDbEntity
  8
STEMPEL
100
AcDbLine
 10
302.3318428036497
 20
593.3827439522088
 30
0.0
 11
291.0194623553979
 21
593.3827439522091
 31
0.0
  0
LWPOLYLINE
  5
BFD
330
1E
100
AcDbEntity
  8
STEMPEL
100
AcDbPolyline
 90
        7
 70
   128
 43
0.0
 10
-291.0194623553985
 20
593.3827439522091
 10
-290.5478167548316
 20
593.9920818540499
 10
-290.1433102784488
 20
594.7195121273392
 10
-289.8168226359597
 20
595.5454696212829
 10
-289.5771351225515
 20
596.4477391717451
 10
-289.4306944349255
 20
597.4020531059883
 10
-289.3814392792931
 20
598.3827439522095
210
0.0
220
0.0
230
-1.0
  0
LWPOLYLINE
  5
BFE
330
1E
100
AcDbEntity
  8
STEMPEL
100
AcDbPolyline
 90
       10
 70
   128
 43
0.0
 10
-292.4338479669549
 20
592.3827439522091
 10
-291.797843606954
 20
592.4738974341359
 10
-291.1811639175978
 20
592.7445882274936
 10
-290.6025463991928
 20
593.1865915295024
 10
-290.0795720522409
 20
593.7864772934952
 10
-289.6281311876364
 20
594.5260182940899
 10
-289.2619406076104
 20
595.3827439522093
 10
-288.9921268276355
 20
596.3306230922553
 10
-288.8268880028838
 20
597.3408548862079
 10
-288.7712448314307
 20
598.3827439522095
210
0.0
220
0.0
230
-1.0
  0
LWPOLYLINE
  5
BFF
330
1E
100
AcDbEntity
  8
STEMPEL
100
AcDbPolyline
 90
       10
 70
   128
 43
0.0
 10
-314.5922223677573
 20
592.3827439522091
 10
-313.834472742663
 20
592.4738974341359
 10
-313.0997469564875
 20
592.7445882274936
 10
-312.4103692804543
 20
593.1865915295024
 10
-311.7872861064079
 20
593.7864772934952
 10
-311.2494295012965
 20
594.5260182940899
 10
-310.8131419658976
 20
595.3827439522093
 10
-310.4916798762023
 20
596.3306230922553
 10
-310.2948106951383
 20
597.3408548862079
 10
-310.2285161931515
 20
598.3827439522095
210
0.0
220
0.0
230
-1.0
  0
LINE
  5
C00
330
1E
100
AcDbEntity
  8
STEMPEL
100
AcDbLine
 10
321.3115144568017
 20
593.3827439522091
 30
0.0
 11
312.9753139084897
 21
593.3827439522091
 31
0.0
  0
LWPOLYLINE
  5
C01
330
1E
100
AcDbEntity
  8
STEMPEL
100
AcDbPolyline
 90
        7
 70
   128
 43
0.0
 10
-312.9753139084904
 20
593.3827439522091
 10
-312.4133849352263
 20
593.9920818540498
 10
-311.9314469956391
 20
594.7195121273392
 10
-311.5424624158893
 20
595.5454696212829
 10
-311.2568934247829
 20
596.4477391717451
 10
-311.0824207589869
 20
597.4020531059883
 10
-311.0237370799719
 20
598.3827439522095
210
0.0
220
0.0
230
-1.0
  0
LWPOLYLINE
  5
C02
330
1E
100
AcDbEntity
  8
STEMPEL
100
AcDbPolyline
 90
       10
 70
   128
 43
0.0
 10
-323.7236438028891
 20
592.3827439522091
 10
-322.9658941777949
 20
592.4738974341359
 10
-322.2311683916193
 20
592.7445882274936
 10
-321.5417907155862
 20
593.1865915295024
 10
-320.9187075415398
 20
593.7864772934952
 10
-320.3808509364284
 20
594.5260182940899
 10
-319.9445634010294
 20
595.3827439522093
 10
-319.6231013113342
 20
596.3306230922553
 10
-319.4262321302701
 20
597.3408548862079
 10
-319.3599376282833
 20
598.3827439522095
210
0.0
220
0.0
230
-1.0
  0
LWPOLYLINE
  5
C03
330
1E
100
AcDbEntity
  8
STEMPEL
100
AcDbPolyline
 90
       18
 70
   128
 43
0.0
 10
300.6715449357997
 20
604.8827439522073
 10
300.5702323239954
 20
606.2608653358316
 10
300.2697445680661
 20
607.5920564486115
 10
299.780314418145
 20
608.8309851737882
 10
299.1186088309805
 20
609.9354612795574
 10
298.3071613967154
 20
610.8678731568103
 10
297.3736049844997
 20
611.5964686373716
 10
296.3497307382736
 20
612.0964362760049
 10
295.2704054674908
 20
612.3507502744216
 10
294.1723842997397
 20
612.3507502744216
 10
293.093059028957
 20
612.0964362760049
 10
292.0691847827309
 20
611.5964686373716
 10
291.1356283705152
 20
610.8678731568103
 10
290.32418093625
 20
609.9354612795574
 10
289.6624753490856
 20
608.8309851737882
 10
289.1730451991644
 20
607.5920564486115
 10
288.8725574432352
 20
606.2608653358316
 10
288.7712448314309
 20
604.8827439522073
  0
LWPOLYLINE
  5
C04
330
1E
100
AcDbEntity
  8
STEMPEL
100
AcDbPolyline
 90
        9
 70
   128
 43
0.0
 10
295.0264921075348
 20
612.3728780300308
 10
293.9100843861636
 20
612.1655708936238
 10
292.8448051344213
 20
611.6963161661701
 10
291.868970151383
 20
610.9819919290015
 10
291.0176781185251
 20
610.0482908856051
 10
290.3215481757886
 20
608.9287962504446
 10
289.8056186170972
 20
607.6637738331059
 10
289.4884463168814
 20
606.2987237638966
 10
289.3814392792932
 20
604.8827439522089
  0
LWPOLYLINE
  5
C05
330
1E
100
AcDbEntity
  8
STEMPEL
100
AcDbPolyline
 90
       18
 70
   128
 43
0.0
 10
319.3599376282831
 20
604.8827439522073
 10
319.282197727023
 20
606.2608653358316
 10
319.0516253623412
 20
607.5920564486115
 10
318.676072399576
 20
608.8309851737882
 10
318.1683278444483
 20
609.9354612795574
 10
317.5456823288103
 20
610.8678731568103
 10
316.8293392989162
 20
611.5964686373716
 10
316.0436929574904
 20
612.0964362760049
 10
315.215497548411
 20
612.3507502744216
 10
314.3729562730233
 20
612.3507502744216
 10
313.5447608639439
 20
612.0964362760049
 10
312.7591145225181
 20
611.5964686373716
 10
312.042771492624
 20
610.8678731568103
 10
311.420125976986
 20
609.9354612795574
 10
310.9123814218583
 20
608.8309851737882
 10
310.5368284590932
 20
607.5920564486115
 10
310.3062560944113
 20
606.2608653358316
 10
310.2285161931512
 20
604.8827439522073
  0
LWPOLYLINE
  5
C06
330
1E
100
AcDbEntity
  8
STEMPEL
100
AcDbPolyline
 90
       10
 70
   128
 43
0.0
 10
315.5894477975381
 20
612.3827439522105
 10
314.7966204516785
 20
612.2688020998019
 10
314.0278827635327
 20
611.9304386081044
 10
313.3065924387552
 20
611.3779344805935
 10
312.6546655188737
 20
610.6280772756023
 10
312.091910473458
 20
609.7036510248589
 10
311.6354263297951
 20
608.6327439522095
 10
311.2990831275983
 20
607.4478950271519
 10
311.0931004848683
 20
606.185105284711
 10
311.0237370799722
 20
604.8827439522089
  0
LINE
  5
C07
330
1E
100
AcDbEntity
  8
STEMPEL
100
AcDbLine
 10
327.0437911484722
 20
604.8827439522073
 30
0.0
 11
327.0437911484722
 21
598.3827439522107
 31
0.0
  0
LINE
  5
C08
330
1E
100
AcDbEntity
  8
STEMPEL
100
AcDbLine
 10
326.117736811965
 20
604.8827439522073
 30
0.0
 11
326.117736811965
 21
598.3827439522107
 31
0.0
  0
LINE
  5
C09
330
1E
100
AcDbEntity
  8
STEMPEL
100
AcDbLine
 10
337.3139754441766
 20
604.8827439522073
 30
0.0
 11
337.3139754441766
 21
598.3827439522095
 31
0.0
  0
LINE
  5
C0A
330
1E
100
AcDbEntity
  8
STEMPEL
100
AcDbLine
 10
331.8579882974427
 20
604.8827439522073
 30
0.0
 11
331.8579882974427
 21
598.3827439522107
 31
0.0
  0
LINE
  5
C0B
330
1E
100
AcDbEntity
  8
STEMPEL
100
AcDbLine
 10
335.3560825608761
 20
604.8827439522073
 30
0.0
 11
335.3560825608761
 21
598.3827439522084
 31
0.0
  0
LINE
  5
C0C
330
1E
100
AcDbEntity
  8
STEMPEL
100
AcDbLine
 10
336.3498612744139
 20
604.8827439522073
 30
0.0
 11
336.3498612744139
 21
598.3827439522095
 31
0.0
  0
LINE
  5
C0E
330
1E
100
AcDbEntity
  8
STEMPEL
100
AcDbLine
 10
358.5236626852114
 20
593.3827439522091
 30
0.0
 11
343.5236626852116
 21
593.3827439522095
 31
0.0
  0
LINE
  5
C0F
102
{ACAD_REACTORS
330
B8B
102
}
330
1E
100
AcDbEntity
  8
STEMPEL
100
AcDbLine
 10
353.5236626852115
 20
592.3827439522091
 30
0.0
 11
358.5236626852118
 21
592.3827439522091
 31
0.0
  0
ARC
  5
C10
102
{ACAD_REACTORS
330
B8B
102
}
330
1E
100
AcDbEntity
  8
STEMPEL
100
AcDbCircle
 10
353.7847270189149
 20
577.3827439522086
 30
0.0
 40
5.0
100
AcDbArc
 50
270.0
 51
1.000000000001761
  0
ARC
  5
C13
330
1E
100
AcDbEntity
  8
STEMPEL
100
AcDbCircle
 10
343.5236626852118
 20
598.3827439522095
 30
0.0
 40
5.0
100
AcDbArc
 50
180.0
 51
269.9999999999984
  0
LWPOLYLINE
  5
C14
330
1E
100
AcDbEntity
  8
STEMPEL
100
AcDbPolyline
 90
       10
 70
   128
 43
0.0
 10
-342.8199641752073
 20
592.3827439522102
 10
-341.9618911789346
 20
592.4488711667828
 10
-341.1090789793123
 20
592.701424916513
 10
-340.2883206723954
 20
593.1324706328306
 10
-339.5254023059963
 20
593.7284660032705
 10
-338.8442927504972
 20
594.4706864349911
 10
-338.2663906605515
 20
595.3358133317887
 10
-337.8098521861452
 20
596.2966667025047
 10
-337.4890205545477
 20
597.3230590842169
 10
-337.3139754441766
 20
598.3827439522095
210
0.0
220
0.0
230
-1.0
  0
ARC
  5
C15
330
1E
100
AcDbEntity
  8
STEMPEL
100
AcDbCircle
 10
343.5236626852118
 20
598.3827439522095
 30
0.0
 40
6.0
100
AcDbArc
 50
180.0
 51
269.9999999999984
  0
ARC
  5
C16
330
1E
100
AcDbEntity
  8
STEMPEL
100
AcDbCircle
 10
337.3658054606382
 20
583.3827439522085
 30
0.0
 40
5.0
100
AcDbArc
 50
270.0
 51
358.9999999999982
  0
ARC
  5
C17
330
1E
100
AcDbEntity
  8
STEMPEL
100
AcDbCircle
 10
336.9263619932759
 20
583.3827439522097
 30
0.0
 40
5.0
100
AcDbArc
 50
270.0
 51
358.9999999999982
  0
LINE
  5
C18
330
1E
100
AcDbEntity
  8
STEMPEL
100
AcDbLine
 10
334.0115599301113
 20
593.3827439522091
 30
0.0
 11
329.1973627811399
 21
593.3827439522091
 31
0.0
  0
LWPOLYLINE
  5
C19
330
1E
100
AcDbEntity
  8
STEMPEL
100
AcDbPolyline
 90
       10
 70
   128
 43
0.0
 10
-336.6733528240167
 20
592.3827439522091
 10
-335.8371735491751
 20
592.4738974341359
 10
-335.0264011584725
 20
592.7445882274936
 10
-334.2656705607296
 20
593.1865915295024
 10
-333.5780961702109
 20
593.7864772934952
 10
-332.9845695868424
 20
594.5260182940899
 10
-332.5031248155212
 20
595.3827439522093
 10
-332.1483903120009
 20
596.3306230922553
 10
-331.9311445046667
 20
597.3408548862079
 10
-331.8579882974427
 20
598.3827439522095
210
0.0
220
0.0
230
-1.0
  0
LWPOLYLINE
  5
C1A
330
1E
100
AcDbEntity
  8
STEMPEL
100
AcDbPolyline
 90
        7
 70
   128
 43
0.0
 10
-329.1973627811409
 20
593.3827439522091
 10
-328.5772722580766
 20
593.9920818540498
 10
-328.0454521112931
 20
594.7195121273392
 10
-327.6162063115619
 20
595.5454696212829
 10
-327.3010799637646
 20
596.4477391717451
 10
-327.1085487867987
 20
597.4020531059883
 10
-327.0437911484723
 20
598.3827439522095
210
0.0
220
0.0
230
-1.0
  0
LWPOLYLINE
  5
C1B
330
1E
100
AcDbEntity
  8
STEMPEL
100
AcDbPolyline
 90
       10
 70
   128
 43
0.0
 10
-330.9331013385389
 20
592.3827439522091
 10
-330.0969220636973
 20
592.4738974341359
 10
-329.2861496729947
 20
592.7445882274936
 10
-328.5254190752519
 20
593.1865915295024
 10
-327.8378446847331
 20
593.7864772934952
 10
-327.2443181013647
 20
594.5260182940899
 10
-326.7628733300435
 20
595.3827439522093
 10
-326.4081388265231
 20
596.3306230922553
 10
-326.1908930191889
 20
597.3408548862079
 10
-326.117736811965
 20
598.3827439522095
210
0.0
220
0.0
230
-1.0
  0
LINE
  5
C1C
330
1E
100
AcDbEntity
  8
STEMPEL
100
AcDbLine
 10
339.9344346278472
 20
593.3827439522091
 30
0.0
 11
338.9703204580845
 21
593.3827439522091
 31
0.0
  0
LWPOLYLINE
  5
C1D
330
1E
100
AcDbEntity
  8
STEMPEL
100
AcDbPolyline
 90
       10
 70
   128
 43
0.0
 10
-340.8620712919069
 20
592.3827439522091
 10
-340.0039982956341
 20
592.4488711667817
 10
-339.1511860960119
 20
592.7014249165118
 10
-338.3304277890949
 20
593.1324706328295
 10
-337.5675094226958
 20
593.7284660032694
 10
-336.8863998671967
 20
594.4706864349901
 10
-336.308497777251
 20
595.3358133317875
 10
-335.8519593028447
 20
596.2966667025035
 10
-335.5311276712472
 20
597.3230590842157
 10
-335.3560825608761
 20
598.3827439522084
210
0.0
220
0.0
230
-1.0
  0
LWPOLYLINE
  5
C1E
330
1E
100
AcDbEntity
  8
STEMPEL
100
AcDbPolyline
 90
        7
 70
   128
 43
0.0
 10
-338.9703204580848
 20
593.3827439522096
 10
-338.2936185830074
 20
593.9923446800686
 10
-337.6940691593734
 20
594.7199037639801
 10
-337.1877804862238
 20
595.5458736256604
 10
-336.7883551941782
 20
596.4480626508636
 10
-336.5065247789153
 20
597.4022314190571
 10
-336.3498612744138
 20
598.3827439522095
210
0.0
220
0.0
230
-1.0
  0
LINE
  5
C1F
330
1E
100
AcDbEntity
  8
STEMPEL
100
AcDbLine
 10
342.5236626852115
 20
592.3827439522083
 30
0.0
 11
342.3650439364202
 21
583.2954819200223
 31
0.0
  0
LINE
  5
C20
330
1E
100
AcDbEntity
  8
STEMPEL
100
AcDbLine
 10
342.0842192178492
 20
592.3827439522094
 30
0.0
 11
341.9256004690579
 21
583.2954819200233
 31
0.0
  0
LINE
  5
C21
330
1E
100
AcDbEntity
  8
HILF
100
AcDbLine
 10
348.1736626852117
 20
578.9827439522094
 30
0.0
 11
348.1736626852117
 21
593.3827439522093
 31
0.0
  0
LINE
  5
C22
102
{ACAD_REACTORS
330
B8B
102
}
330
1E
100
AcDbEntity
  8
STEMPEL
100
AcDbLine
 10
347.5236626852116
 20
593.3827439522093
 30
0.0
 11
347.5236626852116
 21
579.6327439522094
 31
0.0
  0
LINE
  5
C23
330
1E
100
AcDbEntity
  8
HILF
100
AcDbLine
 10
352.8736626852117
 20
578.9827439522094
 30
0.0
 11
352.8736626852117
 21
593.3827439522093
 31
0.0
  0
LINE
  5
C24
102
{ACAD_REACTORS
330
B8B
102
}
330
1E
100
AcDbEntity
  8
STEMPEL
100
AcDbLine
 10
353.5236626852115
 20
593.3827439522093
 30
0.0
 11
353.5236626852115
 21
579.6327439522094
 31
0.0
  0
LINE
  5
C25
102
{ACAD_REACTORS
330
B8B
102
}
330
1E
100
AcDbEntity
  8
STEMPEL
100
AcDbLine
 10
348.1736626852117
 20
578.9827439522094
 30
0.0
 11
352.8736626852117
 21
578.9827439522094
 31
0.0
  0
LINE
  5
C26
330
1E
100
AcDbEntity
  8
STEMPEL
100
AcDbLine
 10
347.5236626852116
 20
579.6327439522094
 30
0.0
 11
353.5236626852115
 21
579.6327439522094
 31
0.0
  0
LINE
  5
C27
102
{ACAD_REACTORS
330
B8B
102
}
330
1E
100
AcDbEntity
  8
STEMPEL
100
AcDbLine
 10
347.5236626852116
 20
579.6327439522094
 30
0.0
 11
348.1736626852117
 21
578.9827439522094
 31
0.0
  0
LINE
  5
C28
102
{ACAD_REACTORS
330
B8B
102
}
330
1E
100
AcDbEntity
  8
STEMPEL
100
AcDbLine
 10
352.8736626852117
 20
578.9827439522094
 30
0.0
 11
353.5236626852115
 21
579.6327439522094
 31
0.0
  0
LINE
  5
C29
330
1E
100
AcDbEntity
  8
STEMPEL
100
AcDbLine
 10
356.5236626852116
 20
593.3827439522091
 30
0.0
 11
344.5236626852115
 21
593.3827439522096
 31
0.0
  0
LINE
  5
C2D
330
1E
100
AcDbEntity
  8
STEMPEL
100
AcDbLine
 10
346.5236626852117
 20
593.3827439522096
 30
0.0
 11
346.5236626852117
 21
592.3827439522091
 31
0.0
  0
LINE
  5
C33
330
1E
100
AcDbEntity
  8
STEMPEL
100
AcDbLine
 10
354.5236626852116
 20
593.3827439522091
 30
0.0
 11
354.5236626852116
 21
592.3827439522091
 31
0.0
  0
LINE
  5
C3A
330
1E
100
AcDbEntity
  8
STEMPEL
100
AcDbLine
 10
358.5236626852114
 20
592.3827439522083
 30
0.0
 11
358.7839654946967
 21
577.4700059843949
 31
0.0
  0
LINE
  5
C3B
330
1E
100
AcDbEntity
  8
STEMPEL
100
AcDbLine
 10
358.5236626852116
 20
593.3827439522093
 30
0.0
 11
358.5236626852116
 21
592.3827439522091
 31
0.0
  0
LWPOLYLINE
  5
C3C
330
1E
100
AcDbEntity
  8
STEMPEL
100
AcDbPolyline
 90
       18
 70
   128
 43
0.0
 10
331.8579882974427
 20
604.8827439522073
 10
331.8091189525264
 20
606.2608653358316
 10
331.6641751047064
 20
607.5920564486115
 10
331.4280926428792
 20
608.8309851737882
 10
331.1089110721325
 20
609.9354612795574
 10
330.7174997380421
 20
610.8678731568103
 10
330.2671876841441
 20
611.5964686373716
 10
329.7733097473447
 20
612.0964362760049
 10
329.2526843484397
 20
612.3507502744216
 10
328.7230407609679
 20
612.3507502744216
 10
328.202415362063
 20
612.0964362760049
 10
327.7085374252636
 20
611.5964686373716
 10
327.2582253713656
 20
610.8678731568103
 10
326.8668140372751
 20
609.9354612795574
 10
326.5476324665285
 20
608.8309851737882
 10
326.3115500047013
 20
607.5920564486115
 10
326.1666061568813
 20
606.2608653358316
 10
326.117736811965
 20
604.8827439522073
  0
LWPOLYLINE
  5
C3D
330
1E
100
AcDbEntity
  8
STEMPEL
100
AcDbPolyline
 90
        9
 70
   128
 43
0.0
 10
329.4508897229559
 20
612.2845021968722
 10
328.9618291796871
 20
611.9580692991149
 10
328.5022162117862
 20
611.4128002858578
 10
328.0862664081619
 20
610.6655600427297
 10
327.7268448788703
 20
609.7394603199521
 10
327.4350683439828
 20
608.6631448979818
 10
327.2199612992447
 20
607.469903650351
 10
327.0881768931372
 20
606.1966429052751
 10
327.0437911484723
 20
604.8827439522089
  0
LWPOLYLINE
  5
C3E
330
1E
100
AcDbEntity
  8
STEMPEL
100
AcDbPolyline
 90
       18
 70
   128
 43
0.0
 10
337.3139754441766
 20
604.8827439522073
 10
337.2973070206997
 20
606.2608653358316
 10
337.2478693734394
 20
607.5920564486115
 10
337.1673460421789
 20
608.8309851737882
 10
337.0584791523872
 20
609.9354612795574
 10
336.924976035425
 20
610.8678731568103
 10
336.7713829798208
 20
611.5964686373716
 10
336.6029304128688
 20
612.0964362760049
 10
336.4253547846999
 20
612.3507502744216
 10
336.2447032203528
 20
612.3507502744216
 10
336.0671275921839
 20
612.0964362760049
 10
335.8986750252318
 20
611.5964686373716
 10
335.7450819696277
 20
610.8678731568103
 10
335.6115788526654
 20
609.9354612795574
 10
335.5027119628737
 20
608.8309851737882
 10
335.4221886316133
 20
607.5920564486115
 10
335.3727509843529
 20
606.2608653358316
 10
335.3560825608761
 20
604.8827439522073
  0
LWPOLYLINE
  5
C3F
330
1E
100
AcDbEntity
  8
STEMPEL
100
AcDbPolyline
 90
        7
 70
   128
 43
0.0
 10
336.8319183592954
 20
611.3447980080469
 10
336.6940893497251
 20
610.5926917711084
 10
336.5752250727589
 20
609.6699781603937
 10
336.4788770708577
 20
608.6042269104894
 10
336.4079241233196
 20
607.4272815736684
 10
336.3644862313116
 20
606.1743080672664
 10
336.349861274414
 20
604.8827439522073
  0
LINE
  5
C40
330
1E
100
AcDbEntity
  8
STEMPEL
100
AcDbLine
 10
148.5236626852116
 20
681.3827439522084
 30
0.0
 11
308.5236626852119
 21
681.3827439522091
 31
0.0
  0
LINE
  5
C41
330
1E
100
AcDbEntity
  8
STEMPEL
100
AcDbLine
 10
253.9631772802685
 20
682.3827439522089
 30
0.0
 11
308.5236626852119
 21
682.3827439522091
 31
0.0
  0
LINE
  5
C42
330
1E
100
AcDbEntity
  8
STEMPEL
100
AcDbLine
 10
148.5236626852116
 20
682.3827439522084
 30
0.0
 11
203.2620248575611
 21
682.3827439522086
 31
0.0
  0
ARC
  5
C43
330
1E
100
AcDbEntity
  8
STEMPEL
100
AcDbCircle
 10
148.5236626852116
 20
676.3827439522087
 30
0.0
 40
5.0
100
AcDbArc
 50
90.0
 51
120.5373500483005
  0
ARC
  5
C44
330
1E
100
AcDbEntity
  8
STEMPEL
100
AcDbCircle
 10
148.5236626852116
 20
676.3827439522087
 30
0.0
 40
6.0
100
AcDbArc
 50
90.0
 51
120.5128743276211
  0
ARC
  5
C45
330
1E
100
AcDbEntity
  8
STEMPEL
100
AcDbCircle
 10
148.5236626852116
 20
676.3827439522087
 30
0.0
 40
6.0
100
AcDbArc
 50
90.0
 51
90.0
  0
LINE
  5
C46
330
1E
100
AcDbEntity
  8
STEMPEL
100
AcDbLine
 10
225.1651010689144
 20
682.8827439522089
 30
0.0
 11
235.253368530108
 21
682.8827439522089
 31
0.0
  0
LINE
  5
C47
330
1E
100
AcDbEntity
  8
STEMPEL
100
AcDbLine
 10
205.8601010689145
 20
683.8827439522086
 30
0.0
 11
251.3651010689144
 21
683.8827439522086
 31
0.0
  0
LINE
  5
C48
330
1E
100
AcDbEntity
  8
STEMPEL
100
AcDbLine
 10
216.1131772802674
 20
682.3827439522086
 30
0.0
 11
222.5670248575617
 21
682.3827439522086
 31
0.0
  0
LINE
  5
C49
330
1E
100
AcDbEntity
  8
STEMPEL
100
AcDbLine
 10
216.1131772802674
 20
682.3827439522086
 30
0.0
 11
222.5670248575617
 21
682.3827439522086
 31
0.0
  0
ARC
  5
C4A
330
1E
100
AcDbEntity
  8
STEMPEL
100
AcDbCircle
 10
210.7170248575608
 20
683.8827439522086
 30
0.0
 40
2.5
100
AcDbArc
 50
270.0
 51
330.0000000000076
  0
ARC
  5
C4B
330
1E
100
AcDbEntity
  8
STEMPEL
100
AcDbCircle
 10
216.1131772802674
 20
683.8827439522086
 30
0.0
 40
2.5
100
AcDbArc
 50
209.9999999999997
 51
270.0
  0
ARC
  5
C4C
330
1E
100
AcDbEntity
  8
STEMPEL
100
AcDbCircle
 10
203.2620248575611
 20
683.8827439522086
 30
0.0
 40
2.5
100
AcDbArc
 50
270.0
 51
330.0000000000003
  0
ARC
  5
C4D
330
1E
100
AcDbEntity
  8
STEMPEL
100
AcDbCircle
 10
208.6581772802684
 20
683.8827439522086
 30
0.0
 40
2.5
100
AcDbArc
 50
209.9999999999925
 51
270.0
  0
LINE
  5
C4E
330
1E
100
AcDbEntity
  8
STEMPEL
100
AcDbLine
 10
208.6581772802684
 20
682.3827439522086
 30
0.0
 11
210.7170248575608
 21
682.3827439522086
 31
0.0
  0
LINE
  5
C4F
330
1E
100
AcDbEntity
  8
STEMPEL
100
AcDbLine
 10
208.6581772802684
 20
682.3827439522086
 30
0.0
 11
210.7170248575608
 21
682.3827439522086
 31
0.0
  0
ARC
  5
C50
330
1E
100
AcDbEntity
  8
STEMPEL
100
AcDbCircle
 10
208.6581772802684
 20
683.8827439522086
 30
0.0
 40
1.5
100
AcDbArc
 50
209.9999999999925
 51
270.0
  0
ARC
  5
C51
330
1E
100
AcDbEntity
  8
STEMPEL
100
AcDbCircle
 10
203.2620248575611
 20
683.8827439522086
 30
0.0
 40
1.5
100
AcDbArc
 50
270.0
 51
330.0000000000003
  0
ARC
  5
C52
330
1E
100
AcDbEntity
  8
STEMPEL
100
AcDbCircle
 10
205.8601010689145
 20
682.3827439522086
 30
0.0
 40
0.5
100
AcDbArc
 50
90.0
 51
150.0000000000002
  0
LINE
  5
C53
330
1E
100
AcDbEntity
  8
STEMPEL
100
AcDbLine
 10
205.8601010689145
 20
682.8827439522086
 30
0.0
 11
206.0601010689146
 21
682.8827439522086
 31
0.0
  0
ARC
  5
C54
330
1E
100
AcDbEntity
  8
STEMPEL
100
AcDbCircle
 10
206.0601010689146
 20
682.3827439522086
 30
0.0
 40
0.5
100
AcDbArc
 50
29.99999999999973
 51
90.0
  0
ARC
  5
C55
330
1E
100
AcDbEntity
  8
STEMPEL
100
AcDbCircle
 10
206.0601010689146
 20
682.3827439522086
 30
0.0
 40
1.5
100
AcDbArc
 50
29.99999999999246
 51
90.0
  0
ARC
  5
C56
330
1E
100
AcDbEntity
  8
STEMPEL
100
AcDbCircle
 10
205.8601010689145
 20
682.3827439522086
 30
0.0
 40
1.5
100
AcDbArc
 50
90.0
 51
150.0000000000002
  0
ARC
  5
C57
330
1E
100
AcDbEntity
  8
STEMPEL
100
AcDbCircle
 10
213.3151010689145
 20
682.3827439522086
 30
0.0
 40
1.5
100
AcDbArc
 50
90.0
 51
150.0000000000075
  0
ARC
  5
C58
330
1E
100
AcDbEntity
  8
STEMPEL
100
AcDbCircle
 10
210.7170248575608
 20
683.8827439522086
 30
0.0
 40
1.5
100
AcDbArc
 50
270.0
 51
330.0000000000076
  0
ARC
  5
C59
330
1E
100
AcDbEntity
  8
STEMPEL
100
AcDbCircle
 10
216.1131772802674
 20
683.8827439522086
 30
0.0
 40
1.5
100
AcDbArc
 50
209.9999999999997
 51
270.0
  0
ARC
  5
C5A
330
1E
100
AcDbEntity
  8
STEMPEL
100
AcDbCircle
 10
213.3151010689145
 20
682.3827439522086
 30
0.0
 40
0.5
100
AcDbArc
 50
90.0
 51
150.0000000000075
  0
LINE
  5
C5B
330
1E
100
AcDbEntity
  8
STEMPEL
100
AcDbLine
 10
213.3151010689145
 20
682.8827439522089
 30
0.0
 11
213.5151010689146
 21
682.8827439522089
 31
0.0
  0
ARC
  5
C5C
330
1E
100
AcDbEntity
  8
STEMPEL
100
AcDbCircle
 10
213.5151010689146
 20
682.3827439522086
 30
0.0
 40
0.5
100
AcDbArc
 50
29.99999999999973
 51
90.0
  0
ARC
  5
C5D
330
1E
100
AcDbEntity
  8
STEMPEL
100
AcDbCircle
 10
213.5151010689146
 20
682.3827439522086
 30
0.0
 40
1.5
100
AcDbArc
 50
29.99999999999973
 51
90.0
  0
ARC
  5
C5E
330
1E
100
AcDbEntity
  8
STEMPEL
100
AcDbCircle
 10
222.5670248575617
 20
683.8827439522086
 30
0.0
 40
2.5
100
AcDbArc
 50
270.0
 51
329.9999999999922
  0
ARC
  5
C5F
330
1E
100
AcDbEntity
  8
STEMPEL
100
AcDbCircle
 10
225.1651010689144
 20
682.3827439522086
 30
0.0
 40
1.5
100
AcDbArc
 50
90.0
 51
149.9999999999922
  0
ARC
  5
C60
330
1E
100
AcDbEntity
  8
STEMPEL
100
AcDbCircle
 10
222.5670248575617
 20
683.8827439522086
 30
0.0
 40
1.5
100
AcDbArc
 50
270.0
 51
329.9999999999922
  0
ARC
  5
C61
330
1E
100
AcDbEntity
  8
STEMPEL
100
AcDbCircle
 10
225.1651010689144
 20
682.3827439522086
 30
0.0
 40
0.5
100
AcDbArc
 50
90.0
 51
149.9999999999922
  0
ARC
  5
C62
330
1E
100
AcDbEntity
  8
STEMPEL
100
AcDbCircle
 10
248.567024857562
 20
683.8827439522086
 30
0.0
 40
1.5
100
AcDbArc
 50
270.0
 51
329.9999999999922
  0
ARC
  5
C63
330
1E
100
AcDbEntity
  8
STEMPEL
100
AcDbCircle
 10
248.567024857562
 20
683.8827439522086
 30
0.0
 40
2.5
100
AcDbArc
 50
270.0
 51
329.9999999999922
  0
ARC
  5
C64
330
1E
100
AcDbEntity
  8
STEMPEL
100
AcDbCircle
 10
237.1898602032113
 20
682.8827439522086
 30
0.0
 40
1.5
100
AcDbArc
 50
194.4775121859299
 51
270.0
  0
ARC
  5
C65
330
1E
100
AcDbEntity
  8
STEMPEL
100
AcDbCircle
 10
237.3786093958105
 20
682.8827439522086
 30
0.0
 40
1.5
100
AcDbArc
 50
270.0
 51
345.5224878140701
  0
ARC
  5
C66
330
1E
100
AcDbEntity
  8
STEMPEL
100
AcDbCircle
 10
242.113177280268
 20
683.8827439522086
 30
0.0
 40
2.5
100
AcDbArc
 50
209.9999999999997
 51
270.0
  0
ARC
  5
C67
330
1E
100
AcDbEntity
  8
STEMPEL
100
AcDbCircle
 10
242.113177280268
 20
683.8827439522086
 30
0.0
 40
1.5
100
AcDbArc
 50
209.9999999999997
 51
270.0
  0
ARC
  5
C68
330
1E
100
AcDbEntity
  8
STEMPEL
100
AcDbCircle
 10
237.1898602032113
 20
682.8827439522086
 30
0.0
 40
0.5
100
AcDbArc
 50
194.4775121859299
 51
270.0
  0
ARC
  5
C69
330
1E
100
AcDbEntity
  8
STEMPEL
100
AcDbCircle
 10
235.253368530108
 20
682.3827439522086
 30
0.0
 40
0.5
100
AcDbArc
 50
14.47751218592986
 51
90.0
  0
ARC
  5
C6A
330
1E
100
AcDbEntity
  8
STEMPEL
100
AcDbCircle
 10
235.253368530108
 20
682.3827439522086
 30
0.0
 40
1.5
100
AcDbArc
 50
14.47751218592986
 51
90.0
  0
ARC
  5
C6B
330
1E
100
AcDbEntity
  8
STEMPEL
100
AcDbCircle
 10
239.5151010689145
 20
682.3827439522086
 30
0.0
 40
1.5
100
AcDbArc
 50
29.99999999999973
 51
90.0
  0
ARC
  5
C6C
330
1E
100
AcDbEntity
  8
STEMPEL
100
AcDbCircle
 10
239.3151010689145
 20
682.3827439522086
 30
0.0
 40
1.5
100
AcDbArc
 50
90.0
 51
165.5224878140701
  0
ARC
  5
C6D
330
1E
100
AcDbEntity
  8
STEMPEL
100
AcDbCircle
 10
237.3786093958105
 20
682.8827439522086
 30
0.0
 40
0.5
100
AcDbArc
 50
270.0
 51
345.5224878140701
  0
LINE
  5
C6E
330
1E
100
AcDbEntity
  8
STEMPEL
100
AcDbLine
 10
237.1898602032113
 20
682.3827439522086
 30
0.0
 11
237.3786093958105
 21
682.3827439522086
 31
0.0
  0
ARC
  5
C6F
330
1E
100
AcDbEntity
  8
STEMPEL
100
AcDbCircle
 10
239.3151010689145
 20
682.3827439522086
 30
0.0
 40
0.5
100
AcDbArc
 50
90.0
 51
165.5224878140701
  0
LINE
  5
C70
330
1E
100
AcDbEntity
  8
STEMPEL
100
AcDbLine
 10
239.3151010689145
 20
682.8827439522089
 30
0.0
 11
239.5151010689145
 21
682.8827439522089
 31
0.0
  0
ARC
  5
C71
330
1E
100
AcDbEntity
  8
STEMPEL
100
AcDbCircle
 10
239.5151010689145
 20
682.3827439522086
 30
0.0
 40
0.5
100
AcDbArc
 50
29.99999999999973
 51
90.0
  0
LINE
  5
C72
330
1E
100
AcDbEntity
  8
STEMPEL
100
AcDbLine
 10
242.113177280268
 20
682.3827439522089
 30
0.0
 11
248.567024857562
 21
682.3827439522089
 31
0.0
  0
LINE
  5
C73
330
1E
100
AcDbEntity
  8
STEMPEL
100
AcDbLine
 10
242.113177280268
 20
682.3827439522086
 30
0.0
 11
248.567024857562
 21
682.3827439522086
 31
0.0
  0
ARC
  5
C74
330
1E
100
AcDbEntity
  8
STEMPEL
100
AcDbCircle
 10
253.9631772802685
 20
683.8827439522086
 30
0.0
 40
2.5
100
AcDbArc
 50
209.9999999999925
 51
270.0
  0
ARC
  5
C75
330
1E
100
AcDbEntity
  8
STEMPEL
100
AcDbCircle
 10
253.9631772802685
 20
683.8827439522086
 30
0.0
 40
1.5
100
AcDbArc
 50
209.9999999999925
 51
270.0
  0
ARC
  5
C76
330
1E
100
AcDbEntity
  8
STEMPEL
100
AcDbCircle
 10
251.1651010689144
 20
682.3827439522086
 30
0.0
 40
1.5
100
AcDbArc
 50
90.0
 51
149.9999999999922
  0
ARC
  5
C77
330
1E
100
AcDbEntity
  8
STEMPEL
100
AcDbCircle
 10
251.1651010689144
 20
682.3827439522086
 30
0.0
 40
0.5
100
AcDbArc
 50
90.0
 51
149.9999999999922
  0
LINE
  5
C78
330
1E
100
AcDbEntity
  8
STEMPEL
100
AcDbLine
 10
251.1651010689144
 20
682.8827439522086
 30
0.0
 11
251.3651010689144
 21
682.8827439522086
 31
0.0
  0
ARC
  5
C79
330
1E
100
AcDbEntity
  8
STEMPEL
100
AcDbCircle
 10
251.3651010689144
 20
682.3827439522086
 30
0.0
 40
0.5
100
AcDbArc
 50
29.99999999999246
 51
90.0
  0
ARC
  5
C7A
330
1E
100
AcDbEntity
  8
STEMPEL
100
AcDbCircle
 10
251.3651010689144
 20
682.3827439522086
 30
0.0
 40
1.5
100
AcDbArc
 50
29.99999999999246
 51
90.0
  0
LINE
  5
C7B
330
1E
100
AcDbEntity
  8
STEMPEL
100
AcDbLine
 10
335.0430162533389
 20
666.7015813990898
 30
0.0
 11
311.0641623603878
 21
680.6892345652753
 31
0.0
  0
LINE
  5
C7C
330
1E
100
AcDbEntity
  8
STEMPEL
100
AcDbLine
 10
335.5563573069197
 20
667.5598245122524
 30
0.0
 11
311.5700544314528
 21
681.551834522941
 31
0.0
  0
ARC
  5
C7D
330
1E
100
AcDbEntity
  8
STEMPEL
100
AcDbCircle
 10
308.5236626852119
 20
676.3827439522087
 30
0.0
 40
6.0
100
AcDbArc
 50
59.48712567237889
 51
90.0
  0
ARC
  5
C7E
330
1E
100
AcDbEntity
  8
STEMPEL
100
AcDbCircle
 10
308.5236626852119
 20
676.3827439522087
 30
0.0
 40
5.0
100
AcDbArc
 50
59.46264995169952
 51
90.0
  0
ARC
  5
C7F
330
1E
100
AcDbEntity
  8
STEMPEL
100
AcDbCircle
 10
308.5236626852119
 20
676.3827439522087
 30
0.0
 40
6.0
100
AcDbArc
 50
90.0
 51
90.0
  0
ARC
  5
C80
330
1E
100
AcDbEntity
  8
STEMPEL
100
AcDbCircle
 10
332.5236626852118
 20
662.3826859848935
 30
0.0
 40
5.0
100
AcDbArc
 50
0.0
 51
59.74358352518112
  0
ARC
  5
C81
330
1E
100
AcDbEntity
  8
STEMPEL
100
AcDbCircle
 10
338.0348062895234
 20
671.9025809346709
 30
0.0
 40
5.0
100
AcDbArc
 50
239.7435628364684
 51
239.9329541615142
  0
ARC
  5
C82
330
1E
100
AcDbEntity
  8
STEMPEL
100
AcDbCircle
 10
332.5236626852118
 20
662.3826859848935
 30
0.0
 40
6.0
100
AcDbArc
 50
0.0
 51
59.74358352518112
  0
LINE
  5
C84
330
1E
100
AcDbEntity
  8
STEMPEL
100
AcDbLine
 10
127.849962589283
 20
593.3827439522095
 30
0.0
 11
125.7345551696813
 21
593.3827439522096
 31
0.0
  0
LINE
  5
C8C
330
1E
100
AcDbEntity
  8
MITTEL
100
AcDbLine
 10
183.5236626852114
 20
596.3827439522075
 30
0.0
 11
183.5236626852114
 21
561.3827439522073
 31
0.0
  0
LINE
  5
C8D
330
1E
100
AcDbEntity
  8
STEMPEL
100
AcDbLine
 10
143.5236626852116
 20
590.3827439522075
 30
0.0
 11
143.5236626852116
 21
588.3827439522081
 31
0.0
  0
LINE
  5
C8E
330
1E
100
AcDbEntity
  8
HILF
100
AcDbLine
 10
142.5236626852116
 20
591.3827439522077
 30
0.0
 11
142.5236626852116
 21
588.3827439522081
 31
0.0
  0
LINE
  5
C8F
330
1E
100
AcDbEntity
  8
STEMPEL
100
AcDbLine
 10
133.5236626852116
 20
590.3827439522078
 30
0.0
 11
133.5236626852116
 21
588.3827439522081
 31
0.0
  0
LINE
  5
C90
330
1E
100
AcDbEntity
  8
HILF
100
AcDbLine
 10
134.5236626852116
 20
591.3827439522076
 30
0.0
 11
134.5236626852116
 21
588.3827439522081
 31
0.0
  0
LINE
  5
C91
330
1E
100
AcDbEntity
  8
MITTEL
100
AcDbLine
 10
138.5236626852116
 20
596.3827439522076
 30
0.0
 11
138.5236626852116
 21
561.3827439522073
 31
0.0
  0
LINE
  5
C92
330
1E
100
AcDbEntity
  8
STEMPEL
100
AcDbLine
 10
133.5236626852116
 20
590.3827439522078
 30
0.0
 11
143.5236626852114
 21
590.3827439522078
 31
0.0
  0
LINE
  5
C93
330
1E
100
AcDbEntity
  8
STEMPEL
100
AcDbLine
 10
142.5236626852116
 20
591.3827439522077
 30
0.0
 11
134.5236626852116
 21
591.3827439522077
 31
0.0
  0
LINE
  5
C94
330
1E
100
AcDbEntity
  8
STEMPEL
100
AcDbLine
 10
134.5236626852116
 20
591.3827439522077
 30
0.0
 11
133.5236626852116
 21
590.3827439522078
 31
0.0
  0
LINE
  5
C95
330
1E
100
AcDbEntity
  8
STEMPEL
100
AcDbLine
 10
143.5236626852116
 20
590.3827439522078
 30
0.0
 11
142.5236626852116
 21
591.3827439522077
 31
0.0
  0
LINE
  5
C9A
330
1E
100
AcDbEntity
  8
STEMPEL
100
AcDbLine
 10
132.0236626852115
 20
578.3827439522084
 30
0.0
 11
132.0236626852115
 21
572.3827439522077
 31
0.0
  0
LINE
  5
C9B
330
1E
100
AcDbEntity
  8
STEMPEL
100
AcDbLine
 10
145.0236626852116
 20
578.3827439522084
 30
0.0
 11
145.0236626852116
 21
572.3827439522077
 31
0.0
  0
LINE
  5
C9C
330
1E
100
AcDbEntity
  8
STEMPEL
100
AcDbLine
 10
116.5236626852114
 20
578.3827439522082
 30
0.0
 11
337.3658054606382
 21
578.3827439522085
 31
0.0
  0
LINE
  5
C9D
330
1E
100
AcDbEntity
  8
HILF
100
AcDbLine
 10
134.5236626852116
 20
578.3827439522083
 30
0.0
 11
134.5236626852116
 21
566.3827439522077
 31
0.0
  0
LINE
  5
C9E
330
1E
100
AcDbEntity
  8
STEMPEL
100
AcDbLine
 10
133.5236626852116
 20
578.3827439522082
 30
0.0
 11
133.5236626852116
 21
566.3827439522077
 31
0.0
  0
LINE
  5
C9F
330
1E
100
AcDbEntity
  8
HILF
100
AcDbLine
 10
142.5236626852116
 20
578.3827439522084
 30
0.0
 11
142.5236626852116
 21
566.3827439522076
 31
0.0
  0
LINE
  5
CA0
330
1E
100
AcDbEntity
  8
STEMPEL
100
AcDbLine
 10
143.5236626852116
 20
578.3827439522083
 30
0.0
 11
143.5236626852116
 21
566.3827439522076
 31
0.0
  0
LINE
  5
CA1
330
1E
100
AcDbEntity
  8
STEMPEL
100
AcDbLine
 10
187.5236626852114
 20
591.3827439522077
 30
0.0
 11
179.5236626852114
 21
591.3827439522077
 31
0.0
  0
LINE
  5
CA2
330
1E
100
AcDbEntity
  8
STEMPEL
100
AcDbLine
 10
178.5236626852114
 20
590.3827439522078
 30
0.0
 11
188.5236626852112
 21
590.3827439522078
 31
0.0
  0
LINE
  5
CA3
330
1E
100
AcDbEntity
  8
STEMPEL
100
AcDbLine
 10
178.5236626852114
 20
590.3827439522078
 30
0.0
 11
178.5236626852114
 21
588.3827439522084
 31
0.0
  0
LINE
  5
CA4
330
1E
100
AcDbEntity
  8
HILF
100
AcDbLine
 10
179.5236626852114
 20
591.3827439522076
 30
0.0
 11
179.5236626852114
 21
588.3827439522083
 31
0.0
  0
LINE
  5
CA5
330
1E
100
AcDbEntity
  8
STEMPEL
100
AcDbLine
 10
179.5236626852114
 20
591.3827439522077
 30
0.0
 11
178.5236626852114
 21
590.3827439522078
 31
0.0
  0
LINE
  5
CA6
330
1E
100
AcDbEntity
  8
HILF
100
AcDbLine
 10
187.5236626852114
 20
591.3827439522077
 30
0.0
 11
187.5236626852114
 21
588.3827439522084
 31
0.0
  0
LINE
  5
CA7
330
1E
100
AcDbEntity
  8
STEMPEL
100
AcDbLine
 10
188.5236626852114
 20
590.3827439522075
 30
0.0
 11
188.5236626852114
 21
588.3827439522083
 31
0.0
  0
LINE
  5
CA8
330
1E
100
AcDbEntity
  8
STEMPEL
100
AcDbLine
 10
188.5236626852114
 20
590.3827439522078
 30
0.0
 11
187.5236626852114
 21
591.3827439522077
 31
0.0
  0
LINE
  5
CA9
330
1E
100
AcDbEntity
  8
STEMPEL
100
AcDbLine
 10
135.7092722353456
 20
593.3827439522091
 30
0.0
 11
144.0720114619331
 21
593.3827439522091
 31
0.0
  0
LWPOLYLINE
  5
CAA
330
1E
100
AcDbEntity
  8
STEMPEL
100
AcDbPolyline
 90
        8
 70
   128
 43
0.0
 10
134.2518006392744
 20
592.3827439522083
 10
135.5055346548373
 20
593.1865915295019
 10
136.1286178288836
 20
593.7864772934946
 10
136.6664744339951
 20
594.5260182940893
 10
137.1027619693941
 20
595.3827439522086
 10
137.4242240590894
 20
596.3306230922547
 10
137.6210932401534
 20
597.3408548862072
 10
137.6873877421402
 20
598.3827439522088
  0
LWPOLYLINE
  5
CAB
330
1E
100
AcDbEntity
  8
STEMPEL
100
AcDbPolyline
 90
       10
 70
   128
 43
0.0
 10
177.258588745265
 20
592.3827439522102
 10
177.7313187030186
 20
592.473897434137
 10
178.1896850002188
 20
592.7445882274947
 10
178.6197604088695
 20
593.1865915295036
 10
179.0084773053078
 20
593.7864772934964
 10
179.3440247233354
 20
594.5260182940911
 10
179.616207224451
 20
595.3827439522105
 10
179.8167546810891
 20
596.3306230922564
 10
179.9395735602615
 20
597.340854886209
 10
179.980932072474
 20
598.3827439522107
  0
LWPOLYLINE
  5
CAC
330
1E
100
AcDbEntity
  8
STEMPEL
100
AcDbPolyline
 90
       10
 70
   128
 43
0.0
 10
-304.3341480713237
 20
592.3827439522102
 10
-303.6981437113228
 20
592.473897434137
 10
-303.0814640219667
 20
592.7445882274947
 10
-302.5028465035616
 20
593.1865915295036
 10
-301.9798721566098
 20
593.7864772934964
 10
-301.5284312920053
 20
594.5260182940911
 10
-301.1622407119793
 20
595.3827439522105
 10
-300.8924269320043
 20
596.3306230922564
 10
-300.7271881072527
 20
597.340854886209
 10
-300.6715449357996
 20
598.3827439522107
210
0.0
220
0.0
230
-1.0
  0
LINE
  5
CB1
330
1E
100
AcDbEntity
  8
STEMPEL
100
AcDbLine
 10
304.9236626852115
 20
590.3827439522081
 30
0.0
 11
303.9236626852115
 21
591.3827439522081
 31
0.0
  0
LINE
  5
CB2
330
1E
100
AcDbEntity
  8
STEMPEL
100
AcDbLine
 10
294.9236626852115
 20
590.3827439522081
 30
0.0
 11
304.9236626852113
 21
590.3827439522081
 31
0.0
  0
LINE
  5
CB3
330
1E
100
AcDbEntity
  8
STEMPEL
100
AcDbLine
 10
295.9236626852115
 20
591.3827439522081
 30
0.0
 11
294.9236626852115
 21
590.3827439522081
 31
0.0
  0
LINE
  5
CB4
330
1E
100
AcDbEntity
  8
STEMPEL
100
AcDbLine
 10
294.9236626852115
 20
590.3827439522081
 30
0.0
 11
294.9236626852115
 21
588.3827439522084
 31
0.0
  0
LINE
  5
CB5
330
1E
100
AcDbEntity
  8
HILF
100
AcDbLine
 10
303.9236626852115
 20
591.3827439522081
 30
0.0
 11
303.9236626852116
 21
588.3827439522085
 31
0.0
  0
LINE
  5
CB6
330
1E
100
AcDbEntity
  8
HILF
100
AcDbLine
 10
295.9236626852115
 20
591.3827439522079
 30
0.0
 11
295.9236626852115
 21
588.3827439522085
 31
0.0
  0
LINE
  5
CB7
330
1E
100
AcDbEntity
  8
STEMPEL
100
AcDbLine
 10
303.9236626852115
 20
591.3827439522081
 30
0.0
 11
295.9236626852115
 21
591.3827439522081
 31
0.0
  0
LINE
  5
CB8
330
1E
100
AcDbEntity
  8
STEMPEL
100
AcDbLine
 10
304.9236626852115
 20
590.3827439522079
 30
0.0
 11
304.9236626852115
 21
588.3827439522084
 31
0.0
  0
LINE
  5
CB9
330
1E
100
AcDbEntity
  8
STEMPEL
100
AcDbLine
 10
133.5572744857976
 20
592.3827439522082
 30
0.0
 11
133.5572744857977
 21
590.4163557527932
 31
0.0
  0
LINE
  5
CBA
330
1E
100
AcDbEntity
  8
STEMPEL
100
AcDbLine
 10
142.9438531612508
 20
592.3827439522073
 30
0.0
 11
142.9690830678788
 21
590.9373235695401
 31
0.0
  0
HATCH
  5
CBB
330
1E
100
AcDbEntity
  8
SCHRAFF
100
AcDbHatch
 10
0.0
 20
0.0
 30
0.0
210
0.0
220
0.0
230
1.0
  2
_USER
 70
     0
 71
     0
 91
        5
 92
        7
 72
     1
 73
     1
 93
       12
 10
358.5236626852113
 20
592.3827439522084
 42
0.0
 10
354.5236626852116
 20
592.3827439522088
 42
0.0
 10
354.5236626852114
 20
589.3827439522096
 42
0.0
 10
354.0236626852116
 20
589.3827439522095
 42
0.0
 10
354.0236626852117
 20
586.3827439522095
 42
0.0
 10
354.5236626852114
 20
586.3827439522096
 42
0.0
 10
354.5236626852116
 20
578.3827439522098
 42
0.0
 10
354.0236626852117
 20
578.3827439522097
 42
0.0
 10
354.0236626852117
 20
575.3827439522097
 42
0.0
 10
354.5236626852116
 20
575.3827439522097
 42
0.0
 10
354.5236626852116
 20
572.4376479894316
 42
0.3763797779543461
 10
358.7839654946967
 20
577.470005984395
 42
0.0
 97
        0
 92
        7
 72
     1
 73
     1
 93
       11
 10
346.5236626852114
 20
585.8797574514214
 42
0.0
 10
342.4717670660121
 20
589.4096459194724
 42
0.0
 10
342.3650439364202
 20
583.2954819200224
 42
-0.4091108014277268
 10
337.3658054606382
 20
578.3827439522086
 42
0.0
 10
294.0236626852115
 20
578.3827439522086
 42
1.0
 10
294.0236626852115
 20
572.3827439522081
 42
0.0
 10
346.5236626852117
 20
572.3827439522087
 42
0.0
 10
346.5236626852117
 20
575.3827439522097
 42
0.0
 10
347.0236626852117
 20
575.3827439522096
 42
0.0
 10
347.0236626852117
 20
578.3827439522095
 42
0.0
 10
346.5236626852117
 20
578.3827439522095
 42
0.0
 97
        0
 92
        7
 72
     0
 73
     1
 93
        8
 10
346.5236626852115
 20
585.8797574514215
 10
346.5236626852114
 20
586.3827439522094
 10
347.0236626852117
 20
586.3827439522095
 10
347.0236626852117
 20
589.3827439522095
 10
346.5236626852114
 20
589.3827439522095
 10
346.5236626852115
 20
592.3827439522096
 10
342.5236626852115
 20
592.3827439522098
 10
342.4717670660121
 20
589.4096459194721
 97
        0
 92
        7
 72
     1
 73
     1
 93
        4
 10
145.023662685211
 20
578.3827439522086
 42
0.0
 10
145.023662685211
 20
572.3827439522072
 42
0.0
 10
163.0236626852115
 20
572.3827439522072
 42
1.0
 10
163.0236626852115
 20
578.3827439522084
 42
0.0
 97
        0
 92
        7
 72
     1
 73
     1
 93
        4
 10
116.5236626852113
 20
578.3827439522084
 42
1.0
 10
116.5236626852113
 20
572.3827439522071
 42
0.0
 10
132.023662685211
 20
572.3827439522071
 42
0.0
 10
132.0236626852112
 20
578.3827439522084
 42
0.0
 97
        0
 75
     0
 76
     0
 52
45.0
 41
5.0
 77
     0
 78
     1
 53
45.0
 43
27.09527301698358
 44
62.69347270763427
 45
-3.535533905932737
 46
3.535533905932737
 79
     0
 47
0.4273487917069632
 98
        5
 10
357.0256992812626
 20
580.5776808870829
 10
344.6235066415409
 20
579.2956347894915
 10
344.1958468928608
 20
589.9793536677026
 10
154.7416629635966
 20
575.4494950984348
 10
125.2329986566726
 20
576.3041924968289
  0
LINE
  5
CBC
102
{ACAD_REACTORS
330
B8B
102
}
330
1E
100
AcDbEntity
  8
STEMPEL
100
AcDbLine
 10
354.5236626852114
 20
589.3827439522095
 30
0.0
 11
354.5236626852116
 21
592.3827439522096
 31
0.0
  0
LINE
  5
CBD
102
{ACAD_REACTORS
330
B8B
102
}
330
1E
100
AcDbEntity
  8
STEMPEL
100
AcDbLine
 10
354.5236626852116
 20
589.3827439522095
 30
0.0
 11
354.0236626852117
 21
589.3827439522095
 31
0.0
  0
LINE
  5
CBE
102
{ACAD_REACTORS
330
B8B
102
}
330
1E
100
AcDbEntity
  8
STEMPEL
100
AcDbLine
 10
354.5236626852116
 20
578.3827439522097
 30
0.0
 11
354.5236626852114
 21
586.3827439522095
 31
0.0
  0
LINE
  5
CBF
102
{ACAD_REACTORS
330
B8B
102
}
330
1E
100
AcDbEntity
  8
STEMPEL
100
AcDbLine
 10
354.5236626852116
 20
578.3827439522098
 30
0.0
 11
354.0236626852117
 21
578.3827439522097
 31
0.0
  0
LINE
  5
CC0
102
{ACAD_REACTORS
330
B8B
102
}
330
1E
100
AcDbEntity
  8
STEMPEL
100
AcDbLine
 10
354.5236626852116
 20
586.3827439522095
 30
0.0
 11
354.0236626852117
 21
586.3827439522095
 31
0.0
  0
LINE
  5
CC1
102
{ACAD_REACTORS
330
B8B
102
}
330
1E
100
AcDbEntity
  8
STEMPEL
100
AcDbLine
 10
354.5236626852116
 20
572.3827439522096
 30
0.0
 11
354.5236626852116
 21
575.3827439522097
 31
0.0
  0
LINE
  5
CC2
102
{ACAD_REACTORS
330
B8B
102
}
330
1E
100
AcDbEntity
  8
STEMPEL
100
AcDbLine
 10
354.5236626852116
 20
575.3827439522097
 30
0.0
 11
354.0236626852116
 21
575.3827439522097
 31
0.0
  0
LINE
  5
CC3
102
{ACAD_REACTORS
330
B8B
102
}
330
1E
100
AcDbEntity
  8
STEMPEL
100
AcDbLine
 10
354.0236626852117
 20
575.3827439522097
 30
0.0
 11
354.0236626852117
 21
578.3827439522098
 31
0.0
  0
LINE
  5
CC4
102
{ACAD_REACTORS
330
B8B
102
}
330
1E
100
AcDbEntity
  8
STEMPEL
100
AcDbLine
 10
352.5236626852116
 20
572.3827439522095
 30
0.0
 11
352.5236626852116
 21
578.9827439522094
 31
0.0
  0
LINE
  5
CC5
102
{ACAD_REACTORS
330
B8B
102
}
330
1E
100
AcDbEntity
  8
HILF
100
AcDbLine
 10
353.5236626852115
 20
572.3827439522095
 30
0.0
 11
353.5236626852115
 21
579.6327439522094
 31
0.0
  0
LINE
  5
CC6
102
{ACAD_REACTORS
330
B8B
102
}
330
1E
100
AcDbEntity
  8
STEMPEL
100
AcDbLine
 10
354.0236626852117
 20
586.3827439522095
 30
0.0
 11
354.0236626852117
 21
589.3827439522096
 31
0.0
  0
LINE
  5
CC7
102
{ACAD_REACTORS
330
B8B
102
}
330
1E
100
AcDbEntity
  8
STEMPEL
100
AcDbLine
 10
346.5236626852114
 20
589.3827439522095
 30
0.0
 11
346.5236626852115
 21
592.3827439522096
 31
0.0
  0
LINE
  5
CC8
102
{ACAD_REACTORS
330
B8B
102
}
330
1E
100
AcDbEntity
  8
STEMPEL
100
AcDbLine
 10
347.0236626852117
 20
589.3827439522095
 30
0.0
 11
346.5236626852115
 21
589.3827439522095
 31
0.0
  0
LINE
  5
CC9
102
{ACAD_REACTORS
330
B8B
102
}
330
1E
100
AcDbEntity
  8
STEMPEL
100
AcDbLine
 10
346.5236626852117
 20
578.3827439522094
 30
0.0
 11
346.5236626852114
 21
586.3827439522095
 31
0.0
  0
LINE
  5
CCA
102
{ACAD_REACTORS
330
B8B
102
}
330
1E
100
AcDbEntity
  8
STEMPEL
100
AcDbLine
 10
347.0236626852117
 20
578.3827439522095
 30
0.0
 11
346.5236626852117
 21
578.3827439522095
 31
0.0
  0
LINE
  5
CCB
102
{ACAD_REACTORS
330
B8B
102
}
330
1E
100
AcDbEntity
  8
STEMPEL
100
AcDbLine
 10
347.0236626852117
 20
586.3827439522095
 30
0.0
 11
346.5236626852115
 21
586.3827439522095
 31
0.0
  0
LINE
  5
CCC
102
{ACAD_REACTORS
330
B8B
102
}
330
1E
100
AcDbEntity
  8
STEMPEL
100
AcDbLine
 10
346.5236626852117
 20
572.3827439522096
 30
0.0
 11
346.5236626852117
 21
575.3827439522097
 31
0.0
  0
LINE
  5
CCD
102
{ACAD_REACTORS
330
B8B
102
}
330
1E
100
AcDbEntity
  8
STEMPEL
100
AcDbLine
 10
347.0236626852117
 20
575.3827439522097
 30
0.0
 11
346.5236626852117
 21
575.3827439522097
 31
0.0
  0
LINE
  5
CCE
102
{ACAD_REACTORS
330
B8B
102
}
330
1E
100
AcDbEntity
  8
STEMPEL
100
AcDbLine
 10
347.0236626852117
 20
575.3827439522096
 30
0.0
 11
347.0236626852117
 21
578.3827439522095
 31
0.0
  0
LINE
  5
CCF
102
{ACAD_REACTORS
330
B8B
102
}
330
1E
100
AcDbEntity
  8
STEMPEL
100
AcDbLine
 10
348.5236626852115
 20
572.3827439522095
 30
0.0
 11
348.5236626852115
 21
578.9827439522094
 31
0.0
  0
LINE
  5
CD0
102
{ACAD_REACTORS
330
B8B
102
}
330
1E
100
AcDbEntity
  8
HILF
100
AcDbLine
 10
347.5236626852116
 20
572.3827439522095
 30
0.0
 11
347.5236626852116
 21
579.6327439522094
 31
0.0
  0
LINE
  5
CD1
102
{ACAD_REACTORS
330
B8B
102
}
330
1E
100
AcDbEntity
  8
STEMPEL
100
AcDbLine
 10
347.0236626852117
 20
586.3827439522095
 30
0.0
 11
347.0236626852117
 21
589.3827439522096
 31
0.0
  0
ARC
  5
CD2
330
1E
100
AcDbEntity
  8
STEMPEL
100
AcDbCircle
 10
299.9236626852115
 20
558.0718548197536
 30
0.0
 40
30.31088913245485
100
AcDbArc
 50
81.78678929826011
 51
98.21321070173988
  0
ARC
  5
CD3
330
1E
100
AcDbEntity
  8
STEMPEL
100
AcDbCircle
 10
293.4284721568283
 20
580.6884382444239
 30
0.0
 40
7.694305707784447
100
AcDbArc
 50
73.65710669401345
 51
106.3428933059834
  0
ARC
  5
CD4
330
1E
100
AcDbEntity
  8
STEMPEL
100
AcDbCircle
 10
306.4188532135948
 20
580.6884382444239
 30
0.0
 40
7.694305707784447
100
AcDbArc
 50
73.65710669401345
 51
106.3428933059834
  0
ARC
  5
CD5
330
1E
100
AcDbEntity
  8
HILF
100
AcDbCircle
 10
299.9236626852115
 20
558.4842829045473
 30
0.0
 40
22.41111549782308
100
AcDbArc
 50
78.85962783890391
 51
101.1403721610961
  0
ARC
  5
CD6
330
1E
100
AcDbEntity
  8
HILF
100
AcDbCircle
 10
306.4188532135948
 20
575.1342578026789
 30
0.0
 40
5.761140599691502
100
AcDbArc
 50
67.92594526326054
 51
112.0740547367394
  0
ARC
  5
CD7
330
1E
100
AcDbEntity
  8
HILF
100
AcDbCircle
 10
293.4284721568282
 20
575.1342578026789
 30
0.0
 40
5.761140599691502
100
AcDbArc
 50
67.92594526326054
 51
112.0740547367394
  0
POINT
  5
CD8
330
1E
100
AcDbEntity
  8
0
100
AcDbPoint
 10
299.9236626852115
 20
578.3827439522084
 30
0.0
210
0.0000000000000001
220
1.0
230
0.0
  0
LINE
  5
CD9
330
1E
100
AcDbEntity
  8
STEMPEL
100
AcDbLine
 10
292.4236626852115
 20
588.3827439522084
 30
0.0
 11
307.4236626852115
 21
588.3827439522084
 31
0.0
  0
LINE
  5
CDA
330
1E
100
AcDbEntity
  8
STEMPEL
100
AcDbLine
 10
308.583916723056
 20
580.4731004684083
 30
0.0
 11
308.583916723056
 21
588.0718548197531
 31
0.0
  0
LINE
  5
CDB
330
1E
100
AcDbEntity
  8
STEMPEL
100
AcDbLine
 10
304.2537897041337
 20
580.4731004684083
 30
0.0
 11
304.2537897041337
 21
588.0718548197531
 31
0.0
  0
LINE
  5
CDC
330
1E
100
AcDbEntity
  8
STEMPEL
100
AcDbLine
 10
295.5935356662893
 20
580.4731004684083
 30
0.0
 11
295.5935356662893
 21
588.0718548197531
 31
0.0
  0
LINE
  5
CDD
330
1E
100
AcDbEntity
  8
STEMPEL
100
AcDbLine
 10
310.3301777927058
 20
579.8375134177979
 30
0.0
 11
289.5171475777173
 21
579.8375134177979
 31
0.0
  0
LINE
  5
CDE
330
1E
100
AcDbEntity
  8
STEMPEL
100
AcDbLine
 10
310.0736626852115
 20
578.3827439522084
 30
0.0
 11
289.7736626852116
 21
578.3827439522084
 31
0.0
  0
LINE
  5
CDF
330
1E
100
AcDbEntity
  8
STEMPEL
100
AcDbLine
 10
291.2634086473672
 20
580.4731004684083
 30
0.0
 11
291.2634086473672
 21
588.0718548197531
 31
0.0
  0
LINE
  5
CE0
330
1E
100
AcDbEntity
  8
STEMPEL
100
AcDbLine
 10
292.4236626852115
 20
588.3827439522084
 30
0.0
 11
291.2634086473672
 21
588.0718548197531
 31
0.0
  0
LINE
  5
CE1
330
1E
100
AcDbEntity
  8
STEMPEL
100
AcDbLine
 10
308.583916723056
 20
588.0718548197531
 30
0.0
 11
307.4236626852115
 21
588.3827439522084
 31
0.0
  0
LINE
  5
CE2
330
1E
100
AcDbEntity
  8
STEMPEL
100
AcDbLine
 10
310.3301777927058
 20
579.8375134177979
 30
0.0
 11
308.583916723056
 21
580.4731004684083
 31
0.0
  0
LINE
  5
CE3
330
1E
100
AcDbEntity
  8
STEMPEL
100
AcDbLine
 10
291.2634086473672
 20
580.4731004684083
 30
0.0
 11
289.5171475777173
 21
579.8375134177979
 31
0.0
  0
ARC
  5
CE4
330
1E
100
AcDbEntity
  8
STEMPEL
100
AcDbCircle
 10
289.7736626852116
 20
579.1327439522084
 30
0.0
 40
0.7500000000000013
100
AcDbArc
 50
110.0000000000006
 51
269.9999991462263
  0
ARC
  5
CE5
330
1E
100
AcDbEntity
  8
STEMPEL
100
AcDbCircle
 10
310.0736626852115
 20
579.1327439522084
 30
0.0
 40
0.750000000000001
100
AcDbArc
 50
269.9999991462263
 51
69.99999999999935
  0
ARC
  5
CE6
330
1E
100
AcDbEntity
  8
STEMPEL
100
AcDbCircle
 10
183.5236626852114
 20
558.0718548197535
 30
0.0
 40
30.31088913245485
100
AcDbArc
 50
81.78678929826174
 51
98.21321070173826
  0
ARC
  5
CE7
330
1E
100
AcDbEntity
  8
STEMPEL
100
AcDbCircle
 10
177.0284721568281
 20
580.6884382444239
 30
0.0
 40
7.694305707784447
100
AcDbArc
 50
73.65710669401501
 51
106.342893305985
  0
ARC
  5
CE8
330
1E
100
AcDbEntity
  8
STEMPEL
100
AcDbCircle
 10
190.0188532135947
 20
580.6884382444239
 30
0.0
 40
7.694305707784447
100
AcDbArc
 50
73.65710669401501
 51
106.342893305985
  0
ARC
  5
CE9
330
1E
100
AcDbEntity
  8
HILF
100
AcDbCircle
 10
183.5236626852114
 20
558.484282904547
 30
0.0
 40
22.41111549782308
100
AcDbArc
 50
78.85962783890552
 51
101.1403721610945
  0
ARC
  5
CEA
330
1E
100
AcDbEntity
  8
HILF
100
AcDbCircle
 10
190.0188532135947
 20
575.1342578026786
 30
0.0
 40
5.761140599691502
100
AcDbArc
 50
67.92594526326206
 51
112.0740547367379
  0
ARC
  5
CEB
330
1E
100
AcDbEntity
  8
HILF
100
AcDbCircle
 10
177.0284721568281
 20
575.1342578026786
 30
0.0
 40
5.761140599691502
100
AcDbArc
 50
67.92594526326206
 51
112.0740547367379
  0
POINT
  5
CEC
330
1E
100
AcDbEntity
  8
0
100
AcDbPoint
 10
183.5236626852114
 20
578.3827439522084
 30
0.0
210
0.0000000000000001
220
1.0
230
0.0
  0
LINE
  5
CED
330
1E
100
AcDbEntity
  8
STEMPEL
100
AcDbLine
 10
176.0236626852114
 20
588.3827439522084
 30
0.0
 11
191.0236626852114
 21
588.3827439522084
 31
0.0
  0
LINE
  5
CEE
330
1E
100
AcDbEntity
  8
STEMPEL
100
AcDbLine
 10
192.1839167230558
 20
580.4731004684082
 30
0.0
 11
192.1839167230558
 21
588.0718548197529
 31
0.0
  0
LINE
  5
CEF
330
1E
100
AcDbEntity
  8
STEMPEL
100
AcDbLine
 10
187.8537897041336
 20
580.4731004684082
 30
0.0
 11
187.8537897041336
 21
588.0718548197529
 31
0.0
  0
LINE
  5
CF0
330
1E
100
AcDbEntity
  8
STEMPEL
100
AcDbLine
 10
179.1935356662892
 20
580.4731004684082
 30
0.0
 11
179.1935356662892
 21
588.0718548197529
 31
0.0
  0
LINE
  5
CF1
330
1E
100
AcDbEntity
  8
STEMPEL
100
AcDbLine
 10
193.9301777927056
 20
579.8375134177978
 30
0.0
 11
173.1171475777172
 21
579.8375134177978
 31
0.0
  0
LINE
  5
CF2
330
1E
100
AcDbEntity
  8
STEMPEL
100
AcDbLine
 10
193.6736626852114
 20
578.3827439522084
 30
0.0
 11
173.3736626852114
 21
578.3827439522084
 31
0.0
  0
LINE
  5
CF3
330
1E
100
AcDbEntity
  8
STEMPEL
100
AcDbLine
 10
174.863408647367
 20
580.4731004684082
 30
0.0
 11
174.863408647367
 21
588.0718548197529
 31
0.0
  0
LINE
  5
CF4
330
1E
100
AcDbEntity
  8
STEMPEL
100
AcDbLine
 10
176.0236626852114
 20
588.3827439522084
 30
0.0
 11
174.863408647367
 21
588.0718548197529
 31
0.0
  0
LINE
  5
CF5
330
1E
100
AcDbEntity
  8
STEMPEL
100
AcDbLine
 10
192.1839167230558
 20
588.0718548197529
 30
0.0
 11
191.0236626852114
 21
588.3827439522084
 31
0.0
  0
LINE
  5
CF6
330
1E
100
AcDbEntity
  8
STEMPEL
100
AcDbLine
 10
193.9301777927056
 20
579.8375134177978
 30
0.0
 11
192.1839167230558
 21
580.4731004684082
 31
0.0
  0
LINE
  5
CF7
330
1E
100
AcDbEntity
  8
STEMPEL
100
AcDbLine
 10
174.863408647367
 20
580.4731004684082
 30
0.0
 11
173.1171475777172
 21
579.8375134177978
 31
0.0
  0
ARC
  5
CF8
330
1E
100
AcDbEntity
  8
STEMPEL
100
AcDbCircle
 10
173.3736626852114
 20
579.1327439522084
 30
0.0
 40
0.7500000000000013
100
AcDbArc
 50
110.0000000000006
 51
269.9999991462263
  0
ARC
  5
CF9
330
1E
100
AcDbEntity
  8
STEMPEL
100
AcDbCircle
 10
193.6736626852114
 20
579.1327439522084
 30
0.0
 40
0.750000000000001
100
AcDbArc
 50
269.9999991462263
 51
69.99999999999935
  0
ARC
  5
CFA
330
1E
100
AcDbEntity
  8
STEMPEL
100
AcDbCircle
 10
138.5236626852116
 20
558.0718548197534
 30
0.0
 40
30.31088913245485
100
AcDbArc
 50
81.78678929826174
 51
98.21321070173826
  0
ARC
  5
CFB
330
1E
100
AcDbEntity
  8
STEMPEL
100
AcDbCircle
 10
132.0284721568284
 20
580.6884382444237
 30
0.0
 40
7.694305707784447
100
AcDbArc
 50
73.65710669401501
 51
106.342893305985
  0
ARC
  5
CFC
330
1E
100
AcDbEntity
  8
STEMPEL
100
AcDbCircle
 10
145.0188532135949
 20
580.6884382444237
 30
0.0
 40
7.694305707784447
100
AcDbArc
 50
73.65710669401501
 51
106.342893305985
  0
ARC
  5
CFD
330
1E
100
AcDbEntity
  8
HILF
100
AcDbCircle
 10
138.5236626852116
 20
558.484282904547
 30
0.0
 40
22.41111549782308
100
AcDbArc
 50
78.85962783890552
 51
101.1403721610945
  0
ARC
  5
CFE
330
1E
100
AcDbEntity
  8
HILF
100
AcDbCircle
 10
145.0188532135949
 20
575.1342578026786
 30
0.0
 40
5.761140599691502
100
AcDbArc
 50
67.92594526326206
 51
112.0740547367379
  0
ARC
  5
CFF
330
1E
100
AcDbEntity
  8
HILF
100
AcDbCircle
 10
132.0284721568284
 20
575.1342578026786
 30
0.0
 40
5.761140599691502
100
AcDbArc
 50
67.92594526326206
 51
112.0740547367379
  0
POINT
  5
D00
330
1E
100
AcDbEntity
  8
0
100
AcDbPoint
 10
138.5236626852116
 20
578.3827439522082
 30
0.0
210
0.0000000000000001
220
1.0
230
0.0
  0
LINE
  5
D01
330
1E
100
AcDbEntity
  8
STEMPEL
100
AcDbLine
 10
131.0236626852117
 20
588.3827439522081
 30
0.0
 11
146.0236626852116
 21
588.3827439522081
 31
0.0
  0
LINE
  5
D02
330
1E
100
AcDbEntity
  8
STEMPEL
100
AcDbLine
 10
147.183916723056
 20
580.473100468408
 30
0.0
 11
147.183916723056
 21
588.0718548197529
 31
0.0
  0
LINE
  5
D03
330
1E
100
AcDbEntity
  8
STEMPEL
100
AcDbLine
 10
142.8537897041338
 20
580.473100468408
 30
0.0
 11
142.8537897041338
 21
588.0718548197529
 31
0.0
  0
LINE
  5
D04
330
1E
100
AcDbEntity
  8
STEMPEL
100
AcDbLine
 10
134.1935356662895
 20
580.473100468408
 30
0.0
 11
134.1935356662895
 21
588.0718548197529
 31
0.0
  0
LINE
  5
D05
330
1E
100
AcDbEntity
  8
STEMPEL
100
AcDbLine
 10
148.9301777927059
 20
579.8375134177977
 30
0.0
 11
128.1171475777174
 21
579.8375134177977
 31
0.0
  0
LINE
  5
D06
330
1E
100
AcDbEntity
  8
STEMPEL
100
AcDbLine
 10
148.6736626852116
 20
578.3827439522082
 30
0.0
 11
128.3736626852116
 21
578.3827439522082
 31
0.0
  0
LINE
  5
D07
330
1E
100
AcDbEntity
  8
STEMPEL
100
AcDbLine
 10
129.8634086473672
 20
580.473100468408
 30
0.0
 11
129.8634086473672
 21
588.0718548197529
 31
0.0
  0
LINE
  5
D08
330
1E
100
AcDbEntity
  8
STEMPEL
100
AcDbLine
 10
131.0236626852117
 20
588.3827439522081
 30
0.0
 11
129.8634086473672
 21
588.0718548197529
 31
0.0
  0
LINE
  5
D09
330
1E
100
AcDbEntity
  8
STEMPEL
100
AcDbLine
 10
147.183916723056
 20
588.0718548197529
 30
0.0
 11
146.0236626852116
 21
588.3827439522081
 31
0.0
  0
LINE
  5
D0A
330
1E
100
AcDbEntity
  8
STEMPEL
100
AcDbLine
 10
148.9301777927059
 20
579.8375134177977
 30
0.0
 11
147.183916723056
 21
580.473100468408
 31
0.0
  0
LINE
  5
D0B
330
1E
100
AcDbEntity
  8
STEMPEL
100
AcDbLine
 10
129.8634086473673
 20
580.473100468408
 30
0.0
 11
128.1171475777174
 21
579.8375134177977
 31
0.0
  0
ARC
  5
D0C
330
1E
100
AcDbEntity
  8
STEMPEL
100
AcDbCircle
 10
128.3736626852116
 20
579.1327439522082
 30
0.0
 40
0.7500000000000013
100
AcDbArc
 50
110.0000000000006
 51
269.9999991462263
  0
ARC
  5
D0D
330
1E
100
AcDbEntity
  8
STEMPEL
100
AcDbCircle
 10
148.6736626852116
 20
579.1327439522082
 30
0.0
 40
0.750000000000001
100
AcDbArc
 50
269.9999991462263
 51
69.99999999999935
  0
LINE
  5
D0F
330
1E
100
AcDbEntity
  8
STEMPEL
100
AcDbLine
 10
236.0236626852117
 20
649.8827439522091
 30
0.0
 11
236.0236626852117
 21
624.8827439522091
 31
0.0
  0
LINE
  5
D10
330
1E
100
AcDbEntity
  8
STEMPEL
100
AcDbLine
 10
221.0236626852117
 20
649.8827439522075
 30
0.0
 11
221.0236626852117
 21
624.8827439522075
 31
0.0
  0
ARC
  5
D11
330
1E
100
AcDbEntity
  8
STEMPEL
100
AcDbCircle
 10
228.5236626852116
 20
624.8827439522091
 30
0.0
 40
7.5
100
AcDbArc
 50
179.999999999987
 51
359.999999999974
  0
ARC
  5
D12
330
1E
100
AcDbEntity
  8
STEMPEL
100
AcDbCircle
 10
228.5236626852118
 20
649.8827439522091
 30
0.0
 40
7.5
100
AcDbArc
 50
0.0000000000260551
 51
180.000000000013
  0
ELLIPSE
  5
D13
330
1E
100
AcDbEntity
  8
STEMPEL
100
AcDbEllipse
 10
174.1528295115324
 20
649.8827439522091
 30
0.0
 11
0.0
 21
7.5
 31
0.0
210
0.0
220
0.0
230
1.0
 40
0.8660254037843856
 41
4.712388980384689
 42
7.853981633974482
  0
ELLIPSE
  5
D14
330
1E
100
AcDbEntity
  8
STEMPEL
100
AcDbEllipse
 10
174.1528295115324
 20
624.8827439522091
 30
0.0
 11
0.0
 21
-7.5
 31
0.0
210
0.0
220
0.0
230
-1.0
 40
0.8660254037843856
 41
4.712388980384689
 42
7.853981633974482
  0
ELLIPSE
  5
D15
330
1E
100
AcDbEntity
  8
STEMPEL
100
AcDbEllipse
 10
173.6516525160905
 20
624.8827439522091
 30
0.0
 11
0.0
 21
-7.5
 31
0.0
210
0.0
220
0.0
230
-1.0
 40
0.8660254037843856
 41
4.712388980384689
 42
6.24459510668465
  0
LINE
  5
D16
330
1E
100
AcDbEntity
  8
STEMPEL
100
AcDbLine
 10
180.6480200399154
 20
649.8827439522091
 30
0.0
 11
180.6480200399154
 21
624.8827439522091
 31
0.0
  0
LINE
  5
D17
330
1E
100
AcDbEntity
  8
STEMPEL
100
AcDbLine
 10
167.6576389831495
 20
649.8827439522091
 30
0.0
 11
167.6576389831495
 21
624.8827439522107
 31
0.0
  0
LINE
  5
D18
330
1E
100
AcDbEntity
  8
STEMPEL
100
AcDbLine
 10
180.1468430444733
 20
649.8827439522091
 30
0.0
 11
180.1468430444733
 21
624.8827439522091
 31
0.0
  0
LINE
  5
D19
330
1E
100
AcDbEntity
  8
STEMPEL
100
AcDbLine
 10
138.1006171785484
 20
649.8827439522091
 30
0.0
 11
138.1006171785484
 21
624.8827439522107
 31
0.0
  0
LINE
  5
D1A
330
1E
100
AcDbEntity
  8
STEMPEL
100
AcDbLine
 10
137.2325531588596
 20
624.8827439522091
 30
0.0
 11
137.2325531588596
 21
649.8827439522107
 31
0.0
  0
LINE
  5
D1B
330
1E
100
AcDbEntity
  8
STEMPEL
100
AcDbLine
 10
118.5236626852115
 20
657.3827439522089
 30
0.0
 11
119.5236626852115
 21
657.3827439522089
 31
0.0
  0
LINE
  5
D1C
330
1E
100
AcDbEntity
  8
STEMPEL
100
AcDbLine
 10
118.5236626852112
 20
617.3827439522089
 30
0.0
 11
119.5236626852115
 21
617.3827439522089
 31
0.0
  0
LINE
  5
D1D
330
1E
100
AcDbEntity
  8
STEMPEL
100
AcDbLine
 10
130.6006171785486
 20
649.8827439522091
 30
0.0
 11
130.6006171785486
 21
624.8827439522123
 31
0.0
  0
ELLIPSE
  5
D1E
330
1E
100
AcDbEntity
  8
STEMPEL
100
AcDbEllipse
 10
134.3506171785486
 20
624.8827439522107
 30
0.0
 11
0.0
 21
-7.499999999999999
 31
0.0
210
0.0
220
0.0
230
-1.0
 40
0.4999999999999926
 41
4.712388980384689
 42
7.853981633974482
  0
ELLIPSE
  5
D1F
330
1E
100
AcDbEntity
  8
STEMPEL
100
AcDbEllipse
 10
133.4825531588596
 20
624.8827439522107
 30
0.0
 11
0.0
 21
-7.499999999999999
 31
0.0
210
0.0
220
0.0
230
-1.0
 40
0.4999999999999926
 41
4.712388980384689
 42
6.167183451052224
  0
ELLIPSE
  5
D20
330
1E
100
AcDbEntity
  8
STEMPEL
100
AcDbEllipse
 10
133.4825531588596
 20
649.8827439522091
 30
0.0
 11
0.0
 21
7.499999999999999
 31
0.0
210
0.0
220
0.0
230
1.0
 40
0.4999999999999926
 41
4.712388980384689
 42
6.167183451052224
  0
ELLIPSE
  5
D21
330
1E
100
AcDbEntity
  8
STEMPEL
100
AcDbEllipse
 10
134.3506171785486
 20
649.8827439522091
 30
0.0
 11
0.0
 21
7.499999999999999
 31
0.0
210
0.0
220
0.0
230
1.0
 40
0.4999999999999926
 41
4.712388980384689
 42
7.853981633974482
  0
ELLIPSE
  5
D22
330
1E
100
AcDbEntity
  8
STEMPEL
100
AcDbEllipse
 10
173.6516525160905
 20
649.8827439522091
 30
0.0
 11
0.0
 21
7.5
 31
0.0
210
0.0
220
0.0
230
1.0
 40
0.8660254037843856
 41
4.712388980384689
 42
6.24459510668465
  0
LINE
  5
D23
330
1E
100
AcDbEntity
  8
STEMPEL
100
AcDbLine
 10
338.5236626852115
 20
657.3827439522089
 30
0.0
 11
337.5236626852116
 21
657.3827439522089
 31
0.0
  0
LINE
  5
D24
330
1E
100
AcDbEntity
  8
STEMPEL
100
AcDbLine
 10
338.5236626852115
 20
617.3827439522089
 30
0.0
 11
337.5236626852116
 21
617.3827439522089
 31
0.0
  0
ELLIPSE
  5
D25
330
1E
100
AcDbEntity
  8
STEMPEL
100
AcDbEllipse
 10
322.6967081918749
 20
649.8827439522091
 30
0.0
 11
0.0
 21
7.499999999999999
 31
0.0
210
0.0
220
0.0
230
-1.0
 40
0.4999999999999926
 41
4.712388980384689
 42
7.853981633974482
  0
ELLIPSE
  5
D26
330
1E
100
AcDbEntity
  8
STEMPEL
100
AcDbEllipse
 10
323.5647722115637
 20
649.8827439522091
 30
0.0
 11
0.0
 21
7.499999999999999
 31
0.0
210
0.0
220
0.0
230
-1.0
 40
0.4999999999999926
 41
4.712388980384689
 42
6.167183451052224
  0
ELLIPSE
  5
D27
330
1E
100
AcDbEntity
  8
STEMPEL
100
AcDbEllipse
 10
322.6967081918749
 20
624.8827439522107
 30
0.0
 11
0.0
 21
-7.499999999999999
 31
0.0
210
0.0
220
0.0
230
1.0
 40
0.4999999999999926
 41
4.712388980384689
 42
7.853981633974482
  0
ELLIPSE
  5
D28
330
1E
100
AcDbEntity
  8
STEMPEL
100
AcDbEllipse
 10
323.5647722115637
 20
624.8827439522107
 30
0.0
 11
0.0
 21
-7.499999999999999
 31
0.0
210
0.0
220
0.0
230
1.0
 40
0.4999999999999926
 41
4.712388980384689
 42
6.167183451052224
  0
LINE
  5
D29
330
1E
100
AcDbEntity
  8
STEMPEL
100
AcDbLine
 10
319.8147722115639
 20
624.8827439522091
 30
0.0
 11
319.8147722115639
 21
649.8827439522107
 31
0.0
  0
LINE
  5
D2A
330
1E
100
AcDbEntity
  8
STEMPEL
100
AcDbLine
 10
318.9467081918749
 20
649.8827439522091
 30
0.0
 11
318.9467081918749
 21
624.8827439522107
 31
0.0
  0
LINE
  5
D2B
330
1E
100
AcDbEntity
  8
STEMPEL
100
AcDbLine
 10
326.4467081918748
 20
649.8827439522091
 30
0.0
 11
326.4467081918748
 21
624.8827439522123
 31
0.0
  0
LINE
  5
D2C
330
1E
100
AcDbEntity
  8
STEMPEL
100
AcDbLine
 10
289.3896863872738
 20
649.8827439522091
 30
0.0
 11
289.3896863872738
 21
624.8827439522107
 31
0.0
  0
LINE
  5
D2D
330
1E
100
AcDbEntity
  8
STEMPEL
100
AcDbLine
 10
276.9004823259499
 20
649.8827439522091
 30
0.0
 11
276.9004823259499
 21
624.8827439522091
 31
0.0
  0
LINE
  5
D2E
330
1E
100
AcDbEntity
  8
STEMPEL
100
AcDbLine
 10
276.399305330508
 20
649.8827439522091
 30
0.0
 11
276.399305330508
 21
624.8827439522091
 31
0.0
  0
ELLIPSE
  5
D2F
330
1E
100
AcDbEntity
  8
STEMPEL
100
AcDbEllipse
 10
283.3956728543328
 20
624.8827439522091
 30
0.0
 11
0.0
 21
-7.5
 31
0.0
210
0.0
220
0.0
230
1.0
 40
0.8660254037843856
 41
4.712388980384689
 42
6.24459510668465
  0
ELLIPSE
  5
D30
330
1E
100
AcDbEntity
  8
STEMPEL
100
AcDbEllipse
 10
282.8944958588909
 20
624.8827439522091
 30
0.0
 11
0.0
 21
-7.5
 31
0.0
210
0.0
220
0.0
230
1.0
 40
0.8660254037843856
 41
4.712388980384689
 42
7.853981633974482
  0
ELLIPSE
  5
D31
330
1E
100
AcDbEntity
  8
STEMPEL
100
AcDbEllipse
 10
282.8944958588909
 20
649.8827439522091
 30
0.0
 11
0.0
 21
7.5
 31
0.0
210
0.0
220
0.0
230
-1.0
 40
0.8660254037843856
 41
4.712388980384689
 42
7.853981633974482
  0
ELLIPSE
  5
D32
330
1E
100
AcDbEntity
  8
STEMPEL
100
AcDbEllipse
 10
283.3956728543328
 20
649.8827439522091
 30
0.0
 11
0.0
 21
7.5
 31
0.0
210
0.0
220
0.0
230
-1.0
 40
0.8660254037843856
 41
4.712388980384689
 42
6.24459510668465
  0
HATCH
  5
D33
330
1E
100
AcDbEntity
  8
SCHRAFF
100
AcDbHatch
 10
0.0
 20
0.0
 30
0.0
210
0.0
220
0.0
230
1.0
  2
_U
 70
     0
 71
     0
 91
        5
 92
        7
 72
     1
 73
     1
 93
       39
 10
308.5236626852119
 20
682.3827439522089
 42
0.0
 10
253.9631772802685
 20
682.3827439522086
 42
-0.2679491924311848
 10
252.6641391745914
 20
683.1327439522087
 42
0.2859076546239628
 10
251.2651010689143
 20
683.8794069069182
 42
0.2859076546237491
 10
249.8660629632382
 20
683.1327439522087
 42
-0.2679491924311245
 10
248.5670248575615
 20
682.3827439522086
 42
0.0
 10
242.113177280268
 20
682.3827439522086
 42
-0.2679491924311449
 10
240.8141391745913
 20
683.1327439522087
 42
0.2859076546238214
 10
239.4151010689148
 20
683.8794069069182
 42
0.3607372083888889
 10
237.8627323140866
 20
682.7577439522086
 42
-0.3419987131196436
 10
237.3786093958107
 20
682.3827439522086
 42
0.0
 10
237.1898602032113
 20
682.3827439522086
 42
-0.341998713119513
 10
236.7057372849357
 20
682.7577439522086
 42
0.3419987131196436
 10
235.2533685301079
 20
683.8827439522086
 42
0.0
 10
228.5236626852117
 20
683.8827439522086
 42
0.0
 10
228.5236626852117
 20
682.8827439522086
 42
0.0
 10
235.253368530108
 20
682.8827439522086
 42
-0.3419987131195064
 10
235.7374914483836
 20
682.5077439522086
 42
0.3596757619904947
 10
237.2842347995109
 20
681.3857157508799
 42
0.3596757619905158
 10
238.8309781506383
 20
682.5077439522086
 42
-0.3419987131196715
 10
239.3151010689142
 20
682.8827439522086
 42
0.0
 10
239.5151010689145
 20
682.8827439522086
 42
-0.267949192431149
 10
239.9481137708068
 20
682.6327439522087
 42
0.2679491924311241
 10
242.113177280268
 20
681.3827439522088
 42
0.0
 10
248.567024857562
 20
681.3827439522088
 42
0.2679491924310771
 10
250.7320883670229
 20
682.6327439522084
 42
-0.2679491924312612
 10
251.1651010689152
 20
682.8827439522086
 42
0.0
 10
251.3651010689144
 20
682.8827439522086
 42
-0.2679491924313018
 10
251.7981137708071
 20
682.6327439522088
 42
0.2679491924311406
 10
253.9631772802684
 20
681.3827439522088
 42
0.0
 10
308.5236626852098
 20
681.3827439522088
 42
-0.1340385084113211
 10
311.0641623603884
 20
680.6892345652748
 42
0.0
 10
335.0430162533387
 20
666.7015813990898
 42
-0.2667503951500854
 10
337.5236626852118
 20
662.3826859848933
 42
0.0
 10
337.5236626852118
 20
657.3827439522089
 42
0.0
 10
338.5236626852119
 20
657.3827439522089
 42
0.0
 10
338.5236626852119
 20
662.382685984893
 42
0.2662608607120724
 10
335.5563573068865
 20
667.5598245122718
 42
0.0
 10
311.5236626851602
 20
681.5788963749449
 42
0.1316524975848892
 97
        0
 92
        7
 72
     1
 73
     1
 93
        8
 10
338.5236626852119
 20
617.3827439522089
 42
0.0
 10
337.5236626852118
 20
617.3827439522089
 42
0.0
 10
337.5236626852118
 20
598.3827439522095
 42
0.4142135623731166
 10
343.5236626852118
 20
592.3827439522091
 42
0.0
 10
346.5236626852118
 20
592.3827439522091
 42
0.0
 10
346.5236626852117
 20
593.3827439522093
 42
0.0
 10
343.5236626852116
 20
593.3827439522095
 42
-0.4142135623730752
 10
338.5236626852119
 20
598.3827439522094
 42
0.0
 97
        0
 92
        7
 72
     0
 73
     1
 93
        4
 10
358.5236626852116
 20
593.3827439522091
 10
354.5236626852116
 20
593.3827439522091
 10
354.5236626852118
 20
592.3827439522091
 10
358.5236626852116
 20
592.382743952209
 97
        0
 92
        7
 72
     1
 73
     1
 93
        8
 10
119.5236626852117
 20
598.3827439522095
 42
0.0
 10
119.5236626852117
 20
617.3827439522089
 42
0.0
 10
118.5236626852116
 20
617.3827439522089
 42
0.0
 10
118.5236626852116
 20
598.3827439522095
 42
-0.4142135623730909
 10
113.5236626852117
 20
593.3827439522095
 42
0.0
 10
98.5236626852115
 20
593.3827439522091
 42
0.0
 10
98.52366268521137
 20
592.3827439522091
 42
0.0
 10
113.5236626852117
 20
592.3827439522091
 42
0.4142135623731175
 97
        0
 92
        7
 72
     1
 73
     1
 93
       40
 10
205.4270883670222
 20
682.6327439522087
 42
-0.2679491924310875
 10
205.8601010689144
 20
682.8827439522086
 42
0.0
 10
206.0601010689146
 20
682.8827439522086
 42
-0.2679491924312574
 10
206.4931137708071
 20
682.6327439522088
 42
0.267949192431145
 10
208.6581772802683
 20
681.3827439522087
 42
0.0
 10
210.7170248575608
 20
681.3827439522087
 42
0.2679491924311416
 10
212.882088367022
 20
682.6327439522088
 42
-0.2679491924310647
 10
213.3151010689141
 20
682.8827439522086
 42
0.0
 10
213.5151010689145
 20
682.8827439522086
 42
-0.267949192430994
 10
213.9481137708064
 20
682.6327439522087
 42
0.2679491924311175
 10
216.1131772802675
 20
681.3827439522087
 42
0.0
 10
222.5670248575617
 20
681.3827439522087
 42
0.2679491924310871
 10
224.7320883670226
 20
682.6327439522084
 42
-0.2679491924312534
 10
225.1651010689149
 20
682.8827439522086
 42
0.0
 10
228.5236626852117
 20
682.8827439522086
 42
0.0
 10
228.5236626852117
 20
683.8827439522086
 42
0.0
 10
225.1651010689144
 20
683.8827439522086
 42
0.2679491924310706
 10
223.866062963238
 20
683.1327439522087
 42
-0.2679491924311357
 10
222.5670248575613
 20
682.3827439522086
 42
0.0
 10
216.1131772802674
 20
682.3827439522086
 42
-0.2679491924310962
 10
214.814139174591
 20
683.1327439522087
 42
0.2859076546238522
 10
213.4151010689143
 20
683.8794069069182
 42
0.2859076546238809
 10
212.0160629632376
 20
683.1327439522087
 42
-0.2679491924311237
 10
210.7170248575609
 20
682.3827439522086
 42
0.0
 10
208.6581772802684
 20
682.3827439522086
 42
-0.2679491924311723
 10
207.3591391745915
 20
683.1327439522087
 42
0.2859076546238861
 10
205.9601010689147
 20
683.8794069069182
 42
0.2859076546239122
 10
204.5610629632378
 20
683.1327439522087
 42
-0.267949192431137
 10
203.2620248575611
 20
682.3827439522086
 42
0.0
 10
148.5236626852116
 20
682.3827439522082
 42
0.1316524975836561
 10
145.5236626852879
 20
681.5788963749593
 42
0.0
 10
121.490968063507
 20
667.5598245122543
 42
0.2662608607105233
 10
118.5236626852116
 20
662.3826859848935
 42
0.0
 10
118.5236626852116
 20
657.3827439522089
 42
0.0
 10
119.5236626852117
 20
657.3827439522089
 42
0.0
 10
119.5236626852117
 20
662.3826859848935
 42
-0.2667503951500889
 10
122.0043091170846
 20
666.7015813990898
 42
0.0
 10
145.9831630100255
 20
680.6892345652691
 42
-0.1340385084119114
 10
148.5236626852116
 20
681.3827439522087
 42
0.0
 10
203.262024857561
 20
681.3827439522087
 42
0.2679491924311331
 97
        0
 75
     0
 76
     0
 52
45.0
 41
2.0
 77
     0
 78
     1
 53
45.0
 43
-5.960853689465977
 44
163.8545340440495
 45
-1.414213562373094
 46
1.414213562373095
 79
     0
 47
0.2376111440341236
 98
        5
 10
290.6337403469379
 20
682.1775667351268
 10
338.3144546589292
 20
608.5132718567216
 10
356.8443305585983
 20
593.1653508251346
 10
105.3966535827316
 20
592.7416104940092
 10
155.8149641801414
 20
682.0834030148599
  0
HATCH
  5
D51
330
1E
100
AcDbEntity
  8
SCHRAFF
100
AcDbHatch
 10
0.0
 20
0.0
 30
0.0
210
0.0
220
0.0
230
1.0
  2
_USER
 70
     0
 71
     0
 91
        5
 92
        7
 72
     1
 73
     1
 93
       12
 10
358.5236626852114
 20
355.1674298717917
 42
0.0
 10
354.5236626852114
 20
355.1674298717916
 42
0.0
 10
354.5236626852112
 20
352.167429871792
 42
0.0
 10
354.0236626852116
 20
352.167429871792
 42
0.0
 10
354.0236626852116
 20
349.167429871792
 42
0.0
 10
354.5236626852114
 20
349.167429871792
 42
0.0
 10
354.5236626852116
 20
341.1674298717922
 42
0.0
 10
354.0236626852116
 20
341.1674298717922
 42
0.0
 10
354.0236626852115
 20
338.1674298717921
 42
0.0
 10
354.5236626852115
 20
338.1674298717922
 42
0.0
 10
354.5236626852116
 20
335.2223339090141
 42
0.3763797779543542
 10
358.7839654946967
 20
340.2546919039776
 42
0.0
 97
        0
 92
        7
 72
     1
 73
     1
 93
       15
 10
347.0236626852116
 20
341.167429871792
 42
0.0
 10
346.5236626852115
 20
341.167429871792
 42
0.0
 10
346.5236626852113
 20
349.167429871792
 42
0.0
 10
347.0236626852115
 20
349.167429871792
 42
0.0
 10
347.0236626852115
 20
352.167429871792
 42
0.0
 10
346.5236626852113
 20
352.167429871792
 42
0.0
 10
346.5236626852114
 20
355.1674298717916
 42
0.0
 10
342.5236626852115
 20
355.1674298717916
 42
0.0
 10
342.3650439364202
 20
346.0801678396051
 42
-0.4091108014277236
 10
337.3658054606383
 20
341.1674298717912
 42
0.0
 10
299.9236626852116
 20
341.1674298717912
 42
0.0
 10
299.9236626852117
 20
335.1674298717902
 42
0.0
 10
346.5236626852115
 20
335.16742987179
 42
0.0
 10
346.5236626852115
 20
338.1674298717921
 42
0.0
 10
347.0236626852115
 20
338.1674298717922
 42
0.0
 97
        0
 92
        7
 72
     1
 73
     1
 93
        4
 10
299.9236626852116
 20
341.1674298717912
 42
0.0
 10
294.0236626852113
 20
341.1674298717912
 42
1.0
 10
294.0236626852113
 20
335.1674298717902
 42
0.0
 10
299.9236626852117
 20
335.1674298717901
 42
0.0
 97
        0
 92
        7
 72
     1
 73
     1
 93
        4
 10
163.0236626852117
 20
341.167429871791
 42
0.0
 10
145.0236626852115
 20
341.167429871791
 42
0.0
 10
145.0236626852115
 20
335.1674298717903
 42
0.0
 10
163.0236626852117
 20
335.1674298717903
 42
1.0
 97
        0
 92
        7
 72
     1
 73
     1
 93
        4
 10
132.0236626852115
 20
341.167429871791
 42
0.0
 10
116.5236626852115
 20
341.167429871791
 42
1.0
 10
116.5236626852115
 20
335.1674298717903
 42
0.0
 10
132.0236626852115
 20
335.1674298717903
 42
0.0
 97
        0
 75
     0
 76
     0
 52
45.0
 41
5.0
 77
     0
 78
     1
 53
45.0
 43
-23.05183672868031
 44
-98.95000959755998
 45
-3.535533905932737
 46
3.535533905932737
 79
     0
 47
0.3409984845051603
 98
        5
 10
356.9600964378493
 20
349.6112391583158
 10
340.2454989317208
 20
339.7222832210921
 10
295.2184271093607
 20
338.699286700162
 10
158.0905220374053
 20
338.699286700162
 10
128.413589089978
 20
338.699286700162
  0
HATCH
  5
D52
330
1E
100
AcDbEntity
  8
SCHRAFF
100
AcDbHatch
 10
0.0
 20
0.0
 30
0.0
210
0.0
220
0.0
230
1.0
  2
_USER
 70
     0
 71
     0
 91
        4
 92
        7
 72
     1
 73
     1
 93
       13
 10
354.5236626852115
 20
355.1674298717917
 42
0.0
 10
353.5236626852114
 20
355.1674298717916
 42
0.0
 10
353.5236626852114
 20
335.1674298717902
 42
0.0
 10
353.7847270189149
 20
335.1674298717901
 42
0.0370996223327146
 10
354.5236626852116
 20
335.222333909013
 42
0.0
 10
354.5236626852116
 20
338.1674298717921
 42
0.0
 10
354.0236626852115
 20
338.1674298717921
 42
0.0
 10
354.0236626852116
 20
341.1674298717922
 42
0.0
 10
354.5236626852116
 20
341.1674298717922
 42
0.0
 10
354.5236626852113
 20
349.1674298717921
 42
0.0
 10
354.0236626852116
 20
349.167429871792
 42
0.0
 10
354.0236626852116
 20
352.167429871792
 42
0.0
 10
354.5236626852114
 20
352.1674298717921
 42
0.0
 97
        0
 92
        7
 72
     0
 73
     1
 93
        4
 10
353.5236626852114
 20
355.1674298717917
 10
352.5236626852114
 20
355.1674298717917
 10
352.5236626852115
 20
335.1674298717903
 10
353.5236626852114
 20
335.16742987179
 97
        0
 92
        7
 72
     0
 73
     1
 93
        4
 10
348.5236626852114
 20
355.1674298717917
 10
347.5236626852115
 20
355.1674298717917
 10
347.5236626852115
 20
335.1674298717903
 10
348.5236626852114
 20
335.1674298717903
 97
        0
 92
        7
 72
     0
 73
     1
 93
       12
 10
347.5236626852116
 20
355.1674298717917
 10
346.5236626852114
 20
355.1674298717917
 10
346.5236626852113
 20
352.167429871792
 10
347.0236626852115
 20
352.167429871792
 10
347.0236626852115
 20
349.167429871792
 10
346.5236626852113
 20
349.167429871792
 10
346.5236626852115
 20
341.167429871792
 10
347.0236626852115
 20
341.167429871792
 10
347.0236626852115
 20
338.1674298717921
 10
346.5236626852115
 20
338.1674298717921
 10
346.5236626852116
 20
335.1674298717902
 10
347.5236626852114
 20
335.1674298717901
 97
        0
 75
     0
 76
     0
 52
135.0
 41
1.0
 77
     0
 78
     1
 53
135.0
 43
-23.05183672868031
 44
-98.95000959755998
 45
-0.7071067811865476
 46
-0.7071067811865475
 79
     0
 47
0.0663131668739094
 98
        4
 10
353.7862462201157
 20
353.7954270733378
 10
352.9238845684114
 20
354.1269929876542
 10
348.2140504853989
 20
354.1269929876542
 10
347.1526792376122
 20
354.3259313626697
  0
LINE
  5
D53
330
1E
100
AcDbEntity
  8
STEMPEL
100
AcDbLine
 10
354.0236626852116
 20
349.167429871792
 30
0.0
 11
354.0236626852116
 21
352.1674298717921
 31
0.0
  0
LINE
  5
D54
330
1E
100
AcDbEntity
  8
HILF
100
AcDbLine
 10
353.5236626852114
 20
335.1674298717919
 30
0.0
 11
353.5236626852114
 21
355.1674298717918
 31
0.0
  0
LINE
  5
D55
330
1E
100
AcDbEntity
  8
STEMPEL
100
AcDbLine
 10
352.5236626852114
 20
335.1674298717919
 30
0.0
 11
352.5236626852114
 21
355.1674298717917
 31
0.0
  0
LINE
  5
D56
330
1E
100
AcDbEntity
  8
STEMPEL
100
AcDbLine
 10
354.0236626852116
 20
338.1674298717921
 30
0.0
 11
354.0236626852116
 21
341.1674298717922
 31
0.0
  0
LINE
  5
D57
330
1E
100
AcDbEntity
  8
STEMPEL
100
AcDbLine
 10
354.5236626852116
 20
338.1674298717921
 30
0.0
 11
354.0236626852114
 21
338.1674298717921
 31
0.0
  0
LINE
  5
D58
330
1E
100
AcDbEntity
  8
STEMPEL
100
AcDbLine
 10
354.5236626852116
 20
335.1674298717921
 30
0.0
 11
354.5236626852116
 21
338.1674298717921
 31
0.0
  0
LINE
  5
D59
330
1E
100
AcDbEntity
  8
STEMPEL
100
AcDbLine
 10
354.5236626852114
 20
349.167429871792
 30
0.0
 11
354.0236626852116
 21
349.167429871792
 31
0.0
  0
LINE
  5
D5A
330
1E
100
AcDbEntity
  8
STEMPEL
100
AcDbLine
 10
354.5236626852116
 20
341.1674298717922
 30
0.0
 11
354.0236626852116
 21
341.1674298717922
 31
0.0
  0
LINE
  5
D5B
330
1E
100
AcDbEntity
  8
STEMPEL
100
AcDbLine
 10
354.5236626852116
 20
341.1674298717922
 30
0.0
 11
354.5236626852113
 21
349.167429871792
 31
0.0
  0
LINE
  5
D5C
330
1E
100
AcDbEntity
  8
STEMPEL
100
AcDbLine
 10
354.5236626852114
 20
352.167429871792
 30
0.0
 11
354.0236626852116
 21
352.167429871792
 31
0.0
  0
LINE
  5
D5D
330
1E
100
AcDbEntity
  8
STEMPEL
100
AcDbLine
 10
354.5236626852113
 20
352.167429871792
 30
0.0
 11
354.5236626852114
 21
355.167429871792
 31
0.0
  0
LINE
  5
D5E
330
1E
100
AcDbEntity
  8
STEMPEL
100
AcDbLine
 10
347.0236626852115
 20
349.167429871792
 30
0.0
 11
347.0236626852115
 21
352.1674298717921
 31
0.0
  0
LINE
  5
D5F
330
1E
100
AcDbEntity
  8
HILF
100
AcDbLine
 10
347.5236626852114
 20
335.1674298717919
 30
0.0
 11
347.5236626852115
 21
355.1674298717918
 31
0.0
  0
LINE
  5
D60
330
1E
100
AcDbEntity
  8
STEMPEL
100
AcDbLine
 10
348.5236626852114
 20
335.1674298717919
 30
0.0
 11
348.5236626852114
 21
355.1674298717917
 31
0.0
  0
LINE
  5
D61
330
1E
100
AcDbEntity
  8
STEMPEL
100
AcDbLine
 10
347.0236626852115
 20
338.167429871792
 30
0.0
 11
347.0236626852115
 21
341.167429871792
 31
0.0
  0
LINE
  5
D62
330
1E
100
AcDbEntity
  8
STEMPEL
100
AcDbLine
 10
347.0236626852115
 20
338.1674298717921
 30
0.0
 11
346.5236626852115
 21
338.1674298717921
 31
0.0
  0
LINE
  5
D63
330
1E
100
AcDbEntity
  8
STEMPEL
100
AcDbLine
 10
346.5236626852115
 20
335.1674298717921
 30
0.0
 11
346.5236626852115
 21
338.1674298717921
 31
0.0
  0
LINE
  5
D64
330
1E
100
AcDbEntity
  8
STEMPEL
100
AcDbLine
 10
347.0236626852115
 20
349.167429871792
 30
0.0
 11
346.5236626852114
 21
349.167429871792
 31
0.0
  0
LINE
  5
D65
330
1E
100
AcDbEntity
  8
STEMPEL
100
AcDbLine
 10
347.0236626852115
 20
341.167429871792
 30
0.0
 11
346.5236626852115
 21
341.167429871792
 31
0.0
  0
LINE
  5
D66
330
1E
100
AcDbEntity
  8
STEMPEL
100
AcDbLine
 10
346.5236626852115
 20
341.1674298717919
 30
0.0
 11
346.5236626852113
 21
349.167429871792
 31
0.0
  0
LINE
  5
D67
330
1E
100
AcDbEntity
  8
STEMPEL
100
AcDbLine
 10
347.0236626852115
 20
352.167429871792
 30
0.0
 11
346.5236626852114
 21
352.167429871792
 31
0.0
  0
LINE
  5
D68
330
1E
100
AcDbEntity
  8
STEMPEL
100
AcDbLine
 10
346.5236626852113
 20
352.1674298717919
 30
0.0
 11
346.5236626852114
 21
355.167429871792
 31
0.0
  0
ARC
  5
D6A
330
1E
100
AcDbEntity
  8
STEMPEL
100
AcDbCircle
 10
148.6736626852114
 20
341.9174298717913
 30
0.0
 40
0.750000000000001
100
AcDbArc
 50
269.9999991462263
 51
69.99999999999935
  0
ARC
  5
D6B
330
1E
100
AcDbEntity
  8
STEMPEL
100
AcDbCircle
 10
128.3736626852114
 20
341.9174298717913
 30
0.0
 40
0.7500000000000013
100
AcDbArc
 50
110.0000000000006
 51
269.9999991462263
  0
LINE
  5
D6C
330
1E
100
AcDbEntity
  8
STEMPEL
100
AcDbLine
 10
129.863408647367
 20
343.2577863879911
 30
0.0
 11
128.1171475777172
 21
342.6221993373807
 31
0.0
  0
LINE
  5
D6D
330
1E
100
AcDbEntity
  8
STEMPEL
100
AcDbLine
 10
148.9301777927057
 20
342.6221993373807
 30
0.0
 11
147.1839167230558
 21
343.2577863879911
 31
0.0
  0
LINE
  5
D6E
330
1E
100
AcDbEntity
  8
STEMPEL
100
AcDbLine
 10
147.1839167230558
 20
350.856540739336
 30
0.0
 11
146.0236626852114
 21
351.1674298717912
 31
0.0
  0
LINE
  5
D6F
330
1E
100
AcDbEntity
  8
STEMPEL
100
AcDbLine
 10
131.0236626852114
 20
351.1674298717912
 30
0.0
 11
129.863408647367
 21
350.856540739336
 31
0.0
  0
LINE
  5
D70
330
1E
100
AcDbEntity
  8
STEMPEL
100
AcDbLine
 10
129.863408647367
 20
343.2577863879911
 30
0.0
 11
129.863408647367
 21
350.856540739336
 31
0.0
  0
LINE
  5
D71
330
1E
100
AcDbEntity
  8
STEMPEL
100
AcDbLine
 10
148.6736626852114
 20
341.1674298717912
 30
0.0
 11
128.3736626852114
 21
341.1674298717912
 31
0.0
  0
LINE
  5
D72
330
1E
100
AcDbEntity
  8
STEMPEL
100
AcDbLine
 10
148.9301777927057
 20
342.6221993373807
 30
0.0
 11
128.1171475777172
 21
342.6221993373807
 31
0.0
  0
LINE
  5
D73
330
1E
100
AcDbEntity
  8
STEMPEL
100
AcDbLine
 10
134.1935356662892
 20
343.2577863879911
 30
0.0
 11
134.1935356662892
 21
350.856540739336
 31
0.0
  0
LINE
  5
D74
330
1E
100
AcDbEntity
  8
STEMPEL
100
AcDbLine
 10
142.8537897041336
 20
343.2577863879911
 30
0.0
 11
142.8537897041336
 21
350.856540739336
 31
0.0
  0
LINE
  5
D75
330
1E
100
AcDbEntity
  8
STEMPEL
100
AcDbLine
 10
147.1839167230558
 20
343.2577863879911
 30
0.0
 11
147.1839167230558
 21
350.856540739336
 31
0.0
  0
LINE
  5
D76
330
1E
100
AcDbEntity
  8
STEMPEL
100
AcDbLine
 10
131.0236626852114
 20
351.1674298717912
 30
0.0
 11
146.0236626852114
 21
351.1674298717912
 31
0.0
  0
POINT
  5
D77
330
1E
100
AcDbEntity
  8
0
100
AcDbPoint
 10
138.5236626852114
 20
341.1674298717912
 30
0.0
210
0.0000000000000001
220
1.0
230
0.0
  0
ARC
  5
D78
330
1E
100
AcDbEntity
  8
HILF
100
AcDbCircle
 10
132.0284721568281
 20
337.9189437222617
 30
0.0
 40
5.761140599691502
100
AcDbArc
 50
67.92594526326206
 51
112.0740547367379
  0
ARC
  5
D79
330
1E
100
AcDbEntity
  8
HILF
100
AcDbCircle
 10
145.0188532135947
 20
337.9189437222617
 30
0.0
 40
5.761140599691502
100
AcDbArc
 50
67.92594526326206
 51
112.0740547367379
  0
ARC
  5
D7A
330
1E
100
AcDbEntity
  8
HILF
100
AcDbCircle
 10
138.5236626852114
 20
321.2689688241301
 30
0.0
 40
22.41111549782308
100
AcDbArc
 50
78.85962783890552
 51
101.1403721610945
  0
ARC
  5
D7B
330
1E
100
AcDbEntity
  8
STEMPEL
100
AcDbCircle
 10
145.0188532135947
 20
343.4731241640068
 30
0.0
 40
7.694305707784447
100
AcDbArc
 50
73.65710669401501
 51
106.342893305985
  0
ARC
  5
D7C
330
1E
100
AcDbEntity
  8
STEMPEL
100
AcDbCircle
 10
132.0284721568281
 20
343.4731241640068
 30
0.0
 40
7.694305707784447
100
AcDbArc
 50
73.65710669401501
 51
106.342893305985
  0
ARC
  5
D7D
330
1E
100
AcDbEntity
  8
STEMPEL
100
AcDbCircle
 10
138.5236626852114
 20
320.8565407393364
 30
0.0
 40
30.31088913245485
100
AcDbArc
 50
81.78678929826174
 51
98.21321070173826
  0
LINE
  5
D7E
330
1E
100
AcDbEntity
  8
STEMPEL
100
AcDbLine
 10
143.5236626852114
 20
353.1674298717908
 30
0.0
 11
142.5236626852114
 21
354.1674298717908
 31
0.0
  0
LINE
  5
D7F
330
1E
100
AcDbEntity
  8
STEMPEL
100
AcDbLine
 10
134.5236626852114
 20
354.1674298717908
 30
0.0
 11
133.5236626852114
 21
353.1674298717908
 31
0.0
  0
LINE
  5
D80
330
1E
100
AcDbEntity
  8
STEMPEL
100
AcDbLine
 10
142.5236626852114
 20
354.1674298717908
 30
0.0
 11
134.5236626852114
 21
354.1674298717908
 31
0.0
  0
LINE
  5
D81
330
1E
100
AcDbEntity
  8
STEMPEL
100
AcDbLine
 10
133.5236626852114
 20
353.1674298717908
 30
0.0
 11
143.5236626852112
 21
353.1674298717908
 31
0.0
  0
LINE
  5
D82
330
1E
100
AcDbEntity
  8
HILF
100
AcDbLine
 10
134.5236626852114
 20
354.1674298717907
 30
0.0
 11
134.5236626852114
 21
351.1674298717912
 31
0.0
  0
LINE
  5
D83
330
1E
100
AcDbEntity
  8
STEMPEL
100
AcDbLine
 10
133.5236626852114
 20
353.1674298717908
 30
0.0
 11
133.5236626852114
 21
351.1674298717912
 31
0.0
  0
LINE
  5
D84
330
1E
100
AcDbEntity
  8
HILF
100
AcDbLine
 10
142.5236626852114
 20
354.1674298717908
 30
0.0
 11
142.5236626852114
 21
351.1674298717912
 31
0.0
  0
LINE
  5
D85
330
1E
100
AcDbEntity
  8
STEMPEL
100
AcDbLine
 10
143.5236626852114
 20
353.1674298717906
 30
0.0
 11
143.5236626852114
 21
351.1674298717912
 31
0.0
  0
LINE
  5
D86
330
1E
100
AcDbEntity
  8
STEMPEL
100
AcDbLine
 10
304.9236626852114
 20
353.1674298717902
 30
0.0
 11
304.9236626852114
 21
351.1674298717909
 31
0.0
  0
LINE
  5
D87
330
1E
100
AcDbEntity
  8
HILF
100
AcDbLine
 10
303.9236626852114
 20
354.1674298717904
 30
0.0
 11
303.9236626852113
 21
351.1674298717909
 31
0.0
  0
LINE
  5
D88
330
1E
100
AcDbEntity
  8
STEMPEL
100
AcDbLine
 10
294.9236626852114
 20
353.1674298717904
 30
0.0
 11
294.9236626852114
 21
351.1674298717909
 31
0.0
  0
LINE
  5
D89
330
1E
100
AcDbEntity
  8
HILF
100
AcDbLine
 10
295.9236626852113
 20
354.1674298717903
 30
0.0
 11
295.9236626852113
 21
351.1674298717909
 31
0.0
  0
LINE
  5
D8A
330
1E
100
AcDbEntity
  8
STEMPEL
100
AcDbLine
 10
294.9236626852114
 20
353.1674298717904
 30
0.0
 11
304.9236626852111
 21
353.1674298717904
 31
0.0
  0
LINE
  5
D8B
330
1E
100
AcDbEntity
  8
STEMPEL
100
AcDbLine
 10
303.9236626852114
 20
354.1674298717904
 30
0.0
 11
295.9236626852113
 21
354.1674298717904
 31
0.0
  0
LINE
  5
D8C
330
1E
100
AcDbEntity
  8
STEMPEL
100
AcDbLine
 10
295.9236626852113
 20
354.1674298717904
 30
0.0
 11
294.9236626852114
 21
353.1674298717904
 31
0.0
  0
LINE
  5
D8D
330
1E
100
AcDbEntity
  8
STEMPEL
100
AcDbLine
 10
304.9236626852114
 20
353.1674298717904
 30
0.0
 11
303.9236626852114
 21
354.1674298717904
 31
0.0
  0
ARC
  5
D8E
330
1E
100
AcDbEntity
  8
STEMPEL
100
AcDbCircle
 10
299.9236626852114
 20
320.8565407393361
 30
0.0
 40
30.31088913245485
100
AcDbArc
 50
81.78678929826174
 51
98.21321070173826
  0
ARC
  5
D8F
330
1E
100
AcDbEntity
  8
STEMPEL
100
AcDbCircle
 10
293.4284721568281
 20
343.4731241640065
 30
0.0
 40
7.694305707784447
100
AcDbArc
 50
73.65710669401501
 51
106.342893305985
  0
ARC
  5
D90
330
1E
100
AcDbEntity
  8
STEMPEL
100
AcDbCircle
 10
306.4188532135946
 20
343.4731241640065
 30
0.0
 40
7.694305707784447
100
AcDbArc
 50
73.65710669401501
 51
106.342893305985
  0
ARC
  5
D91
330
1E
100
AcDbEntity
  8
HILF
100
AcDbCircle
 10
299.9236626852114
 20
321.2689688241297
 30
0.0
 40
22.41111549782308
100
AcDbArc
 50
78.85962783890552
 51
101.1403721610945
  0
ARC
  5
D92
330
1E
100
AcDbEntity
  8
HILF
100
AcDbCircle
 10
306.4188532135946
 20
337.9189437222614
 30
0.0
 40
5.761140599691502
100
AcDbArc
 50
67.92594526326206
 51
112.0740547367379
  0
ARC
  5
D93
330
1E
100
AcDbEntity
  8
HILF
100
AcDbCircle
 10
293.4284721568281
 20
337.9189437222614
 30
0.0
 40
5.761140599691502
100
AcDbArc
 50
67.92594526326206
 51
112.0740547367379
  0
POINT
  5
D94
330
1E
100
AcDbEntity
  8
0
100
AcDbPoint
 10
299.9236626852114
 20
341.1674298717909
 30
0.0
210
0.0000000000000001
220
1.0
230
0.0
  0
LINE
  5
D95
330
1E
100
AcDbEntity
  8
STEMPEL
100
AcDbLine
 10
292.4236626852114
 20
351.1674298717909
 30
0.0
 11
307.4236626852113
 21
351.1674298717909
 31
0.0
  0
LINE
  5
D96
330
1E
100
AcDbEntity
  8
STEMPEL
100
AcDbLine
 10
308.5839167230557
 20
343.2577863879908
 30
0.0
 11
308.5839167230557
 21
350.8565407393356
 31
0.0
  0
LINE
  5
D97
330
1E
100
AcDbEntity
  8
STEMPEL
100
AcDbLine
 10
304.2537897041335
 20
343.2577863879908
 30
0.0
 11
304.2537897041335
 21
350.8565407393356
 31
0.0
  0
LINE
  5
D98
330
1E
100
AcDbEntity
  8
STEMPEL
100
AcDbLine
 10
295.5935356662892
 20
343.2577863879908
 30
0.0
 11
295.5935356662892
 21
350.8565407393356
 31
0.0
  0
LINE
  5
D99
330
1E
100
AcDbEntity
  8
STEMPEL
100
AcDbLine
 10
310.3301777927056
 20
342.6221993373804
 30
0.0
 11
289.5171475777171
 21
342.6221993373804
 31
0.0
  0
LINE
  5
D9A
330
1E
100
AcDbEntity
  8
STEMPEL
100
AcDbLine
 10
310.0736626852114
 20
341.1674298717909
 30
0.0
 11
289.7736626852113
 21
341.1674298717909
 31
0.0
  0
LINE
  5
D9B
330
1E
100
AcDbEntity
  8
STEMPEL
100
AcDbLine
 10
291.263408647367
 20
343.2577863879908
 30
0.0
 11
291.263408647367
 21
350.8565407393356
 31
0.0
  0
LINE
  5
D9C
330
1E
100
AcDbEntity
  8
STEMPEL
100
AcDbLine
 10
292.4236626852114
 20
351.1674298717909
 30
0.0
 11
291.263408647367
 21
350.8565407393356
 31
0.0
  0
LINE
  5
D9D
330
1E
100
AcDbEntity
  8
STEMPEL
100
AcDbLine
 10
308.5839167230557
 20
350.8565407393356
 30
0.0
 11
307.4236626852113
 21
351.1674298717909
 31
0.0
  0
LINE
  5
D9E
330
1E
100
AcDbEntity
  8
STEMPEL
100
AcDbLine
 10
310.3301777927056
 20
342.6221993373804
 30
0.0
 11
308.5839167230557
 21
343.2577863879908
 31
0.0
  0
LINE
  5
D9F
330
1E
100
AcDbEntity
  8
STEMPEL
100
AcDbLine
 10
291.263408647367
 20
343.2577863879908
 30
0.0
 11
289.5171475777171
 21
342.6221993373804
 31
0.0
  0
ARC
  5
DA0
330
1E
100
AcDbEntity
  8
STEMPEL
100
AcDbCircle
 10
289.7736626852113
 20
341.9174298717909
 30
0.0
 40
0.7500000000000013
100
AcDbArc
 50
110.0000000000006
 51
269.9999991462263
  0
ARC
  5
DA1
330
1E
100
AcDbEntity
  8
STEMPEL
100
AcDbCircle
 10
310.0736626852114
 20
341.9174298717909
 30
0.0
 40
0.750000000000001
100
AcDbArc
 50
269.9999991462263
 51
69.99999999999935
  0
ARC
  5
DC8
330
1E
100
AcDbEntity
  8
STEMPEL
100
AcDbCircle
 10
173.3736626852112
 20
341.9174298717915
 30
0.0
 40
0.7500000000000013
100
AcDbArc
 50
110.0000000000006
 51
269.9999991462263
  0
LINE
  5
DC9
330
1E
100
AcDbEntity
  8
STEMPEL
100
AcDbLine
 10
174.8634086473668
 20
343.2577863879913
 30
0.0
 11
173.1171475777169
 21
342.6221993373808
 31
0.0
  0
LINE
  5
DCB
330
1E
100
AcDbEntity
  8
STEMPEL
100
AcDbLine
 10
192.0236626852122
 20
350.8994806793599
 30
0.0
 11
191.0236626852111
 21
351.1674298717915
 31
0.0
  0
LINE
  5
DCC
330
1E
100
AcDbEntity
  8
STEMPEL
100
AcDbLine
 10
176.0236626852112
 20
351.1674298717915
 30
0.0
 11
174.8634086473668
 21
350.856540739336
 31
0.0
  0
LINE
  5
DCD
330
1E
100
AcDbEntity
  8
STEMPEL
100
AcDbLine
 10
174.8634086473668
 20
343.2577863879913
 30
0.0
 11
174.8634086473668
 21
350.856540739336
 31
0.0
  0
LINE
  5
DCF
330
1E
100
AcDbEntity
  8
STEMPEL
100
AcDbLine
 10
192.0236626852121
 20
342.6221993373808
 30
0.0
 11
173.1171475777169
 21
342.6221993373808
 31
0.0
  0
LINE
  5
DD0
330
1E
100
AcDbEntity
  8
STEMPEL
100
AcDbLine
 10
179.193535666289
 20
343.2577863879913
 30
0.0
 11
179.193535666289
 21
350.856540739336
 31
0.0
  0
LINE
  5
DD1
330
1E
100
AcDbEntity
  8
STEMPEL
100
AcDbLine
 10
187.8537897041334
 20
343.2577863879913
 30
0.0
 11
187.8537897041334
 21
350.856540739336
 31
0.0
  0
LINE
  5
DD3
330
1E
100
AcDbEntity
  8
STEMPEL
100
AcDbLine
 10
176.0236626852112
 20
351.1674298717915
 30
0.0
 11
191.0236626852111
 21
351.1674298717915
 31
0.0
  0
POINT
  5
DD4
330
1E
100
AcDbEntity
  8
0
100
AcDbPoint
 10
183.5236626852112
 20
341.1674298717914
 30
0.0
210
0.0000000000000001
220
1.0
230
0.0
  0
ARC
  5
DD5
330
1E
100
AcDbEntity
  8
HILF
100
AcDbCircle
 10
177.0284721568279
 20
337.9189437222617
 30
0.0
 40
5.761140599691502
100
AcDbArc
 50
67.92594526326206
 51
112.0740547367379
  0
ARC
  5
DD6
330
1E
100
AcDbEntity
  8
HILF
100
AcDbCircle
 10
190.0188532135945
 20
337.9189437222617
 30
0.0
 40
5.761140599691502
100
AcDbArc
 50
69.63568072597443
 51
112.0740547367379
  0
ARC
  5
DD7
330
1E
100
AcDbEntity
  8
HILF
100
AcDbCircle
 10
183.5236626852112
 20
321.2689688241301
 30
0.0
 40
22.41111549782308
100
AcDbArc
 50
78.85962783890615
 51
101.1403721610938
  0
ARC
  5
DD8
330
1E
100
AcDbEntity
  8
STEMPEL
100
AcDbCircle
 10
190.0188532135945
 20
343.473124164007
 30
0.0
 40
7.694305707784447
100
AcDbArc
 50
74.89685203626851
 51
106.342893305985
  0
ARC
  5
DD9
330
1E
100
AcDbEntity
  8
STEMPEL
100
AcDbCircle
 10
177.0284721568279
 20
343.473124164007
 30
0.0
 40
7.694305707784447
100
AcDbArc
 50
73.65710669401501
 51
106.342893305985
  0
ARC
  5
DDA
330
1E
100
AcDbEntity
  8
STEMPEL
100
AcDbCircle
 10
183.5236626852112
 20
320.8565407393365
 30
0.0
 40
30.31088913245485
100
AcDbArc
 50
81.78678929826221
 51
98.2132107017378
  0
LINE
  5
DDB
330
1E
100
AcDbEntity
  8
STEMPEL
100
AcDbLine
 10
188.5236626852112
 20
353.1674298717908
 30
0.0
 11
187.5236626852112
 21
354.1674298717908
 31
0.0
  0
LINE
  5
DDC
330
1E
100
AcDbEntity
  8
STEMPEL
100
AcDbLine
 10
188.5236626852112
 20
353.1674298717906
 30
0.0
 11
188.5236626852112
 21
351.1674298717914
 31
0.0
  0
LINE
  5
DDD
330
1E
100
AcDbEntity
  8
HILF
100
AcDbLine
 10
187.5236626852112
 20
354.1674298717908
 30
0.0
 11
187.5236626852112
 21
351.1674298717915
 31
0.0
  0
LINE
  5
DDE
330
1E
100
AcDbEntity
  8
STEMPEL
100
AcDbLine
 10
179.5236626852112
 20
354.1674298717908
 30
0.0
 11
178.5236626852112
 21
353.1674298717908
 31
0.0
  0
LINE
  5
DDF
330
1E
100
AcDbEntity
  8
HILF
100
AcDbLine
 10
179.5236626852112
 20
354.1674298717907
 30
0.0
 11
179.5236626852112
 21
351.1674298717914
 31
0.0
  0
LINE
  5
DE0
330
1E
100
AcDbEntity
  8
STEMPEL
100
AcDbLine
 10
178.5236626852112
 20
353.1674298717908
 30
0.0
 11
178.5236626852112
 21
351.1674298717915
 31
0.0
  0
LINE
  5
DE1
330
1E
100
AcDbEntity
  8
STEMPEL
100
AcDbLine
 10
178.5236626852112
 20
353.1674298717908
 30
0.0
 11
188.523662685211
 21
353.1674298717908
 31
0.0
  0
LINE
  5
DE2
330
1E
100
AcDbEntity
  8
STEMPEL
100
AcDbLine
 10
187.5236626852112
 20
354.1674298717908
 30
0.0
 11
179.5236626852112
 21
354.1674298717908
 31
0.0
  0
LINE
  5
DE3
330
1E
100
AcDbEntity
  8
MITTEL
100
AcDbLine
 10
183.5236626852112
 20
359.1674298717905
 30
0.0
 11
183.5236626852112
 21
324.1674298717903
 31
0.0
  0
HATCH
  5
E4A
330
1E
100
AcDbEntity
  8
SCHRAFF
100
AcDbHatch
 10
0.0
 20
0.0
 30
0.0
210
0.0
220
0.0
230
1.0
  2
HONEY
 70
     0
 71
     0
 91
        3
 92
        7
 72
     1
 73
     1
 93
        9
 10
358.5236626852114
 20
323.8138764811963
 42
0.0
 10
338.5236626852115
 20
323.8138764811964
 42
0.0
 10
338.5236626852115
 20
325.8138764811958
 42
0.0
 10
286.5947304970768
 20
325.8138764811958
 42
0.0
 10
271.6803130843009
 20
310.8994590684211
 42
0.6494075931975574
 10
274.2993963840749
 20
304.0765138046562
 42
0.0
 10
420.824042030304
 20
296.3974825161031
 42
0.0
 10
422.5753210296617
 20
329.813876481196
 42
0.0
 10
358.5236626852114
 20
329.8138764811958
 42
0.0
 97
        0
 92
        7
 72
     0
 73
     1
 93
        4
 10
415.3954552678848
 20
192.8138764811962
 10
416.4801576621393
 20
213.5112311314732
 10
228.5236626852113
 20
223.3616136350383
 10
228.5236626852113
 20
192.8138764811962
 97
        0
 92
        7
 72
     1
 73
     1
 93
       12
 10
189.0236626852112
 20
225.4317209167185
 42
0.0
 10
189.0236626852113
 20
256.974949815653
 42
0.0
 10
179.0236626852106
 20
257.4990276084835
 42
0.0
 10
179.0236626852115
 20
277.5264745284419
 42
0.0
 10
189.0236626852113
 20
277.0023967356114
 42
0.0
 10
189.0236626852115
 20
298.9585374218703
 42
0.1989123673796759
 10
183.1657983089413
 20
313.1006730456022
 42
0.0
 10
170.4525948733459
 20
325.8138764811959
 42
0.0
 10
153.5236626852114
 20
325.8138764811958
 42
0.0
 10
166.3981392611246
 20
192.8138764811962
 42
0.0
 10
228.5236626852113
 20
192.8138764811962
 42
0.0
 10
228.5236626852113
 20
223.3616136350383
 42
0.0
 97
        0
 75
     0
 76
     1
 52
0.0
 41
30.0
 77
     0
 78
     3
 53
0.0
 43
0.0
 44
0.0
 45
5.625
 46
3.247595249999999
 79
     2
 49
3.75
 49
-7.5
 53
120.0
 43
0.0
 44
0.0
 45
-5.624999987709673
 46
3.247595271287468
 79
     2
 49
3.749999999999999
 49
-7.499999999999998
 53
60.0
 43
0.0
 44
0.0
 45
0.0000000122903263
 46
6.495190521287468
 79
     2
 49
-7.5
 49
3.75
 47
0.3652863860667483
 98
        3
 10
359.9627239872298
 20
316.050389557211
 10
299.2922947504212
 20
205.7338998886462
 10
208.2866480057219
 20
212.3090538139488
  0
LINE
  5
E4B
330
1E
100
AcDbEntity
  8
STEMPEL
100
AcDbLine
 10
420.4239043012703
 20
288.7623998144983
 30
0.0
 11
422.5753210296617
 21
329.8138764811959
 31
0.0
  0
LINE
  5
E4C
330
1E
100
AcDbEntity
  8
STEMPEL
100
AcDbLine
 10
274.2993963840756
 20
304.0765138046562
 30
0.0
 11
420.8240420303037
 21
296.3974825161029
 31
0.0
  0
LINE
  5
E4D
330
1E
100
AcDbEntity
  8
STEMPEL
100
AcDbLine
 10
358.5236626852114
 20
329.8138764811959
 30
0.0
 11
422.5753210296617
 21
329.8138764811959
 31
0.0
  0
LINE
  5
E4E
330
1E
100
AcDbEntity
  8
STEMPEL
100
AcDbLine
 10
338.5236626852115
 20
323.8138764811964
 30
0.0
 11
358.5236626852114
 21
323.8138764811964
 31
0.0
  0
LINE
  5
E4F
330
1E
100
AcDbEntity
  8
STEMPEL
100
AcDbLine
 10
358.5236626852114
 20
323.8138764811964
 30
0.0
 11
358.5236626852114
 21
329.8138764811964
 31
0.0
  0
LINE
  5
E50
330
1E
100
AcDbEntity
  8
STEMPEL
100
AcDbLine
 10
283.2476260299056
 20
325.8138764811959
 30
0.0
 11
338.5236626852115
 21
325.8138764811959
 31
0.0
  0
LINE
  5
E51
330
1E
100
AcDbEntity
  8
STEMPEL
100
AcDbLine
 10
338.5236626852115
 20
323.8138764811964
 30
0.0
 11
338.5236626852115
 21
325.8138764811959
 31
0.0
  0
LINE
  5
E52
330
1E
100
AcDbEntity
  8
STEMPEL
100
AcDbLine
 10
286.5947304970768
 20
325.8138764811959
 30
0.0
 11
271.6803130843009
 21
310.8994590684211
 31
0.0
  0
ARC
  5
E53
330
1E
100
AcDbEntity
  8
STEMPEL
100
AcDbCircle
 10
274.5087402090474
 20
308.0710319436744
 30
0.0
 40
4.0
100
AcDbArc
 50
135.0
 51
267.0000000000009
  0
LINE
  5
E54
330
1E
100
AcDbEntity
  8
TEXT
 62
     2
100
AcDbLine
 10
461.6819735634647
 20
157.5795518518417
 30
0.0
 11
451.46458107857
 21
115.8558043995756
 31
0.0
  0
DIMENSION
  5
E55
330
1E
100
AcDbEntity
  8
BEM
100
AcDbDimension
  2
*D9
 10
166.3981392611246
 20
175.6065842139915
 30
0.0
 11
290.8967972645047
 21
182.1065842139915
 31
0.0
 70
    32
 71
     5
 42
248.9973160067602
  3
Standard
100
AcDbAlignedDimension
 13
415.3954552678848
 23
192.8138764811962
 33
0.0
 14
166.3981392611246
 24
192.8138764811962
 34
0.0
100
AcDbRotatedDimension
1001
ACAD
1000
DSTYLE
1002
{
1070
    40
1040
2.0
1070
    41
1040
3.5
1070
    42
1040
1.0
1070
    43
1040
7.0
1070
    44
1040
1.0
1070
    73
1070
     0
1070
    74
1070
     0
1070
    77
1070
     1
1070
    78
1070
     8
1070
    79
1070
     2
1070
   140
1040
3.5
1070
   141
1040
1.5
1070
   146
1040
0.5
1070
   147
1040
1.5
1070
   172
1070
     1
1070
   178
1070
     1
1070
   179
1070
     2
1070
   271
1070
     2
1070
   272
1070
     2
1070
   284
1070
     8
1070
   285
1070
     8
1070
   286
1070
     8
1002
}
  0
LINE
  5
E56
330
1E
100
AcDbEntity
  8
STEMPEL
100
AcDbLine
 10
166.3981392611246
 20
192.8138764811962
 30
0.0
 11
415.3954552678848
 21
192.8138764811962
 31
0.0
  0
LINE
  5
E57
330
1E
100
AcDbEntity
  8
STEMPEL
100
AcDbLine
 10
415.3954552678848
 20
192.8138764811962
 30
0.0
 11
416.6033794955353
 21
215.8624437774143
 31
0.0
  0
TEXT
  5
E58
330
1E
100
AcDbEntity
  8
TEXT
 62
     1
100
AcDbText
 10
346.4213728697294
 20
119.4685726717691
 30
0.0
 40
7.0
  1
Ablaufkörper DN70
 41
0.8
  7
GREEKS
100
AcDbText
  0
LINE
  5
E59
330
1E
100
AcDbEntity
  8
TEXT
 62
     2
100
AcDbLine
 10
475.2448789048066
 20
212.9650367510226
 30
0.0
 11
462.633389787847
 21
161.4647554717286
 31
0.0
  0
LINE
  5
E5A
330
1E
100
AcDbEntity
  8
TEXT
 62
     2
100
AcDbLine
 10
451.46458107857
 20
115.8558043995756
 30
0.0
 11
345.3406864708922
 21
115.8558043995754
 31
0.0
  0
TEXT
  5
E5B
330
1E
100
AcDbEntity
  8
TEXT
 62
     1
100
AcDbText
 10
346.2408175755772
 20
106.4208005247899
 30
0.0
 40
7.0
  1
EDV-Art.Nr. 21987.070X
 41
0.8
  7
GREEKS
100
AcDbText
  0
DIMENSION
  5
E5C
330
1E
100
AcDbEntity
  8
BEM
100
AcDbDimension
  2
*D10
 10
513.5236626852114
 20
159.5221536617852
 30
0.0
 11
371.0236626852112
 21
166.0221536617852
 31
0.0
 70
    32
 71
     5
 42
285.0000000000004
  3
Standard
100
AcDbAlignedDimension
 13
228.523662685211
 23
175.6065842139915
 33
0.0
 14
513.5236626852114
 24
247.333157596884
 34
0.0
100
AcDbRotatedDimension
1001
ACAD
1000
DSTYLE
1002
{
1070
    40
1040
2.0
1070
    41
1040
3.5
1070
    42
1040
1.0
1070
    43
1040
7.0
1070
    44
1040
1.0
1070
    47
1040
2.0
1070
    48
1040
2.0
1070
    73
1070
     0
1070
    74
1070
     0
1070
    77
1070
     1
1070
    78
1070
     8
1070
    79
1070
     2
1070
   140
1040
3.5
1070
   141
1040
1.5
1070
   146
1040
0.5142857142857144
1070
   147
1040
1.5
1070
   172
1070
     1
1070
   178
1070
     1
1070
   179
1070
     1
1070
   271
1070
     1
1070
   272
1070
     1
1070
   279
1070
     0
1002
}
  0
LINE
  5
E5D
330
1E
100
AcDbEntity
  8
STEMPEL
100
AcDbLine
 10
189.0236626852112
 20
225.4317209167185
 30
0.0
 11
416.4801576621393
 21
213.5112311314732
 31
0.0
  0
LINE
  5
E5E
330
1E
100
AcDbEntity
  8
TEXT
 62
     2
100
AcDbLine
 10
23.94755765264676
 20
155.0150927450593
 30
0.0
 11
132.8675456416579
 21
155.0150927450593
 31
0.0
  0
TEXT
  5
E5F
330
1E
100
AcDbEntity
  8
TEXT
 62
     1
100
AcDbText
 10
27.08042427035957
 20
158.1439131102913
 30
0.0
 40
7.0
  1
Wärmedämmung DN70
 41
0.8
  7
GREEKS
100
AcDbText
  0
TEXT
  5
E60
330
1E
100
AcDbEntity
  8
TEXT
 62
     1
100
AcDbText
 10
27.08042427035957
 20
145.6852214178844
 30
0.0
 40
7.0
  1
EDV-Art.Nr. 19843.070X
 41
0.8
  7
GREEKS
100
AcDbText
  0
LINE
  5
E61
330
1E
100
AcDbEntity
  8
TEXT
 62
     2
100
AcDbLine
 10
132.8675456416579
 20
155.0150927450593
 30
0.0
 11
183.553264080421
 21
219.2399922396992
 31
0.0
  0
DIMENSION
  5
E62
330
1E
100
AcDbEntity
  8
BEM
100
AcDbDimension
  2
*D11
 10
66.03900796850149
 20
329.1674298717904
 30
0.0
 11
59.53900796850144
 21
260.9906531764933
 31
0.0
 70
    32
  1
137
 71
     5
 42
136.3535533905941
  3
Standard
100
AcDbAlignedDimension
 13
166.3981392611246
 23
192.8138764811962
 33
0.0
 14
106.0236626852114
 24
329.1674298717904
 34
0.0
 50
90.0
100
AcDbRotatedDimension
1001
ACAD
1000
DSTYLE
1002
{
1070
    40
1040
2.0
1070
    41
1040
3.5
1070
    42
1040
1.0
1070
    43
1040
7.0
1070
    44
1040
1.0
1070
    73
1070
     0
1070
    74
1070
     0
1070
    77
1070
     1
1070
    78
1070
     8
1070
    79
1070
     2
1070
   140
1040
3.5
1070
   141
1040
1.5
1070
   146
1040
0.5
1070
   147
1040
1.5
1070
   172
1070
     1
1070
   178
1070
     1
1070
   179
1070
     2
1070
   271
1070
     2
1070
   272
1070
     2
1070
   284
1070
     8
1070
   285
1070
     8
1070
   286
1070
     8
1002
}
  0
LINE
  5
E63
330
1E
100
AcDbEntity
  8
STEMPEL
100
AcDbLine
 10
179.0236626852106
 20
257.4990276084835
 30
0.0
 11
192.0236626852113
 21
256.8177264778039
 31
0.0
  0
LINE
  5
E64
330
1E
100
AcDbEntity
  8
STEMPEL
100
AcDbLine
 10
179.0236626852115
 20
277.5264745284419
 30
0.0
 11
192.0236626852113
 21
276.8451733977624
 31
0.0
  0
LINE
  5
E65
330
1E
100
AcDbEntity
  8
STEMPEL
100
AcDbLine
 10
179.0236626852115
 20
277.5264745284419
 30
0.0
 11
179.0236626852106
 21
257.4990276084835
 31
0.0
  0
LINE
  5
E66
330
1E
100
AcDbEntity
  8
STEMPEL
100
AcDbLine
 10
189.0236626852113
 20
256.9749498156529
 30
0.0
 11
189.0236626852113
 21
225.3297760959579
 31
0.0
  0
LINE
  5
E67
330
1E
100
AcDbEntity
  8
STEMPEL
100
AcDbLine
 10
189.0236626852115
 20
298.9585374218703
 30
0.0
 11
189.0236626852113
 21
277.0023967356115
 31
0.0
  0
ARC
  5
E68
330
1E
100
AcDbEntity
  8
STEMPEL
100
AcDbCircle
 10
169.0236626852114
 20
298.9585374218703
 30
0.0
 40
20.0
100
AcDbArc
 50
0.0
 51
45.0
  0
LINE
  5
E69
330
1E
100
AcDbEntity
  8
STEMPEL
100
AcDbLine
 10
170.4525948733459
 20
325.8138764811959
 30
0.0
 11
183.1657983089413
 21
313.1006730456022
 31
0.0
  0
LINE
  5
E6A
330
1E
100
AcDbEntity
  8
STEMPEL
100
AcDbLine
 10
153.5236626852114
 20
325.8138764811959
 30
0.0
 11
173.7996993405173
 21
325.8138764811959
 31
0.0
  0
LINE
  5
E6B
330
1E
100
AcDbEntity
  8
STEMPEL
100
AcDbLine
 10
153.5236626852114
 20
325.8138764811959
 30
0.0
 11
166.3981392611246
 21
192.8138764811962
 31
0.0
  0
LINE
  5
EB1
330
1E
100
AcDbEntity
  8
BEM
100
AcDbLine
 10
228.5236626852113
 20
260.2693746925508
 30
0.0
 11
228.5236626852113
 21
177.6065842139915
 31
0.0
  0
TEXT
  5
EB3
330
1E
100
AcDbEntity
  8
TEXT
100
AcDbText
 10
532.0
 20
654.8629872542571
 30
0.0
 40
5.0
  1
zweiteilig
 50
90.0
 41
0.8
100
AcDbText
  0
LINE
  5
ED7
330
1E
100
AcDbEntity
  8
STEMPEL
100
AcDbLine
 10
143.5236626852119
 20
332.1674298717904
 30
0.0
 11
188.4274003614591
 21
332.1674298717904
 31
0.0
  0
LINE
  5
ED8
330
1E
100
AcDbEntity
  8
STEMPEL
100
AcDbLine
 10
351.0236626852119
 20
332.1674298717903
 30
0.0
 11
351.0236626852119
 21
329.1674298717903
 31
0.0
  0
HATCH
  5
ED9
330
1E
100
AcDbEntity
  8
SCHRAFF
100
AcDbHatch
 10
0.0
 20
0.0
 30
0.0
210
0.0
220
0.0
230
1.0
  2
NET
 70
     0
 71
     0
 91
        5
 92
        7
 72
     0
 73
     1
 93
        5
 10
351.0236626852119
 20
332.1674298717902
 10
325.8430690386936
 20
332.1674298717902
 10
327.8499689524828
 20
329.1674298717901
 10
344.8061482639398
 20
329.1674298717902
 10
351.0236626852118
 20
329.1674298717903
 97
        0
 92
        7
 72
     0
 73
     1
 93
        4
 10
325.8430690386934
 20
332.1674298717901
 10
299.9236626852118
 20
332.1674298717902
 10
299.9236626852119
 20
329.1674298717903
 10
327.8499689524827
 20
329.1674298717903
 97
        0
 92
        7
 72
     0
 73
     1
 93
        4
 10
299.9236626852118
 20
332.1674298717903
 10
291.0236626852118
 20
332.1674298717903
 10
291.0236626852117
 20
329.1674298717903
 10
299.9236626852118
 20
329.1674298717903
 97
        0
 92
        7
 72
     0
 73
     1
 93
        4
 10
166.0236626852117
 20
332.1674298717903
 10
145.0236626852118
 20
332.1674298717905
 10
145.0236626852118
 20
329.1674298717904
 10
166.0236626852118
 20
329.1674298717905
 97
        0
 92
        7
 72
     0
 73
     1
 93
        4
 10
132.0236626852117
 20
332.1674298717904
 10
106.0236626852117
 20
332.1674298717903
 10
106.0236626852117
 20
329.1674298717903
 10
132.0236626852117
 20
329.1674298717903
 97
        0
 75
     0
 76
     1
 52
45.0
 41
15.0
 77
     0
 78
     2
 53
45.0
 43
-19.84582595136004
 44
-148.6738541484942
 45
-1.325825214724776
 46
1.325825214724776
 79
     0
 53
135.0
 43
-19.84582595136004
 44
-148.6738541484942
 45
-1.325825214724776
 46
-1.325825214724776
 79
     0
 47
0.3214376106877918
 98
        5
 10
334.0342470799419
 20
330.8538475266712
 10
314.419899314736
 20
330.8538475266712
 10
298.3425654667703
 20
331.1752845055655
 10
163.2929595748991
 20
330.8538475266712
 10
129.530558755664
 20
330.8538475266712
  0
LINE
  5
EDA
330
1E
100
AcDbEntity
  8
STEMPEL
100
AcDbLine
 10
291.0236626852118
 20
332.1674298717903
 30
0.0
 11
291.0236626852118
 21
329.1674298717903
 31
0.0
  0
LINE
  5
EDB
330
1E
100
AcDbEntity
  8
STEMPEL
100
AcDbLine
 10
294.9236626852119
 20
335.1674298717903
 30
0.0
 11
294.923662685212
 21
332.1674298717908
 31
0.0
  0
LINE
  5
EDC
330
1E
100
AcDbEntity
  8
HILF
100
AcDbLine
 10
295.9236626852121
 20
335.1674298717904
 30
0.0
 11
295.9236626852119
 21
332.1674298717908
 31
0.0
  0
LINE
  5
EDD
330
1E
100
AcDbEntity
  8
HILF
100
AcDbLine
 10
303.923662685212
 20
335.1674298717903
 30
0.0
 11
303.923662685212
 21
332.1674298717908
 31
0.0
  0
LINE
  5
EDE
330
1E
100
AcDbEntity
  8
STEMPEL
100
AcDbLine
 10
304.9236626852119
 20
335.1674298717903
 30
0.0
 11
304.923662685212
 21
332.1674298717908
 31
0.0
  0
LINE
  5
EDF
330
1E
100
AcDbEntity
  8
STEMPEL
100
AcDbLine
 10
178.5236626852119
 20
335.1674298717903
 30
0.0
 11
178.5236626852119
 21
332.1674298717904
 31
0.0
  0
LINE
  5
EE0
330
1E
100
AcDbEntity
  8
HILF
100
AcDbLine
 10
179.5236626852119
 20
335.1674298717904
 30
0.0
 11
179.5236626852118
 21
332.1674298717903
 31
0.0
  0
LINE
  5
EE1
330
1E
100
AcDbEntity
  8
STEMPEL
100
AcDbLine
 10
188.5236626852118
 20
333.1674298717905
 30
0.0
 11
188.5236626852118
 21
332.3960327139372
 31
0.0
  0
LINE
  5
EE2
330
1E
100
AcDbEntity
  8
HILF
100
AcDbLine
 10
187.5236626852119
 20
333.1674298717905
 30
0.0
 11
187.5236626852119
 21
332.1674298717904
 31
0.0
  0
LINE
  5
EE3
330
1E
100
AcDbEntity
  8
STEMPEL
100
AcDbLine
 10
132.0236626852117
 20
332.1674298717904
 30
0.0
 11
132.0236626852117
 21
329.1674298717903
 31
0.0
  0
LINE
  5
EE4
330
1E
100
AcDbEntity
  8
STEMPEL
100
AcDbLine
 10
145.0236626852118
 20
332.1674298717904
 30
0.0
 11
145.0236626852118
 21
329.1674298717903
 31
0.0
  0
LINE
  5
EE5
330
1E
100
AcDbEntity
  8
STEMPEL
100
AcDbLine
 10
166.0236626852118
 20
332.1674298717904
 30
0.0
 11
166.0236626852118
 21
329.1674298717903
 31
0.0
  0
LINE
  5
EE6
330
1E
100
AcDbEntity
  8
STEMPEL
100
AcDbLine
 10
106.0236626852117
 20
332.1674298717904
 30
0.0
 11
133.5236626852119
 21
332.1674298717905
 31
0.0
  0
LINE
  5
EE7
330
1E
100
AcDbEntity
  8
STEMPEL
100
AcDbLine
 10
106.0236626852117
 20
332.1674298717904
 30
0.0
 11
106.0236626852117
 21
329.1674298717904
 31
0.0
  0
LINE
  5
EE8
330
1E
100
AcDbEntity
  8
STEMPEL
100
AcDbLine
 10
268.6199250089638
 20
332.1674298717904
 30
0.0
 11
351.0236626852119
 21
332.1674298717903
 31
0.0
  0
LINE
  5
EFF
330
1E
100
AcDbEntity
  8
STEMPEL
100
AcDbLine
 10
143.5236626852115
 20
569.3827439522075
 30
0.0
 11
351.0236626852115
 21
569.3827439522074
 31
0.0
  0
LINE
  5
F00
330
1E
100
AcDbEntity
  8
STEMPEL
100
AcDbLine
 10
351.0236626852115
 20
569.3827439522074
 30
0.0
 11
351.0236626852115
 21
566.3827439522074
 31
0.0
  0
HATCH
  5
F01
330
1E
100
AcDbEntity
  8
SCHRAFF
100
AcDbHatch
 10
0.0
 20
0.0
 30
0.0
210
0.0
220
0.0
230
1.0
  2
NET
 70
     0
 71
     0
 91
        5
 92
        7
 72
     0
 73
     1
 93
        5
 10
351.0236626852115
 20
569.3827439522073
 10
325.8430690386933
 20
569.3827439522073
 10
327.8499689524825
 20
566.3827439522072
 10
344.8061482639395
 20
566.3827439522073
 10
351.0236626852115
 20
566.3827439522074
 97
        0
 92
        7
 72
     0
 73
     1
 93
        4
 10
325.843069038693
 20
569.3827439522071
 10
299.9236626852115
 20
569.3827439522073
 10
299.9236626852115
 20
566.3827439522074
 10
327.8499689524823
 20
566.3827439522074
 97
        0
 92
        7
 72
     0
 73
     1
 93
        4
 10
299.9236626852114
 20
569.3827439522074
 10
291.0236626852114
 20
569.3827439522074
 10
291.0236626852114
 20
566.3827439522074
 10
299.9236626852115
 20
566.3827439522074
 97
        0
 92
        7
 72
     0
 73
     1
 93
        4
 10
166.0236626852114
 20
569.3827439522074
 10
145.0236626852114
 20
569.3827439522076
 10
145.0236626852114
 20
566.3827439522075
 10
166.0236626852114
 20
566.3827439522076
 97
        0
 92
        7
 72
     0
 73
     1
 93
        4
 10
132.0236626852114
 20
569.3827439522075
 10
106.0236626852113
 20
569.3827439522074
 10
106.0236626852114
 20
566.3827439522074
 10
132.0236626852113
 20
566.3827439522074
 97
        0
 75
     0
 76
     1
 52
45.0
 41
15.0
 77
     0
 78
     2
 53
45.0
 43
-19.84582595136038
 44
88.54145993192281
 45
-1.325825214724776
 46
1.325825214724776
 79
     0
 53
135.0
 43
-19.84582595136038
 44
88.54145993192281
 45
-1.325825214724776
 46
-1.325825214724776
 79
     0
 47
0.3214376106877918
 98
        5
 10
334.0342470799415
 20
568.0691616070882
 10
314.4198993147357
 20
568.0691616070882
 10
298.34256546677
 20
568.3905985859825
 10
163.2929595748988
 20
568.0691616070882
 10
129.5305587556636
 20
568.0691616070882
  0
LINE
  5
F02
330
1E
100
AcDbEntity
  8
STEMPEL
100
AcDbLine
 10
291.0236626852114
 20
569.3827439522074
 30
0.0
 11
291.0236626852114
 21
566.3827439522074
 31
0.0
  0
LINE
  5
F03
330
1E
100
AcDbEntity
  8
STEMPEL
100
AcDbLine
 10
294.9236626852116
 20
572.3827439522074
 30
0.0
 11
294.9236626852116
 21
569.3827439522078
 31
0.0
  0
LINE
  5
F04
330
1E
100
AcDbEntity
  8
HILF
100
AcDbLine
 10
295.9236626852117
 20
572.3827439522075
 30
0.0
 11
295.9236626852116
 21
569.3827439522078
 31
0.0
  0
LINE
  5
F05
330
1E
100
AcDbEntity
  8
HILF
100
AcDbLine
 10
303.9236626852116
 20
572.3827439522074
 30
0.0
 11
303.9236626852116
 21
569.3827439522078
 31
0.0
  0
LINE
  5
F06
330
1E
100
AcDbEntity
  8
STEMPEL
100
AcDbLine
 10
304.9236626852115
 20
572.3827439522074
 30
0.0
 11
304.9236626852116
 21
569.3827439522078
 31
0.0
  0
LINE
  5
F07
330
1E
100
AcDbEntity
  8
STEMPEL
100
AcDbLine
 10
178.5236626852115
 20
572.3827439522074
 30
0.0
 11
178.5236626852115
 21
569.3827439522075
 31
0.0
  0
LINE
  5
F08
330
1E
100
AcDbEntity
  8
HILF
100
AcDbLine
 10
179.5236626852116
 20
572.3827439522075
 30
0.0
 11
179.5236626852115
 21
569.3827439522074
 31
0.0
  0
LINE
  5
F09
330
1E
100
AcDbEntity
  8
STEMPEL
100
AcDbLine
 10
188.5236626852114
 20
572.3827439522074
 30
0.0
 11
188.5236626852115
 21
569.3827439522075
 31
0.0
  0
LINE
  5
F0A
330
1E
100
AcDbEntity
  8
HILF
100
AcDbLine
 10
187.5236626852115
 20
572.3827439522074
 30
0.0
 11
187.5236626852115
 21
569.3827439522075
 31
0.0
  0
LINE
  5
F0B
330
1E
100
AcDbEntity
  8
STEMPEL
100
AcDbLine
 10
132.0236626852114
 20
569.3827439522075
 30
0.0
 11
132.0236626852114
 21
566.3827439522074
 31
0.0
  0
LINE
  5
F0C
330
1E
100
AcDbEntity
  8
STEMPEL
100
AcDbLine
 10
145.0236626852114
 20
569.3827439522075
 30
0.0
 11
145.0236626852114
 21
566.3827439522074
 31
0.0
  0
LINE
  5
F0D
330
1E
100
AcDbEntity
  8
STEMPEL
100
AcDbLine
 10
166.0236626852114
 20
569.3827439522075
 30
0.0
 11
166.0236626852114
 21
566.3827439522074
 31
0.0
  0
LINE
  5
F0E
330
1E
100
AcDbEntity
  8
STEMPEL
100
AcDbLine
 10
106.0236626852114
 20
569.3827439522075
 30
0.0
 11
133.5236626852115
 21
569.3827439522076
 31
0.0
  0
LINE
  5
F0F
330
1E
100
AcDbEntity
  8
STEMPEL
100
AcDbLine
 10
106.0236626852114
 20
569.3827439522075
 30
0.0
 11
106.0236626852114
 21
566.3827439522075
 31
0.0
  0
LINE
  5
F4D
330
1E
100
AcDbEntity
  8
STEMPEL
100
AcDbLine
 10
128.8045236786671
 20
594.4495748936368
 30
0.0
 11
124.9964440908522
 21
594.4495748936368
 31
0.0
  0
ARC
  5
F4E
330
1E
100
AcDbEntity
  8
STEMPEL
100
AcDbCircle
 10
125.1845551696813
 20
593.9327439522045
 30
0.0
 40
0.5500000000000003
100
AcDbArc
 50
110.0000000000006
 51
270.0
  0
LINE
  5
F4F
330
1E
100
AcDbEntity
  8
STEMPEL
100
AcDbLine
 10
125.9610524777851
 20
594.8006636342039
 30
0.0
 11
124.9964440908522
 21
594.4495748936368
 31
0.0
  0
ARC
  5
F50
330
1E
100
AcDbEntity
  8
HILF
100
AcDbCircle
 10
127.4044281507591
 20
591.2414351903882
 30
0.0
 40
3.840760399790701
100
AcDbArc
 50
67.92594526323999
 51
112.07405473676
  0
ARC
  5
F51
330
1E
100
AcDbEntity
  8
HILF
100
AcDbCircle
 10
131.7345551696813
 20
580.1414519249783
 30
0.0
 40
14.94074366520046
100
AcDbArc
 50
100.29090067769
 51
101.1403721611056
  0
LINE
  5
F52
330
1E
100
AcDbEntity
  8
STEMPEL
100
AcDbLine
 10
130.0035342219513
 20
599.9827439522046
 30
0.0
 11
126.7345551696813
 21
599.9827439522046
 31
0.0
  0
LINE
  5
F53
330
1E
100
AcDbEntity
  8
STEMPEL
100
AcDbLine
 10
128.8478038237332
 20
599.7754845305677
 30
0.0
 11
128.8478038237332
 21
594.8006636342039
 31
0.0
  0
LINE
  5
F54
330
1E
100
AcDbEntity
  8
STEMPEL
100
AcDbLine
 10
125.9610524777851
 20
599.7754845305677
 30
0.0
 11
125.9610524777851
 21
594.8006636342039
 31
0.0
  0
LINE
  5
F55
330
1E
100
AcDbEntity
  8
STEMPEL
100
AcDbLine
 10
126.7345551696813
 20
599.9827439522046
 30
0.0
 11
125.9610524777851
 21
599.7754845305677
 31
0.0
  0
ARC
  5
F56
330
1E
100
AcDbEntity
  8
STEMPEL
100
AcDbCircle
 10
127.4044281507591
 20
594.8532068136814
 30
0.0
 40
5.129537138523076
100
AcDbArc
 50
73.65710669401657
 51
106.3428933059834
  0
ARC
  5
F57
330
1E
100
AcDbEntity
  8
STEMPEL
100
AcDbCircle
 10
131.7345551696813
 20
579.7754845305677
 30
0.0
 40
20.20725942163691
100
AcDbArc
 50
94.91416948521033
 51
98.21321070173988
  0
ARC
  5
F58
330
1E
100
AcDbEntity
  8
STEMPEL
100
AcDbCircle
 10
138.2845551696813
 20
593.9327439522045
 30
0.0
 40
0.5500000000000009
100
AcDbArc
 50
270.0
 51
69.99999999999935
  0
LINE
  5
F59
330
1E
100
AcDbEntity
  8
STEMPEL
100
AcDbLine
 10
138.4726662485104
 20
594.4495748936368
 30
0.0
 11
137.5080578615776
 21
594.8006636342039
 31
0.0
  0
LINE
  5
F5A
330
1E
100
AcDbEntity
  8
STEMPEL
100
AcDbLine
 10
137.5080578615776
 20
596.760815224024
 30
0.0
 11
137.5080578615776
 21
594.8006636342039
 31
0.0
  0
LINE
  5
F5B
330
1E
100
AcDbEntity
  8
STEMPEL
100
AcDbLine
 10
138.4726662485104
 20
594.4495748936368
 30
0.0
 11
136.6108783442346
 21
594.4495748936368
 31
0.0
  0
ARC
  5
F5C
330
1E
100
AcDbEntity
  8
HILF
100
AcDbCircle
 10
136.0646821886035
 20
591.2402706284999
 30
0.0
 40
3.841839622940954
100
AcDbArc
 50
67.9324721810082
 51
77.4028413078025
  0
LINE
  5
F5D
330
1E
100
AcDbEntity
  8
MITTEL
100
AcDbLine
 10
131.7345551696813
 20
604.9827439522047
 30
0.0
 11
131.7345551696813
 21
576.3827439522085
 31
0.0
  0
LINE
  5
F5E
330
1E
100
AcDbEntity
  8
MITTEL
100
AcDbLine
 10
350.5236626852116
 20
604.9827439522097
 30
0.0
 11
350.5236626852116
 21
572.382743952208
 31
0.0
  0
ARC
  5
F5F
330
1E
100
AcDbEntity
  8
HILF
100
AcDbCircle
 10
350.5236626852116
 20
580.1414519249833
 30
0.0
 40
14.94074366520046
100
AcDbArc
 50
78.85962783889434
 51
101.1403721611056
  0
ARC
  5
F60
330
1E
100
AcDbEntity
  8
HILF
100
AcDbCircle
 10
346.1935356662893
 20
591.2414351903931
 30
0.0
 40
3.840760399790701
100
AcDbArc
 50
67.92594526323999
 51
112.07405473676
  0
ARC
  5
F61
330
1E
100
AcDbEntity
  8
HILF
100
AcDbCircle
 10
354.8537897041338
 20
591.2402706285049
 30
0.0
 40
3.841839622940954
100
AcDbArc
 50
67.9324721810082
 51
112.0675278189918
  0
ARC
  5
F62
330
1E
100
AcDbEntity
  8
STEMPEL
100
AcDbCircle
 10
350.5236626852116
 20
579.7754845305727
 30
0.0
 40
20.20725942163691
100
AcDbArc
 50
81.78678929826011
 51
98.21321070173988
  0
ARC
  5
F63
330
1E
100
AcDbEntity
  8
STEMPEL
100
AcDbCircle
 10
346.1935356662893
 20
594.8532068136865
 30
0.0
 40
5.129537138523076
100
AcDbArc
 50
73.65710669401657
 51
106.3428933059834
  0
LINE
  5
F64
330
1E
100
AcDbEntity
  8
STEMPEL
100
AcDbLine
 10
345.5236626852116
 20
599.9827439522095
 30
0.0
 11
344.7501599933153
 21
599.7754845305727
 31
0.0
  0
LINE
  5
F65
330
1E
100
AcDbEntity
  8
STEMPEL
100
AcDbLine
 10
355.5236626852115
 20
599.9827439522095
 30
0.0
 11
356.2971653771078
 21
599.7754845305727
 31
0.0
  0
ARC
  5
F66
330
1E
100
AcDbEntity
  8
STEMPEL
100
AcDbCircle
 10
354.8537897041338
 20
594.8532068136865
 30
0.0
 40
5.129537138523076
100
AcDbArc
 50
73.65710669401657
 51
106.3428933059834
  0
LINE
  5
F67
330
1E
100
AcDbEntity
  8
STEMPEL
100
AcDbLine
 10
357.2617737640407
 20
594.4495748936418
 30
0.0
 11
343.7855516063824
 21
594.4495748936418
 31
0.0
  0
LINE
  5
F68
330
1E
100
AcDbEntity
  8
STEMPEL
100
AcDbLine
 10
357.0736626852116
 20
593.3827439522096
 30
0.0
 11
343.9736626852115
 21
593.3827439522096
 31
0.0
  0
LINE
  5
F69
330
1E
100
AcDbEntity
  8
STEMPEL
100
AcDbLine
 10
344.7501599933153
 20
599.7754845305727
 30
0.0
 11
344.7501599933153
 21
594.8006636342089
 31
0.0
  0
LINE
  5
F6A
330
1E
100
AcDbEntity
  8
STEMPEL
100
AcDbLine
 10
347.6369113392634
 20
599.7754845305727
 30
0.0
 11
347.6369113392634
 21
594.8006636342089
 31
0.0
  0
LINE
  5
F6B
330
1E
100
AcDbEntity
  8
STEMPEL
100
AcDbLine
 10
353.4104140311597
 20
599.7754845305727
 30
0.0
 11
353.4104140311597
 21
594.8006636342089
 31
0.0
  0
LINE
  5
F6C
330
1E
100
AcDbEntity
  8
STEMPEL
100
AcDbLine
 10
356.2971653771078
 20
599.7754845305727
 30
0.0
 11
356.2971653771078
 21
594.8006636342089
 31
0.0
  0
LINE
  5
F6D
330
1E
100
AcDbEntity
  8
STEMPEL
100
AcDbLine
 10
355.5236626852115
 20
599.9827439522095
 30
0.0
 11
345.5236626852116
 21
599.9827439522095
 31
0.0
  0
LINE
  5
F6E
330
1E
100
AcDbEntity
  8
STEMPEL
100
AcDbLine
 10
344.7501599933153
 20
594.8006636342089
 30
0.0
 11
343.7855516063824
 21
594.4495748936418
 31
0.0
  0
LINE
  5
F6F
330
1E
100
AcDbEntity
  8
STEMPEL
100
AcDbLine
 10
357.2617737640407
 20
594.4495748936418
 30
0.0
 11
356.2971653771078
 21
594.8006636342089
 31
0.0
  0
ARC
  5
F70
330
1E
100
AcDbEntity
  8
STEMPEL
100
AcDbCircle
 10
357.0736626852116
 20
593.9327439522095
 30
0.0
 40
0.5500000000000009
100
AcDbArc
 50
270.0
 51
69.99999999999935
  0
ARC
  5
F71
330
1E
100
AcDbEntity
  8
STEMPEL
100
AcDbCircle
 10
343.9736626852115
 20
593.9327439522095
 30
0.0
 40
0.5500000000000003
100
AcDbArc
 50
110.0000000000006
 51
270.0
  0
ENDSEC
  0
SECTION
  2
OBJECTS
  0
DICTIONARY
  5
C
330
0
100
AcDbDictionary
281
     1
  3
ACAD_COLOR
350
11A
  3
ACAD_GROUP
350
D
  3
ACAD_LAYOUT
350
19
  3
ACAD_MATERIAL
350
119
  3
ACAD_MLINESTYLE
350
16
  3
ACAD_PLOTSETTINGS
350
18
  3
ACAD_PLOTSTYLENAME
350
E
  3
AcDbVariableDictionary
350
125
  0
DICTIONARY
  5
DB
330
1E
100
AcDbDictionary
280
     1
281
     1
  3
ACAD_LAYOUTSELFREF
360
10F
  0
DICTIONARY
  5
DD
330
1A
100
AcDbDictionary
280
     1
281
     1
  3
ACAD_LAYOUTSELFREF
360
10E
  0
DICTIONARY
  5
11A
102
{ACAD_REACTORS
330
C
102
}
330
C
100
AcDbDictionary
281
     1
  0
DICTIONARY
  5
D
102
{ACAD_REACTORS
330
C
102
}
330
C
100
AcDbDictionary
281
     1
  0
DICTIONARY
  5
19
102
{ACAD_REACTORS
330
C
102
}
330
C
100
AcDbDictionary
281
     1
  3
Layout1
350
1D
  3
Model
350
21
  0
DICTIONARY
  5
119
102
{ACAD_REACTORS
330
C
102
}
330
C
100
AcDbDictionary
281
     1
  0
DICTIONARY
  5
16
102
{ACAD_REACTORS
330
C
102
}
330
C
100
AcDbDictionary
281
     1
  3
Standard
350
17
  0
DICTIONARY
  5
18
102
{ACAD_REACTORS
330
C
102
}
330
C
100
AcDbDictionary
281
     1
  0
ACDBDICTIONARYWDFLT
  5
E
102
{ACAD_REACTORS
330
C
102
}
330
C
100
AcDbDictionary
281
     1
  3
Normal
350
F
100
AcDbDictionaryWithDefault
340
F
  0
DICTIONARY
  5
125
102
{ACAD_REACTORS
330
C
102
}
330
C
100
AcDbDictionary
281
     1
  3
DIMASSOC
350
126
  3
PROJECTNAME
350
127
  0
XRECORD
  5
10F
102
{ACAD_REACTORS
330
DB
102
}
330
DB
100
AcDbXrecord
280
     1
340
1E
  0
XRECORD
  5
10E
102
{ACAD_REACTORS
330
DD
102
}
330
DD
100
AcDbXrecord
280
     1
340
1A
  0
LAYOUT
  5
1D
102
{ACAD_REACTORS
330
19
102
}
330
19
100
AcDbPlotSettings
  1

  2
\\NT_WORK01\HP LaserJet 5000 PCL 6
  4

  6

 40
0.0
 41
0.0
 42
0.0
 43
0.0
 44
0.0
 45
0.0
 46
0.0
 47
0.0
 48
0.0
 49
0.0
140
0.0
141
0.0
142
1.0
143
1.0
 70
   688
 72
     0
 73
     0
 74
     5
  7

 75
    16
147
1.0
 76
     0
 77
     2
 78
   300
148
0.0
149
0.0
100
AcDbLayout
  1
Layout1
 70
     0
 71
     1
 10
0.0
 20
0.0
 11
12.0
 21
9.0
 12
0.0
 22
0.0
 32
0.0
 14
1.000000000000000E+20
 24
1.000000000000000E+20
 34
1.000000000000000E+20
 15
-1.000000000000000E+20
 25
-1.000000000000000E+20
 35
-1.000000000000000E+20
146
0.0
 13
0.0
 23
0.0
 33
0.0
 16
1.0
 26
0.0
 36
0.0
 17
0.0
 27
1.0
 37
0.0
 76
     0
330
1A
  0
LAYOUT
  5
21
102
{ACAD_REACTORS
330
19
102
}
330
19
100
AcDbPlotSettings
  1

  2
none_device
  4
Letter_(8.50_x_11.00_Inches)
  6

 40
6.349999904632568
 41
6.349999904632568
 42
6.350006103515625
 43
6.350006103515625
 44
215.8999938964844
 45
279.3999938964844
 46
0.0
 47
0.0
 48
0.0
 49
0.0
140
0.0
141
0.0
142
1.0
143
1.0
 70
 11952
 72
     0
 73
     1
 74
     0
  7

 75
     0
147
1.0
 76
     0
 77
     2
 78
   300
148
3124.2
149
0.0
100
AcDbLayout
  1
Model
 70
     1
 71
     0
 10
0.0
 20
0.0
 11
12.0
 21
9.0
 12
0.0
 22
0.0
 32
0.0
 14
0.0
 24
0.0
 34
0.0
 15
0.0
 25
0.0
 35
0.0
146
0.0
 13
0.0
 23
0.0
 33
0.0
 16
1.0
 26
0.0
 36
0.0
 17
0.0
 27
1.0
 37
0.0
 76
     0
330
1E
  0
MLINESTYLE
  5
17
102
{ACAD_REACTORS
330
16
102
}
330
16
100
AcDbMlineStyle
  2
STANDARD
 70
     0
  3

 62
   256
 51
90.0
 52
90.0
 71
     2
 49
0.5
 62
   256
  6
BYLAYER
 49
-0.5
 62
   256
  6
BYLAYER
  0
ACDBPLACEHOLDER
  5
F
102
{ACAD_REACTORS
330
E
102
}
330
E
  0
DICTIONARYVAR
  5
126
102
{ACAD_REACTORS
330
125
102
}
330
125
100
DictionaryVariables
280
     0
  1
1
  0
DICTIONARYVAR
  5
127
102
{ACAD_REACTORS
330
125
102
}
330
125
100
DictionaryVariables
280
     0
  1

  0
ENDSEC
  0
EOF
