  0
SECTION
  2
HEADER
  9
$ACADVER
  1
AC1018
  9
$ACADMAINTVER
 70
     2
  9
$DWGCODEPAGE
  3
ANSI_1252
  9
$INSBASE
 10
0.0
 20
0.0
 30
0.0
  9
$EXTMIN
 10
-0.045311687738149
 20
-0.0640771341750224
 30
-0.000000000000013
  9
$EXTMAX
 10
594.0000027663659
 20
840.000003912033
 30
0.0000000000000023
  9
$LIMMIN
 10
0.0
 20
0.0
  9
$LIMMAX
 10
594.0
 20
840.0
  9
$ORTHOMODE
 70
     1
  9
$REGENMODE
 70
     1
  9
$FILLMODE
 70
     1
  9
$QTEXTMODE
 70
     0
  9
$MIRRTEXT
 70
     1
  9
$LTSCALE
 40
20.0
  9
$ATTMODE
 70
     1
  9
$TEXTSIZE
 40
3.5
  9
$TRACEWID
 40
1.0
  9
$TEXTSTYLE
  7
STANDARD
  9
$CLAYER
  8
VOLL
  9
$CELTYPE
  6
ByLayer
  9
$CECOLOR
 62
   256
  9
$CELTSCALE
 40
1.0
  9
$DISPSILH
 70
     0
  9
$DIMSCALE
 40
2.0
  9
$DIMASZ
 40
3.5
  9
$DIMEXO
 40
1.0
  9
$DIMDLI
 40
7.0
  9
$DIMRND
 40
0.0
  9
$DIMDLE
 40
0.0
  9
$DIMEXE
 40
1.0
  9
$DIMTP
 40
0.0
  9
$DIMTM
 40
0.0
  9
$DIMTXT
 40
3.5
  9
$DIMCEN
 40
1.5
  9
$DIMTSZ
 40
0.0
  9
$DIMTOL
 70
     0
  9
$DIMLIM
 70
     0
  9
$DIMTIH
 70
     0
  9
$DIMTOH
 70
     0
  9
$DIMSE1
 70
     0
  9
$DIMSE2
 70
     0
  9
$DIMTAD
 70
     1
  9
$DIMZIN
 70
     8
  9
$DIMBLK
  1

  9
$DIMASO
 70
     1
  9
$DIMSHO
 70
     0
  9
$DIMPOST
  1

  9
$DIMAPOST
  1

  9
$DIMALT
 70
     0
  9
$DIMALTD
 70
     2
  9
$DIMALTF
 40
25.4
  9
$DIMLFAC
 40
1.0
  9
$DIMTOFL
 70
     1
  9
$DIMTVP
 40
0.0
  9
$DIMTIX
 70
     0
  9
$DIMSOXD
 70
     0
  9
$DIMSAH
 70
     0
  9
$DIMBLK1
  1

  9
$DIMBLK2
  1

  9
$DIMSTYLE
  2
Standard
  9
$DIMCLRD
 70
     0
  9
$DIMCLRE
 70
     0
  9
$DIMCLRT
 70
     1
  9
$DIMTFAC
 40
0.5142857142857144
  9
$DIMGAP
 40
1.5
  9
$DIMJUST
 70
     0
  9
$DIMSD1
 70
     0
  9
$DIMSD2
 70
     0
  9
$DIMTOLJ
 70
     1
  9
$DIMTZIN
 70
     8
  9
$DIMALTZ
 70
     8
  9
$DIMALTTZ
 70
     8
  9
$DIMUPT
 70
     0
  9
$DIMDEC
 70
     2
  9
$DIMTDEC
 70
     2
  9
$DIMALTU
 70
     2
  9
$DIMALTTD
 70
     2
  9
$DIMTXSTY
  7
STANDARD
  9
$DIMAUNIT
 70
     0
  9
$DIMADEC
 70
     2
  9
$DIMALTRND
 40
0.0
  9
$DIMAZIN
 70
     2
  9
$DIMDSEP
 70
    46
  9
$DIMATFIT
 70
     3
  9
$DIMFRAC
 70
     0
  9
$DIMLDRBLK
  1

  9
$DIMLUNIT
 70
     2
  9
$DIMLWD
 70
    -2
  9
$DIMLWE
 70
    -2
  9
$DIMTMOVE
 70
     0
  9
$LUNITS
 70
     2
  9
$LUPREC
 70
     2
  9
$SKETCHINC
 40
1.0
  9
$FILLETRAD
 40
0.0
  9
$AUNITS
 70
     0
  9
$AUPREC
 70
     0
  9
$MENU
  1
ACAD
  9
$ELEVATION
 40
0.0
  9
$PELEVATION
 40
0.0
  9
$THICKNESS
 40
0.0
  9
$LIMCHECK
 70
     0
  9
$CHAMFERA
 40
0.0
  9
$CHAMFERB
 40
0.0
  9
$CHAMFERC
 40
0.0
  9
$CHAMFERD
 40
0.0
  9
$SKPOLY
 70
     0
  9
$TDCREATE
 40
2455397.825393172
  9
$TDUCREATE
 40
2455397.783726505
  9
$TDUPDATE
 40
2455502.411492778
  9
$TDUUPDATE
 40
2455502.369826111
  9
$TDINDWG
 40
0.0978701620
  9
$TDUSRTIMER
 40
0.0978701620
  9
$USRTIMER
 70
     1
  9
$ANGBASE
 50
0.0
  9
$ANGDIR
 70
     0
  9
$PDMODE
 70
     0
  9
$PDSIZE
 40
0.0
  9
$PLINEWID
 40
0.0
  9
$SPLFRAME
 70
     0
  9
$SPLINETYPE
 70
     6
  9
$SPLINESEGS
 70
     8
  9
$HANDSEED
  5
11E1
  9
$SURFTAB1
 70
     6
  9
$SURFTAB2
 70
     6
  9
$SURFTYPE
 70
     6
  9
$SURFU
 70
     6
  9
$SURFV
 70
     6
  9
$UCSBASE
  2

  9
$UCSNAME
  2

  9
$UCSORG
 10
0.0
 20
0.0
 30
0.0
  9
$UCSXDIR
 10
1.0
 20
0.0
 30
0.0
  9
$UCSYDIR
 10
0.0
 20
1.0
 30
0.0
  9
$UCSORTHOREF
  2

  9
$UCSORTHOVIEW
 70
     0
  9
$UCSORGTOP
 10
0.0
 20
0.0
 30
0.0
  9
$UCSORGBOTTOM
 10
0.0
 20
0.0
 30
0.0
  9
$UCSORGLEFT
 10
0.0
 20
0.0
 30
0.0
  9
$UCSORGRIGHT
 10
0.0
 20
0.0
 30
0.0
  9
$UCSORGFRONT
 10
0.0
 20
0.0
 30
0.0
  9
$UCSORGBACK
 10
0.0
 20
0.0
 30
0.0
  9
$PUCSBASE
  2

  9
$PUCSNAME
  2

  9
$PUCSORG
 10
0.0
 20
0.0
 30
0.0
  9
$PUCSXDIR
 10
1.0
 20
0.0
 30
0.0
  9
$PUCSYDIR
 10
0.0
 20
1.0
 30
0.0
  9
$PUCSORTHOREF
  2

  9
$PUCSORTHOVIEW
 70
     0
  9
$PUCSORGTOP
 10
0.0
 20
0.0
 30
0.0
  9
$PUCSORGBOTTOM
 10
0.0
 20
0.0
 30
0.0
  9
$PUCSORGLEFT
 10
0.0
 20
0.0
 30
0.0
  9
$PUCSORGRIGHT
 10
0.0
 20
0.0
 30
0.0
  9
$PUCSORGFRONT
 10
0.0
 20
0.0
 30
0.0
  9
$PUCSORGBACK
 10
0.0
 20
0.0
 30
0.0
  9
$USERI1
 70
     0
  9
$USERI2
 70
     0
  9
$USERI3
 70
     0
  9
$USERI4
 70
     0
  9
$USERI5
 70
     0
  9
$USERR1
 40
0.0
  9
$USERR2
 40
0.0
  9
$USERR3
 40
0.0
  9
$USERR4
 40
0.0
  9
$USERR5
 40
0.0
  9
$WORLDVIEW
 70
     1
  9
$SHADEDGE
 70
     3
  9
$SHADEDIF
 70
    70
  9
$TILEMODE
 70
     1
  9
$MAXACTVP
 70
    16
  9
$PINSBASE
 10
0.0
 20
0.0
 30
0.0
  9
$PLIMCHECK
 70
     0
  9
$PEXTMIN
 10
1.000000000000000E+20
 20
1.000000000000000E+20
 30
1.000000000000000E+20
  9
$PEXTMAX
 10
-1.000000000000000E+20
 20
-1.000000000000000E+20
 30
-1.000000000000000E+20
  9
$PLIMMIN
 10
0.0
 20
0.0
  9
$PLIMMAX
 10
12.0
 20
9.0
  9
$UNITMODE
 70
     0
  9
$VISRETAIN
 70
     0
  9
$PLINEGEN
 70
     0
  9
$PSLTSCALE
 70
     0
  9
$TREEDEPTH
 70
  3020
  9
$CMLSTYLE
  2
Standard
  9
$CMLJUST
 70
     0
  9
$CMLSCALE
 40
1.0
  9
$PROXYGRAPHICS
 70
     1
  9
$MEASUREMENT
 70
     0
  9
$CELWEIGHT
370
    -1
  9
$ENDCAPS
280
     0
  9
$JOINSTYLE
280
     0
  9
$LWDISPLAY
290
     0
  9
$INSUNITS
 70
     0
  9
$HYPERLINKBASE
  1

  9
$STYLESHEET
  1

  9
$XEDIT
290
     1
  9
$CEPSNTYPE
380
     0
  9
$PSTYLEMODE
290
     1
  9
$FINGERPRINTGUID
  2
{D68B0D0D-A558-11D7-B632-000102183313}
  9
$VERSIONGUID
  2
{4D42F8F1-4FCD-489C-92A4-3BAAD616C470}
  9
$EXTNAMES
290
     1
  9
$PSVPSCALE
 40
0.0
  9
$OLESTARTUP
290
     0
  9
$SORTENTS
280
   127
  9
$INDEXCTL
280
     0
  9
$HIDETEXT
280
     0
  9
$XCLIPFRAME
290
     0
  9
$HALOGAP
280
     0
  9
$OBSCOLOR
 70
   257
  9
$OBSLTYPE
280
     0
  9
$INTERSECTIONDISPLAY
280
     0
  9
$INTERSECTIONCOLOR
 70
   257
  9
$DIMASSOC
280
     1
  9
$PROJECTNAME
  1

  0
ENDSEC
  0
SECTION
  2
CLASSES
  0
CLASS
  1
ACDBDICTIONARYWDFLT
  2
AcDbDictionaryWithDefault
  3
ObjectDBX Classes
 90
        0
 91
        1
280
     0
281
     0
  0
CLASS
  1
DICTIONARYVAR
  2
AcDbDictionaryVar
  3
ObjectDBX Classes
 90
        0
 91
        2
280
     0
281
     0
  0
ENDSEC
  0
SECTION
  2
TABLES
  0
TABLE
  2
VPORT
  5
8
330
0
100
AcDbSymbolTable
 70
     2
  0
VPORT
  5
11E0
330
8
100
AcDbSymbolTableRecord
100
AcDbViewportTableRecord
  2
*Active
 70
     0
 10
0.0
 20
0.0
 11
1.0
 21
1.0
 12
296.9773455393139
 22
419.967963388929
 13
0.0
 23
0.0
 14
1.0
 24
1.0
 15
10.0
 25
10.0
 16
0.0
 26
0.0
 36
1.0
 17
0.0
 27
0.0
 37
0.0
 40
846.8479094261235
 41
1.336927223719676
 42
50.0
 43
0.0
 44
0.0
 50
0.0
 51
0.0
 71
     0
 72
  1500
 73
     1
 74
     0
 75
     0
 76
     0
 77
     0
 78
     0
281
     0
 65
     1
110
0.0
120
0.0
130
0.0
111
1.0
121
0.0
131
0.0
112
0.0
122
1.0
132
0.0
 79
     0
146
0.0
  0
ENDTAB
  0
TABLE
  2
LTYPE
  5
5
330
0
100
AcDbSymbolTable
 70
     3
  0
LTYPE
  5
13
330
5
100
AcDbSymbolTableRecord
100
AcDbLinetypeTableRecord
  2
ByBlock
 70
     0
  3

 72
    65
 73
     0
 40
0.0
  0
LTYPE
  5
14
330
5
100
AcDbSymbolTableRecord
100
AcDbLinetypeTableRecord
  2
ByLayer
 70
     0
  3

 72
    65
 73
     0
 40
0.0
  0
LTYPE
  5
15
330
5
100
AcDbSymbolTableRecord
100
AcDbLinetypeTableRecord
  2
Continuous
 70
     0
  3
Solid line
 72
    65
 73
     0
 40
0.0
  0
LTYPE
  5
25
330
5
100
AcDbSymbolTableRecord
100
AcDbLinetypeTableRecord
  2
STRICHPUNKT
 70
     0
  3
__ . __ . __ . __ . __ . __ . __ . __ . __ . __
 72
    65
 73
     4
 40
1.0
 49
0.5
 74
     0
 49
-0.25
 74
     0
 49
0.0
 74
     0
 49
-0.25
 74
     0
  0
LTYPE
  5
34
330
5
100
AcDbSymbolTableRecord
100
AcDbLinetypeTableRecord
  2
AUSGEZOGEN
 70
     0
  3
Ausgezogene Linie
 72
    65
 73
     0
 40
0.0
  0
ENDTAB
  0
TABLE
  2
LAYER
  5
2
330
0
100
AcDbSymbolTable
 70
     9
  0
LAYER
  5
10
330
2
100
AcDbSymbolTableRecord
100
AcDbLayerTableRecord
  2
0
 70
     0
 62
     7
  6
Continuous
370
    -3
390
F
  0
LAYER
  5
2B
330
2
100
AcDbSymbolTableRecord
100
AcDbLayerTableRecord
  2
VOLL
 70
     0
 62
     1
  6
Continuous
370
    -3
390
F
  0
LAYER
  5
2C
330
2
100
AcDbSymbolTableRecord
100
AcDbLayerTableRecord
  2
HILF
 70
     0
 62
     2
  6
Continuous
370
    -3
390
F
  0
LAYER
  5
2D
330
2
100
AcDbSymbolTableRecord
100
AcDbLayerTableRecord
  2
MITTEL
 70
     0
 62
     2
  6
STRICHPUNKT
370
    -3
390
F
  0
LAYER
  5
2F
330
2
100
AcDbSymbolTableRecord
100
AcDbLayerTableRecord
  2
BEM
 70
     0
 62
     7
  6
Continuous
370
    -3
390
F
  0
LAYER
  5
30
330
2
100
AcDbSymbolTableRecord
100
AcDbLayerTableRecord
  2
STEMPEL
 70
     0
 62
     3
  6
Continuous
370
    -3
390
F
  0
LAYER
  5
33
330
2
100
AcDbSymbolTableRecord
100
AcDbLayerTableRecord
  2
TEXT
 70
     0
 62
     7
  6
Continuous
370
    -3
390
F
  0
LAYER
  5
1D6
330
2
100
AcDbSymbolTableRecord
100
AcDbLayerTableRecord
  2
DEFPOINTS
 70
     0
 62
     7
  6
AUSGEZOGEN
290
     0
370
    -3
390
F
  0
LAYER
  5
1D7
330
2
100
AcDbSymbolTableRecord
100
AcDbLayerTableRecord
  2
SCHRAFF
 70
     0
 62
     7
  6
AUSGEZOGEN
370
    -3
390
F
  0
ENDTAB
  0
TABLE
  2
STYLE
  5
3
330
0
100
AcDbSymbolTable
 70
     2
  0
STYLE
  5
11
330
3
100
AcDbSymbolTableRecord
100
AcDbTextStyleTableRecord
  2
STANDARD
 70
     0
 40
0.0
 41
0.8
 50
0.0
 71
     0
 42
3.5
  3
simplex.shx
  4

  0
STYLE
  5
24
330
3
100
AcDbSymbolTableRecord
100
AcDbTextStyleTableRecord
  2
GREEKS
 70
     0
 40
0.0
 41
0.8
 50
0.0
 71
     0
 42
2.5
  3
SIMPLEX.shx
  4

  0
ENDTAB
  0
TABLE
  2
VIEW
  5
6
330
0
100
AcDbSymbolTable
 70
     0
  0
ENDTAB
  0
TABLE
  2
UCS
  5
7
330
0
100
AcDbSymbolTable
 70
     0
  0
ENDTAB
  0
TABLE
  2
APPID
  5
9
330
0
100
AcDbSymbolTable
 70
     1
  0
APPID
  5
12
330
9
100
AcDbSymbolTableRecord
100
AcDbRegAppTableRecord
  2
ACAD
 70
     0
  0
ENDTAB
  0
TABLE
  2
DIMSTYLE
  5
A
330
0
100
AcDbSymbolTable
 70
     1
100
AcDbDimStyleTable
 71
     1
340
A2
  0
DIMSTYLE
105
A2
102
{ACAD_REACTORS
330
AF2
330
B00
330
DC5
330
DD0
330
DD8
330
F9F
330
AF7
330
1144
330
1133
330
1167
102
}
330
A
100
AcDbSymbolTableRecord
100
AcDbDimStyleTableRecord
  2
Standard
 70
     0
340
11
  0
ENDTAB
  0
TABLE
  2
BLOCK_RECORD
  5
1
330
0
100
AcDbSymbolTable
 70
    11
  0
BLOCK_RECORD
  5
1E
102
{ACAD_XDICTIONARY
360
DB
102
}
330
1
100
AcDbSymbolTableRecord
100
AcDbBlockTableRecord
  2
*Model_Space
340
21
  0
BLOCK_RECORD
  5
1A
102
{ACAD_XDICTIONARY
360
DD
102
}
330
1
100
AcDbSymbolTableRecord
100
AcDbBlockTableRecord
  2
*Paper_Space
340
1D
  0
BLOCK_RECORD
  5
22
330
1
100
AcDbSymbolTableRecord
100
AcDbBlockTableRecord
  2
LOGO
340
0
102
{BLKREFS
331
75D
102
}
  0
BLOCK_RECORD
  5
B06
330
1
100
AcDbSymbolTableRecord
100
AcDbBlockTableRecord
  2
*D1
340
0
  0
BLOCK_RECORD
  5
B12
330
1
100
AcDbSymbolTableRecord
100
AcDbBlockTableRecord
  2
*D2
340
0
  0
BLOCK_RECORD
  5
B1E
330
1
100
AcDbSymbolTableRecord
100
AcDbBlockTableRecord
  2
*D3
340
0
  0
BLOCK_RECORD
  5
F56
330
1
100
AcDbSymbolTableRecord
100
AcDbBlockTableRecord
  2
*D4
340
0
  0
BLOCK_RECORD
  5
F62
330
1
100
AcDbSymbolTableRecord
100
AcDbBlockTableRecord
  2
*D5
340
0
  0
BLOCK_RECORD
  5
F6E
330
1
100
AcDbSymbolTableRecord
100
AcDbBlockTableRecord
  2
*D6
340
0
  0
BLOCK_RECORD
  5
FA0
330
1
100
AcDbSymbolTableRecord
100
AcDbBlockTableRecord
  2
*D7
340
0
  0
BLOCK_RECORD
  5
1169
330
1
100
AcDbSymbolTableRecord
100
AcDbBlockTableRecord
  2
*D8
340
0
  0
BLOCK_RECORD
  5
1175
330
1
100
AcDbSymbolTableRecord
100
AcDbBlockTableRecord
  2
*D9
340
0
  0
BLOCK_RECORD
  5
1181
330
1
100
AcDbSymbolTableRecord
100
AcDbBlockTableRecord
  2
*D10
340
0
  0
ENDTAB
  0
ENDSEC
  0
SECTION
  2
BLOCKS
  0
BLOCK
  5
37
330
1E
100
AcDbEntity
  8
0
100
AcDbBlockBegin
  2
*Model_Space
 70
     0
 10
0.0
 20
0.0
 30
0.0
  3
*Model_Space
  1

  0
ENDBLK
  5
38
330
1E
100
AcDbEntity
  8
0
100
AcDbBlockEnd
  0
BLOCK
  5
35
330
1A
100
AcDbEntity
 67
     1
  8
0
100
AcDbBlockBegin
  2
*Paper_Space
 70
     0
 10
0.0
 20
0.0
 30
0.0
  3
*Paper_Space
  1

  0
ENDBLK
  5
36
330
1A
100
AcDbEntity
 67
     1
  8
0
100
AcDbBlockEnd
  0
BLOCK
  5
39
330
22
100
AcDbEntity
  8
0
100
AcDbBlockBegin
  2
LOGO
 70
     0
 10
0.0
 20
0.0
 30
0.0
  3
LOGO
  1

  0
ARC
  5
3A
330
22
100
AcDbEntity
  8
0
100
AcDbCircle
 10
11.59973089678112
 20
-9.271599258481501
 30
0.0
 40
4.5
100
AcDbArc
 50
270.0
 51
231.0575587310159
  0
LINE
  5
3B
330
22
100
AcDbEntity
  8
0
100
AcDbLine
 10
3.599730896781125
 20
-4.771599258481529
 30
0.0
 11
3.599730896781153
 21
-11.77159925848133
 31
0.0
  0
LINE
  5
3C
330
22
100
AcDbEntity
  8
0
100
AcDbLine
 10
2.599730896781125
 20
-4.771599258481529
 30
0.0
 11
2.599730896781153
 21
-11.77159925848133
 31
0.0
  0
CIRCLE
  5
3D
330
22
100
AcDbEntity
  8
0
100
AcDbCircle
 10
11.59973089678112
 20
-9.271599258481501
 30
0.0
 40
3.5
  0
ARC
  5
3E
330
22
100
AcDbEntity
  8
0
100
AcDbCircle
 10
31.59973089678115
 20
-9.271599258481472
 30
0.0
 40
4.5
100
AcDbArc
 50
270.0
 51
231.0575587310182
  0
LINE
  5
3F
330
22
100
AcDbEntity
  8
0
100
AcDbLine
 10
17.59973089678112
 20
-4.771599258481472
 30
0.0
 11
17.59973089678115
 21
-13.77159925848147
 31
0.0
  0
ARC
  5
40
330
22
100
AcDbEntity
  8
0
100
AcDbCircle
 10
22.59973089678116
 20
-7.271599258481472
 30
0.0
 40
2.5
100
AcDbArc
 50
293.1161887722295
 51
90.0
  0
CIRCLE
  5
41
330
22
100
AcDbEntity
  8
0
100
AcDbCircle
 10
31.59973089678115
 20
-9.271599258481472
 30
0.0
 40
3.5
  0
ARC
  5
42
330
22
100
AcDbEntity
  8
0
100
AcDbCircle
 10
4.599730896781153
 20
-11.77159925848133
 30
0.0
 40
1.0
100
AcDbArc
 50
180.0
 51
270.0
  0
ARC
  5
43
330
22
100
AcDbEntity
  8
0
100
AcDbCircle
 10
4.599730896781153
 20
-11.77159925848133
 30
0.0
 40
2.0
100
AcDbArc
 50
179.9999999999992
 51
270.0
  0
LINE
  5
44
330
22
100
AcDbEntity
  8
0
100
AcDbLine
 10
11.59973089678115
 20
-13.77159925848144
 30
0.0
 11
4.599730896781153
 21
-13.77159925848147
 31
0.0
  0
LINE
  5
45
330
22
100
AcDbEntity
  8
0
100
AcDbLine
 10
8.771303772034769
 20
-12.77159925848136
 30
0.0
 11
4.599730896781153
 21
-12.77159925848133
 31
0.0
  0
LINE
  5
46
330
22
100
AcDbEntity
  8
0
100
AcDbLine
 10
31.59973089678115
 20
-13.77159925848147
 30
0.0
 11
23.6715276665056
 21
-13.77159925848144
 31
0.0
  0
LINE
  5
47
330
22
100
AcDbEntity
  8
0
100
AcDbLine
 10
23.56565672307022
 20
-9.51278021337896
 30
0.0
 11
24.4388546544846
 21
-12.77159925848144
 31
0.0
  0
LINE
  5
48
330
22
100
AcDbEntity
  8
0
100
AcDbLine
 10
22.59973089678116
 20
-9.771599258481472
 30
0.0
 11
18.59973089678112
 21
-9.771599258481472
 31
0.0
  0
LINE
  5
49
330
22
100
AcDbEntity
  8
0
100
AcDbLine
 10
18.59973089678115
 20
-13.77159925848144
 30
0.0
 11
17.59973089678115
 21
-13.77159925848144
 31
0.0
  0
LINE
  5
4A
330
22
100
AcDbEntity
  8
0
100
AcDbLine
 10
18.59973089678115
 20
-9.771599258481472
 30
0.0
 11
18.59973089678115
 21
-13.77159925848144
 31
0.0
  0
LINE
  5
4B
330
22
100
AcDbEntity
  8
0
100
AcDbLine
 10
22.59973089678116
 20
-9.771599258481472
 30
0.0
 11
23.67152766650562
 21
-13.77159925848147
 31
0.0
  0
ARC
  5
4C
330
22
100
AcDbEntity
  8
0
100
AcDbCircle
 10
22.59973089678116
 20
-7.271599258481472
 30
0.0
 40
2.5
100
AcDbArc
 50
270.0
 51
270.0000000000007
  0
LINE
  5
4D
330
22
100
AcDbEntity
  8
0
100
AcDbLine
 10
28.77130377203494
 20
-12.77159925848147
 30
0.0
 11
24.43885465448463
 21
-12.77159925848144
 31
0.0
  0
LINE
  5
4E
330
22
100
AcDbEntity
  8
0
100
AcDbLine
 10
3.599730896781125
 20
-4.771599258481472
 30
0.0
 11
2.599730896781125
 21
-4.771599258481472
 31
0.0
  0
LINE
  5
4F
330
22
100
AcDbEntity
  8
0
100
AcDbLine
 10
22.59973089678116
 20
-8.771599258481472
 30
0.0
 11
18.59973089678115
 21
-8.771599258481472
 31
0.0
  0
LINE
  5
50
330
22
100
AcDbEntity
  8
0
100
AcDbLine
 10
22.59973089678116
 20
-5.771599258481472
 30
0.0
 11
18.59973089678115
 21
-5.771599258481472
 31
0.0
  0
LINE
  5
51
330
22
100
AcDbEntity
  8
0
100
AcDbLine
 10
22.59973089678116
 20
-4.771599258481472
 30
0.0
 11
17.59973089678115
 21
-4.771599258481472
 31
0.0
  0
LINE
  5
52
330
22
100
AcDbEntity
  8
0
100
AcDbLine
 10
18.59973089678115
 20
-5.771599258481472
 30
0.0
 11
18.59973089678115
 21
-8.771599258481472
 31
0.0
  0
ARC
  5
53
330
22
100
AcDbEntity
  8
0
100
AcDbCircle
 10
22.59973089678116
 20
-7.271599258481472
 30
0.0
 40
1.5
100
AcDbArc
 50
270.0
 51
90.0
  0
ENDBLK
  5
54
330
22
100
AcDbEntity
  8
0
100
AcDbBlockEnd
  0
BLOCK
  5
B10
330
B06
100
AcDbEntity
  8
0
100
AcDbBlockBegin
  2
*D1
 70
     1
 10
0.0
 20
0.0
 30
0.0
  3
*D1
  1

  0
LINE
  5
107D
330
B06
100
AcDbEntity
  8
BEM
 62
     0
370
    -2
100
AcDbLine
 10
157.3929208372051
 20
158.4657489968666
 30
0.0
 11
33.55728744791366
 21
158.4657489968666
 31
0.0
  0
LINE
  5
107E
330
B06
100
AcDbEntity
  8
BEM
 62
     0
370
    -2
100
AcDbLine
 10
57.40561355726436
 20
438.4657489968667
 30
0.0
 11
33.55728744791373
 21
438.4657489968667
 31
0.0
  0
LINE
  5
107F
330
B06
100
AcDbEntity
  8
BEM
 62
     0
370
    -2
100
AcDbLine
 10
35.55728744791366
 20
165.4657489968666
 30
0.0
 11
35.55728744791372
 21
431.4657489968666
 31
0.0
  0
SOLID
  5
1080
330
B06
100
AcDbEntity
  8
BEM
 62
     0
100
AcDbTrace
 10
34.39062078124699
 20
165.4657489968666
 30
0.0
 11
36.72395411458032
 21
165.4657489968666
 31
0.0
 12
35.55728744791366
 22
158.4657489968666
 32
0.0
 13
35.55728744791366
 23
158.4657489968666
 33
0.0
  0
SOLID
  5
1081
330
B06
100
AcDbEntity
  8
BEM
 62
     0
100
AcDbTrace
 10
34.39062078124705
 20
431.4657489968666
 30
0.0
 11
36.72395411458038
 21
431.4657489968666
 31
0.0
 12
35.55728744791372
 22
438.4657489968667
 32
0.0
 13
35.55728744791372
 23
438.4657489968667
 33
0.0
  0
MTEXT
  5
1082
330
B06
100
AcDbEntity
  8
BEM
 62
     1
100
AcDbMText
 10
30.05728744791364
 20
298.4657489968667
 30
0.0
 40
7.0
 41
0.0
 71
     5
 72
     1
  1
\A1;280
  7
GREEKS
 11
0.0000000000000001
 21
1.0
 31
0.0
 73
     1
 44
1.0
  0
POINT
  5
1083
330
B06
100
AcDbEntity
  8
DEFPOINTS
 62
     0
100
AcDbPoint
 10
159.3929208372051
 20
158.4657489968666
 30
0.0
  0
POINT
  5
1084
330
B06
100
AcDbEntity
  8
DEFPOINTS
 62
     0
100
AcDbPoint
 10
59.40561355726436
 20
438.4657489968667
 30
0.0
  0
POINT
  5
1085
330
B06
100
AcDbEntity
  8
DEFPOINTS
 62
     0
100
AcDbPoint
 10
35.55728744791372
 20
438.4657489968667
 30
0.0
  0
ENDBLK
  5
B11
330
B06
100
AcDbEntity
  8
0
100
AcDbBlockEnd
  0
BLOCK
  5
B1C
330
B12
100
AcDbEntity
  8
0
100
AcDbBlockBegin
  2
*D2
 70
     1
 10
0.0
 20
0.0
 30
0.0
  3
*D2
  1

  0
LINE
  5
108F
330
B12
100
AcDbEntity
  8
BEM
 62
     0
370
    -2
100
AcDbLine
 10
59.40561355726436
 20
443.4657489968667
 30
0.0
 11
59.40561355726436
 21
486.9117452447952
 31
0.0
  0
LINE
  5
1090
330
B12
100
AcDbEntity
  8
BEM
 62
     0
370
    -2
100
AcDbLine
 10
389.4056135572639
 20
443.4657489968667
 30
0.0
 11
389.4056135572639
 21
486.9117452447952
 31
0.0
  0
LINE
  5
1091
330
B12
100
AcDbEntity
  8
BEM
 62
     0
370
    -2
100
AcDbLine
 10
66.40561355726436
 20
484.9117452447952
 30
0.0
 11
382.4056135572639
 21
484.9117452447952
 31
0.0
  0
SOLID
  5
1092
330
B12
100
AcDbEntity
  8
BEM
 62
     0
100
AcDbTrace
 10
66.40561355726436
 20
486.0784119114619
 30
0.0
 11
66.40561355726436
 21
483.7450785781284
 31
0.0
 12
59.40561355726436
 22
484.9117452447952
 32
0.0
 13
59.40561355726436
 23
484.9117452447952
 33
0.0
  0
SOLID
  5
1093
330
B12
100
AcDbEntity
  8
BEM
 62
     0
100
AcDbTrace
 10
382.4056135572639
 20
486.0784119114619
 30
0.0
 11
382.4056135572639
 21
483.7450785781284
 31
0.0
 12
389.4056135572639
 22
484.9117452447952
 32
0.0
 13
389.4056135572639
 23
484.9117452447952
 33
0.0
  0
MTEXT
  5
1094
330
B12
100
AcDbEntity
  8
BEM
 62
     1
100
AcDbMText
 10
224.4056135572641
 20
491.4117452447952
 30
0.0
 40
7.0
 41
0.0
 71
     5
 72
     1
  1
\A1;%%c330
 73
     1
 44
1.0
  0
POINT
  5
1095
330
B12
100
AcDbEntity
  8
DEFPOINTS
 62
     0
100
AcDbPoint
 10
59.40561355726436
 20
441.4657489968667
 30
0.0
  0
POINT
  5
1096
330
B12
100
AcDbEntity
  8
DEFPOINTS
 62
     0
100
AcDbPoint
 10
389.4056135572639
 20
441.4657489968667
 30
0.0
  0
POINT
  5
1097
330
B12
100
AcDbEntity
  8
DEFPOINTS
 62
     0
100
AcDbPoint
 10
389.4056135572639
 20
484.9117452447952
 30
0.0
  0
ENDBLK
  5
B1D
330
B12
100
AcDbEntity
  8
0
100
AcDbBlockEnd
  0
BLOCK
  5
B28
330
B1E
100
AcDbEntity
  8
0
100
AcDbBlockBegin
  2
*D3
 70
     1
 10
0.0
 20
0.0
 30
0.0
  3
*D3
  1

  0
LINE
  5
106B
330
B1E
100
AcDbEntity
  8
BEM
 62
     0
370
    -2
100
AcDbLine
 10
157.9056135572643
 20
173.465748996867
 30
0.0
 11
157.9056135572643
 21
137.6721034881909
 31
0.0
  0
LINE
  5
106C
330
B1E
100
AcDbEntity
  8
BEM
 62
     0
370
    -2
100
AcDbLine
 10
290.9056135572644
 20
173.4657489968731
 30
0.0
 11
290.9056135572644
 21
137.6721034881909
 31
0.0
  0
LINE
  5
106D
330
B1E
100
AcDbEntity
  8
BEM
 62
     0
370
    -2
100
AcDbLine
 10
164.9056135572643
 20
139.6721034881909
 30
0.0
 11
283.9056135572644
 21
139.6721034881909
 31
0.0
  0
SOLID
  5
106E
330
B1E
100
AcDbEntity
  8
BEM
 62
     0
100
AcDbTrace
 10
164.9056135572643
 20
140.8387701548575
 30
0.0
 11
164.9056135572643
 21
138.5054368215242
 31
0.0
 12
157.9056135572643
 22
139.6721034881909
 32
0.0
 13
157.9056135572643
 23
139.6721034881909
 33
0.0
  0
SOLID
  5
106F
330
B1E
100
AcDbEntity
  8
BEM
 62
     0
100
AcDbTrace
 10
283.9056135572644
 20
140.8387701548575
 30
0.0
 11
283.9056135572644
 21
138.5054368215242
 31
0.0
 12
290.9056135572644
 22
139.6721034881909
 32
0.0
 13
290.9056135572644
 23
139.6721034881909
 33
0.0
  0
MTEXT
  5
1070
330
B1E
100
AcDbEntity
  8
BEM
 62
     1
100
AcDbMText
 10
224.4056135572644
 20
145.1721034881909
 30
0.0
 40
7.0
 41
0.0
 71
     5
 72
     1
  1
\A1;%%c133
  7
GREEKS
 73
     1
 44
1.0
  0
POINT
  5
1071
330
B1E
100
AcDbEntity
  8
DEFPOINTS
 62
     0
100
AcDbPoint
 10
157.9056135572643
 20
175.465748996867
 30
0.0
  0
POINT
  5
1072
330
B1E
100
AcDbEntity
  8
DEFPOINTS
 62
     0
100
AcDbPoint
 10
290.9056135572644
 20
175.4657489968731
 30
0.0
  0
POINT
  5
1073
330
B1E
100
AcDbEntity
  8
DEFPOINTS
 62
     0
100
AcDbPoint
 10
290.9056135572644
 20
139.6721034881909
 30
0.0
  0
ENDBLK
  5
B29
330
B1E
100
AcDbEntity
  8
0
100
AcDbBlockEnd
  0
BLOCK
  5
F60
330
F56
100
AcDbEntity
  8
0
100
AcDbBlockBegin
  2
*D4
 70
     1
 10
0.0
 20
0.0
 30
0.0
  3
*D4
  1

  0
LINE
  5
1062
330
F56
100
AcDbEntity
  8
BEM
 62
     0
370
    -2
100
AcDbLine
 10
114.4056135572641
 20
688.4108356373912
 30
0.0
 11
114.4056135572641
 21
716.4915401807132
 31
0.0
  0
LINE
  5
1063
330
F56
100
AcDbEntity
  8
BEM
 62
     0
370
    -2
100
AcDbLine
 10
334.4056135572643
 20
688.4108356373912
 30
0.0
 11
334.4056135572643
 21
716.4915401807132
 31
0.0
  0
LINE
  5
1064
330
F56
100
AcDbEntity
  8
BEM
 62
     0
370
    -2
100
AcDbLine
 10
121.4056135572641
 20
714.4915401807131
 30
0.0
 11
327.4056135572644
 21
714.4915401807131
 31
0.0
  0
SOLID
  5
1065
330
F56
100
AcDbEntity
  8
BEM
 62
     0
100
AcDbTrace
 10
121.4056135572641
 20
715.6582068473798
 30
0.0
 11
121.4056135572641
 21
713.3248735140465
 31
0.0
 12
114.4056135572641
 22
714.4915401807131
 32
0.0
 13
114.4056135572641
 23
714.4915401807131
 33
0.0
  0
SOLID
  5
1066
330
F56
100
AcDbEntity
  8
BEM
 62
     0
100
AcDbTrace
 10
327.4056135572644
 20
715.6582068473798
 30
0.0
 11
327.4056135572644
 21
713.3248735140465
 31
0.0
 12
334.4056135572643
 22
714.4915401807131
 32
0.0
 13
334.4056135572643
 23
714.4915401807131
 33
0.0
  0
MTEXT
  5
1067
330
F56
100
AcDbEntity
  8
BEM
 62
     1
100
AcDbMText
 10
224.4056135572642
 20
719.9915401807132
 30
0.0
 40
7.0
 41
0.0
 71
     5
 72
     1
  1
\A1;%%c220
  7
GREEKS
 73
     1
 44
1.0
  0
POINT
  5
1068
330
F56
100
AcDbEntity
  8
DEFPOINTS
 62
     0
100
AcDbPoint
 10
114.4056135572641
 20
686.4108356373913
 30
0.0
  0
POINT
  5
1069
330
F56
100
AcDbEntity
  8
DEFPOINTS
 62
     0
100
AcDbPoint
 10
334.4056135572643
 20
686.4108356373913
 30
0.0
  0
POINT
  5
106A
330
F56
100
AcDbEntity
  8
DEFPOINTS
 62
     0
100
AcDbPoint
 10
334.4056135572643
 20
714.4915401807131
 30
0.0
  0
ENDBLK
  5
F61
330
F56
100
AcDbEntity
  8
0
100
AcDbBlockEnd
  0
BLOCK
  5
F6C
330
F62
100
AcDbEntity
  8
0
100
AcDbBlockBegin
  2
*D5
 70
     1
 10
0.0
 20
0.0
 30
0.0
  3
*D5
  1

  0
LINE
  5
1059
330
F62
100
AcDbEntity
  8
BEM
 62
     0
370
    -2
100
AcDbLine
 10
59.40561355726413
 20
595.9108936047066
 30
0.0
 11
59.40561355726414
 21
732.2322454504947
 31
0.0
  0
LINE
  5
105A
330
F62
100
AcDbEntity
  8
BEM
 62
     0
370
    -2
100
AcDbLine
 10
389.405613557264
 20
595.9108936047065
 30
0.0
 11
389.405613557264
 21
732.2322454504947
 31
0.0
  0
LINE
  5
105B
330
F62
100
AcDbEntity
  8
BEM
 62
     0
370
    -2
100
AcDbLine
 10
66.40561355726413
 20
729.2322454504946
 30
0.0
 11
382.405613557264
 21
729.2322454504946
 31
0.0
  0
SOLID
  5
105C
330
F62
100
AcDbEntity
  8
BEM
 62
     0
100
AcDbTrace
 10
66.40561355726413
 20
730.3989121171613
 30
0.0
 11
66.40561355726413
 21
728.0655787838281
 31
0.0
 12
59.40561355726414
 22
729.2322454504946
 32
0.0
 13
59.40561355726414
 23
729.2322454504946
 33
0.0
  0
SOLID
  5
105D
330
F62
100
AcDbEntity
  8
BEM
 62
     0
100
AcDbTrace
 10
382.405613557264
 20
730.3989121171613
 30
0.0
 11
382.405613557264
 21
728.0655787838281
 31
0.0
 12
389.405613557264
 22
729.2322454504946
 32
0.0
 13
389.405613557264
 23
729.2322454504946
 33
0.0
  0
MTEXT
  5
105E
330
F62
100
AcDbEntity
  8
BEM
 62
     1
100
AcDbMText
 10
224.4056135572641
 20
734.7322454504947
 30
0.0
 40
7.0
 41
0.0
 71
     5
 72
     1
  1
\A1;%%c330
  7
GREEKS
 73
     1
 44
1.0
  0
POINT
  5
105F
330
F62
100
AcDbEntity
  8
DEFPOINTS
 62
     0
100
AcDbPoint
 10
59.40561355726413
 20
593.9108936047066
 30
0.0
  0
POINT
  5
1060
330
F62
100
AcDbEntity
  8
DEFPOINTS
 62
     0
100
AcDbPoint
 10
389.405613557264
 20
593.9108936047065
 30
0.0
  0
POINT
  5
1061
330
F62
100
AcDbEntity
  8
DEFPOINTS
 62
     0
100
AcDbPoint
 10
389.405613557264
 20
729.2322454504946
 30
0.0
  0
ENDBLK
  5
F6D
330
F62
100
AcDbEntity
  8
0
100
AcDbBlockEnd
  0
BLOCK
  5
F78
330
F6E
100
AcDbEntity
  8
0
100
AcDbBlockBegin
  2
*D6
 70
     1
 10
0.0
 20
0.0
 30
0.0
  3
*D6
  1

  0
LINE
  5
1050
330
F6E
100
AcDbEntity
  8
BEM
 62
     0
370
    -2
100
AcDbLine
 10
65.40561355726402
 20
596.4108936047065
 30
0.0
 11
32.69165250585636
 21
596.4108936047065
 31
0.0
  0
LINE
  5
1051
330
F6E
100
AcDbEntity
  8
BEM
 62
     0
370
    -2
100
AcDbLine
 10
142.4056135572641
 20
706.4108936047059
 30
0.0
 11
32.69165250585639
 21
706.4108936047059
 31
0.0
  0
LINE
  5
1052
330
F6E
100
AcDbEntity
  8
BEM
 62
     0
370
    -2
100
AcDbLine
 10
35.69165250585636
 20
603.4108936047065
 30
0.0
 11
35.69165250585638
 21
699.410893604706
 31
0.0
  0
SOLID
  5
1053
330
F6E
100
AcDbEntity
  8
BEM
 62
     0
100
AcDbTrace
 10
34.5249858391897
 20
603.4108936047065
 30
0.0
 11
36.85831917252303
 21
603.4108936047065
 31
0.0
 12
35.69165250585636
 22
596.4108936047065
 32
0.0
 13
35.69165250585636
 23
596.4108936047065
 33
0.0
  0
SOLID
  5
1054
330
F6E
100
AcDbEntity
  8
BEM
 62
     0
100
AcDbTrace
 10
34.52498583918972
 20
699.410893604706
 30
0.0
 11
36.85831917252305
 21
699.410893604706
 31
0.0
 12
35.69165250585638
 22
706.4108936047059
 32
0.0
 13
35.69165250585638
 23
706.4108936047059
 33
0.0
  0
MTEXT
  5
1055
330
F6E
100
AcDbEntity
  8
BEM
 62
     1
100
AcDbMText
 10
30.19165250585627
 20
651.4108936047062
 30
0.0
 40
7.0
 41
0.0
 71
     5
 72
     1
  1
\A1;110
  7
GREEKS
 11
0.0000000000000001
 21
1.0
 31
0.0
 73
     1
 44
1.0
  0
POINT
  5
1056
330
F6E
100
AcDbEntity
  8
DEFPOINTS
 62
     0
100
AcDbPoint
 10
67.40561355726402
 20
596.4108936047065
 30
0.0
  0
POINT
  5
1057
330
F6E
100
AcDbEntity
  8
DEFPOINTS
 62
     0
100
AcDbPoint
 10
144.4056135572641
 20
706.4108936047059
 30
0.0
  0
POINT
  5
1058
330
F6E
100
AcDbEntity
  8
DEFPOINTS
 62
     0
100
AcDbPoint
 10
35.69165250585638
 20
706.4108936047059
 30
0.0
  0
ENDBLK
  5
F79
330
F6E
100
AcDbEntity
  8
0
100
AcDbBlockEnd
  0
BLOCK
  5
FAA
330
FA0
100
AcDbEntity
  8
0
100
AcDbBlockBegin
  2
*D7
 70
     1
 10
0.0
 20
0.0
 30
0.0
  3
*D7
  1

  0
LINE
  5
1047
330
FA0
100
AcDbEntity
  8
BEM
 62
     0
370
    -2
100
AcDbLine
 10
57.40561355726436
 20
438.4657489968667
 30
0.0
 11
33.55728744791369
 21
438.4657489968667
 31
0.0
  0
LINE
  5
1048
330
FA0
100
AcDbEntity
  8
BEM
 62
     0
370
    -2
100
AcDbLine
 10
57.40561355726402
 20
590.9108936047066
 30
0.0
 11
33.55728744791373
 21
590.9108936047066
 31
0.0
  0
LINE
  5
1049
330
FA0
100
AcDbEntity
  8
BEM
 62
     0
370
    -2
100
AcDbLine
 10
35.5572874479137
 20
445.4657489968666
 30
0.0
 11
35.55728744791372
 21
583.9108936047066
 31
0.0
  0
SOLID
  5
104A
330
FA0
100
AcDbEntity
  8
BEM
 62
     0
100
AcDbTrace
 10
34.39062078124703
 20
445.4657489968666
 30
0.0
 11
36.72395411458036
 21
445.4657489968666
 31
0.0
 12
35.5572874479137
 22
438.4657489968667
 32
0.0
 13
35.5572874479137
 23
438.4657489968667
 33
0.0
  0
SOLID
  5
104B
330
FA0
100
AcDbEntity
  8
BEM
 62
     0
100
AcDbTrace
 10
34.39062078124706
 20
583.9108936047066
 30
0.0
 11
36.72395411458039
 21
583.9108936047066
 31
0.0
 12
35.55728744791372
 22
590.9108936047066
 32
0.0
 13
35.55728744791372
 23
590.9108936047066
 33
0.0
  0
MTEXT
  5
104C
330
FA0
100
AcDbEntity
  8
BEM
 62
     1
100
AcDbMText
 10
29.05728744791363
 20
514.6883213007867
 30
0.0
 40
7.0
 41
0.0
 71
     5
 72
     1
  1
\A1;min.35 - max.200
 11
0.0000000000000001
 21
1.0
 31
0.0
 73
     1
 44
1.0
  0
POINT
  5
104D
330
FA0
100
AcDbEntity
  8
DEFPOINTS
 62
     0
100
AcDbPoint
 10
59.40561355726436
 20
438.4657489968667
 30
0.0
  0
POINT
  5
104E
330
FA0
100
AcDbEntity
  8
DEFPOINTS
 62
     0
100
AcDbPoint
 10
59.40561355726401
 20
590.9108936047066
 30
0.0
  0
POINT
  5
104F
330
FA0
100
AcDbEntity
  8
DEFPOINTS
 62
     0
100
AcDbPoint
 10
35.55728744791372
 20
590.9108936047066
 30
0.0
  0
ENDBLK
  5
FAB
330
FA0
100
AcDbEntity
  8
0
100
AcDbBlockEnd
  0
BLOCK
  5
1173
330
1169
100
AcDbEntity
  8
0
100
AcDbBlockBegin
  2
*D8
 70
     1
 10
0.0
 20
0.0
 30
0.0
  3
*D8
  1

  0
LINE
  5
11C5
330
1169
100
AcDbEntity
  8
BEM
 62
     0
370
    -2
100
AcDbLine
 10
129.4056135572641
 20
273.4657489968658
 30
0.0
 11
129.4056135572641
 21
251.8452922901578
 31
0.0
  0
LINE
  5
11C6
330
1169
100
AcDbEntity
  8
BEM
 62
     0
370
    -2
100
AcDbLine
 10
319.4056135572641
 20
273.4657489968658
 30
0.0
 11
319.4056135572641
 21
251.8452922901578
 31
0.0
  0
LINE
  5
11C7
330
1169
100
AcDbEntity
  8
BEM
 62
     0
370
    -2
100
AcDbLine
 10
136.4056135572641
 20
253.8452922901578
 30
0.0
 11
312.4056135572641
 21
253.8452922901578
 31
0.0
  0
SOLID
  5
11C8
330
1169
100
AcDbEntity
  8
BEM
 62
     0
100
AcDbTrace
 10
136.4056135572641
 20
255.0119589568245
 30
0.0
 11
136.4056135572641
 21
252.6786256234912
 31
0.0
 12
129.4056135572641
 22
253.8452922901578
 32
0.0
 13
129.4056135572641
 23
253.8452922901578
 33
0.0
  0
SOLID
  5
11C9
330
1169
100
AcDbEntity
  8
BEM
 62
     0
100
AcDbTrace
 10
312.4056135572641
 20
255.0119589568245
 30
0.0
 11
312.4056135572641
 21
252.6786256234912
 31
0.0
 12
319.4056135572641
 22
253.8452922901578
 32
0.0
 13
319.4056135572641
 23
253.8452922901578
 33
0.0
  0
MTEXT
  5
11CA
330
1169
100
AcDbEntity
  8
BEM
 62
     1
100
AcDbMText
 10
224.4056135572641
 20
260.3452922901578
 30
0.0
 40
7.0
 41
0.0
 71
     5
 72
     1
  1
\A1;%%c190
 73
     1
 44
1.0
  0
POINT
  5
11CB
330
1169
100
AcDbEntity
  8
DEFPOINTS
 62
     0
100
AcDbPoint
 10
129.4056135572641
 20
275.4657489968658
 30
0.0
  0
POINT
  5
11CC
330
1169
100
AcDbEntity
  8
DEFPOINTS
 62
     0
100
AcDbPoint
 10
319.4056135572641
 20
275.4657489968658
 30
0.0
  0
POINT
  5
11CD
330
1169
100
AcDbEntity
  8
DEFPOINTS
 62
     0
100
AcDbPoint
 10
319.4056135572641
 20
253.8452922901578
 30
0.0
  0
ENDBLK
  5
1174
330
1169
100
AcDbEntity
  8
0
100
AcDbBlockEnd
  0
BLOCK
  5
117F
330
1175
100
AcDbEntity
  8
0
100
AcDbBlockBegin
  2
*D9
 70
     1
 10
0.0
 20
0.0
 30
0.0
  3
*D9
  1

  0
LINE
  5
11BB
330
1175
100
AcDbEntity
  8
BEM
 62
     0
370
    -2
100
AcDbLine
 10
114.4056135572641
 20
437.4657489968657
 30
0.0
 11
114.4056135572641
 21
474.0742936534489
 31
0.0
  0
LINE
  5
11BC
330
1175
100
AcDbEntity
  8
BEM
 62
     0
370
    -2
100
AcDbLine
 10
334.405613557264
 20
437.4657489968657
 30
0.0
 11
334.405613557264
 21
474.0742936534489
 31
0.0
  0
LINE
  5
11BD
330
1175
100
AcDbEntity
  8
BEM
 62
     0
370
    -2
100
AcDbLine
 10
121.4056135572641
 20
472.0742936534488
 30
0.0
 11
327.405613557264
 21
472.0742936534488
 31
0.0
  0
SOLID
  5
11BE
330
1175
100
AcDbEntity
  8
BEM
 62
     0
100
AcDbTrace
 10
121.4056135572641
 20
473.2409603201155
 30
0.0
 11
121.4056135572641
 21
470.9076269867821
 31
0.0
 12
114.4056135572641
 22
472.0742936534488
 32
0.0
 13
114.4056135572641
 23
472.0742936534488
 33
0.0
  0
SOLID
  5
11BF
330
1175
100
AcDbEntity
  8
BEM
 62
     0
100
AcDbTrace
 10
327.405613557264
 20
473.2409603201155
 30
0.0
 11
327.405613557264
 21
470.9076269867821
 31
0.0
 12
334.405613557264
 22
472.0742936534488
 32
0.0
 13
334.405613557264
 23
472.0742936534488
 33
0.0
  0
MTEXT
  5
11C0
330
1175
100
AcDbEntity
  8
BEM
 62
     1
100
AcDbMText
 10
224.4056135572641
 20
478.5742936534489
 30
0.0
 40
7.0
 41
0.0
 71
     5
 72
     1
  1
\A1;%%c220
 73
     1
 44
1.0
  0
POINT
  5
11C1
330
1175
100
AcDbEntity
  8
DEFPOINTS
 62
     0
100
AcDbPoint
 10
114.4056135572641
 20
435.4657489968658
 30
0.0
  0
POINT
  5
11C2
330
1175
100
AcDbEntity
  8
DEFPOINTS
 62
     0
100
AcDbPoint
 10
334.405613557264
 20
435.4657489968658
 30
0.0
  0
POINT
  5
11C3
330
1175
100
AcDbEntity
  8
DEFPOINTS
 62
     0
100
AcDbPoint
 10
334.405613557264
 20
472.0742936534488
 30
0.0
  0
ENDBLK
  5
1180
330
1175
100
AcDbEntity
  8
0
100
AcDbBlockEnd
  0
BLOCK
  5
118B
330
1181
100
AcDbEntity
  8
0
100
AcDbBlockBegin
  2
*D10
 70
     1
 10
0.0
 20
0.0
 30
0.0
  3
*D10
  1

  0
LINE
  5
11CE
330
1181
100
AcDbEntity
  8
BEM
 62
     0
370
    -2
100
AcDbLine
 10
130.1375183097619
 20
275.4657489968658
 30
0.0
 11
51.14618999634831
 21
275.4657489968658
 31
0.0
  0
LINE
  5
11CF
330
1181
100
AcDbEntity
  8
BEM
 62
     0
370
    -2
100
AcDbLine
 10
63.76957458794359
 20
435.4657489968666
 30
0.0
 11
51.14618999634834
 21
435.4657489968666
 31
0.0
  0
LINE
  5
11D0
330
1181
100
AcDbEntity
  8
BEM
 62
     0
370
    -2
100
AcDbLine
 10
53.14618999634831
 20
282.4657489968658
 30
0.0
 11
53.14618999634833
 21
428.4657489968666
 31
0.0
  0
SOLID
  5
11D1
330
1181
100
AcDbEntity
  8
BEM
 62
     0
100
AcDbTrace
 10
51.97952332968164
 20
282.4657489968658
 30
0.0
 11
54.31285666301497
 21
282.4657489968658
 31
0.0
 12
53.14618999634831
 22
275.4657489968658
 32
0.0
 13
53.14618999634831
 23
275.4657489968658
 33
0.0
  0
SOLID
  5
11D2
330
1181
100
AcDbEntity
  8
BEM
 62
     0
100
AcDbTrace
 10
51.97952332968167
 20
428.4657489968666
 30
0.0
 11
54.312856663015
 21
428.4657489968666
 31
0.0
 12
53.14618999634834
 22
435.4657489968666
 32
0.0
 13
53.14618999634834
 23
435.4657489968666
 33
0.0
  0
MTEXT
  5
11D3
330
1181
100
AcDbEntity
  8
BEM
 62
     1
100
AcDbMText
 10
46.64618999634826
 20
355.4657489968662
 30
0.0
 40
7.0
 41
0.0
 71
     5
 72
     1
  1
\A1;160
 11
0.0000000000000001
 21
1.0
 31
0.0
 73
     1
 44
1.0
  0
POINT
  5
11D4
330
1181
100
AcDbEntity
  8
DEFPOINTS
 62
     0
100
AcDbPoint
 10
132.1375183097619
 20
275.4657489968658
 30
0.0
  0
POINT
  5
11D5
330
1181
100
AcDbEntity
  8
DEFPOINTS
 62
     0
100
AcDbPoint
 10
65.7695745879436
 20
435.4657489968666
 30
0.0
  0
POINT
  5
11D6
330
1181
100
AcDbEntity
  8
DEFPOINTS
 62
     0
100
AcDbPoint
 10
53.14618999634834
 20
435.4657489968666
 30
0.0
  0
ENDBLK
  5
118C
330
1181
100
AcDbEntity
  8
0
100
AcDbBlockEnd
  0
ENDSEC
  0
SECTION
  2
ENTITIES
  0
LINE
  5
87
330
1E
100
AcDbEntity
  8
HILF
100
AcDbLine
 10
594.0
 20
-0.0000000000000568
 30
0.0
 11
594.0
 21
840.0
 31
0.0
  0
LINE
  5
88
330
1E
100
AcDbEntity
  8
HILF
100
AcDbLine
 10
594.0
 20
840.0
 30
0.0
 11
0.0
 21
840.0
 31
0.0
  0
LINE
  5
89
330
1E
100
AcDbEntity
  8
HILF
100
AcDbLine
 10
0.0
 20
840.0
 30
0.0
 11
0.0
 21
0.0
 31
0.0
  0
LINE
  5
8B
330
1E
100
AcDbEntity
  8
STEMPEL
100
AcDbLine
 10
10.0
 20
830.0
 30
0.0
 11
10.0
 21
39.99999999999995
 31
0.0
  0
LINE
  5
8D
330
1E
100
AcDbEntity
  8
STEMPEL
100
AcDbLine
 10
584.0
 20
39.99999999999995
 30
0.0
 11
584.0
 21
830.0
 31
0.0
  0
LINE
  5
8E
330
1E
100
AcDbEntity
  8
STEMPEL
100
AcDbLine
 10
584.0
 20
830.0
 30
0.0
 11
10.0
 21
830.0
 31
0.0
  0
LINE
  5
9C
330
1E
100
AcDbEntity
  8
BEM
100
AcDbLine
 10
594.0
 20
455.9999999999999
 30
0.0
 11
584.0
 21
455.9999999999999
 31
0.0
  0
LINE
  5
13E
330
1E
100
AcDbEntity
  8
HILF
100
AcDbLine
 10
594.0
 20
-0.0000000000000568
 30
0.0
 11
0.0
 21
0.0
 31
0.0
  0
LINE
  5
13F
330
1E
100
AcDbEntity
  8
STEMPEL
100
AcDbLine
 10
584.0
 20
39.99999999999995
 30
0.0
 11
10.0
 21
39.99999999999995
 31
0.0
  0
LINE
  5
14A
330
1E
100
AcDbEntity
  8
HILF
100
AcDbLine
 10
297.0
 20
-0.0000000000000568
 30
0.0
 11
297.0
 21
39.99999999999995
 31
0.0
  0
TEXT
  5
15B
330
1E
100
AcDbEntity
  8
TEXT
100
AcDbText
 10
583.8320989200114
 20
837.3022923857165
 30
0.0
 40
4.0
  1
Diese Zeichnung ist urheberrechtlich geschützt und bleibt unser Eigentum. Sie darf weder ganz noch teilweise verfielfältigt und nicht an Dritte weitergegeben werden.
 50
180.0
 41
0.8
  7
GREEKS
100
AcDbText
  0
TEXT
  5
74C
330
1E
100
AcDbEntity
  8
TEXT
100
AcDbText
 10
482.3279999999999
 20
471.8550995097766
 30
0.0
 40
5.0
  1
Erstellt mit AUTOCAD 2004
 50
90.0
 41
0.8
  7
GREEKS
100
AcDbText
  0
TEXT
  5
74D
330
1E
100
AcDbEntity
  8
TEXT
100
AcDbText
 10
522.3598805695782
 20
655.1296391125315
 30
0.0
 40
5.0
  1
DN125 mit Wärmedämmung
 50
90.0
 41
0.8
  7
GREEKS
100
AcDbText
  0
TEXT
  5
74E
330
1E
100
AcDbEntity
  8
TEXT
100
AcDbText
 10
491.4510671988218
 20
654.8779403809009
 30
0.0
 40
5.0
  1
Benennung
 50
90.0
 41
0.8
  7
GREEKS
100
AcDbText
  0
LINE
  5
74F
330
1E
100
AcDbEntity
  8
HILF
100
AcDbLine
 10
509.9624175243584
 20
654.7736801096946
 30
0.0
 11
509.9624175243584
 21
744.8353916556309
 31
0.0
  0
TEXT
  5
750
330
1E
100
AcDbEntity
  8
TEXT
 62
     1
100
AcDbText
 10
506.5825121074619
 20
656.4616738755774
 30
0.0
 40
7.0
  1
Drainlet Kompletteinheit
 50
90.0
 41
0.7
  7
GREEKS
100
AcDbText
  0
TEXT
  5
751
330
1E
100
AcDbEntity
  8
TEXT
100
AcDbText
 10
542.3598805695783
 20
655.1296391125315
 30
0.0
 40
5.0
  1
EDV-Art.Nr. 21523.125X
 50
90.0
 41
0.8
  7
GREEKS
100
AcDbText
  0
LINE
  5
752
330
1E
100
AcDbEntity
  8
HILF
100
AcDbLine
 10
524.0
 20
654.7736801096946
 30
0.0
 11
524.0
 21
744.8353916556309
 31
0.0
  0
LINE
  5
753
330
1E
100
AcDbEntity
  8
HILF
100
AcDbLine
 10
533.9999999999998
 20
654.7736801096946
 30
0.0
 11
533.9999999999998
 21
744.8353916556309
 31
0.0
  0
LINE
  5
754
330
1E
100
AcDbEntity
  8
HILF
100
AcDbLine
 10
543.9999999999997
 20
654.7736801096946
 30
0.0
 11
543.9999999999997
 21
744.8353916556309
 31
0.0
  0
LINE
  5
755
330
1E
100
AcDbEntity
  8
STEMPEL
100
AcDbLine
 10
483.9999999999995
 20
830.0
 30
0.0
 11
483.9999999999998
 21
469.9999999999999
 31
0.0
  0
LINE
  5
756
330
1E
100
AcDbEntity
  8
STEMPEL
100
AcDbLine
 10
513.9999999999997
 20
830.0
 30
0.0
 11
514.0
 21
566.0
 31
0.0
  0
TEXT
  5
757
330
1E
100
AcDbEntity
  8
TEXT
100
AcDbText
 10
563.1543942980693
 20
654.7422383911359
 30
0.0
 40
5.0
  1
Bauvorhaben
 50
90.0
 41
0.8
  7
GREEKS
100
AcDbText
  0
LINE
  5
758
330
1E
100
AcDbEntity
  8
STEMPEL
100
AcDbLine
 10
553.9999999999998
 20
830.0
 30
0.0
 11
553.9999999999998
 21
566.0
 31
0.0
  0
LINE
  5
759
330
1E
100
AcDbEntity
  8
HILF
100
AcDbLine
 10
579.1060174197166
 20
653.4909699289885
 30
0.0
 11
579.1060174197166
 21
824.8588839326728
 31
0.0
  0
LINE
  5
75A
330
1E
100
AcDbEntity
  8
STEMPEL
100
AcDbLine
 10
583.9999999999998
 20
479.9999999999998
 30
0.0
 11
583.9999999999998
 21
830.0
 31
0.0
  0
TEXT
  5
75B
330
1E
100
AcDbEntity
  8
TEXT
100
AcDbText
 10
551.3702584697734
 20
654.9837501577826
 30
0.0
 40
4.0
  1
21523125W.DWG
 50
90.0
 41
0.8
  7
GREEKS
100
AcDbText
  0
TEXT
  5
75C
330
1E
100
AcDbEntity
  8
TEXT
100
AcDbText
 10
575.3284373066017
 20
529.4723536997203
 30
0.0
 40
4.0
  1
Tag
 50
90.0
 41
0.8
  7
GREEKS
100
AcDbText
  0
INSERT
  5
75D
330
1E
100
AcDbEntity
  8
STEMPEL
100
AcDbBlockReference
  2
LOGO
 10
548.9789472355164
 20
570.9955485457794
 30
0.0
 41
2.0
 42
2.0
 43
2.0
 50
90.0
  0
TEXT
  5
75E
330
1E
100
AcDbEntity
  8
TEXT
100
AcDbText
 10
580.345341539728
 20
478.2664110704574
 30
0.0
 40
4.0
  1
Index
 50
180.0
 41
0.8
  7
GREEKS
100
AcDbText
  0
TEXT
  5
75F
330
1E
100
AcDbEntity
  8
TEXT
100
AcDbText
 10
575.3261810501585
 20
491.0028023958264
 30
0.0
 40
4.0
  1
Änderung
 50
90.0
 41
0.8
  7
GREEKS
100
AcDbText
  0
LINE
  5
760
330
1E
100
AcDbEntity
  8
VOLL
100
AcDbLine
 10
483.9999999999995
 20
484.0
 30
0.0
 11
583.9999999999998
 21
484.0
 31
0.0
  0
LINE
  5
761
330
1E
100
AcDbEntity
  8
VOLL
100
AcDbLine
 10
484.0
 20
524.0
 30
0.0
 11
583.9999999999998
 21
524.0
 31
0.0
  0
LINE
  5
762
330
1E
100
AcDbEntity
  8
VOLL
100
AcDbLine
 10
484.0
 20
544.0
 30
0.0
 11
583.9999999999998
 21
544.0
 31
0.0
  0
LINE
  5
763
330
1E
100
AcDbEntity
  8
STEMPEL
100
AcDbLine
 10
583.9999999999998
 20
469.9999999999999
 30
0.0
 11
483.9999999999998
 21
469.9999999999999
 31
0.0
  0
LINE
  5
764
330
1E
100
AcDbEntity
  8
STEMPEL
100
AcDbLine
 10
484.0
 20
566.0
 30
0.0
 11
583.9999999999998
 21
566.0
 31
0.0
  0
LINE
  5
765
330
1E
100
AcDbEntity
  8
STEMPEL
100
AcDbLine
 10
483.9999999999995
 20
650.0
 30
0.0
 11
583.9999999999998
 21
650.0
 31
0.0
  0
LINE
  5
766
330
1E
100
AcDbEntity
  8
HILF
100
AcDbLine
 10
493.9999999999995
 20
470.0000000000001
 30
0.0
 11
493.9999999999995
 21
566.0
 31
0.0
  0
LINE
  5
767
330
1E
100
AcDbEntity
  8
HILF
100
AcDbLine
 10
503.9999999999995
 20
470.0000000000001
 30
0.0
 11
503.9999999999995
 21
566.0
 31
0.0
  0
LINE
  5
768
330
1E
100
AcDbEntity
  8
HILF
100
AcDbLine
 10
514.0
 20
470.0000000000001
 30
0.0
 11
514.0
 21
566.0
 31
0.0
  0
LINE
  5
769
330
1E
100
AcDbEntity
  8
HILF
100
AcDbLine
 10
524.0
 20
470.0000000000001
 30
0.0
 11
524.0
 21
566.0
 31
0.0
  0
LINE
  5
76A
330
1E
100
AcDbEntity
  8
HILF
100
AcDbLine
 10
533.9999999999998
 20
470.0000000000001
 30
0.0
 11
533.9999999999998
 21
566.0
 31
0.0
  0
LINE
  5
76B
330
1E
100
AcDbEntity
  8
HILF
100
AcDbLine
 10
543.9999999999997
 20
470.0000000000001
 30
0.0
 11
543.9999999999997
 21
566.0
 31
0.0
  0
LINE
  5
76C
330
1E
100
AcDbEntity
  8
STEMPEL
100
AcDbLine
 10
563.9999999999997
 20
565.9999999999997
 30
0.0
 11
563.9999999999997
 21
469.9999999999999
 31
0.0
  0
LINE
  5
76D
330
1E
100
AcDbEntity
  8
HILF
100
AcDbLine
 10
553.9999999999998
 20
470.0000000000001
 30
0.0
 11
553.9999999999998
 21
566.0
 31
0.0
  0
TEXT
  5
76E
330
1E
100
AcDbEntity
  8
TEXT
100
AcDbText
 10
575.4067578303356
 20
548.2201504717679
 30
0.0
 40
4.0
  1
Name
 50
90.0
 41
0.8
  7
GREEKS
100
AcDbText
  0
TEXT
  5
76F
330
1E
100
AcDbEntity
  8
TEXT
100
AcDbText
 10
530.8923495917424
 20
590.703759012998
 30
0.0
 40
4.0
  1
29.10.
 50
90.0
 41
0.8
  7
GREEKS
 72
     1
 11
530.8923495917424
 21
597.4085209177599
 31
0.0
100
AcDbText
  0
TEXT
  5
770
330
1E
100
AcDbEntity
  8
TEXT
100
AcDbText
 10
530.9103608027647
 20
624.4216048581257
 30
0.0
 40
4.0
  1
Koeh
 50
90.0
 41
0.8
  7
GREEKS
 72
     1
 11
530.9103608027647
 21
629.6787477152686
 31
0.0
100
AcDbText
  0
TEXT
  5
771
330
1E
100
AcDbEntity
  8
TEXT
100
AcDbText
 10
530.37009630382
 20
567.5836127167615
 30
0.0
 40
4.0
  1
Gez.
 50
90.0
 41
0.8
  7
GREEKS
100
AcDbText
  0
LINE
  5
772
330
1E
100
AcDbEntity
  8
VOLL
100
AcDbLine
 10
514.0
 20
584.0
 30
0.0
 11
553.9999999999998
 21
584.0
 31
0.0
  0
LINE
  5
773
330
1E
100
AcDbEntity
  8
VOLL
100
AcDbLine
 10
484.0
 20
610.0
 30
0.0
 11
553.9999999999998
 21
610.0
 31
0.0
  0
LINE
  5
774
330
1E
100
AcDbEntity
  8
HILF
100
AcDbLine
 10
524.0
 20
566.0
 30
0.0
 11
524.0
 21
650.0
 31
0.0
  0
TEXT
  5
775
330
1E
100
AcDbEntity
  8
TEXT
100
AcDbText
 10
503.2363615897695
 20
612.6261322080839
 30
0.0
 40
4.0
  1
DIN EN1124-3
 50
90.0
 41
0.8
  7
GREEKS
 72
     1
 11
503.2363615897695
 21
629.6166083985601
 31
0.0
100
AcDbText
  0
TEXT
  5
776
330
1E
100
AcDbEntity
  8
TEXT
 62
     1
100
AcDbText
 10
505.8509857108601
 20
580.5006306481886
 30
0.0
 40
7.0
  1
1:2
 50
90.0
 41
0.8
  7
GREEKS
100
AcDbText
  0
TEXT
  5
777
330
1E
100
AcDbEntity
  8
TEXT
100
AcDbText
 10
491.5379104912908
 20
573.5163572150376
 30
0.0
 40
5.0
  1
Maßstab
 50
90.0
 41
0.8
  7
GREEKS
100
AcDbText
  0
TEXT
  5
778
330
1E
100
AcDbEntity
  8
TEXT
100
AcDbText
 10
520.8597452884832
 20
568.6221098221039
 30
0.0
 40
4.0
  1
2007
 50
90.0
 41
0.8
  7
GREEKS
100
AcDbText
  0
TEXT
  5
779
330
1E
100
AcDbEntity
  8
TEXT
100
AcDbText
 10
520.6811949877005
 20
592.3311673153651
 30
0.0
 40
4.0
  1
Tag
 50
90.0
 41
0.8
  7
GREEKS
100
AcDbText
  0
TEXT
  5
77A
330
1E
100
AcDbEntity
  8
TEXT
100
AcDbText
 10
491.5815831565177
 20
617.0451352787349
 30
0.0
 40
5.0
  1
Zul. Abw.
 50
90.0
 41
0.8
  7
GREEKS
100
AcDbText
  0
TEXT
  5
77B
330
1E
100
AcDbEntity
  8
TEXT
100
AcDbText
 10
520.6903890808475
 20
622.4626584226293
 30
0.0
 40
4.0
  1
Name
 50
90.0
 41
0.8
  7
GREEKS
100
AcDbText
  0
LINE
  5
77C
330
1E
100
AcDbEntity
  8
HILF
100
AcDbLine
 10
533.9999999999998
 20
566.0
 30
0.0
 11
533.9999999999998
 21
650.0
 31
0.0
  0
LINE
  5
77D
330
1E
100
AcDbEntity
  8
HILF
100
AcDbLine
 10
543.9999999999997
 20
566.0
 30
0.0
 11
543.9999999999997
 21
650.0
 31
0.0
  0
TEXT
  5
77E
330
1E
100
AcDbEntity
  8
TEXT
100
AcDbText
 10
540.310737085716
 20
567.5515086571672
 30
0.0
 40
4.0
  1
Gepr.
 50
90.0
 41
0.8
  7
GREEKS
100
AcDbText
  0
TEXT
  5
77F
330
1E
100
AcDbEntity
  8
TEXT
100
AcDbText
 10
550.4705361035016
 20
567.6006777387303
 30
0.0
 40
4.0
  1
Norm.
 50
90.0
 41
0.8
  7
GREEKS
100
AcDbText
  0
LINE
  5
780
330
1E
100
AcDbEntity
  8
VOLL
100
AcDbLine
 10
533.9999999999998
 20
752.0
 30
0.0
 11
533.9999999999998
 21
830.0
 31
0.0
  0
LINE
  5
781
330
1E
100
AcDbEntity
  8
HILF
100
AcDbLine
 10
510.2201636304417
 20
756.7238616296992
 30
0.0
 11
510.2201636304417
 21
824.8588839326728
 31
0.0
  0
LINE
  5
783
330
1E
100
AcDbEntity
  8
STEMPEL
100
AcDbLine
 10
484.0
 20
752.0
 30
0.0
 11
553.9999999999998
 21
752.0
 31
0.0
  0
TEXT
  5
784
330
1E
100
AcDbEntity
  8
TEXT
 62
     1
100
AcDbText
 10
505.8509857108601
 20
767.4422464274329
 30
0.0
 40
7.0
  1
21523125W
 50
90.0
 41
0.8
  7
GREEKS
 72
     1
 11
505.8509857108601
 21
790.3755797607664
 31
0.0
100
AcDbText
  0
TEXT
  5
785
330
1E
100
AcDbEntity
  8
TEXT
100
AcDbText
 10
491.6867965462861
 20
756.178754957634
 30
0.0
 40
5.0
  1
Zeichnungs Nr.
 50
90.0
 41
0.8
  7
GREEKS
100
AcDbText
  0
TEXT
  5
786
330
1E
100
AcDbEntity
  8
TEXT
100
AcDbText
 10
520.818817629
 20
756.7238616296992
 30
0.0
 40
5.0
  1
Ersatz für:
 50
90.0
 41
0.8
  7
GREEKS
100
AcDbText
  0
TEXT
  5
787
330
1E
100
AcDbEntity
  8
TEXT
100
AcDbText
 10
541.9258382212137
 20
757.2400861497006
 30
0.0
 40
5.0
  1
ersetzt durch:
 50
90.0
 41
0.8
  7
GREEKS
100
AcDbText
  0
TEXT
  5
88C
330
1E
100
AcDbEntity
  8
TEXT
 62
     1
100
AcDbText
 10
422.108262740865
 20
419.9613830004969
 30
0.0
 40
7.0
  1
EDV-Art.Nr. 21905.125X
 41
0.8
100
AcDbText
  0
LINE
  5
88D
330
1E
100
AcDbEntity
  8
TEXT
 62
     2
100
AcDbLine
 10
527.451471437244
 20
429.2538798082961
 30
0.0
 11
421.5129068621108
 21
429.2538798082961
 31
0.0
  0
TEXT
  5
88E
330
1E
100
AcDbEntity
  8
TEXT
 62
     1
100
AcDbText
 10
422.108262740865
 20
432.7377139692065
 30
0.0
 40
7.0
  1
Losflansch DN125
 41
0.8
100
AcDbText
  0
LINE
  5
88F
330
1E
100
AcDbEntity
  8
TEXT
 62
     2
100
AcDbLine
 10
421.5129068621108
 20
429.2538798082961
 30
0.0
 11
358.7026202348192
 21
448.1548676058045
 31
0.0
  0
LINE
  5
890
330
1E
100
AcDbEntity
  8
TEXT
 62
     2
100
AcDbLine
 10
422.5910046626557
 20
394.5461434392336
 30
0.0
 11
324.2761403133517
 21
439.3489021552126
 31
0.0
  0
TEXT
  5
892
330
1E
100
AcDbEntity
  8
TEXT
 62
     1
100
AcDbText
 10
352.5740119731342
 20
193.0292557919898
 30
0.0
 40
7.0
  1
Unterteil DN125
 41
0.8
  7
GREEKS
100
AcDbText
  0
LINE
  5
893
330
1E
100
AcDbEntity
  8
TEXT
 62
     2
100
AcDbLine
 10
351.493325574297
 20
189.416487519796
 30
0.0
 11
289.603482524648
 21
211.9161947992137
 31
0.0
  0
LINE
  5
894
330
1E
100
AcDbEntity
  8
TEXT
 62
     2
100
AcDbLine
 10
457.6172201819749
 20
189.4164875197963
 30
0.0
 11
351.493325574297
 21
189.416487519796
 31
0.0
  0
TEXT
  5
895
330
1E
100
AcDbEntity
  8
TEXT
 62
     1
100
AcDbText
 10
352.393456678982
 20
179.9814836450106
 30
0.0
 40
7.0
  1
EDV-Art.Nr. 21971.125X
 41
0.8
  7
GREEKS
100
AcDbText
  0
TEXT
  5
896
330
1E
100
AcDbEntity
  8
TEXT
 62
     1
100
AcDbText
 10
423.2890447297211
 20
397.5326839312867
 30
0.0
 40
7.0
  1
Kompressionsdichtung
 41
0.8
100
AcDbText
  0
TEXT
  5
897
330
1E
100
AcDbEntity
  8
TEXT
 62
     1
100
AcDbText
 10
423.6450037325578
 20
383.9946706262383
 30
0.0
 40
7.0
  1
EDV-Art.Nr. 21810.150X
 41
0.8
100
AcDbText
  0
LINE
  5
898
330
1E
100
AcDbEntity
  8
TEXT
 62
     2
100
AcDbLine
 10
422.5910046626557
 20
394.5461434392336
 30
0.0
 11
527.6317362662116
 21
394.5461434392336
 31
0.0
  0
TEXT
  5
899
330
1E
100
AcDbEntity
  8
TEXT
 62
     1
100
AcDbText
 10
421.4393608426169
 20
367.3510750425553
 30
0.0
 40
7.0
  1
Dichtelement DN125
 41
0.8
  7
GREEKS
100
AcDbText
  0
LINE
  5
89A
330
1E
100
AcDbEntity
  8
TEXT
 62
     2
100
AcDbLine
 10
420.3586744437798
 20
363.7383067703615
 30
0.0
 11
293.8924528783307
 21
430.7423087605868
 31
0.0
  0
LINE
  5
89B
330
1E
100
AcDbEntity
  8
TEXT
 62
     2
100
AcDbLine
 10
526.4825690514578
 20
363.7383067703618
 30
0.0
 11
420.3586744437798
 21
363.7383067703615
 31
0.0
  0
TEXT
  5
89C
330
1E
100
AcDbEntity
  8
TEXT
 62
     1
100
AcDbText
 10
421.2588055484648
 20
354.3033028955761
 30
0.0
 40
7.0
  1
EDV-Art.Nr. 00911.125X
 41
0.8
  7
GREEKS
100
AcDbText
  0
ARC
  5
9EA
330
1E
100
AcDbEntity
  8
STEMPEL
100
AcDbCircle
 10
107.5556135572643
 20
450.7157489968667
 30
0.0
 40
0.750000000000001
100
AcDbArc
 50
269.9999991462263
 51
69.99999999999686
  0
ARC
  5
9EB
330
1E
100
AcDbEntity
  8
STEMPEL
100
AcDbCircle
 10
87.25561355726439
 20
450.7157489968667
 30
0.0
 40
0.7500000000000013
100
AcDbArc
 50
110.0000000000031
 51
269.9999991462263
  0
LINE
  5
9EC
330
1E
100
AcDbEntity
  8
STEMPEL
100
AcDbLine
 10
88.74535951942005
 20
452.0561055130666
 30
0.0
 11
86.99909844977014
 21
451.4205184624562
 31
0.0
  0
LINE
  5
9ED
330
1E
100
AcDbEntity
  8
STEMPEL
100
AcDbLine
 10
107.8121286647587
 20
451.4205184624562
 30
0.0
 11
106.0658675951088
 21
452.0561055130666
 31
0.0
  0
LINE
  5
9EE
330
1E
100
AcDbEntity
  8
STEMPEL
100
AcDbLine
 10
106.0658675951088
 20
459.6548598644114
 30
0.0
 11
104.9056135572643
 21
459.9657489968667
 31
0.0
  0
LINE
  5
9EF
330
1E
100
AcDbEntity
  8
STEMPEL
100
AcDbLine
 10
89.90561355726436
 20
459.9657489968667
 30
0.0
 11
88.74535951942005
 21
459.6548598644114
 31
0.0
  0
LINE
  5
9F0
330
1E
100
AcDbEntity
  8
STEMPEL
100
AcDbLine
 10
88.74535951942005
 20
452.0561055130666
 30
0.0
 11
88.74535951942005
 21
459.6548598644114
 31
0.0
  0
LINE
  5
9F1
330
1E
100
AcDbEntity
  8
STEMPEL
100
AcDbLine
 10
107.5556135572643
 20
449.9657489968667
 30
0.0
 11
87.25561355726439
 21
449.9657489968667
 31
0.0
  0
LINE
  5
9F2
330
1E
100
AcDbEntity
  8
STEMPEL
100
AcDbLine
 10
107.8121286647587
 20
451.4205184624562
 30
0.0
 11
86.99909844977014
 21
451.4205184624562
 31
0.0
  0
LINE
  5
9F3
330
1E
100
AcDbEntity
  8
STEMPEL
100
AcDbLine
 10
93.07548653834215
 20
452.0561055130666
 30
0.0
 11
93.07548653834215
 21
459.6548598644114
 31
0.0
  0
LINE
  5
9F4
330
1E
100
AcDbEntity
  8
STEMPEL
100
AcDbLine
 10
101.7357405761865
 20
452.0561055130666
 30
0.0
 11
101.7357405761865
 21
459.6548598644114
 31
0.0
  0
LINE
  5
9F5
330
1E
100
AcDbEntity
  8
STEMPEL
100
AcDbLine
 10
106.0658675951088
 20
452.0561055130666
 30
0.0
 11
106.0658675951088
 21
459.6548598644114
 31
0.0
  0
LINE
  5
9F6
330
1E
100
AcDbEntity
  8
STEMPEL
100
AcDbLine
 10
89.90561355726436
 20
459.9657489968667
 30
0.0
 11
104.9056135572643
 21
459.9657489968667
 31
0.0
  0
ARC
  5
9F7
330
1E
100
AcDbEntity
  8
HILF
100
AcDbCircle
 10
90.91042302888116
 20
446.717262847337
 30
0.0
 40
5.761140599691502
100
AcDbArc
 50
67.92594526325993
 51
112.07405473674
  0
ARC
  5
9F8
330
1E
100
AcDbEntity
  8
HILF
100
AcDbCircle
 10
103.9008040856477
 20
446.717262847337
 30
0.0
 40
5.761140599691502
100
AcDbArc
 50
67.92594526325993
 51
112.07405473674
  0
ARC
  5
9F9
330
1E
100
AcDbEntity
  8
HILF
100
AcDbCircle
 10
97.40561355726436
 20
430.0672879492055
 30
0.0
 40
22.41111549782308
100
AcDbArc
 50
78.85962783890104
 51
101.1403721610989
  0
ARC
  5
9FA
330
1E
100
AcDbEntity
  8
STEMPEL
100
AcDbCircle
 10
103.9008040856477
 20
452.2714432890823
 30
0.0
 40
7.694305707784447
100
AcDbArc
 50
73.65710669401345
 51
106.3428933059861
  0
ARC
  5
9FB
330
1E
100
AcDbEntity
  8
STEMPEL
100
AcDbCircle
 10
90.91042302888116
 20
452.2714432890823
 30
0.0
 40
7.694305707784447
100
AcDbArc
 50
73.65710669401391
 51
106.3428933059865
  0
ARC
  5
9FC
330
1E
100
AcDbEntity
  8
STEMPEL
100
AcDbCircle
 10
97.40561355726436
 20
429.6548598644118
 30
0.0
 40
30.31088913245485
100
AcDbArc
 50
81.78678929825712
 51
98.21321070174288
  0
ARC
  5
9FE
330
1E
100
AcDbEntity
  8
STEMPEL
100
AcDbCircle
 10
150.7556135572641
 20
450.7157489968668
 30
0.0
 40
0.7500000000000013
100
AcDbArc
 50
110.0000000000031
 51
269.9999991462263
  0
LINE
  5
9FF
330
1E
100
AcDbEntity
  8
STEMPEL
100
AcDbLine
 10
152.2453595194197
 20
452.0561055130666
 30
0.0
 11
150.4990984497699
 21
451.4205184624562
 31
0.0
  0
LINE
  5
A02
330
1E
100
AcDbEntity
  8
STEMPEL
100
AcDbLine
 10
153.4056135572641
 20
459.9657489968667
 30
0.0
 11
152.2453595194197
 21
459.6548598644114
 31
0.0
  0
LINE
  5
A03
330
1E
100
AcDbEntity
  8
STEMPEL
100
AcDbLine
 10
152.2453595194197
 20
452.0561055130666
 30
0.0
 11
152.2453595194197
 21
459.6548598644114
 31
0.0
  0
LINE
  5
A04
330
1E
100
AcDbEntity
  8
STEMPEL
100
AcDbLine
 10
157.9056135572641
 20
449.9657489968668
 30
0.0
 11
150.7556135572641
 21
449.9657489968668
 31
0.0
  0
LINE
  5
A05
330
1E
100
AcDbEntity
  8
STEMPEL
100
AcDbLine
 10
157.9056135572641
 20
451.4205184624562
 30
0.0
 11
150.4990984497699
 21
451.4205184624562
 31
0.0
  0
LINE
  5
A06
330
1E
100
AcDbEntity
  8
STEMPEL
100
AcDbLine
 10
156.5754865383419
 20
452.0561055130666
 30
0.0
 11
156.5754865383419
 21
459.6548598644114
 31
0.0
  0
LINE
  5
A09
330
1E
100
AcDbEntity
  8
STEMPEL
100
AcDbLine
 10
153.4056135572641
 20
459.9657489968667
 30
0.0
 11
157.9056135572641
 21
459.9657489968667
 31
0.0
  0
ARC
  5
A0A
330
1E
100
AcDbEntity
  8
HILF
100
AcDbCircle
 10
154.4104230288808
 20
446.7172628473371
 30
0.0
 40
5.761140599691502
100
AcDbArc
 50
67.92594526325993
 51
112.07405473674
  0
ARC
  5
A0C
330
1E
100
AcDbEntity
  8
HILF
100
AcDbCircle
 10
160.9056135572641
 20
430.0672879492055
 30
0.0
 40
22.41111549782308
100
AcDbArc
 50
97.69282842245585
 51
101.1403721610989
  0
ARC
  5
A0E
330
1E
100
AcDbEntity
  8
STEMPEL
100
AcDbCircle
 10
154.4104230288808
 20
452.2714432890823
 30
0.0
 40
7.694305707784447
100
AcDbArc
 50
73.65710669401391
 51
106.3428933059865
  0
ARC
  5
A0F
330
1E
100
AcDbEntity
  8
STEMPEL
100
AcDbCircle
 10
160.9056135572641
 20
429.6548598644119
 30
0.0
 40
30.31088913245485
100
AcDbArc
 50
95.68011101592647
 51
98.21321070174288
  0
ARC
  5
A10
330
1E
100
AcDbEntity
  8
STEMPEL
100
AcDbCircle
 10
298.0556135572642
 20
450.7157489968669
 30
0.0
 40
0.750000000000001
100
AcDbArc
 50
269.9999991462263
 51
69.99999999999686
  0
LINE
  5
A13
330
1E
100
AcDbEntity
  8
STEMPEL
100
AcDbLine
 10
298.3121286647584
 20
451.4205184624564
 30
0.0
 11
296.5658675951086
 21
452.0561055130668
 31
0.0
  0
LINE
  5
A14
330
1E
100
AcDbEntity
  8
STEMPEL
100
AcDbLine
 10
296.5658675951086
 20
459.6548598644115
 30
0.0
 11
295.4056135572642
 21
459.9657489968669
 31
0.0
  0
LINE
  5
A17
330
1E
100
AcDbEntity
  8
STEMPEL
100
AcDbLine
 10
298.0556135572642
 20
449.965748996867
 30
0.0
 11
290.9056135572641
 21
449.9657489968669
 31
0.0
  0
LINE
  5
A18
330
1E
100
AcDbEntity
  8
STEMPEL
100
AcDbLine
 10
298.3121286647584
 20
451.4205184624564
 30
0.0
 11
290.9056135572641
 21
451.4205184624564
 31
0.0
  0
LINE
  5
A1A
330
1E
100
AcDbEntity
  8
STEMPEL
100
AcDbLine
 10
292.2357405761863
 20
452.0561055130668
 30
0.0
 11
292.2357405761863
 21
459.6548598644115
 31
0.0
  0
LINE
  5
A1B
330
1E
100
AcDbEntity
  8
STEMPEL
100
AcDbLine
 10
296.5658675951086
 20
452.0561055130668
 30
0.0
 11
296.5658675951086
 21
459.6548598644115
 31
0.0
  0
LINE
  5
A1C
330
1E
100
AcDbEntity
  8
STEMPEL
100
AcDbLine
 10
290.905613557264
 20
459.9657489968669
 30
0.0
 11
295.4056135572642
 21
459.9657489968669
 31
0.0
  0
ARC
  5
A1E
330
1E
100
AcDbEntity
  8
HILF
100
AcDbCircle
 10
294.4008040856474
 20
446.7172628473373
 30
0.0
 40
5.761140599691502
100
AcDbArc
 50
67.92594526325993
 51
112.07405473674
  0
ARC
  5
A1F
330
1E
100
AcDbEntity
  8
HILF
100
AcDbCircle
 10
287.9056135572641
 20
430.0672879492057
 30
0.0
 40
22.41111549782308
100
AcDbArc
 50
78.85962783890104
 51
82.30717157754446
  0
ARC
  5
A20
330
1E
100
AcDbEntity
  8
STEMPEL
100
AcDbCircle
 10
294.4008040856474
 20
452.2714432890825
 30
0.0
 40
7.694305707784447
100
AcDbArc
 50
73.65710669401345
 51
106.3428933059861
  0
ARC
  5
A22
330
1E
100
AcDbEntity
  8
STEMPEL
100
AcDbCircle
 10
287.9056135572641
 20
429.6548598644121
 30
0.0
 40
30.31088913245485
100
AcDbArc
 50
81.78678929825712
 51
84.31988898407373
  0
ARC
  5
A23
330
1E
100
AcDbEntity
  8
STEMPEL
100
AcDbCircle
 10
361.555613557264
 20
450.715748996867
 30
0.0
 40
0.750000000000001
100
AcDbArc
 50
269.9999991462263
 51
69.99999999999686
  0
ARC
  5
A24
330
1E
100
AcDbEntity
  8
STEMPEL
100
AcDbCircle
 10
341.2556135572641
 20
450.715748996867
 30
0.0
 40
0.7500000000000013
100
AcDbArc
 50
110.0000000000031
 51
269.9999991462263
  0
LINE
  5
A25
330
1E
100
AcDbEntity
  8
STEMPEL
100
AcDbLine
 10
342.7453595194195
 20
452.0561055130668
 30
0.0
 11
340.9990984497697
 21
451.4205184624564
 31
0.0
  0
LINE
  5
A26
330
1E
100
AcDbEntity
  8
STEMPEL
100
AcDbLine
 10
361.8121286647581
 20
451.4205184624564
 30
0.0
 11
360.0658675951083
 21
452.0561055130668
 31
0.0
  0
LINE
  5
A27
330
1E
100
AcDbEntity
  8
STEMPEL
100
AcDbLine
 10
360.0658675951083
 20
459.6548598644116
 30
0.0
 11
358.9056135572639
 21
459.965748996867
 31
0.0
  0
LINE
  5
A28
330
1E
100
AcDbEntity
  8
STEMPEL
100
AcDbLine
 10
343.9056135572639
 20
459.965748996867
 30
0.0
 11
342.7453595194195
 21
459.6548598644116
 31
0.0
  0
LINE
  5
A29
330
1E
100
AcDbEntity
  8
STEMPEL
100
AcDbLine
 10
342.7453595194195
 20
452.0561055130668
 30
0.0
 11
342.7453595194195
 21
459.6548598644116
 31
0.0
  0
LINE
  5
A2A
330
1E
100
AcDbEntity
  8
STEMPEL
100
AcDbLine
 10
361.555613557264
 20
449.965748996867
 30
0.0
 11
341.2556135572641
 21
449.965748996867
 31
0.0
  0
LINE
  5
A2B
330
1E
100
AcDbEntity
  8
STEMPEL
100
AcDbLine
 10
361.8121286647581
 20
451.4205184624564
 30
0.0
 11
340.9990984497697
 21
451.4205184624564
 31
0.0
  0
LINE
  5
A2C
330
1E
100
AcDbEntity
  8
STEMPEL
100
AcDbLine
 10
347.0754865383417
 20
452.0561055130668
 30
0.0
 11
347.0754865383417
 21
459.6548598644116
 31
0.0
  0
LINE
  5
A2D
330
1E
100
AcDbEntity
  8
STEMPEL
100
AcDbLine
 10
355.7357405761861
 20
452.0561055130668
 30
0.0
 11
355.7357405761861
 21
459.6548598644116
 31
0.0
  0
LINE
  5
A2E
330
1E
100
AcDbEntity
  8
STEMPEL
100
AcDbLine
 10
360.0658675951083
 20
452.0561055130668
 30
0.0
 11
360.0658675951083
 21
459.6548598644116
 31
0.0
  0
LINE
  5
A2F
330
1E
100
AcDbEntity
  8
STEMPEL
100
AcDbLine
 10
343.9056135572639
 20
459.965748996867
 30
0.0
 11
358.9056135572639
 21
459.965748996867
 31
0.0
  0
ARC
  5
A30
330
1E
100
AcDbEntity
  8
HILF
100
AcDbCircle
 10
344.9104230288806
 20
446.7172628473374
 30
0.0
 40
5.761140599691502
100
AcDbArc
 50
67.92594526325993
 51
112.07405473674
  0
ARC
  5
A31
330
1E
100
AcDbEntity
  8
HILF
100
AcDbCircle
 10
357.9008040856472
 20
446.7172628473374
 30
0.0
 40
5.761140599691502
100
AcDbArc
 50
67.92594526325993
 51
112.07405473674
  0
ARC
  5
A32
330
1E
100
AcDbEntity
  8
HILF
100
AcDbCircle
 10
351.4056135572639
 20
430.0672879492058
 30
0.0
 40
22.41111549782308
100
AcDbArc
 50
78.85962783890104
 51
101.1403721610989
  0
ARC
  5
A33
330
1E
100
AcDbEntity
  8
STEMPEL
100
AcDbCircle
 10
357.9008040856472
 20
452.2714432890825
 30
0.0
 40
7.694305707784447
100
AcDbArc
 50
73.65710669401345
 51
106.3428933059861
  0
ARC
  5
A34
330
1E
100
AcDbEntity
  8
STEMPEL
100
AcDbCircle
 10
344.9104230288806
 20
452.2714432890825
 30
0.0
 40
7.694305707784447
100
AcDbArc
 50
73.65710669401391
 51
106.3428933059865
  0
ARC
  5
A35
330
1E
100
AcDbEntity
  8
STEMPEL
100
AcDbCircle
 10
351.4056135572639
 20
429.6548598644121
 30
0.0
 40
30.31088913245485
100
AcDbArc
 50
81.78678929825712
 51
98.21321070174288
  0
HATCH
  5
A36
330
1E
100
AcDbEntity
  8
SCHRAFF
100
AcDbHatch
 10
0.0
 20
0.0
 30
0.0
210
0.0
220
0.0
230
1.0
  2
NET
 70
     0
 71
     1
 91
        4
 92
        7
 72
     0
 73
     1
 93
        4
 10
389.4056135572639
 20
438.4657489968658
 10
389.4056135572639
 20
441.4657489968667
 10
358.4056135572639
 20
441.4657489968667
 10
358.4056135572638
 20
438.4657489968659
 97
        4
330
A56
330
A52
330
A8C
330
A43
 92
        7
 72
     0
 73
     1
 93
        4
 10
344.4056135572639
 20
438.465748996866
 10
344.4056135572639
 20
441.4657489968667
 10
319.4056135572639
 20
441.4657489968667
 10
319.4056135572639
 20
438.465748996866
 97
        4
330
A8B
330
A5B
330
A8C
330
A54
 92
        7
 72
     0
 73
     1
 93
        4
 10
104.4056135572643
 20
441.4657489968668
 10
104.4056135572643
 20
438.4657489968664
 10
129.4056135572643
 20
438.4657489968664
 10
129.4056135572643
 20
441.4657489968668
 97
        4
330
AD7
330
AD0
330
AE2
330
AC5
 92
        7
 72
     0
 73
     1
 93
        4
 10
90.40561355726437
 20
438.4657489968666
 10
90.40561355726437
 20
441.4657489968667
 10
59.40561355726437
 20
441.4657489968668
 10
59.40561355726435
 20
438.4657489968666
 97
        4
330
AE3
330
AE1
330
AE2
330
AD1
 75
     0
 76
     1
 52
45.0
 41
15.0
 77
     0
 78
     2
 53
45.0
 43
-4.852376045366554
 44
3.301942911894741
 45
-1.325825214724776
 46
1.325825214724776
 79
     0
 53
135.0
 43
-4.852376045366554
 44
3.301942911894741
 45
-1.325825214724776
 46
-1.325825214724776
 79
     0
 47
0.3592151782672798
 98
        4
 10
375.8168546231502
 20
439.4674159505198
 10
340.602778356513
 20
439.8266310400695
 10
118.1791648836681
 20
440.5450612191692
 10
83.32441484169953
 20
439.4674159505198
  0
HATCH
  5
A3A
330
1E
100
AcDbEntity
  8
SCHRAFF
100
AcDbHatch
 10
0.0
 20
0.0
 30
0.0
210
0.0
220
0.0
230
1.0
  2
_USER
 70
     0
 71
     0
 91
        2
 92
        7
 72
     1
 73
     1
 93
        5
 10
303.6158695864644
 20
421.4565186039227
 42
0.0
 10
302.6801459030999
 20
419.9989791744765
 42
0.0
 10
300.1556135572641
 20
421.6197001359094
 42
0.0
 10
299.7056135572643
 20
420.9187530989676
 42
0.0
 10
299.7056135572643
 20
415.3656688764736
 42
0.4710867035112652
 97
        0
 92
        7
 72
     1
 73
     1
 93
        6
 10
149.1056135572639
 20
420.9187530989677
 42
0.0
 10
148.6556135572641
 20
421.6197001359094
 42
0.0
 10
146.1310812114282
 20
419.9989791744766
 42
0.0
 10
145.1953575280638
 20
421.4565186039226
 42
0.4571665055715
 10
148.8927900162227
 20
415.3961985175257
 42
0.0
 10
149.1056135572639
 20
415.8519672377968
 42
0.0
 97
        0
 75
     0
 76
     0
 52
0.0
 41
0.1
 77
     0
 78
     1
 53
0.0
 43
-4.852376045366554
 44
3.301942911894741
 45
0.0
 46
0.1
 79
     0
 47
0.3493072198478198
 98
        2
 10
301.8963306678995
 20
418.7182328258552
 10
145.9987534586832
 20
418.0196179033747
  0
ARC
  5
A3B
330
1E
100
AcDbEntity
  8
SCHRAFF
100
AcDbCircle
 10
149.6654960405086
 20
420.025701783864
 30
0.0
 40
4.693546110672069
100
AcDbArc
 50
162.2509975199355
 51
263.1490024800667
  0
ARC
  5
A3C
330
1E
100
AcDbEntity
  8
SCHRAFF
100
AcDbCircle
 10
299.1457310740198
 20
420.0257017838639
 30
0.0
 40
4.693546110672069
100
AcDbArc
 50
276.8509975199334
 51
17.74900248006449
  0
ARC
  5
A3D
330
1E
100
AcDbEntity
  8
STEMPEL
100
AcDbCircle
 10
381.4056135572639
 20
446.9657489968667
 30
0.0
 40
3.0
100
AcDbArc
 50
270.0
 51
90.0
  0
LINE
  5
A3E
330
1E
100
AcDbEntity
  8
STEMPEL
100
AcDbLine
 10
389.4056135572644
 20
434.5870693404263
 30
0.0
 11
387.2842932137048
 21
432.4657489968664
 31
0.0
  0
LINE
  5
A3F
330
1E
100
AcDbEntity
  8
STEMPEL
100
AcDbLine
 10
389.4056135572644
 20
434.5870693404263
 30
0.0
 11
387.2842932137048
 21
436.7083896839861
 31
0.0
  0
ARC
  5
A40
330
1E
100
AcDbEntity
  8
STEMPEL
100
AcDbCircle
 10
383.0416525265853
 20
432.4657489968666
 30
0.0
 40
3.0
100
AcDbArc
 50
45.0
 51
90.0
  0
ARC
  5
A41
330
1E
100
AcDbEntity
  8
STEMPEL
100
AcDbCircle
 10
383.0416525265853
 20
432.4657489968666
 30
0.0
 40
6.0
100
AcDbArc
 50
45.0
 51
90.0
  0
LINE
  5
A42
330
1E
100
AcDbEntity
  8
STEMPEL
100
AcDbLine
 10
387.2842932137048
 20
432.4657489968666
 30
0.0
 11
385.1629728701448
 21
434.5870693404263
 31
0.0
  0
LINE
  5
A43
102
{ACAD_REACTORS
330
A36
102
}
330
1E
100
AcDbEntity
  8
STEMPEL
100
AcDbLine
 10
389.4056135572639
 20
441.4657489968667
 30
0.0
 11
389.4056135572639
 21
438.4657489968667
 31
0.0
  0
LINE
  5
A44
330
1E
100
AcDbEntity
  8
STEMPEL
100
AcDbLine
 10
356.4056135572639
 20
462.4657489968675
 30
0.0
 11
356.4056135572639
 21
459.9657489968669
 31
0.0
  0
LINE
  5
A45
330
1E
100
AcDbEntity
  8
STEMPEL
100
AcDbLine
 10
358.4056135572639
 20
449.9657489968667
 30
0.0
 11
358.4056135572639
 21
443.9657489968666
 31
0.0
  0
LINE
  5
A46
330
1E
100
AcDbEntity
  8
HILF
100
AcDbLine
 10
355.4056135572639
 20
463.4657489968675
 30
0.0
 11
355.4056135572639
 21
459.9657489968669
 31
0.0
  0
LINE
  5
A47
330
1E
100
AcDbEntity
  8
STEMPEL
100
AcDbLine
 10
355.4056135572639
 20
463.4657489968675
 30
0.0
 11
356.4056135572639
 21
462.4657489968675
 31
0.0
  0
LINE
  5
A48
330
1E
100
AcDbEntity
  8
STEMPEL
100
AcDbLine
 10
346.4056135572639
 20
462.4657489968675
 30
0.0
 11
346.4056135572639
 21
459.965748996867
 31
0.0
  0
LINE
  5
A49
330
1E
100
AcDbEntity
  8
STEMPEL
100
AcDbLine
 10
344.4056135572639
 20
449.9657489968667
 30
0.0
 11
344.4056135572639
 21
443.9657489968665
 31
0.0
  0
LINE
  5
A4A
330
1E
100
AcDbEntity
  8
STEMPEL
100
AcDbLine
 10
346.4056135572639
 20
462.4657489968675
 30
0.0
 11
347.4056135572639
 21
463.4657489968675
 31
0.0
  0
LINE
  5
A4B
330
1E
100
AcDbEntity
  8
HILF
100
AcDbLine
 10
347.4056135572639
 20
463.4657489968675
 30
0.0
 11
347.4056135572639
 21
459.9657489968669
 31
0.0
  0
LINE
  5
A4C
330
1E
100
AcDbEntity
  8
STEMPEL
100
AcDbLine
 10
356.4056135572639
 20
462.4657489968675
 30
0.0
 11
346.4056135572639
 21
462.4657489968675
 31
0.0
  0
LINE
  5
A4D
330
1E
100
AcDbEntity
  8
STEMPEL
100
AcDbLine
 10
347.4056135572639
 20
463.4657489968675
 30
0.0
 11
355.4056135572639
 21
463.4657489968675
 31
0.0
  0
LINE
  5
A4E
330
1E
100
AcDbEntity
  8
STEMPEL
100
AcDbLine
 10
356.4056135572639
 20
449.9657489968667
 30
0.0
 11
356.4056135572639
 21
438.4657489968663
 31
0.0
  0
LINE
  5
A4F
330
1E
100
AcDbEntity
  8
MITTEL
100
AcDbLine
 10
351.4056135572639
 20
468.4657489968659
 30
0.0
 11
351.4056135572639
 21
438.4657489968664
 31
0.0
  0
LINE
  5
A50
330
1E
100
AcDbEntity
  8
HILF
100
AcDbLine
 10
355.4056135572639
 20
449.9657489968668
 30
0.0
 11
355.4056135572639
 21
438.4657489968663
 31
0.0
  0
LINE
  5
A51
330
1E
100
AcDbEntity
  8
HILF
100
AcDbLine
 10
347.4056135572639
 20
449.9657489968668
 30
0.0
 11
347.4056135572639
 21
438.4657489968662
 31
0.0
  0
LINE
  5
A52
102
{ACAD_REACTORS
330
A36
102
}
330
1E
100
AcDbEntity
  8
STEMPEL
100
AcDbLine
 10
358.4056135572639
 20
441.4657489968667
 30
0.0
 11
358.4056135572639
 21
438.4657489968663
 31
0.0
  0
LINE
  5
A53
330
1E
100
AcDbEntity
  8
STEMPEL
100
AcDbLine
 10
346.4056135572639
 20
449.9657489968668
 30
0.0
 11
346.4056135572639
 21
438.4657489968662
 31
0.0
  0
LINE
  5
A54
102
{ACAD_REACTORS
330
A36
102
}
330
1E
100
AcDbEntity
  8
STEMPEL
100
AcDbLine
 10
344.4056135572639
 20
441.4657489968667
 30
0.0
 11
344.4056135572639
 21
438.4657489968662
 31
0.0
  0
LINE
  5
A55
330
1E
100
AcDbEntity
  8
STEMPEL
100
AcDbLine
 10
381.4056135572639
 20
443.9657489968666
 30
0.0
 11
356.4056135572639
 21
443.9657489968666
 31
0.0
  0
LINE
  5
A56
102
{ACAD_REACTORS
330
A36
102
}
330
1E
100
AcDbEntity
  8
STEMPEL
100
AcDbLine
 10
389.4056135572639
 20
441.4657489968667
 30
0.0
 11
356.4056135572639
 21
441.4657489968667
 31
0.0
  0
ARC
  5
A57
330
1E
100
AcDbEntity
  8
STEMPEL
100
AcDbCircle
 10
321.4056135572639
 20
446.9657489968667
 30
0.0
 40
3.0
100
AcDbArc
 50
90.0
 51
270.0
  0
ARC
  5
A58
330
1E
100
AcDbEntity
  8
STEMPEL
100
AcDbCircle
 10
314.2486865956684
 20
432.465748996867
 30
0.0
 40
6.0
100
AcDbArc
 50
90.0
 51
147.2999999999998
  0
ARC
  5
A59
330
1E
100
AcDbEntity
  8
STEMPEL
100
AcDbCircle
 10
314.2486865956684
 20
432.465748996867
 30
0.0
 40
3.0
100
AcDbArc
 50
90.0
 51
147.2999999999998
  0
LINE
  5
A5B
102
{ACAD_REACTORS
330
A36
102
}
330
1E
100
AcDbEntity
  8
STEMPEL
100
AcDbLine
 10
319.4056135572639
 20
441.4657489968667
 30
0.0
 11
319.4056135572639
 21
438.4657489968667
 31
0.0
  0
ARC
  5
A5C
102
{ACAD_REACTORS
330
FF2
102
}
330
1E
100
AcDbEntity
  8
STEMPEL
100
AcDbCircle
 10
294.8814536439051
 20
446.6657489968661
 30
0.0
 40
2.799999999999999
100
AcDbArc
 50
15.00000000000074
 51
90.0
  0
LINE
  5
A5D
330
1E
100
AcDbEntity
  8
STEMPEL
  6
Continuous
100
AcDbLine
 10
296.4640583546704
 20
442.4657489968662
 30
0.0
 11
296.8948471683636
 21
441.5419194046227
 31
0.0
  0
LINE
  5
A5E
102
{ACAD_REACTORS
330
FF2
102
}
330
1E
100
AcDbEntity
  8
STEMPEL
100
AcDbLine
 10
298.9056135572641
 20
442.4657489968662
 30
0.0
 11
297.5860459575147
 21
447.3904423231533
 31
0.0
  0
LINE
  5
A5F
330
1E
100
AcDbEntity
  8
STEMPEL
100
AcDbLine
 10
292.9056135572639
 20
462.4657489968675
 30
0.0
 11
292.9056135572639
 21
459.9657489968669
 31
0.0
  0
LINE
  5
A60
102
{ACAD_REACTORS
330
FF2
102
}
330
1E
100
AcDbEntity
  8
STEMPEL
100
AcDbLine
 10
290.9056135572641
 20
442.4657489968662
 30
0.0
 11
292.2251811570138
 21
447.3904423231533
 31
0.0
  0
LINE
  5
A61
102
{ACAD_REACTORS
330
FF2
102
}
330
1E
100
AcDbEntity
  8
STEMPEL
  6
Continuous
100
AcDbLine
 10
294.257302516746
 20
442.4657489968662
 30
0.0
 11
295.0822315942903
 21
440.6966828811416
 31
0.0
  0
LINE
  5
A62
102
{ACAD_REACTORS
330
FF2
102
}
330
1E
100
AcDbEntity
  8
STEMPEL
100
AcDbLine
 10
298.9056135572641
 20
442.4657489968662
 30
0.0
 11
294.257302516746
 21
442.4657489968662
 31
0.0
  0
ARC
  5
A63
102
{ACAD_REACTORS
330
FF2
102
}
330
1E
100
AcDbEntity
  8
STEMPEL
100
AcDbCircle
 10
294.9297734706231
 20
446.6657489968661
 30
0.0
 40
2.799999999999999
100
AcDbArc
 50
90.0
 51
164.9999999999992
  0
LINE
  5
A65
330
1E
100
AcDbEntity
  8
HILF
100
AcDbLine
 10
291.9056135572639
 20
463.4657489968675
 30
0.0
 11
291.9056135572639
 21
459.9657489968669
 31
0.0
  0
LINE
  5
A66
330
1E
100
AcDbEntity
  8
STEMPEL
100
AcDbLine
 10
291.9056135572639
 20
463.4657489968675
 30
0.0
 11
292.9056135572639
 21
462.4657489968675
 31
0.0
  0
LINE
  5
A6A
330
1E
100
AcDbEntity
  8
STEMPEL
100
AcDbLine
 10
292.9056135572639
 20
462.4657489968675
 30
0.0
 11
290.9056135572641
 21
462.4657489968675
 31
0.0
  0
LINE
  5
A6B
330
1E
100
AcDbEntity
  8
STEMPEL
100
AcDbLine
 10
290.9056135572641
 20
463.4657489968674
 30
0.0
 11
291.9056135572639
 21
463.4657489968675
 31
0.0
  0
LINE
  5
A6C
330
1E
100
AcDbEntity
  8
STEMPEL
100
AcDbLine
 10
300.1556135572641
 20
421.6197001359094
 30
0.0
 11
302.6801459030999
 21
419.9989791744766
 31
0.0
  0
LINE
  5
A6D
102
{ACAD_REACTORS
330
FF2
102
}
330
1E
100
AcDbEntity
  8
STEMPEL
100
AcDbLine
 10
297.7056135572643
 20
418.2279268065262
 30
0.0
 11
296.488198551622
 21
418.2279268065263
 31
0.0
  0
LINE
  5
A6E
102
{ACAD_REACTORS
330
FF2
102
}
330
1E
100
AcDbEntity
  8
STEMPEL
100
AcDbLine
 10
295.1056135572642
 20
422.4657489968662
 30
0.0
 11
294.5624678067563
 21
422.4657489968662
 31
0.0
  0
ARC
  5
A6F
102
{ACAD_REACTORS
330
FF2
102
}
330
1E
100
AcDbEntity
  8
STEMPEL
100
AcDbCircle
 10
271.2438668544278
 20
421.3008539716362
 30
0.0
 40
23.34767934493167
100
AcDbArc
 50
344.1001151233008
 51
2.859868424732452
  0
LINE
  5
A70
102
{ACAD_REACTORS
330
FF2
102
}
330
1E
100
AcDbEntity
  8
STEMPEL
100
AcDbLine
 10
296.488198551622
 20
418.2279268065263
 30
0.0
 11
295.1056135572642
 21
422.4657489968662
 31
0.0
  0
ARC
  5
A71
330
1E
100
AcDbEntity
  8
STEMPEL
  6
Continuous
100
AcDbCircle
 10
269.7003163066924
 20
409.7585477247115
 30
0.0
 40
30.00529730448587
100
AcDbArc
 50
334.9940049606784
 51
359.9965652893524
  0
ARC
  5
A72
330
1E
100
AcDbEntity
  8
STEMPEL
  6
Continuous
100
AcDbCircle
 10
269.7003162382166
 20
409.758547747963
 30
0.0
 40
28.00529737681344
100
AcDbArc
 50
334.9940880537339
 51
359.9963199517248
  0
LINE
  5
A73
102
{ACAD_REACTORS
330
FF2
102
}
330
1E
100
AcDbEntity
  8
STEMPEL
  6
Continuous
100
AcDbLine
 10
297.7056135572643
 20
428.8633715524019
 30
0.0
 11
297.7056135572643
 21
409.7567489968661
 31
0.0
  0
LINE
  5
A74
330
1E
100
AcDbEntity
  8
STEMPEL
  6
Continuous
100
AcDbLine
 10
299.7056135572643
 20
428.8633715524019
 30
0.0
 11
299.7056135572643
 21
409.7567489968661
 31
0.0
  0
ARC
  5
A78
330
1E
100
AcDbEntity
  8
STEMPEL
  6
Continuous
100
AcDbCircle
 10
269.7056135572643
 20
428.8633715524019
 30
0.0
 40
30.0
100
AcDbArc
 50
0.0
 51
24.99999999999935
  0
ARC
  5
A79
102
{ACAD_REACTORS
330
FF2
102
}
330
1E
100
AcDbEntity
  8
STEMPEL
  6
Continuous
100
AcDbCircle
 10
269.7056135572643
 20
428.8633715524019
 30
0.0
 40
28.0
100
AcDbArc
 50
0.0
 51
24.99999999999935
  0
LINE
  5
A7A
330
1E
100
AcDbEntity
  8
STEMPEL
100
AcDbLine
 10
311.7241542498327
 20
434.0864699582999
 30
0.0
 11
302.6801459030999
 21
419.9989791744766
 31
0.0
  0
LINE
  5
A7B
330
1E
100
AcDbEntity
  8
STEMPEL
100
AcDbLine
 10
309.1996219039968
 20
435.7071909197328
 30
0.0
 11
299.7056135572643
 21
420.9187530989677
 31
0.0
  0
ARC
  5
A7C
330
1E
100
AcDbEntity
  8
STEMPEL
  6
Continuous
100
AcDbCircle
 10
277.2056135572648
 20
310.9344684195368
 30
0.0
 40
15.99999999999934
100
AcDbArc
 50
327.8253200704697
 51
0.0
  0
ARC
  5
A7D
330
1E
100
AcDbEntity
  8
STEMPEL
  6
Continuous
100
AcDbCircle
 10
277.2056135572652
 20
310.9344684195368
 30
0.0
 40
17.99999999999875
100
AcDbArc
 50
327.8253200704697
 51
0.0
  0
LINE
  5
A7E
330
1E
100
AcDbEntity
  8
STEMPEL
  6
Continuous
100
AcDbLine
 10
293.2056135572641
 20
389.4657489968663
 30
0.0
 11
293.2056135572641
 21
310.9344684195373
 31
0.0
  0
LINE
  5
A7F
330
1E
100
AcDbEntity
  8
STEMPEL
  6
Continuous
100
AcDbLine
 10
295.2056135572641
 20
389.4657489968663
 30
0.0
 11
295.2056135572641
 21
310.9344684195373
 31
0.0
  0
ARC
  5
A80
330
1E
100
AcDbEntity
  8
STEMPEL
  6
Continuous
100
AcDbCircle
 10
313.2056135572707
 20
389.4657489968644
 30
0.0
 40
18.00000000000656
100
AcDbArc
 50
154.9928416634431
 51
179.9999999999935
  0
ARC
  5
A81
330
1E
100
AcDbEntity
  8
STEMPEL
  6
Continuous
100
AcDbCircle
 10
313.2056135572718
 20
389.4657489968643
 30
0.0
 40
20.00000000000776
100
AcDbArc
 50
154.992841663449
 51
179.9999999999935
  0
TEXT
  5
A85
330
1E
100
AcDbEntity
  8
TEXT
 62
     1
100
AcDbText
 10
213.7796832008103
 20
207.7767147739889
 30
0.0
 40
7.0
  1
DN125
 50
90.0
 41
0.8
  7
GREEKS
100
AcDbText
  0
LINE
  5
A89
330
1E
100
AcDbEntity
  8
STEMPEL
100
AcDbLine
 10
387.284293213705
 20
432.4657489968663
 30
0.0
 11
310.6836698848126
 21
432.4657489968663
 31
0.0
  0
LINE
  5
A8A
330
1E
100
AcDbEntity
  8
STEMPEL
100
AcDbLine
 10
383.0416525265853
 20
435.4657489968666
 30
0.0
 11
314.2486865956684
 21
435.4657489968666
 31
0.0
  0
LINE
  5
A8B
102
{ACAD_REACTORS
330
A36
102
}
330
1E
100
AcDbEntity
  8
STEMPEL
100
AcDbLine
 10
296.9302362864639
 20
441.4657489968666
 30
0.0
 11
346.4056135572644
 21
441.4657489968666
 31
0.0
  0
LINE
  5
A8C
102
{ACAD_REACTORS
330
A36
102
}
330
1E
100
AcDbEntity
  8
STEMPEL
100
AcDbLine
 10
298.1273367177985
 20
438.465748996866
 30
0.0
 11
389.4056135572644
 21
438.4657489968659
 31
0.0
  0
LINE
  5
A8D
330
1E
100
AcDbEntity
  8
STEMPEL
100
AcDbLine
 10
298.5036897686174
 20
443.9657489968665
 30
0.0
 11
346.4056135572644
 21
443.9657489968665
 31
0.0
  0
LINE
  5
A8F
330
1E
100
AcDbEntity
  8
STEMPEL
100
AcDbLine
 10
288.9056135572641
 20
175.5530708826878
 30
0.0
 11
287.4106666022362
 21
158.4657489968666
 31
0.0
  0
LINE
  5
A90
330
1E
100
AcDbEntity
  8
STEMPEL
100
AcDbLine
 10
290.9056135572644
 20
175.4657489968732
 30
0.0
 11
289.4183062773229
 21
158.4657489968666
 31
0.0
  0
LINE
  5
A91
330
1E
100
AcDbEntity
  8
STEMPEL
  6
Continuous
100
AcDbLine
 10
290.9056135572644
 20
296.0244047040458
 30
0.0
 11
290.9056135572644
 21
175.4657489968732
 31
0.0
  0
LINE
  5
A92
330
1E
100
AcDbEntity
  8
STEMPEL
  6
Continuous
100
AcDbLine
 10
288.9056135572641
 20
296.0244047040461
 30
0.0
 11
288.9056135572641
 21
175.5530708826882
 31
0.0
  0
LINE
  5
A96
330
1E
100
AcDbEntity
  8
MITTEL
100
AcDbLine
 10
224.4056135572644
 20
712.9108936047057
 30
0.0
 11
224.4056135572641
 21
501.4367480988673
 31
0.0
  0
ARC
  5
A97
330
1E
100
AcDbEntity
  8
STEMPEL
  6
Continuous
100
AcDbCircle
 10
300.9056135572655
 20
296.0244047040458
 30
0.0
 40
10.00000000000133
100
AcDbArc
 50
147.8253200704787
 51
179.9999999999935
  0
ARC
  5
A98
330
1E
100
AcDbEntity
  8
STEMPEL
  6
Continuous
100
AcDbCircle
 10
300.9056135572651
 20
296.0244047040461
 30
0.0
 40
12.00000000000085
100
AcDbArc
 50
147.8253200704787
 51
180.0
  0
LINE
  5
A9B
330
1E
100
AcDbEntity
  8
STEMPEL
100
AcDbLine
 10
157.9056135572642
 20
462.9657489968675
 30
0.0
 11
156.9056135572643
 21
462.9657489968675
 31
0.0
  0
LINE
  5
A9E
330
1E
100
AcDbEntity
  8
HILF
100
AcDbLine
 10
156.9056135572643
 20
462.9657489968675
 30
0.0
 11
156.9056135572643
 21
459.9657489968668
 31
0.0
  0
LINE
  5
AA1
330
1E
100
AcDbEntity
  8
STEMPEL
100
AcDbLine
 10
155.9056135572643
 20
461.9657489968674
 30
0.0
 11
155.9056135572643
 21
459.9657489968667
 31
0.0
  0
LINE
  5
AA2
330
1E
100
AcDbEntity
  8
STEMPEL
  6
Continuous
100
AcDbLine
 10
152.3471687598578
 20
442.4657489968662
 30
0.0
 11
151.9163799461646
 21
441.5419194046227
 31
0.0
  0
LINE
  5
AA3
102
{ACAD_REACTORS
330
FF2
102
}
330
1E
100
AcDbEntity
  8
STEMPEL
  6
Continuous
100
AcDbLine
 10
154.5539245977822
 20
442.4657489968662
 30
0.0
 11
153.7289955202379
 21
440.6966828811416
 31
0.0
  0
LINE
  5
AA7
330
1E
100
AcDbEntity
  8
STEMPEL
100
AcDbLine
 10
155.9056135572643
 20
461.9657489968674
 30
0.0
 11
157.9056135572641
 21
461.9657489968674
 31
0.0
  0
LINE
  5
AA8
330
1E
100
AcDbEntity
  8
STEMPEL
100
AcDbLine
 10
156.9056135572643
 20
462.9657489968675
 30
0.0
 11
155.9056135572643
 21
461.9657489968674
 31
0.0
  0
LINE
  5
AAF
330
1E
100
AcDbEntity
  8
STEMPEL
100
AcDbLine
 10
139.6116052105315
 20
435.7071909197328
 30
0.0
 11
149.1056135572639
 21
420.9187530989677
 31
0.0
  0
LINE
  5
AB0
330
1E
100
AcDbEntity
  8
STEMPEL
100
AcDbLine
 10
148.6556135572641
 20
421.6197001359094
 30
0.0
 11
146.1310812114282
 21
419.9989791744766
 31
0.0
  0
LINE
  5
AB1
330
1E
100
AcDbEntity
  8
STEMPEL
  6
Continuous
100
AcDbLine
 10
149.105877297572
 20
409.7567489968661
 30
0.0
 11
149.1056135572639
 21
409.7567489968661
 31
0.0
  0
ARC
  5
AB2
330
1E
100
AcDbEntity
  8
STEMPEL
  6
Continuous
100
AcDbCircle
 10
179.1109108763116
 20
409.758547747963
 30
0.0
 40
28.00529737681344
100
AcDbArc
 50
180.0036800482752
 51
205.0059119462661
  0
ARC
  5
AB3
330
1E
100
AcDbEntity
  8
STEMPEL
  6
Continuous
100
AcDbCircle
 10
179.1109108078358
 20
409.7585477247115
 30
0.0
 40
30.00529730448587
100
AcDbArc
 50
180.0034347106476
 51
205.0059950393217
  0
LINE
  5
AB5
102
{ACAD_REACTORS
330
FF2
102
}
330
1E
100
AcDbEntity
  8
STEMPEL
  6
Continuous
100
AcDbLine
 10
151.1056135572639
 20
428.8633715524019
 30
0.0
 11
151.1056135572639
 21
409.7567489968661
 31
0.0
  0
LINE
  5
AB6
330
1E
100
AcDbEntity
  8
STEMPEL
  6
Continuous
100
AcDbLine
 10
149.1056135572639
 20
428.8633715524019
 30
0.0
 11
149.1056135572639
 21
409.7567489968661
 31
0.0
  0
ARC
  5
ABA
102
{ACAD_REACTORS
330
FF2
102
}
330
1E
100
AcDbEntity
  8
STEMPEL
  6
Continuous
100
AcDbCircle
 10
179.1056135572639
 20
428.8633715524019
 30
0.0
 40
28.0
100
AcDbArc
 50
155.0000000000006
 51
180.0
  0
ARC
  5
ABB
330
1E
100
AcDbEntity
  8
STEMPEL
  6
Continuous
100
AcDbCircle
 10
179.1056135572639
 20
428.8633715524019
 30
0.0
 40
30.0
100
AcDbArc
 50
155.0000000000006
 51
180.0
  0
HATCH
  5
ABC
330
1E
100
AcDbEntity
  8
SCHRAFF
100
AcDbHatch
 10
0.0
 20
0.0
 30
0.0
210
0.0
220
0.0
230
1.0
  2
_USER
 70
     0
 71
     0
 91
        1
 92
        7
 72
     1
 73
     1
 93
        8
 10
153.7289955202379
 20
440.6966828811416
 42
0.0
 10
154.5539245977822
 20
442.4657489968662
 42
0.0
 10
152.3471687598578
 20
442.4657489968663
 42
0.0
 10
151.9163799461646
 20
441.5419194046227
 42
0.109517811683245
 10
149.1056135572639
 20
428.8633715524014
 42
0.0
 10
149.1056135572639
 20
415.8519672377968
 42
0.0
 10
151.1056135572639
 20
420.1350340267546
 42
0.0
 10
151.1056135572639
 20
428.8633715524019
 42
-0.1095178116832429
 97
        0
 75
     0
 76
     0
 52
135.0
 41
2.0
 77
     0
 78
     1
 53
135.0
 43
-4.852376045366554
 44
3.301942911894741
 45
-1.414213562373095
 46
-1.414213562373094
 79
     0
 47
0.1818927594781915
 98
        1
 10
150.9932353304696
 20
435.3190270242246
  0
ARC
  5
ABD
330
1E
100
AcDbEntity
  8
STEMPEL
  6
Continuous
100
AcDbCircle
 10
171.605613557263
 20
310.9344684195368
 30
0.0
 40
17.99999999999875
100
AcDbArc
 50
180.0
 51
212.1746799295303
  0
ARC
  5
ABE
330
1E
100
AcDbEntity
  8
STEMPEL
  6
Continuous
100
AcDbCircle
 10
171.6056135572635
 20
310.9344684195368
 30
0.0
 40
15.99999999999934
100
AcDbArc
 50
180.0
 51
212.1746799295303
  0
LINE
  5
ABF
330
1E
100
AcDbEntity
  8
STEMPEL
  6
Continuous
100
AcDbLine
 10
153.6056135572642
 20
389.4657489968663
 30
0.0
 11
153.6056135572642
 21
310.9344684195373
 31
0.0
  0
LINE
  5
AC0
330
1E
100
AcDbEntity
  8
STEMPEL
  6
Continuous
100
AcDbLine
 10
155.6056135572642
 20
389.4657489968663
 30
0.0
 11
155.6056135572642
 21
310.9344684195373
 31
0.0
  0
ARC
  5
AC1
330
1E
100
AcDbEntity
  8
STEMPEL
  6
Continuous
100
AcDbCircle
 10
135.6056135572564
 20
389.4657489968643
 30
0.0
 40
20.00000000000776
100
AcDbArc
 50
0.0000000000065138
 51
25.00715833655098
  0
ARC
  5
AC2
330
1E
100
AcDbEntity
  8
STEMPEL
  6
Continuous
100
AcDbCircle
 10
135.6056135572575
 20
389.4657489968644
 30
0.0
 40
18.00000000000656
100
AcDbArc
 50
0.0000000000065138
 51
25.00715833655689
  0
ARC
  5
AC3
330
1E
100
AcDbEntity
  8
STEMPEL
100
AcDbCircle
 10
127.4056135572643
 20
446.9657489968667
 30
0.0
 40
3.0
100
AcDbArc
 50
270.0
 51
90.0
  0
ARC
  5
AC4
330
1E
100
AcDbEntity
  8
STEMPEL
100
AcDbCircle
 10
134.5625405188596
 20
432.465748996867
 30
0.0
 40
3.0
100
AcDbArc
 50
32.70000000000014
 51
90.0
  0
LINE
  5
AC5
102
{ACAD_REACTORS
330
A36
102
}
330
1E
100
AcDbEntity
  8
STEMPEL
100
AcDbLine
 10
129.4056135572643
 20
441.4657489968667
 30
0.0
 11
129.4056135572643
 21
438.4657489968667
 31
0.0
  0
LINE
  5
AC6
330
1E
100
AcDbEntity
  8
STEMPEL
100
AcDbLine
 10
101.4056135572643
 20
463.4657489968675
 30
0.0
 11
93.40561355726435
 21
463.4657489968675
 31
0.0
  0
LINE
  5
AC7
330
1E
100
AcDbEntity
  8
STEMPEL
100
AcDbLine
 10
102.4056135572643
 20
462.4657489968675
 30
0.0
 11
102.4056135572643
 21
459.9657489968667
 31
0.0
  0
LINE
  5
AC8
330
1E
100
AcDbEntity
  8
STEMPEL
100
AcDbLine
 10
104.4056135572643
 20
449.9657489968667
 30
0.0
 11
104.4056135572643
 21
443.9657489968666
 31
0.0
  0
LINE
  5
AC9
330
1E
100
AcDbEntity
  8
STEMPEL
100
AcDbLine
 10
92.40561355726436
 20
462.4657489968675
 30
0.0
 11
92.40561355726436
 21
459.9657489968667
 31
0.0
  0
LINE
  5
ACA
330
1E
100
AcDbEntity
  8
STEMPEL
100
AcDbLine
 10
90.40561355726437
 20
449.9657489968667
 30
0.0
 11
90.40561355726437
 21
443.9657489968666
 31
0.0
  0
LINE
  5
ACB
330
1E
100
AcDbEntity
  8
STEMPEL
100
AcDbLine
 10
92.40561355726436
 20
462.4657489968675
 30
0.0
 11
102.4056135572643
 21
462.4657489968675
 31
0.0
  0
LINE
  5
ACC
330
1E
100
AcDbEntity
  8
STEMPEL
100
AcDbLine
 10
93.40561355726435
 20
463.4657489968675
 30
0.0
 11
92.40561355726436
 21
462.4657489968675
 31
0.0
  0
LINE
  5
ACD
330
1E
100
AcDbEntity
  8
HILF
100
AcDbLine
 10
93.40561355726435
 20
463.4657489968675
 30
0.0
 11
93.40561355726435
 21
459.9657489968667
 31
0.0
  0
LINE
  5
ACE
330
1E
100
AcDbEntity
  8
HILF
100
AcDbLine
 10
101.4056135572643
 20
463.4657489968675
 30
0.0
 11
101.4056135572643
 21
459.9657489968667
 31
0.0
  0
LINE
  5
ACF
330
1E
100
AcDbEntity
  8
STEMPEL
100
AcDbLine
 10
102.4056135572643
 20
462.4657489968675
 30
0.0
 11
101.4056135572643
 21
463.4657489968675
 31
0.0
  0
LINE
  5
AD0
102
{ACAD_REACTORS
330
A36
102
}
330
1E
100
AcDbEntity
  8
STEMPEL
100
AcDbLine
 10
104.4056135572643
 20
441.4657489968667
 30
0.0
 11
104.4056135572643
 21
438.4657489968662
 31
0.0
  0
LINE
  5
AD1
102
{ACAD_REACTORS
330
A36
102
}
330
1E
100
AcDbEntity
  8
STEMPEL
100
AcDbLine
 10
90.40561355726437
 20
441.4657489968667
 30
0.0
 11
90.40561355726437
 21
438.4657489968663
 31
0.0
  0
LINE
  5
AD2
330
1E
100
AcDbEntity
  8
HILF
100
AcDbLine
 10
101.4056135572643
 20
449.9657489968668
 30
0.0
 11
101.4056135572643
 21
438.4657489968662
 31
0.0
  0
LINE
  5
AD3
330
1E
100
AcDbEntity
  8
HILF
100
AcDbLine
 10
93.40561355726435
 20
449.9657489968668
 30
0.0
 11
93.40561355726435
 21
438.4657489968663
 31
0.0
  0
LINE
  5
AD4
330
1E
100
AcDbEntity
  8
MITTEL
100
AcDbLine
 10
97.40561355726436
 20
468.4657489968663
 30
0.0
 11
97.40561355726436
 21
438.4657489968664
 31
0.0
  0
LINE
  5
AD5
330
1E
100
AcDbEntity
  8
STEMPEL
100
AcDbLine
 10
102.4056135572643
 20
449.9657489968668
 30
0.0
 11
102.4056135572643
 21
438.4657489968662
 31
0.0
  0
LINE
  5
AD6
330
1E
100
AcDbEntity
  8
STEMPEL
100
AcDbLine
 10
92.40561355726436
 20
449.9657489968667
 30
0.0
 11
92.40561355726436
 21
438.4657489968663
 31
0.0
  0
LINE
  5
AD7
102
{ACAD_REACTORS
330
A36
102
}
330
1E
100
AcDbEntity
  8
STEMPEL
100
AcDbLine
 10
102.4056135572643
 20
441.4657489968668
 30
0.0
 11
151.8809908280645
 21
441.4657489968667
 31
0.0
  0
LINE
  5
AD8
330
1E
100
AcDbEntity
  8
STEMPEL
100
AcDbLine
 10
102.4056135572643
 20
443.9657489968666
 30
0.0
 11
149.3075373459108
 21
443.9657489968665
 31
0.0
  0
LINE
  5
AD9
330
1E
100
AcDbEntity
  8
STEMPEL
100
AcDbLine
 10
137.0870728646955
 20
434.0864699582999
 30
0.0
 11
146.1310812114282
 21
419.9989791744766
 31
0.0
  0
ARC
  5
ADA
330
1E
100
AcDbEntity
  8
STEMPEL
100
AcDbCircle
 10
134.5625405188596
 20
432.465748996867
 30
0.0
 40
6.0
100
AcDbArc
 50
32.70000000000014
 51
90.0
  0
ARC
  5
ADB
330
1E
100
AcDbEntity
  8
STEMPEL
100
AcDbCircle
 10
67.40561355726436
 20
446.9657489968667
 30
0.0
 40
3.0
100
AcDbArc
 50
90.0
 51
270.0
  0
LINE
  5
ADC
330
1E
100
AcDbEntity
  8
STEMPEL
100
AcDbLine
 10
59.40561355726448
 20
434.5870693404263
 30
0.0
 11
61.52693390082402
 21
432.4657489968664
 31
0.0
  0
LINE
  5
ADD
330
1E
100
AcDbEntity
  8
STEMPEL
100
AcDbLine
 10
59.40561355726448
 20
434.5870693404263
 30
0.0
 11
61.52693390082402
 21
436.7083896839861
 31
0.0
  0
LINE
  5
ADE
330
1E
100
AcDbEntity
  8
STEMPEL
100
AcDbLine
 10
61.52693390082402
 20
432.4657489968666
 30
0.0
 11
63.64825424438402
 21
434.5870693404263
 31
0.0
  0
ARC
  5
ADF
330
1E
100
AcDbEntity
  8
STEMPEL
100
AcDbCircle
 10
65.76957458794357
 20
432.4657489968666
 30
0.0
 40
3.0
100
AcDbArc
 50
90.0
 51
135.0
  0
ARC
  5
AE0
330
1E
100
AcDbEntity
  8
STEMPEL
100
AcDbCircle
 10
65.76957458794357
 20
432.4657489968666
 30
0.0
 40
6.0
100
AcDbArc
 50
90.0
 51
135.0
  0
LINE
  5
AE1
102
{ACAD_REACTORS
330
A36
102
}
330
1E
100
AcDbEntity
  8
STEMPEL
100
AcDbLine
 10
59.40561355726436
 20
441.4657489968667
 30
0.0
 11
59.40561355726436
 21
438.4657489968667
 31
0.0
  0
LINE
  5
AE2
102
{ACAD_REACTORS
330
A36
102
}
330
1E
100
AcDbEntity
  8
STEMPEL
100
AcDbLine
 10
59.40561355726436
 20
438.4657489968667
 30
0.0
 11
150.6838903967299
 21
438.4657489968664
 31
0.0
  0
LINE
  5
AE3
102
{ACAD_REACTORS
330
A36
102
}
330
1E
100
AcDbEntity
  8
STEMPEL
100
AcDbLine
 10
59.40561355726436
 20
441.4657489968667
 30
0.0
 11
92.40561355726436
 21
441.4657489968667
 31
0.0
  0
LINE
  5
AE4
330
1E
100
AcDbEntity
  8
STEMPEL
100
AcDbLine
 10
67.40561355726436
 20
443.9657489968666
 30
0.0
 11
92.40561355726436
 21
443.9657489968666
 31
0.0
  0
LINE
  5
AEB
330
1E
100
AcDbEntity
  8
STEMPEL
100
AcDbLine
 10
61.52693390082379
 20
432.4657489968663
 30
0.0
 11
138.1275572297154
 21
432.4657489968663
 31
0.0
  0
LINE
  5
AEC
330
1E
100
AcDbEntity
  8
STEMPEL
100
AcDbLine
 10
65.76957458794357
 20
435.4657489968666
 30
0.0
 11
134.5625405188596
 21
435.4657489968666
 31
0.0
  0
LINE
  5
AEE
330
1E
100
AcDbEntity
  8
STEMPEL
100
AcDbLine
 10
159.9056135572643
 20
175.5530708826842
 30
0.0
 11
161.4005605122918
 21
158.4657489968666
 31
0.0
  0
LINE
  5
AEF
330
1E
100
AcDbEntity
  8
STEMPEL
100
AcDbLine
 10
157.9056135572643
 20
175.4657489968671
 30
0.0
 11
159.3929208372051
 21
158.4657489968666
 31
0.0
  0
LINE
  5
AF0
330
1E
100
AcDbEntity
  8
STEMPEL
  6
Continuous
100
AcDbLine
 10
159.905613557264
 20
296.0244047040461
 30
0.0
 11
159.9056135572641
 21
175.465748996867
 31
0.0
  0
LINE
  5
AF1
330
1E
100
AcDbEntity
  8
STEMPEL
  6
Continuous
100
AcDbLine
 10
157.9056135572643
 20
296.0244047040458
 30
0.0
 11
157.9056135572644
 21
175.465748996867
 31
0.0
  0
DIMENSION
  5
AF2
330
1E
100
AcDbEntity
  8
BEM
100
AcDbDimension
  2
*D1
 10
35.55728744791372
 20
438.4657489968667
 30
0.0
 11
30.05728744791364
 21
298.4657489968667
 31
0.0
 70
    32
 71
     5
 42
280.0
  3
Standard
100
AcDbAlignedDimension
 13
159.3929208372051
 23
158.4657489968666
 33
0.0
 14
59.40561355726436
 24
438.4657489968667
 34
0.0
 50
90.0
100
AcDbRotatedDimension
1001
ACAD
1000
DSTYLE
1002
{
1070
    40
1040
2.0
1070
    41
1040
3.5
1070
    42
1040
1.0
1070
    43
1040
7.0
1070
    44
1040
1.0
1070
    47
1040
0.7
1070
    48
1040
0.7
1070
    73
1070
     0
1070
    74
1070
     0
1070
    77
1070
     1
1070
    78
1070
     8
1070
   140
1040
3.5
1070
   141
1040
1.5
1070
   146
1040
0.5142857142857144
1070
   147
1040
1.0
1070
   172
1070
     1
1070
   178
1070
     1
1070
   271
1070
     2
1070
   272
1070
     2
1070
   279
1070
     2
1070
   284
1070
     8
1070
   285
1070
     8
1070
   286
1070
     8
1070
   340
1005
24
1002
}
  0
ARC
  5
AF3
330
1E
100
AcDbEntity
  8
STEMPEL
  6
Continuous
100
AcDbCircle
 10
147.9056135572627
 20
296.0244047040458
 30
0.0
 40
10.00000000000133
100
AcDbArc
 50
0.0
 51
32.17467992952127
  0
ARC
  5
AF4
330
1E
100
AcDbEntity
  8
STEMPEL
  6
Continuous
100
AcDbCircle
 10
147.9056135572632
 20
296.0244047040461
 30
0.0
 40
12.00000000000085
100
AcDbArc
 50
0.0
 51
32.17467992952127
  0
LINE
  5
AF5
330
1E
100
AcDbEntity
  8
STEMPEL
100
AcDbLine
 10
67.40561355726436
 20
449.9657489968667
 30
0.0
 11
157.9056135572641
 21
449.9657489968667
 31
0.0
  0
DIMENSION
  5
AF7
330
1E
100
AcDbEntity
  8
BEM
100
AcDbDimension
  2
*D2
 10
389.4056135572639
 20
484.9117452447952
 30
0.0
 11
224.4056135572641
 21
491.4117452447952
 31
0.0
 70
    32
  1
%%c<>
 71
     5
 42
329.9999999999995
  3
Standard
100
AcDbAlignedDimension
 13
59.40561355726436
 23
441.4657489968667
 33
0.0
 14
389.4056135572639
 24
441.4657489968667
 34
0.0
100
AcDbRotatedDimension
1001
ACAD
1000
DSTYLE
1002
{
1070
    40
1040
2.0
1070
    41
1040
3.5
1070
    42
1040
1.0
1070
    43
1040
7.0
1070
    44
1040
1.0
1070
    73
1070
     0
1070
    74
1070
     0
1070
    77
1070
     1
1070
    78
1070
     8
1070
    79
1070
     2
1070
   140
1040
3.5
1070
   141
1040
1.5
1070
   146
1040
0.5142857142857144
1070
   147
1040
1.5
1070
   172
1070
     1
1070
   178
1070
     1
1070
   179
1070
     2
1070
   271
1070
     2
1070
   272
1070
     2
1070
   284
1070
     8
1070
   285
1070
     8
1070
   286
1070
     8
1002
}
  0
LINE
  5
AF8
330
1E
100
AcDbEntity
  8
STEMPEL
100
AcDbLine
 10
294.8814536439051
 20
449.4657489968662
 30
0.0
 11
290.9056135572642
 21
449.4657489968663
 31
0.0
  0
LINE
  5
AF9
102
{ACAD_REACTORS
330
FF2
102
}
330
1E
100
AcDbEntity
  8
STEMPEL
100
AcDbLine
 10
293.698307414498
 20
414.9045870972772
 30
0.0
 11
290.9056135572641
 21
414.9045870972772
 31
0.0
  0
HATCH
  5
AFD
330
1E
100
AcDbEntity
  8
SCHRAFF
100
AcDbHatch
 10
0.0
 20
0.0
 30
0.0
210
0.0
220
0.0
230
1.0
  2
_U
 70
     0
 71
     0
 91
        4
 92
        7
 72
     1
 73
     1
 93
        4
 10
90.40561355726437
 20
443.9657489968667
 42
0.0
 10
90.40561355726437
 20
449.9657489968667
 42
0.0
 10
67.40561355726436
 20
449.9657489968667
 42
1.0
 10
67.40561355726436
 20
443.9657489968666
 42
0.0
 97
        0
 92
        7
 72
     1
 73
     1
 93
        4
 10
104.4056135572643
 20
449.9657489968668
 42
0.0
 10
104.4056135572643
 20
443.9657489968666
 42
0.0
 10
127.4056135572643
 20
443.9657489968666
 42
1.0
 10
127.4056135572643
 20
449.9657489968667
 42
0.0
 97
        0
 92
        7
 72
     1
 73
     1
 93
        4
 10
321.4056135572639
 20
449.965748996867
 42
1.0
 10
321.4056135572639
 20
443.9657489968665
 42
0.0
 10
344.4056135572639
 20
443.9657489968665
 42
0.0
 10
344.4056135572639
 20
449.965748996867
 42
0.0
 97
        0
 92
        7
 72
     1
 73
     1
 93
        4
 10
381.4056135572639
 20
443.9657489968666
 42
1.0
 10
381.4056135572644
 20
449.965748996867
 42
0.0
 10
358.4056135572639
 20
449.965748996867
 42
0.0
 10
358.4056135572639
 20
443.9657489968666
 42
0.0
 97
        0
 75
     0
 76
     0
 52
135.0
 41
5.0
 77
     0
 78
     1
 53
135.0
 43
-4.852376045366554
 44
3.301942911894741
 45
-3.535533905932737
 46
-3.535533905932737
 79
     0
 47
0.5122585957789356
 98
        4
 10
82.66959670188885
 20
446.9599065315351
 10
109.3265019912176
 20
447.9844232351636
 10
338.4733503489381
 20
447.9844232351636
 10
366.6681510430074
 20
446.4476481797208
  0
LINE
  5
AFE
330
1E
100
AcDbEntity
  8
STEMPEL
100
AcDbLine
 10
159.3929208372051
 20
158.4657489968666
 30
0.0
 11
289.4183062773229
 21
158.4657489968666
 31
0.0
  0
LINE
  5
AFF
330
1E
100
AcDbEntity
  8
HILF
100
AcDbLine
 10
161.913253232351
 20
175.4657489968666
 30
0.0
 11
286.897973882177
 21
175.4657489968666
 31
0.0
  0
DIMENSION
  5
B00
330
1E
100
AcDbEntity
  8
BEM
100
AcDbDimension
  2
*D3
 10
290.9056135572644
 20
139.6721034881909
 30
0.0
 11
224.4056135572644
 21
145.1721034881909
 31
0.0
 70
    32
  1
%%c<>
 71
     5
 42
133.0
  3
Standard
100
AcDbAlignedDimension
 13
157.9056135572643
 23
175.465748996867
 33
0.0
 14
290.9056135572644
 24
175.4657489968731
 34
0.0
100
AcDbRotatedDimension
1001
ACAD
1000
DSTYLE
1002
{
1070
    40
1040
2.0
1070
    41
1040
3.5
1070
    42
1040
1.0
1070
    43
1040
7.0
1070
    44
1040
1.0
1070
    47
1040
0.7
1070
    48
1040
0.7
1070
    73
1070
     0
1070
    74
1070
     0
1070
    77
1070
     1
1070
    78
1070
     8
1070
   140
1040
3.5
1070
   141
1040
1.5
1070
   146
1040
0.5142857142857144
1070
   147
1040
1.0
1070
   172
1070
     1
1070
   178
1070
     1
1070
   271
1070
     2
1070
   272
1070
     2
1070
   279
1070
     2
1070
   284
1070
     8
1070
   285
1070
     8
1070
   286
1070
     8
1070
   340
1005
24
1002
}
  0
LINE
  5
B02
330
1E
100
AcDbEntity
  8
HILF
100
AcDbLine
 10
161.6577067210521
 20
297.4431890928297
 30
0.0
 11
287.1535203934759
 21
297.4431890928297
 31
0.0
  0
LINE
  5
B03
330
1E
100
AcDbEntity
  8
HILF
100
AcDbLine
 10
157.7191722706904
 20
307.9079526137391
 30
0.0
 11
291.0920548438376
 21
307.9079526137391
 31
0.0
  0
HATCH
  5
B04
330
1E
100
AcDbEntity
  8
SCHRAFF
100
AcDbHatch
 10
0.0
 20
0.0
 30
0.0
210
0.0
220
0.0
230
1.0
  2
_USER
 70
     0
 71
     0
 91
        4
 92
        7
 72
     1
 73
     1
 93
       12
 10
134.5625405188596
 20
435.4657489968666
 42
-0.2553615373329216
 10
137.0870728646957
 20
434.0864699582995
 42
0.0
 10
146.1310812114283
 20
419.9989791744766
 42
0.0
 10
148.6556135572641
 20
421.6197001359094
 42
0.0
 10
139.6116052105315
 20
435.7071909197328
 42
0.2553615373328927
 10
134.5625405188596
 20
438.4657489968664
 42
0.0
 10
65.76957458794367
 20
438.4657489968667
 42
0.1989123673796689
 10
61.52693390082402
 20
436.7083896839861
 42
0.0
 10
59.40561355726448
 20
434.5870693404263
 42
0.0
 10
61.52693390082402
 20
432.4657489968664
 42
0.0
 10
63.64825424438402
 20
434.5870693404263
 42
-0.1989123673796555
 10
65.76957458794367
 20
435.4657489968666
 42
0.0
 97
        0
 92
        7
 72
     1
 73
     1
 93
        8
 10
383.0416525265853
 20
435.4657489968666
 42
-0.1989123673796481
 10
385.1629728701448
 20
434.5870693404263
 42
0.0
 10
387.2842932137048
 20
432.4657489968665
 42
0.0
 10
389.4056135572644
 20
434.5870693404263
 42
0.0
 10
387.2842932137048
 20
436.7083896839861
 42
0.1989123673796368
 10
383.0416525265855
 20
438.4657489968659
 42
0.0
 10
325.7189770614477
 20
438.4657489968659
 42
0.0
 10
324.1205368807243
 20
435.4657489968666
 42
0.0
 97
        0
 92
        7
 72
     0
 73
     1
 93
        4
 10
320.0768635383963
 20
438.4657489968661
 10
318.9022846616528
 20
435.4657489968666
 10
324.1205368807243
 20
435.4657489968666
 10
325.7189770614477
 20
438.4657489968661
 97
        0
 92
        7
 72
     1
 73
     1
 93
        8
 10
309.1996219039968
 20
435.7071909197328
 42
0.0
 10
300.1556135572641
 20
421.6197001359093
 42
0.0
 10
302.6801459030999
 20
419.9989791744766
 42
0.0
 10
311.7241542498327
 20
434.0864699582999
 42
-0.2553615373328771
 10
314.2486865956684
 20
435.4657489968666
 42
0.0
 10
318.9022846616528
 20
435.4657489968666
 42
0.0
 10
320.0768635383963
 20
438.4657489968659
 42
0.0
 10
314.2486865956684
 20
438.4657489968659
 42
0.2553615373328677
 97
        0
 75
     0
 76
     0
 52
45.0
 41
2.0
 77
     0
 78
     1
 53
45.0
 43
-4.852376045366554
 44
3.301942911894741
 45
-1.414213562373094
 46
1.414213562373095
 79
     0
 47
0.4768581626667819
 98
        4
 10
115.0516711278603
 20
436.3712686319307
 10
343.6208147978184
 20
436.3712686319307
 10
321.6705414353148
 20
437.3249850024297
 10
314.0356642347235
 20
437.3249850024297
  0
HATCH
  5
B05
330
1E
100
AcDbEntity
  8
SCHRAFF
100
AcDbHatch
 10
0.0
 20
0.0
 30
0.0
210
0.0
220
0.0
230
1.0
  2
_USER
 70
     0
 71
     0
 91
        2
 92
        7
 72
     1
 73
     1
 93
       18
 10
153.6056135572642
 20
310.9344684195373
 42
0.1413181575641217
 10
156.3698992715497
 20
301.3494274595791
 42
-0.1413181575641145
 10
157.9056135572643
 20
296.0244047040461
 42
0.0
 10
157.9056135572646
 20
175.465748996866
 42
0.0
 10
159.3929208372051
 20
158.4657489968666
 42
0.0
 10
161.4005605122918
 20
158.4657489968666
 42
0.0
 10
159.9056135572641
 20
175.5530708826868
 42
0.0
 10
159.905613557264
 20
296.0244047040461
 42
0.1413181575641148
 10
158.0627564144068
 20
302.4144320106854
 42
-0.1413181575641199
 10
155.6056135572642
 20
310.9344684195373
 42
0.0
 10
155.6056135572642
 20
389.4657489968663
 42
0.1095429991352503
 10
153.7309277291434
 20
397.9199187473901
 42
-0.1095647526818655
 10
151.1056135572639
 20
409.7603464952859
 42
0.0
 10
151.1056135572639
 20
420.1350340267545
 42
0.0
 10
149.1056135572639
 20
415.8519672377968
 42
0.0
 10
149.1056135572639
 20
409.7567489968661
 42
0.1095291172821938
 10
151.9182031907899
 20
397.0749158006752
 42
-0.1095494204693623
 10
153.6056135572642
 20
389.4657489968645
 42
0.0
 97
        0
 92
        7
 72
     1
 73
     1
 93
       22
 10
295.2056135572641
 20
389.4657489968663
 42
-0.1095494205537608
 10
296.8930239262777
 20
397.0749158061185
 42
0.1095291172315498
 10
299.7056135572643
 20
409.7567489968661
 42
0.0
 10
299.7056135572643
 20
428.8633715524019
 42
0.1095178116832406
 10
296.8948471683636
 20
441.5419194046227
 42
0.0
 10
296.4640583546704
 20
442.4657489968662
 42
0.0
 10
294.257302516746
 20
442.4657489968661
 42
0.0
 10
295.0822315942903
 20
440.6966828811416
 42
-0.1095178116832459
 10
297.7056135572643
 20
428.8633715524015
 42
0.0
 10
297.7056135572643
 20
409.7603464953805
 42
-0.109564752697261
 10
295.0802993847046
 20
397.9199187459315
 42
0.109542999114913
 10
293.2056135572641
 20
389.4657489968645
 42
0.0
 10
293.2056135572641
 20
310.9344684195373
 42
-0.1413181575641339
 10
290.7484707001211
 20
302.4144320106846
 42
0.1413181575640995
 10
288.9056135572641
 20
296.0244047040459
 42
0.0
 10
288.9056135572641
 20
175.5530708826877
 42
0.0
 10
287.4106666022362
 20
158.4657489968666
 42
0.0
 10
289.4183062773229
 20
158.4657489968666
 42
0.0
 10
290.9056135572644
 20
175.4657489968726
 42
0.0
 10
290.9056135572644
 20
296.0244047040458
 42
-0.1413181575640853
 10
292.4413278429781
 20
301.349427459578
 42
0.1413181575641394
 10
295.2056135572641
 20
310.9344684195373
 42
0.0
 97
        0
 75
     0
 76
     0
 52
135.0
 41
2.0
 77
     0
 78
     1
 53
135.0
 43
-4.852376045366554
 44
3.301942911894741
 45
-1.414213562373095
 46
-1.414213562373094
 79
     0
 47
0.5623793280665894
 98
        2
 10
154.2285158921425
 20
361.8046423317763
 10
294.3554312310782
 20
349.4322966576381
  0
ARC
  5
D7A
330
1E
100
AcDbEntity
  8
STEMPEL
100
AcDbCircle
 10
107.5556135572641
 20
603.1608936047066
 30
0.0
 40
0.750000000000001
100
AcDbArc
 50
269.9999991462263
 51
70.00000000000241
  0
ARC
  5
D7B
330
1E
100
AcDbEntity
  8
STEMPEL
100
AcDbCircle
 10
87.25561355726416
 20
603.1608936047066
 30
0.0
 40
0.7500000000000013
100
AcDbArc
 50
109.9999999999976
 51
269.9999991462263
  0
LINE
  5
D7C
330
1E
100
AcDbEntity
  8
STEMPEL
100
AcDbLine
 10
88.7453595194197
 20
604.5012501209064
 30
0.0
 11
86.99909844976991
 21
603.865663070296
 31
0.0
  0
LINE
  5
D7D
330
1E
100
AcDbEntity
  8
STEMPEL
100
AcDbLine
 10
107.8121286647583
 20
603.865663070296
 30
0.0
 11
106.0658675951085
 21
604.5012501209064
 31
0.0
  0
LINE
  5
D7E
330
1E
100
AcDbEntity
  8
STEMPEL
100
AcDbLine
 10
106.0658675951085
 20
612.1000044722513
 30
0.0
 11
104.9056135572641
 21
612.4108936047066
 31
0.0
  0
LINE
  5
D7F
330
1E
100
AcDbEntity
  8
STEMPEL
100
AcDbLine
 10
89.90561355726413
 20
612.4108936047066
 30
0.0
 11
88.7453595194197
 21
612.1000044722513
 31
0.0
  0
LINE
  5
D80
330
1E
100
AcDbEntity
  8
STEMPEL
100
AcDbLine
 10
88.7453595194197
 20
604.5012501209064
 30
0.0
 11
88.7453595194197
 21
612.1000044722513
 31
0.0
  0
LINE
  5
D81
330
1E
100
AcDbEntity
  8
STEMPEL
100
AcDbLine
 10
107.5556135572641
 20
602.4108936047066
 30
0.0
 11
87.25561355726416
 21
602.4108936047066
 31
0.0
  0
LINE
  5
D82
330
1E
100
AcDbEntity
  8
STEMPEL
100
AcDbLine
 10
107.8121286647583
 20
603.865663070296
 30
0.0
 11
86.99909844976991
 21
603.865663070296
 31
0.0
  0
LINE
  5
D83
330
1E
100
AcDbEntity
  8
STEMPEL
100
AcDbLine
 10
93.07548653834192
 20
604.5012501209064
 30
0.0
 11
93.07548653834192
 21
612.1000044722513
 31
0.0
  0
LINE
  5
D84
330
1E
100
AcDbEntity
  8
STEMPEL
100
AcDbLine
 10
101.7357405761863
 20
604.5012501209064
 30
0.0
 11
101.7357405761863
 21
612.1000044722513
 31
0.0
  0
LINE
  5
D85
330
1E
100
AcDbEntity
  8
STEMPEL
100
AcDbLine
 10
106.0658675951085
 20
604.5012501209064
 30
0.0
 11
106.0658675951085
 21
612.1000044722513
 31
0.0
  0
LINE
  5
D86
330
1E
100
AcDbEntity
  8
STEMPEL
100
AcDbLine
 10
89.90561355726413
 20
612.4108936047066
 30
0.0
 11
104.9056135572641
 21
612.4108936047066
 31
0.0
  0
POINT
  5
D87
330
1E
100
AcDbEntity
  8
0
100
AcDbPoint
 10
97.40561355726413
 20
602.4108936047066
 30
0.0
210
0.0000000000000001
220
1.0
230
0.0
  0
ARC
  5
D88
330
1E
100
AcDbEntity
  8
HILF
100
AcDbCircle
 10
90.91042302888082
 20
599.1624074551769
 30
0.0
 40
5.761140599691502
100
AcDbArc
 50
67.92594526326659
 51
112.0740547367334
  0
ARC
  5
D89
330
1E
100
AcDbEntity
  8
HILF
100
AcDbCircle
 10
103.9008040856474
 20
599.1624074551769
 30
0.0
 40
5.761140599691502
100
AcDbArc
 50
67.92594526326659
 51
112.0740547367334
  0
ARC
  5
D8A
330
1E
100
AcDbEntity
  8
HILF
100
AcDbCircle
 10
97.40561355726413
 20
582.5124325570454
 30
0.0
 40
22.41111549782308
100
AcDbArc
 50
78.85962783890713
 51
101.1403721610928
  0
ARC
  5
D8B
330
1E
100
AcDbEntity
  8
STEMPEL
100
AcDbCircle
 10
103.9008040856474
 20
604.7165878969222
 30
0.0
 40
7.694305707784447
100
AcDbArc
 50
73.65710669401345
 51
106.3428933059865
  0
ARC
  5
D8C
330
1E
100
AcDbEntity
  8
STEMPEL
100
AcDbCircle
 10
90.91042302888082
 20
604.7165878969222
 30
0.0
 40
7.694305707784447
100
AcDbArc
 50
73.65710669401345
 51
106.3428933059865
  0
ARC
  5
D8D
330
1E
100
AcDbEntity
  8
STEMPEL
100
AcDbCircle
 10
97.40561355726413
 20
582.1000044722518
 30
0.0
 40
30.31088913245485
100
AcDbArc
 50
81.78678929826334
 51
98.21321070173667
  0
ARC
  5
D8E
330
1E
100
AcDbEntity
  8
STEMPEL
100
AcDbCircle
 10
171.055613557264
 20
603.1608936047066
 30
0.0
 40
0.750000000000001
100
AcDbArc
 50
269.9999991462263
 51
70.00000000000241
  0
ARC
  5
D8F
330
1E
100
AcDbEntity
  8
STEMPEL
100
AcDbCircle
 10
150.755613557264
 20
603.1608936047066
 30
0.0
 40
0.7500000000000013
100
AcDbArc
 50
109.9999999999976
 51
269.9999991462263
  0
LINE
  5
D90
330
1E
100
AcDbEntity
  8
STEMPEL
100
AcDbLine
 10
152.2453595194196
 20
604.5012501209065
 30
0.0
 11
150.4990984497697
 21
603.8656630702961
 31
0.0
  0
LINE
  5
D91
330
1E
100
AcDbEntity
  8
STEMPEL
100
AcDbLine
 10
171.3121286647582
 20
603.8656630702961
 30
0.0
 11
169.5658675951083
 21
604.5012501209065
 31
0.0
  0
LINE
  5
D92
330
1E
100
AcDbEntity
  8
STEMPEL
100
AcDbLine
 10
169.5658675951083
 20
612.1000044722514
 30
0.0
 11
168.4056135572639
 21
612.4108936047066
 31
0.0
  0
LINE
  5
D93
330
1E
100
AcDbEntity
  8
STEMPEL
100
AcDbLine
 10
153.405613557264
 20
612.4108936047066
 30
0.0
 11
152.2453595194196
 21
612.1000044722514
 31
0.0
  0
LINE
  5
D94
330
1E
100
AcDbEntity
  8
STEMPEL
100
AcDbLine
 10
152.2453595194196
 20
604.5012501209065
 30
0.0
 11
152.2453595194196
 21
612.1000044722514
 31
0.0
  0
LINE
  5
D95
330
1E
100
AcDbEntity
  8
STEMPEL
100
AcDbLine
 10
171.055613557264
 20
602.4108936047066
 30
0.0
 11
150.755613557264
 21
602.4108936047066
 31
0.0
  0
LINE
  5
D96
330
1E
100
AcDbEntity
  8
STEMPEL
100
AcDbLine
 10
171.3121286647582
 20
603.8656630702961
 30
0.0
 11
150.4990984497697
 21
603.8656630702961
 31
0.0
  0
LINE
  5
D97
330
1E
100
AcDbEntity
  8
STEMPEL
100
AcDbLine
 10
156.5754865383418
 20
604.5012501209065
 30
0.0
 11
156.5754865383418
 21
612.1000044722514
 31
0.0
  0
LINE
  5
D98
330
1E
100
AcDbEntity
  8
STEMPEL
100
AcDbLine
 10
165.2357405761861
 20
604.5012501209065
 30
0.0
 11
165.2357405761861
 21
612.1000044722514
 31
0.0
  0
LINE
  5
D99
330
1E
100
AcDbEntity
  8
STEMPEL
100
AcDbLine
 10
169.5658675951083
 20
604.5012501209065
 30
0.0
 11
169.5658675951083
 21
612.1000044722514
 31
0.0
  0
LINE
  5
D9A
330
1E
100
AcDbEntity
  8
STEMPEL
100
AcDbLine
 10
153.405613557264
 20
612.4108936047066
 30
0.0
 11
168.4056135572639
 21
612.4108936047066
 31
0.0
  0
POINT
  5
D9B
330
1E
100
AcDbEntity
  8
0
100
AcDbPoint
 10
160.9056135572639
 20
602.4108936047066
 30
0.0
210
0.0000000000000001
220
1.0
230
0.0
  0
ARC
  5
D9C
330
1E
100
AcDbEntity
  8
HILF
100
AcDbCircle
 10
154.4104230288807
 20
599.1624074551771
 30
0.0
 40
5.761140599691502
100
AcDbArc
 50
67.92594526326659
 51
112.0740547367334
  0
ARC
  5
D9D
330
1E
100
AcDbEntity
  8
HILF
100
AcDbCircle
 10
167.4008040856472
 20
599.1624074551771
 30
0.0
 40
5.761140599691502
100
AcDbArc
 50
67.92594526326659
 51
112.0740547367334
  0
ARC
  5
D9E
330
1E
100
AcDbEntity
  8
HILF
100
AcDbCircle
 10
160.9056135572639
 20
582.5124325570454
 30
0.0
 40
22.41111549782308
100
AcDbArc
 50
78.85962783890713
 51
101.1403721610928
  0
ARC
  5
D9F
330
1E
100
AcDbEntity
  8
STEMPEL
100
AcDbCircle
 10
167.4008040856472
 20
604.7165878969222
 30
0.0
 40
7.694305707784447
100
AcDbArc
 50
73.65710669401345
 51
106.3428933059865
  0
ARC
  5
DA0
330
1E
100
AcDbEntity
  8
STEMPEL
100
AcDbCircle
 10
154.4104230288807
 20
604.7165878969222
 30
0.0
 40
7.694305707784447
100
AcDbArc
 50
73.65710669401345
 51
106.3428933059865
  0
ARC
  5
DA1
330
1E
100
AcDbEntity
  8
STEMPEL
100
AcDbCircle
 10
160.9056135572639
 20
582.1000044722518
 30
0.0
 40
30.31088913245485
100
AcDbArc
 50
81.78678929826334
 51
98.21321070173667
  0
ARC
  5
DA2
330
1E
100
AcDbEntity
  8
STEMPEL
100
AcDbCircle
 10
331.3447210727958
 20
603.1608936047068
 30
0.0
 40
0.750000000000001
100
AcDbArc
 50
269.9999991462263
 51
70.00000000000241
  0
ARC
  5
DA3
330
1E
100
AcDbEntity
  8
STEMPEL
100
AcDbCircle
 10
311.0447210727957
 20
603.1608936047068
 30
0.0
 40
0.7500000000000013
100
AcDbArc
 50
109.9999999999976
 51
269.9999991462263
  0
LINE
  5
DA4
330
1E
100
AcDbEntity
  8
STEMPEL
100
AcDbLine
 10
312.5344670349514
 20
604.5012501209067
 30
0.0
 11
310.7882059653015
 21
603.8656630702964
 31
0.0
  0
LINE
  5
DA5
330
1E
100
AcDbEntity
  8
STEMPEL
100
AcDbLine
 10
331.60123618029
 20
603.8656630702964
 30
0.0
 11
329.8549751106401
 21
604.5012501209067
 31
0.0
  0
LINE
  5
DA6
330
1E
100
AcDbEntity
  8
STEMPEL
100
AcDbLine
 10
329.8549751106401
 20
612.1000044722515
 30
0.0
 11
328.6947210727958
 21
612.4108936047068
 31
0.0
  0
LINE
  5
DA7
330
1E
100
AcDbEntity
  8
STEMPEL
100
AcDbLine
 10
313.6947210727958
 20
612.4108936047068
 30
0.0
 11
312.5344670349514
 21
612.1000044722515
 31
0.0
  0
LINE
  5
DA8
330
1E
100
AcDbEntity
  8
STEMPEL
100
AcDbLine
 10
312.5344670349514
 20
604.5012501209067
 30
0.0
 11
312.5344670349514
 21
612.1000044722515
 31
0.0
  0
LINE
  5
DA9
330
1E
100
AcDbEntity
  8
STEMPEL
100
AcDbLine
 10
331.3447210727958
 20
602.4108936047069
 30
0.0
 11
311.0447210727957
 21
602.4108936047069
 31
0.0
  0
LINE
  5
DAA
330
1E
100
AcDbEntity
  8
STEMPEL
100
AcDbLine
 10
331.60123618029
 20
603.8656630702964
 30
0.0
 11
310.7882059653015
 21
603.8656630702964
 31
0.0
  0
LINE
  5
DAB
330
1E
100
AcDbEntity
  8
STEMPEL
100
AcDbLine
 10
316.8645940538736
 20
604.5012501209067
 30
0.0
 11
316.8645940538736
 21
612.1000044722515
 31
0.0
  0
LINE
  5
DAC
330
1E
100
AcDbEntity
  8
STEMPEL
100
AcDbLine
 10
325.524848091718
 20
604.5012501209067
 30
0.0
 11
325.524848091718
 21
612.1000044722515
 31
0.0
  0
LINE
  5
DAD
330
1E
100
AcDbEntity
  8
STEMPEL
100
AcDbLine
 10
329.8549751106401
 20
604.5012501209067
 30
0.0
 11
329.8549751106401
 21
612.1000044722515
 31
0.0
  0
LINE
  5
DAE
330
1E
100
AcDbEntity
  8
STEMPEL
100
AcDbLine
 10
313.6947210727958
 20
612.4108936047068
 30
0.0
 11
328.6947210727958
 21
612.4108936047068
 31
0.0
  0
POINT
  5
DAF
330
1E
100
AcDbEntity
  8
0
100
AcDbPoint
 10
321.1947210727958
 20
602.4108936047069
 30
0.0
210
0.0000000000000001
220
1.0
230
0.0
  0
ARC
  5
DB0
330
1E
100
AcDbEntity
  8
HILF
100
AcDbCircle
 10
314.6995305444125
 20
599.1624074551773
 30
0.0
 40
5.761140599691502
100
AcDbArc
 50
67.92594526326659
 51
112.0740547367334
  0
ARC
  5
DB1
330
1E
100
AcDbEntity
  8
HILF
100
AcDbCircle
 10
327.689911601179
 20
599.1624074551773
 30
0.0
 40
5.761140599691502
100
AcDbArc
 50
67.92594526326659
 51
112.0740547367334
  0
ARC
  5
DB2
330
1E
100
AcDbEntity
  8
HILF
100
AcDbCircle
 10
321.1947210727958
 20
582.5124325570457
 30
0.0
 40
22.41111549782308
100
AcDbArc
 50
78.85962783890713
 51
101.1403721610928
  0
ARC
  5
DB3
330
1E
100
AcDbEntity
  8
STEMPEL
100
AcDbCircle
 10
327.689911601179
 20
604.7165878969224
 30
0.0
 40
7.694305707784447
100
AcDbArc
 50
73.65710669401345
 51
106.3428933059865
  0
ARC
  5
DB4
330
1E
100
AcDbEntity
  8
STEMPEL
100
AcDbCircle
 10
314.6995305444125
 20
604.7165878969224
 30
0.0
 40
7.694305707784447
100
AcDbArc
 50
73.65710669401345
 51
106.3428933059865
  0
ARC
  5
DB5
330
1E
100
AcDbEntity
  8
STEMPEL
100
AcDbCircle
 10
321.1947210727958
 20
582.100004472252
 30
0.0
 40
30.31088913245485
100
AcDbArc
 50
81.78678929826334
 51
98.21321070173667
  0
LINE
  5
DB6
330
1E
100
AcDbEntity
  8
STEMPEL
100
AcDbLine
 10
104.4056135572641
 20
593.9108936047066
 30
0.0
 11
104.4056135572641
 21
590.9108936047061
 31
0.0
  0
LINE
  5
DB7
330
1E
100
AcDbEntity
  8
STEMPEL
100
AcDbLine
 10
90.40561355726413
 20
593.9108936047066
 30
0.0
 11
90.40561355726413
 21
590.9108936047061
 31
0.0
  0
HATCH
  5
DB8
330
1E
100
AcDbEntity
  8
SCHRAFF
100
AcDbHatch
 10
0.0
 20
0.0
 30
0.0
210
0.0
220
0.0
230
1.0
  2
NET
 70
     0
 71
     0
 91
        4
 92
        7
 72
     0
 73
     1
 93
        4
 10
321.1947210727957
 20
593.9108936047066
 10
321.1947210727958
 20
590.910893604706
 10
389.4056135572641
 20
590.9108936047058
 10
389.4056135572641
 20
593.9108936047063
 97
        0
 92
        7
 72
     0
 73
     1
 93
        4
 10
319.405613557264
 20
590.910893604706
 10
321.1947210727957
 20
590.910893604706
 10
321.1947210727958
 20
593.9108936047066
 10
319.405613557264
 20
593.9108936047066
 97
        0
 92
        7
 72
     0
 73
     1
 93
        4
 10
129.4056135572641
 20
590.9108936047064
 10
129.4056135572641
 20
593.9108936047066
 10
104.4056135572641
 20
593.9108936047066
 10
104.4056135572641
 20
590.9108936047064
 97
        0
 92
        7
 72
     0
 73
     1
 93
        4
 10
90.40561355726413
 20
590.9108936047064
 10
90.40561355726413
 20
593.9108936047066
 10
59.40561355726401
 20
593.9108936047066
 10
59.40561355726401
 20
590.9108936047065
 97
        0
 75
     0
 76
     1
 52
45.0
 41
15.0
 77
     0
 78
     2
 53
45.0
 43
-23.96387507930763
 44
112.5696095844208
 45
-1.325825214724776
 46
1.325825214724776
 79
     0
 53
135.0
 43
-23.96387507930763
 44
112.5696095844208
 45
-1.325825214724776
 46
-1.325825214724776
 79
     0
 47
0.3489321173021789
 98
        4
 10
359.790414506265
 20
593.0153125809288
 10
319.6496047764224
 20
592.6663804668992
 10
112.6626473843246
 20
591.9685162388396
 10
82.6443045063263
 20
591.9685162388396
  0
HATCH
  5
DB9
330
1E
100
AcDbEntity
  8
SCHRAFF
100
AcDbHatch
 10
0.0
 20
0.0
 30
0.0
210
0.0
220
0.0
230
1.0
  2
_USER
 70
     0
 71
     0
 91
        2
 92
        7
 72
     1
 73
     1
 93
       10
 10
159.9056135572641
 20
555.0743288598417
 42
0.14365683636498
 10
159.1131674669908
 20
557.7755304622302
 42
0.0
 10
148.6556135572642
 20
574.064844743749
 42
0.0
 10
146.9725919933736
 20
572.9843641027939
 42
0.0
 10
157.4301459031002
 20
556.6950498212748
 42
-0.1436568363649654
 10
157.9056135572641
 20
555.0743288598418
 42
0.0
 10
157.905613557264
 20
321.7708143912506
 42
0.0
 10
159.3929208372049
 20
310.9108936047061
 42
0.0
 10
161.4005605122916
 20
310.9108936047061
 42
0.0
 10
159.9056135572642
 20
321.8581362770661
 42
0.0
 97
        0
 92
        7
 72
     1
 73
     1
 93
       10
 10
290.9056135572641
 20
555.0743288598417
 42
-0.1436568363649849
 10
291.3810812114283
 20
556.6950498212748
 42
0.0
 10
301.8386351211546
 20
572.9843641027938
 42
0.0
 10
300.1556135572641
 20
574.064844743749
 42
0.0
 10
289.6980596475377
 20
557.7755304622301
 42
0.1436568363649897
 10
288.9056135572639
 20
555.0743288598416
 42
0.0
 10
288.9056135572639
 20
321.8581362770716
 42
0.0
 10
287.410666602236
 20
310.9108936047062
 42
0.0
 10
289.4183062773227
 20
310.9108936047062
 42
0.0
 10
290.9056135572641
 20
321.7708143912568
 42
0.0
 97
        0
 75
     0
 76
     0
 52
135.0
 41
2.0
 77
     0
 78
     1
 53
135.0
 43
-23.96387507930763
 44
112.5696095844208
 45
-1.414213562373095
 46
-1.414213562373094
 79
     0
 47
0.4760146509441011
 98
        2
 10
159.5100526043059
 20
444.2042090736059
 10
290.4850853559221
 20
454.2005179912667
  0
LINE
  5
DBA
330
1E
100
AcDbEntity
  8
TEXT
 62
     2
100
AcDbLine
 10
277.5322874718527
 20
705.5314681044408
 30
0.0
 11
279.4814585991773
 21
712.7591662961133
 31
0.0
  0
LINE
  5
DBB
330
1E
100
AcDbEntity
  8
TEXT
 62
     2
100
AcDbLine
 10
280.8725131141711
 20
717.9173189393545
 30
0.0
 11
283.163500929095
 21
726.4125035103461
 31
0.0
  0
TEXT
  5
DBC
330
1E
100
AcDbEntity
  8
TEXT
 62
     1
100
AcDbText
 10
294.4971483607235
 20
752.9139915763416
 30
0.0
 40
7.0
  1
EDV-Art.Nr. 21004.000X
 41
0.8
  7
GREEKS
100
AcDbText
  0
LINE
  5
DBD
330
1E
100
AcDbEntity
  8
TEXT
 62
     2
100
AcDbLine
 10
293.1457792125471
 20
763.4276704634454
 30
0.0
 11
401.4493839370592
 21
763.4276704634455
 31
0.0
  0
TEXT
  5
DBE
330
1E
100
AcDbEntity
  8
TEXT
 62
     1
100
AcDbText
 10
294.4971483607235
 20
766.5903320940771
 30
0.0
 40
7.0
  1
Siebkorb
 41
0.8
  7
GREEKS
100
AcDbText
  0
LINE
  5
DBF
330
1E
100
AcDbEntity
  8
TEXT
 62
     2
100
AcDbLine
 10
284.4464153313686
 20
731.169663092384
 30
0.0
 11
293.1457792125471
 21
763.4276704634454
 31
0.0
  0
HATCH
  5
DC0
330
1E
100
AcDbEntity
  8
SCHRAFF
100
AcDbHatch
 10
0.0
 20
0.0
 30
0.0
210
0.0
220
0.0
230
1.0
  2
_USER
 70
     0
 71
     1
 91
        2
 92
        7
 72
     1
 73
     1
 93
       12
 10
134.5625405188597
 20
587.9108936047066
 42
-0.2553615373329036
 10
137.0870728646957
 20
586.5316145661396
 42
0.0
 10
146.1310812114282
 20
572.4441237823161
 42
0.0
 10
148.6556135572641
 20
574.0648447437491
 42
0.0
 10
139.6116052105316
 20
588.1523355275724
 42
0.2553615373328996
 10
134.5625405188597
 20
590.9108936047064
 42
0.0
 10
65.7695745879432
 20
590.9108936047066
 42
0.1989123673796682
 10
61.52693390082368
 20
589.1535342918259
 42
0.0
 10
59.40561355726413
 20
587.0322139482661
 42
0.0
 10
61.52693390082357
 20
584.9108936047064
 42
0.0
 10
63.64825424438368
 20
587.0322139482661
 42
-0.1989123673796694
 10
65.76957458794341
 20
587.9108936047066
 42
0.0
 97
       12
330
DD3
330
DE0
330
DDD
330
DDE
330
DE2
330
DE1
330
DD9
330
DE7
330
E26
330
E27
330
E25
330
DE6
 92
        7
 72
     1
 73
     1
 93
       12
 10
383.0416525265848
 20
587.9108936047066
 42
-0.1989123673796522
 10
385.1629728701444
 20
587.0322139482661
 42
0.0
 10
387.2842932137044
 20
584.9108936047064
 42
0.0
 10
389.4056135572639
 20
587.0322139482661
 42
0.0
 10
387.2842932137044
 20
589.1535342918259
 42
0.1989123673796392
 10
383.0416525265852
 20
590.9108936047057
 42
0.0
 10
314.2486865956685
 20
590.910893604706
 42
0.2553615373329143
 10
309.1996219039964
 20
588.1523355275716
 42
0.0
 10
300.1556135572642
 20
574.064844743749
 42
0.0
 10
302.6801459031
 20
572.4441237823163
 42
0.0
 10
311.7241542498326
 20
586.5316145661396
 42
-0.2553615373329037
 10
314.2486865956686
 20
587.9108936047066
 42
0.0
 97
       12
330
F1A
330
DD3
330
E9F
330
E99
330
E9E
330
E9C
330
EA0
330
E5F
330
F1C
330
F1B
330
F1E
330
F1D
 75
     0
 76
     0
 52
45.0
 41
2.0
 77
     0
 78
     1
 53
45.0
 43
-9.243853554853558
 44
213.9438039118614
 45
-1.414213562373094
 46
1.414213562373095
 79
     0
 47
0.5802597139239696
 98
        2
 10
122.8289113975725
 20
589.279949639232
 10
326.056813083017
 20
588.6996902439657
  0
LINE
  5
DC1
330
1E
100
AcDbEntity
  8
HILF
100
AcDbLine
 10
161.762645333063
 20
556.4818498101953
 30
0.0
 11
287.0485817814653
 21
556.481849810195
 31
0.0
  0
LINE
  5
DC2
330
1E
100
AcDbEntity
  8
STEMPEL
100
AcDbLine
 10
148.6556135572642
 20
574.0648447437491
 30
0.0
 11
300.1556135572642
 21
574.0648447437491
 31
0.0
  0
HATCH
  5
DC3
330
1E
100
AcDbEntity
  8
SCHRAFF
100
AcDbHatch
 10
0.0
 20
0.0
 30
0.0
210
0.0
220
0.0
230
1.0
  2
_USER
 70
     0
 71
     0
 91
        2
 92
        7
 72
     1
 73
     1
 93
        4
 10
146.9725919933735
 20
572.9843641027938
 42
0.0
 10
146.1310812114283
 20
572.4441237823164
 42
0.0
 10
145.1953575280638
 20
573.9016632117625
 42
0.7673269879789756
 10
148.0530726343289
 20
571.3013425389032
 42
0.0
 97
        0
 92
        7
 72
     1
 73
     1
 93
        4
 10
303.6158695864646
 20
573.9016632117625
 42
0.0
 10
302.6801459030999
 20
572.4441237823161
 42
0.0
 10
301.8386351211548
 20
572.9843641027939
 42
0.0
 10
300.7581544801993
 20
571.301342538903
 42
0.7673269879790372
 97
        0
 75
     0
 76
     0
 52
45.0
 41
0.1
 77
     0
 78
     1
 53
45.0
 43
-9.243853554853444
 44
148.6871040539309
 45
-0.0707106781186548
 46
0.0707106781186548
 79
     0
 47
0.4024564740976492
 98
        2
 10
147.4524474961878
 20
571.6534363223257
 10
302.0965694561847
 20
571.6534363223257
  0
HATCH
  5
DC4
330
1E
100
AcDbEntity
  8
SCHRAFF
100
AcDbHatch
 10
0.0
 20
0.0
 30
0.0
210
0.0
220
0.0
230
1.0
  2
_USER
 70
     0
 71
     0
 91
        7
 92
        7
 72
     1
 73
     1
 93
       10
 10
333.7477563326909
 20
602.4108936047069
 42
0.0
 10
321.405613557264
 20
602.4108936047069
 42
0.0175906946879192
 10
321.1947210727957
 20
602.4034718175519
 42
0.0
 10
321.1947210727957
 20
596.4183153918615
 42
0.0175906946879065
 10
321.4056135572639
 20
596.4108936047064
 42
0.0
 10
343.4056135572637
 20
596.4108936047064
 42
0.0
 10
343.4056135572655
 20
609.660893604707
 42
0.0
 10
343.4056135572638
 20
616.4108936047068
 42
0.0
 10
338.905613557264
 20
616.4108936047068
 42
0.0
 10
338.7469948084728
 20
607.3236315725207
 42
-0.4091108014277268
 97
        0
 92
        7
 72
     1
 73
     1
 93
        8
 10
354.0642323060556
 20
607.3236315725205
 42
0.0
 10
353.9056135572641
 20
616.4108936047068
 42
0.0
 10
349.4056135572646
 20
616.4108936047068
 42
0.0
 10
349.4056135572662
 20
609.660893604707
 42
0.0
 10
349.4056135572653
 20
596.4108936047064
 42
0.0
 10
381.405613557264
 20
596.4108936047064
 42
1.0
 10
381.405613557264
 20
602.4108936047069
 42
0.0
 10
359.0634707818376
 20
602.4108936047069
 42
-0.4091108014277239
 97
        0
 92
        7
 72
     1
 73
     1
 93
        2
 10
321.1947210727957
 20
596.4183153918615
 42
0.0
 10
321.1947210727957
 20
602.4034718175516
 42
0.9320082274074453
 97
        0
 92
        7
 72
     1
 73
     1
 93
        4
 10
127.4056135572641
 20
596.4108936047065
 42
1.0
 10
127.4056135572641
 20
602.4108936047066
 42
0.0
 10
104.4056135572641
 20
602.4108936047066
 42
0.0
 10
104.4056135572641
 20
596.4108936047066
 42
0.0
 97
        0
 92
        7
 72
     1
 73
     1
 93
        4
 10
67.40561355726402
 20
602.4108936047066
 42
1.0
 10
67.40561355726402
 20
596.4108936047066
 42
0.0
 10
90.40561355726413
 20
596.4108936047066
 42
0.0
 10
90.40561355726413
 20
602.4108936047066
 42
0.0
 97
        0
 92
        7
 72
     0
 73
     1
 93
        4
 10
349.4056135572662
 20
609.6608936047077
 10
348.7556135572656
 20
609.0108936047072
 10
348.7556135572645
 20
596.4108936047064
 10
349.4056135572653
 20
596.4108936047065
 97
        0
 92
        7
 72
     0
 73
     1
 93
        4
 10
343.4056135572636
 20
596.4108936047064
 10
344.0556135572645
 20
596.4108936047064
 10
344.0556135572661
 20
609.0108936047061
 10
343.4056135572655
 20
609.660893604707
 97
        0
 75
     0
 76
     0
 52
135.0
 41
5.0
 77
     0
 78
     1
 53
135.0
 43
-9.243853554853558
 44
213.9438039118614
 45
-3.535533905932737
 46
-3.535533905932737
 79
     0
 47
0.0632476346549042
 98
        7
 10
336.5046018560692
 20
600.9400289469649
 10
358.6503688716557
 20
599.4968334284497
 10
319.6545601361922
 20
599.4968334284497
 10
116.491215463086
 20
599.0157677893851
 10
86.16114472694063
 20
599.4968334284497
 10
349.2222100685826
 20
605.9816323148449
 10
343.5889074859938
 20
605.9183854770467
  0
DIMENSION
  5
DC5
330
1E
100
AcDbEntity
  8
BEM
100
AcDbDimension
  2
*D4
 10
334.4056135572643
 20
714.4915401807131
 30
0.0
 11
224.4056135572642
 21
719.9915401807132
 31
0.0
 70
    32
  1
%%c<>
 71
     5
 42
220.0000000000002
  3
Standard
100
AcDbAlignedDimension
 13
114.4056135572641
 23
686.4108356373913
 33
0.0
 14
334.4056135572643
 24
686.4108356373913
 34
0.0
100
AcDbRotatedDimension
1001
ACAD
1000
DSTYLE
1002
{
1070
    40
1040
2.0
1070
    41
1040
3.5
1070
    42
1040
1.0
1070
    43
1040
7.0
1070
    44
1040
1.0
1070
    47
1040
2.399999999999999
1070
    48
1040
2.399999999999999
1070
    73
1070
     0
1070
    74
1070
     0
1070
    77
1070
     1
1070
    78
1070
     8
1070
   140
1040
3.5
1070
   141
1040
1.5
1070
   145
1040
0.5714285714285714
1070
   147
1040
1.0
1070
   172
1070
     1
1070
   178
1070
     1
1070
   271
1070
     1
1070
   272
1070
     1
1070
   279
1070
     1
1070
   284
1070
     8
1070
   285
1070
     8
1070
   286
1070
     8
1070
   340
1005
24
1002
}
  0
ARC
  5
DC6
330
1E
100
AcDbEntity
  8
STEMPEL
100
AcDbCircle
 10
201.742051940967
 20
706.4108936047063
 30
0.0
 40
1.5
100
AcDbArc
 50
90.0
 51
149.9999999999994
  0
ARC
  5
DC7
330
1E
100
AcDbEntity
  8
STEMPEL
100
AcDbCircle
 10
199.1439757296135
 20
707.9108936047064
 30
0.0
 40
2.5
100
AcDbArc
 50
270.0
 51
329.9999999999995
  0
LINE
  5
DC8
330
1E
100
AcDbEntity
  8
STEMPEL
100
AcDbLine
 10
94.40561355726391
 20
616.4108936047096
 30
0.0
 11
343.4056135572639
 21
616.4108936047068
 31
0.0
  0
LINE
  5
DC9
330
1E
100
AcDbEntity
  8
HILF
100
AcDbLine
 10
326.7319466147948
 20
689.4108936047095
 30
0.0
 11
121.5792804997334
 21
689.4108936047094
 31
0.0
  0
LINE
  5
DCA
330
1E
100
AcDbEntity
  8
STEMPEL
100
AcDbLine
 10
144.4056135572641
 20
705.4108936047059
 30
0.0
 11
304.4056135572644
 21
705.4108936047068
 31
0.0
  0
HATCH
  5
DCB
330
1E
100
AcDbEntity
  8
SCHRAFF
100
AcDbHatch
 10
0.0
 20
0.0
 30
0.0
210
0.0
220
0.0
230
1.0
  2
_U
 70
     0
 71
     0
 91
        6
 92
        7
 72
     1
 73
     1
 93
        6
 10
94.40561355726401
 20
617.4108936047068
 42
0.0
 10
94.40561355726391
 20
616.4108936047098
 42
0.0
 10
109.4056135572641
 20
616.4108936047096
 42
0.131652497587392
 10
112.4056135572641
 20
617.2147411820028
 42
0.0
 10
112.4056135572641
 20
618.4108936047071
 42
-0.1622776601683613
 10
109.4056135572645
 20
617.4108936047073
 42
0.0
 97
        0
 92
        7
 72
     1
 73
     1
 93
        6
 10
115.4056135572642
 20
641.410893604708
 42
0.0
 10
114.4056135572641
 20
641.4108936047082
 42
0.0
 10
114.4056135572641
 20
622.4108936047073
 42
-0.2360679774997897
 10
112.4056135572641
 20
618.4108936047073
 42
0.0
 10
112.4056135572641
 20
617.2147411820006
 42
0.2679491924311254
 10
115.4056135572642
 20
622.4108936047071
 42
0.0
 97
        0
 92
        7
 72
     1
 73
     1
 93
       40
 10
117.3729189355671
 20
691.5879741647565
 42
0.2662608607109159
 10
114.4056135572641
 20
686.4108356373913
 42
0.0
 10
114.4056135572641
 20
681.4108936047079
 42
0.0
 10
115.4056135572642
 20
681.4108936047079
 42
0.0
 10
115.4056135572642
 20
686.4108356373913
 42
-0.2667503951500923
 10
117.886259989137
 20
690.7297310515875
 42
0.0
 10
141.8651138820844
 20
704.7173842177707
 42
-0.1340385084115268
 10
144.405613557264
 20
705.4108936047059
 42
0.0
 10
199.1439757296135
 20
705.4108936047062
 42
0.2679491924311331
 10
201.3090392390747
 20
706.6608936047064
 42
-0.2679491924311204
 10
201.7420519409669
 20
706.9108936047064
 42
0.0
 10
201.9420519409671
 20
706.9108936047064
 42
-0.2679491924312903
 10
202.3750646428597
 20
706.6608936047064
 42
0.2679491924311459
 10
204.5401281523208
 20
705.4108936047062
 42
0.0
 10
206.5989757296132
 20
705.4108936047062
 42
0.2679491924311487
 10
208.7640392390745
 20
706.6608936047064
 42
-0.2679491924310494
 10
209.1970519409665
 20
706.9108936047064
 42
0.0
 10
209.397051940967
 20
706.9108936047064
 42
-0.2679491924309788
 10
209.8300646428589
 20
706.6608936047061
 42
0.2679491924311188
 10
211.9951281523199
 20
705.4108936047062
 42
0.0
 10
218.4489757296142
 20
705.4108936047062
 42
0.2679491924310907
 10
220.614039239075
 20
706.6608936047061
 42
-0.2679491924312511
 10
221.0470519409673
 20
706.9108936047064
 42
0.0
 10
224.4056135572641
 20
706.9108936047062
 42
0.0
 10
224.4056135572641
 20
707.9108936047064
 42
0.0
 10
221.0470519409668
 20
707.9108936047064
 42
0.2679491924310706
 10
219.7480138352905
 20
707.1608936047064
 42
-0.2679491924311248
 10
218.4489757296138
 20
706.4108936047063
 42
0.0
 10
211.9951281523199
 20
706.4108936047063
 42
-0.2679491924310946
 10
210.6960900466435
 20
707.1608936047064
 42
0.285907654623734
 10
209.2970519409675
 20
707.9075565594159
 42
0.2859076546239871
 10
207.8980138352902
 20
707.1608936047064
 42
-0.2679491924311237
 10
206.5989757296135
 20
706.4108936047063
 42
0.0
 10
204.5401281523209
 20
706.4108936047063
 42
-0.2679491924311664
 10
203.241090046644
 20
707.1608936047064
 42
0.2859076546237742
 10
201.8420519409679
 20
707.9075565594159
 42
0.2859076546240356
 10
200.4430138352902
 20
707.1608936047064
 42
-0.2679491924311194
 10
199.1439757296136
 20
706.4108936047063
 42
0.0
 10
144.405613557264
 20
706.4108936047059
 42
0.1316524975840433
 10
141.4056135573323
 20
705.6070460274525
 42
0.0
 97
        0
 92
        7
 72
     1
 73
     1
 93
       39
 10
307.4056135571821
 20
705.6070460274604
 42
0.1316524975833739
 10
304.4056135572644
 20
706.4108936047069
 42
0.0
 10
249.845128152321
 20
706.4108936047063
 42
-0.2679491924311991
 10
248.5460900466439
 20
707.1608936047064
 42
0.2859076546238128
 10
247.1470519409674
 20
707.9075565594159
 42
0.2859076546238881
 10
245.7480138352908
 20
707.1608936047064
 42
-0.2679491924311304
 10
244.4489757296141
 20
706.4108936047063
 42
0.0
 10
237.9951281523206
 20
706.4108936047063
 42
-0.2679491924311332
 10
236.6960900466438
 20
707.1608936047064
 42
0.2859076546241097
 10
235.2970519409658
 20
707.9075565594159
 42
0.3607372083885869
 10
233.7446831861391
 20
706.7858936047062
 42
-0.3419987131195785
 10
233.2605602678632
 20
706.4108936047063
 42
0.0
 10
233.0718110752638
 20
706.4108936047063
 42
-0.3419987131194884
 10
232.5876881569882
 20
706.7858936047064
 42
0.3419987131196405
 10
231.1353194021604
 20
707.9108936047064
 42
0.0
 10
224.4056135572641
 20
707.9108936047061
 42
0.0
 10
224.4056135572641
 20
706.9108936047062
 42
0.0
 10
231.1353194021604
 20
706.9108936047064
 42
-0.3419987131194818
 10
231.6194423204361
 20
706.5358936047064
 42
0.3596757619904723
 10
233.1661856715633
 20
705.4138654033777
 42
0.359675761990524
 10
234.7129290226908
 20
706.5358936047064
 42
-0.3419987131196628
 10
235.1970519409667
 20
706.9108936047064
 42
0.0
 10
235.397051940967
 20
706.9108936047064
 42
-0.2679491924311947
 10
235.8300646428593
 20
706.6608936047064
 42
0.2679491924311145
 10
237.9951281523204
 20
705.4108936047064
 42
0.0
 10
244.4489757296146
 20
705.4108936047064
 42
0.2679491924310684
 10
246.6140392390753
 20
706.6608936047061
 42
-0.2679491924312787
 10
247.0470519409677
 20
706.9108936047064
 42
0.0
 10
247.2470519409669
 20
706.9108936047064
 42
-0.2679491924313323
 10
247.6800646428596
 20
706.6608936047064
 42
0.2679491924311285
 10
249.8451281523208
 20
705.4108936047064
 42
0.0
 10
304.4056135572644
 20
705.4108936047068
 42
-0.1340385084120632
 10
306.9461132324529
 20
704.7173842177656
 42
0.0
 10
330.9249671253915
 20
690.7297310515875
 42
-0.2667503951500853
 10
333.4056135572642
 20
686.4108356373913
 42
0.0
 10
333.4056135572642
 20
681.4108936047079
 42
0.0
 10
334.4056135572643
 20
681.4108936047082
 42
0.0
 10
334.4056135572643
 20
686.4108356373913
 42
0.2662608607118826
 10
331.4383081789426
 20
691.5879741647675
 42
0.0
 97
        0
 92
        7
 72
     1
 73
     1
 93
        9
 10
334.4056135572643
 20
641.410893604708
 42
0.0
 10
333.4056135572642
 20
641.4108936047082
 42
0.0
 10
333.4056135572642
 20
622.4108936047073
 42
0.4142135623731085
 10
339.4056135572641
 20
616.4108936047068
 42
0.0
 10
342.4056135572641
 20
616.4108936047071
 42
0.0
 10
342.4056135572641
 20
617.4108936047071
 42
0.0
 10
340.4056135572639
 20
617.4108936047073
 42
0.0
 10
339.4056135572642
 20
617.4108936047073
 42
-0.4142135623730885
 10
334.4056135572643
 20
622.4108936047073
 42
0.0
 97
        0
 92
        7
 72
     0
 73
     1
 93
        4
 10
350.4056135572641
 20
617.4108936047068
 10
350.4056135572641
 20
616.4108936047071
 10
354.4056135572641
 20
616.4108936047068
 10
354.4056135572641
 20
617.4108936047068
 97
        0
 75
     0
 76
     0
 52
45.0
 41
2.0
 77
     0
 78
     1
 53
45.0
 43
-9.243853554853558
 44
213.9438039118614
 45
-1.414213562373094
 46
1.414213562373095
 79
     0
 47
0.3139380610148735
 98
        6
 10
102.940034473695
 20
617.0478702776708
 10
115.1917717452284
 20
639.9653479735798
 10
137.4962169247674
 20
703.066898641458
 10
311.847868033653
 20
702.7529605095856
 10
334.1523163578204
 20
638.7095954460901
 10
352.0586996656748
 20
617.0478702776708
  0
ARC
  5
DCC
330
1E
100
AcDbEntity
  8
STEMPEL
100
AcDbCircle
 10
195.8235608818444
 20
607.4108936047066
 30
0.0
 40
5.0
100
AcDbArc
 50
270.0
 51
358.9999999999982
  0
LINE
  5
DCD
330
1E
100
AcDbEntity
  8
STEMPEL
100
AcDbLine
 10
67.40561355726402
 20
602.4108936047066
 30
0.0
 11
333.7477563326909
 21
602.4108936047069
 31
0.0
  0
LINE
  5
DCE
330
1E
100
AcDbEntity
  8
HILF
100
AcDbLine
 10
161.9132532323508
 20
321.7708143912494
 30
0.0
 11
286.8979738821768
 21
321.7708143912494
 31
0.0
  0
LINE
  5
DCF
330
1E
100
AcDbEntity
  8
STEMPEL
100
AcDbLine
 10
159.3929208372049
 20
310.9108936047061
 30
0.0
 11
289.4183062773227
 21
310.9108936047062
 31
0.0
  0
DIMENSION
  5
DD0
330
1E
100
AcDbEntity
  8
BEM
100
AcDbDimension
  2
*D5
 10
389.405613557264
 20
729.2322454504946
 30
0.0
 11
224.4056135572641
 21
734.7322454504947
 31
0.0
 70
    32
  1
%%c<>
 71
     5
 42
329.9999999999999
  3
Standard
100
AcDbAlignedDimension
 13
59.40561355726413
 23
593.9108936047066
 33
0.0
 14
389.405613557264
 24
593.9108936047065
 34
0.0
100
AcDbRotatedDimension
1001
ACAD
1000
DSTYLE
1002
{
1070
    40
1040
2.0
1070
    41
1040
3.5
1070
    42
1040
1.0
1070
    43
1040
8.0
1070
    44
1040
1.5
1070
    47
1040
1.199999999999999
1070
    48
1040
1.199999999999999
1070
    73
1070
     0
1070
    74
1070
     0
1070
    77
1070
     1
1070
    78
1070
     8
1070
   140
1040
3.5
1070
   141
1040
1.5
1070
   147
1040
1.0
1070
   172
1070
     1
1070
   178
1070
     1
1070
   271
1070
     2
1070
   272
1070
     2
1070
   285
1070
     8
1070
   286
1070
     8
1070
   289
1070
     0
1070
   340
1005
24
1002
}
  0
LINE
  5
DD1
330
1E
100
AcDbEntity
  8
STEMPEL
100
AcDbLine
 10
102.4056135572641
 20
593.9108936047066
 30
0.0
 11
389.405613557264
 21
593.9108936047065
 31
0.0
  0
LINE
  5
DD2
330
1E
100
AcDbEntity
  8
STEMPEL
100
AcDbLine
 10
102.4056135572641
 20
596.4108936047065
 30
0.0
 11
381.405613557264
 21
596.4108936047064
 31
0.0
  0
LINE
  5
DD3
102
{ACAD_REACTORS
330
DC0
102
}
330
1E
100
AcDbEntity
  8
STEMPEL
100
AcDbLine
 10
59.40561355726401
 20
590.9108936047066
 30
0.0
 11
389.405613557264
 21
590.9108936047057
 31
0.0
  0
LINE
  5
DD4
330
1E
100
AcDbEntity
  8
STEMPEL
  6
Continuous
100
AcDbLine
 10
159.9056135572641
 20
555.0743288598417
 30
0.0
 11
159.9056135572642
 21
321.8581362770656
 31
0.0
  0
LINE
  5
DD5
102
{ACAD_REACTORS
330
FF2
102
}
330
1E
100
AcDbEntity
  8
STEMPEL
  6
Continuous
100
AcDbLine
 10
157.9056135572641
 20
555.0743288598417
 30
0.0
 11
157.905613557264
 21
321.7708143912505
 31
0.0
  0
LINE
  5
DD6
330
1E
100
AcDbEntity
  8
STEMPEL
100
AcDbLine
 10
159.9056135572641
 20
321.8581362770669
 30
0.0
 11
161.4005605122916
 21
310.9108936047062
 31
0.0
  0
LINE
  5
DD7
330
1E
100
AcDbEntity
  8
STEMPEL
100
AcDbLine
 10
157.9056135572641
 20
321.7708143912497
 30
0.0
 11
159.3929208372049
 21
310.9108936047061
 31
0.0
  0
DIMENSION
  5
DD8
330
1E
100
AcDbEntity
  8
BEM
100
AcDbDimension
  2
*D6
 10
35.69165250585638
 20
706.4108936047059
 30
0.0
 11
30.19165250585627
 21
651.4108936047062
 31
0.0
 70
    32
 71
     5
 42
109.9999999999994
  3
Standard
100
AcDbAlignedDimension
 13
67.40561355726402
 23
596.4108936047065
 33
0.0
 14
144.4056135572641
 24
706.4108936047059
 34
0.0
 50
90.0
100
AcDbRotatedDimension
1001
ACAD
1000
DSTYLE
1002
{
1070
    40
1040
2.0
1070
    41
1040
3.5
1070
    42
1040
1.0
1070
    43
1040
8.0
1070
    44
1040
1.5
1070
    47
1040
1.199999999999999
1070
    48
1040
1.199999999999999
1070
    73
1070
     0
1070
    74
1070
     0
1070
    77
1070
     1
1070
    78
1070
     8
1070
   140
1040
3.5
1070
   141
1040
1.5
1070
   147
1040
1.0
1070
   172
1070
     1
1070
   178
1070
     1
1070
   271
1070
     2
1070
   272
1070
     2
1070
   285
1070
     8
1070
   286
1070
     8
1070
   289
1070
     0
1070
   340
1005
24
1002
}
  0
LINE
  5
DD9
102
{ACAD_REACTORS
330
DC0
102
}
330
1E
100
AcDbEntity
  8
STEMPEL
100
AcDbLine
 10
65.76957458794322
 20
587.9108936047066
 30
0.0
 11
134.5625405188597
 21
587.9108936047066
 31
0.0
  0
LINE
  5
DDA
330
1E
100
AcDbEntity
  8
STEMPEL
100
AcDbLine
 10
61.52693390082345
 20
584.9108936047062
 30
0.0
 11
138.1275572297154
 21
584.9108936047062
 31
0.0
  0
LINE
  5
DDB
330
1E
100
AcDbEntity
  8
STEMPEL
100
AcDbLine
 10
67.40561355726402
 20
596.4108936047065
 30
0.0
 11
92.40561355726413
 21
596.4108936047066
 31
0.0
  0
LINE
  5
DDC
330
1E
100
AcDbEntity
  8
STEMPEL
100
AcDbLine
 10
59.40561355726401
 20
593.9108936047066
 30
0.0
 11
92.40561355726413
 21
593.9108936047066
 31
0.0
  0
LINE
  5
DDD
102
{ACAD_REACTORS
330
DC0
102
}
330
1E
100
AcDbEntity
  8
STEMPEL
100
AcDbLine
 10
59.40561355726413
 20
587.0322139482661
 30
0.0
 11
61.52693390082368
 21
589.1535342918259
 31
0.0
  0
LINE
  5
DDE
102
{ACAD_REACTORS
330
DC0
102
}
330
1E
100
AcDbEntity
  8
STEMPEL
100
AcDbLine
 10
59.40561355726413
 20
587.0322139482661
 30
0.0
 11
61.52693390082368
 21
584.9108936047064
 31
0.0
  0
LINE
  5
DDF
330
1E
100
AcDbEntity
  8
STEMPEL
100
AcDbLine
 10
59.40561355726401
 20
593.9108936047066
 30
0.0
 11
59.40561355726401
 21
590.9108936047066
 31
0.0
  0
ARC
  5
DE0
102
{ACAD_REACTORS
330
DC0
102
}
330
1E
100
AcDbEntity
  8
STEMPEL
100
AcDbCircle
 10
65.76957458794322
 20
584.9108936047066
 30
0.0
 40
6.0
100
AcDbArc
 50
90.0
 51
135.0
  0
ARC
  5
DE1
102
{ACAD_REACTORS
330
DC0
102
}
330
1E
100
AcDbEntity
  8
STEMPEL
100
AcDbCircle
 10
65.76957458794322
 20
584.9108936047066
 30
0.0
 40
3.0
100
AcDbArc
 50
90.0
 51
135.0
  0
LINE
  5
DE2
102
{ACAD_REACTORS
330
DC0
102
}
330
1E
100
AcDbEntity
  8
STEMPEL
100
AcDbLine
 10
61.52693390082368
 20
584.9108936047066
 30
0.0
 11
63.64825424438368
 21
587.0322139482661
 31
0.0
  0
ARC
  5
DE3
330
1E
100
AcDbEntity
  8
STEMPEL
100
AcDbCircle
 10
67.40561355726402
 20
599.4108936047066
 30
0.0
 40
3.0
100
AcDbArc
 50
90.0
 51
270.0
  0
LINE
  5
DE4
330
1E
100
AcDbEntity
  8
STEMPEL
100
AcDbLine
 10
117.3729189355563
 20
691.5879741647501
 30
0.0
 11
141.3592218110232
 21
705.5799841754387
 31
0.0
  0
LINE
  5
DE5
330
1E
100
AcDbEntity
  8
STEMPEL
100
AcDbLine
 10
117.8862599891371
 20
690.7297310515875
 30
0.0
 11
141.8651138820883
 21
704.7173842177731
 31
0.0
  0
ARC
  5
DE6
102
{ACAD_REACTORS
330
DC0
102
}
330
1E
100
AcDbEntity
  8
STEMPEL
100
AcDbCircle
 10
134.5625405188597
 20
584.9108936047067
 30
0.0
 40
6.0
100
AcDbArc
 50
32.70000000000014
 51
90.0
  0
ARC
  5
DE7
102
{ACAD_REACTORS
330
DC0
102
}
330
1E
100
AcDbEntity
  8
STEMPEL
100
AcDbCircle
 10
134.5625405188597
 20
584.9108936047067
 30
0.0
 40
3.0
100
AcDbArc
 50
32.70000000000014
 51
90.0
  0
LWPOLYLINE
  5
DE8
330
1E
100
AcDbEntity
  8
STEMPEL
100
AcDbPolyline
 90
       18
 70
   128
 43
0.0
 10
-133.569338614193
 20
628.9108936047064
 10
-133.6470785154531
 20
630.2890149883308
 10
-133.877650880135
 20
631.6202061011106
 10
-134.2532038429001
 20
632.8591348262873
 10
-134.7609483980278
 20
633.9636109320565
 10
-135.3835939136658
 20
634.8960228093094
 10
-136.0999369435598
 20
635.6246182898708
 10
-136.8855832849857
 20
636.124585928504
 10
-137.7137786940651
 20
636.3788999269206
 10
-138.5563199694528
 20
636.3788999269206
 10
-139.3845153785322
 20
636.124585928504
 10
-140.1701617199582
 20
635.6246182898708
 10
-140.8865047498522
 20
634.8960228093094
 10
-141.5091502654901
 20
633.9636109320565
 10
-142.0168948206178
 20
632.8591348262873
 10
-142.3924477833829
 20
631.6202061011106
 10
-142.6230201480648
 20
630.2890149883308
 10
-142.7007600493249
 20
628.9108936047064
210
0.0
220
0.0
230
-1.0
  0
LINE
  5
DE9
330
1E
100
AcDbEntity
  8
STEMPEL
100
AcDbLine
 10
131.6177617856745
 20
617.4108936047082
 30
0.0
 11
139.9539623339864
 21
617.4108936047082
 31
0.0
  0
LINE
  5
DEA
330
1E
100
AcDbEntity
  8
MITTEL
100
AcDbLine
 10
97.40561355726413
 20
620.9108936047073
 30
0.0
 11
97.40561355726413
 21
590.9108936047062
 31
0.0
  0
LINE
  5
DEB
330
1E
100
AcDbEntity
  8
STEMPEL
100
AcDbLine
 10
90.40561355726413
 20
602.4108936047066
 30
0.0
 11
90.40561355726413
 21
596.4108936047066
 31
0.0
  0
LINE
  5
DEC
330
1E
100
AcDbEntity
  8
STEMPEL
100
AcDbLine
 10
92.40561355726413
 20
602.4108936047066
 30
0.0
 11
92.40561355726413
 21
590.9108936047061
 31
0.0
  0
LINE
  5
DED
330
1E
100
AcDbEntity
  8
HILF
100
AcDbLine
 10
93.40561355726412
 20
602.4108936047066
 30
0.0
 11
93.40561355726412
 21
590.9108936047061
 31
0.0
  0
LINE
  5
DEE
330
1E
100
AcDbEntity
  8
HILF
100
AcDbLine
 10
101.4056135572641
 20
602.4108936047066
 30
0.0
 11
101.4056135572641
 21
590.9108936047061
 31
0.0
  0
LINE
  5
DEF
330
1E
100
AcDbEntity
  8
STEMPEL
100
AcDbLine
 10
104.4056135572641
 20
602.4108936047066
 30
0.0
 11
104.4056135572641
 21
596.4108936047065
 31
0.0
  0
LINE
  5
DF0
330
1E
100
AcDbEntity
  8
STEMPEL
100
AcDbLine
 10
102.4056135572641
 20
602.4108936047066
 30
0.0
 11
102.4056135572641
 21
590.9108936047061
 31
0.0
  0
LINE
  5
DF1
330
1E
100
AcDbEntity
  8
STEMPEL
100
AcDbLine
 10
129.4056135572641
 20
593.9108936047066
 30
0.0
 11
129.4056135572641
 21
590.9108936047066
 31
0.0
  0
ARC
  5
DF2
330
1E
100
AcDbEntity
  8
STEMPEL
100
AcDbCircle
 10
127.4056135572641
 20
599.4108936047066
 30
0.0
 40
3.0
100
AcDbArc
 50
270.0
 51
90.0
  0
LINE
  5
DF3
330
1E
100
AcDbEntity
  8
STEMPEL
100
AcDbLine
 10
102.4056135572641
 20
614.9108936047073
 30
0.0
 11
101.4056135572641
 21
615.9108936047073
 31
0.0
  0
LINE
  5
DF4
330
1E
100
AcDbEntity
  8
STEMPEL
100
AcDbLine
 10
94.40561355726414
 20
617.4108936047068
 30
0.0
 11
109.4056135572643
 21
617.4108936047073
 31
0.0
  0
LINE
  5
DF5
330
1E
100
AcDbEntity
  8
STEMPEL
100
AcDbLine
 10
92.40561355726413
 20
614.9108936047073
 30
0.0
 11
102.4056135572641
 21
614.9108936047073
 31
0.0
  0
LINE
  5
DF6
330
1E
100
AcDbEntity
  8
STEMPEL
100
AcDbLine
 10
101.4056135572641
 20
615.9108936047073
 30
0.0
 11
93.40561355726412
 21
615.9108936047073
 31
0.0
  0
LINE
  5
DF7
330
1E
100
AcDbEntity
  8
HILF
100
AcDbLine
 10
93.40561355726412
 20
615.9108936047073
 30
0.0
 11
93.40561355726412
 21
612.4108936047066
 31
0.0
  0
LINE
  5
DF8
330
1E
100
AcDbEntity
  8
STEMPEL
100
AcDbLine
 10
93.40561355726412
 20
615.9108936047073
 30
0.0
 11
92.40561355726413
 21
614.9108936047073
 31
0.0
  0
LINE
  5
DF9
330
1E
100
AcDbEntity
  8
STEMPEL
100
AcDbLine
 10
92.40561355726413
 20
614.9108936047073
 30
0.0
 11
92.40561355726413
 21
612.4108936047066
 31
0.0
  0
LINE
  5
DFA
330
1E
100
AcDbEntity
  8
HILF
100
AcDbLine
 10
101.4056135572641
 20
615.9108936047073
 30
0.0
 11
101.4056135572641
 21
612.4108936047066
 31
0.0
  0
LINE
  5
DFB
330
1E
100
AcDbEntity
  8
STEMPEL
100
AcDbLine
 10
94.40561355726401
 20
617.4108936047071
 30
0.0
 11
94.40561355726391
 21
616.4108936047068
 31
0.0
  0
LINE
  5
DFC
330
1E
100
AcDbEntity
  8
STEMPEL
100
AcDbLine
 10
133.1145040309122
 20
648.9108936047082
 30
0.0
 11
133.1145040309122
 21
673.9108936047098
 31
0.0
  0
LINE
  5
DFD
330
1E
100
AcDbEntity
  8
STEMPEL
100
AcDbLine
 10
133.9825680506011
 20
673.9108936047082
 30
0.0
 11
133.9825680506011
 21
648.9108936047098
 31
0.0
  0
LINE
  5
DFE
330
1E
100
AcDbEntity
  8
STEMPEL
100
AcDbLine
 10
114.4056135572641
 20
686.4108356373913
 30
0.0
 11
114.4056135572641
 21
622.4108936047073
 31
0.0
  0
LINE
  5
DFF
330
1E
100
AcDbEntity
  8
STEMPEL
100
AcDbLine
 10
115.4056135572642
 20
686.4108356373913
 30
0.0
 11
115.4056135572642
 21
622.4108936047073
 31
0.0
  0
LINE
  5
E00
330
1E
100
AcDbEntity
  8
STEMPEL
100
AcDbLine
 10
126.4825680506012
 20
673.9108936047082
 30
0.0
 11
126.4825680506012
 21
648.9108936047114
 31
0.0
  0
LWPOLYLINE
  5
E01
330
1E
100
AcDbEntity
  8
STEMPEL
100
AcDbPolyline
 90
       10
 70
   128
 43
0.0
 10
116.2559234184594
 20
616.4108936047082
 10
117.092102693301
 20
616.502047086635
 10
117.9028750840036
 20
616.7727378799927
 10
118.6636056817465
 20
617.2147411820015
 10
119.3511800722652
 20
617.8146269459944
 10
119.9447066556337
 20
618.5541679465891
 10
120.4261514269549
 20
619.4108936047085
 10
120.7808859304753
 20
620.3587727447543
 10
120.9981317378094
 20
621.369004538707
 10
121.0712879450334
 20
622.4108936047087
  0
LINE
  5
E02
330
1E
100
AcDbEntity
  8
STEMPEL
100
AcDbLine
 10
115.6153007982996
 20
628.9108936047064
 30
0.0
 11
115.6153007982996
 21
622.4108936047087
 31
0.0
  0
LINE
  5
E03
330
1E
100
AcDbEntity
  8
STEMPEL
100
AcDbLine
 10
116.5794149680622
 20
628.9108936047064
 30
0.0
 11
116.5794149680622
 21
622.4108936047087
 31
0.0
  0
LINE
  5
E04
330
1E
100
AcDbEntity
  8
STEMPEL
100
AcDbLine
 10
117.5731936816
 20
628.9108936047064
 30
0.0
 11
117.5731936816
 21
622.4108936047075
 31
0.0
  0
ARC
  5
E05
330
1E
100
AcDbEntity
  8
STEMPEL
100
AcDbCircle
 10
109.4056135572642
 20
622.4108936047073
 30
0.0
 40
5.0
100
AcDbArc
 50
270.0
 51
0.0
  0
ARC
  5
E06
330
1E
100
AcDbEntity
  8
STEMPEL
100
AcDbCircle
 10
109.4056135572642
 20
622.4108936047073
 30
0.0
 40
6.0
100
AcDbArc
 50
270.0
 51
0.0
  0
LWPOLYLINE
  5
E07
330
1E
100
AcDbEntity
  8
STEMPEL
100
AcDbPolyline
 90
       10
 70
   128
 43
0.0
 10
110.1093120672687
 20
616.4108936047093
 10
110.9673850635415
 20
616.477020819282
 10
111.8201972631638
 20
616.7295745690121
 10
112.6409555700808
 20
617.1606202853297
 10
113.4038739364797
 20
617.7566156557695
 10
114.0849834919789
 20
618.4988360874902
 10
114.6628855819247
 20
619.3639629842878
 10
115.1194240563309
 20
620.3248163550037
 10
115.4402556879285
 20
621.351208736716
 10
115.6153007982996
 20
622.4108936047087
  0
LINE
  5
E08
330
1E
100
AcDbEntity
  8
STEMPEL
100
AcDbLine
 10
102.4056135572641
 20
614.9108936047073
 30
0.0
 11
102.4056135572641
 21
612.4108936047066
 31
0.0
  0
LWPOLYLINE
  5
E09
330
1E
100
AcDbEntity
  8
STEMPEL
100
AcDbPolyline
 90
       10
 70
   128
 43
0.0
 10
112.0672049505692
 20
616.4108936047082
 10
112.925277946842
 20
616.4770208192808
 10
113.7780901464642
 20
616.7295745690109
 10
114.5988484533812
 20
617.1606202853285
 10
115.3617668197802
 20
617.7566156557684
 10
116.0428763752794
 20
618.498836087489
 10
116.6207784652251
 20
619.3639629842866
 10
117.0773169396313
 20
620.3248163550027
 10
117.3981485712289
 20
621.3512087367148
 10
117.5731936816
 20
622.4108936047075
  0
LWPOLYLINE
  5
E0A
330
1E
100
AcDbEntity
  8
STEMPEL
100
AcDbPolyline
 90
        7
 70
   128
 43
0.0
 10
113.9589557843914
 20
617.4108936047087
 10
114.6356576594688
 20
618.0204943325677
 10
115.2352070831027
 20
618.7480534164792
 10
115.7414957562524
 20
619.5740232781595
 10
116.1409210482979
 20
620.4762123033626
 10
116.4227514635608
 20
621.4303810715562
 10
116.5794149680623
 20
622.4108936047087
  0
LINE
  5
E0B
330
1E
100
AcDbEntity
  8
STEMPEL
100
AcDbLine
 10
112.9948416146289
 20
617.4108936047082
 30
0.0
 11
113.9589557843916
 21
617.4108936047082
 31
0.0
  0
LWPOLYLINE
  5
E0C
330
1E
100
AcDbEntity
  8
STEMPEL
100
AcDbPolyline
 90
       18
 70
   128
 43
0.0
 10
-115.6153007982996
 20
628.9108936047064
 10
-115.6319692217763
 20
630.2890149883308
 10
-115.6814068690368
 20
631.6202061011106
 10
-115.7619302002972
 20
632.8591348262873
 10
-115.8707970900889
 20
633.9636109320565
 10
-116.0043002070512
 20
634.8960228093094
 10
-116.1578932626553
 20
635.6246182898708
 10
-116.3263458296073
 20
636.124585928504
 10
-116.5039214577763
 20
636.3788999269206
 10
-116.6845730221233
 20
636.3788999269206
 10
-116.8621486502923
 20
636.124585928504
 10
-117.0306012172443
 20
635.6246182898708
 10
-117.1841942728484
 20
634.8960228093094
 10
-117.3176973898107
 20
633.9636109320565
 10
-117.4265642796024
 20
632.8591348262873
 10
-117.5070876108629
 20
631.6202061011106
 10
-117.5565252581233
 20
630.2890149883308
 10
-117.5731936816
 20
628.9108936047064
210
0.0
220
0.0
230
-1.0
  0
LWPOLYLINE
  5
E0D
330
1E
100
AcDbEntity
  8
STEMPEL
100
AcDbPolyline
 90
        7
 70
   128
 43
0.0
 10
-116.0973578831807
 20
635.372947660546
 10
-116.235186892751
 20
634.6208414236075
 10
-116.3540511697172
 20
633.6981278128928
 10
-116.4503991716184
 20
632.6323765629886
 10
-116.5213521191566
 20
631.4554312261675
 10
-116.5647900111645
 20
630.2024577197656
 10
-116.5794149680621
 20
628.9108936047064
210
0.0
220
0.0
230
-1.0
  0
LINE
  5
E0E
330
1E
100
AcDbEntity
  8
STEMPEL
100
AcDbLine
 10
114.4056135572639
 20
641.410893604708
 30
0.0
 11
115.4056135572641
 21
641.410893604708
 31
0.0
  0
LINE
  5
E0F
330
1E
100
AcDbEntity
  8
STEMPEL
100
AcDbLine
 10
133.5693386141929
 20
628.9108936047064
 30
0.0
 11
133.5693386141929
 21
622.4108936047098
 31
0.0
  0
LINE
  5
E10
330
1E
100
AcDbEntity
  8
STEMPEL
100
AcDbLine
 10
126.8115394305111
 20
628.9108936047064
 30
0.0
 11
126.8115394305111
 21
622.4108936047098
 31
0.0
  0
LINE
  5
E11
330
1E
100
AcDbEntity
  8
STEMPEL
100
AcDbLine
 10
125.8854850940039
 20
628.9108936047064
 30
0.0
 11
125.8854850940039
 21
622.4108936047098
 31
0.0
  0
LINE
  5
E12
330
1E
100
AcDbEntity
  8
STEMPEL
100
AcDbLine
 10
121.0712879450334
 20
628.9108936047064
 30
0.0
 11
121.0712879450334
 21
622.4108936047098
 31
0.0
  0
LINE
  5
E13
330
1E
100
AcDbEntity
  8
STEMPEL
100
AcDbLine
 10
118.9177163123648
 20
617.4108936047082
 30
0.0
 11
123.7319134613362
 21
617.4108936047082
 31
0.0
  0
LWPOLYLINE
  5
E14
330
1E
100
AcDbEntity
  8
STEMPEL
100
AcDbPolyline
 90
       10
 70
   128
 43
0.0
 10
121.9961749039372
 20
616.4108936047082
 10
122.8323541787788
 20
616.502047086635
 10
123.6431265694814
 20
616.7727378799927
 10
124.4038571672242
 20
617.2147411820015
 10
125.091431557743
 20
617.8146269459944
 10
125.6849581411114
 20
618.5541679465891
 10
126.1664029124326
 20
619.4108936047085
 10
126.521137415953
 20
620.3587727447543
 10
126.7383832232872
 20
621.369004538707
 10
126.8115394305111
 20
622.4108936047087
  0
LWPOLYLINE
  5
E15
330
1E
100
AcDbEntity
  8
STEMPEL
100
AcDbPolyline
 90
        7
 70
   128
 43
0.0
 10
123.7319134613352
 20
617.4108936047082
 10
124.3520039843996
 20
618.0202315065489
 10
124.883824131183
 20
618.7476617798381
 10
125.3130699309142
 20
619.573619273782
 10
125.6281962787116
 20
620.4758888242443
 10
125.8207274556774
 20
621.4302027584874
 10
125.8854850940038
 20
622.4108936047087
  0
LWPOLYLINE
  5
E16
330
1E
100
AcDbEntity
  8
STEMPEL
100
AcDbPolyline
 90
       10
 70
   128
 43
0.0
 10
129.205632439587
 20
616.4108936047082
 10
129.9633820646812
 20
616.502047086635
 10
130.6981078508568
 20
616.7727378799927
 10
131.3874855268899
 20
617.2147411820015
 10
132.0105687009362
 20
617.8146269459944
 10
132.5484253060477
 20
618.5541679465891
 10
132.9847128414467
 20
619.4108936047085
 10
133.306174931142
 20
620.3587727447543
 10
133.503044112206
 20
621.369004538707
 10
133.5693386141928
 20
622.4108936047087
  0
ELLIPSE
  5
E17
330
1E
100
AcDbEntity
  8
STEMPEL
100
AcDbEllipse
 10
130.2325680506012
 20
648.9108936047098
 30
0.0
 11
0.0
 21
-7.499999999999999
 31
0.0
210
0.0
220
0.0
230
-1.0
 40
0.4999999999999926
 41
4.712388980384689
 42
7.853981633974482
  0
LWPOLYLINE
  5
E18
330
1E
100
AcDbEntity
  8
STEMPEL
100
AcDbPolyline
 90
       18
 70
   128
 43
0.0
 10
-121.0712879450334
 20
628.9108936047064
 10
-121.1201572899497
 20
630.2890149883308
 10
-121.2651011377697
 20
631.6202061011106
 10
-121.5011835995969
 20
632.8591348262873
 10
-121.8203651703437
 20
633.9636109320565
 10
-122.211776504434
 20
634.8960228093094
 10
-122.662088558332
 20
635.6246182898708
 10
-123.1559664951314
 20
636.124585928504
 10
-123.6765918940364
 20
636.3788999269206
 10
-124.2062354815082
 20
636.3788999269206
 10
-124.7268608804131
 20
636.124585928504
 10
-125.2207388172126
 20
635.6246182898708
 10
-125.6710508711105
 20
634.8960228093094
 10
-126.0624622052008
 20
633.9636109320565
 10
-126.3816437759476
 20
632.8591348262873
 10
-126.6177262377748
 20
631.6202061011106
 10
-126.7626700855949
 20
630.2890149883308
 10
-126.8115394305111
 20
628.9108936047064
210
0.0
220
0.0
230
-1.0
  0
LWPOLYLINE
  5
E19
330
1E
100
AcDbEntity
  8
STEMPEL
100
AcDbPolyline
 90
        9
 70
   128
 43
0.0
 10
-123.4783865195203
 20
636.3126518493714
 10
-123.967447062789
 20
635.9862189516141
 10
-124.4270600306899
 20
635.4409499383568
 10
-124.8430098343142
 20
634.6937096952288
 10
-125.2024313636058
 20
633.7676099724513
 10
-125.4942078984933
 20
632.6912945504809
 10
-125.7093149432314
 20
631.4980533028501
 10
-125.8410993493389
 20
630.2247925577741
 10
-125.8854850940038
 20
628.910893604708
210
0.0
220
0.0
230
-1.0
  0
ELLIPSE
  5
E1A
330
1E
100
AcDbEntity
  8
STEMPEL
100
AcDbEllipse
 10
129.3645040309122
 20
648.9108936047098
 30
0.0
 11
0.0
 21
-7.499999999999999
 31
0.0
210
0.0
220
0.0
230
-1.0
 40
0.4999999999999926
 41
4.712388980384689
 42
6.167183451052224
  0
LINE
  5
E1B
330
1E
100
AcDbEntity
  8
STEMPEL
100
AcDbLine
 10
114.4056135572641
 20
681.4108936047079
 30
0.0
 11
115.4056135572641
 21
681.4108936047079
 31
0.0
  0
ARC
  5
E1C
330
1E
100
AcDbEntity
  8
STEMPEL
100
AcDbCircle
 10
120.4056135572642
 20
686.4108356373913
 30
0.0
 40
6.0
100
AcDbArc
 50
120.2564164748189
 51
180.0
  0
ARC
  5
E1D
330
1E
100
AcDbEntity
  8
STEMPEL
100
AcDbCircle
 10
114.8944699529526
 20
695.9307305871686
 30
0.0
 40
5.0
100
AcDbArc
 50
300.0670458384844
 51
300.2564371635288
  0
ARC
  5
E1E
330
1E
100
AcDbEntity
  8
STEMPEL
100
AcDbCircle
 10
120.4056135572642
 20
686.4108356373913
 30
0.0
 40
5.0
100
AcDbArc
 50
120.2564164748189
 51
180.0
  0
ELLIPSE
  5
E1F
330
1E
100
AcDbEntity
  8
STEMPEL
100
AcDbEllipse
 10
130.2325680506012
 20
673.9108936047082
 30
0.0
 11
0.0
 21
7.499999999999999
 31
0.0
210
0.0
220
0.0
230
1.0
 40
0.4999999999999926
 41
4.712388980384689
 42
7.853981633974482
  0
ELLIPSE
  5
E20
330
1E
100
AcDbEntity
  8
STEMPEL
100
AcDbEllipse
 10
129.3645040309122
 20
673.9108936047082
 30
0.0
 11
0.0
 21
7.499999999999999
 31
0.0
210
0.0
220
0.0
230
1.0
 40
0.4999999999999926
 41
4.712388980384689
 42
6.167183451052224
  0
LINE
  5
E21
330
1E
100
AcDbEntity
  8
MITTEL
100
AcDbLine
 10
160.905613557264
 20
620.9108936047073
 30
0.0
 11
160.9056135572639
 21
590.9108936047062
 31
0.0
  0
ARC
  5
E22
330
1E
100
AcDbEntity
  8
STEMPEL
100
AcDbCircle
 10
154.9056135572642
 20
555.0743288598417
 30
0.0
 40
5.0
100
AcDbArc
 50
0.0
 51
32.70000000000014
  0
LINE
  5
E23
330
1E
100
AcDbEntity
  8
STEMPEL
100
AcDbLine
 10
146.9725919933736
 20
572.9843641027938
 30
0.0
 11
157.4301459031002
 21
556.6950498212748
 31
0.0
  0
ARC
  5
E24
330
1E
100
AcDbEntity
  8
STEMPEL
100
AcDbCircle
 10
154.9056135572642
 20
555.0743288598417
 30
0.0
 40
3.0
100
AcDbArc
 50
0.0
 51
32.70000000000014
  0
LINE
  5
E25
102
{ACAD_REACTORS
330
DC0
102
}
330
1E
100
AcDbEntity
  8
STEMPEL
100
AcDbLine
 10
139.6116052105316
 20
588.1523355275724
 30
0.0
 11
159.1131674669908
 21
557.7755304622302
 31
0.0
  0
LINE
  5
E26
102
{ACAD_REACTORS
330
DC0
102
}
330
1E
100
AcDbEntity
  8
STEMPEL
100
AcDbLine
 10
137.0870728646956
 20
586.5316145661396
 30
0.0
 11
146.1310812114283
 21
572.4441237823163
 31
0.0
  0
LINE
  5
E27
102
{ACAD_REACTORS
330
DC0
102
}
330
1E
100
AcDbEntity
  8
STEMPEL
100
AcDbLine
 10
148.6556135572642
 20
574.0648447437491
 30
0.0
 11
146.1310812114283
 21
572.4441237823163
 31
0.0
  0
ARC
  5
E28
330
1E
100
AcDbEntity
  8
SCHRAFF
100
AcDbCircle
 10
146.9725919933736
 20
572.9843641027938
 30
0.0
 40
2.0
100
AcDbArc
 50
152.7000000000017
 51
302.7000000000001
  0
LINE
  5
E29
330
1E
100
AcDbEntity
  8
STEMPEL
100
AcDbLine
 10
155.9056135572639
 20
596.4108936047065
 30
0.0
 11
155.9056135572639
 21
593.9108936047066
 31
0.0
  0
LINE
  5
E2A
330
1E
100
AcDbEntity
  8
HILF
100
AcDbLine
 10
156.9056135572637
 20
596.4108936047065
 30
0.0
 11
156.905613557264
 21
593.9108936047066
 31
0.0
  0
LINE
  5
E2B
330
1E
100
AcDbEntity
  8
HILF
100
AcDbLine
 10
164.905613557264
 20
596.4108936047065
 30
0.0
 11
164.905613557264
 21
593.9108936047066
 31
0.0
  0
LINE
  5
E2C
330
1E
100
AcDbEntity
  8
STEMPEL
100
AcDbLine
 10
165.9056135572639
 20
596.4108936047065
 30
0.0
 11
165.9056135572639
 21
593.9108936047066
 31
0.0
  0
ELLIPSE
  5
E2D
330
1E
100
AcDbEntity
  8
STEMPEL
100
AcDbEllipse
 10
170.034780383585
 20
673.9108936047082
 30
0.0
 11
0.0
 21
7.5
 31
0.0
210
0.0
220
0.0
230
1.0
 40
0.8660254037843856
 41
4.712388980384689
 42
7.853981633974482
  0
ELLIPSE
  5
E2E
330
1E
100
AcDbEntity
  8
STEMPEL
100
AcDbEllipse
 10
170.034780383585
 20
648.9108936047082
 30
0.0
 11
0.0
 21
-7.5
 31
0.0
210
0.0
220
0.0
230
-1.0
 40
0.8660254037843856
 41
4.712388980384689
 42
7.853981633974482
  0
LINE
  5
E2F
330
1E
100
AcDbEntity
  8
STEMPEL
100
AcDbLine
 10
163.5395898552021
 20
673.9108936047082
 30
0.0
 11
163.5395898552021
 21
648.9108936047098
 31
0.0
  0
LINE
  5
E30
330
1E
100
AcDbEntity
  8
STEMPEL
100
AcDbLine
 10
150.6197082305711
 20
617.4108936047082
 30
0.0
 11
161.9098138870782
 21
617.4108936047082
 31
0.0
  0
LWPOLYLINE
  5
E31
330
1E
100
AcDbEntity
  8
STEMPEL
100
AcDbPolyline
 90
       10
 70
   128
 43
0.0
 10
148.5951281711524
 20
616.4108936047082
 10
149.2311325311533
 20
616.502047086635
 10
149.8478122205094
 20
616.7727378799927
 10
150.4264297389145
 20
617.2147411820015
 10
150.9494040858664
 20
617.8146269459944
 10
151.4008449504708
 20
618.5541679465891
 10
151.7670355304968
 20
619.4108936047085
 10
152.0368493104718
 20
620.3587727447543
 10
152.2020881352234
 20
621.369004538707
 10
152.2577313066765
 20
622.4108936047087
  0
LINE
  5
E32
330
1E
100
AcDbEntity
  8
STEMPEL
100
AcDbLine
 10
142.7007600493248
 20
628.9108936047064
 30
0.0
 11
142.7007600493248
 21
622.4108936047098
 31
0.0
  0
LINE
  5
E33
330
1E
100
AcDbEntity
  8
STEMPEL
100
AcDbLine
 10
141.905539162504
 20
628.9108936047064
 30
0.0
 11
141.905539162504
 21
622.4108936047098
 31
0.0
  0
LWPOLYLINE
  5
E34
330
1E
100
AcDbEntity
  8
STEMPEL
100
AcDbPolyline
 90
       10
 70
   128
 43
0.0
 10
138.3370538747189
 20
616.4108936047082
 10
139.0948034998131
 20
616.502047086635
 10
139.8295292859886
 20
616.7727378799927
 10
140.5189069620218
 20
617.2147411820015
 10
141.1419901360681
 20
617.8146269459944
 10
141.6798467411796
 20
618.5541679465891
 10
142.1161342765786
 20
619.4108936047085
 10
142.4375963662738
 20
620.3587727447543
 10
142.6344655473378
 20
621.369004538707
 10
142.7007600493246
 20
622.4108936047087
  0
LWPOLYLINE
  5
E35
330
1E
100
AcDbEntity
  8
STEMPEL
100
AcDbPolyline
 90
        7
 70
   128
 43
0.0
 10
139.9539623339857
 20
617.4108936047082
 10
140.5158913072498
 20
618.0202315065489
 10
140.997829246837
 20
618.7476617798384
 10
141.3868138265868
 20
619.573619273782
 10
141.6723828176933
 20
620.4758888242443
 10
141.8468554834892
 20
621.4302027584874
 10
141.9055391625041
 20
622.4108936047087
  0
LWPOLYLINE
  5
E36
330
1E
100
AcDbEntity
  8
STEMPEL
100
AcDbPolyline
 90
       10
 70
   128
 43
0.0
 10
-137.339828444938
 20
636.4108936047095
 10
-138.1326557907977
 20
636.296951752301
 10
-138.9013934789434
 20
635.9585882606036
 10
-139.622683803721
 20
635.4060841330927
 10
-140.2746107236024
 20
634.6562269281014
 10
-140.8373657690181
 20
633.731800677358
 10
-141.293849912681
 20
632.6608936047087
 10
-141.6301931148778
 20
631.476044679651
 10
-141.8361757576079
 20
630.2132549372101
 10
-141.9055391625039
 20
628.910893604708
210
0.0
220
0.0
230
-1.0
  0
LINE
  5
E37
330
1E
100
AcDbEntity
  8
STEMPEL
100
AcDbLine
 10
164.1580314110454
 20
628.9108936047064
 30
0.0
 11
164.1580314110454
 21
622.4108936047098
 31
0.0
  0
LINE
  5
E38
330
1E
100
AcDbEntity
  8
STEMPEL
100
AcDbLine
 10
163.547836963183
 20
628.9108936047064
 30
0.0
 11
163.547836963183
 21
622.4108936047098
 31
0.0
  0
LINE
  5
E39
330
1E
100
AcDbEntity
  8
STEMPEL
100
AcDbLine
 10
152.2577313066765
 20
628.9108936047064
 30
0.0
 11
152.2577313066765
 21
622.4108936047098
 31
0.0
  0
LINE
  5
E3A
330
1E
100
AcDbEntity
  8
STEMPEL
100
AcDbLine
 10
164.905613557264
 20
615.9108936047073
 30
0.0
 11
156.905613557264
 21
615.9108936047073
 31
0.0
  0
LINE
  5
E3B
330
1E
100
AcDbEntity
  8
STEMPEL
100
AcDbLine
 10
155.905613557264
 20
614.9108936047073
 30
0.0
 11
165.905613557264
 21
614.9108936047073
 31
0.0
  0
LINE
  5
E3C
330
1E
100
AcDbEntity
  8
STEMPEL
100
AcDbLine
 10
156.905613557264
 20
615.9108936047073
 30
0.0
 11
155.905613557264
 21
614.9108936047073
 31
0.0
  0
LINE
  5
E3D
330
1E
100
AcDbEntity
  8
HILF
100
AcDbLine
 10
156.905613557264
 20
615.9108936047073
 30
0.0
 11
156.905613557264
 21
612.4108936047068
 31
0.0
  0
LINE
  5
E3E
330
1E
100
AcDbEntity
  8
STEMPEL
100
AcDbLine
 10
155.905613557264
 20
614.9108936047073
 30
0.0
 11
155.905613557264
 21
612.4108936047066
 31
0.0
  0
LINE
  5
E3F
330
1E
100
AcDbEntity
  8
HILF
100
AcDbLine
 10
164.905613557264
 20
615.9108936047073
 30
0.0
 11
164.905613557264
 21
612.4108936047068
 31
0.0
  0
LINE
  5
E40
330
1E
100
AcDbEntity
  8
STEMPEL
100
AcDbLine
 10
165.905613557264
 20
614.9108936047073
 30
0.0
 11
164.905613557264
 21
615.9108936047073
 31
0.0
  0
LINE
  5
E41
330
1E
100
AcDbEntity
  8
STEMPEL
100
AcDbLine
 10
165.905613557264
 20
614.9108936047073
 30
0.0
 11
165.905613557264
 21
612.4108936047067
 31
0.0
  0
LWPOLYLINE
  5
E42
330
1E
100
AcDbEntity
  8
STEMPEL
100
AcDbPolyline
 90
       10
 70
   128
 43
0.0
 10
160.4954282755212
 20
616.4108936047082
 10
161.1314326355222
 20
616.502047086635
 10
161.7481123248783
 20
616.7727378799927
 10
162.3267298432834
 20
617.2147411820015
 10
162.8497041902352
 20
617.8146269459944
 10
163.3011450548397
 20
618.5541679465891
 10
163.6673356348657
 20
619.4108936047085
 10
163.9371494148406
 20
620.3587727447543
 10
164.1023882395923
 20
621.369004538707
 10
164.1580314110454
 20
622.4108936047087
  0
LWPOLYLINE
  5
E43
330
1E
100
AcDbEntity
  8
STEMPEL
100
AcDbPolyline
 90
        7
 70
   128
 43
0.0
 10
161.9098138870777
 20
617.4108936047082
 10
162.3814594876445
 20
618.0202315065489
 10
162.7859659640273
 20
618.7476617798384
 10
163.1124536065164
 20
619.573619273782
 10
163.3521411199246
 20
620.4758888242443
 10
163.4985818075506
 20
621.4302027584874
 10
163.547836963183
 20
622.4108936047087
  0
LWPOLYLINE
  5
E44
330
1E
100
AcDbEntity
  8
STEMPEL
100
AcDbPolyline
 90
        9
 70
   128
 43
0.0
 10
-157.9027841349414
 20
636.4010276825299
 10
-159.0191918563125
 20
636.1937205461229
 10
-160.0844711080548
 20
635.7244658186691
 10
-161.0603060910931
 20
635.0101415815006
 10
-161.9115981239511
 20
634.0764405381041
 10
-162.6077280666875
 20
632.9569459029437
 10
-163.1236576253789
 20
631.691923485605
 10
-163.4408299255948
 20
630.3268734163957
 10
-163.5478369631829
 20
628.910893604708
210
0.0
220
0.0
230
-1.0
  0
LWPOLYLINE
  5
E45
330
1E
100
AcDbEntity
  8
STEMPEL
100
AcDbPolyline
 90
       18
 70
   128
 43
0.0
 10
-152.2577313066764
 20
628.9108936047064
 10
-152.3590439184808
 20
630.2890149883308
 10
-152.65953167441
 20
631.6202061011106
 10
-153.1489618243312
 20
632.8591348262873
 10
-153.8106674114956
 20
633.9636109320565
 10
-154.6221148457607
 20
634.8960228093094
 10
-155.5556712579764
 20
635.6246182898708
 10
-156.5795455042025
 20
636.124585928504
 10
-157.6588707749853
 20
636.3788999269206
 10
-158.7568919427364
 20
636.3788999269206
 10
-159.8362172135191
 20
636.124585928504
 10
-160.8600914597452
 20
635.6246182898708
 10
-161.7936478719609
 20
634.8960228093094
 10
-162.6050953062261
 20
633.9636109320565
 10
-163.2668008933905
 20
632.8591348262873
 10
-163.7562310433117
 20
631.6202061011106
 10
-164.0567187992409
 20
630.2890149883308
 10
-164.1580314110453
 20
628.9108936047064
210
0.0
220
0.0
230
-1.0
  0
LINE
  5
E46
330
1E
100
AcDbEntity
  8
STEMPEL
100
AcDbLine
 10
176.0287939165259
 20
673.9108936047082
 30
0.0
 11
176.0287939165259
 21
648.9108936047082
 31
0.0
  0
LINE
  5
E47
330
1E
100
AcDbEntity
  8
STEMPEL
100
AcDbLine
 10
176.529970911968
 20
673.9108936047082
 30
0.0
 11
176.529970911968
 21
648.9108936047082
 31
0.0
  0
LWPOLYLINE
  5
E48
330
1E
100
AcDbEntity
  8
STEMPEL
100
AcDbPolyline
 90
        9
 70
   128
 43
0.0
 10
-182.6001873055502
 20
636.4080200277465
 10
-183.92439675588
 20
636.2291871206987
 10
-185.1923761530661
 20
635.7789112033745
 10
-186.3570948411517
 20
635.0738934712353
 10
-187.3753522097583
 20
634.1402837548518
 10
-188.2093800490206
 20
633.0127105958756
 10
-188.8282434112145
 20
631.7329968389239
 10
-189.2089880196887
 20
630.3486083793885
 10
-189.3374916665205
 20
628.910893604708
210
0.0
220
0.0
230
-1.0
  0
LWPOLYLINE
  5
E49
330
1E
100
AcDbEntity
  8
STEMPEL
100
AcDbPolyline
 90
       18
 70
   128
 43
0.0
 10
-175.8628829445266
 20
628.9108936047064
 10
-175.9808639798077
 20
630.2890149883308
 10
-176.3307893829974
 20
631.6202061011106
 10
-176.9007428641791
 20
632.8591348262873
 10
-177.6713153411352
 20
633.9636109320565
 10
-178.6162658923627
 20
634.8960228093094
 10
-179.7034153601829
 20
635.6246182898708
 10
-180.8957421733611
 20
636.124585928504
 10
-182.1526430723129
 20
636.3788999269206
 10
-183.4313158044112
 20
636.3788999269206
 10
-184.6882167033631
 20
636.124585928504
 10
-185.8805435165412
 20
635.6246182898708
 10
-186.9676929843614
 20
634.8960228093094
 10
-187.9126435355889
 20
633.9636109320565
 10
-188.683216012545
 20
632.8591348262873
 10
-189.2531694937267
 20
631.6202061011106
 10
-189.6030948969164
 20
630.2890149883308
 10
-189.7210759321975
 20
628.9108936047064
210
0.0
220
0.0
230
-1.0
  0
LINE
  5
E4A
330
1E
100
AcDbEntity
  8
STEMPEL
100
AcDbLine
 10
174.6453715117975
 20
617.4108936047082
 30
0.0
 11
188.1199802337919
 21
617.4108936047082
 31
0.0
  0
LINE
  5
E4B
330
1E
100
AcDbEntity
  8
STEMPEL
100
AcDbLine
 10
175.8628829445266
 20
628.9108936047064
 30
0.0
 11
175.8628829445266
 21
622.4108936047098
 31
0.0
  0
LWPOLYLINE
  5
E4C
330
1E
100
AcDbEntity
  8
STEMPEL
100
AcDbPolyline
 90
       10
 70
   128
 43
0.0
 10
173.1405396173176
 20
616.4108936047082
 10
173.6132695750711
 20
616.502047086635
 10
174.0716358722713
 20
616.7727378799927
 10
174.5017112809221
 20
617.2147411820015
 10
174.8904281773604
 20
617.8146269459944
 10
175.225975595388
 20
618.5541679465891
 10
175.4981580965036
 20
619.4108936047085
 10
175.6987055531417
 20
620.3587727447543
 10
175.8215244323141
 20
621.369004538707
 10
175.8628829445266
 20
622.4108936047087
  0
ELLIPSE
  5
E4D
330
1E
100
AcDbEntity
  8
STEMPEL
100
AcDbEllipse
 10
169.5336033881431
 20
648.9108936047082
 30
0.0
 11
0.0
 21
-7.5
 31
0.0
210
0.0
220
0.0
230
-1.0
 40
0.8660254037843856
 41
4.712388980384689
 42
6.24459510668465
  0
LINE
  5
E4E
330
1E
100
AcDbEntity
  8
STEMPEL
100
AcDbLine
 10
189.7210759321975
 20
628.9108936047048
 30
0.0
 11
189.7210759321975
 21
622.4108936047098
 31
0.0
  0
LINE
  5
E4F
330
1E
100
AcDbEntity
  8
STEMPEL
100
AcDbLine
 10
189.3374916665205
 20
628.9108936047064
 30
0.0
 11
189.3374916665205
 21
622.4108936047098
 31
0.0
  0
LWPOLYLINE
  5
E50
330
1E
100
AcDbEntity
  8
STEMPEL
100
AcDbPolyline
 90
       10
 70
   128
 43
0.0
 10
186.9987326049885
 20
616.4108936047082
 10
187.4714625627421
 20
616.502047086635
 10
187.9298288599423
 20
616.7727378799927
 10
188.359904268593
 20
617.2147411820015
 10
188.7486211650313
 20
617.8146269459944
 10
189.0841685830589
 20
618.5541679465891
 10
189.3563510841745
 20
619.4108936047085
 10
189.5568985408126
 20
620.3587727447543
 10
189.6797174199851
 20
621.369004538707
 10
189.7210759321975
 20
622.4108936047087
  0
LWPOLYLINE
  5
E51
330
1E
100
AcDbEntity
  8
STEMPEL
100
AcDbPolyline
 90
        7
 70
   128
 43
0.0
 10
188.1199802337914
 20
617.4108936047082
 10
188.4705454482034
 20
618.0202315065489
 10
188.7712074271421
 20
618.7476617798381
 10
189.0138794890767
 20
619.573619273782
 10
189.1920346641252
 20
620.4758888242443
 10
189.3008812451057
 20
621.4302027584874
 10
189.3374916665205
 20
622.4108936047087
  0
ELLIPSE
  5
E52
330
1E
100
AcDbEntity
  8
STEMPEL
100
AcDbEllipse
 10
169.5336033881431
 20
673.9108936047082
 30
0.0
 11
0.0
 21
7.5
 31
0.0
210
0.0
220
0.0
230
1.0
 40
0.8660254037843856
 41
4.712388980384689
 42
6.24459510668465
  0
LINE
  5
E53
330
1E
100
AcDbEntity
  8
STEMPEL
100
AcDbLine
 10
144.4056135572641
 20
706.4108936047059
 30
0.0
 11
199.1439757296135
 21
706.4108936047063
 31
0.0
  0
ARC
  5
E54
330
1E
100
AcDbEntity
  8
STEMPEL
100
AcDbCircle
 10
144.4056135572641
 20
700.4108936047064
 30
0.0
 40
5.0
100
AcDbArc
 50
90.0
 51
120.5373500482991
  0
ARC
  5
E55
330
1E
100
AcDbEntity
  8
STEMPEL
100
AcDbCircle
 10
144.4056135572641
 20
700.4108936047064
 30
0.0
 40
6.0
100
AcDbArc
 50
90.0
 51
120.5128743276211
  0
ARC
  5
E56
330
1E
100
AcDbEntity
  8
STEMPEL
100
AcDbCircle
 10
144.4056135572641
 20
700.4108936047064
 30
0.0
 40
6.0
100
AcDbArc
 50
90.0
 51
90.0
  0
ARC
  5
E57
330
1E
100
AcDbEntity
  8
STEMPEL
100
AcDbCircle
 10
199.1439757296135
 20
707.9108936047064
 30
0.0
 40
1.5
100
AcDbArc
 50
270.0
 51
329.9999999999995
  0
TEXT
  5
E58
330
1E
100
AcDbEntity
  8
TEXT
 62
     1
100
AcDbText
 10
210.9917286264524
 20
499.8619067223797
 30
0.0
 40
7.0
  1
DN125
 50
90.0
 41
0.8
  7
GREEKS
100
AcDbText
  0
LINE
  5
E59
330
1E
100
AcDbEntity
  8
STEMPEL
  6
Continuous
100
AcDbLine
 10
288.9056135572639
 20
555.0743288598417
 30
0.0
 11
288.905613557264
 21
321.8581362770706
 31
0.0
  0
LINE
  5
E5A
102
{ACAD_REACTORS
330
FF2
102
}
330
1E
100
AcDbEntity
  8
STEMPEL
  6
Continuous
100
AcDbLine
 10
290.9056135572641
 20
555.0743288598417
 30
0.0
 11
290.9056135572642
 21
321.770814391257
 31
0.0
  0
LINE
  5
E5C
330
1E
100
AcDbEntity
  8
STEMPEL
100
AcDbLine
 10
288.9056135572639
 20
321.8581362770706
 30
0.0
 11
287.410666602236
 21
310.9108936047062
 31
0.0
  0
LINE
  5
E5D
330
1E
100
AcDbEntity
  8
STEMPEL
100
AcDbLine
 10
290.9056135572641
 20
321.770814391256
 30
0.0
 11
289.4183062773227
 21
310.9108936047062
 31
0.0
  0
LINE
  5
E5E
330
1E
100
AcDbEntity
  8
STEMPEL
100
AcDbLine
 10
387.2842932137046
 20
584.9108936047062
 30
0.0
 11
310.6836698848129
 21
584.9108936047062
 31
0.0
  0
LINE
  5
E5F
102
{ACAD_REACTORS
330
DC0
102
}
330
1E
100
AcDbEntity
  8
STEMPEL
100
AcDbLine
 10
383.0416525265848
 20
587.9108936047066
 30
0.0
 11
314.2486865956686
 21
587.9108936047066
 31
0.0
  0
LWPOLYLINE
  5
E60
330
1E
100
AcDbEntity
  8
STEMPEL
100
AcDbPolyline
 90
       18
 70
   128
 43
0.0
 10
333.1959263162291
 20
628.9108936047064
 10
333.1792578927523
 20
630.2890149883308
 10
333.1298202454919
 20
631.6202061011106
 10
333.0492969142315
 20
632.8591348262873
 10
332.9404300244398
 20
633.9636109320565
 10
332.8069269074775
 20
634.8960228093094
 10
332.6533338518734
 20
635.6246182898708
 10
332.4848812849213
 20
636.124585928504
 10
332.3073056567524
 20
636.3788999269206
 10
332.1266540924054
 20
636.3788999269206
 10
331.9490784642364
 20
636.124585928504
 10
331.7806258972844
 20
635.6246182898708
 10
331.6270328416802
 20
634.8960228093094
 10
331.493529724718
 20
633.9636109320565
 10
331.3846628349263
 20
632.8591348262873
 10
331.3041395036659
 20
631.6202061011106
 10
331.2547018564055
 20
630.2890149883308
 10
331.2380334329287
 20
628.9108936047064
  0
LWPOLYLINE
  5
E61
330
1E
100
AcDbEntity
  8
STEMPEL
100
AcDbPolyline
 90
       10
 70
   128
 43
0.0
 10
-332.5553036960692
 20
616.4108936047082
 10
-331.7191244212277
 20
616.502047086635
 10
-330.9083520305251
 20
616.7727378799927
 10
-330.1476214327822
 20
617.2147411820015
 10
-329.4600470422635
 20
617.8146269459944
 10
-328.866520458895
 20
618.5541679465891
 10
-328.3850756875738
 20
619.4108936047085
 10
-328.0303411840534
 20
620.3587727447543
 10
-327.8130953767193
 20
621.369004538707
 10
-327.7399391694953
 20
622.4108936047087
210
0.0
220
0.0
230
-1.0
  0
LWPOLYLINE
  5
E62
330
1E
100
AcDbEntity
  8
STEMPEL
100
AcDbPolyline
 90
       10
 70
   128
 43
0.0
 10
-336.7440221639595
 20
616.4108936047082
 10
-335.8859491676867
 20
616.4770208192808
 10
-335.0331369680645
 20
616.7295745690109
 10
-334.2123786611475
 20
617.1606202853285
 10
-333.4494602947484
 20
617.7566156557684
 10
-332.7683507392493
 20
618.498836087489
 10
-332.1904486493036
 20
619.3639629842866
 10
-331.7339101748974
 20
620.3248163550027
 10
-331.4130785432998
 20
621.3512087367148
 10
-331.2380334329287
 20
622.4108936047075
210
0.0
220
0.0
230
-1.0
  0
ARC
  5
E63
330
1E
100
AcDbEntity
  8
STEMPEL
100
AcDbCircle
 10
328.4056135572642
 20
686.4108356373913
 30
0.0
 40
5.0
100
AcDbArc
 50
0.0
 51
59.74358352518112
  0
ARC
  5
E64
330
1E
100
AcDbEntity
  8
STEMPEL
100
AcDbCircle
 10
328.4056135572642
 20
686.4108356373913
 30
0.0
 40
6.0
100
AcDbArc
 50
0.0
 51
59.74358352518112
  0
LINE
  5
E65
330
1E
100
AcDbEntity
  8
STEMPEL
100
AcDbLine
 10
330.9249671253914
 20
690.7297310515875
 30
0.0
 11
306.9461132324402
 21
704.7173842177731
 31
0.0
  0
LINE
  5
E66
330
1E
100
AcDbEntity
  8
STEMPEL
100
AcDbLine
 10
331.4383081789722
 20
691.5879741647501
 30
0.0
 11
307.4520053035053
 21
705.5799841754387
 31
0.0
  0
LINE
  5
E67
330
1E
100
AcDbEntity
  8
STEMPEL
100
AcDbLine
 10
274.1658556027312
 20
617.4108936047082
 30
0.0
 11
260.6912468807368
 21
617.4108936047082
 31
0.0
  0
LWPOLYLINE
  5
E68
330
1E
100
AcDbEntity
  8
STEMPEL
100
AcDbPolyline
 90
       18
 70
   128
 43
0.0
 10
272.9483441700021
 20
628.9108936047064
 10
272.830363134721
 20
630.2890149883308
 10
272.4804377315313
 20
631.6202061011106
 10
271.9104842503496
 20
632.8591348262873
 10
271.1399117733935
 20
633.9636109320565
 10
270.1949612221659
 20
634.8960228093094
 10
269.1078117543459
 20
635.6246182898708
 10
267.9154849411676
 20
636.124585928504
 10
266.6585840422158
 20
636.3788999269206
 10
265.3799113101174
 20
636.3788999269206
 10
264.1230104111656
 20
636.124585928504
 10
262.9306835979873
 20
635.6246182898708
 10
261.8435341301673
 20
634.8960228093094
 10
260.8985835789398
 20
633.9636109320565
 10
260.1280111019837
 20
632.8591348262873
 10
259.5580576208019
 20
631.6202061011106
 10
259.2081322176123
 20
630.2890149883308
 10
259.0901511823312
 20
628.9108936047064
  0
LINE
  5
E69
330
1E
100
AcDbEntity
  8
MITTEL
100
AcDbLine
 10
208.4814181064177
 20
628.0786369391071
 30
0.0
 11
208.4814181064182
 21
603.0541204721116
 31
0.0
  0
ARC
  5
E6A
330
1E
100
AcDbEntity
  8
STEMPEL
100
AcDbCircle
 10
221.1392753309913
 20
607.4108936047064
 30
0.0
 40
5.0
100
AcDbArc
 50
181.0000000000017
 51
270.0
  0
LWPOLYLINE
  5
E6B
330
1E
100
AcDbEntity
  8
STEMPEL
100
AcDbPolyline
 90
       18
 70
   128
 43
0.0
 10
246.0350856615513
 20
628.9108936047064
 10
245.9084764153749
 20
630.2890149883308
 10
245.5329602028732
 20
631.6202061011106
 10
244.9213247782809
 20
632.8591348262873
 10
244.0943986524065
 20
633.9636109320565
 10
243.0803418026783
 20
634.8960228093094
 10
241.9136867188866
 20
635.6246182898708
 10
240.6341624406613
 20
636.124585928504
 10
239.2853416326772
 20
636.3788999269206
 10
237.9131567698179
 20
636.3788999269206
 10
236.5643359618338
 20
636.124585928504
 10
235.2848116836085
 20
635.6246182898708
 10
234.1181565998168
 20
634.8960228093094
 10
233.1040997500885
 20
633.9636109320565
 10
232.2771736242141
 20
632.8591348262873
 10
231.6655381996218
 20
631.6202061011106
 10
231.2900219871201
 20
630.2890149883308
 10
231.1634127409437
 20
628.9108936047064
  0
LWPOLYLINE
  5
E6C
330
1E
100
AcDbEntity
  8
STEMPEL
100
AcDbPolyline
 90
        9
 70
   128
 43
0.0
 10
238.664665925991
 20
636.4106033644811
 10
237.2233259421132
 20
636.2553019705574
 10
235.8392450386637
 20
635.8209017235431
 10
234.5650204261317
 20
635.1239105032678
 10
233.4490746064018
 20
634.1908150518222
 10
232.5338152429488
 20
633.0570744364786
 10
231.8540236041737
 20
631.7657725504093
 10
231.4355328215242
 20
630.3659808582497
 10
231.2942461906303
 20
628.910893604708
  0
LINE
  5
E6D
330
1E
100
AcDbEntity
  8
STEMPEL
100
AcDbLine
 10
246.6216601838084
 20
617.4108936047082
 30
0.0
 11
231.8808207128871
 21
617.4108936047082
 31
0.0
  0
LINE
  5
E6E
330
1E
100
AcDbEntity
  8
STEMPEL
100
AcDbLine
 10
231.9056135572644
 20
673.9108936047082
 30
0.0
 11
231.9056135572644
 21
648.9108936047082
 31
0.0
  0
LINE
  5
E6F
330
1E
100
AcDbEntity
  8
STEMPEL
100
AcDbLine
 10
216.9056135572644
 20
673.9108936047066
 30
0.0
 11
216.9056135572644
 21
648.9108936047066
 31
0.0
  0
LWPOLYLINE
  5
E70
330
1E
100
AcDbEntity
  8
STEMPEL
100
AcDbPolyline
 90
        9
 70
   128
 43
0.0
 10
-210.1465611885377
 20
636.4106033644811
 10
-211.5879011724155
 20
636.2553019705574
 10
-212.9719820758651
 20
635.8209017235431
 10
-214.246206688397
 20
635.1239105032678
 10
-215.3621525081269
 20
634.1908150518222
 10
-216.27741187158
 20
633.0570744364786
 10
-216.957203510355
 20
631.7657725504093
 10
-217.3756942930045
 20
630.3659808582497
 10
-217.5169809238984
 20
628.910893604708
210
0.0
220
0.0
230
-1.0
  0
LWPOLYLINE
  5
E71
330
1E
100
AcDbEntity
  8
STEMPEL
100
AcDbPolyline
 90
       18
 70
   128
 43
0.0
 10
-202.7761414529774
 20
628.9108936047064
 10
-202.9027506991538
 20
630.2890149883308
 10
-203.2782669116555
 20
631.6202061011106
 10
-203.8899023362478
 20
632.8591348262873
 10
-204.7168284621222
 20
633.9636109320565
 10
-205.7308853118505
 20
634.8960228093094
 10
-206.8975403956422
 20
635.6246182898708
 10
-208.1770646738675
 20
636.124585928504
 10
-209.5258854818516
 20
636.3788999269206
 10
-210.8980703447108
 20
636.3788999269206
 10
-212.2468911526949
 20
636.124585928504
 10
-213.5264154309202
 20
635.6246182898708
 10
-214.693070514712
 20
634.8960228093094
 10
-215.7071273644402
 20
633.9636109320565
 10
-216.5340534903146
 20
632.8591348262873
 10
-217.1456889149069
 20
631.6202061011106
 10
-217.5212051274086
 20
630.2890149883308
 10
-217.647814373585
 20
628.9108936047064
210
0.0
220
0.0
230
-1.0
  0
LWPOLYLINE
  5
E72
330
1E
100
AcDbEntity
  8
STEMPEL
100
AcDbPolyline
 90
       10
 70
   128
 43
0.0
 10
216.336239637077
 20
616.4108936047082
 10
216.5639921999456
 20
616.502047086635
 10
216.7848246164398
 20
616.7727378799927
 10
216.992027005331
 20
617.2147411820015
 10
217.1793036268822
 20
617.8146269459944
 10
217.3409641757142
 20
618.5541679465891
 10
217.4720966778548
 20
619.4108936047085
 10
217.5687167385827
 20
620.3587727447543
 10
217.627888606245
 20
621.369004538707
 10
217.6478143735849
 20
622.4108936047087
  0
LWPOLYLINE
  5
E73
330
1E
100
AcDbEntity
  8
STEMPEL
100
AcDbPolyline
 90
        7
 70
   128
 43
0.0
 10
216.9304064016413
 20
617.4108936047082
 10
217.0993022474098
 20
618.0202315065489
 10
217.2441556359824
 20
618.7476617798384
 10
217.3610705535495
 20
619.573619273782
 10
217.4469024265672
 20
620.4758888242443
 10
217.4993426990129
 20
621.4302027584874
 10
217.5169809238982
 20
622.4108936047087
  0
ARC
  5
E74
330
1E
100
AcDbEntity
  8
STEMPEL
100
AcDbCircle
 10
224.4056135572642
 20
648.9108936047082
 30
0.0
 40
7.5
100
AcDbArc
 50
179.999999999987
 51
359.999999999974
  0
LINE
  5
E75
330
1E
100
AcDbEntity
  8
STEMPEL
100
AcDbLine
 10
202.7761414529772
 20
628.910893604708
 30
0.0
 11
202.7761414529772
 21
622.4108936047098
 31
0.0
  0
ARC
  5
E76
330
1E
100
AcDbEntity
  8
STEMPEL
100
AcDbCircle
 10
208.4814181064178
 20
614.7975193455072
 30
0.0
 40
8.281117593600001
100
AcDbArc
 50
70.52782738138624
 51
109.4721726186137
  0
LINE
  5
E77
330
1E
100
AcDbEntity
  8
STEMPEL
100
AcDbLine
 10
204.3410685167919
 20
623.0786369391071
 30
0.0
 11
212.6217676955347
 21
623.0786369391071
 31
0.0
  0
LINE
  5
E78
330
1E
100
AcDbEntity
  8
STEMPEL
100
AcDbLine
 10
202.1895669307203
 20
617.4108936047082
 30
0.0
 11
216.9304064016417
 21
617.4108936047082
 31
0.0
  0
LINE
  5
E79
330
1E
100
AcDbEntity
  8
STEMPEL
100
AcDbLine
 10
214.481418106418
 20
617.4108936047068
 30
0.0
 11
202.4814181064178
 21
617.4108936047073
 31
0.0
  0
LINE
  5
E7A
330
1E
100
AcDbEntity
  8
STEMPEL
100
AcDbLine
 10
202.5391987894184
 20
619.0108936047072
 30
0.0
 11
214.4814181064178
 21
619.010893604707
 31
0.0
  0
LINE
  5
E7B
330
1E
100
AcDbEntity
  8
STEMPEL
100
AcDbLine
 10
200.8227993576263
 20
607.3236315725202
 30
0.0
 11
200.9814181064178
 21
616.4108936047064
 31
0.0
  0
ARC
  5
E7C
330
1E
100
AcDbEntity
  8
STEMPEL
100
AcDbCircle
 10
204.3406647244438
 20
620.830738618828
 30
0.0
 40
2.247898356545996
100
AcDbArc
 50
52.11936428281847
 51
121.4691945163676
  0
LINE
  5
E7D
330
1E
100
AcDbEntity
  8
STEMPEL
100
AcDbLine
 10
202.9604135971192
 20
622.628646393904
 30
0.0
 11
203.1671717289046
 21
622.7480182569474
 31
0.0
  0
LINE
  5
E7E
330
1E
100
AcDbEntity
  8
STEMPEL
100
AcDbLine
 10
202.4814181064178
 20
618.6333960898864
 30
0.0
 11
202.4814181064178
 21
617.4108936047071
 31
0.0
  0
LWPOLYLINE
  5
E7F
330
1E
100
AcDbEntity
  8
STEMPEL
100
AcDbPolyline
 90
       10
 70
   128
 43
0.0
 10
201.4645667164694
 20
616.4108936047082
 10
201.692319279338
 20
616.502047086635
 10
201.9131516958322
 20
616.7727378799927
 10
202.1203540847234
 20
617.2147411820015
 10
202.3076307062746
 20
617.8146269459944
 10
202.4692912551066
 20
618.5541679465891
 10
202.6004237572472
 20
619.4108936047085
 10
202.6970438179751
 20
620.3587727447543
 10
202.7562156856374
 20
621.369004538707
 10
202.7761414529773
 20
622.4108936047087
  0
LINE
  5
E80
330
1E
100
AcDbEntity
  8
STEMPEL
100
AcDbLine
 10
202.9604135971192
 20
622.628646393904
 30
0.0
 11
202.9604135971192
 21
619.0108936047072
 31
0.0
  0
LINE
  5
E81
330
1E
100
AcDbEntity
  8
STEMPEL
100
AcDbLine
 10
205.7209158517685
 20
622.6049860217797
 30
0.0
 11
205.7209158517685
 21
619.0108936047072
 31
0.0
  0
LINE
  5
E82
330
1E
100
AcDbEntity
  8
STEMPEL
100
AcDbLine
 10
216.1400368552092
 20
607.3236315725201
 30
0.0
 11
215.9814181064178
 21
616.4108936047064
 31
0.0
  0
ARC
  5
E83
330
1E
100
AcDbEntity
  8
STEMPEL
100
AcDbCircle
 10
212.6221714883918
 20
620.830738618828
 30
0.0
 40
2.247898356545996
100
AcDbArc
 50
58.53080548383119
 51
127.8806357171815
  0
LINE
  5
E84
330
1E
100
AcDbEntity
  8
STEMPEL
100
AcDbLine
 10
212.6182122630325
 20
623.0786369391071
 30
0.0
 11
212.6217676960286
 21
623.0786369391071
 31
0.0
  0
LINE
  5
E85
330
1E
100
AcDbEntity
  8
STEMPEL
100
AcDbLine
 10
211.2419203610673
 20
622.6049860217797
 30
0.0
 11
211.2419203610671
 21
619.0108936047072
 31
0.0
  0
LINE
  5
E86
330
1E
100
AcDbEntity
  8
STEMPEL
100
AcDbLine
 10
214.0024226157166
 20
622.628646393904
 30
0.0
 11
213.7956644839241
 21
622.7480182569514
 31
0.0
  0
LINE
  5
E87
330
1E
100
AcDbEntity
  8
STEMPEL
100
AcDbLine
 10
214.4814181064178
 20
619.010893604707
 30
0.0
 11
214.4814181064178
 21
617.4108936047071
 31
0.0
  0
LINE
  5
E88
330
1E
100
AcDbEntity
  8
STEMPEL
100
AcDbLine
 10
214.0024226157166
 20
622.6286463939039
 30
0.0
 11
214.0024226157166
 21
619.0108936047072
 31
0.0
  0
LINE
  5
E89
330
1E
100
AcDbEntity
  8
STEMPEL
100
AcDbLine
 10
231.2942461906303
 20
628.9108936047064
 30
0.0
 11
231.2942461906303
 21
622.4108936047098
 31
0.0
  0
LINE
  5
E8A
330
1E
100
AcDbEntity
  8
STEMPEL
100
AcDbLine
 10
231.1634127409438
 20
628.9108936047048
 30
0.0
 11
231.1634127409438
 21
622.4108936047098
 31
0.0
  0
LINE
  5
E8B
330
1E
100
AcDbEntity
  8
STEMPEL
100
AcDbLine
 10
217.6478143735849
 20
628.9108936047048
 30
0.0
 11
217.6478143735849
 21
622.4108936047098
 31
0.0
  0
LINE
  5
E8C
330
1E
100
AcDbEntity
  8
STEMPEL
100
AcDbLine
 10
217.5169809238984
 20
628.9108936047064
 30
0.0
 11
217.5169809238984
 21
622.4108936047098
 31
0.0
  0
LWPOLYLINE
  5
E8D
330
1E
100
AcDbEntity
  8
STEMPEL
100
AcDbPolyline
 90
       10
 70
   128
 43
0.0
 10
-232.4749874774517
 20
616.4108936047082
 10
-232.2472349145832
 20
616.502047086635
 10
-232.026402498089
 20
616.7727378799927
 10
-231.8192001091977
 20
617.2147411820015
 10
-231.6319234876465
 20
617.8146269459944
 10
-231.4702629388146
 20
618.5541679465891
 10
-231.339130436674
 20
619.4108936047085
 10
-231.242510375946
 20
620.3587727447543
 10
-231.1833385082838
 20
621.369004538707
 10
-231.1634127409438
 20
622.4108936047087
210
0.0
220
0.0
230
-1.0
  0
LWPOLYLINE
  5
E8E
330
1E
100
AcDbEntity
  8
STEMPEL
100
AcDbPolyline
 90
        7
 70
   128
 43
0.0
 10
-231.8808207128874
 20
617.4108936047082
 10
-231.7119248671189
 20
618.0202315065489
 10
-231.5670714785463
 20
618.7476617798384
 10
-231.4501565609792
 20
619.573619273782
 10
-231.3643246879615
 20
620.4758888242443
 10
-231.3118844155158
 20
621.4302027584874
 10
-231.2942461906305
 20
622.4108936047087
210
0.0
220
0.0
230
-1.0
  0
ARC
  5
E8F
330
1E
100
AcDbEntity
  8
STEMPEL
100
AcDbCircle
 10
224.4056135572644
 20
673.9108936047082
 30
0.0
 40
7.5
100
AcDbArc
 50
0.0000000000260551
 51
180.000000000013
  0
LINE
  5
E90
330
1E
100
AcDbEntity
  8
STEMPEL
100
AcDbLine
 10
246.0350856615515
 20
628.910893604708
 30
0.0
 11
246.0350856615515
 21
622.4108936047098
 31
0.0
  0
LWPOLYLINE
  5
E91
330
1E
100
AcDbEntity
  8
STEMPEL
100
AcDbPolyline
 90
       10
 70
   128
 43
0.0
 10
-247.3466603980593
 20
616.4108936047082
 10
-247.1189078351907
 20
616.502047086635
 10
-246.8980754186965
 20
616.7727378799927
 10
-246.6908730298053
 20
617.2147411820015
 10
-246.5035964082541
 20
617.8146269459944
 10
-246.3419358594222
 20
618.5541679465891
 10
-246.2108033572815
 20
619.4108936047085
 10
-246.1141832965536
 20
620.3587727447543
 10
-246.0550114288915
 20
621.369004538707
 10
-246.0350856615514
 20
622.4108936047087
210
0.0
220
0.0
230
-1.0
  0
LINE
  5
E92
330
1E
100
AcDbEntity
  8
STEMPEL
100
AcDbLine
 10
259.4737354480082
 20
628.9108936047064
 30
0.0
 11
259.4737354480082
 21
622.4108936047098
 31
0.0
  0
LINE
  5
E93
330
1E
100
AcDbEntity
  8
STEMPEL
100
AcDbLine
 10
259.0901511823312
 20
628.9108936047048
 30
0.0
 11
259.0901511823312
 21
622.4108936047098
 31
0.0
  0
LWPOLYLINE
  5
E94
330
1E
100
AcDbEntity
  8
STEMPEL
100
AcDbPolyline
 90
       10
 70
   128
 43
0.0
 10
-261.8124945095402
 20
616.4108936047082
 10
-261.3397645517866
 20
616.502047086635
 10
-260.8813982545864
 20
616.7727378799927
 10
-260.4513228459357
 20
617.2147411820015
 10
-260.0626059494974
 20
617.8146269459944
 10
-259.7270585314698
 20
618.5541679465891
 10
-259.4548760303542
 20
619.4108936047085
 10
-259.2543285737161
 20
620.3587727447543
 10
-259.1315096945436
 20
621.369004538707
 10
-259.0901511823312
 20
622.4108936047087
210
0.0
220
0.0
230
-1.0
  0
LWPOLYLINE
  5
E95
330
1E
100
AcDbEntity
  8
STEMPEL
100
AcDbPolyline
 90
        7
 70
   128
 43
0.0
 10
-260.6912468807372
 20
617.4108936047082
 10
-260.3406816663253
 20
618.0202315065489
 10
-260.0400196873866
 20
618.7476617798381
 10
-259.7973476254519
 20
619.573619273782
 10
-259.6191924504035
 20
620.4758888242443
 10
-259.510345869423
 20
621.4302027584874
 10
-259.4737354480082
 20
622.4108936047087
210
0.0
220
0.0
230
-1.0
  0
LWPOLYLINE
  5
E96
330
1E
100
AcDbEntity
  8
STEMPEL
100
AcDbPolyline
 90
        9
 70
   128
 43
0.0
 10
266.2110398089785
 20
636.4080200277465
 10
264.8868303586487
 20
636.2291871206987
 10
263.6188509614626
 20
635.7789112033745
 10
262.454132273377
 20
635.0738934712353
 10
261.4358749047704
 20
634.1402837548518
 10
260.6018470655081
 20
633.0127105958756
 10
259.9829837033142
 20
631.7329968389239
 10
259.60223909484
 20
630.3486083793885
 10
259.4737354480082
 20
628.910893604708
  0
LINE
  5
E97
330
1E
100
AcDbEntity
  8
MITTEL
100
AcDbLine
 10
321.1947210727958
 20
620.9108936047073
 30
0.0
 11
321.1947210727957
 21
590.9108936047062
 31
0.0
  0
LINE
  5
E98
330
1E
100
AcDbEntity
  8
STEMPEL
100
AcDbLine
 10
301.8386351211546
 20
572.9843641027938
 30
0.0
 11
291.3810812114283
 21
556.6950498212748
 31
0.0
  0
LINE
  5
E99
102
{ACAD_REACTORS
330
DC0
102
}
330
1E
100
AcDbEntity
  8
STEMPEL
100
AcDbLine
 10
309.1996219039969
 20
588.1523355275724
 30
0.0
 11
289.6980596475377
 21
557.7755304622301
 31
0.0
  0
ARC
  5
E9A
330
1E
100
AcDbEntity
  8
STEMPEL
100
AcDbCircle
 10
293.905613557264
 20
555.0743288598417
 30
0.0
 40
5.0
100
AcDbArc
 50
147.2999999999998
 51
180.0
  0
ARC
  5
E9B
330
1E
100
AcDbEntity
  8
STEMPEL
100
AcDbCircle
 10
293.905613557264
 20
555.0743288598417
 30
0.0
 40
3.0
100
AcDbArc
 50
147.2999999999998
 51
180.0
  0
LINE
  5
E9C
102
{ACAD_REACTORS
330
DC0
102
}
330
1E
100
AcDbEntity
  8
STEMPEL
100
AcDbLine
 10
311.7241542498326
 20
586.5316145661396
 30
0.0
 11
302.6801459031
 21
572.4441237823163
 31
0.0
  0
ARC
  5
E9D
330
1E
100
AcDbEntity
  8
SCHRAFF
100
AcDbCircle
 10
301.8386351211546
 20
572.9843641027938
 30
0.0
 40
2.0
100
AcDbArc
 50
237.2999999999999
 51
27.29999999999825
  0
LINE
  5
E9E
102
{ACAD_REACTORS
330
DC0
102
}
330
1E
100
AcDbEntity
  8
STEMPEL
100
AcDbLine
 10
300.155613557264
 20
574.0648447437491
 30
0.0
 11
302.6801459031
 21
572.4441237823163
 31
0.0
  0
ARC
  5
E9F
102
{ACAD_REACTORS
330
DC0
102
}
330
1E
100
AcDbEntity
  8
STEMPEL
100
AcDbCircle
 10
314.2486865956686
 20
584.9108936047067
 30
0.0
 40
6.0
100
AcDbArc
 50
90.0
 51
147.2999999999998
  0
ARC
  5
EA0
102
{ACAD_REACTORS
330
DC0
102
}
330
1E
100
AcDbEntity
  8
STEMPEL
100
AcDbCircle
 10
314.2486865956686
 20
584.9108936047067
 30
0.0
 40
3.0
100
AcDbArc
 50
90.0
 51
147.2999999999998
  0
LINE
  5
EA1
330
1E
100
AcDbEntity
  8
STEMPEL
100
AcDbLine
 10
319.405613557264
 20
593.9108936047066
 30
0.0
 11
319.405613557264
 21
590.9108936047066
 31
0.0
  0
ARC
  5
EA2
330
1E
100
AcDbEntity
  8
STEMPEL
100
AcDbCircle
 10
321.405613557264
 20
599.4108936047066
 30
0.0
 40
3.0
100
AcDbArc
 50
90.0
 51
270.0
  0
LINE
  5
EA3
330
1E
100
AcDbEntity
  8
HILF
100
AcDbLine
 10
317.1947210727957
 20
596.4108936047064
 30
0.0
 11
317.1947210727957
 21
593.9108936047066
 31
0.0
  0
LINE
  5
EA4
330
1E
100
AcDbEntity
  8
STEMPEL
100
AcDbLine
 10
316.1947210727957
 20
596.4108936047064
 30
0.0
 11
316.1947210727957
 21
593.9108936047066
 31
0.0
  0
LINE
  5
EA5
330
1E
100
AcDbEntity
  8
STEMPEL
100
AcDbLine
 10
326.1947210727958
 20
596.4108936047064
 30
0.0
 11
326.1947210727957
 21
593.9108936047066
 31
0.0
  0
LINE
  5
EA6
330
1E
100
AcDbEntity
  8
HILF
100
AcDbLine
 10
325.1947210727957
 20
596.4108936047064
 30
0.0
 11
325.1947210727957
 21
593.9108936047066
 31
0.0
  0
LWPOLYLINE
  5
EA7
330
1E
100
AcDbEntity
  8
STEMPEL
100
AcDbPolyline
 90
       10
 70
   128
 43
0.0
 10
-300.2160989433763
 20
616.4108936047082
 10
-299.5800945833754
 20
616.502047086635
 10
-298.9634148940193
 20
616.7727378799927
 10
-298.3847973756142
 20
617.2147411820015
 10
-297.8618230286624
 20
617.8146269459944
 10
-297.4103821640579
 20
618.5541679465891
 10
-297.0441915840319
 20
619.4108936047085
 10
-296.7743778040569
 20
620.3587727447543
 10
-296.6091389793053
 20
621.369004538707
 10
-296.5534958078522
 20
622.4108936047087
210
0.0
220
0.0
230
-1.0
  0
LINE
  5
EA8
330
1E
100
AcDbEntity
  8
STEMPEL
100
AcDbLine
 10
272.2812562025606
 20
673.9108936047082
 30
0.0
 11
272.2812562025606
 21
648.9108936047082
 31
0.0
  0
LINE
  5
EA9
330
1E
100
AcDbEntity
  8
STEMPEL
100
AcDbLine
 10
272.7824331980025
 20
673.9108936047082
 30
0.0
 11
272.7824331980025
 21
648.9108936047082
 31
0.0
  0
LINE
  5
EAA
330
1E
100
AcDbEntity
  8
STEMPEL
100
AcDbLine
 10
285.2716372593263
 20
673.9108936047082
 30
0.0
 11
285.2716372593263
 21
648.9108936047098
 31
0.0
  0
ELLIPSE
  5
EAB
330
1E
100
AcDbEntity
  8
STEMPEL
100
AcDbEllipse
 10
278.7764467309435
 20
648.9108936047082
 30
0.0
 11
0.0
 21
-7.5
 31
0.0
210
0.0
220
0.0
230
1.0
 40
0.8660254037843856
 41
4.712388980384689
 42
7.853981633974482
  0
LINE
  5
EAC
330
1E
100
AcDbEntity
  8
STEMPEL
100
AcDbLine
 10
272.9483441700021
 20
628.9108936047064
 30
0.0
 11
272.9483441700021
 21
622.4108936047098
 31
0.0
  0
LWPOLYLINE
  5
EAD
330
1E
100
AcDbEntity
  8
STEMPEL
100
AcDbPolyline
 90
       10
 70
   128
 43
0.0
 10
-275.6706874972111
 20
616.4108936047082
 10
-275.1979575394575
 20
616.502047086635
 10
-274.7395912422573
 20
616.7727378799927
 10
-274.3095158336066
 20
617.2147411820015
 10
-273.9207989371684
 20
617.8146269459944
 10
-273.5852515191407
 20
618.5541679465891
 10
-273.3130690180251
 20
619.4108936047085
 10
-273.112521561387
 20
620.3587727447543
 10
-272.9897026822146
 20
621.369004538707
 10
-272.9483441700021
 20
622.4108936047087
210
0.0
220
0.0
230
-1.0
  0
ELLIPSE
  5
EAE
330
1E
100
AcDbEntity
  8
STEMPEL
100
AcDbEllipse
 10
279.2776237263854
 20
648.9108936047082
 30
0.0
 11
0.0
 21
-7.5
 31
0.0
210
0.0
220
0.0
230
1.0
 40
0.8660254037843856
 41
4.712388980384689
 42
6.24459510668465
  0
LINE
  5
EAF
330
1E
100
AcDbEntity
  8
STEMPEL
100
AcDbLine
 10
296.5534958078522
 20
628.9108936047064
 30
0.0
 11
296.5534958078522
 21
622.4108936047098
 31
0.0
  0
LINE
  5
EB0
330
1E
100
AcDbEntity
  8
STEMPEL
100
AcDbLine
 10
285.2633901513457
 20
628.9108936047064
 30
0.0
 11
285.2633901513457
 21
622.4108936047098
 31
0.0
  0
LINE
  5
EB1
330
1E
100
AcDbEntity
  8
STEMPEL
100
AcDbLine
 10
284.6531957034833
 20
628.9108936047064
 30
0.0
 11
284.6531957034833
 21
622.4108936047098
 31
0.0
  0
LINE
  5
EB2
330
1E
100
AcDbEntity
  8
STEMPEL
100
AcDbLine
 10
298.1915188839575
 20
617.4108936047082
 30
0.0
 11
286.9014132274505
 21
617.4108936047082
 31
0.0
  0
LWPOLYLINE
  5
EB3
330
1E
100
AcDbEntity
  8
STEMPEL
100
AcDbPolyline
 90
       10
 70
   128
 43
0.0
 10
-288.3157988390075
 20
616.4108936047082
 10
-287.6797944790066
 20
616.502047086635
 10
-287.0631147896504
 20
616.7727378799927
 10
-286.4844972712453
 20
617.2147411820015
 10
-285.9615229242935
 20
617.8146269459944
 10
-285.510082059689
 20
618.5541679465891
 10
-285.143891479663
 20
619.4108936047085
 10
-284.8740776996881
 20
620.3587727447543
 10
-284.7088388749364
 20
621.369004538707
 10
-284.6531957034833
 20
622.4108936047087
210
0.0
220
0.0
230
-1.0
  0
LWPOLYLINE
  5
EB4
330
1E
100
AcDbEntity
  8
STEMPEL
100
AcDbPolyline
 90
        7
 70
   128
 43
0.0
 10
-286.901413227451
 20
617.4108936047082
 10
-286.4297676268842
 20
618.0202315065489
 10
-286.0252611505014
 20
618.7476617798384
 10
-285.6987735080123
 20
619.573619273782
 10
-285.4590859946041
 20
620.4758888242443
 10
-285.3126453069781
 20
621.4302027584874
 10
-285.2633901513457
 20
622.4108936047087
210
0.0
220
0.0
230
-1.0
  0
LWPOLYLINE
  5
EB5
330
1E
100
AcDbEntity
  8
STEMPEL
100
AcDbPolyline
 90
       18
 70
   128
 43
0.0
 10
296.5534958078523
 20
628.9108936047064
 10
296.452183196048
 20
630.2890149883308
 10
296.1516954401187
 20
631.6202061011106
 10
295.6622652901975
 20
632.8591348262873
 10
295.0005597030331
 20
633.9636109320565
 10
294.189112268768
 20
634.8960228093094
 10
293.2555558565523
 20
635.6246182898708
 10
292.2316816103262
 20
636.124585928504
 10
291.1523563395434
 20
636.3788999269206
 10
290.0543351717923
 20
636.3788999269206
 10
288.9750099010096
 20
636.124585928504
 10
287.9511356547835
 20
635.6246182898708
 10
287.0175792425678
 20
634.8960228093094
 10
286.2061318083026
 20
633.9636109320565
 10
285.5444262211382
 20
632.8591348262873
 10
285.054996071217
 20
631.6202061011106
 10
284.7545083152878
 20
630.2890149883308
 10
284.6531957034835
 20
628.9108936047064
  0
LWPOLYLINE
  5
EB6
330
1E
100
AcDbEntity
  8
STEMPEL
100
AcDbPolyline
 90
        9
 70
   128
 43
0.0
 10
290.9084429795873
 20
636.4010276825299
 10
289.7920352582162
 20
636.1937205461229
 10
288.7267560064739
 20
635.7244658186691
 10
287.7509210234356
 20
635.0101415815006
 10
286.8996289905776
 20
634.0764405381041
 10
286.2034990478412
 20
632.9569459029437
 10
285.6875694891499
 20
631.691923485605
 10
285.370397188934
 20
630.3268734163957
 10
285.2633901513458
 20
628.910893604708
  0
ELLIPSE
  5
EB7
330
1E
100
AcDbEntity
  8
STEMPEL
100
AcDbEllipse
 10
278.7764467309435
 20
673.9108936047082
 30
0.0
 11
0.0
 21
7.5
 31
0.0
210
0.0
220
0.0
230
-1.0
 40
0.8660254037843856
 41
4.712388980384689
 42
7.853981633974482
  0
ELLIPSE
  5
EB8
330
1E
100
AcDbEntity
  8
STEMPEL
100
AcDbEllipse
 10
279.2776237263854
 20
673.9108936047082
 30
0.0
 11
0.0
 21
7.5
 31
0.0
210
0.0
220
0.0
230
-1.0
 40
0.8660254037843856
 41
4.712388980384689
 42
6.24459510668465
  0
LINE
  5
EB9
330
1E
100
AcDbEntity
  8
STEMPEL
100
AcDbLine
 10
322.3286590639274
 20
673.9108936047082
 30
0.0
 11
322.3286590639274
 21
648.9108936047114
 31
0.0
  0
LINE
  5
EBA
330
1E
100
AcDbEntity
  8
STEMPEL
100
AcDbLine
 10
314.8286590639275
 20
673.9108936047082
 30
0.0
 11
314.8286590639275
 21
648.9108936047098
 31
0.0
  0
LINE
  5
EBB
330
1E
100
AcDbEntity
  8
STEMPEL
100
AcDbLine
 10
315.6967230836165
 20
648.9108936047082
 30
0.0
 11
315.6967230836165
 21
673.9108936047098
 31
0.0
  0
ELLIPSE
  5
EBC
330
1E
100
AcDbEntity
  8
STEMPEL
100
AcDbEllipse
 10
318.5786590639275
 20
648.9108936047098
 30
0.0
 11
0.0
 21
-7.499999999999999
 31
0.0
210
0.0
220
0.0
230
1.0
 40
0.4999999999999926
 41
4.712388980384689
 42
7.853981633974482
  0
LINE
  5
EBD
330
1E
100
AcDbEntity
  8
STEMPEL
100
AcDbLine
 10
317.1934653288543
 20
617.4108936047082
 30
0.0
 11
308.8572647805423
 21
617.4108936047082
 31
0.0
  0
LWPOLYLINE
  5
EBE
330
1E
100
AcDbEntity
  8
STEMPEL
100
AcDbPolyline
 90
       10
 70
   128
 43
0.0
 10
-319.6055946749417
 20
616.4108936047082
 10
-318.8478450498475
 20
616.502047086635
 10
-318.113119263672
 20
616.7727378799927
 10
-317.4237415876388
 20
617.2147411820015
 10
-316.8006584135924
 20
617.8146269459944
 10
-316.262801808481
 20
618.5541679465891
 10
-315.826514273082
 20
619.4108936047085
 10
-315.5050521833867
 20
620.3587727447543
 10
-315.3081830023227
 20
621.369004538707
 10
-315.2418885003359
 20
622.4108936047087
210
0.0
220
0.0
230
-1.0
  0
LINE
  5
EBF
330
1E
100
AcDbEntity
  8
STEMPEL
100
AcDbLine
 10
315.2418885003358
 20
628.9108936047064
 30
0.0
 11
315.2418885003358
 21
622.4108936047098
 31
0.0
  0
LINE
  5
EC0
330
1E
100
AcDbEntity
  8
STEMPEL
100
AcDbLine
 10
306.9056879520247
 20
628.9108936047064
 30
0.0
 11
306.9056879520247
 21
622.4108936047098
 31
0.0
  0
LINE
  5
EC1
330
1E
100
AcDbEntity
  8
STEMPEL
100
AcDbLine
 10
306.1104670652039
 20
628.9108936047064
 30
0.0
 11
306.1104670652039
 21
622.4108936047098
 31
0.0
  0
LWPOLYLINE
  5
EC2
330
1E
100
AcDbEntity
  8
STEMPEL
100
AcDbPolyline
 90
       10
 70
   128
 43
0.0
 10
-310.4741732398098
 20
616.4108936047082
 10
-309.7164236147156
 20
616.502047086635
 10
-308.9816978285401
 20
616.7727378799927
 10
-308.292320152507
 20
617.2147411820015
 10
-307.6692369784605
 20
617.8146269459944
 10
-307.1313803733491
 20
618.5541679465891
 10
-306.6950928379502
 20
619.4108936047085
 10
-306.3736307482549
 20
620.3587727447543
 10
-306.1767615671909
 20
621.369004538707
 10
-306.110467065204
 20
622.4108936047087
210
0.0
220
0.0
230
-1.0
  0
LWPOLYLINE
  5
EC3
330
1E
100
AcDbEntity
  8
STEMPEL
100
AcDbPolyline
 90
        7
 70
   128
 43
0.0
 10
-308.857264780543
 20
617.4108936047082
 10
-308.2953358072789
 20
618.0202315065489
 10
-307.8133978676917
 20
618.7476617798384
 10
-307.4244132879419
 20
619.573619273782
 10
-307.1388442968355
 20
620.4758888242443
 10
-306.9643716310395
 20
621.4302027584874
 10
-306.9056879520246
 20
622.4108936047087
210
0.0
220
0.0
230
-1.0
  0
LWPOLYLINE
  5
EC4
330
1E
100
AcDbEntity
  8
STEMPEL
100
AcDbPolyline
 90
       18
 70
   128
 43
0.0
 10
315.2418885003357
 20
628.9108936047064
 10
315.1641485990756
 20
630.2890149883308
 10
314.9335762343937
 20
631.6202061011106
 10
314.5580232716286
 20
632.8591348262873
 10
314.0502787165009
 20
633.9636109320565
 10
313.4276332008629
 20
634.8960228093094
 10
312.7112901709688
 20
635.6246182898708
 10
311.925643829543
 20
636.124585928504
 10
311.0974484204636
 20
636.3788999269206
 10
310.2549071450759
 20
636.3788999269206
 10
309.4267117359965
 20
636.124585928504
 10
308.6410653945707
 20
635.6246182898708
 10
307.9247223646766
 20
634.8960228093094
 10
307.3020768490386
 20
633.9636109320565
 10
306.7943322939109
 20
632.8591348262873
 10
306.4187793311457
 20
631.6202061011106
 10
306.1882069664639
 20
630.2890149883308
 10
306.1104670652038
 20
628.9108936047064
  0
LWPOLYLINE
  5
EC5
330
1E
100
AcDbEntity
  8
STEMPEL
100
AcDbPolyline
 90
       10
 70
   128
 43
0.0
 10
311.4713986695907
 20
636.4108936047095
 10
310.678571323731
 20
636.296951752301
 10
309.9098336355853
 20
635.9585882606036
 10
309.1885433108077
 20
635.4060841330927
 10
308.5366163909263
 20
634.6562269281014
 10
307.9738613455106
 20
633.731800677358
 10
307.5173772018477
 20
632.6608936047087
 10
307.1810339996509
 20
631.476044679651
 10
306.9750513569208
 20
630.2132549372101
 10
306.9056879520248
 20
628.910893604708
  0
LINE
  5
EC6
330
1E
100
AcDbEntity
  8
STEMPEL
100
AcDbLine
 10
331.2380334329287
 20
628.9108936047064
 30
0.0
 11
331.2380334329287
 21
622.4108936047075
 31
0.0
  0
LINE
  5
EC7
330
1E
100
AcDbEntity
  8
STEMPEL
100
AcDbLine
 10
322.9257420205248
 20
628.9108936047064
 30
0.0
 11
322.9257420205248
 21
622.4108936047098
 31
0.0
  0
LINE
  5
EC8
330
1E
100
AcDbEntity
  8
STEMPEL
100
AcDbLine
 10
327.7399391694953
 20
628.9108936047064
 30
0.0
 11
327.7399391694953
 21
622.4108936047098
 31
0.0
  0
LINE
  5
EC9
330
1E
100
AcDbEntity
  8
STEMPEL
100
AcDbLine
 10
321.9996876840176
 20
628.9108936047064
 30
0.0
 11
321.9996876840176
 21
622.4108936047098
 31
0.0
  0
LINE
  5
ECA
330
1E
100
AcDbEntity
  8
STEMPEL
100
AcDbLine
 10
316.1947210727958
 20
614.9108936047073
 30
0.0
 11
326.1947210727958
 21
614.9108936047073
 31
0.0
  0
LINE
  5
ECB
330
1E
100
AcDbEntity
  8
STEMPEL
100
AcDbLine
 10
325.1947210727958
 20
615.9108936047073
 30
0.0
 11
317.1947210727958
 21
615.9108936047073
 31
0.0
  0
LWPOLYLINE
  5
ECC
330
1E
100
AcDbEntity
  8
STEMPEL
100
AcDbPolyline
 90
        7
 70
   128
 43
0.0
 10
-325.0793136531935
 20
617.4108936047082
 10
-324.4592231301292
 20
618.0202315065489
 10
-323.9274029833457
 20
618.7476617798381
 10
-323.4981571836144
 20
619.573619273782
 10
-323.1830308358171
 20
620.4758888242443
 10
-322.9904996588512
 20
621.4302027584874
 10
-322.9257420205249
 20
622.4108936047087
210
0.0
220
0.0
230
-1.0
  0
LWPOLYLINE
  5
ECD
330
1E
100
AcDbEntity
  8
STEMPEL
100
AcDbPolyline
 90
       10
 70
   128
 43
0.0
 10
-326.8150522105915
 20
616.4108936047082
 10
-325.9788729357499
 20
616.502047086635
 10
-325.1681005450473
 20
616.7727378799927
 10
-324.4073699473045
 20
617.2147411820015
 10
-323.7197955567857
 20
617.8146269459944
 10
-323.1262689734173
 20
618.5541679465891
 10
-322.6448242020961
 20
619.4108936047085
 10
-322.2900896985757
 20
620.3587727447543
 10
-322.0728438912415
 20
621.369004538707
 10
-321.9996876840176
 20
622.4108936047087
210
0.0
220
0.0
230
-1.0
  0
LINE
  5
ECE
330
1E
100
AcDbEntity
  8
HILF
100
AcDbLine
 10
317.1947210727958
 20
615.9108936047073
 30
0.0
 11
317.1947210727958
 21
612.4108936047069
 31
0.0
  0
LINE
  5
ECF
330
1E
100
AcDbEntity
  8
STEMPEL
100
AcDbLine
 10
317.1947210727958
 20
615.9108936047073
 30
0.0
 11
316.1947210727958
 21
614.9108936047073
 31
0.0
  0
LINE
  5
ED0
330
1E
100
AcDbEntity
  8
STEMPEL
100
AcDbLine
 10
316.1947210727958
 20
614.9108936047073
 30
0.0
 11
316.1947210727958
 21
612.4108936047068
 31
0.0
  0
LINE
  5
ED1
330
1E
100
AcDbEntity
  8
STEMPEL
100
AcDbLine
 10
326.1947210727958
 20
614.9108936047073
 30
0.0
 11
325.1947210727958
 21
615.9108936047073
 31
0.0
  0
LINE
  5
ED2
330
1E
100
AcDbEntity
  8
HILF
100
AcDbLine
 10
325.1947210727958
 20
615.9108936047073
 30
0.0
 11
325.1947210727958
 21
612.4108936047069
 31
0.0
  0
LINE
  5
ED3
330
1E
100
AcDbEntity
  8
STEMPEL
100
AcDbLine
 10
326.1947210727958
 20
614.9108936047073
 30
0.0
 11
326.1947210727958
 21
612.4108936047068
 31
0.0
  0
LINE
  5
ED4
330
1E
100
AcDbEntity
  8
STEMPEL
100
AcDbLine
 10
329.8935108021638
 20
617.4108936047082
 30
0.0
 11
325.0793136531925
 21
617.4108936047082
 31
0.0
  0
LWPOLYLINE
  5
ED5
330
1E
100
AcDbEntity
  8
STEMPEL
100
AcDbPolyline
 90
        9
 70
   128
 43
0.0
 10
325.3328405950085
 20
636.3126518493714
 10
324.8437800517397
 20
635.9862189516141
 10
324.3841670838388
 20
635.4409499383568
 10
323.9682172802145
 20
634.6937096952288
 10
323.6087957509229
 20
633.7676099724513
 10
323.3170192160354
 20
632.6912945504809
 10
323.1019121712973
 20
631.4980533028501
 10
322.9701277651898
 20
630.2247925577741
 10
322.9257420205249
 20
628.910893604708
  0
LWPOLYLINE
  5
ED6
330
1E
100
AcDbEntity
  8
STEMPEL
100
AcDbPolyline
 90
       18
 70
   128
 43
0.0
 10
327.7399391694953
 20
628.9108936047064
 10
327.691069824579
 20
630.2890149883308
 10
327.546125976759
 20
631.6202061011106
 10
327.3100435149317
 20
632.8591348262873
 10
326.9908619441851
 20
633.9636109320565
 10
326.5994506100946
 20
634.8960228093094
 10
326.1491385561967
 20
635.6246182898708
 10
325.6552606193973
 20
636.124585928504
 10
325.1346352204923
 20
636.3788999269206
 10
324.6049916330205
 20
636.3788999269206
 10
324.0843662341156
 20
636.124585928504
 10
323.5904882973161
 20
635.6246182898708
 10
323.1401762434182
 20
634.8960228093094
 10
322.7487649093277
 20
633.9636109320565
 10
322.4295833385811
 20
632.8591348262873
 10
322.1935008767539
 20
631.6202061011106
 10
322.0485570289338
 20
630.2890149883308
 10
321.9996876840176
 20
628.9108936047064
  0
ELLIPSE
  5
ED7
330
1E
100
AcDbEntity
  8
STEMPEL
100
AcDbEllipse
 10
319.4467230836163
 20
648.9108936047098
 30
0.0
 11
0.0
 21
-7.499999999999999
 31
0.0
210
0.0
220
0.0
230
1.0
 40
0.4999999999999926
 41
4.712388980384689
 42
6.167183451052224
  0
ELLIPSE
  5
ED8
330
1E
100
AcDbEntity
  8
STEMPEL
100
AcDbEllipse
 10
318.5786590639275
 20
673.9108936047082
 30
0.0
 11
0.0
 21
7.499999999999999
 31
0.0
210
0.0
220
0.0
230
-1.0
 40
0.4999999999999926
 41
4.712388980384689
 42
7.853981633974482
  0
ELLIPSE
  5
ED9
330
1E
100
AcDbEntity
  8
STEMPEL
100
AcDbEllipse
 10
319.4467230836163
 20
673.9108936047082
 30
0.0
 11
0.0
 21
7.499999999999999
 31
0.0
210
0.0
220
0.0
230
-1.0
 40
0.4999999999999926
 41
4.712388980384689
 42
6.167183451052224
  0
ARC
  5
EDA
330
1E
100
AcDbEntity
  8
STEMPEL
100
AcDbCircle
 10
333.9167571615759
 20
695.9307305871686
 30
0.0
 40
5.0
100
AcDbArc
 50
239.7435628364712
 51
239.9329541615156
  0
LINE
  5
EDB
330
1E
100
AcDbEntity
  8
STEMPEL
100
AcDbLine
 10
249.845128152321
 20
706.4108936047063
 30
0.0
 11
304.4056135572644
 21
706.4108936047069
 31
0.0
  0
ARC
  5
EDC
330
1E
100
AcDbEntity
  8
STEMPEL
100
AcDbCircle
 10
233.260560267863
 20
706.9108936047064
 30
0.0
 40
1.5
100
AcDbArc
 50
270.0
 51
345.5224878140768
  0
ARC
  5
EDD
330
1E
100
AcDbEntity
  8
STEMPEL
100
AcDbCircle
 10
235.197051940967
 20
706.4108936047063
 30
0.0
 40
1.5
100
AcDbArc
 50
90.0
 51
165.5224878140769
  0
ARC
  5
EDE
330
1E
100
AcDbEntity
  8
STEMPEL
100
AcDbCircle
 10
233.260560267863
 20
706.9108936047064
 30
0.0
 40
0.5
100
AcDbArc
 50
270.0
 51
345.5224878140768
  0
LINE
  5
EDF
330
1E
100
AcDbEntity
  8
STEMPEL
100
AcDbLine
 10
201.742051940967
 20
707.9108936047064
 30
0.0
 11
247.2470519409669
 21
707.9108936047064
 31
0.0
  0
LINE
  5
EE0
330
1E
100
AcDbEntity
  8
STEMPEL
100
AcDbLine
 10
211.9951281523199
 20
706.4108936047063
 30
0.0
 11
218.4489757296142
 21
706.4108936047063
 31
0.0
  0
LINE
  5
EE1
330
1E
100
AcDbEntity
  8
STEMPEL
100
AcDbLine
 10
211.9951281523199
 20
706.4108936047063
 30
0.0
 11
218.4489757296142
 21
706.4108936047063
 31
0.0
  0
ARC
  5
EE2
330
1E
100
AcDbEntity
  8
STEMPEL
100
AcDbCircle
 10
209.197051940967
 20
706.4108936047063
 30
0.0
 40
0.5
100
AcDbArc
 50
90.0
 51
149.9999999999994
  0
ARC
  5
EE3
330
1E
100
AcDbEntity
  8
STEMPEL
100
AcDbCircle
 10
209.197051940967
 20
706.4108936047063
 30
0.0
 40
1.5
100
AcDbArc
 50
90.0
 51
149.9999999999994
  0
LINE
  5
EE4
330
1E
100
AcDbEntity
  8
STEMPEL
100
AcDbLine
 10
204.5401281523209
 20
706.4108936047063
 30
0.0
 11
206.5989757296132
 21
706.4108936047063
 31
0.0
  0
LINE
  5
EE5
330
1E
100
AcDbEntity
  8
STEMPEL
100
AcDbLine
 10
204.5401281523209
 20
706.4108936047063
 30
0.0
 11
206.5989757296132
 21
706.4108936047063
 31
0.0
  0
ARC
  5
EE6
330
1E
100
AcDbEntity
  8
STEMPEL
100
AcDbCircle
 10
201.742051940967
 20
706.4108936047063
 30
0.0
 40
0.5
100
AcDbArc
 50
90.0
 51
149.9999999999994
  0
LINE
  5
EE7
330
1E
100
AcDbEntity
  8
STEMPEL
100
AcDbLine
 10
201.742051940967
 20
706.9108936047064
 30
0.0
 11
201.9420519409671
 21
706.9108936047064
 31
0.0
  0
ARC
  5
EE8
330
1E
100
AcDbEntity
  8
STEMPEL
100
AcDbCircle
 10
201.9420519409671
 20
706.4108936047063
 30
0.0
 40
0.5
100
AcDbArc
 50
30.00000000000055
 51
90.0
  0
ARC
  5
EE9
330
1E
100
AcDbEntity
  8
STEMPEL
100
AcDbCircle
 10
201.9420519409671
 20
706.4108936047063
 30
0.0
 40
1.5
100
AcDbArc
 50
29.99999999999165
 51
90.0
  0
ARC
  5
EEA
330
1E
100
AcDbEntity
  8
STEMPEL
100
AcDbCircle
 10
204.5401281523209
 20
707.9108936047064
 30
0.0
 40
2.5
100
AcDbArc
 50
209.9999999999917
 51
270.0
  0
ARC
  5
EEB
330
1E
100
AcDbEntity
  8
STEMPEL
100
AcDbCircle
 10
204.5401281523209
 20
707.9108936047064
 30
0.0
 40
1.5
100
AcDbArc
 50
210.0000000000005
 51
270.0
  0
ARC
  5
EEC
330
1E
100
AcDbEntity
  8
STEMPEL
100
AcDbCircle
 10
206.5989757296132
 20
707.9108936047064
 30
0.0
 40
1.5
100
AcDbArc
 50
270.0
 51
329.9999999999995
  0
ARC
  5
EED
330
1E
100
AcDbEntity
  8
STEMPEL
100
AcDbCircle
 10
206.5989757296132
 20
707.9108936047064
 30
0.0
 40
2.5
100
AcDbArc
 50
270.0
 51
329.9999999999995
  0
ARC
  5
EEE
330
1E
100
AcDbEntity
  8
STEMPEL
100
AcDbCircle
 10
211.9951281523199
 20
707.9108936047064
 30
0.0
 40
2.5
100
AcDbArc
 50
210.0000000000005
 51
270.0
  0
ARC
  5
EEF
330
1E
100
AcDbEntity
  8
STEMPEL
100
AcDbCircle
 10
211.9951281523199
 20
707.9108936047064
 30
0.0
 40
1.5
100
AcDbArc
 50
210.0000000000005
 51
270.0
  0
LINE
  5
EF0
330
1E
100
AcDbEntity
  8
STEMPEL
100
AcDbLine
 10
209.197051940967
 20
706.9108936047064
 30
0.0
 11
209.397051940967
 21
706.9108936047064
 31
0.0
  0
ARC
  5
EF1
330
1E
100
AcDbEntity
  8
STEMPEL
100
AcDbCircle
 10
209.397051940967
 20
706.4108936047063
 30
0.0
 40
0.5
100
AcDbArc
 50
30.00000000000055
 51
90.0
  0
ARC
  5
EF2
330
1E
100
AcDbEntity
  8
STEMPEL
100
AcDbCircle
 10
209.397051940967
 20
706.4108936047063
 30
0.0
 40
1.5
100
AcDbArc
 50
30.00000000000055
 51
90.0
  0
LINE
  5
EF3
330
1E
100
AcDbEntity
  8
STEMPEL
100
AcDbLine
 10
221.0470519409668
 20
706.9108936047064
 30
0.0
 11
231.1353194021604
 21
706.9108936047064
 31
0.0
  0
ARC
  5
EF4
330
1E
100
AcDbEntity
  8
STEMPEL
100
AcDbCircle
 10
221.0470519409668
 20
706.4108936047063
 30
0.0
 40
0.5
100
AcDbArc
 50
90.0
 51
149.9999999999994
  0
ARC
  5
EF5
330
1E
100
AcDbEntity
  8
STEMPEL
100
AcDbCircle
 10
218.4489757296142
 20
707.9108936047064
 30
0.0
 40
1.5
100
AcDbArc
 50
270.0
 51
329.9999999999995
  0
ARC
  5
EF6
330
1E
100
AcDbEntity
  8
STEMPEL
100
AcDbCircle
 10
218.4489757296142
 20
707.9108936047064
 30
0.0
 40
2.5
100
AcDbArc
 50
270.0
 51
329.9999999999995
  0
ARC
  5
EF7
330
1E
100
AcDbEntity
  8
STEMPEL
100
AcDbCircle
 10
221.0470519409668
 20
706.4108936047063
 30
0.0
 40
1.5
100
AcDbArc
 50
90.0
 51
149.9999999999994
  0
LINE
  5
EF8
330
1E
100
AcDbEntity
  8
STEMPEL
100
AcDbLine
 10
233.0718110752638
 20
706.4108936047063
 30
0.0
 11
233.260560267863
 21
706.4108936047063
 31
0.0
  0
ARC
  5
EF9
330
1E
100
AcDbEntity
  8
STEMPEL
100
AcDbCircle
 10
231.1353194021604
 20
706.4108936047063
 30
0.0
 40
0.5
100
AcDbArc
 50
14.47751218592945
 51
90.0
  0
ARC
  5
EFA
330
1E
100
AcDbEntity
  8
STEMPEL
100
AcDbCircle
 10
233.0718110752638
 20
706.9108936047064
 30
0.0
 40
1.5
100
AcDbArc
 50
194.4775121859295
 51
270.0
  0
ARC
  5
EFB
330
1E
100
AcDbEntity
  8
STEMPEL
100
AcDbCircle
 10
233.0718110752638
 20
706.9108936047064
 30
0.0
 40
0.5
100
AcDbArc
 50
194.4775121859295
 51
270.0
  0
ARC
  5
EFC
330
1E
100
AcDbEntity
  8
STEMPEL
100
AcDbCircle
 10
231.1353194021604
 20
706.4108936047063
 30
0.0
 40
1.5
100
AcDbArc
 50
14.47751218592945
 51
90.0
  0
LINE
  5
EFD
330
1E
100
AcDbEntity
  8
STEMPEL
100
AcDbLine
 10
237.9951281523205
 20
706.4108936047063
 30
0.0
 11
244.4489757296145
 21
706.4108936047063
 31
0.0
  0
LINE
  5
EFE
330
1E
100
AcDbEntity
  8
STEMPEL
100
AcDbLine
 10
237.9951281523205
 20
706.4108936047063
 30
0.0
 11
244.4489757296145
 21
706.4108936047063
 31
0.0
  0
ARC
  5
EFF
330
1E
100
AcDbEntity
  8
STEMPEL
100
AcDbCircle
 10
237.9951281523205
 20
707.9108936047064
 30
0.0
 40
1.5
100
AcDbArc
 50
210.0000000000005
 51
270.0
  0
ARC
  5
F00
330
1E
100
AcDbEntity
  8
STEMPEL
100
AcDbCircle
 10
237.9951281523205
 20
707.9108936047064
 30
0.0
 40
2.5
100
AcDbArc
 50
210.0000000000005
 51
270.0
  0
ARC
  5
F01
330
1E
100
AcDbEntity
  8
STEMPEL
100
AcDbCircle
 10
235.197051940967
 20
706.4108936047063
 30
0.0
 40
0.5
100
AcDbArc
 50
90.0
 51
165.5224878140769
  0
LINE
  5
F02
330
1E
100
AcDbEntity
  8
STEMPEL
100
AcDbLine
 10
235.197051940967
 20
706.9108936047064
 30
0.0
 11
235.397051940967
 21
706.9108936047064
 31
0.0
  0
ARC
  5
F03
330
1E
100
AcDbEntity
  8
STEMPEL
100
AcDbCircle
 10
235.397051940967
 20
706.4108936047063
 30
0.0
 40
1.5
100
AcDbArc
 50
30.00000000000055
 51
90.0
  0
ARC
  5
F04
330
1E
100
AcDbEntity
  8
STEMPEL
100
AcDbCircle
 10
235.397051940967
 20
706.4108936047063
 30
0.0
 40
0.5
100
AcDbArc
 50
30.00000000000055
 51
90.0
  0
ARC
  5
F05
330
1E
100
AcDbEntity
  8
STEMPEL
100
AcDbCircle
 10
247.0470519409669
 20
706.4108936047063
 30
0.0
 40
1.5
100
AcDbArc
 50
90.0
 51
149.9999999999938
  0
ARC
  5
F06
330
1E
100
AcDbEntity
  8
STEMPEL
100
AcDbCircle
 10
244.4489757296145
 20
707.9108936047064
 30
0.0
 40
2.5
100
AcDbArc
 50
270.0
 51
329.9999999999938
  0
ARC
  5
F07
330
1E
100
AcDbEntity
  8
STEMPEL
100
AcDbCircle
 10
244.4489757296145
 20
707.9108936047064
 30
0.0
 40
1.5
100
AcDbArc
 50
270.0
 51
329.9999999999938
  0
ARC
  5
F08
330
1E
100
AcDbEntity
  8
STEMPEL
100
AcDbCircle
 10
249.845128152321
 20
707.9108936047064
 30
0.0
 40
2.5
100
AcDbArc
 50
209.9999999999917
 51
270.0
  0
ARC
  5
F09
330
1E
100
AcDbEntity
  8
STEMPEL
100
AcDbCircle
 10
249.845128152321
 20
707.9108936047064
 30
0.0
 40
1.5
100
AcDbArc
 50
209.9999999999917
 51
270.0
  0
ARC
  5
F0A
330
1E
100
AcDbEntity
  8
STEMPEL
100
AcDbCircle
 10
247.0470519409669
 20
706.4108936047063
 30
0.0
 40
0.5
100
AcDbArc
 50
90.0
 51
149.9999999999938
  0
LINE
  5
F0B
330
1E
100
AcDbEntity
  8
STEMPEL
100
AcDbLine
 10
247.0470519409669
 20
706.9108936047064
 30
0.0
 11
247.2470519409669
 21
706.9108936047064
 31
0.0
  0
ARC
  5
F0C
330
1E
100
AcDbEntity
  8
STEMPEL
100
AcDbCircle
 10
247.2470519409669
 20
706.4108936047063
 30
0.0
 40
0.5
100
AcDbArc
 50
29.99999999999165
 51
90.0
  0
ARC
  5
F0D
330
1E
100
AcDbEntity
  8
STEMPEL
100
AcDbCircle
 10
247.2470519409669
 20
706.4108936047063
 30
0.0
 40
1.5
100
AcDbArc
 50
29.99999999999165
 51
90.0
  0
ARC
  5
F0E
330
1E
100
AcDbEntity
  8
STEMPEL
100
AcDbCircle
 10
304.4056135572644
 20
700.4108936047064
 30
0.0
 40
6.0
100
AcDbArc
 50
59.48712567237889
 51
90.0
  0
ARC
  5
F0F
330
1E
100
AcDbEntity
  8
STEMPEL
100
AcDbCircle
 10
304.4056135572644
 20
700.4108936047064
 30
0.0
 40
6.0
100
AcDbArc
 50
90.0
 51
90.0
  0
ARC
  5
F10
330
1E
100
AcDbEntity
  8
STEMPEL
100
AcDbCircle
 10
304.4056135572644
 20
700.4108936047064
 30
0.0
 40
5.0
100
AcDbArc
 50
59.46264995170093
 51
90.0
  0
ARC
  5
F11
330
1E
100
AcDbEntity
  8
STEMPEL
100
AcDbCircle
 10
333.7477563326909
 20
607.410893604707
 30
0.0
 40
5.0
100
AcDbArc
 50
270.0
 51
358.9999999999982
  0
ARC
  5
F12
330
1E
100
AcDbEntity
  8
STEMPEL
100
AcDbCircle
 10
359.0634707818376
 20
607.4108936047069
 30
0.0
 40
4.99999999999995
100
AcDbArc
 50
181.0000000000017
 51
270.0
  0
LINE
  5
F13
330
1E
100
AcDbEntity
  8
HILF
100
AcDbLine
 10
343.4056135572655
 20
609.660893604707
 30
0.0
 11
343.4056135572637
 21
596.4108936047064
 31
0.0
  0
LINE
  5
F14
330
1E
100
AcDbEntity
  8
STEMPEL
100
AcDbLine
 10
344.0556135572661
 20
609.0108936047061
 30
0.0
 11
344.0556135572645
 21
596.4108936047064
 31
0.0
  0
LINE
  5
F15
330
1E
100
AcDbEntity
  8
HILF
100
AcDbLine
 10
349.4056135572662
 20
609.6608936047077
 30
0.0
 11
349.4056135572653
 21
596.4108936047064
 31
0.0
  0
LINE
  5
F16
330
1E
100
AcDbEntity
  8
STEMPEL
100
AcDbLine
 10
348.7556135572655
 20
609.0108936047072
 30
0.0
 11
348.7556135572645
 21
596.4108936047064
 31
0.0
  0
LINE
  5
F17
330
1E
100
AcDbEntity
  8
MITTEL
100
AcDbLine
 10
346.4056135572641
 20
628.0786369391071
 30
0.0
 11
346.4056135572674
 21
596.4108936047064
 31
0.0
  0
LINE
  5
F18
330
1E
100
AcDbEntity
  8
STEMPEL
100
AcDbLine
 10
359.0634707818376
 20
602.4108936047069
 30
0.0
 11
381.405613557264
 21
602.4108936047069
 31
0.0
  0
LINE
  5
F19
330
1E
100
AcDbEntity
  8
STEMPEL
100
AcDbLine
 10
389.405613557264
 20
593.9108936047066
 30
0.0
 11
389.405613557264
 21
590.9108936047066
 31
0.0
  0
ARC
  5
F1A
102
{ACAD_REACTORS
330
DC0
102
}
330
1E
100
AcDbEntity
  8
STEMPEL
100
AcDbCircle
 10
383.0416525265848
 20
584.9108936047066
 30
0.0
 40
6.0
100
AcDbArc
 50
45.0
 51
90.0
  0
LINE
  5
F1B
102
{ACAD_REACTORS
330
DC0
102
}
330
1E
100
AcDbEntity
  8
STEMPEL
100
AcDbLine
 10
387.2842932137044
 20
584.9108936047066
 30
0.0
 11
385.1629728701444
 21
587.0322139482661
 31
0.0
  0
ARC
  5
F1C
102
{ACAD_REACTORS
330
DC0
102
}
330
1E
100
AcDbEntity
  8
STEMPEL
100
AcDbCircle
 10
383.0416525265848
 20
584.9108936047066
 30
0.0
 40
3.0
100
AcDbArc
 50
45.0
 51
90.0
  0
LINE
  5
F1D
102
{ACAD_REACTORS
330
DC0
102
}
330
1E
100
AcDbEntity
  8
STEMPEL
100
AcDbLine
 10
389.4056135572639
 20
587.0322139482661
 30
0.0
 11
387.2842932137044
 21
589.1535342918259
 31
0.0
  0
LINE
  5
F1E
102
{ACAD_REACTORS
330
DC0
102
}
330
1E
100
AcDbEntity
  8
STEMPEL
100
AcDbLine
 10
389.4056135572639
 20
587.0322139482661
 30
0.0
 11
387.2842932137044
 21
584.9108936047064
 31
0.0
  0
ARC
  5
F1F
330
1E
100
AcDbEntity
  8
STEMPEL
100
AcDbCircle
 10
381.405613557264
 20
599.4108936047066
 30
0.0
 40
3.0
100
AcDbArc
 50
270.0
 51
90.0
  0
LINE
  5
F20
330
1E
100
AcDbEntity
  8
STEMPEL
100
AcDbLine
 10
333.4056135572642
 20
686.4108356373913
 30
0.0
 11
333.4056135572642
 21
622.4108936047073
 31
0.0
  0
LINE
  5
F21
330
1E
100
AcDbEntity
  8
STEMPEL
100
AcDbLine
 10
334.4056135572643
 20
686.4108356373913
 30
0.0
 11
334.4056135572643
 21
622.4108936047073
 31
0.0
  0
LINE
  5
F22
330
1E
100
AcDbEntity
  8
STEMPEL
100
AcDbLine
 10
343.4056135572655
 20
609.660893604707
 30
0.0
 11
349.4056135572655
 21
609.660893604707
 31
0.0
  0
LINE
  5
F23
330
1E
100
AcDbEntity
  8
STEMPEL
100
AcDbLine
 10
344.0556135572651
 20
609.0108936047069
 30
0.0
 11
348.7556135572654
 21
609.0108936047069
 31
0.0
  0
ARC
  5
F24
330
1E
100
AcDbEntity
  8
STEMPEL
100
AcDbCircle
 10
346.4056135572639
 20
614.7975193455072
 30
0.0
 40
8.281117593600001
100
AcDbArc
 50
70.52782738138624
 51
109.4721726186137
  0
LINE
  5
F25
330
1E
100
AcDbEntity
  8
STEMPEL
100
AcDbLine
 10
342.265263967638
 20
623.0786369391071
 30
0.0
 11
350.5459631463808
 21
623.0786369391071
 31
0.0
  0
LINE
  5
F26
330
1E
100
AcDbEntity
  8
STEMPEL
100
AcDbLine
 10
340.4056135572639
 20
619.0108936047072
 30
0.0
 11
352.4056135572639
 21
619.010893604707
 31
0.0
  0
LINE
  5
F27
330
1E
100
AcDbEntity
  8
STEMPEL
100
AcDbLine
 10
352.4056135572641
 20
617.4108936047068
 30
0.0
 11
340.4056135572639
 21
617.4108936047073
 31
0.0
  0
LINE
  5
F28
330
1E
100
AcDbEntity
  8
STEMPEL
100
AcDbLine
 10
354.4056135572639
 20
617.4108936047068
 30
0.0
 11
339.405613557264
 21
617.4108936047073
 31
0.0
  0
LINE
  5
F29
330
1E
100
AcDbEntity
  8
STEMPEL
100
AcDbLine
 10
332.2318121464665
 20
628.9108936047064
 30
0.0
 11
332.2318121464665
 21
622.4108936047087
 31
0.0
  0
LINE
  5
F2A
330
1E
100
AcDbEntity
  8
STEMPEL
100
AcDbLine
 10
333.1959263162291
 20
628.9108936047064
 30
0.0
 11
333.1959263162291
 21
622.4108936047087
 31
0.0
  0
ARC
  5
F2B
330
1E
100
AcDbEntity
  8
STEMPEL
100
AcDbCircle
 10
339.4056135572642
 20
622.4108936047073
 30
0.0
 40
6.0
100
AcDbArc
 50
180.0
 51
270.0
  0
LINE
  5
F2C
330
1E
100
AcDbEntity
  8
STEMPEL
100
AcDbLine
 10
338.7469948084728
 20
607.3236315725207
 30
0.0
 11
338.9056135572641
 21
616.4108936047068
 31
0.0
  0
ARC
  5
F2D
330
1E
100
AcDbEntity
  8
STEMPEL
100
AcDbCircle
 10
339.4056135572642
 20
622.4108936047073
 30
0.0
 40
5.0
100
AcDbArc
 50
180.0
 51
270.0
  0
LWPOLYLINE
  5
F2E
330
1E
100
AcDbEntity
  8
STEMPEL
100
AcDbPolyline
 90
       10
 70
   128
 43
0.0
 10
-338.70191504726
 20
616.4108936047093
 10
-337.8438420509872
 20
616.477020819282
 10
-336.9910298513649
 20
616.7295745690121
 10
-336.1702715444479
 20
617.1606202853297
 10
-335.4073531780489
 20
617.7566156557695
 10
-334.7262436225498
 20
618.4988360874902
 10
-334.148341532604
 20
619.3639629842878
 10
-333.6918030581978
 20
620.3248163550037
 10
-333.3709714266003
 20
621.351208736716
 10
-333.1959263162291
 20
622.4108936047087
210
0.0
220
0.0
230
-1.0
  0
LINE
  5
F2F
330
1E
100
AcDbEntity
  8
STEMPEL
100
AcDbLine
 10
335.8163854998998
 20
617.4108936047082
 30
0.0
 11
334.8522713301371
 21
617.4108936047082
 31
0.0
  0
LWPOLYLINE
  5
F30
330
1E
100
AcDbEntity
  8
STEMPEL
100
AcDbPolyline
 90
        7
 70
   128
 43
0.0
 10
-334.8522713301373
 20
617.4108936047087
 10
-334.17556945506
 20
618.0204943325677
 10
-333.576020031426
 20
618.7480534164792
 10
-333.0697313582764
 20
619.5740232781595
 10
-332.6703060662307
 20
620.4762123033626
 10
-332.3884756509678
 20
621.4303810715562
 10
-332.2318121464664
 20
622.4108936047087
210
0.0
220
0.0
230
-1.0
  0
LINE
  5
F31
330
1E
100
AcDbEntity
  8
STEMPEL
100
AcDbLine
 10
343.4056135572634
 20
617.4108936047071
 30
0.0
 11
343.4056135572655
 21
609.6608936047064
 31
0.0
  0
LINE
  5
F32
330
1E
100
AcDbEntity
  8
HILF
100
AcDbLine
 10
344.0556135572656
 20
617.4108936047071
 30
0.0
 11
344.0556135572661
 21
609.0108936047061
 31
0.0
  0
LINE
  5
F33
330
1E
100
AcDbEntity
  8
STEMPEL
100
AcDbLine
 10
343.4056135572655
 20
609.660893604707
 30
0.0
 11
344.0556135572651
 21
609.0108936047069
 31
0.0
  0
LINE
  5
F34
330
1E
100
AcDbEntity
  8
STEMPEL
100
AcDbLine
 10
340.8846090479654
 20
622.628646393904
 30
0.0
 11
341.0913671797507
 21
622.7480182569474
 31
0.0
  0
ARC
  5
F35
330
1E
100
AcDbEntity
  8
STEMPEL
100
AcDbCircle
 10
342.2648601752899
 20
620.830738618828
 30
0.0
 40
2.247898356545996
100
AcDbArc
 50
52.11936428281847
 51
121.4691945163676
  0
LINE
  5
F36
330
1E
100
AcDbEntity
  8
STEMPEL
100
AcDbLine
 10
342.4056135572641
 20
617.4108936047073
 30
0.0
 11
342.4056135572641
 21
616.4108936047068
 31
0.0
  0
LINE
  5
F37
330
1E
100
AcDbEntity
  8
STEMPEL
100
AcDbLine
 10
340.4056135572639
 20
619.0108936047072
 30
0.0
 11
340.4056135572639
 21
617.4108936047071
 31
0.0
  0
LINE
  5
F38
330
1E
100
AcDbEntity
  8
STEMPEL
100
AcDbLine
 10
343.6451113026146
 20
622.6049860217797
 30
0.0
 11
343.6451113026146
 21
619.0108936047072
 31
0.0
  0
LINE
  5
F39
330
1E
100
AcDbEntity
  8
STEMPEL
100
AcDbLine
 10
340.8846090479654
 20
622.628646393904
 30
0.0
 11
340.8846090479654
 21
619.0108936047072
 31
0.0
  0
LWPOLYLINE
  5
F3A
330
1E
100
AcDbEntity
  8
STEMPEL
100
AcDbPolyline
 90
        7
 70
   128
 43
0.0
 10
332.713869231348
 20
635.372947660546
 10
332.5760402217777
 20
634.6208414236075
 10
332.4571759448115
 20
633.6981278128928
 10
332.3608279429103
 20
632.6323765629886
 10
332.2898749953722
 20
631.4554312261675
 10
332.2464371033642
 20
630.2024577197656
 10
332.2318121464666
 20
628.9108936047064
  0
LINE
  5
F3B
330
1E
100
AcDbEntity
  8
STEMPEL
100
AcDbLine
 10
334.4056135572641
 20
641.410893604708
 30
0.0
 11
333.4056135572641
 21
641.410893604708
 31
0.0
  0
LINE
  5
F3C
330
1E
100
AcDbEntity
  8
STEMPEL
100
AcDbLine
 10
349.4056135572644
 20
617.4108936047071
 30
0.0
 11
349.4056135572662
 21
609.660893604707
 31
0.0
  0
LINE
  5
F3D
330
1E
100
AcDbEntity
  8
HILF
100
AcDbLine
 10
348.755613557265
 20
617.4108936047068
 30
0.0
 11
348.7556135572654
 21
609.0108936047061
 31
0.0
  0
LINE
  5
F3E
330
1E
100
AcDbEntity
  8
STEMPEL
100
AcDbLine
 10
353.9056135572641
 20
616.4108936047071
 30
0.0
 11
354.0642323060556
 21
607.3236315725205
 31
0.0
  0
LINE
  5
F3F
330
1E
100
AcDbEntity
  8
STEMPEL
100
AcDbLine
 10
348.7556135572654
 20
609.0108936047069
 30
0.0
 11
349.4056135572655
 21
609.660893604707
 31
0.0
  0
LINE
  5
F40
330
1E
100
AcDbEntity
  8
STEMPEL
100
AcDbLine
 10
349.4056135572639
 20
616.4108936047068
 30
0.0
 11
354.4056135572642
 21
616.4108936047068
 31
0.0
  0
LINE
  5
F41
330
1E
100
AcDbEntity
  8
STEMPEL
100
AcDbLine
 10
350.5424077138787
 20
623.0786369391071
 30
0.0
 11
350.5459631468748
 21
623.0786369391071
 31
0.0
  0
ARC
  5
F42
330
1E
100
AcDbEntity
  8
STEMPEL
100
AcDbCircle
 10
350.5463669392379
 20
620.830738618828
 30
0.0
 40
2.247898356545996
100
AcDbArc
 50
58.53080548383119
 51
127.8806357171815
  0
LINE
  5
F43
330
1E
100
AcDbEntity
  8
STEMPEL
100
AcDbLine
 10
351.9266180665627
 20
622.628646393904
 30
0.0
 11
351.7198599347703
 21
622.7480182569514
 31
0.0
  0
LINE
  5
F44
330
1E
100
AcDbEntity
  8
STEMPEL
100
AcDbLine
 10
352.4056135572639
 20
619.010893604707
 30
0.0
 11
352.4056135572639
 21
617.4108936047071
 31
0.0
  0
LINE
  5
F45
330
1E
100
AcDbEntity
  8
STEMPEL
100
AcDbLine
 10
350.4056135572641
 20
617.4108936047068
 30
0.0
 11
350.4056135572641
 21
616.4108936047068
 31
0.0
  0
LINE
  5
F46
330
1E
100
AcDbEntity
  8
STEMPEL
100
AcDbLine
 10
351.9266180665627
 20
622.6286463939039
 30
0.0
 11
351.9266180665627
 21
619.0108936047072
 31
0.0
  0
LINE
  5
F47
330
1E
100
AcDbEntity
  8
STEMPEL
100
AcDbLine
 10
349.1661158119134
 20
622.6049860217797
 30
0.0
 11
349.1661158119132
 21
619.0108936047072
 31
0.0
  0
LINE
  5
F48
330
1E
100
AcDbEntity
  8
STEMPEL
100
AcDbLine
 10
354.405613557264
 20
617.4108936047071
 30
0.0
 11
354.4056135572641
 21
616.4108936047068
 31
0.0
  0
LINE
  5
F49
330
1E
100
AcDbEntity
  8
STEMPEL
100
AcDbLine
 10
334.4056135572641
 20
681.4108936047079
 30
0.0
 11
333.4056135572641
 21
681.4108936047079
 31
0.0
  0
LINE
  5
F4A
330
1E
100
AcDbEntity
  8
TEXT
 62
     2
100
AcDbLine
 10
363.1938301573181
 20
528.3514629633925
 30
0.0
 11
470.3919602245491
 21
528.3514629633925
 31
0.0
  0
TEXT
  5
F4B
330
1E
100
AcDbEntity
  8
TEXT
 62
     1
100
AcDbText
 10
365.5502259754228
 20
517.7999901503972
 30
0.0
 40
7.0
  1
EDV-Art.Nr. 21810.150X
 41
0.8
100
AcDbText
  0
TEXT
  5
F4C
330
1E
100
AcDbEntity
  8
TEXT
 62
     1
100
AcDbText
 10
365.1942669725861
 20
531.3380034554456
 30
0.0
 40
7.0
  1
Kompressionsdichtung
 41
0.8
100
AcDbText
  0
TEXT
  5
F4D
330
1E
100
AcDbEntity
  8
TEXT
 62
     1
100
AcDbText
 10
364.2464385971801
 20
494.7445398896338
 30
0.0
 40
7.0
  1
EDV-Art.Nr. 21981.125X
 41
0.8
  7
GREEKS
100
AcDbText
  0
LINE
  5
F4E
330
1E
100
AcDbEntity
  8
TEXT
 62
     2
100
AcDbLine
 10
469.470202100173
 20
504.1795437644195
 30
0.0
 11
363.3463074924951
 21
504.1795437644193
 31
0.0
  0
LINE
  5
F4F
330
1E
100
AcDbEntity
  8
TEXT
 62
     2
100
AcDbLine
 10
363.3463074924951
 20
504.1795437644193
 30
0.0
 11
289.6034825246471
 21
526.8970381943593
 31
0.0
  0
TEXT
  5
F50
330
1E
100
AcDbEntity
  8
TEXT
 62
     1
100
AcDbText
 10
364.4269938913323
 20
507.792312036613
 30
0.0
 40
7.0
  1
Ablaufkörper DN125
 41
0.8
  7
GREEKS
100
AcDbText
  0
LINE
  5
F51
330
1E
100
AcDbEntity
  8
TEXT
 62
     2
100
AcDbLine
 10
363.1938301573181
 20
528.3514629633925
 30
0.0
 11
345.0449117587049
 21
592.4621114606882
 31
0.0
  0
LINE
  5
F52
330
1E
100
AcDbEntity
  8
TEXT
 62
     2
100
AcDbLine
 10
369.3691177767178
 20
566.2586612965752
 30
0.0
 11
352.7340526034603
 21
599.116144716331
 31
0.0
  0
TEXT
  5
F53
330
1E
100
AcDbEntity
  8
TEXT
 62
     1
100
AcDbText
 10
369.9644736554719
 20
569.7424954574855
 30
0.0
 40
7.0
  1
Losflansch DN125
 41
0.8
100
AcDbText
  0
LINE
  5
F54
330
1E
100
AcDbEntity
  8
TEXT
 62
     2
100
AcDbLine
 10
475.3076823518508
 20
566.2586612965752
 30
0.0
 11
369.3691177767178
 21
566.2586612965752
 31
0.0
  0
TEXT
  5
F55
330
1E
100
AcDbEntity
  8
TEXT
 62
     1
100
AcDbText
 10
369.9644736554719
 20
556.966164488776
 30
0.0
 40
7.0
  1
EDV-Art.Nr. 21905.125X
 41
0.8
100
AcDbText
  0
DIMENSION
  5
F9F
330
1E
100
AcDbEntity
  8
BEM
100
AcDbDimension
  2
*D7
 10
35.55728744791372
 20
590.9108936047066
 30
0.0
 11
29.05728744791363
 21
514.6883213007867
 31
0.0
 70
    32
  1
min.35 - max.200
 71
     5
 42
152.4451446078399
  3
Standard
100
AcDbAlignedDimension
 13
59.40561355726436
 23
438.4657489968667
 33
0.0
 14
59.40561355726401
 24
590.9108936047066
 34
0.0
 50
90.0
100
AcDbRotatedDimension
1001
ACAD
1000
DSTYLE
1002
{
1070
    40
1040
2.0
1070
    41
1040
3.5
1070
    42
1040
1.0
1070
    43
1040
7.0
1070
    44
1040
1.0
1070
    73
1070
     0
1070
    74
1070
     0
1070
    77
1070
     1
1070
    78
1070
     8
1070
    79
1070
     2
1070
   140
1040
3.5
1070
   141
1040
1.5
1070
   146
1040
0.5142857142857144
1070
   147
1040
1.5
1070
   172
1070
     1
1070
   178
1070
     1
1070
   179
1070
     2
1070
   271
1070
     2
1070
   272
1070
     2
1070
   284
1070
     8
1070
   285
1070
     8
1070
   286
1070
     8
1002
}
  0
LINE
  5
FCA
102
{ACAD_REACTORS
330
FF2
102
}
330
1E
100
AcDbEntity
  8
STEMPEL
100
AcDbLine
 10
155.1129197000304
 20
414.9045870972773
 30
0.0
 11
157.9056135572642
 21
414.9045870972773
 31
0.0
  0
LINE
  5
FCB
102
{ACAD_REACTORS
330
FF2
102
}
330
1E
100
AcDbEntity
  8
STEMPEL
100
AcDbLine
 10
152.3230285629064
 20
418.2279268065264
 30
0.0
 11
153.7056135572642
 21
422.4657489968663
 31
0.0
  0
ARC
  5
FCC
102
{ACAD_REACTORS
330
FF2
102
}
330
1E
100
AcDbEntity
  8
STEMPEL
100
AcDbCircle
 10
177.5673602601006
 20
421.3008539716363
 30
0.0
 40
23.34767934493167
100
AcDbArc
 50
177.1401315752674
 51
195.899884876699
  0
LINE
  5
FCD
102
{ACAD_REACTORS
330
FF2
102
}
330
1E
100
AcDbEntity
  8
STEMPEL
100
AcDbLine
 10
153.7056135572642
 20
422.4657489968663
 30
0.0
 11
154.248759307772
 21
422.4657489968663
 31
0.0
  0
LINE
  5
FCE
102
{ACAD_REACTORS
330
FF2
102
}
330
1E
100
AcDbEntity
  8
STEMPEL
100
AcDbLine
 10
151.105613557264
 20
418.2279268065263
 30
0.0
 11
152.3230285629064
 21
418.2279268065264
 31
0.0
  0
LINE
  5
FCF
102
{ACAD_REACTORS
330
FF2
102
}
330
1E
100
AcDbEntity
  8
STEMPEL
100
AcDbLine
 10
149.9056135572642
 20
442.4657489968664
 30
0.0
 11
154.5539245977824
 21
442.4657489968663
 31
0.0
  0
LINE
  5
FD0
102
{ACAD_REACTORS
330
FF2
102
}
330
1E
100
AcDbEntity
  8
STEMPEL
100
AcDbLine
 10
149.9056135572642
 20
442.4657489968663
 30
0.0
 11
151.2251811570137
 21
447.3904423231534
 31
0.0
  0
LINE
  5
FD1
330
1E
100
AcDbEntity
  8
STEMPEL
100
AcDbLine
 10
153.9297734706232
 20
449.4657489968663
 30
0.0
 11
157.9056135572641
 21
449.4657489968663
 31
0.0
  0
ARC
  5
FD2
102
{ACAD_REACTORS
330
FF2
102
}
330
1E
100
AcDbEntity
  8
STEMPEL
100
AcDbCircle
 10
153.8814536439053
 20
446.6657489968662
 30
0.0
 40
2.799999999999999
100
AcDbArc
 50
15.00000000000065
 51
89.99999999999991
  0
LINE
  5
FD3
102
{ACAD_REACTORS
330
FF2
102
}
330
1E
100
AcDbEntity
  8
STEMPEL
100
AcDbLine
 10
157.9056135572642
 20
442.4657489968663
 30
0.0
 11
156.5860459575145
 21
447.3904423231534
 31
0.0
  0
ARC
  5
FD4
102
{ACAD_REACTORS
330
FF2
102
}
330
1E
100
AcDbEntity
  8
STEMPEL
100
AcDbCircle
 10
153.9297734706232
 20
446.6657489968662
 30
0.0
 40
2.799999999999999
100
AcDbArc
 50
89.99999999999991
 51
164.9999999999991
  0
HATCH
  5
FF2
330
1E
100
AcDbEntity
  8
SCHRAFF
100
AcDbHatch
 10
0.0
 20
0.0
 30
0.0
210
0.0
220
0.0
230
1.0
  2
NET
 70
     0
 71
     1
 91
        2
 92
        7
 72
     1
 73
     1
 93
       14
 10
295.0822315942903
 20
440.6966828811416
 42
0.0
 10
294.257302516746
 20
442.4657489968662
 42
0.0
 10
298.9056135572642
 20
442.4657489968663
 42
0.0
 10
297.5860459575147
 20
447.3904423231533
 42
0.3370502855478876
 10
294.9056135572642
 20
449.4656447625307
 42
0.3370502855478764
 10
292.2251811570138
 20
447.3904423231533
 42
0.0
 10
290.9056135572641
 20
442.4657489968663
 42
0.0
 10
290.9056135572641
 20
414.9045870972772
 42
0.0
 10
293.698307414498
 20
414.9045870972772
 42
0.0820381719611792
 10
294.5624678067563
 20
422.4657489968662
 42
0.0
 10
295.1056135572641
 20
422.4657489968661
 42
0.0
 10
296.4881985516219
 20
418.2279268065263
 42
0.0
 10
297.7056135572643
 20
418.2279268065262
 42
0.0
 10
297.7056135572643
 20
428.8633715524019
 42
0.1095178116832429
 97
       14
330
A61
330
A62
330
A5E
330
A5C
330
A63
330
A60
330
E5A
330
AF9
330
A6F
330
A6E
330
A70
330
A6D
330
A73
330
A79
 92
        7
 72
     1
 73
     1
 93
       14
 10
151.1056135572639
 20
428.8633715524018
 42
0.0
 10
151.1056135572639
 20
418.2279268065263
 42
0.0
 10
152.3230285629064
 20
418.2279268065263
 42
0.0
 10
153.7056135572642
 20
422.4657489968662
 42
0.0
 10
154.248759307772
 20
422.4657489968663
 42
0.0820381719611794
 10
155.1129197000304
 20
414.9045870972773
 42
0.0
 10
157.905613557264
 20
414.9045870972773
 42
0.0
 10
157.905613557264
 20
442.4657489968671
 42
0.0
 10
156.5860459575145
 20
447.3904423231534
 42
0.3370502855477669
 10
153.9056135572653
 20
449.4656447625309
 42
0.3370502855479998
 10
151.2251811570137
 20
447.3904423231534
 42
0.0
 10
149.9056135572643
 20
442.4657489968663
 42
0.0
 10
154.5539245977823
 20
442.4657489968664
 42
0.0
 10
153.7289955202379
 20
440.6966828811416
 42
0.1095178116832434
 97
       14
330
FD3
330
FD2
330
FD4
330
FD0
330
FCF
330
AA3
330
ABA
330
AB5
330
FCE
330
FCB
330
FCD
330
FCC
330
FCA
330
DD5
 75
     0
 76
     1
 52
45.0
 41
15.0
 77
     0
 78
     2
 53
45.0
 43
-599.8590096112255
 44
0.0
 45
-1.325825214724776
 46
1.325825214724776
 79
     0
 53
135.0
 43
-599.8590096112255
 44
0.0
 45
-1.325825214724776
 46
-1.325825214724776
 79
     0
 47
0.2131217372246109
 98
        2
 10
294.2534796581388
 20
434.4703003876572
 10
153.971792634368
 20
433.4046926159378
  0
LINE
  5
FF3
330
1E
100
AcDbEntity
  8
STEMPEL
100
AcDbLine
 10
290.9056135572641
 20
449.965748996867
 30
0.0
 11
381.4056135572644
 21
449.965748996867
 31
0.0
  0
LINE
  5
1006
330
1E
100
AcDbEntity
  8
MITTEL
100
AcDbLine
 10
224.4056135572641
 20
468.7873550217611
 30
0.0
 11
224.4056135572639
 21
153.4657489968666
 31
0.0
  0
POLYLINE
  5
1115
330
1E
100
AcDbEntity
  8
STEMPEL
100
AcDb2dPolyline
 66
     1
 10
0.0
 20
0.0
 30
0.0
  0
VERTEX
  5
1116
330
1115
100
AcDbEntity
  8
STEMPEL
100
AcDbVertex
100
AcDb2dVertex
 10
300.9056135572641
 20
275.4657489968654
 30
0.0
  0
VERTEX
  5
1117
330
1115
100
AcDbEntity
  8
STEMPEL
100
AcDbVertex
100
AcDb2dVertex
 10
300.900157765903
 20
268.5986579541094
 30
0.0
  0
VERTEX
  5
1118
330
1115
100
AcDbEntity
  8
STEMPEL
100
AcDbVertex
100
AcDb2dVertex
 10
300.9676094404663
 20
263.3449118408877
 30
0.0
  0
VERTEX
  5
1119
330
1115
100
AcDbEntity
  8
STEMPEL
100
AcDbVertex
100
AcDb2dVertex
 10
301.165033127078
 20
259.266132441
 30
0.0
  0
VERTEX
  5
111A
330
1115
100
AcDbEntity
  8
STEMPEL
100
AcDbVertex
100
AcDb2dVertex
 10
301.5400163159307
 20
255.835020857638
 30
0.0
  0
VERTEX
  5
111B
330
1115
100
AcDbEntity
  8
STEMPEL
100
AcDbVertex
100
AcDb2dVertex
 10
302.1651921730946
 20
252.4151647635837
 30
0.0
  0
VERTEX
  5
111C
330
1115
100
AcDbEntity
  8
STEMPEL
100
AcDbVertex
100
AcDb2dVertex
 10
303.1532741874678
 20
248.3806338881745
 30
0.0
  0
VERTEX
  5
111D
330
1115
100
AcDbEntity
  8
STEMPEL
100
AcDbVertex
100
AcDb2dVertex
 10
304.6072590420266
 20
243.219152269949
 30
0.0
  0
VERTEX
  5
111E
330
1115
100
AcDbEntity
  8
STEMPEL
100
AcDbVertex
100
AcDb2dVertex
 10
306.5966463639944
 20
236.4961377883356
 30
0.0
  0
SEQEND
  5
111F
330
1115
100
AcDbEntity
  8
STEMPEL
  0
LINE
  5
1120
330
1E
100
AcDbEntity
  8
TEXT
 62
     2
100
AcDbLine
 10
418.3668341578127
 20
271.8823333234225
 30
0.0
 11
301.0146149143823
 21
242.9701372688666
 31
0.0
  0
LINE
  5
1121
330
1E
100
AcDbEntity
  8
MITTEL
100
AcDbLine
 10
309.4733455247204
 20
237.3473733248817
 30
0.0
 11
296.0487494413329
 21
233.3749408209998
 31
0.0
  0
POLYLINE
  5
1122
330
1E
100
AcDbEntity
  8
STEMPEL
100
AcDb2dPolyline
 66
     1
 10
0.0
 20
0.0
 30
0.0
 70
     4
 75
     6
  0
VERTEX
  5
1123
330
1122
100
AcDbEntity
  8
STEMPEL
100
AcDbVertex
100
AcDb2dVertex
 10
290.9056222351058
 20
275.4721048638316
 30
0.0
 70
    16
  0
VERTEX
  5
1124
330
1122
100
AcDbEntity
  8
STEMPEL
100
AcDbVertex
100
AcDb2dVertex
 10
290.9056222351058
 20
275.4721048638316
 30
0.0
 70
     8
  0
VERTEX
  5
1125
330
1122
100
AcDbEntity
  8
STEMPEL
100
AcDbVertex
100
AcDb2dVertex
 10
291.5602773387414
 20
268.550482773497
 30
0.0
 70
     8
  0
VERTEX
  5
1126
330
1122
100
AcDbEntity
  8
STEMPEL
100
AcDbVertex
100
AcDb2dVertex
 10
292.1263458168253
 20
263.1000995688281
 30
0.0
 70
     8
  0
VERTEX
  5
1127
330
1122
100
AcDbEntity
  8
STEMPEL
100
AcDbVertex
100
AcDb2dVertex
 10
292.6978100095954
 20
258.6376045251419
 30
0.0
 70
     8
  0
VERTEX
  5
1128
330
1122
100
AcDbEntity
  8
STEMPEL
100
AcDbVertex
100
AcDb2dVertex
 10
293.3686522572894
 20
254.6796469177555
 30
0.0
 70
     8
  0
VERTEX
  5
1129
330
1122
100
AcDbEntity
  8
STEMPEL
100
AcDbVertex
100
AcDb2dVertex
 10
294.2328549001449
 20
250.7428760219857
 30
0.0
 70
     8
  0
VERTEX
  5
112A
330
1122
100
AcDbEntity
  8
STEMPEL
100
AcDbVertex
100
AcDb2dVertex
 10
295.3844002783999
 20
246.3439411131495
 30
0.0
 70
     8
  0
VERTEX
  5
112B
330
1122
100
AcDbEntity
  8
STEMPEL
100
AcDbVertex
100
AcDb2dVertex
 10
296.9172707322917
 20
240.9994914665639
 30
0.0
 70
     8
  0
VERTEX
  5
112C
330
1122
100
AcDbEntity
  8
STEMPEL
100
AcDbVertex
100
AcDb2dVertex
 10
298.9254486020585
 20
234.2261763575459
 30
0.0
 70
     8
  0
VERTEX
  5
112D
330
1122
100
AcDbEntity
  8
STEMPEL
100
AcDbVertex
100
AcDb2dVertex
 10
292.8530245368584
 20
254.623149020111
 30
0.0
 70
    16
  0
VERTEX
  5
112E
330
1122
100
AcDbEntity
  8
STEMPEL
100
AcDbVertex
100
AcDb2dVertex
 10
298.9254486020586
 20
234.226176357546
 30
0.0
 70
    16
  0
SEQEND
  5
112F
330
1122
100
AcDbEntity
  8
STEMPEL
  0
TEXT
  5
1130
330
1E
100
AcDbEntity
  8
TEXT
 62
     1
100
AcDbText
 10
420.1659261522791
 20
261.0647781387677
 30
0.0
 40
7.0
  1
EDV-Art.Nr. 19853.000X
 41
0.65
  7
GREEKS
100
AcDbText
  0
TEXT
  5
1131
330
1E
100
AcDbEntity
  8
TEXT
 62
     1
100
AcDbText
 10
420.1659261522791
 20
276.0274839331342
 30
0.0
 40
7.0
  1
Heizbandkabel
 41
0.8
  7
GREEKS
100
AcDbText
  0
LINE
  5
1132
330
1E
100
AcDbEntity
  8
TEXT
 62
     2
100
AcDbLine
 10
418.3668341578127
 20
271.8823333234225
 30
0.0
 11
501.0055326322633
 21
271.8823333234225
 31
0.0
  0
DIMENSION
  5
1133
330
1E
100
AcDbEntity
  8
BEM
100
AcDbDimension
  2
*D8
 10
319.4056135572641
 20
253.8452922901578
 30
0.0
 11
224.4056135572641
 21
260.3452922901578
 31
0.0
 70
    32
  1
%%c<>
 71
     5
 42
190.0
  3
Standard
100
AcDbAlignedDimension
 13
129.4056135572641
 23
275.4657489968658
 33
0.0
 14
319.4056135572641
 24
275.4657489968658
 34
0.0
100
AcDbRotatedDimension
1001
ACAD
1000
DSTYLE
1002
{
1070
    40
1040
2.0
1070
    41
1040
3.5
1070
    42
1040
1.0
1070
    43
1040
7.0
1070
    44
1040
1.0
1070
    73
1070
     0
1070
    74
1070
     0
1070
    77
1070
     1
1070
    78
1070
     8
1070
    79
1070
     2
1070
   140
1040
3.5
1070
   141
1040
1.5
1070
   146
1040
0.5142857142857144
1070
   147
1040
1.5
1070
   172
1070
     1
1070
   178
1070
     1
1070
   179
1070
     2
1070
   271
1070
     2
1070
   272
1070
     2
1070
   284
1070
     8
1070
   285
1070
     8
1070
   286
1070
     8
1002
}
  0
HATCH
  5
1134
330
1E
100
AcDbEntity
  8
SCHRAFF
100
AcDbHatch
 10
0.0
 20
0.0
 30
0.0
210
0.0
220
0.0
230
1.0
  2
HONEY
 70
     0
 71
     0
 91
        2
 92
        7
 72
     1
 73
     1
 93
       10
 10
334.4056135572641
 20
435.4657489968666
 42
0.0
 10
319.4056135572651
 20
435.4657489968666
 42
0.0
 10
313.4056135572641
 20
430.465748996866
 42
0.0
 10
313.405613557264
 20
410.4657489968658
 42
0.0
 10
301.905613557264
 20
365.4657489968653
 42
0.0
 10
301.9056135572639
 20
295.4657489968653
 42
0.0
 10
300.9056135572641
 20
294.2657489968656
 42
0.0
 10
300.9056135572641
 20
275.4657489968653
 42
0.0
 10
316.6737088047663
 20
275.4657489968652
 42
0.3870924378343681
 10
319.6606114829442
 20
278.1857268707868
 42
0.0
 97
        0
 92
        7
 72
     1
 73
     1
 93
       10
 10
135.4056135572641
 20
410.465748996866
 42
0.0
 10
135.4056135572641
 20
430.465748996866
 42
0.0
 10
129.4056135572632
 20
435.4657489968666
 42
0.0
 10
114.4056135572641
 20
435.4657489968667
 42
0.0
 10
129.150615631584
 20
278.1857268707868
 42
0.3870924378342833
 10
132.1375183097619
 20
275.4657489968661
 42
0.0
 10
157.9056135572642
 20
275.465748996866
 42
0.0
 10
157.9056135572641
 20
282.2657489968656
 42
0.0
 10
146.9056135572639
 20
295.4657489968661
 42
0.0
 10
146.905613557264
 20
365.465748996866
 42
0.0
 97
        0
 75
     0
 76
     1
 52
0.0
 41
35.0
 77
     0
 78
     3
 53
0.0
 43
-9.852375690729104
 44
-14.54019693385857
 45
6.5625
 46
3.788861124999999
 79
     2
 49
4.375
 49
-8.75
 53
120.0
 43
-9.852375690729104
 44
-14.54019693385857
 45
-6.562499985661285
 46
3.788861149835379
 79
     2
 49
4.374999999999996
 49
-8.749999999999992
 53
60.0
 43
-9.852375690729104
 44
-14.54019693385857
 45
0.000000014338714
 46
7.577722274835378
 79
     2
 49
-8.75
 49
4.375
 47
0.2517006619164946
 98
        2
 10
316.1795066103739
 20
367.3787756391785
 10
138.4233620722973
 20
385.2495230191747
  0
LINE
  5
1135
330
1E
100
AcDbEntity
  8
STEMPEL
100
AcDbLine
 10
300.9056135572641
 20
362.6323627646213
 30
0.0
 11
300.9056135572641
 21
275.4657489968654
 31
0.0
  0
ARC
  5
1136
330
1E
100
AcDbEntity
  8
STEMPEL
100
AcDbCircle
 10
294.0874904657453
 20
371.2222976806472
 30
0.0
 40
9.0
100
AcDbArc
 50
331.4960981673648
 51
345.6645645804794
  0
ARC
  5
1137
330
1E
100
AcDbEntity
  8
STEMPEL
100
AcDbCircle
 10
309.9056135572642
 20
362.6323627646213
 30
0.0
 40
9.0
100
AcDbArc
 50
151.4960981673648
 51
180.0
  0
LINE
  5
1138
330
1E
100
AcDbEntity
  8
STEMPEL
  6
Continuous
100
AcDbLine
 10
300.9056135572641
 20
295.4657489968651
 30
0.0
 11
301.9056135572639
 21
295.4657489968651
 31
0.0
  0
LINE
  5
1139
330
1E
100
AcDbEntity
  8
STEMPEL
  6
Continuous
100
AcDbLine
 10
300.9056135572641
 20
275.465748996865
 30
0.0
 11
316.6737088047663
 21
275.465748996865
 31
0.0
  0
LINE
  5
113A
330
1E
100
AcDbEntity
  8
TEXT
 62
     2
100
AcDbLine
 10
315.6029211990419
 20
301.457255872223
 30
0.0
 11
420.4720173303384
 21
334.7085728880828
 31
0.0
  0
TEXT
  5
113B
330
1E
100
AcDbEntity
  8
TEXT
 62
     1
100
AcDbText
 10
421.2022717943554
 20
338.3213411602765
 30
0.0
 40
7.0
  1
Wärmedämmung DN125
 41
0.8
  7
GREEKS
100
AcDbText
  0
TEXT
  5
113C
330
1E
100
AcDbEntity
  8
TEXT
 62
     1
100
AcDbText
 10
421.2022717943553
 20
325.2735690132973
 30
0.0
 40
7.0
  1
EDV-Art.Nr. 19842.125X
 41
0.8
  7
GREEKS
100
AcDbText
  0
LINE
  5
113D
330
1E
100
AcDbEntity
  8
TEXT
 62
     2
100
AcDbLine
 10
523.3756882597012
 20
334.7085728880829
 30
0.0
 11
420.4720173303384
 21
334.7085728880827
 31
0.0
  0
LINE
  5
113E
330
1E
100
AcDbEntity
  8
STEMPEL
  6
Continuous
100
AcDbLine
 10
334.4056135572641
 20
435.4657489968658
 30
0.0
 11
319.6606114829442
 21
278.1857268707866
 31
0.0
  0
ARC
  5
113F
330
1E
100
AcDbEntity
  8
STEMPEL
  6
Continuous
100
AcDbCircle
 10
316.6737088047664
 20
278.4657489968658
 30
0.0
 40
3.0
100
AcDbArc
 50
270.0
 51
354.6441749571445
  0
LINE
  5
1140
330
1E
100
AcDbEntity
  8
STEMPEL
100
AcDbLine
 10
313.4056135572641
 20
410.4657489968658
 30
0.0
 11
301.9056135572641
 21
365.4657489968652
 31
0.0
  0
LINE
  5
1141
330
1E
100
AcDbEntity
  8
STEMPEL
100
AcDbLine
 10
301.905613557264
 20
365.4657489968653
 30
0.0
 11
301.9056135572639
 21
295.4657489968651
 31
0.0
  0
LINE
  5
1142
330
1E
100
AcDbEntity
  8
STEMPEL
100
AcDbLine
 10
300.9056135572641
 20
294.2657489968653
 30
0.0
 11
301.9056135572639
 21
295.4657489968651
 31
0.0
  0
LINE
  5
1143
330
1E
100
AcDbEntity
  8
STEMPEL
100
AcDbLine
 10
301.905613557264
 20
365.4657489968653
 30
0.0
 11
301.3632530837808
 21
365.4657489968653
 31
0.0
  0
DIMENSION
  5
1144
330
1E
100
AcDbEntity
  8
BEM
100
AcDbDimension
  2
*D9
 10
334.405613557264
 20
472.0742936534488
 30
0.0
 11
224.4056135572641
 21
478.5742936534489
 31
0.0
 70
    32
  1
%%c<>
 71
     5
 42
219.9999999999999
  3
Standard
100
AcDbAlignedDimension
 13
114.4056135572641
 23
435.4657489968658
 33
0.0
 14
334.405613557264
 24
435.4657489968658
 34
0.0
100
AcDbRotatedDimension
1001
ACAD
1000
DSTYLE
1002
{
1070
    40
1040
2.0
1070
    41
1040
3.5
1070
    42
1040
1.0
1070
    43
1040
7.0
1070
    44
1040
1.0
1070
    73
1070
     0
1070
    74
1070
     0
1070
    77
1070
     1
1070
    78
1070
     8
1070
    79
1070
     2
1070
   140
1040
3.5
1070
   141
1040
1.5
1070
   146
1040
0.5142857142857144
1070
   147
1040
1.5
1070
   172
1070
     1
1070
   178
1070
     1
1070
   179
1070
     2
1070
   271
1070
     2
1070
   272
1070
     2
1070
   284
1070
     8
1070
   285
1070
     8
1070
   286
1070
     8
1002
}
  0
LINE
  5
1145
330
1E
100
AcDbEntity
  8
STEMPEL
100
AcDbLine
 10
309.3996927045584
 20
430.4657489968655
 30
0.0
 11
313.4056135572641
 21
430.4657489968655
 31
0.0
  0
LINE
  5
1146
330
1E
100
AcDbEntity
  8
STEMPEL
100
AcDbLine
 10
319.4056135572641
 20
435.4657489968658
 30
0.0
 11
313.4056135572641
 21
430.4657489968658
 31
0.0
  0
LINE
  5
1147
330
1E
100
AcDbEntity
  8
STEMPEL
100
AcDbLine
 10
313.4056135572641
 20
430.4657489968655
 30
0.0
 11
313.4056135572641
 21
410.4657489968658
 31
0.0
  0
LINE
  5
1148
330
1E
100
AcDbEntity
  8
STEMPEL
100
AcDbLine
 10
299.7056135572643
 20
410.4657489968658
 30
0.0
 11
313.405613557264
 21
410.4657489968658
 31
0.0
  0
LINE
  5
1149
330
1E
100
AcDbEntity
  8
STEMPEL
100
AcDbLine
 10
304.8056135572642
 20
384.7188481614872
 30
0.0
 11
304.8056135572642
 21
376.8135750838226
 31
0.0
  0
LINE
  5
114A
330
1E
100
AcDbEntity
  8
STEMPEL
  6
Continuous
100
AcDbLine
 10
300.2056135572641
 20
389.4657489968663
 30
0.0
 11
300.2056135572641
 21
383.4657489968663
 31
0.0
  0
LINE
  5
114B
330
1E
100
AcDbEntity
  8
STEMPEL
  6
Continuous
100
AcDbLine
 10
299.2056135572641
 20
389.4657489968663
 30
0.0
 11
299.2056135572641
 21
383.4657489968663
 31
0.0
  0
ARC
  5
114C
330
1E
100
AcDbEntity
  8
STEMPEL
100
AcDbCircle
 10
297.977526863108
 20
384.5867158690023
 30
0.0
 40
6.829365039711341
100
AcDbArc
 50
358.8913910658287
 51
82.70138442210619
  0
LINE
  5
114D
330
1E
100
AcDbEntity
  8
STEMPEL
100
AcDbLine
 10
297.2056135572641
 20
390.4657489968665
 30
0.0
 11
298.2056135572641
 21
390.4657489968664
 31
0.0
  0
ARC
  5
114E
330
1E
100
AcDbEntity
  8
STEMPEL
100
AcDbCircle
 10
297.2056135572641
 20
389.4657489968665
 30
0.0
 40
1.0
100
AcDbArc
 50
90.0
 51
180.0
  0
LINE
  5
114F
330
1E
100
AcDbEntity
  8
STEMPEL
100
AcDbLine
 10
298.2056135572641
 20
391.4657489968663
 30
0.0
 11
297.2056135572641
 21
391.4657489968665
 31
0.0
  0
ARC
  5
1150
330
1E
100
AcDbEntity
  8
STEMPEL
100
AcDbCircle
 10
297.2056135572641
 20
389.4657489968665
 30
0.0
 40
2.0
100
AcDbArc
 50
90.0
 51
180.0
  0
LINE
  5
1151
330
1E
100
AcDbEntity
  8
STEMPEL
100
AcDbLine
 10
297.2056135572641
 20
382.4657489968664
 30
0.0
 11
298.2056135572641
 21
382.4657489968664
 31
0.0
  0
LINE
  5
1152
330
1E
100
AcDbEntity
  8
STEMPEL
100
AcDbLine
 10
297.2056135572641
 20
381.4657489968663
 30
0.0
 11
298.2056135572641
 21
381.4657489968663
 31
0.0
  0
ARC
  5
1153
330
1E
100
AcDbEntity
  8
STEMPEL
100
AcDbCircle
 10
297.2056135572641
 20
383.4657489968663
 30
0.0
 40
1.0
100
AcDbArc
 50
180.0
 51
270.0
  0
ARC
  5
1154
330
1E
100
AcDbEntity
  8
STEMPEL
100
AcDbCircle
 10
297.2056135572641
 20
383.4657489968663
 30
0.0
 40
2.0
100
AcDbArc
 50
180.0
 51
270.0
  0
LINE
  5
1155
330
1E
100
AcDbEntity
  8
STEMPEL
  6
Continuous
100
AcDbLine
 10
296.2056135572641
 20
389.4657489968665
 30
0.0
 11
296.2056135572641
 21
383.4657489968663
 31
0.0
  0
HATCH
  5
1156
330
1E
100
AcDbEntity
  8
SCHRAFF
100
AcDbHatch
 10
0.0
 20
0.0
 30
0.0
210
0.0
220
0.0
230
1.0
  2
_USER
 70
     0
 71
     0
 91
        1
 92
        7
 72
     1
 73
     1
 93
        8
 10
299.2056135572641
 20
389.4657489968663
 42
0.4142135623730951
 10
298.2056135572641
 20
390.4657489968664
 42
0.0
 10
297.2056135572641
 20
390.4657489968665
 42
0.4142135623730951
 10
296.2056135572641
 20
389.4657489968665
 42
0.0
 10
296.2056135572641
 20
383.4657489968663
 42
0.4142135623730951
 10
297.2056135572641
 20
382.4657489968664
 42
0.0
 10
298.2056135572641
 20
382.4657489968664
 42
0.4142135623730951
 10
299.2056135572641
 20
383.4657489968663
 42
0.0
 97
        0
 75
     0
 76
     0
 52
135.0
 41
1.0
 77
     0
 78
     1
 53
135.0
 43
37.27569480542229
 44
7.058635026530225
 45
-0.7071067811865476
 46
-0.7071067811865475
 79
     0
 47
0.1071053300341939
 98
        1
 10
297.7707635690565
 20
386.241824430443
  0
ARC
  5
1157
330
1E
100
AcDbEntity
  8
STEMPEL
100
AcDbCircle
 10
298.2056135572641
 20
383.4657489968663
 30
0.0
 40
1.0
100
AcDbArc
 50
270.0
 51
0.0
  0
ARC
  5
1158
330
1E
100
AcDbEntity
  8
STEMPEL
100
AcDbCircle
 10
298.2056135572641
 20
383.4657489968663
 30
0.0
 40
2.0
100
AcDbArc
 50
270.0
 51
0.0
  0
ARC
  5
1159
330
1E
100
AcDbEntity
  8
STEMPEL
100
AcDbCircle
 10
298.2056135572641
 20
389.4657489968663
 30
0.0
 40
1.0
100
AcDbArc
 50
0.0
 51
90.0
  0
ARC
  5
115A
330
1E
100
AcDbEntity
  8
STEMPEL
100
AcDbCircle
 10
298.2056135572641
 20
389.4657489968663
 30
0.0
 40
2.0
100
AcDbArc
 50
0.0
 51
90.0
  0
HATCH
  5
115B
330
1E
100
AcDbEntity
  8
SCHRAFF
100
AcDbHatch
 10
0.0
 20
0.0
 30
0.0
210
0.0
220
0.0
230
1.0
  2
NET
 70
     0
 71
     0
 91
        2
 92
        7
 72
     1
 73
     1
 93
        8
 10
300.2056135572641
 20
389.4657489968663
 42
0.4142135623730618
 10
298.2056135572643
 20
391.4657489968663
 42
0.0
 10
297.2056135572641
 20
391.4657489968665
 42
0.4142135623730951
 10
295.2056135572641
 20
389.4657489968665
 42
0.0
 10
295.2056135572641
 20
383.4657489968663
 42
0.4142135623730951
 10
297.2056135572641
 20
381.4657489968663
 42
0.0
 10
298.2056135572641
 20
381.4657489968663
 42
0.4142135623730951
 10
300.2056135572641
 20
383.4657489968663
 42
0.0
 97
        0
 92
       22
 72
     1
 73
     1
 93
        8
 10
299.2056135572641
 20
383.4657489968663
 42
-0.4142135623730951
 10
298.2056135572641
 20
382.4657489968664
 42
0.0
 10
297.2056135572641
 20
382.4657489968664
 42
-0.4142135623730951
 10
296.2056135572641
 20
383.4657489968663
 42
0.0
 10
296.2056135572641
 20
389.4657489968665
 42
-0.4142135623731284
 10
297.2056135572642
 20
390.4657489968665
 42
0.0
 10
298.2056135572641
 20
390.4657489968664
 42
-0.4142135623730951
 10
299.2056135572641
 20
389.4657489968663
 42
0.0
 97
        0
 75
     0
 76
     1
 52
45.0
 41
10.0
 77
     0
 78
     2
 53
45.0
 43
4.929841403745058
 44
38.36159946131164
 45
-0.8838834764831842
 46
0.8838834764831844
 79
     0
 53
135.0
 43
4.929841403745058
 44
38.36159946131164
 45
-0.8838834764831844
 46
-0.8838834764831842
 79
     0
 47
0.2432155912222071
 98
        2
 10
299.9180439644172
 20
383.7849243895107
 10
299.9180439644172
 20
383.7849243895107
  0
LINE
  5
115C
330
1E
100
AcDbEntity
  8
STEMPEL
100
AcDbLine
 10
146.9056135572641
 20
365.4657489968657
 30
0.0
 11
146.9056135572639
 21
295.4657489968658
 31
0.0
  0
LINE
  5
115D
330
1E
100
AcDbEntity
  8
STEMPEL
  6
Continuous
100
AcDbLine
 10
146.9056135572639
 20
295.4657489968658
 30
0.0
 11
157.9056135572644
 21
295.4657489968658
 31
0.0
  0
LINE
  5
115E
330
1E
100
AcDbEntity
  8
STEMPEL
100
AcDbLine
 10
157.9056135572644
 20
282.2657489968653
 30
0.0
 11
146.9056135572639
 21
295.4657489968658
 31
0.0
  0
LINE
  5
115F
330
1E
100
AcDbEntity
  8
STEMPEL
100
AcDbLine
 10
153.6056135572642
 20
365.4657489968655
 30
0.0
 11
146.9056135572641
 21
365.4657489968656
 31
0.0
  0
LINE
  5
1160
330
1E
100
AcDbEntity
  8
STEMPEL
100
AcDbLine
 10
135.4056135572641
 20
410.4657489968658
 30
0.0
 11
146.9056135572641
 21
365.4657489968657
 31
0.0
  0
LINE
  5
1161
330
1E
100
AcDbEntity
  8
STEMPEL
100
AcDbLine
 10
135.4056135572641
 20
430.4657489968655
 30
0.0
 11
135.4056135572641
 21
410.4657489968658
 31
0.0
  0
LINE
  5
1162
330
1E
100
AcDbEntity
  8
STEMPEL
100
AcDbLine
 10
135.4056135572641
 20
410.4657489968658
 30
0.0
 11
149.1056135572639
 21
410.4657489968658
 31
0.0
  0
LINE
  5
1163
330
1E
100
AcDbEntity
  8
STEMPEL
100
AcDbLine
 10
135.4056135572641
 20
430.4657489968655
 30
0.0
 11
139.4115344099698
 21
430.4657489968655
 31
0.0
  0
LINE
  5
1164
330
1E
100
AcDbEntity
  8
STEMPEL
100
AcDbLine
 10
129.4056135572641
 20
435.4657489968658
 30
0.0
 11
135.4056135572641
 21
430.4657489968658
 31
0.0
  0
LINE
  5
1165
330
1E
100
AcDbEntity
  8
STEMPEL
  6
Continuous
100
AcDbLine
 10
114.4056135572641
 20
435.4657489968658
 30
0.0
 11
129.1506156315841
 21
278.1857268707866
 31
0.0
  0
LINE
  5
1166
330
1E
100
AcDbEntity
  8
STEMPEL
  6
Continuous
100
AcDbLine
 10
132.1375183097619
 20
275.4657489968659
 30
0.0
 11
157.9056135572644
 21
275.4657489968658
 31
0.0
  0
DIMENSION
  5
1167
330
1E
100
AcDbEntity
  8
BEM
100
AcDbDimension
  2
*D10
 10
53.14618999634834
 20
435.4657489968666
 30
0.0
 11
46.64618999634826
 21
355.4657489968662
 31
0.0
 70
    32
 71
     5
 42
160.0000000000008
  3
Standard
100
AcDbAlignedDimension
 13
132.1375183097619
 23
275.4657489968658
 33
0.0
 14
65.7695745879436
 24
435.4657489968666
 34
0.0
 50
90.0
100
AcDbRotatedDimension
1001
ACAD
1000
DSTYLE
1002
{
1070
    40
1040
2.0
1070
    41
1040
3.5
1070
    42
1040
1.0
1070
    43
1040
7.0
1070
    44
1040
1.0
1070
    73
1070
     0
1070
    74
1070
     0
1070
    77
1070
     1
1070
    78
1070
     8
1070
    79
1070
     2
1070
   140
1040
3.5
1070
   141
1040
1.5
1070
   146
1040
0.5142857142857144
1070
   147
1040
1.5
1070
   172
1070
     1
1070
   178
1070
     1
1070
   179
1070
     2
1070
   271
1070
     2
1070
   272
1070
     2
1070
   284
1070
     8
1070
   285
1070
     8
1070
   286
1070
     8
1002
}
  0
ARC
  5
1168
330
1E
100
AcDbEntity
  8
STEMPEL
  6
Continuous
100
AcDbCircle
 10
132.1375183097619
 20
278.4657489968658
 30
0.0
 40
3.0
100
AcDbArc
 50
185.3558250428554
 51
270.0
  0
TEXT
  5
11D7
330
1E
100
AcDbEntity
  8
TEXT
100
AcDbText
 10
532.359880569578
 20
655.1296391125315
 30
0.0
 40
5.0
  1
und Heizung zweiteilig
 50
90.0
 41
0.8
  7
GREEKS
100
AcDbText
  0
ENDSEC
  0
SECTION
  2
OBJECTS
  0
DICTIONARY
  5
C
330
0
100
AcDbDictionary
281
     1
  3
ACAD_COLOR
350
11A
  3
ACAD_GROUP
350
D
  3
ACAD_LAYOUT
350
19
  3
ACAD_MATERIAL
350
119
  3
ACAD_MLINESTYLE
350
16
  3
ACAD_PLOTSETTINGS
350
18
  3
ACAD_PLOTSTYLENAME
350
E
  3
AcDbVariableDictionary
350
125
  0
DICTIONARY
  5
DB
330
1E
100
AcDbDictionary
280
     1
281
     1
  3
ACAD_LAYOUTSELFREF
360
10F
  0
DICTIONARY
  5
DD
330
1A
100
AcDbDictionary
280
     1
281
     1
  3
ACAD_LAYOUTSELFREF
360
10E
  0
DICTIONARY
  5
11A
102
{ACAD_REACTORS
330
C
102
}
330
C
100
AcDbDictionary
281
     1
  0
DICTIONARY
  5
D
102
{ACAD_REACTORS
330
C
102
}
330
C
100
AcDbDictionary
281
     1
  0
DICTIONARY
  5
19
102
{ACAD_REACTORS
330
C
102
}
330
C
100
AcDbDictionary
281
     1
  3
Layout1
350
1D
  3
Model
350
21
  0
DICTIONARY
  5
119
102
{ACAD_REACTORS
330
C
102
}
330
C
100
AcDbDictionary
281
     1
  0
DICTIONARY
  5
16
102
{ACAD_REACTORS
330
C
102
}
330
C
100
AcDbDictionary
281
     1
  3
Standard
350
17
  0
DICTIONARY
  5
18
102
{ACAD_REACTORS
330
C
102
}
330
C
100
AcDbDictionary
281
     1
  0
ACDBDICTIONARYWDFLT
  5
E
102
{ACAD_REACTORS
330
C
102
}
330
C
100
AcDbDictionary
281
     1
  3
Normal
350
F
100
AcDbDictionaryWithDefault
340
F
  0
DICTIONARY
  5
125
102
{ACAD_REACTORS
330
C
102
}
330
C
100
AcDbDictionary
281
     1
  3
DIMASSOC
350
126
  3
PROJECTNAME
350
127
  0
XRECORD
  5
10F
102
{ACAD_REACTORS
330
DB
102
}
330
DB
100
AcDbXrecord
280
     1
340
1E
  0
XRECORD
  5
10E
102
{ACAD_REACTORS
330
DD
102
}
330
DD
100
AcDbXrecord
280
     1
340
1A
  0
LAYOUT
  5
1D
102
{ACAD_REACTORS
330
19
102
}
330
19
100
AcDbPlotSettings
  1

  2
\\NT_WORK01\HP LaserJet 5000 PCL 6
  4

  6

 40
0.0
 41
0.0
 42
0.0
 43
0.0
 44
0.0
 45
0.0
 46
0.0
 47
0.0
 48
0.0
 49
0.0
140
0.0
141
0.0
142
1.0
143
1.0
 70
   688
 72
     0
 73
     0
 74
     5
  7

 75
    16
147
1.0
 76
     0
 77
     2
 78
   300
148
0.0
149
0.0
100
AcDbLayout
  1
Layout1
 70
     0
 71
     1
 10
0.0
 20
0.0
 11
12.0
 21
9.0
 12
0.0
 22
0.0
 32
0.0
 14
1.000000000000000E+20
 24
1.000000000000000E+20
 34
1.000000000000000E+20
 15
-1.000000000000000E+20
 25
-1.000000000000000E+20
 35
-1.000000000000000E+20
146
0.0
 13
0.0
 23
0.0
 33
0.0
 16
1.0
 26
0.0
 36
0.0
 17
0.0
 27
1.0
 37
0.0
 76
     0
330
1A
  0
LAYOUT
  5
21
102
{ACAD_REACTORS
330
19
102
}
330
19
100
AcDbPlotSettings
  1

  2
\\NT_WORK01\HP LaserJet 5000 PCL 6
  4

  6

 40
0.0
 41
0.0
 42
0.0
 43
0.0
 44
0.0
 45
0.0
 46
0.0
 47
0.0
 48
0.0
 49
0.0
140
0.0
141
0.0
142
1.0
143
1.0
 70
  1712
 72
     0
 73
     0
 74
     0
  7

 75
     0
147
1.0
 76
     0
 77
     2
 78
   300
148
0.0
149
0.0
100
AcDbLayout
  1
Model
 70
     1
 71
     0
 10
0.0
 20
0.0
 11
12.0
 21
9.0
 12
0.0
 22
0.0
 32
0.0
 14
0.0
 24
0.0
 34
0.0
 15
0.0
 25
0.0
 35
0.0
146
0.0
 13
0.0
 23
0.0
 33
0.0
 16
1.0
 26
0.0
 36
0.0
 17
0.0
 27
1.0
 37
0.0
 76
     0
330
1E
  0
MLINESTYLE
  5
17
102
{ACAD_REACTORS
330
16
102
}
330
16
100
AcDbMlineStyle
  2
STANDARD
 70
     0
  3

 62
   256
 51
90.0
 52
90.0
 71
     2
 49
0.5
 62
   256
  6
BYLAYER
 49
-0.5
 62
   256
  6
BYLAYER
  0
ACDBPLACEHOLDER
  5
F
102
{ACAD_REACTORS
330
E
102
}
330
E
  0
DICTIONARYVAR
  5
126
102
{ACAD_REACTORS
330
125
102
}
330
125
100
DictionaryVariables
280
     0
  1
1
  0
DICTIONARYVAR
  5
127
102
{ACAD_REACTORS
330
125
102
}
330
125
100
DictionaryVariables
280
     0
  1

  0
ENDSEC
  0
EOF
