  0
SECTION
  2
HEADER
  9
$ACADVER
  1
AC1018
  9
$ACADMAINTVER
 70
     2
  9
$DWGCODEPAGE
  3
ANSI_1252
  9
$INSBASE
 10
0.0
 20
0.0
 30
0.0
  9
$EXTMIN
 10
0.0
 20
-0.0000000000000568
 30
0.0
  9
$EXTMAX
 10
594.0000000000003
 20
840.0
 30
0.0
  9
$LIMMIN
 10
0.0
 20
0.0
  9
$LIMMAX
 10
594.0
 20
840.0
  9
$ORTHOMODE
 70
     1
  9
$REGENMODE
 70
     1
  9
$FILLMODE
 70
     1
  9
$QTEXTMODE
 70
     0
  9
$MIRRTEXT
 70
     1
  9
$LTSCALE
 40
20.0
  9
$ATTMODE
 70
     1
  9
$TEXTSIZE
 40
3.5
  9
$TRACEWID
 40
1.0
  9
$TEXTSTYLE
  7
STANDARD
  9
$CLAYER
  8
SCHRAFF
  9
$CELTYPE
  6
ByLayer
  9
$CECOLOR
 62
   256
  9
$CELTSCALE
 40
1.0
  9
$DISPSILH
 70
     0
  9
$DIMSCALE
 40
2.0
  9
$DIMASZ
 40
3.5
  9
$DIMEXO
 40
1.0
  9
$DIMDLI
 40
7.0
  9
$DIMRND
 40
0.0
  9
$DIMDLE
 40
0.0
  9
$DIMEXE
 40
1.0
  9
$DIMTP
 40
0.0
  9
$DIMTM
 40
0.0
  9
$DIMTXT
 40
3.5
  9
$DIMCEN
 40
1.5
  9
$DIMTSZ
 40
0.0
  9
$DIMTOL
 70
     0
  9
$DIMLIM
 70
     0
  9
$DIMTIH
 70
     0
  9
$DIMTOH
 70
     0
  9
$DIMSE1
 70
     0
  9
$DIMSE2
 70
     0
  9
$DIMTAD
 70
     1
  9
$DIMZIN
 70
     8
  9
$DIMBLK
  1

  9
$DIMASO
 70
     1
  9
$DIMSHO
 70
     0
  9
$DIMPOST
  1

  9
$DIMAPOST
  1

  9
$DIMALT
 70
     0
  9
$DIMALTD
 70
     2
  9
$DIMALTF
 40
25.4
  9
$DIMLFAC
 40
1.0
  9
$DIMTOFL
 70
     1
  9
$DIMTVP
 40
0.0
  9
$DIMTIX
 70
     0
  9
$DIMSOXD
 70
     0
  9
$DIMSAH
 70
     0
  9
$DIMBLK1
  1

  9
$DIMBLK2
  1

  9
$DIMSTYLE
  2
Standard
  9
$DIMCLRD
 70
     0
  9
$DIMCLRE
 70
     0
  9
$DIMCLRT
 70
     1
  9
$DIMTFAC
 40
0.5142857142857144
  9
$DIMGAP
 40
1.5
  9
$DIMJUST
 70
     0
  9
$DIMSD1
 70
     0
  9
$DIMSD2
 70
     0
  9
$DIMTOLJ
 70
     1
  9
$DIMTZIN
 70
     8
  9
$DIMALTZ
 70
     8
  9
$DIMALTTZ
 70
     8
  9
$DIMUPT
 70
     0
  9
$DIMDEC
 70
     2
  9
$DIMTDEC
 70
     2
  9
$DIMALTU
 70
     2
  9
$DIMALTTD
 70
     2
  9
$DIMTXSTY
  7
STANDARD
  9
$DIMAUNIT
 70
     0
  9
$DIMADEC
 70
     2
  9
$DIMALTRND
 40
0.0
  9
$DIMAZIN
 70
     2
  9
$DIMDSEP
 70
    46
  9
$DIMATFIT
 70
     3
  9
$DIMFRAC
 70
     0
  9
$DIMLDRBLK
  1

  9
$DIMLUNIT
 70
     2
  9
$DIMLWD
 70
    -2
  9
$DIMLWE
 70
    -2
  9
$DIMTMOVE
 70
     0
  9
$LUNITS
 70
     2
  9
$LUPREC
 70
     2
  9
$SKETCHINC
 40
1.0
  9
$FILLETRAD
 40
0.0
  9
$AUNITS
 70
     0
  9
$AUPREC
 70
     0
  9
$MENU
  1
ACAD
  9
$ELEVATION
 40
0.0
  9
$PELEVATION
 40
0.0
  9
$THICKNESS
 40
0.0
  9
$LIMCHECK
 70
     0
  9
$CHAMFERA
 40
0.0
  9
$CHAMFERB
 40
0.0
  9
$CHAMFERC
 40
0.0
  9
$CHAMFERD
 40
0.0
  9
$SKPOLY
 70
     0
  9
$TDCREATE
 40
2455397.825393172
  9
$TDUCREATE
 40
2455397.783726505
  9
$TDUPDATE
 40
2455593.606332906
  9
$TDUUPDATE
 40
2455593.564666239
  9
$TDINDWG
 40
0.0855326505
  9
$TDUSRTIMER
 40
0.0855326505
  9
$USRTIMER
 70
     1
  9
$ANGBASE
 50
0.0
  9
$ANGDIR
 70
     0
  9
$PDMODE
 70
     0
  9
$PDSIZE
 40
0.0
  9
$PLINEWID
 40
0.0
  9
$SPLFRAME
 70
     0
  9
$SPLINETYPE
 70
     6
  9
$SPLINESEGS
 70
     8
  9
$HANDSEED
  5
4DF5
  9
$SURFTAB1
 70
     6
  9
$SURFTAB2
 70
     6
  9
$SURFTYPE
 70
     6
  9
$SURFU
 70
     6
  9
$SURFV
 70
     6
  9
$UCSBASE
  2

  9
$UCSNAME
  2

  9
$UCSORG
 10
0.0
 20
0.0
 30
0.0
  9
$UCSXDIR
 10
1.0
 20
0.0
 30
0.0
  9
$UCSYDIR
 10
0.0
 20
1.0
 30
0.0
  9
$UCSORTHOREF
  2

  9
$UCSORTHOVIEW
 70
     0
  9
$UCSORGTOP
 10
0.0
 20
0.0
 30
0.0
  9
$UCSORGBOTTOM
 10
0.0
 20
0.0
 30
0.0
  9
$UCSORGLEFT
 10
0.0
 20
0.0
 30
0.0
  9
$UCSORGRIGHT
 10
0.0
 20
0.0
 30
0.0
  9
$UCSORGFRONT
 10
0.0
 20
0.0
 30
0.0
  9
$UCSORGBACK
 10
0.0
 20
0.0
 30
0.0
  9
$PUCSBASE
  2

  9
$PUCSNAME
  2

  9
$PUCSORG
 10
0.0
 20
0.0
 30
0.0
  9
$PUCSXDIR
 10
1.0
 20
0.0
 30
0.0
  9
$PUCSYDIR
 10
0.0
 20
1.0
 30
0.0
  9
$PUCSORTHOREF
  2

  9
$PUCSORTHOVIEW
 70
     0
  9
$PUCSORGTOP
 10
0.0
 20
0.0
 30
0.0
  9
$PUCSORGBOTTOM
 10
0.0
 20
0.0
 30
0.0
  9
$PUCSORGLEFT
 10
0.0
 20
0.0
 30
0.0
  9
$PUCSORGRIGHT
 10
0.0
 20
0.0
 30
0.0
  9
$PUCSORGFRONT
 10
0.0
 20
0.0
 30
0.0
  9
$PUCSORGBACK
 10
0.0
 20
0.0
 30
0.0
  9
$USERI1
 70
     0
  9
$USERI2
 70
     0
  9
$USERI3
 70
     0
  9
$USERI4
 70
     0
  9
$USERI5
 70
     0
  9
$USERR1
 40
0.0
  9
$USERR2
 40
0.0
  9
$USERR3
 40
0.0
  9
$USERR4
 40
0.0
  9
$USERR5
 40
0.0
  9
$WORLDVIEW
 70
     1
  9
$SHADEDGE
 70
     3
  9
$SHADEDIF
 70
    70
  9
$TILEMODE
 70
     1
  9
$MAXACTVP
 70
    16
  9
$PINSBASE
 10
0.0
 20
0.0
 30
0.0
  9
$PLIMCHECK
 70
     0
  9
$PEXTMIN
 10
1.000000000000000E+20
 20
1.000000000000000E+20
 30
1.000000000000000E+20
  9
$PEXTMAX
 10
-1.000000000000000E+20
 20
-1.000000000000000E+20
 30
-1.000000000000000E+20
  9
$PLIMMIN
 10
0.0
 20
0.0
  9
$PLIMMAX
 10
12.0
 20
9.0
  9
$UNITMODE
 70
     0
  9
$VISRETAIN
 70
     0
  9
$PLINEGEN
 70
     0
  9
$PSLTSCALE
 70
     0
  9
$TREEDEPTH
 70
  3020
  9
$CMLSTYLE
  2
Standard
  9
$CMLJUST
 70
     0
  9
$CMLSCALE
 40
1.0
  9
$PROXYGRAPHICS
 70
     1
  9
$MEASUREMENT
 70
     0
  9
$CELWEIGHT
370
    -1
  9
$ENDCAPS
280
     0
  9
$JOINSTYLE
280
     0
  9
$LWDISPLAY
290
     0
  9
$INSUNITS
 70
     0
  9
$HYPERLINKBASE
  1

  9
$STYLESHEET
  1

  9
$XEDIT
290
     1
  9
$CEPSNTYPE
380
     0
  9
$PSTYLEMODE
290
     1
  9
$FINGERPRINTGUID
  2
{D68B0D0D-A558-11D7-B632-000102183313}
  9
$VERSIONGUID
  2
{0682485E-1D29-47B9-9366-D71835796249}
  9
$EXTNAMES
290
     1
  9
$PSVPSCALE
 40
0.0
  9
$OLESTARTUP
290
     0
  9
$SORTENTS
280
   127
  9
$INDEXCTL
280
     0
  9
$HIDETEXT
280
     0
  9
$XCLIPFRAME
290
     0
  9
$HALOGAP
280
     0
  9
$OBSCOLOR
 70
   257
  9
$OBSLTYPE
280
     0
  9
$INTERSECTIONDISPLAY
280
     0
  9
$INTERSECTIONCOLOR
 70
   257
  9
$DIMASSOC
280
     1
  9
$PROJECTNAME
  1

  0
ENDSEC
  0
SECTION
  2
CLASSES
  0
CLASS
  1
ACDBDICTIONARYWDFLT
  2
AcDbDictionaryWithDefault
  3
ObjectDBX Classes
 90
        0
 91
        1
280
     0
281
     0
  0
CLASS
  1
DICTIONARYVAR
  2
AcDbDictionaryVar
  3
ObjectDBX Classes
 90
        0
 91
        2
280
     0
281
     0
  0
ENDSEC
  0
SECTION
  2
TABLES
  0
TABLE
  2
VPORT
  5
8
330
0
100
AcDbSymbolTable
 70
     2
  0
VPORT
  5
4DF4
330
8
100
AcDbSymbolTableRecord
100
AcDbViewportTableRecord
  2
*Active
 70
     0
 10
0.0
 20
0.0
 11
1.0
 21
1.0
 12
296.9999999999999
 22
420.0
 13
0.0
 23
0.0
 14
1.0
 24
1.0
 15
10.0
 25
10.0
 16
0.0
 26
0.0
 36
1.0
 17
0.0
 27
0.0
 37
0.0
 40
840.5162453588115
 41
1.336927223719676
 42
50.0
 43
0.0
 44
0.0
 50
0.0
 51
0.0
 71
     0
 72
  1500
 73
     1
 74
     0
 75
     0
 76
     0
 77
     0
 78
     0
281
     0
 65
     1
110
0.0
120
0.0
130
0.0
111
1.0
121
0.0
131
0.0
112
0.0
122
1.0
132
0.0
 79
     0
146
0.0
  0
ENDTAB
  0
TABLE
  2
LTYPE
  5
5
330
0
100
AcDbSymbolTable
 70
     3
  0
LTYPE
  5
13
330
5
100
AcDbSymbolTableRecord
100
AcDbLinetypeTableRecord
  2
ByBlock
 70
     0
  3

 72
    65
 73
     0
 40
0.0
  0
LTYPE
  5
14
330
5
100
AcDbSymbolTableRecord
100
AcDbLinetypeTableRecord
  2
ByLayer
 70
     0
  3

 72
    65
 73
     0
 40
0.0
  0
LTYPE
  5
15
330
5
100
AcDbSymbolTableRecord
100
AcDbLinetypeTableRecord
  2
Continuous
 70
     0
  3
Solid line
 72
    65
 73
     0
 40
0.0
  0
LTYPE
  5
25
330
5
100
AcDbSymbolTableRecord
100
AcDbLinetypeTableRecord
  2
STRICHPUNKT
 70
     0
  3
__ . __ . __ . __ . __ . __ . __ . __ . __ . __
 72
    65
 73
     4
 40
1.0
 49
0.5
 74
     0
 49
-0.25
 74
     0
 49
0.0
 74
     0
 49
-0.25
 74
     0
  0
LTYPE
  5
34
330
5
100
AcDbSymbolTableRecord
100
AcDbLinetypeTableRecord
  2
AUSGEZOGEN
 70
     0
  3
Ausgezogene Linie
 72
    65
 73
     0
 40
0.0
  0
ENDTAB
  0
TABLE
  2
LAYER
  5
2
330
0
100
AcDbSymbolTable
 70
     9
  0
LAYER
  5
10
330
2
100
AcDbSymbolTableRecord
100
AcDbLayerTableRecord
  2
0
 70
     0
 62
     7
  6
Continuous
370
    -3
390
F
  0
LAYER
  5
2B
330
2
100
AcDbSymbolTableRecord
100
AcDbLayerTableRecord
  2
VOLL
 70
     0
 62
     1
  6
Continuous
370
    -3
390
F
  0
LAYER
  5
2C
330
2
100
AcDbSymbolTableRecord
100
AcDbLayerTableRecord
  2
HILF
 70
     0
 62
     2
  6
Continuous
370
    -3
390
F
  0
LAYER
  5
2D
330
2
100
AcDbSymbolTableRecord
100
AcDbLayerTableRecord
  2
MITTEL
 70
     0
 62
     2
  6
STRICHPUNKT
370
    -3
390
F
  0
LAYER
  5
2F
330
2
100
AcDbSymbolTableRecord
100
AcDbLayerTableRecord
  2
BEM
 70
     0
 62
     7
  6
Continuous
370
    -3
390
F
  0
LAYER
  5
30
330
2
100
AcDbSymbolTableRecord
100
AcDbLayerTableRecord
  2
STEMPEL
 70
     0
 62
     3
  6
Continuous
370
    -3
390
F
  0
LAYER
  5
33
330
2
100
AcDbSymbolTableRecord
100
AcDbLayerTableRecord
  2
TEXT
 70
     0
 62
     7
  6
Continuous
370
    -3
390
F
  0
LAYER
  5
2C2
330
2
100
AcDbSymbolTableRecord
100
AcDbLayerTableRecord
  2
DEFPOINTS
 70
     0
 62
     7
  6
AUSGEZOGEN
290
     0
370
    -3
390
F
  0
LAYER
  5
2C3
330
2
100
AcDbSymbolTableRecord
100
AcDbLayerTableRecord
  2
SCHRAFF
 70
     0
 62
     7
  6
AUSGEZOGEN
370
    -3
390
F
  0
ENDTAB
  0
TABLE
  2
STYLE
  5
3
330
0
100
AcDbSymbolTable
 70
     2
  0
STYLE
  5
11
330
3
100
AcDbSymbolTableRecord
100
AcDbTextStyleTableRecord
  2
STANDARD
 70
     0
 40
0.0
 41
0.8
 50
0.0
 71
     0
 42
3.5
  3
simplex.shx
  4

  0
STYLE
  5
24
330
3
100
AcDbSymbolTableRecord
100
AcDbTextStyleTableRecord
  2
GREEKS
 70
     0
 40
0.0
 41
0.8
 50
0.0
 71
     0
 42
2.5
  3
SIMPLEX.shx
  4

  0
ENDTAB
  0
TABLE
  2
VIEW
  5
6
330
0
100
AcDbSymbolTable
 70
     0
  0
ENDTAB
  0
TABLE
  2
UCS
  5
7
330
0
100
AcDbSymbolTable
 70
     0
  0
ENDTAB
  0
TABLE
  2
APPID
  5
9
330
0
100
AcDbSymbolTable
 70
     1
  0
APPID
  5
12
330
9
100
AcDbSymbolTableRecord
100
AcDbRegAppTableRecord
  2
ACAD
 70
     0
  0
ENDTAB
  0
TABLE
  2
DIMSTYLE
  5
A
330
0
100
AcDbSymbolTable
 70
     1
100
AcDbDimStyleTable
 71
     1
340
A2
  0
DIMSTYLE
105
A2
102
{ACAD_REACTORS
330
40FE
330
40FF
330
4106
330
4110
330
4146
330
4147
102
}
330
A
100
AcDbSymbolTableRecord
100
AcDbDimStyleTableRecord
  2
Standard
 70
     0
340
11
  0
ENDTAB
  0
TABLE
  2
BLOCK_RECORD
  5
1
330
0
100
AcDbSymbolTable
 70
     7
  0
BLOCK_RECORD
  5
1E
102
{ACAD_XDICTIONARY
360
DB
102
}
330
1
100
AcDbSymbolTableRecord
100
AcDbBlockTableRecord
  2
*Model_Space
340
21
  0
BLOCK_RECORD
  5
1A
102
{ACAD_XDICTIONARY
360
DD
102
}
330
1
100
AcDbSymbolTableRecord
100
AcDbBlockTableRecord
  2
*Paper_Space
340
1D
  0
BLOCK_RECORD
  5
22
330
1
100
AcDbSymbolTableRecord
100
AcDbBlockTableRecord
  2
LOGO
340
0
102
{BLKREFS
331
4389
102
}
  0
BLOCK_RECORD
  5
43B5
330
1
100
AcDbSymbolTableRecord
100
AcDbBlockTableRecord
  2
*D1
340
0
  0
BLOCK_RECORD
  5
43C1
330
1
100
AcDbSymbolTableRecord
100
AcDbBlockTableRecord
  2
*D2
340
0
  0
BLOCK_RECORD
  5
43CD
330
1
100
AcDbSymbolTableRecord
100
AcDbBlockTableRecord
  2
*D3
340
0
  0
BLOCK_RECORD
  5
43D9
330
1
100
AcDbSymbolTableRecord
100
AcDbBlockTableRecord
  2
*D4
340
0
  0
BLOCK_RECORD
  5
43E5
330
1
100
AcDbSymbolTableRecord
100
AcDbBlockTableRecord
  2
*D5
340
0
  0
BLOCK_RECORD
  5
43F1
330
1
100
AcDbSymbolTableRecord
100
AcDbBlockTableRecord
  2
*D6
340
0
  0
ENDTAB
  0
ENDSEC
  0
SECTION
  2
BLOCKS
  0
BLOCK
  5
37
330
1E
100
AcDbEntity
  8
0
100
AcDbBlockBegin
  2
*Model_Space
 70
     0
 10
0.0
 20
0.0
 30
0.0
  3
*Model_Space
  1

  0
ENDBLK
  5
38
330
1E
100
AcDbEntity
  8
0
100
AcDbBlockEnd
  0
BLOCK
  5
35
330
1A
100
AcDbEntity
 67
     1
  8
0
100
AcDbBlockBegin
  2
*Paper_Space
 70
     0
 10
0.0
 20
0.0
 30
0.0
  3
*Paper_Space
  1

  0
ENDBLK
  5
36
330
1A
100
AcDbEntity
 67
     1
  8
0
100
AcDbBlockEnd
  0
BLOCK
  5
39
330
22
100
AcDbEntity
  8
0
100
AcDbBlockBegin
  2
LOGO
 70
     0
 10
0.0
 20
0.0
 30
0.0
  3
LOGO
  1

  0
ARC
  5
3A
330
22
100
AcDbEntity
  8
0
100
AcDbCircle
 10
11.59973089678112
 20
-9.271599258481501
 30
0.0
 40
4.5
100
AcDbArc
 50
270.0
 51
231.0575587310159
  0
LINE
  5
3B
330
22
100
AcDbEntity
  8
0
100
AcDbLine
 10
3.599730896781125
 20
-4.771599258481529
 30
0.0
 11
3.599730896781153
 21
-11.77159925848133
 31
0.0
  0
LINE
  5
3C
330
22
100
AcDbEntity
  8
0
100
AcDbLine
 10
2.599730896781125
 20
-4.771599258481529
 30
0.0
 11
2.599730896781153
 21
-11.77159925848133
 31
0.0
  0
CIRCLE
  5
3D
330
22
100
AcDbEntity
  8
0
100
AcDbCircle
 10
11.59973089678112
 20
-9.271599258481501
 30
0.0
 40
3.5
  0
ARC
  5
3E
330
22
100
AcDbEntity
  8
0
100
AcDbCircle
 10
31.59973089678115
 20
-9.271599258481472
 30
0.0
 40
4.5
100
AcDbArc
 50
270.0
 51
231.0575587310182
  0
LINE
  5
3F
330
22
100
AcDbEntity
  8
0
100
AcDbLine
 10
17.59973089678112
 20
-4.771599258481472
 30
0.0
 11
17.59973089678115
 21
-13.77159925848147
 31
0.0
  0
ARC
  5
40
330
22
100
AcDbEntity
  8
0
100
AcDbCircle
 10
22.59973089678116
 20
-7.271599258481472
 30
0.0
 40
2.5
100
AcDbArc
 50
293.1161887722295
 51
90.0
  0
CIRCLE
  5
41
330
22
100
AcDbEntity
  8
0
100
AcDbCircle
 10
31.59973089678115
 20
-9.271599258481472
 30
0.0
 40
3.5
  0
ARC
  5
42
330
22
100
AcDbEntity
  8
0
100
AcDbCircle
 10
4.599730896781153
 20
-11.77159925848133
 30
0.0
 40
1.0
100
AcDbArc
 50
180.0
 51
270.0
  0
ARC
  5
43
330
22
100
AcDbEntity
  8
0
100
AcDbCircle
 10
4.599730896781153
 20
-11.77159925848133
 30
0.0
 40
2.0
100
AcDbArc
 50
179.9999999999992
 51
270.0
  0
LINE
  5
44
330
22
100
AcDbEntity
  8
0
100
AcDbLine
 10
11.59973089678115
 20
-13.77159925848144
 30
0.0
 11
4.599730896781153
 21
-13.77159925848147
 31
0.0
  0
LINE
  5
45
330
22
100
AcDbEntity
  8
0
100
AcDbLine
 10
8.771303772034769
 20
-12.77159925848136
 30
0.0
 11
4.599730896781153
 21
-12.77159925848133
 31
0.0
  0
LINE
  5
46
330
22
100
AcDbEntity
  8
0
100
AcDbLine
 10
31.59973089678115
 20
-13.77159925848147
 30
0.0
 11
23.6715276665056
 21
-13.77159925848144
 31
0.0
  0
LINE
  5
47
330
22
100
AcDbEntity
  8
0
100
AcDbLine
 10
23.56565672307022
 20
-9.51278021337896
 30
0.0
 11
24.4388546544846
 21
-12.77159925848144
 31
0.0
  0
LINE
  5
48
330
22
100
AcDbEntity
  8
0
100
AcDbLine
 10
22.59973089678116
 20
-9.771599258481472
 30
0.0
 11
18.59973089678112
 21
-9.771599258481472
 31
0.0
  0
LINE
  5
49
330
22
100
AcDbEntity
  8
0
100
AcDbLine
 10
18.59973089678115
 20
-13.77159925848144
 30
0.0
 11
17.59973089678115
 21
-13.77159925848144
 31
0.0
  0
LINE
  5
4A
330
22
100
AcDbEntity
  8
0
100
AcDbLine
 10
18.59973089678115
 20
-9.771599258481472
 30
0.0
 11
18.59973089678115
 21
-13.77159925848144
 31
0.0
  0
LINE
  5
4B
330
22
100
AcDbEntity
  8
0
100
AcDbLine
 10
22.59973089678116
 20
-9.771599258481472
 30
0.0
 11
23.67152766650562
 21
-13.77159925848147
 31
0.0
  0
ARC
  5
4C
330
22
100
AcDbEntity
  8
0
100
AcDbCircle
 10
22.59973089678116
 20
-7.271599258481472
 30
0.0
 40
2.5
100
AcDbArc
 50
270.0
 51
270.0000000000007
  0
LINE
  5
4D
330
22
100
AcDbEntity
  8
0
100
AcDbLine
 10
28.77130377203494
 20
-12.77159925848147
 30
0.0
 11
24.43885465448463
 21
-12.77159925848144
 31
0.0
  0
LINE
  5
4E
330
22
100
AcDbEntity
  8
0
100
AcDbLine
 10
3.599730896781125
 20
-4.771599258481472
 30
0.0
 11
2.599730896781125
 21
-4.771599258481472
 31
0.0
  0
LINE
  5
4F
330
22
100
AcDbEntity
  8
0
100
AcDbLine
 10
22.59973089678116
 20
-8.771599258481472
 30
0.0
 11
18.59973089678115
 21
-8.771599258481472
 31
0.0
  0
LINE
  5
50
330
22
100
AcDbEntity
  8
0
100
AcDbLine
 10
22.59973089678116
 20
-5.771599258481472
 30
0.0
 11
18.59973089678115
 21
-5.771599258481472
 31
0.0
  0
LINE
  5
51
330
22
100
AcDbEntity
  8
0
100
AcDbLine
 10
22.59973089678116
 20
-4.771599258481472
 30
0.0
 11
17.59973089678115
 21
-4.771599258481472
 31
0.0
  0
LINE
  5
52
330
22
100
AcDbEntity
  8
0
100
AcDbLine
 10
18.59973089678115
 20
-5.771599258481472
 30
0.0
 11
18.59973089678115
 21
-8.771599258481472
 31
0.0
  0
ARC
  5
53
330
22
100
AcDbEntity
  8
0
100
AcDbCircle
 10
22.59973089678116
 20
-7.271599258481472
 30
0.0
 40
1.5
100
AcDbArc
 50
270.0
 51
90.0
  0
ENDBLK
  5
54
330
22
100
AcDbEntity
  8
0
100
AcDbBlockEnd
  0
BLOCK
  5
43BF
330
43B5
100
AcDbEntity
  8
0
100
AcDbBlockBegin
  2
*D1
 70
     1
 10
0.0
 20
0.0
 30
0.0
  3
*D1
  1

  0
LINE
  5
43FD
330
43B5
100
AcDbEntity
  8
BEM
 62
     0
370
    -2
100
AcDbLine
 10
141.575499413892
 20
676.1173815020359
 30
0.0
 11
141.575499413892
 21
704.9297924660848
 31
0.0
  0
LINE
  5
43FE
330
43B5
100
AcDbEntity
  8
BEM
 62
     0
370
    -2
100
AcDbLine
 10
361.5754994138922
 20
676.1173815020359
 30
0.0
 11
361.5754994138922
 21
704.9297924660848
 31
0.0
  0
LINE
  5
43FF
330
43B5
100
AcDbEntity
  8
BEM
 62
     0
370
    -2
100
AcDbLine
 10
148.575499413892
 20
702.9297924660848
 30
0.0
 11
354.5754994138922
 21
702.9297924660848
 31
0.0
  0
SOLID
  5
4400
330
43B5
100
AcDbEntity
  8
BEM
 62
     0
100
AcDbTrace
 10
148.575499413892
 20
704.0964591327514
 30
0.0
 11
148.575499413892
 21
701.7631257994182
 31
0.0
 12
141.575499413892
 22
702.9297924660848
 32
0.0
 13
141.575499413892
 23
702.9297924660848
 33
0.0
  0
SOLID
  5
4401
330
43B5
100
AcDbEntity
  8
BEM
 62
     0
100
AcDbTrace
 10
354.5754994138922
 20
704.0964591327514
 30
0.0
 11
354.5754994138922
 21
701.7631257994182
 31
0.0
 12
361.5754994138922
 22
702.9297924660848
 32
0.0
 13
361.5754994138922
 23
702.9297924660848
 33
0.0
  0
MTEXT
  5
4402
330
43B5
100
AcDbEntity
  8
BEM
 62
     1
100
AcDbMText
 10
251.5754994138921
 20
709.4297924660848
 30
0.0
 40
7.0
 41
0.0
 71
     5
 72
     1
  1
\A1;%%c220
  7
GREEKS
 73
     1
 44
1.0
  0
POINT
  5
4403
330
43B5
100
AcDbEntity
  8
DEFPOINTS
 62
     0
100
AcDbPoint
 10
141.575499413892
 20
674.117381502036
 30
0.0
  0
POINT
  5
4404
330
43B5
100
AcDbEntity
  8
DEFPOINTS
 62
     0
100
AcDbPoint
 10
361.5754994138922
 20
674.117381502036
 30
0.0
  0
POINT
  5
4405
330
43B5
100
AcDbEntity
  8
DEFPOINTS
 62
     0
100
AcDbPoint
 10
361.5754994138922
 20
702.9297924660848
 30
0.0
  0
ENDBLK
  5
43C0
330
43B5
100
AcDbEntity
  8
0
100
AcDbBlockEnd
  0
BLOCK
  5
43CB
330
43C1
100
AcDbEntity
  8
0
100
AcDbBlockBegin
  2
*D2
 70
     1
 10
0.0
 20
0.0
 30
0.0
  3
*D2
  1

  0
LINE
  5
4406
330
43C1
100
AcDbEntity
  8
BEM
 62
     0
370
    -2
100
AcDbLine
 10
121.575499413892
 20
607.1174394693515
 30
0.0
 11
121.575499413892
 21
718.4249937803922
 31
0.0
  0
LINE
  5
4407
330
43C1
100
AcDbEntity
  8
BEM
 62
     0
370
    -2
100
AcDbLine
 10
381.5754994138917
 20
607.1174394693517
 30
0.0
 11
381.5754994138917
 21
718.4249937803922
 31
0.0
  0
LINE
  5
4408
330
43C1
100
AcDbEntity
  8
BEM
 62
     0
370
    -2
100
AcDbLine
 10
128.5754994138919
 20
716.4249937803922
 30
0.0
 11
374.5754994138918
 21
716.4249937803922
 31
0.0
  0
SOLID
  5
4409
330
43C1
100
AcDbEntity
  8
BEM
 62
     0
100
AcDbTrace
 10
128.5754994138919
 20
717.5916604470589
 30
0.0
 11
128.5754994138919
 21
715.2583271137256
 31
0.0
 12
121.575499413892
 22
716.4249937803922
 32
0.0
 13
121.575499413892
 23
716.4249937803922
 33
0.0
  0
SOLID
  5
440A
330
43C1
100
AcDbEntity
  8
BEM
 62
     0
100
AcDbTrace
 10
374.5754994138918
 20
717.5916604470589
 30
0.0
 11
374.5754994138918
 21
715.2583271137256
 31
0.0
 12
381.5754994138917
 22
716.4249937803922
 32
0.0
 13
381.5754994138917
 23
716.4249937803922
 33
0.0
  0
MTEXT
  5
440B
330
43C1
100
AcDbEntity
  8
BEM
 62
     1
100
AcDbMText
 10
251.5754994138919
 20
722.9249937803922
 30
0.0
 40
7.0
 41
0.0
 71
     5
 72
     1
  1
\A1;%%c260
  7
GREEKS
 73
     1
 44
1.0
  0
POINT
  5
440C
330
43C1
100
AcDbEntity
  8
DEFPOINTS
 62
     0
100
AcDbPoint
 10
121.575499413892
 20
605.1174394693515
 30
0.0
  0
POINT
  5
440D
330
43C1
100
AcDbEntity
  8
DEFPOINTS
 62
     0
100
AcDbPoint
 10
381.5754994138917
 20
605.1174394693518
 30
0.0
  0
POINT
  5
440E
330
43C1
100
AcDbEntity
  8
DEFPOINTS
 62
     0
100
AcDbPoint
 10
381.5754994138917
 20
716.4249937803922
 30
0.0
  0
ENDBLK
  5
43CC
330
43C1
100
AcDbEntity
  8
0
100
AcDbBlockEnd
  0
BLOCK
  5
43D7
330
43CD
100
AcDbEntity
  8
0
100
AcDbBlockBegin
  2
*D3
 70
     1
 10
0.0
 20
0.0
 30
0.0
  3
*D3
  1

  0
LINE
  5
4D78
330
43CD
100
AcDbEntity
  8
BEM
 62
     0
370
    -2
100
AcDbLine
 10
213.5072129752068
 20
168.1174394693503
 30
0.0
 11
111.1946230744021
 21
168.1174394693503
 31
0.0
  0
LINE
  5
4D79
330
43CD
100
AcDbEntity
  8
BEM
 62
     0
370
    -2
100
AcDbLine
 10
127.2930138351642
 20
428.1174394693504
 30
0.0
 11
111.1946230744022
 21
428.1174394693504
 31
0.0
  0
LINE
  5
4D7A
330
43CD
100
AcDbEntity
  8
BEM
 62
     0
370
    -2
100
AcDbLine
 10
113.1946230744021
 20
175.1174394693503
 30
0.0
 11
113.1946230744022
 21
421.1174394693504
 31
0.0
  0
SOLID
  5
4D7B
330
43CD
100
AcDbEntity
  8
BEM
 62
     0
100
AcDbTrace
 10
112.0279564077355
 20
175.1174394693503
 30
0.0
 11
114.3612897410688
 21
175.1174394693503
 31
0.0
 12
113.1946230744021
 22
168.1174394693503
 32
0.0
 13
113.1946230744021
 23
168.1174394693503
 33
0.0
  0
SOLID
  5
4D7C
330
43CD
100
AcDbEntity
  8
BEM
 62
     0
100
AcDbTrace
 10
112.0279564077355
 20
421.1174394693504
 30
0.0
 11
114.3612897410689
 21
421.1174394693504
 31
0.0
 12
113.1946230744022
 22
428.1174394693504
 32
0.0
 13
113.1946230744022
 23
428.1174394693504
 33
0.0
  0
MTEXT
  5
4D7D
330
43CD
100
AcDbEntity
  8
BEM
 62
     1
100
AcDbMText
 10
106.6946230744021
 20
298.1174394693504
 30
0.0
 40
7.0
 41
0.0
 71
     5
 72
     1
  1
\A1;260
 11
0.0000000000000001
 21
1.0
 31
0.0
 73
     1
 44
1.0
  0
POINT
  5
4D7E
330
43CD
100
AcDbEntity
  8
DEFPOINTS
 62
     0
100
AcDbPoint
 10
215.5072129752068
 20
168.1174394693503
 30
0.0
  0
POINT
  5
4D7F
330
43CD
100
AcDbEntity
  8
DEFPOINTS
 62
     0
100
AcDbPoint
 10
129.2930138351642
 20
428.1174394693503
 30
0.0
  0
POINT
  5
4D80
330
43CD
100
AcDbEntity
  8
DEFPOINTS
 62
     0
100
AcDbPoint
 10
113.1946230744022
 20
428.1174394693504
 30
0.0
  0
ENDBLK
  5
43D8
330
43CD
100
AcDbEntity
  8
0
100
AcDbBlockEnd
  0
BLOCK
  5
43E3
330
43D9
100
AcDbEntity
  8
0
100
AcDbBlockBegin
  2
*D4
 70
     1
 10
0.0
 20
0.0
 30
0.0
  3
*D4
  1

  0
LINE
  5
4418
330
43D9
100
AcDbEntity
  8
BEM
 62
     0
370
    -2
100
AcDbLine
 10
215.0754994138922
 20
171.0519480549883
 30
0.0
 11
215.0754994138922
 21
148.1952762542607
 31
0.0
  0
LINE
  5
4419
330
43D9
100
AcDbEntity
  8
BEM
 62
     0
370
    -2
100
AcDbLine
 10
288.0754994138921
 20
171.0519480549881
 30
0.0
 11
288.0754994138921
 21
148.1952762542607
 31
0.0
  0
LINE
  5
441A
330
43D9
100
AcDbEntity
  8
BEM
 62
     0
370
    -2
100
AcDbLine
 10
222.0754994138922
 20
150.1952762542607
 30
0.0
 11
281.0754994138921
 21
150.1952762542607
 31
0.0
  0
SOLID
  5
441B
330
43D9
100
AcDbEntity
  8
BEM
 62
     0
100
AcDbTrace
 10
222.0754994138922
 20
151.3619429209274
 30
0.0
 11
222.0754994138922
 21
149.0286095875941
 31
0.0
 12
215.0754994138922
 22
150.1952762542607
 32
0.0
 13
215.0754994138922
 23
150.1952762542607
 33
0.0
  0
SOLID
  5
441C
330
43D9
100
AcDbEntity
  8
BEM
 62
     0
100
AcDbTrace
 10
281.0754994138921
 20
151.3619429209274
 30
0.0
 11
281.0754994138921
 21
149.0286095875941
 31
0.0
 12
288.0754994138921
 22
150.1952762542607
 32
0.0
 13
288.0754994138921
 23
150.1952762542607
 33
0.0
  0
MTEXT
  5
441D
330
43D9
100
AcDbEntity
  8
BEM
 62
     1
100
AcDbMText
 10
251.5754994138922
 20
156.6952762542607
 30
0.0
 40
7.0
 41
0.0
 71
     5
 72
     1
  1
\A1;%%c73
 73
     1
 44
1.0
  0
POINT
  5
441E
330
43D9
100
AcDbEntity
  8
DEFPOINTS
 62
     0
100
AcDbPoint
 10
215.0754994138922
 20
173.0519480549883
 30
0.0
  0
POINT
  5
441F
330
43D9
100
AcDbEntity
  8
DEFPOINTS
 62
     0
100
AcDbPoint
 10
288.0754994138921
 20
173.0519480549881
 30
0.0
  0
POINT
  5
4420
330
43D9
100
AcDbEntity
  8
DEFPOINTS
 62
     0
100
AcDbPoint
 10
288.0754994138921
 20
150.1952762542607
 30
0.0
  0
ENDBLK
  5
43E4
330
43D9
100
AcDbEntity
  8
0
100
AcDbBlockEnd
  0
BLOCK
  5
43EF
330
43E5
100
AcDbEntity
  8
0
100
AcDbBlockBegin
  2
*D5
 70
     1
 10
0.0
 20
0.0
 30
0.0
  3
*D5
  1

  0
LINE
  5
4D81
330
43E5
100
AcDbEntity
  8
BEM
 62
     0
370
    -2
100
AcDbLine
 10
127.0754994138918
 20
428.1174394693504
 30
0.0
 11
111.1946230744022
 21
428.1174394693504
 31
0.0
  0
LINE
  5
4D82
330
43E5
100
AcDbEntity
  8
BEM
 62
     0
370
    -2
100
AcDbLine
 10
127.0754994138917
 20
578.1174394693501
 30
0.0
 11
111.1946230744022
 21
578.1174394693501
 31
0.0
  0
LINE
  5
4D83
330
43E5
100
AcDbEntity
  8
BEM
 62
     0
370
    -2
100
AcDbLine
 10
113.1946230744022
 20
435.1174394693503
 30
0.0
 11
113.1946230744022
 21
571.1174394693501
 31
0.0
  0
SOLID
  5
4D84
330
43E5
100
AcDbEntity
  8
BEM
 62
     0
100
AcDbTrace
 10
112.0279564077355
 20
435.1174394693503
 30
0.0
 11
114.3612897410688
 21
435.1174394693503
 31
0.0
 12
113.1946230744022
 22
428.1174394693504
 32
0.0
 13
113.1946230744022
 23
428.1174394693504
 33
0.0
  0
SOLID
  5
4D85
330
43E5
100
AcDbEntity
  8
BEM
 62
     0
100
AcDbTrace
 10
112.0279564077355
 20
571.1174394693501
 30
0.0
 11
114.3612897410689
 21
571.1174394693501
 31
0.0
 12
113.1946230744022
 22
578.1174394693501
 32
0.0
 13
113.1946230744022
 23
578.1174394693501
 33
0.0
  0
MTEXT
  5
4D86
330
43E5
100
AcDbEntity
  8
BEM
 62
     1
100
AcDbMText
 10
106.6946230744021
 20
503.1174394693502
 30
0.0
 40
7.0
 41
0.0
 71
     5
 72
     1
  1
\A1;min.35 - max.200
  7
GREEKS
 11
0.0000000000000001
 21
1.0
 31
0.0
 73
     1
 44
1.0
  0
POINT
  5
4D87
330
43E5
100
AcDbEntity
  8
DEFPOINTS
 62
     0
100
AcDbPoint
 10
129.0754994138918
 20
428.1174394693503
 30
0.0
  0
POINT
  5
4D88
330
43E5
100
AcDbEntity
  8
DEFPOINTS
 62
     0
100
AcDbPoint
 10
129.0754994138917
 20
578.1174394693501
 30
0.0
  0
POINT
  5
4D89
330
43E5
100
AcDbEntity
  8
DEFPOINTS
 62
     0
100
AcDbPoint
 10
113.1946230744022
 20
578.1174394693501
 30
0.0
  0
ENDBLK
  5
43F0
330
43E5
100
AcDbEntity
  8
0
100
AcDbBlockEnd
  0
BLOCK
  5
43FB
330
43F1
100
AcDbEntity
  8
0
100
AcDbBlockBegin
  2
*D6
 70
     1
 10
0.0
 20
0.0
 30
0.0
  3
*D6
  1

  0
LINE
  5
4D52
330
43F1
100
AcDbEntity
  8
BEM
 62
     0
370
    -2
100
AcDbLine
 10
169.575499413892
 20
694.1174394693509
 30
0.0
 11
111.2136767489317
 21
694.1174394693509
 31
0.0
  0
LINE
  5
4D53
330
43F1
100
AcDbEntity
  8
BEM
 62
     0
370
    -2
100
AcDbLine
 10
137.5754994138915
 20
584.1174394693502
 30
0.0
 11
111.2136767489317
 21
584.1174394693502
 31
0.0
  0
LINE
  5
4D54
330
43F1
100
AcDbEntity
  8
BEM
 62
     0
370
    -2
100
AcDbLine
 10
113.2136767489317
 20
687.1174394693508
 30
0.0
 11
113.2136767489317
 21
591.1174394693501
 31
0.0
  0
SOLID
  5
4D55
330
43F1
100
AcDbEntity
  8
BEM
 62
     0
100
AcDbTrace
 10
112.047010082265
 20
687.1174394693508
 30
0.0
 11
114.3803434155983
 21
687.1174394693508
 31
0.0
 12
113.2136767489317
 22
694.1174394693509
 32
0.0
 13
113.2136767489317
 23
694.1174394693509
 33
0.0
  0
SOLID
  5
4D56
330
43F1
100
AcDbEntity
  8
BEM
 62
     0
100
AcDbTrace
 10
112.047010082265
 20
591.1174394693501
 30
0.0
 11
114.3803434155983
 21
591.1174394693501
 31
0.0
 12
113.2136767489317
 22
584.1174394693502
 32
0.0
 13
113.2136767489317
 23
584.1174394693502
 33
0.0
  0
MTEXT
  5
4D57
330
43F1
100
AcDbEntity
  8
BEM
 62
     1
100
AcDbMText
 10
106.7136767489316
 20
639.1174394693505
 30
0.0
 40
7.0
 41
0.0
 71
     5
 72
     1
  1
\A1;110
  7
GREEKS
 11
0.0000000000000001
 21
1.0
 31
0.0
 73
     1
 44
1.0
  0
POINT
  5
4D58
330
43F1
100
AcDbEntity
  8
DEFPOINTS
 62
     0
100
AcDbPoint
 10
171.575499413892
 20
694.1174394693509
 30
0.0
  0
POINT
  5
4D59
330
43F1
100
AcDbEntity
  8
DEFPOINTS
 62
     0
100
AcDbPoint
 10
139.5754994138916
 20
584.1174394693502
 30
0.0
  0
POINT
  5
4D5A
330
43F1
100
AcDbEntity
  8
DEFPOINTS
 62
     0
100
AcDbPoint
 10
113.2136767489317
 20
584.1174394693502
 30
0.0
  0
ENDBLK
  5
43FC
330
43F1
100
AcDbEntity
  8
0
100
AcDbBlockEnd
  0
ENDSEC
  0
SECTION
  2
ENTITIES
  0
LINE
  5
87
330
1E
100
AcDbEntity
  8
HILF
100
AcDbLine
 10
594.0
 20
-0.0000000000000568
 30
0.0
 11
594.0
 21
840.0
 31
0.0
  0
LINE
  5
88
330
1E
100
AcDbEntity
  8
HILF
100
AcDbLine
 10
594.0
 20
840.0
 30
0.0
 11
0.0
 21
840.0
 31
0.0
  0
LINE
  5
89
330
1E
100
AcDbEntity
  8
HILF
100
AcDbLine
 10
0.0
 20
840.0
 30
0.0
 11
0.0
 21
0.0
 31
0.0
  0
LINE
  5
8B
330
1E
100
AcDbEntity
  8
STEMPEL
100
AcDbLine
 10
10.0
 20
830.0
 30
0.0
 11
10.0
 21
39.99999999999995
 31
0.0
  0
LINE
  5
8D
330
1E
100
AcDbEntity
  8
STEMPEL
100
AcDbLine
 10
584.0
 20
39.99999999999995
 30
0.0
 11
584.0
 21
830.0
 31
0.0
  0
LINE
  5
8E
330
1E
100
AcDbEntity
  8
STEMPEL
100
AcDbLine
 10
584.0
 20
830.0
 30
0.0
 11
10.0
 21
830.0
 31
0.0
  0
LINE
  5
13E
330
1E
100
AcDbEntity
  8
HILF
100
AcDbLine
 10
594.0
 20
-0.0000000000000568
 30
0.0
 11
0.0
 21
0.0
 31
0.0
  0
LINE
  5
13F
330
1E
100
AcDbEntity
  8
STEMPEL
100
AcDbLine
 10
584.0
 20
39.99999999999995
 30
0.0
 11
10.0
 21
39.99999999999995
 31
0.0
  0
LINE
  5
14A
330
1E
100
AcDbEntity
  8
HILF
100
AcDbLine
 10
297.0
 20
-0.0000000000000568
 30
0.0
 11
297.0
 21
39.99999999999995
 31
0.0
  0
TEXT
  5
15B
330
1E
100
AcDbEntity
  8
TEXT
100
AcDbText
 10
583.8320989200114
 20
837.3022923857165
 30
0.0
 40
4.0
  1
Diese Zeichnung ist urheberrechtlich geschützt und bleibt unser Eigentum. Sie darf weder ganz noch teilweise verfielfältigt und nicht an Dritte weitergegeben werden.
 50
180.0
 41
0.8
  7
GREEKS
100
AcDbText
  0
LINE
  5
FBF
330
1E
100
AcDbEntity
  8
HILF
 62
     7
100
AcDbLine
 10
594.0000000000003
 20
459.9999999999999
 30
0.0
 11
584.0
 21
459.9999999999999
 31
0.0
  0
HATCH
  5
40DE
330
1E
100
AcDbEntity
  8
SCHRAFF
100
AcDbHatch
 10
0.0
 20
0.0
 30
0.0
210
0.0
220
0.0
230
1.0
  2
_USER
 70
     0
 71
     1
 91
        4
 92
        7
 72
     1
 73
     1
 93
        8
 10
135.2930138351638
 20
428.1174394693503
 42
0.1989123673796812
 10
131.4039265386376
 20
426.5065267658759
 42
0.0
 10
129.0754994138916
 20
424.1780996411297
 42
0.0
 10
130.4897129762645
 20
422.7638860787563
 42
0.0
 10
132.8181401010107
 20
425.0923132035027
 42
-0.1989123673796726
 10
135.2930138351634
 20
426.1174394693505
 42
0.0
 10
161.5754994138918
 20
426.1174394693502
 42
0.0
 10
161.5754994138918
 20
428.1174394693504
 42
0.0
 97
        8
330
4157
330
4168
330
416F
330
416E
330
416D
330
4169
330
4160
330
4181
 92
        7
 72
     1
 73
     1
 93
        8
 10
193.0554151667573
 20
426.11743946935
 42
-0.2102773852970759
 10
197.4790791876179
 20
424.1709807150442
 42
0.0
 10
207.6077836143359
 20
413.11743946935
 42
0.0
 10
209.0823382879563
 20
414.4686198845816
 42
0.0
 10
198.953633861238
 20
425.5221611302757
 42
0.2102773852970754
 10
193.0554151667574
 20
428.1174394693504
 42
0.0
 10
161.5754994138918
 20
428.1174394693504
 42
0.0
 10
161.5754994138918
 20
426.1174394693503
 42
0.0
 97
        8
330
4157
330
4181
330
4160
330
4193
330
4103
330
412E
330
4102
330
4192
 92
        7
 72
     1
 73
     1
 93
        8
 10
310.0955836610265
 20
428.1174394693503
 42
0.2102773852970681
 10
304.1973649665461
 20
425.5221611302759
 42
0.0
 10
294.0686605398279
 20
414.4686198845814
 42
0.0
 10
295.5432152134481
 20
413.1174394693501
 42
0.0
 10
305.671919640166
 20
424.1709807150442
 42
-0.2102773852970743
 10
310.0955836610265
 20
426.1174394693501
 42
0.0
 10
322.975499413892
 20
426.1174394693502
 42
0.0
 10
322.9754994138919
 20
428.1174394693502
 42
0.0
 97
        8
330
40E8
330
42BD
330
40E0
330
4145
330
40E1
330
42BE
330
42B3
330
42CC
 92
        7
 72
     1
 73
     1
 93
        8
 10
367.8579849926199
 20
426.1174394693505
 42
-0.1989123673797001
 10
370.332858726773
 20
425.0923132035027
 42
0.0
 10
372.6612858515192
 20
422.7638860787562
 42
0.0
 10
374.0754994138921
 20
424.1780996411297
 42
0.0
 10
371.7470722891461
 20
426.5065267658759
 42
0.1989123673796593
 10
367.8579849926203
 20
428.1174394693501
 42
0.0
 10
322.975499413892
 20
428.1174394693502
 42
0.0
 10
322.975499413892
 20
426.1174394693502
 42
0.0
 97
        8
330
40E8
330
42CC
330
42B3
330
42E3
330
42E2
330
42E7
330
42E1
330
42E4
 75
     0
 76
     0
 52
45.0
 41
2.0
 77
     0
 78
     1
 53
45.0
 43
0.0000000000002274
 44
0.0
 45
-1.414213562373094
 46
1.414213562373095
 79
     0
 47
0.3896827800021778
 98
        4
 10
144.7999390366183
 20
427.3463351553666
 10
187.3040157036268
 20
426.9566537078397
 10
312.4765702719844
 20
427.3463351553666
 10
338.6029284490671
 20
426.9566537078397
  0
ARC
  5
40DF
330
1E
100
AcDbEntity
  8
SCHRAFF
100
AcDbCircle
 10
293.3754994138922
 20
413.7121672552372
 30
0.0
 40
3.0
100
AcDbArc
 50
270.0
 51
5.689685104222522
  0
LINE
  5
40E0
102
{ACAD_REACTORS
330
40DE
102
}
330
1E
100
AcDbEntity
  8
STEMPEL
100
AcDbLine
 10
304.1973649665459
 20
425.5221611302757
 30
0.0
 11
293.3754994138923
 21
413.7121672552372
 31
0.0
  0
LINE
  5
40E1
102
{ACAD_REACTORS
330
40DE
102
}
330
1E
100
AcDbEntity
  8
STEMPEL
100
AcDbLine
 10
305.671919640166
 20
424.1709807150442
 30
0.0
 11
295.543215213448
 21
413.1174394693501
 31
0.0
  0
HATCH
  5
40E2
330
1E
100
AcDbEntity
  8
SCHRAFF
100
AcDbHatch
 10
0.0
 20
0.0
 30
0.0
210
0.0
220
0.0
230
1.0
  2
_USER
 70
     0
 71
     0
 91
        4
 92
        7
 72
     1
 73
     1
 93
        8
 10
161.5754994138919
 20
576.11743946935
 42
0.0
 10
161.5754994138919
 20
578.1174394693502
 42
0.0
 10
135.2930138351641
 20
578.1174394693502
 42
0.1989123673797054
 10
131.4039265386375
 20
576.5065267658757
 42
0.0
 10
129.0754994138915
 20
574.1780996411295
 42
0.0
 10
130.4897129762643
 20
572.7638860787562
 42
0.0
 10
132.8181401010106
 20
575.0923132035025
 42
-0.1989123673796754
 10
135.2930138351634
 20
576.1174394693503
 42
0.0
 97
        0
 92
        7
 72
     1
 73
     1
 93
        8
 10
193.2617909149071
 20
576.1174394693498
 42
-0.1989123673796662
 10
197.5044316020267
 20
574.3600801564694
 42
0.0
 10
207.649019566315
 20
564.2154921921822
 42
0.0
 10
209.0632331286881
 20
565.6297057545555
 42
0.0
 10
198.9186451643995
 20
575.7742937188427
 42
0.1989123673796487
 10
193.2617909149074
 20
578.1174394693502
 42
0.0
 10
161.5754994138919
 20
578.1174394693502
 42
0.0
 10
161.5754994138919
 20
576.11743946935
 42
0.0
 97
        0
 92
        7
 72
     1
 73
     1
 93
        8
 10
367.8579849926198
 20
576.1174394693503
 42
-0.1989123673796966
 10
370.3328587267729
 20
575.0923132035025
 42
0.0
 10
372.6612858515192
 20
572.7638860787563
 42
0.0
 10
374.0754994138919
 20
574.1780996411295
 42
0.0
 10
371.747072289146
 20
576.5065267658757
 42
0.1989123673796782
 10
367.8579849926198
 20
578.1174394693501
 42
0.0
 10
322.9754994138918
 20
578.1174394693501
 42
0.0
 10
322.9754994138918
 20
576.11743946935
 42
0.0
 97
        0
 92
        7
 72
     1
 73
     1
 93
        8
 10
322.9754994138918
 20
576.11743946935
 42
0.0
 10
322.9754994138918
 20
578.11743946935
 42
0.0
 10
309.8892079128765
 20
578.11743946935
 42
0.198912367379642
 10
304.2323536633846
 20
575.7742937188425
 42
0.0
 10
294.075499413892
 20
565.6174394693513
 42
0.0
 10
295.489712976265
 20
564.2032259069781
 42
0.0
 10
305.6465672257577
 20
574.3600801564696
 42
-0.1989123673796247
 10
309.8892079128764
 20
576.1174394693499
 42
0.0
 97
        0
 75
     0
 76
     0
 52
45.0
 41
2.0
 77
     0
 78
     1
 53
45.0
 43
0.0000000000002274
 44
0.0
 45
-1.414213562373094
 46
1.414213562373095
 79
     0
 47
0.318069369701126
 98
        4
 10
156.3168858950414
 20
576.6477501637571
 10
165.5471196696692
 20
576.6477501637571
 10
335.1924577858797
 20
576.9658194981141
 10
317.3685558903328
 20
576.6477501637571
  0
LINE
  5
40E3
102
{ACAD_REACTORS
330
4104
102
}
330
1E
100
AcDbEntity
  8
STEMPEL
100
AcDbLine
 10
304.2323536633846
 20
575.7742937188427
 30
0.0
 11
288.4793053361779
 21
560.0212453916379
 31
0.0
  0
ARC
  5
40E4
330
1E
100
AcDbEntity
  8
SCHRAFF
100
AcDbCircle
 10
293.5754994138921
 20
565.1174394693514
 30
0.0
 40
3.5
100
AcDbArc
 50
250.3769335251435
 51
10.15009542095189
  0
LINE
  5
40E5
330
1E
100
AcDbEntity
  8
STEMPEL
100
AcDbLine
 10
305.6465672257577
 20
574.3600801564696
 30
0.0
 11
295.489712976265
 21
564.2032259069781
 31
0.0
  0
HATCH
  5
40E6
330
1E
100
AcDbEntity
  8
SCHRAFF
100
AcDbHatch
 10
0.0
 20
0.0
 30
0.0
210
0.0
220
0.0
230
1.0
  2
_U
 70
     0
 71
     0
 91
        2
 92
        7
 72
     1
 73
     1
 93
        4
 10
208.0025729569083
 20
564.5690455827755
 42
0.0
 10
207.6490195663149
 20
564.2154921921822
 42
0.0
 10
206.1302762503601
 20
565.7342355081366
 42
0.5760313318603869
 10
210.7509072196126
 20
561.8207113200719
 42
0.0
 97
        0
 92
        7
 72
     1
 73
     1
 93
        4
 10
297.0207225774243
 20
565.7342355081371
 42
0.0
 10
295.4897129762649
 20
564.2032259069778
 42
0.0
 10
295.1361595856714
 20
564.5567792975714
 42
0.0
 10
292.4000916081716
 20
561.8207113200719
 42
0.5760313318604339
 97
        0
 75
     0
 76
     0
 52
0.0
 41
0.1
 77
     0
 78
     1
 53
0.0
 43
28.63674848197729
 44
121.9883951241794
 45
0.0
 46
0.1
 79
     0
 47
0.1173469678841337
 98
        2
 10
208.1528424837429
 20
562.9186154404101
 10
294.941638481157
 20
562.8012683778958
  0
LINE
  5
40E8
102
{ACAD_REACTORS
330
40DE
102
}
330
1E
100
AcDbEntity
  8
STEMPEL
100
AcDbLine
 10
292.2085388862572
 20
428.1174394693504
 30
0.0
 11
374.0754994138919
 21
428.1174394693501
 31
0.0
  0
LINE
  5
40EB
102
{ACAD_REACTORS
330
4912
330
493C
102
}
330
1E
100
AcDbEntity
  8
STEMPEL
100
AcDbLine
 10
291.6842643390366
 20
434.1174394693502
 30
0.0
 11
376.8365637475952
 21
434.11743946935
 31
0.0
  0
LINE
  5
40EC
330
1E
100
AcDbEntity
  8
STEMPEL
100
AcDbLine
 10
288.0754994138931
 20
440.117439469351
 30
0.0
 11
360.4176421893185
 21
440.1174394693511
 31
0.0
  0
LINE
  5
40ED
102
{ACAD_REACTORS
330
493C
102
}
330
1E
100
AcDbEntity
  8
STEMPEL
100
AcDbLine
 10
288.0754994138931
 20
440.117439469351
 30
0.0
 11
360.4176421893186
 21
440.1174394693511
 31
0.0
  0
LINE
  5
40F0
330
1E
100
AcDbEntity
  8
TEXT
 62
     2
100
AcDbLine
 10
318.2034871187432
 20
211.4625063661617
 30
0.0
 11
287.1562299203645
 21
196.4524519062176
 31
0.0
  0
LINE
  5
40F1
330
1E
100
AcDbEntity
  8
STEMPEL
100
AcDbLine
 10
135.2930138351641
 20
578.1174394693502
 30
0.0
 11
367.8579849926198
 21
578.1174394693501
 31
0.0
  0
LINE
  5
40FD
330
1E
100
AcDbEntity
  8
STEMPEL
100
AcDbLine
 10
129.0754994138917
 20
578.1174394693501
 30
0.0
 11
374.0754994138918
 21
578.1174394693501
 31
0.0
  0
DIMENSION
  5
40FE
330
1E
100
AcDbEntity
  8
BEM
100
AcDbDimension
  2
*D1
 10
361.5754994138922
 20
702.9297924660848
 30
0.0
 11
251.5754994138921
 21
709.4297924660848
 31
0.0
 70
    32
  1
%%c<>
 71
     5
 42
220.0000000000002
  3
Standard
100
AcDbAlignedDimension
 13
141.575499413892
 23
674.117381502036
 33
0.0
 14
361.5754994138922
 24
674.117381502036
 34
0.0
100
AcDbRotatedDimension
1001
ACAD
1000
DSTYLE
1002
{
1070
    40
1040
2.0
1070
    41
1040
3.5
1070
    42
1040
1.0
1070
    43
1040
7.0
1070
    44
1040
1.0
1070
    73
1070
     0
1070
    74
1070
     0
1070
    77
1070
     1
1070
    78
1070
     8
1070
    79
1070
     2
1070
   140
1040
3.5
1070
   141
1040
1.5
1070
   146
1040
0.5142857142857144
1070
   147
1040
1.5
1070
   172
1070
     1
1070
   178
1070
     1
1070
   179
1070
     2
1070
   271
1070
     2
1070
   272
1070
     2
1070
   284
1070
     8
1070
   285
1070
     8
1070
   286
1070
     8
1070
   340
1005
24
1002
}
  0
DIMENSION
  5
40FF
330
1E
100
AcDbEntity
  8
BEM
100
AcDbDimension
  2
*D2
 10
381.5754994138917
 20
716.4249937803922
 30
0.0
 11
251.5754994138919
 21
722.9249937803922
 31
0.0
 70
    32
  1
%%c<>
 71
     5
 42
259.9999999999998
  3
Standard
100
AcDbAlignedDimension
 13
121.575499413892
 23
605.1174394693515
 33
0.0
 14
381.5754994138917
 24
605.1174394693518
 34
0.0
100
AcDbRotatedDimension
1001
ACAD
1000
DSTYLE
1002
{
1070
    40
1040
2.0
1070
    41
1040
3.5
1070
    42
1040
1.0
1070
    43
1040
7.0
1070
    44
1040
1.0
1070
    73
1070
     0
1070
    74
1070
     0
1070
    77
1070
     1
1070
    78
1070
     8
1070
    79
1070
     2
1070
   140
1040
3.5
1070
   141
1040
1.5
1070
   146
1040
0.5142857142857144
1070
   147
1040
1.5
1070
   172
1070
     1
1070
   178
1070
     1
1070
   179
1070
     2
1070
   271
1070
     2
1070
   272
1070
     2
1070
   284
1070
     8
1070
   285
1070
     8
1070
   286
1070
     8
1070
   340
1005
24
1002
}
  0
HATCH
  5
4101
330
1E
100
AcDbEntity
  8
SCHRAFF
100
AcDbHatch
 10
0.0
 20
0.0
 30
0.0
210
0.0
220
0.0
230
1.0
  2
_USER
 70
     0
 71
     1
 91
        2
 92
        7
 72
     1
 73
     1
 93
       20
 10
216.575499413894
 20
306.3002852290296
 42
0.1346873523285371
 10
215.2454994138941
 20
311.1480785414551
 42
-0.1346873523285409
 10
213.775499413894
 20
316.5061658867679
 42
0.0
 10
213.7754994138922
 20
391.6174394693509
 42
0.092693060336358
 10
212.8633055293951
 20
396.4956704190401
 42
-0.0934034108731739
 10
211.2754994138921
 20
405.0536394361497
 42
0.0
 10
211.2754994138921
 20
420.5685170622324
 42
-0.1093332246020502
 10
213.4700259253123
 20
430.4845041249218
 42
0.0
 10
212.1101020856166
 20
431.1174394693512
 42
0.1093332246020707
 10
209.7754994138921
 20
420.568517062233
 42
0.0
 10
209.7754994138921
 20
404.9191594211653
 42
0.0920044384191259
 10
211.4646604054503
 20
395.9536447579635
 42
-0.0926930603363501
 10
212.2754994138921
 20
391.6174394693512
 42
0.0
 10
212.275499413894
 20
316.5061658867679
 42
0.1346873523285361
 10
213.955499413894
 20
310.3826374921249
 42
-0.1346873523285467
 10
215.0754994138941
 20
306.3002852290294
 42
0.0
 10
215.0754994138922
 20
173.0519480549876
 42
0.0
 10
215.5072129752067
 20
168.1174394693503
 42
0.0
 10
217.0129427315219
 20
168.1174394693502
 42
0.0
 10
216.5754994138922
 20
173.1174394693504
 42
0.0
 97
       20
330
4125
330
4128
330
4122
330
412B
330
4129
330
4109
330
4232
330
4231
330
422D
330
410A
330
412A
330
412C
330
4121
330
4127
330
4126
330
4112
330
4117
330
4116
330
4118
330
4111
 92
        7
 72
     1
 73
     1
 93
       20
 10
288.0754994138941
 20
306.3002852290299
 42
-0.1346873523284958
 10
289.1954994138901
 20
310.3826374921249
 42
0.1346873523285353
 10
290.87549941389
 20
316.5061658867679
 42
0.0
 10
290.875499413892
 20
391.6174394693509
 42
-0.0926930603363638
 10
291.6863384223339
 20
395.9536447579637
 42
0.0920044384190542
 10
293.375499413892
 20
404.9191594211585
 42
0.0
 10
293.375499413892
 20
420.5685170622324
 42
0.109333224602077
 10
291.0408967421675
 20
431.1174394693512
 42
0.0
 10
289.680972902472
 20
430.4845041249219
 42
-0.1093332246020451
 10
291.875499413892
 20
420.5685170622329
 42
0.0
 10
291.875499413892
 20
405.0536394361403
 42
-0.0934034108730753
 10
290.2876932983889
 20
396.4956704190398
 42
0.0926930603363437
 10
289.375499413892
 20
391.6174394693514
 42
0.0
 10
289.37549941389
 20
316.5061658867679
 42
-0.1346873523285341
 10
287.9054994138901
 20
311.1480785414553
 42
0.1346873523285118
 10
286.5754994138941
 20
306.3002852290297
 42
0.0
 10
286.5754994138923
 20
173.117439469359
 42
0.0
 10
286.1380560962619
 20
168.1174394693503
 42
0.0
 10
287.6437858525768
 20
168.1174394693503
 42
0.0
 10
288.0754994138923
 20
173.0519480549974
 42
0.0
 97
       20
330
413A
330
4138
330
4134
330
413E
330
413D
330
4107
330
423A
330
423E
330
4239
330
4108
330
413C
330
413F
330
4135
330
413B
330
4139
330
4113
330
4119
330
4116
330
411A
330
4114
 75
     0
 76
     0
 52
135.0
 41
3.0
 77
     0
 78
     1
 53
135.0
 43
0.0000000000002274
 44
0.0
 45
-2.121320343559642
 46
-2.121320343559642
 79
     0
 47
0.6225103774773377
 98
        2
 10
215.4299004798484
 20
296.2131869917221
 10
287.6898158082474
 20
293.7231454818127
  0
LINE
  5
4102
102
{ACAD_REACTORS
330
40DE
102
}
330
1E
100
AcDbEntity
  8
STEMPEL
100
AcDbLine
 10
198.953633861238
 20
425.5221611302757
 30
0.0
 11
209.7754994138924
 21
413.7121672552368
 31
0.0
  0
LINE
  5
4103
102
{ACAD_REACTORS
330
40DE
102
}
330
1E
100
AcDbEntity
  8
STEMPEL
100
AcDbLine
 10
197.4790791876179
 20
424.1709807150442
 30
0.0
 11
207.607783614336
 21
413.1174394693501
 31
0.0
  0
HATCH
  5
4104
330
1E
100
AcDbEntity
  8
SCHRAFF
100
AcDbHatch
 10
0.0
 20
0.0
 30
0.0
210
0.0
220
0.0
230
1.0
  2
_USER
 70
     0
 71
     1
 91
        2
 92
        7
 72
     1
 73
     1
 93
       10
 10
216.5754994138938
 20
555.4250513139248
 42
0.1989123673796635
 10
214.6716934916067
 20
560.0212453916376
 42
0.0
 10
209.0632331286881
 20
565.6297057545554
 42
0.0
 10
208.0025729569085
 20
564.5690455827757
 42
0.0
 10
213.6110333198269
 20
558.9605852198578
 42
-0.1989123673796778
 10
215.0754994138942
 20
555.4250513139248
 42
0.0
 10
215.0754994138922
 20
323.0519480549875
 42
0.0
 10
215.5072129752068
 20
318.1174394693502
 42
0.0
 10
217.0129427315217
 20
318.1174394693501
 42
0.0
 10
216.575499413892
 20
323.1174394693505
 42
0.0
 97
       10
330
4247
330
414B
330
424A
330
4248
330
424B
330
410D
330
4123
330
4120
330
4124
330
410E
 92
        7
 72
     1
 73
     1
 93
       10
 10
288.0754994138943
 20
555.4250513139252
 42
-0.1989123673795876
 10
289.5399655079575
 20
558.9605852198583
 42
0.0
 10
295.1361595856716
 20
564.5567792975716
 42
0.0
 10
294.0754994138922
 20
565.6174394693514
 42
0.0
 10
288.4793053361779
 20
560.0212453916379
 42
0.1989123673796122
 10
286.5754994138942
 20
555.4250513139249
 42
0.0
 10
286.575499413892
 20
323.1174394693561
 42
0.0
 10
286.1380560962617
 20
318.1174394693502
 42
0.0
 10
287.6437858525766
 20
318.1174394693501
 42
0.0
 10
288.075499413892
 20
323.0519480549965
 42
0.0
 97
       10
330
426D
330
426C
330
426F
330
40E3
330
426E
330
410C
330
4136
330
4120
330
4137
330
410B
 75
     0
 76
     0
 52
135.0
 41
2.0
 77
     0
 78
     1
 53
135.0
 43
0.0000000000002274
 44
0.0
 45
-1.414213562373095
 46
-1.414213562373094
 79
     0
 47
0.508627633705499
 98
        2
 10
215.7523326652474
 20
510.8939357703923
 10
287.0082367683947
 20
528.1872764120492
  0
HATCH
  5
4105
330
1E
100
AcDbEntity
  8
SCHRAFF
100
AcDbHatch
 10
0.0
 20
0.0
 30
0.0
210
0.0
220
0.0
230
1.0
  2
NET
 70
     0
 71
     0
 91
        2
 92
        7
 72
     1
 73
     1
 93
       13
 10
288.0754994138927
 20
414.4949404701547
 42
0.1285176405214172
 10
289.2835986574373
 20
416.1174394693512
 42
0.075813045109402
 10
289.5621493557915
 20
417.2909088571064
 42
-1.021524369171772
 10
290.922131190385
 20
417.4871462526094
 42
0.0
 10
291.3038523181737
 20
415.6608125335936
 42
0.0
 10
291.875499413892
 20
415.6608125335935
 42
0.0
 10
291.875499413892
 20
420.5685170622324
 42
0.1093332246020502
 10
289.6809729024719
 20
430.4845041249218
 42
0.0
 10
291.0408967421675
 20
431.1174394693512
 42
0.0
 10
293.3754994138896
 20
431.1174394693511
 42
0.0
 10
290.8436726466669
 20
435.6085243661836
 42
0.7040385315423109
 10
288.9877531763054
 20
435.2910876470182
 42
0.0
 10
288.0754994138929
 20
430.1174394693708
 42
0.0
 97
        0
 92
        7
 72
     1
 73
     1
 93
       13
 10
215.075499413893
 20
430.1174394693311
 42
0.0
 10
214.1632456514737
 20
435.2910876470182
 42
0.7040385315425906
 10
212.3073261811121
 20
435.6085243661836
 42
0.0
 10
209.7754994138895
 20
431.1174394693511
 42
0.0
 10
212.1101020856166
 20
431.1174394693513
 42
0.0
 10
213.4700259253122
 20
430.4845041249219
 42
0.109333224602045
 10
211.2754994138921
 20
420.5685170622329
 42
0.0
 10
211.2754994138921
 20
415.6608125335936
 42
0.0
 10
211.8471465096052
 20
415.6608125335937
 42
0.0
 10
212.2288676373938
 20
417.487146252608
 42
-1.021524369174619
 10
213.5888494719874
 20
417.2909088571063
 42
0.0758130451093995
 10
213.8674001703416
 20
416.1174394693512
 42
0.1285176405219647
 10
215.0754994138929
 20
414.4949404701493
 42
0.0
 97
        0
 75
     0
 76
     1
 52
45.0
 41
15.0
 77
     0
 78
     2
 53
45.0
 43
20.17268000242052
 44
-67.90875063864087
 45
-1.325825214724776
 46
1.325825214724776
 79
     0
 53
135.0
 43
20.17268000242052
 44
-67.90875063864087
 45
-1.325825214724776
 46
-1.325825214724776
 79
     0
 47
0.2686080656016512
 98
        2
 10
289.1622795879905
 20
423.1125023446286
 10
214.1675204759983
 20
422.8438939195655
  0
DIMENSION
  5
4106
330
1E
100
AcDbEntity
  8
BEM
100
AcDbDimension
  2
*D3
 10
113.1946230744022
 20
428.1174394693504
 30
0.0
 11
106.6946230744021
 21
298.1174394693504
 31
0.0
 70
    32
 71
     5
 42
260.0
  3
Standard
100
AcDbAlignedDimension
 13
215.5072129752068
 23
168.1174394693503
 33
0.0
 14
129.2930138351642
 24
428.1174394693503
 34
0.0
 50
90.0
100
AcDbRotatedDimension
1001
ACAD
1000
DSTYLE
1002
{
1070
    40
1040
2.0
1070
    41
1040
3.5
1070
    42
1040
1.0
1070
    43
1040
7.0
1070
    44
1040
1.0
1070
    47
1040
2.0
1070
    48
1040
2.0
1070
    73
1070
     0
1070
    74
1070
     0
1070
    77
1070
     1
1070
    78
1070
     8
1070
    79
1070
     2
1070
   140
1040
3.5
1070
   141
1040
1.5
1070
   146
1040
0.5142857142857144
1070
   147
1040
1.5
1070
   172
1070
     1
1070
   178
1070
     1
1070
   179
1070
     2
1070
   279
1070
     0
1002
}
  0
LINE
  5
4107
102
{ACAD_REACTORS
330
4101
102
}
330
1E
100
AcDbEntity
  8
STEMPEL
  6
Continuous
100
AcDbLine
 10
293.375499413892
 20
420.5685170622324
 30
0.0
 11
293.375499413892
 21
405.0557195175415
 31
0.0
  0
LINE
  5
4108
102
{ACAD_REACTORS
330
4101
102
}
330
1E
100
AcDbEntity
  8
STEMPEL
  6
Continuous
100
AcDbLine
 10
291.875499413892
 20
420.5685170622324
 30
0.0
 11
291.875499413892
 21
404.92123950256
 31
0.0
  0
LINE
  5
4109
102
{ACAD_REACTORS
330
4101
102
}
330
1E
100
AcDbEntity
  8
STEMPEL
  6
Continuous
100
AcDbLine
 10
211.2754994138921
 20
420.5685170622324
 30
0.0
 11
211.2754994138921
 21
404.92123950256
 31
0.0
  0
LINE
  5
410A
102
{ACAD_REACTORS
330
4101
102
}
330
1E
100
AcDbEntity
  8
STEMPEL
  6
Continuous
100
AcDbLine
 10
209.7754994138921
 20
420.5685170622324
 30
0.0
 11
209.7754994138921
 21
405.0557195175415
 31
0.0
  0
LINE
  5
410B
102
{ACAD_REACTORS
330
4104
102
}
330
1E
100
AcDbEntity
  8
STEMPEL
  6
Continuous
100
AcDbLine
 10
288.0754994138943
 20
555.4250513139252
 30
0.0
 11
288.075499413892
 21
323.051948054997
 31
0.0
  0
LINE
  5
410C
102
{ACAD_REACTORS
330
4104
102
}
330
1E
100
AcDbEntity
  8
STEMPEL
  6
Continuous
100
AcDbLine
 10
286.5754994138942
 20
555.4250513139253
 30
0.0
 11
286.575499413892
 21
323.1174394693563
 31
0.0
  0
LINE
  5
410D
102
{ACAD_REACTORS
330
4104
102
}
330
1E
100
AcDbEntity
  8
STEMPEL
  6
Continuous
100
AcDbLine
 10
215.0754994138942
 20
555.4250513139249
 30
0.0
 11
215.0754994138922
 21
323.0519480549877
 31
0.0
  0
LINE
  5
410E
102
{ACAD_REACTORS
330
4104
102
}
330
1E
100
AcDbEntity
  8
STEMPEL
  6
Continuous
100
AcDbLine
 10
216.5754994138938
 20
555.4250513139248
 30
0.0
 11
216.575499413892
 21
323.1174394693502
 31
0.0
  0
LINE
  5
410F
330
1E
100
AcDbEntity
  8
MITTEL
100
AcDbLine
 10
251.5754994138918
 20
700.6174394693512
 30
0.0
 11
251.5754994138919
 21
163.1174394693503
 31
0.0
  0
DIMENSION
  5
4110
330
1E
100
AcDbEntity
  8
BEM
100
AcDbDimension
  2
*D4
 10
288.0754994138921
 20
150.1952762542607
 30
0.0
 11
251.5754994138922
 21
156.6952762542607
 31
0.0
 70
    32
  1
%%c<>
 71
     5
 42
72.99999999999989
  3
Standard
100
AcDbAlignedDimension
 13
215.0754994138922
 23
173.0519480549883
 33
0.0
 14
288.0754994138921
 24
173.0519480549881
 34
0.0
100
AcDbRotatedDimension
1001
ACAD
1000
DSTYLE
1002
{
1070
    40
1040
2.0
1070
    41
1040
3.5
1070
    42
1040
1.0
1070
    43
1040
7.0
1070
    44
1040
1.0
1070
    47
1040
0.7
1070
    48
1040
0.7
1070
    73
1070
     0
1070
    74
1070
     0
1070
    77
1070
     1
1070
    78
1070
     8
1070
    79
1070
     2
1070
   140
1040
3.5
1070
   141
1040
1.5
1070
   147
1040
1.5
1070
   172
1070
     1
1070
   178
1070
     1
1070
   179
1070
     2
1070
   279
1070
     0
1002
}
  0
LINE
  5
4111
102
{ACAD_REACTORS
330
4101
102
}
330
1E
100
AcDbEntity
  8
STEMPEL
  6
Continuous
100
AcDbLine
 10
216.575499413894
 20
306.3002852290296
 30
0.0
 11
216.5754994138922
 21
173.1174394693503
 31
0.0
  0
LINE
  5
4112
102
{ACAD_REACTORS
330
4101
102
}
330
1E
100
AcDbEntity
  8
STEMPEL
  6
Continuous
100
AcDbLine
 10
215.0754994138941
 20
306.3002852290297
 30
0.0
 11
215.0754994138922
 21
173.0519480549883
 31
0.0
  0
LINE
  5
4113
102
{ACAD_REACTORS
330
4101
102
}
330
1E
100
AcDbEntity
  8
STEMPEL
  6
Continuous
100
AcDbLine
 10
286.5754994138941
 20
306.3002852290298
 30
0.0
 11
286.5754994138922
 21
173.1174394693586
 31
0.0
  0
LINE
  5
4114
102
{ACAD_REACTORS
330
4101
102
}
330
1E
100
AcDbEntity
  8
STEMPEL
  6
Continuous
100
AcDbLine
 10
288.0754994138941
 20
306.3002852290299
 30
0.0
 11
288.0754994138922
 21
173.1174394693503
 31
0.0
  0
LINE
  5
4115
330
1E
100
AcDbEntity
  8
HILF
100
AcDbLine
 10
285.0697696575764
 20
173.1174394693503
 30
0.0
 11
218.0812291702073
 21
173.1174394693503
 31
0.0
  0
LINE
  5
4116
102
{ACAD_REACTORS
330
4101
102
}
330
1E
100
AcDbEntity
  8
STEMPEL
100
AcDbLine
 10
287.6437858525768
 20
168.1174394693503
 30
0.0
 11
215.5072129752068
 21
168.1174394693503
 31
0.0
  0
LINE
  5
4117
102
{ACAD_REACTORS
330
4101
102
}
330
1E
100
AcDbEntity
  8
STEMPEL
100
AcDbLine
 10
215.0754994138922
 20
173.0519480549883
 30
0.0
 11
215.5072129752068
 21
168.1174394693503
 31
0.0
  0
LINE
  5
4118
102
{ACAD_REACTORS
330
4101
102
}
330
1E
100
AcDbEntity
  8
STEMPEL
100
AcDbLine
 10
216.5754994138922
 20
173.1174394693503
 30
0.0
 11
217.0129427315219
 21
168.1174394693503
 31
0.0
  0
LINE
  5
4119
102
{ACAD_REACTORS
330
4101
102
}
330
1E
100
AcDbEntity
  8
STEMPEL
100
AcDbLine
 10
286.5754994138922
 20
173.1174394693586
 30
0.0
 11
286.1380560962619
 21
168.1174394693503
 31
0.0
  0
LINE
  5
411A
102
{ACAD_REACTORS
330
4101
102
}
330
1E
100
AcDbEntity
  8
STEMPEL
100
AcDbLine
 10
288.069791461029
 20
172.9867058552288
 30
0.0
 11
287.6437858525768
 21
168.1174394693503
 31
0.0
  0
HATCH
  5
411B
330
1E
100
AcDbEntity
  8
SCHRAFF
100
AcDbHatch
 10
0.0
 20
0.0
 30
0.0
210
0.0
220
0.0
230
1.0
  2
_USER
 70
     0
 71
     0
 91
        2
 92
        7
 72
     1
 73
     1
 93
        5
 10
209.7754994138924
 20
413.7121672552369
 42
0.0
 10
209.0823382879563
 20
414.4686198845814
 42
0.0
 10
207.6077836143361
 20
413.1174394693503
 42
0.0
 10
206.7902791111103
 20
414.0095890833828
 42
0.4436072552951912
 10
209.7754994138924
 20
410.7121672552368
 42
0.0
 97
        0
 92
        7
 72
     1
 73
     1
 93
        5
 10
296.3607197166742
 20
414.0095890833833
 42
0.0
 10
295.5432152134481
 20
413.1174394693503
 42
0.0
 10
294.0686605398279
 20
414.4686198845814
 42
0.0
 10
293.3754994138923
 20
413.7121672552372
 42
0.0
 10
293.3754994138923
 20
410.7121672552372
 42
0.4436072552951932
 97
        0
 75
     0
 76
     0
 52
45.0
 41
0.1
 77
     0
 78
     1
 53
45.0
 43
31.08896478471513
 44
-36.59366315087982
 45
-0.0707106781186548
 46
0.0707106781186548
 79
     0
 47
0.1418006302582077
 98
        2
 10
208.5623145631715
 20
412.1652620753602
 10
294.8418672175502
 20
412.5906645374905
  0
LINE
  5
411C
330
1E
100
AcDbEntity
  8
HILF
  6
Continuous
100
AcDbLine
 10
217.8217648895337
 20
309.2409118554066
 30
0.0
 11
285.3292339382541
 21
309.2409118554066
 31
0.0
  0
LINE
  5
411D
330
1E
100
AcDbEntity
  8
HILF
  6
Continuous
100
AcDbLine
 10
216.0383709583675
 20
313.762633779119
 30
0.0
 11
287.1126278694164
 21
313.762633779119
 31
0.0
  0
LINE
  5
411E
330
1E
100
AcDbEntity
  8
HILF
100
AcDbLine
 10
285.0697696575764
 20
323.1174394693502
 30
0.0
 11
218.081229170207
 21
323.1174394693502
 31
0.0
  0
LINE
  5
411F
330
1E
100
AcDbEntity
  8
STEMPEL
100
AcDbLine
 10
287.5505982134626
 20
318.1161449156227
 30
0.0
 11
215.600400614321
 21
318.1161449156227
 31
0.0
  0
LINE
  5
4120
102
{ACAD_REACTORS
330
4104
102
}
330
1E
100
AcDbEntity
  8
STEMPEL
100
AcDbLine
 10
287.6437858525767
 20
318.1174394693501
 30
0.0
 11
215.5072129752068
 21
318.1174394693501
 31
0.0
  0
LINE
  5
4121
102
{ACAD_REACTORS
330
4101
102
}
330
1E
100
AcDbEntity
  8
STEMPEL
  6
Continuous
100
AcDbLine
 10
212.2754994138921
 20
391.6174394693509
 30
0.0
 11
212.275499413894
 21
316.5061658867679
 31
0.0
  0
LINE
  5
4122
102
{ACAD_REACTORS
330
4101
102
}
330
1E
100
AcDbEntity
  8
STEMPEL
  6
Continuous
100
AcDbLine
 10
213.7754994138922
 20
391.6174394693509
 30
0.0
 11
213.775499413894
 21
316.5061658867679
 31
0.0
  0
LINE
  5
4123
102
{ACAD_REACTORS
330
4104
102
}
330
1E
100
AcDbEntity
  8
STEMPEL
100
AcDbLine
 10
215.0754994138922
 20
323.0519480549877
 30
0.0
 11
215.5072129752068
 21
318.1174394693501
 31
0.0
  0
LINE
  5
4124
102
{ACAD_REACTORS
330
4104
102
}
330
1E
100
AcDbEntity
  8
STEMPEL
100
AcDbLine
 10
216.575499413892
 20
323.1174394693502
 30
0.0
 11
217.0129427315217
 21
318.1174394693501
 31
0.0
  0
ARC
  5
4125
102
{ACAD_REACTORS
330
4101
102
}
330
1E
100
AcDbEntity
  8
STEMPEL
  6
Continuous
100
AcDbCircle
 10
207.0754994138944
 20
306.3002852290297
 30
0.0
 40
9.499999999999602
100
AcDbArc
 50
0.0
 51
30.68341710897518
  0
ARC
  5
4126
102
{ACAD_REACTORS
330
4101
102
}
330
1E
100
AcDbEntity
  8
STEMPEL
  6
Continuous
100
AcDbCircle
 10
207.0754994138944
 20
306.3002852290298
 30
0.0
 40
7.999999999999658
100
AcDbArc
 50
0.0
 51
30.68341710897518
  0
ARC
  5
4127
102
{ACAD_REACTORS
330
4101
102
}
330
1E
100
AcDbEntity
  8
STEMPEL
  6
Continuous
100
AcDbCircle
 10
224.275499413894
 20
316.5061658867679
 30
0.0
 40
12.0
100
AcDbArc
 50
180.0
 51
210.6834171089752
  0
ARC
  5
4128
102
{ACAD_REACTORS
330
4101
102
}
330
1E
100
AcDbEntity
  8
STEMPEL
  6
Continuous
100
AcDbCircle
 10
224.275499413894
 20
316.5061658867679
 30
0.0
 40
10.5
100
AcDbArc
 50
180.0
 51
210.6834171089752
  0
ARC
  5
4129
102
{ACAD_REACTORS
330
4101
102
}
330
1E
100
AcDbEntity
  8
STEMPEL
  6
Continuous
100
AcDbCircle
 10
234.7754994138921
 20
404.9874394693508
 30
0.0
 40
23.50009324312573
100
AcDbArc
 50
179.8435140456656
 51
201.183154393037
  0
ARC
  5
412A
102
{ACAD_REACTORS
330
4101
102
}
330
1E
100
AcDbEntity
  8
STEMPEL
  6
Continuous
100
AcDbCircle
 10
234.7754994138921
 20
404.9874394693508
 30
0.0
 40
25.00009324312574
100
AcDbArc
 50
179.8435140456656
 51
201.183154393037
  0
ARC
  5
412B
102
{ACAD_REACTORS
330
4101
102
}
330
1E
100
AcDbEntity
  8
STEMPEL
  6
Continuous
100
AcDbCircle
 10
200.2754994138921
 20
391.6174394693509
 30
0.0
 40
13.5
100
AcDbArc
 50
0.0
 51
21.183154393037
  0
ARC
  5
412C
102
{ACAD_REACTORS
330
4101
102
}
330
1E
100
AcDbEntity
  8
STEMPEL
  6
Continuous
100
AcDbCircle
 10
200.2754994138921
 20
391.6174394693509
 30
0.0
 40
12.0
100
AcDbArc
 50
0.0
 51
21.183154393037
  0
ARC
  5
412D
330
1E
100
AcDbEntity
  8
SCHRAFF
100
AcDbCircle
 10
209.7754994138924
 20
413.7121672552368
 30
0.0
 40
3.0
100
AcDbArc
 50
174.3103148957775
 51
270.0
  0
LINE
  5
412E
102
{ACAD_REACTORS
330
40DE
102
}
330
1E
100
AcDbEntity
  8
STEMPEL
100
AcDbLine
 10
207.607783614336
 20
413.1174394693501
 30
0.0
 11
209.0823382879563
 21
414.4686198845814
 31
0.0
  0
ARC
  5
412F
330
1E
100
AcDbEntity
  8
STEMPEL
100
AcDbCircle
 10
217.5754994138895
 20
417.6174394693513
 30
0.0
 40
4.0
100
AcDbArc
 50
184.6824168622688
 51
202.0243128370433
  0
ARC
  5
4130
330
1E
100
AcDbEntity
  8
STEMPEL
100
AcDbCircle
 10
217.5754994138895
 20
417.6174394693513
 30
0.0
 40
4.0
100
AcDbArc
 50
202.0243128370433
 51
231.3178125465761
  0
LINE
  5
4131
330
1E
100
AcDbEntity
  8
STEMPEL
100
AcDbLine
 10
211.8471465096052
 20
415.6608125335936
 30
0.0
 11
212.2524683360509
 21
417.6000631141908
 31
0.0
  0
LINE
  5
4132
330
1E
100
AcDbEntity
  8
STEMPEL
100
AcDbLine
 10
211.2754994138895
 20
415.6608125335936
 30
0.0
 11
214.0867158100718
 21
415.6608125335936
 31
0.0
  0
ARC
  5
4133
330
1E
100
AcDbEntity
  8
STEMPEL
100
AcDbCircle
 10
212.9109482475642
 20
417.403509730085
 30
0.0
 40
0.6871892218815297
100
AcDbArc
 50
350.5691490999344
 51
163.3798649374556
  0
LINE
  5
4134
102
{ACAD_REACTORS
330
4101
102
}
330
1E
100
AcDbEntity
  8
STEMPEL
  6
Continuous
100
AcDbLine
 10
290.875499413892
 20
391.6174394693509
 30
0.0
 11
290.87549941389
 21
316.5061658867679
 31
0.0
  0
LINE
  5
4135
102
{ACAD_REACTORS
330
4101
102
}
330
1E
100
AcDbEntity
  8
STEMPEL
  6
Continuous
100
AcDbLine
 10
289.375499413892
 20
391.6174394693509
 30
0.0
 11
289.37549941389
 21
316.5061658867679
 31
0.0
  0
LINE
  5
4136
102
{ACAD_REACTORS
330
4104
102
}
330
1E
100
AcDbEntity
  8
STEMPEL
100
AcDbLine
 10
286.575499413892
 20
323.1174394693563
 30
0.0
 11
286.1380560962616
 21
318.1174394693501
 31
0.0
  0
LINE
  5
4137
102
{ACAD_REACTORS
330
4104
102
}
330
1E
100
AcDbEntity
  8
STEMPEL
100
AcDbLine
 10
288.075499413892
 20
323.051948054997
 30
0.0
 11
287.6437858525767
 21
318.1174394693501
 31
0.0
  0
ARC
  5
4138
102
{ACAD_REACTORS
330
4101
102
}
330
1E
100
AcDbEntity
  8
STEMPEL
  6
Continuous
100
AcDbCircle
 10
278.87549941389
 20
316.5061658867679
 30
0.0
 40
12.0
100
AcDbArc
 50
329.3165828910248
 51
0.0
  0
ARC
  5
4139
102
{ACAD_REACTORS
330
4101
102
}
330
1E
100
AcDbEntity
  8
STEMPEL
  6
Continuous
100
AcDbCircle
 10
296.0754994138896
 20
306.3002852290297
 30
0.0
 40
9.499999999999602
100
AcDbArc
 50
149.3165828910248
 51
180.0
  0
ARC
  5
413A
102
{ACAD_REACTORS
330
4101
102
}
330
1E
100
AcDbEntity
  8
STEMPEL
  6
Continuous
100
AcDbCircle
 10
296.0754994138898
 20
306.3002852290298
 30
0.0
 40
7.999999999999658
100
AcDbArc
 50
149.3165828910248
 51
180.0
  0
ARC
  5
413B
102
{ACAD_REACTORS
330
4101
102
}
330
1E
100
AcDbEntity
  8
STEMPEL
  6
Continuous
100
AcDbCircle
 10
278.87549941389
 20
316.5061658867679
 30
0.0
 40
10.5
100
AcDbArc
 50
329.3165828910248
 51
0.0
  0
ARC
  5
413C
102
{ACAD_REACTORS
330
4101
102
}
330
1E
100
AcDbEntity
  8
STEMPEL
  6
Continuous
100
AcDbCircle
 10
268.375499413892
 20
404.9874394693508
 30
0.0
 40
23.50009324312573
100
AcDbArc
 50
338.816845606963
 51
0.1564859543343451
  0
ARC
  5
413D
102
{ACAD_REACTORS
330
4101
102
}
330
1E
100
AcDbEntity
  8
STEMPEL
  6
Continuous
100
AcDbCircle
 10
268.375499413892
 20
404.9874394693508
 30
0.0
 40
25.00009324312574
100
AcDbArc
 50
338.816845606963
 51
0.1564859543343451
  0
ARC
  5
413E
102
{ACAD_REACTORS
330
4101
102
}
330
1E
100
AcDbEntity
  8
STEMPEL
  6
Continuous
100
AcDbCircle
 10
302.8754994138921
 20
391.6174394693509
 30
0.0
 40
12.0
100
AcDbArc
 50
158.816845606963
 51
180.0
  0
ARC
  5
413F
102
{ACAD_REACTORS
330
4101
102
}
330
1E
100
AcDbEntity
  8
STEMPEL
  6
Continuous
100
AcDbCircle
 10
302.8754994138921
 20
391.6174394693509
 30
0.0
 40
13.5
100
AcDbArc
 50
158.816845606963
 51
180.0
  0
LINE
  5
4140
330
1E
100
AcDbEntity
  8
STEMPEL
100
AcDbLine
 10
291.3038523181738
 20
415.6608125335936
 30
0.0
 11
290.8985304917282
 21
417.6000631141908
 31
0.0
  0
LINE
  5
4141
330
1E
100
AcDbEntity
  8
STEMPEL
100
AcDbLine
 10
291.8754994138897
 20
415.6608125335936
 30
0.0
 11
289.0642830177073
 21
415.6608125335936
 31
0.0
  0
ARC
  5
4142
330
1E
100
AcDbEntity
  8
STEMPEL
100
AcDbCircle
 10
285.5754994138895
 20
417.6174394693513
 30
0.0
 40
4.0
100
AcDbArc
 50
337.9756871629567
 51
355.3175831377312
  0
ARC
  5
4143
330
1E
100
AcDbEntity
  8
STEMPEL
100
AcDbCircle
 10
290.2400505802148
 20
417.403509730085
 30
0.0
 40
0.6871892218815297
100
AcDbArc
 50
16.6201350625444
 51
189.4308509000656
  0
ARC
  5
4144
330
1E
100
AcDbEntity
  8
STEMPEL
100
AcDbCircle
 10
285.5754994138895
 20
417.6174394693513
 30
0.0
 40
4.0
100
AcDbArc
 50
308.682187453549
 51
337.9756871629567
  0
LINE
  5
4145
102
{ACAD_REACTORS
330
40DE
102
}
330
1E
100
AcDbEntity
  8
STEMPEL
100
AcDbLine
 10
295.543215213448
 20
413.1174394693501
 30
0.0
 11
294.0686605398279
 21
414.4686198845814
 31
0.0
  0
DIMENSION
  5
4146
330
1E
100
AcDbEntity
  8
BEM
100
AcDbDimension
  2
*D5
 10
113.1946230744022
 20
578.1174394693501
 30
0.0
 11
106.6946230744021
 21
503.1174394693502
 31
0.0
 70
    32
  1
min.35 - max.200
 71
     5
 42
149.9999999999998
  3
Standard
100
AcDbAlignedDimension
 13
129.0754994138918
 23
428.1174394693503
 33
0.0
 14
129.0754994138917
 24
578.1174394693501
 34
0.0
 50
90.0
100
AcDbRotatedDimension
1001
ACAD
1000
DSTYLE
1002
{
1070
    40
1040
2.0
1070
    41
1040
3.5
1070
    42
1040
1.0
1070
    43
1040
7.0
1070
    44
1040
1.0
1070
    73
1070
     0
1070
    74
1070
     0
1070
    77
1070
     1
1070
    78
1070
     8
1070
    79
1070
     2
1070
   140
1040
3.5
1070
   141
1040
1.5
1070
   146
1040
0.5142857142857144
1070
   147
1040
1.5
1070
   172
1070
     1
1070
   178
1070
     1
1070
   179
1070
     2
1070
   271
1070
     2
1070
   272
1070
     2
1070
   284
1070
     8
1070
   285
1070
     8
1070
   286
1070
     8
1070
   340
1005
24
1002
}
  0
DIMENSION
  5
4147
330
1E
100
AcDbEntity
  8
BEM
100
AcDbDimension
  2
*D6
 10
113.2136767489317
 20
584.1174394693502
 30
0.0
 11
106.7136767489316
 21
639.1174394693505
 31
0.0
 70
    32
 71
     5
 42
110.0000000000006
  3
Standard
100
AcDbAlignedDimension
 13
171.575499413892
 23
694.1174394693509
 33
0.0
 14
139.5754994138916
 24
584.1174394693502
 34
0.0
 50
90.0
100
AcDbRotatedDimension
1001
ACAD
1000
DSTYLE
1002
{
1070
    40
1040
2.0
1070
    41
1040
3.5
1070
    42
1040
1.0
1070
    43
1040
7.0
1070
    44
1040
1.0
1070
    73
1070
     0
1070
    74
1070
     0
1070
    77
1070
     1
1070
    78
1070
     8
1070
    79
1070
     2
1070
   140
1040
3.5
1070
   141
1040
1.5
1070
   146
1040
0.5142857142857144
1070
   147
1040
1.5
1070
   172
1070
     1
1070
   178
1070
     1
1070
   179
1070
     2
1070
   271
1070
     2
1070
   272
1070
     2
1070
   284
1070
     8
1070
   285
1070
     8
1070
   286
1070
     8
1070
   340
1005
24
1002
}
  0
LINE
  5
414A
330
1E
100
AcDbEntity
  8
STEMPEL
100
AcDbLine
 10
197.5044316020264
 20
574.3600801564696
 30
0.0
 11
207.649019566315
 21
564.2154921921822
 31
0.0
  0
LINE
  5
414B
102
{ACAD_REACTORS
330
4104
102
}
330
1E
100
AcDbEntity
  8
STEMPEL
100
AcDbLine
 10
198.9186451643995
 20
575.7742937188427
 30
0.0
 11
214.6716934916067
 21
560.0212453916376
 31
0.0
  0
LINE
  5
414C
330
1E
100
AcDbEntity
  8
STEMPEL
100
AcDbLine
 10
139.5754994138918
 20
440.117439469351
 30
0.0
 11
215.0754994138932
 21
440.117439469351
 31
0.0
  0
LINE
  5
4153
102
{ACAD_REACTORS
330
493C
102
}
330
1E
100
AcDbEntity
  8
STEMPEL
100
AcDbLine
 10
166.5754994138918
 20
434.1174394693503
 30
0.0
 11
211.4667344887424
 21
434.1174394693502
 31
0.0
  0
LINE
  5
4156
102
{ACAD_REACTORS
330
493C
102
}
330
1E
100
AcDbEntity
  8
STEMPEL
100
AcDbLine
 10
139.5754994138918
 20
440.117439469351
 30
0.0
 11
215.0754994138932
 21
440.117439469351
 31
0.0
  0
LINE
  5
4157
102
{ACAD_REACTORS
330
40DE
102
}
330
1E
100
AcDbEntity
  8
STEMPEL
100
AcDbLine
 10
129.0754994138918
 20
428.1174394693503
 30
0.0
 11
210.942459941527
 21
428.1174394693504
 31
0.0
  0
LINE
  5
4160
102
{ACAD_REACTORS
330
40DE
102
}
330
1E
100
AcDbEntity
  8
STEMPEL
100
AcDbLine
 10
135.2930138351638
 20
426.1174394693505
 30
0.0
 11
193.2617909149072
 21
426.11743946935
 31
0.0
  0
LINE
  5
4161
330
1E
100
AcDbEntity
  8
STEMPEL
100
AcDbLine
 10
199.1006256797397
 20
422.7638860787563
 30
0.0
 11
130.4897129762647
 21
422.7638860787563
 31
0.0
  0
ARC
  5
4168
102
{ACAD_REACTORS
330
40DE
102
}
330
1E
100
AcDbEntity
  8
STEMPEL
100
AcDbCircle
 10
135.2930138351638
 20
422.6174394693499
 30
0.0
 40
5.499999999999851
100
AcDbArc
 50
90.0
 51
135.0
  0
ARC
  5
4169
102
{ACAD_REACTORS
330
40DE
102
}
330
1E
100
AcDbEntity
  8
STEMPEL
100
AcDbCircle
 10
135.2930138351638
 20
422.6174394693499
 30
0.0
 40
3.499999999999851
100
AcDbArc
 50
90.0
 51
135.0
  0
LINE
  5
416A
102
{ACAD_REACTORS
330
493C
102
}
330
1E
100
AcDbEntity
  8
STEMPEL
100
AcDbLine
 10
139.5754994138918
 20
434.1174394693502
 30
0.0
 11
156.5754994138918
 21
434.1174394693503
 31
0.0
  0
LINE
  5
416D
102
{ACAD_REACTORS
330
40DE
102
}
330
1E
100
AcDbEntity
  8
STEMPEL
100
AcDbLine
 10
130.4897129762647
 20
422.7638860787565
 30
0.0
 11
132.8181401010107
 21
425.0923132035027
 31
0.0
  0
LINE
  5
416E
102
{ACAD_REACTORS
330
40DE
102
}
330
1E
100
AcDbEntity
  8
STEMPEL
100
AcDbLine
 10
129.0754994138916
 20
424.1780996411296
 30
0.0
 11
130.4897129762645
 21
422.7638860787563
 31
0.0
  0
LINE
  5
416F
102
{ACAD_REACTORS
330
40DE
102
}
330
1E
100
AcDbEntity
  8
STEMPEL
100
AcDbLine
 10
129.0754994138916
 20
424.1780996411296
 30
0.0
 11
131.4039265386376
 21
426.5065267658759
 31
0.0
  0
ARC
  5
4174
102
{ACAD_REACTORS
330
493C
102
}
330
1E
100
AcDbEntity
  8
STEMPEL
100
AcDbCircle
 10
139.5754994138918
 20
437.1174394693509
 30
0.0
 40
3.0
100
AcDbArc
 50
90.0
 51
270.0
  0
POINT
  5
4175
330
1E
100
AcDbEntity
  8
BEM
100
AcDbPoint
 10
136.5754994138918
 20
437.1174394693509
 30
0.0
  0
LINE
  5
4176
102
{ACAD_REACTORS
330
493C
102
}
330
1E
100
AcDbEntity
  8
STEMPEL
100
AcDbLine
 10
155.0754994138918
 20
440.117439469351
 30
0.0
 11
155.0754994138918
 21
434.1174394693502
 31
0.0
  0
LINE
  5
4177
330
1E
100
AcDbEntity
  8
STEMPEL
100
AcDbLine
 10
156.5754994138917
 20
440.117439469351
 30
0.0
 11
156.5754994138918
 21
428.1174394693503
 31
0.0
  0
LINE
  5
4178
330
1E
100
AcDbEntity
  8
HILF
100
AcDbLine
 10
157.5754994138918
 20
440.117439469351
 30
0.0
 11
157.5754994138918
 21
428.1174394693503
 31
0.0
  0
LINE
  5
4181
102
{ACAD_REACTORS
330
40DE
102
}
330
1E
100
AcDbEntity
  8
MITTEL
100
AcDbLine
 10
161.5754994138918
 20
458.1174394693503
 30
0.0
 11
161.5754994138918
 21
423.1174394693501
 31
0.0
  0
LINE
  5
4185
102
{ACAD_REACTORS
330
493C
102
}
330
1E
100
AcDbEntity
  8
STEMPEL
100
AcDbLine
 10
168.0754994138918
 20
440.117439469351
 30
0.0
 11
168.0754994138918
 21
434.1174394693502
 31
0.0
  0
LINE
  5
4186
330
1E
100
AcDbEntity
  8
HILF
100
AcDbLine
 10
165.5754994138918
 20
440.117439469351
 30
0.0
 11
165.5754994138918
 21
428.1174394693501
 31
0.0
  0
LINE
  5
4187
330
1E
100
AcDbEntity
  8
STEMPEL
100
AcDbLine
 10
166.5754994138918
 20
440.117439469351
 30
0.0
 11
166.5754994138918
 21
428.1174394693501
 31
0.0
  0
ARC
  5
418F
102
{ACAD_REACTORS
330
493C
102
}
330
1E
100
AcDbEntity
  8
STEMPEL
100
AcDbCircle
 10
186.0754994138921
 20
437.1174394693512
 30
0.0
 40
3.0
100
AcDbArc
 50
270.0
 51
90.0
  0
ARC
  5
4192
102
{ACAD_REACTORS
330
40DE
102
}
330
1E
100
AcDbEntity
  8
STEMPEL
100
AcDbCircle
 10
193.0554151667573
 20
420.11743946935
 30
0.0
 40
8.0
100
AcDbArc
 50
42.50000000000679
 51
90.0
  0
ARC
  5
4193
102
{ACAD_REACTORS
330
40DE
102
}
330
1E
100
AcDbEntity
  8
STEMPEL
100
AcDbCircle
 10
193.0554151667573
 20
420.11743946935
 30
0.0
 40
6.0
100
AcDbArc
 50
42.50000000000679
 51
90.0
  0
LINE
  5
41A0
330
1E
100
AcDbEntity
  8
STEMPEL
100
AcDbLine
 10
135.2930138351637
 20
576.1174394693503
 30
0.0
 11
193.2617909149071
 21
576.1174394693498
 31
0.0
  0
LINE
  5
41A1
330
1E
100
AcDbEntity
  8
STEMPEL
100
AcDbLine
 10
199.1006256797395
 20
572.7638860787562
 30
0.0
 11
130.4897129762646
 21
572.7638860787562
 31
0.0
  0
ARC
  5
41B0
330
1E
100
AcDbEntity
  8
STEMPEL
100
AcDbCircle
 10
135.2930138351637
 20
572.6174394693497
 30
0.0
 40
5.499999999999851
100
AcDbArc
 50
90.0
 51
135.0
  0
ARC
  5
41B1
330
1E
100
AcDbEntity
  8
STEMPEL
100
AcDbCircle
 10
135.2930138351637
 20
572.6174394693497
 30
0.0
 40
3.499999999999851
100
AcDbArc
 50
90.0
 51
135.0
  0
LINE
  5
41B7
330
1E
100
AcDbEntity
  8
STEMPEL
100
AcDbLine
 10
130.4897129762646
 20
572.7638860787565
 30
0.0
 11
132.8181401010106
 21
575.0923132035025
 31
0.0
  0
LINE
  5
41B8
330
1E
100
AcDbEntity
  8
STEMPEL
100
AcDbLine
 10
129.0754994138915
 20
574.1780996411295
 30
0.0
 11
130.4897129762644
 21
572.7638860787562
 31
0.0
  0
LINE
  5
41B9
330
1E
100
AcDbEntity
  8
STEMPEL
100
AcDbLine
 10
129.0754994138915
 20
574.1780996411295
 30
0.0
 11
131.4039265386375
 21
576.5065267658757
 31
0.0
  0
POINT
  5
41C4
330
1E
100
AcDbEntity
  8
BEM
100
AcDbPoint
 10
136.5754994138917
 20
587.1174394693507
 30
0.0
  0
ARC
  5
420B
330
1E
100
AcDbEntity
  8
STEMPEL
100
AcDbCircle
 10
193.2617909149073
 20
570.11743946935
 30
0.0
 40
8.0
100
AcDbArc
 50
45.0
 51
90.0
  0
ARC
  5
420C
330
1E
100
AcDbEntity
  8
STEMPEL
100
AcDbCircle
 10
193.2617909149073
 20
570.11743946935
 30
0.0
 40
6.0
100
AcDbArc
 50
45.0
 51
90.0
  0
TEXT
  5
4227
330
1E
100
AcDbEntity
  8
TEXT
 62
     1
100
AcDbText
 10
244.9667846841526
 20
474.6339188594031
 30
0.0
 40
7.0
  1
DN70
 50
90.0
 41
0.8
  7
GREEKS
100
AcDbText
  0
LINE
  5
422A
330
1E
100
AcDbEntity
  8
MITTEL
100
AcDbLine
 10
206.5754994138917
 20
458.1174394693503
 30
0.0
 11
206.5754994138917
 21
423.1174394693501
 31
0.0
  0
LINE
  5
422B
330
1E
100
AcDbEntity
  8
STEMPEL
100
AcDbLine
 10
212.110102085614
 20
431.1174394693512
 30
0.0
 11
209.7754994138895
 21
431.1174394693512
 31
0.0
  0
LINE
  5
422C
330
1E
100
AcDbEntity
  8
STEMPEL
100
AcDbLine
 10
209.7754994138895
 20
431.1174394693512
 30
0.0
 11
212.3073261811121
 21
435.6085243661836
 31
0.0
  0
ARC
  5
422D
102
{ACAD_REACTORS
330
4101
102
}
330
1E
100
AcDbEntity
  8
STEMPEL
  6
Continuous
100
AcDbCircle
 10
234.7754994138921
 20
420.5685170622325
 30
0.0
 40
25.0
100
AcDbArc
 50
155.0418036876905
 51
180.0
  0
LINE
  5
422E
330
1E
100
AcDbEntity
  8
STEMPEL
100
AcDbLine
 10
215.0754994138895
 20
430.1174394693513
 30
0.0
 11
214.1632456514737
 21
435.2910876470182
 31
0.0
  0
ARC
  5
422F
330
1E
100
AcDbEntity
  8
STEMPEL
100
AcDbCircle
 10
213.1784378984614
 20
435.1174394693512
 30
0.0
 40
1.0
100
AcDbArc
 50
9.999999999998609
 51
150.5880863344665
  0
LINE
  5
4230
330
1E
100
AcDbEntity
  8
STEMPEL
100
AcDbLine
 10
213.1784378984614
 20
436.1174394693512
 30
0.0
 11
215.0754994138931
 21
436.1174394693512
 31
0.0
  0
LINE
  5
4231
102
{ACAD_REACTORS
330
4101
102
}
330
1E
100
AcDbEntity
  8
STEMPEL
100
AcDbLine
 10
213.4700259253122
 20
430.4845041249219
 30
0.0
 11
212.1101020856166
 21
431.1174394693512
 31
0.0
  0
ARC
  5
4232
102
{ACAD_REACTORS
330
4101
102
}
330
1E
100
AcDbEntity
  8
STEMPEL
  6
Continuous
100
AcDbCircle
 10
234.7754994138921
 20
420.5685170622325
 30
0.0
 40
23.5
100
AcDbArc
 50
155.0418036876905
 51
180.0
  0
LINE
  5
4237
330
1E
100
AcDbEntity
  8
STEMPEL
100
AcDbLine
 10
293.3754994138896
 20
431.1174394693512
 30
0.0
 11
291.0408967421649
 21
431.1174394693512
 31
0.0
  0
LINE
  5
4238
330
1E
100
AcDbEntity
  8
STEMPEL
100
AcDbLine
 10
293.3754994138896
 20
431.1174394693512
 30
0.0
 11
290.8436726466669
 21
435.6085243661836
 31
0.0
  0
ARC
  5
4239
102
{ACAD_REACTORS
330
4101
102
}
330
1E
100
AcDbEntity
  8
STEMPEL
  6
Continuous
100
AcDbCircle
 10
268.375499413892
 20
420.5685170622325
 30
0.0
 40
23.5
100
AcDbArc
 50
0.0
 51
24.95819631230951
  0
ARC
  5
423A
102
{ACAD_REACTORS
330
4101
102
}
330
1E
100
AcDbEntity
  8
STEMPEL
  6
Continuous
100
AcDbCircle
 10
268.375499413892
 20
420.5685170622325
 30
0.0
 40
25.0
100
AcDbArc
 50
0.0
 51
24.95819631230951
  0
LINE
  5
423B
330
1E
100
AcDbEntity
  8
STEMPEL
100
AcDbLine
 10
288.0754994138929
 20
436.1174394693512
 30
0.0
 11
289.9725609293175
 21
436.1174394693512
 31
0.0
  0
LINE
  5
423C
330
1E
100
AcDbEntity
  8
STEMPEL
100
AcDbLine
 10
288.0754994138895
 20
430.1174394693513
 30
0.0
 11
288.9877531763054
 21
435.2910876470182
 31
0.0
  0
ARC
  5
423D
330
1E
100
AcDbEntity
  8
STEMPEL
100
AcDbCircle
 10
289.9725609293175
 20
435.1174394693512
 30
0.0
 40
1.0
100
AcDbArc
 50
29.41191366553344
 51
170.0000000000014
  0
LINE
  5
423E
102
{ACAD_REACTORS
330
4101
102
}
330
1E
100
AcDbEntity
  8
STEMPEL
100
AcDbLine
 10
289.680972902472
 20
430.4845041249219
 30
0.0
 11
291.0408967421675
 21
431.1174394693512
 31
0.0
  0
LINE
  5
423F
330
1E
100
AcDbEntity
  8
STEMPEL
100
AcDbLine
 10
209.0632331286881
 20
565.6297057545555
 30
0.0
 11
294.0877656990961
 21
565.6297057545555
 31
0.0
  0
LINE
  5
4240
330
1E
100
AcDbEntity
  8
HILF
100
AcDbLine
 10
217.6789611749978
 20
557.9124936242983
 30
0.0
 11
285.4720376527863
 21
557.9124936242983
 31
0.0
  0
ARC
  5
4247
102
{ACAD_REACTORS
330
4104
102
}
330
1E
100
AcDbEntity
  8
STEMPEL
100
AcDbCircle
 10
210.0754994138945
 20
555.4250513139248
 30
0.0
 40
6.5
100
AcDbArc
 50
0.0
 51
45.0
  0
LINE
  5
4248
102
{ACAD_REACTORS
330
4104
102
}
330
1E
100
AcDbEntity
  8
STEMPEL
100
AcDbLine
 10
208.0025729569083
 20
564.5690455827757
 30
0.0
 11
213.6110333198269
 21
558.9605852198578
 31
0.0
  0
ARC
  5
4249
330
1E
100
AcDbEntity
  8
SCHRAFF
100
AcDbCircle
 10
209.5754994138923
 20
565.1174394693514
 30
0.0
 40
3.5
100
AcDbArc
 50
169.8499045790557
 51
289.6230664748504
  0
LINE
  5
424A
102
{ACAD_REACTORS
330
4104
102
}
330
1E
100
AcDbEntity
  8
STEMPEL
100
AcDbLine
 10
209.063233128688
 20
565.6297057545552
 30
0.0
 11
207.6490195663149
 21
564.2154921921822
 31
0.0
  0
ARC
  5
424B
102
{ACAD_REACTORS
330
4104
102
}
330
1E
100
AcDbEntity
  8
STEMPEL
100
AcDbCircle
 10
210.0754994138945
 20
555.4250513139249
 30
0.0
 40
5.0
100
AcDbArc
 50
0.0
 51
45.0
  0
LINE
  5
426C
102
{ACAD_REACTORS
330
4104
102
}
330
1E
100
AcDbEntity
  8
STEMPEL
100
AcDbLine
 10
295.1361595856715
 20
564.5567792975716
 30
0.0
 11
289.5399655079575
 21
558.9605852198583
 31
0.0
  0
ARC
  5
426D
102
{ACAD_REACTORS
330
4104
102
}
330
1E
100
AcDbEntity
  8
STEMPEL
100
AcDbCircle
 10
293.0754994138899
 20
555.4250513139252
 30
0.0
 40
5.0
100
AcDbArc
 50
135.0
 51
180.0
  0
ARC
  5
426E
102
{ACAD_REACTORS
330
4104
102
}
330
1E
100
AcDbEntity
  8
STEMPEL
100
AcDbCircle
 10
293.0754994138899
 20
555.4250513139252
 30
0.0
 40
6.5
100
AcDbArc
 50
135.0
 51
180.0
  0
LINE
  5
426F
102
{ACAD_REACTORS
330
4104
102
}
330
1E
100
AcDbEntity
  8
STEMPEL
100
AcDbLine
 10
294.075499413892
 20
565.6174394693514
 30
0.0
 11
295.4897129762651
 21
564.2032259069781
 31
0.0
  0
LINE
  5
42AE
330
1E
100
AcDbEntity
  8
TEXT
 62
     2
100
AcDbLine
 10
318.2034871187432
 20
211.4625063661617
 30
0.0
 11
421.897946051774
 21
211.4625063661617
 31
0.0
  0
TEXT
  5
42AF
330
1E
100
AcDbEntity
  8
TEXT
 62
     1
100
AcDbText
 10
319.5548562669194
 20
214.2642013608336
 30
0.0
 40
7.0
  1
Unterteil DN70
 41
0.8
  7
GREEKS
100
AcDbText
  0
TEXT
  5
42B0
330
1E
100
AcDbEntity
  8
TEXT
 62
     1
100
AcDbText
 10
318.9478966543277
 20
200.5158028829137
 30
0.0
 40
7.0
  1
EDV-Art.Nr. 21971.070X
 41
0.8
  7
GREEKS
100
AcDbText
  0
LINE
  5
42B3
102
{ACAD_REACTORS
330
40DE
102
}
330
1E
100
AcDbEntity
  8
STEMPEL
100
AcDbLine
 10
367.8579849926199
 20
426.1174394693505
 30
0.0
 11
309.8892079128764
 21
426.1174394693501
 31
0.0
  0
LINE
  5
42B4
330
1E
100
AcDbEntity
  8
STEMPEL
100
AcDbLine
 10
304.0503731480442
 20
422.7638860787563
 30
0.0
 11
372.661285851519
 21
422.7638860787563
 31
0.0
  0
ARC
  5
42BD
102
{ACAD_REACTORS
330
40DE
102
}
330
1E
100
AcDbEntity
  8
STEMPEL
100
AcDbCircle
 10
310.0955836610266
 20
420.11743946935
 30
0.0
 40
8.0
100
AcDbArc
 50
90.0
 51
137.4999999999932
  0
ARC
  5
42BE
102
{ACAD_REACTORS
330
40DE
102
}
330
1E
100
AcDbEntity
  8
STEMPEL
100
AcDbCircle
 10
310.0955836610266
 20
420.11743946935
 30
0.0
 40
6.0
100
AcDbArc
 50
90.0
 51
137.4999999999932
  0
ARC
  5
42BF
102
{ACAD_REACTORS
330
493C
102
}
330
1E
100
AcDbEntity
  8
STEMPEL
100
AcDbCircle
 10
317.0754994138917
 20
437.1174394693512
 30
0.0
 40
3.0
100
AcDbArc
 50
90.0
 51
270.0
  0
LINE
  5
42CC
102
{ACAD_REACTORS
330
493C
330
40DE
102
}
330
1E
100
AcDbEntity
  8
MITTEL
100
AcDbLine
 10
322.9754994138918
 20
458.1174394693504
 30
0.0
 11
322.9754994138919
 21
423.1174394693501
 31
0.0
  0
LINE
  5
42D5
102
{ACAD_REACTORS
330
4912
330
493C
102
}
330
1E
100
AcDbEntity
  8
STEMPEL
100
AcDbLine
 10
365.1360559465295
 20
454.1174394693516
 30
0.0
 11
381.575499413892
 21
454.1174394693516
 31
0.0
  0
LINE
  5
42D6
330
1E
100
AcDbEntity
  8
STEMPEL
100
AcDbLine
 10
365.1360559465295
 20
454.1174394693521
 30
0.0
 11
364.9774371977382
 21
445.0301774371659
 31
0.0
  0
LINE
  5
42D7
102
{ACAD_REACTORS
330
493C
102
}
330
1E
100
AcDbEntity
  8
STEMPEL
100
AcDbLine
 10
365.5754994138917
 20
454.1174394693509
 30
0.0
 11
365.4168806651005
 21
445.030177437165
 31
0.0
  0
ARC
  5
42D8
330
1E
100
AcDbEntity
  8
STEMPEL
100
AcDbCircle
 10
359.9781987219562
 20
445.1174394693523
 30
0.0
 40
5.0
100
AcDbArc
 50
270.0
 51
358.9999999999982
  0
ARC
  5
42D9
102
{ACAD_REACTORS
330
493C
102
}
330
1E
100
AcDbEntity
  8
STEMPEL
100
AcDbCircle
 10
360.4176421893185
 20
445.1174394693512
 30
0.0
 40
5.0
100
AcDbArc
 50
270.0
 51
358.9999999999982
  0
LINE
  5
42DA
330
1E
100
AcDbEntity
  8
MITTEL
100
AcDbLine
 10
373.5754994138919
 20
459.1174394693516
 30
0.0
 11
373.5754994138917
 21
434.1174394693501
 31
0.0
  0
LINE
  5
42DF
102
{ACAD_REACTORS
330
493C
102
}
330
1E
100
AcDbEntity
  8
STEMPEL
100
AcDbLine
 10
381.5754994138917
 20
454.1174394693509
 30
0.0
 11
381.835802223377
 21
439.2047015015375
 31
0.0
  0
ARC
  5
42E0
102
{ACAD_REACTORS
330
4912
330
493C
102
}
330
1E
100
AcDbEntity
  8
STEMPEL
100
AcDbCircle
 10
376.8365637475952
 20
439.1174394693512
 30
0.0
 40
5.0
100
AcDbArc
 50
270.0
 51
1.000000000001761
  0
LINE
  5
42E1
102
{ACAD_REACTORS
330
40DE
102
}
330
1E
100
AcDbEntity
  8
STEMPEL
100
AcDbLine
 10
374.0754994138921
 20
424.1780996411296
 30
0.0
 11
371.7470722891461
 21
426.5065267658759
 31
0.0
  0
LINE
  5
42E2
102
{ACAD_REACTORS
330
40DE
102
}
330
1E
100
AcDbEntity
  8
STEMPEL
100
AcDbLine
 10
372.661285851519
 20
422.7638860787565
 30
0.0
 11
370.332858726773
 21
425.0923132035027
 31
0.0
  0
ARC
  5
42E3
102
{ACAD_REACTORS
330
40DE
102
}
330
1E
100
AcDbEntity
  8
STEMPEL
100
AcDbCircle
 10
367.8579849926199
 20
422.6174394693499
 30
0.0
 40
3.499999999999851
100
AcDbArc
 50
45.0
 51
90.0
  0
ARC
  5
42E4
102
{ACAD_REACTORS
330
40DE
102
}
330
1E
100
AcDbEntity
  8
STEMPEL
100
AcDbCircle
 10
367.8579849926199
 20
422.6174394693499
 30
0.0
 40
5.499999999999851
100
AcDbArc
 50
45.0
 51
90.0
  0
LINE
  5
42E7
102
{ACAD_REACTORS
330
40DE
102
}
330
1E
100
AcDbEntity
  8
STEMPEL
100
AcDbLine
 10
374.0754994138921
 20
424.1780996411296
 30
0.0
 11
372.6612858515192
 21
422.7638860787563
 31
0.0
  0
LINE
  5
42EC
330
1E
100
AcDbEntity
  8
STEMPEL
100
AcDbLine
 10
367.8579849926198
 20
576.1174394693503
 30
0.0
 11
309.8892079128764
 21
576.1174394693499
 31
0.0
  0
LINE
  5
42ED
330
1E
100
AcDbEntity
  8
STEMPEL
100
AcDbLine
 10
304.0503731480442
 20
572.7638860787562
 30
0.0
 11
372.6612858515189
 21
572.7638860787562
 31
0.0
  0
ARC
  5
42FD
330
1E
100
AcDbEntity
  8
STEMPEL
100
AcDbCircle
 10
309.8892079128766
 20
570.11743946935
 30
0.0
 40
6.0
100
AcDbArc
 50
90.0
 51
135.0
  0
ARC
  5
42FE
330
1E
100
AcDbEntity
  8
STEMPEL
100
AcDbCircle
 10
309.8892079128766
 20
570.11743946935
 30
0.0
 40
8.0
100
AcDbArc
 50
90.0
 51
135.0
  0
LINE
  5
4349
330
1E
100
AcDbEntity
  8
STEMPEL
100
AcDbLine
 10
374.075499413892
 20
574.1780996411295
 30
0.0
 11
371.747072289146
 21
576.5065267658757
 31
0.0
  0
LINE
  5
434A
330
1E
100
AcDbEntity
  8
STEMPEL
100
AcDbLine
 10
372.6612858515189
 20
572.7638860787565
 30
0.0
 11
370.3328587267729
 21
575.0923132035025
 31
0.0
  0
ARC
  5
434B
330
1E
100
AcDbEntity
  8
STEMPEL
100
AcDbCircle
 10
367.8579849926198
 20
572.6174394693497
 30
0.0
 40
3.499999999999851
100
AcDbArc
 50
45.0
 51
90.0
  0
ARC
  5
434C
330
1E
100
AcDbEntity
  8
STEMPEL
100
AcDbCircle
 10
367.8579849926198
 20
572.6174394693497
 30
0.0
 40
5.499999999999851
100
AcDbArc
 50
45.0
 51
90.0
  0
LINE
  5
434E
330
1E
100
AcDbEntity
  8
STEMPEL
100
AcDbLine
 10
374.075499413892
 20
574.1780996411295
 30
0.0
 11
372.6612858515191
 21
572.7638860787562
 31
0.0
  0
TEXT
  5
4379
330
1E
100
AcDbEntity
  8
TEXT
100
AcDbText
 10
482.3280000000001
 20
471.8550995097769
 30
0.0
 40
5.0
  1
Erstellt mit AUTOCAD 2000
 50
90.0
 41
0.8
  7
GREEKS
100
AcDbText
  0
TEXT
  5
437A
330
1E
100
AcDbEntity
  8
TEXT
100
AcDbText
 10
551.3702584697737
 20
654.9837501577826
 30
0.0
 40
4.0
  1
21521070W.DWG
 50
90.0
 41
0.8
  7
GREEKS
100
AcDbText
  0
TEXT
  5
437B
330
1E
100
AcDbEntity
  8
TEXT
100
AcDbText
 10
542.3598805695784
 20
655.1296391125315
 30
0.0
 40
5.0
  1
EDV-Art.Nr. 21521.070X
 50
90.0
 41
0.8
  7
GREEKS
100
AcDbText
  0
TEXT
  5
437C
330
1E
100
AcDbEntity
  8
TEXT
100
AcDbText
 10
522.4966558241471
 20
655.1296391125315
 30
0.0
 40
5.0
  1
DN70, zweiteilig
 50
90.0
 41
0.7
  7
GREEKS
100
AcDbText
  0
TEXT
  5
437D
330
1E
100
AcDbEntity
  8
TEXT
 62
     1
100
AcDbText
 10
506.5825121074622
 20
654.3055652248178
 30
0.0
 40
7.0
  1
Drainlet-Kompletteinheit
 50
90.0
 41
0.7
  7
GREEKS
100
AcDbText
  0
LINE
  5
437E
330
1E
100
AcDbEntity
  8
STEMPEL
100
AcDbLine
 10
584.0
 20
480.0
 30
0.0
 11
584.0
 21
830.0
 31
0.0
  0
TEXT
  5
437F
330
1E
100
AcDbEntity
  8
TEXT
100
AcDbText
 10
563.1543942980694
 20
654.7422383911359
 30
0.0
 40
5.0
  1
Bauvorhaben
 50
90.0
 41
0.8
  7
GREEKS
100
AcDbText
  0
TEXT
  5
4380
330
1E
100
AcDbEntity
  8
TEXT
100
AcDbText
 10
491.4510671988221
 20
654.8779403809009
 30
0.0
 40
5.0
  1
Benennung
 50
90.0
 41
0.8
  7
GREEKS
100
AcDbText
  0
LINE
  5
4381
330
1E
100
AcDbEntity
  8
HILF
100
AcDbLine
 10
579.1060174197168
 20
653.4909699289885
 30
0.0
 11
579.1060174197168
 21
824.8588839326728
 31
0.0
  0
LINE
  5
4382
330
1E
100
AcDbEntity
  8
HILF
100
AcDbLine
 10
544.0000000000001
 20
654.7736801096948
 30
0.0
 11
544.0000000000001
 21
744.8353916556309
 31
0.0
  0
LINE
  5
4383
330
1E
100
AcDbEntity
  8
HILF
100
AcDbLine
 10
534.0000000000001
 20
654.7736801096948
 30
0.0
 11
534.0000000000001
 21
744.8353916556309
 31
0.0
  0
LINE
  5
4384
330
1E
100
AcDbEntity
  8
HILF
100
AcDbLine
 10
524.0000000000001
 20
654.7736801096948
 30
0.0
 11
524.0000000000001
 21
744.8353916556309
 31
0.0
  0
LINE
  5
4385
330
1E
100
AcDbEntity
  8
HILF
100
AcDbLine
 10
509.9624175243587
 20
654.7736801096948
 30
0.0
 11
509.9624175243587
 21
744.8353916556311
 31
0.0
  0
LINE
  5
4386
330
1E
100
AcDbEntity
  8
STEMPEL
100
AcDbLine
 10
514.0
 20
830.0
 30
0.0
 11
514.0000000000001
 21
566.0000000000002
 31
0.0
  0
LINE
  5
4387
330
1E
100
AcDbEntity
  8
STEMPEL
100
AcDbLine
 10
554.0
 20
830.0
 30
0.0
 11
554.0
 21
566.0000000000002
 31
0.0
  0
LINE
  5
4388
330
1E
100
AcDbEntity
  8
STEMPEL
100
AcDbLine
 10
484.0
 20
830.0
 30
0.0
 11
484.0
 21
470.0000000000001
 31
0.0
  0
INSERT
  5
4389
330
1E
100
AcDbEntity
  8
STEMPEL
100
AcDbBlockReference
  2
LOGO
 10
548.9789472355168
 20
570.9955485457795
 30
0.0
 41
2.0
 42
2.0
 43
2.0
 50
90.0
  0
LINE
  5
438A
330
1E
100
AcDbEntity
  8
STEMPEL
100
AcDbLine
 10
584.0
 20
470.0000000000001
 30
0.0
 11
484.0
 21
470.0000000000001
 31
0.0
  0
TEXT
  5
438B
330
1E
100
AcDbEntity
  8
TEXT
100
AcDbText
 10
575.3284373066019
 20
530.0571803261056
 30
0.0
 40
4.0
  1
Tag
 50
90.0
 41
0.8
  7
GREEKS
 72
     1
 11
575.3284373066019
 21
533.7905136594389
 31
0.0
100
AcDbText
  0
TEXT
  5
438C
330
1E
100
AcDbEntity
  8
TEXT
100
AcDbText
 10
580.3453415397281
 20
478.2664110704577
 30
0.0
 40
4.0
  1
Index
 50
180.0
 41
0.8
  7
GREEKS
100
AcDbText
  0
TEXT
  5
438D
330
1E
100
AcDbEntity
  8
TEXT
100
AcDbText
 10
575.3261810501586
 20
492.7826069847976
 30
0.0
 40
4.0
  1
Änderung
 50
90.0
 41
0.8
  7
GREEKS
 72
     1
 11
575.3261810501586
 21
503.5254641276548
 31
0.0
100
AcDbText
  0
LINE
  5
438E
330
1E
100
AcDbEntity
  8
VOLL
100
AcDbLine
 10
484.0000000000001
 20
544.0000000000002
 30
0.0
 11
584.0000000000001
 21
544.0000000000001
 31
0.0
  0
LINE
  5
438F
330
1E
100
AcDbEntity
  8
VOLL
100
AcDbLine
 10
484.0000000000001
 20
524.0000000000001
 30
0.0
 11
584.0000000000001
 21
524.0000000000001
 31
0.0
  0
LINE
  5
4390
330
1E
100
AcDbEntity
  8
VOLL
100
AcDbLine
 10
484.0
 20
484.0000000000002
 30
0.0
 11
584.0000000000001
 21
484.0000000000001
 31
0.0
  0
LINE
  5
4391
330
1E
100
AcDbEntity
  8
STEMPEL
100
AcDbLine
 10
484.0
 20
650.0
 30
0.0
 11
584.0000000000001
 21
650.0
 31
0.0
  0
LINE
  5
4392
330
1E
100
AcDbEntity
  8
STEMPEL
100
AcDbLine
 10
484.0000000000001
 20
566.0000000000002
 30
0.0
 11
584.0000000000001
 21
566.0000000000001
 31
0.0
  0
TEXT
  5
4393
330
1E
100
AcDbEntity
  8
TEXT
100
AcDbText
 10
575.4067578303359
 20
548.6614567187548
 30
0.0
 40
4.0
  1
Name
 50
90.0
 41
0.8
  7
GREEKS
 72
     1
 11
575.4067578303359
 21
554.9852662425642
 31
0.0
100
AcDbText
  0
LINE
  5
4394
330
1E
100
AcDbEntity
  8
HILF
100
AcDbLine
 10
554.0
 20
470.0000000000001
 30
0.0
 11
554.0
 21
566.0000000000002
 31
0.0
  0
LINE
  5
4395
330
1E
100
AcDbEntity
  8
HILF
100
AcDbLine
 10
544.0
 20
470.0000000000001
 30
0.0
 11
544.0000000000001
 21
566.0000000000002
 31
0.0
  0
LINE
  5
4396
330
1E
100
AcDbEntity
  8
HILF
100
AcDbLine
 10
534.0
 20
470.0000000000001
 30
0.0
 11
534.0000000000001
 21
566.0000000000002
 31
0.0
  0
LINE
  5
4397
330
1E
100
AcDbEntity
  8
HILF
100
AcDbLine
 10
524.0000000000001
 20
470.0000000000001
 30
0.0
 11
524.0000000000001
 21
566.0000000000002
 31
0.0
  0
LINE
  5
4398
330
1E
100
AcDbEntity
  8
HILF
100
AcDbLine
 10
514.0000000000001
 20
470.0000000000001
 30
0.0
 11
514.0000000000001
 21
566.0000000000002
 31
0.0
  0
LINE
  5
4399
330
1E
100
AcDbEntity
  8
HILF
100
AcDbLine
 10
504.0
 20
470.0000000000001
 30
0.0
 11
504.0
 21
566.0000000000002
 31
0.0
  0
LINE
  5
439A
330
1E
100
AcDbEntity
  8
HILF
100
AcDbLine
 10
494.0
 20
470.0000000000001
 30
0.0
 11
494.0
 21
566.0000000000002
 31
0.0
  0
LINE
  5
439B
330
1E
100
AcDbEntity
  8
STEMPEL
100
AcDbLine
 10
564.0000000000001
 20
566.0
 30
0.0
 11
564.0
 21
470.0000000000001
 31
0.0
  0
TEXT
  5
439C
330
1E
100
AcDbEntity
  8
TEXT
100
AcDbText
 10
530.8923495917427
 20
591.0085209177599
 30
0.0
 40
4.0
  1
31.01.
 50
90.0
 41
0.8
  7
GREEKS
 72
     1
 11
530.8923495917427
 21
597.4085209177599
 31
0.0
100
AcDbText
  0
TEXT
  5
439D
330
1E
100
AcDbEntity
  8
TEXT
100
AcDbText
 10
530.9103608027649
 20
624.4216048581257
 30
0.0
 40
4.0
  1
Koeh
 50
90.0
 41
0.8
  7
GREEKS
 72
     1
 11
530.9103608027649
 21
629.6787477152686
 31
0.0
100
AcDbText
  0
TEXT
  5
439E
330
1E
100
AcDbEntity
  8
TEXT
100
AcDbText
 10
530.3700963038203
 20
567.5836127167616
 30
0.0
 40
4.0
  1
Gez.
 50
90.0
 41
0.8
  7
GREEKS
100
AcDbText
  0
LINE
  5
439F
330
1E
100
AcDbEntity
  8
VOLL
100
AcDbLine
 10
484.0000000000002
 20
610.0000000000002
 30
0.0
 11
554.0
 21
610.0
 31
0.0
  0
LINE
  5
43A0
330
1E
100
AcDbEntity
  8
VOLL
100
AcDbLine
 10
514.0000000000001
 20
584.0000000000002
 30
0.0
 11
554.0
 21
584.0000000000002
 31
0.0
  0
TEXT
  5
43A1
330
1E
100
AcDbEntity
  8
TEXT
100
AcDbText
 10
503.2363615897698
 20
612.6261322080839
 30
0.0
 40
4.0
  1
DIN EN1124-3
 50
90.0
 41
0.8
  7
GREEKS
 72
     1
 11
503.2363615897698
 21
629.6166083985601
 31
0.0
100
AcDbText
  0
TEXT
  5
43A2
330
1E
100
AcDbEntity
  8
TEXT
100
AcDbText
 10
491.581583156518
 20
614.2858954734052
 30
0.0
 40
5.0
  1
Zul. Abw.
 50
90.0
 41
0.8
  7
GREEKS
100
AcDbText
  0
LINE
  5
43A3
330
1E
100
AcDbEntity
  8
HILF
100
AcDbLine
 10
524.0000000000001
 20
566.0000000000002
 30
0.0
 11
524.0000000000001
 21
650.0
 31
0.0
  0
TEXT
  5
43A4
330
1E
100
AcDbEntity
  8
TEXT
 62
     1
100
AcDbText
 10
505.8509857108604
 20
580.5006306481888
 30
0.0
 40
7.0
  1
1:2
 50
90.0
 41
0.8
  7
GREEKS
100
AcDbText
  0
TEXT
  5
43A5
330
1E
100
AcDbEntity
  8
TEXT
100
AcDbText
 10
491.537910491291
 20
573.5163572150378
 30
0.0
 40
5.0
  1
Maßstab
 50
90.0
 41
0.8
  7
GREEKS
100
AcDbText
  0
TEXT
  5
43A6
330
1E
100
AcDbEntity
  8
TEXT
100
AcDbText
 10
520.8597452884832
 20
568.622109822104
 30
0.0
 40
4.0
  1
2011
 50
90.0
 41
0.8
  7
GREEKS
100
AcDbText
  0
TEXT
  5
43A7
330
1E
100
AcDbEntity
  8
TEXT
100
AcDbText
 10
520.6811949877008
 20
592.3311673153651
 30
0.0
 40
4.0
  1
Tag
 50
90.0
 41
0.8
  7
GREEKS
100
AcDbText
  0
TEXT
  5
43A8
330
1E
100
AcDbEntity
  8
TEXT
100
AcDbText
 10
520.6903890808478
 20
622.4626584226296
 30
0.0
 40
4.0
  1
Name
 50
90.0
 41
0.8
  7
GREEKS
100
AcDbText
  0
LINE
  5
43A9
330
1E
100
AcDbEntity
  8
HILF
100
AcDbLine
 10
544.0000000000001
 20
566.0000000000002
 30
0.0
 11
544.0000000000001
 21
650.0
 31
0.0
  0
LINE
  5
43AA
330
1E
100
AcDbEntity
  8
HILF
100
AcDbLine
 10
534.0000000000001
 20
566.0000000000002
 30
0.0
 11
534.0000000000001
 21
650.0
 31
0.0
  0
TEXT
  5
43AB
330
1E
100
AcDbEntity
  8
TEXT
100
AcDbText
 10
540.3107370857163
 20
567.5515086571673
 30
0.0
 40
4.0
  1
Gepr.
 50
90.0
 41
0.8
  7
GREEKS
100
AcDbText
  0
TEXT
  5
43AC
330
1E
100
AcDbEntity
  8
TEXT
100
AcDbText
 10
550.4705361035019
 20
567.6006777387304
 30
0.0
 40
4.0
  1
Norm.
 50
90.0
 41
0.8
  7
GREEKS
100
AcDbText
  0
LINE
  5
43AD
330
1E
100
AcDbEntity
  8
HILF
100
AcDbLine
 10
510.2201636304418
 20
756.7238616296992
 30
0.0
 11
510.2201636304418
 21
824.8588839326728
 31
0.0
  0
LINE
  5
43AE
330
1E
100
AcDbEntity
  8
VOLL
100
AcDbLine
 10
534.0
 20
752.0
 30
0.0
 11
534.0
 21
830.0
 31
0.0
  0
LINE
  5
43B0
330
1E
100
AcDbEntity
  8
STEMPEL
100
AcDbLine
 10
484.0000000000002
 20
752.0
 30
0.0
 11
554.0
 21
752.0
 31
0.0
  0
TEXT
  5
43B1
330
1E
100
AcDbEntity
  8
TEXT
 62
     1
100
AcDbText
 10
505.8509857108604
 20
767.9408100611292
 30
0.0
 40
7.0
  1
21521070W
 50
90.0
 41
0.8
  7
GREEKS
 72
     1
 11
505.8509857108604
 21
790.8741433944626
 31
0.0
100
AcDbText
  0
TEXT
  5
43B2
330
1E
100
AcDbEntity
  8
TEXT
100
AcDbText
 10
491.6867965462863
 20
756.178754957634
 30
0.0
 40
5.0
  1
Zeichnungs Nr.
 50
90.0
 41
0.8
  7
GREEKS
100
AcDbText
  0
TEXT
  5
43B3
330
1E
100
AcDbEntity
  8
TEXT
100
AcDbText
 10
520.8188176290002
 20
756.7238616296992
 30
0.0
 40
5.0
  1
Ersatz für:
 50
90.0
 41
0.8
  7
GREEKS
100
AcDbText
  0
TEXT
  5
43B4
330
1E
100
AcDbEntity
  8
TEXT
100
AcDbText
 10
541.925838221214
 20
757.2400861497006
 30
0.0
 40
5.0
  1
ersetzt durch:
 50
90.0
 41
0.8
  7
GREEKS
100
AcDbText
  0
TEXT
  5
4461
330
1E
100
AcDbEntity
  8
TEXT
 62
     1
100
AcDbText
 10
364.2845097794248
 20
489.4264648386403
 30
0.0
 40
7.0
  1
Ablaufkörper DN70
 41
0.8
  7
GREEKS
100
AcDbText
  0
LINE
  5
4462
330
1E
100
AcDbEntity
  8
TEXT
 62
     2
100
AcDbLine
 10
363.2038233805876
 20
485.8136965664466
 30
0.0
 11
288.0754994138932
 21
508.3134038458642
 31
0.0
  0
LINE
  5
4463
330
1E
100
AcDbEntity
  8
TEXT
 62
     2
100
AcDbLine
 10
469.3277179882654
 20
485.8136965664469
 30
0.0
 11
363.2038233805876
 21
485.8136965664466
 31
0.0
  0
TEXT
  5
4464
330
1E
100
AcDbEntity
  8
TEXT
 62
     1
100
AcDbText
 10
364.1039544852727
 20
476.3786926916611
 30
0.0
 40
7.0
  1
EDV-Art.Nr. 21981.070X
 41
0.8
  7
GREEKS
100
AcDbText
  0
TEXT
  5
4465
330
1E
100
AcDbEntity
  8
TEXT
 62
     1
100
AcDbText
 10
362.5128487241118
 20
542.1087110559344
 30
0.0
 40
7.0
  1
EDV-Art.Nr. 21905.070X
 41
0.8
100
AcDbText
  0
LINE
  5
4466
330
1E
100
AcDbEntity
  8
TEXT
 62
     2
100
AcDbLine
 10
467.8560574204905
 20
551.4012078637335
 30
0.0
 11
361.9174928453574
 21
551.4012078637335
 31
0.0
  0
TEXT
  5
4467
330
1E
100
AcDbEntity
  8
TEXT
 62
     1
100
AcDbText
 10
362.5128487241118
 20
554.885042024644
 30
0.0
 40
7.0
  1
Losflansch DN70
 41
0.8
100
AcDbText
  0
LINE
  5
4468
330
1E
100
AcDbEntity
  8
TEXT
 62
     2
100
AcDbLine
 10
361.9174928453574
 20
551.4012078637335
 30
0.0
 11
345.0455465480989
 21
586.8716266006954
 31
0.0
  0
TEXT
  5
4469
330
1E
100
AcDbEntity
  8
TEXT
 62
     1
100
AcDbText
 10
364.598346099167
 20
506.2325290692365
 30
0.0
 40
7.0
  1
EDV-Art.Nr. 21920.070X
 41
0.8
100
AcDbText
  0
LINE
  5
446A
330
1E
100
AcDbEntity
  8
TEXT
 62
     2
100
AcDbLine
 10
467.8560574204905
 20
515.5250258770356
 30
0.0
 11
361.9174928453574
 21
515.5250258770356
 31
0.0
  0
TEXT
  5
446B
330
1E
100
AcDbEntity
  8
TEXT
 62
     1
100
AcDbText
 10
364.598346099167
 20
519.0088600379461
 30
0.0
 40
7.0
  1
Kompressionsdichtung
 41
0.8
100
AcDbText
  0
LINE
  5
446C
330
1E
100
AcDbEntity
  8
TEXT
 62
     2
100
AcDbLine
 10
361.9174928453574
 20
515.5250258770356
 30
0.0
 11
316.3453091010126
 21
579.8534615248536
 31
0.0
  0
TEXT
  5
446E
330
1E
100
AcDbEntity
  8
TEXT
 62
     1
100
AcDbText
 10
327.3530222724208
 20
761.7046818792988
 30
0.0
 40
7.0
  1
EDV-Art.Nr. 21004.000X
 41
0.8
  7
GREEKS
100
AcDbText
  0
LINE
  5
446F
330
1E
100
AcDbEntity
  8
TEXT
 62
     2
100
AcDbLine
 10
326.0016531242446
 20
772.2183607664028
 30
0.0
 11
434.3052578487563
 21
772.2183607664028
 31
0.0
  0
TEXT
  5
4470
330
1E
100
AcDbEntity
  8
TEXT
 62
     1
100
AcDbText
 10
327.3530222724208
 20
775.3810223970344
 30
0.0
 40
7.0
  1
Siebkorb
 41
0.8
  7
GREEKS
100
AcDbText
  0
LINE
  5
4471
330
1E
100
AcDbEntity
  8
TEXT
 62
     2
100
AcDbLine
 10
311.6163011879962
 20
718.8762089570289
 30
0.0
 11
326.0016531242446
 21
772.2183607664028
 31
0.0
  0
LINE
  5
4472
330
1E
100
AcDbEntity
  8
TEXT
 62
     2
100
AcDbLine
 10
308.0423989707985
 20
705.6238648039992
 30
0.0
 11
310.3333867857226
 21
714.1190493749909
 31
0.0
  0
LINE
  5
4473
330
1E
100
AcDbEntity
  8
TEXT
 62
     2
100
AcDbLine
 10
304.7021733284803
 20
693.2380139690856
 30
0.0
 11
306.6513444558049
 21
700.4657121607581
 31
0.0
  0
LINE
  5
453D
330
1E
100
AcDbEntity
  8
TEXT
 62
     2
100
AcDbLine
 10
416.7032202795092
 20
396.3450928084374
 30
0.0
 11
357.7203192834384
 21
430.2580055339506
 31
0.0
  0
TEXT
  5
453E
330
1E
100
AcDbEntity
  8
TEXT
 62
     1
100
AcDbText
 10
419.3840735333187
 20
399.8289269693478
 30
0.0
 40
7.0
  1
Kompressionsdichtung
 41
0.8
100
AcDbText
  0
LINE
  5
453F
330
1E
100
AcDbEntity
  8
TEXT
 62
     2
100
AcDbLine
 10
522.6417848546422
 20
396.3450928084374
 30
0.0
 11
416.7032202795092
 21
396.3450928084374
 31
0.0
  0
TEXT
  5
4540
330
1E
100
AcDbEntity
  8
TEXT
 62
     1
100
AcDbText
 10
419.3840735333187
 20
387.0525960006382
 30
0.0
 40
7.0
  1
EDV-Art.Nr. 21920.070X
 41
0.8
100
AcDbText
  0
LINE
  5
4541
330
1E
100
AcDbEntity
  8
TEXT
 62
     2
100
AcDbLine
 10
419.7980031576255
 20
426.5505800960018
 30
0.0
 11
379.1993979035072
 21
442.9468593819462
 31
0.0
  0
TEXT
  5
4542
330
1E
100
AcDbEntity
  8
TEXT
 62
     1
100
AcDbText
 10
420.3933590363799
 20
430.0344142569122
 30
0.0
 40
7.0
  1
Losflansch DN70
 41
0.8
100
AcDbText
  0
LINE
  5
4543
330
1E
100
AcDbEntity
  8
TEXT
 62
     2
100
AcDbLine
 10
525.7365677327586
 20
426.5505800960018
 30
0.0
 11
419.7980031576255
 21
426.5505800960018
 31
0.0
  0
TEXT
  5
4544
330
1E
100
AcDbEntity
  8
TEXT
 62
     1
100
AcDbText
 10
420.3933590363799
 20
417.2580832882026
 30
0.0
 40
7.0
  1
EDV-Art.Nr. 21905.070X
 41
0.8
100
AcDbText
  0
TEXT
  5
4545
330
1E
100
AcDbEntity
  8
TEXT
 62
     1
100
AcDbText
 10
419.9481978623973
 20
355.2321217556571
 30
0.0
 40
7.0
  1
EDV-Art.Nr. 00911.070X
 41
0.8
  7
GREEKS
100
AcDbText
  0
LINE
  5
4546
330
1E
100
AcDbEntity
  8
TEXT
 62
     2
100
AcDbLine
 10
525.1719613653902
 20
364.6671256304428
 30
0.0
 11
419.0480667577124
 21
364.6671256304426
 31
0.0
  0
LINE
  5
4547
330
1E
100
AcDbEntity
  8
TEXT
 62
     2
100
AcDbLine
 10
419.0480667577124
 20
364.6671256304426
 30
0.0
 11
288.4857128403986
 21
423.4121978270113
 31
0.0
  0
TEXT
  5
4548
330
1E
100
AcDbEntity
  8
TEXT
 62
     1
100
AcDbText
 10
420.1287531565494
 20
368.2798939026363
 30
0.0
 40
7.0
  1
Dichtelement DN70
 41
0.8
  7
GREEKS
100
AcDbText
  0
LINE
  5
48DB
102
{ACAD_REACTORS
330
4912
330
493C
102
}
330
1E
100
AcDbEntity
  8
STEMPEL
100
AcDbLine
 10
377.5754994138917
 20
451.117439469352
 30
0.0
 11
377.5754994138917
 21
454.117439469352
 31
0.0
  0
LINE
  5
48DC
102
{ACAD_REACTORS
330
4912
330
493C
102
}
330
1E
100
AcDbEntity
  8
STEMPEL
100
AcDbLine
 10
377.5754994138917
 20
451.117439469352
 30
0.0
 11
377.0754994138919
 21
451.117439469352
 31
0.0
  0
LINE
  5
48DD
102
{ACAD_REACTORS
330
4912
330
493C
102
}
330
1E
100
AcDbEntity
  8
STEMPEL
100
AcDbLine
 10
377.5754994138919
 20
440.1174394693521
 30
0.0
 11
377.5754994138917
 21
448.1174394693519
 31
0.0
  0
LINE
  5
48DE
102
{ACAD_REACTORS
330
4912
330
493C
102
}
330
1E
100
AcDbEntity
  8
STEMPEL
100
AcDbLine
 10
377.5754994138919
 20
440.1174394693522
 30
0.0
 11
377.0754994138919
 21
440.1174394693521
 31
0.0
  0
LINE
  5
48DF
102
{ACAD_REACTORS
330
4912
330
493C
102
}
330
1E
100
AcDbEntity
  8
STEMPEL
100
AcDbLine
 10
377.5754994138917
 20
448.1174394693519
 30
0.0
 11
377.0754994138919
 21
448.1174394693519
 31
0.0
  0
LINE
  5
48E0
102
{ACAD_REACTORS
330
4912
330
493C
102
}
330
1E
100
AcDbEntity
  8
STEMPEL
100
AcDbLine
 10
377.5754994138919
 20
434.1174394693521
 30
0.0
 11
377.5754994138919
 21
437.1174394693521
 31
0.0
  0
LINE
  5
48E1
102
{ACAD_REACTORS
330
4912
330
493C
102
}
330
1E
100
AcDbEntity
  8
STEMPEL
100
AcDbLine
 10
377.5754994138919
 20
437.1174394693521
 30
0.0
 11
377.0754994138918
 21
437.1174394693521
 31
0.0
  0
LINE
  5
48E2
102
{ACAD_REACTORS
330
4912
330
493C
102
}
330
1E
100
AcDbEntity
  8
STEMPEL
100
AcDbLine
 10
377.0754994138919
 20
437.1174394693521
 30
0.0
 11
377.0754994138919
 21
440.1174394693522
 31
0.0
  0
LINE
  5
48E3
102
{ACAD_REACTORS
330
4912
102
}
330
1E
100
AcDbEntity
  8
STEMPEL
100
AcDbLine
 10
375.5754994138917
 20
434.1174394693519
 30
0.0
 11
375.5754994138917
 21
454.1174394693516
 31
0.0
  0
LINE
  5
48E4
102
{ACAD_REACTORS
330
4912
102
}
330
1E
100
AcDbEntity
  8
HILF
100
AcDbLine
 10
376.5754994138918
 20
434.1174394693519
 30
0.0
 11
376.5754994138918
 21
454.1174394693517
 31
0.0
  0
LINE
  5
48E5
102
{ACAD_REACTORS
330
4912
330
493C
102
}
330
1E
100
AcDbEntity
  8
STEMPEL
100
AcDbLine
 10
377.0754994138919
 20
448.1174394693519
 30
0.0
 11
377.0754994138919
 21
451.117439469352
 31
0.0
  0
LINE
  5
48E6
102
{ACAD_REACTORS
330
4912
330
493C
102
}
330
1E
100
AcDbEntity
  8
STEMPEL
100
AcDbLine
 10
369.5754994138916
 20
451.1174394693519
 30
0.0
 11
369.5754994138917
 21
454.117439469352
 31
0.0
  0
LINE
  5
48E7
102
{ACAD_REACTORS
330
4912
330
493C
102
}
330
1E
100
AcDbEntity
  8
STEMPEL
100
AcDbLine
 10
370.0754994138919
 20
451.117439469352
 30
0.0
 11
369.5754994138917
 21
451.117439469352
 31
0.0
  0
LINE
  5
48E8
102
{ACAD_REACTORS
330
4912
330
493C
102
}
330
1E
100
AcDbEntity
  8
STEMPEL
100
AcDbLine
 10
369.5754994138919
 20
440.1174394693518
 30
0.0
 11
369.5754994138916
 21
448.1174394693519
 31
0.0
  0
LINE
  5
48E9
102
{ACAD_REACTORS
330
4912
330
493C
102
}
330
1E
100
AcDbEntity
  8
STEMPEL
100
AcDbLine
 10
370.0754994138919
 20
440.1174394693519
 30
0.0
 11
369.5754994138919
 21
440.1174394693519
 31
0.0
  0
LINE
  5
48EA
102
{ACAD_REACTORS
330
4912
330
493C
102
}
330
1E
100
AcDbEntity
  8
STEMPEL
100
AcDbLine
 10
370.0754994138919
 20
448.1174394693519
 30
0.0
 11
369.5754994138917
 21
448.1174394693519
 31
0.0
  0
LINE
  5
48EB
102
{ACAD_REACTORS
330
4912
330
493C
102
}
330
1E
100
AcDbEntity
  8
STEMPEL
100
AcDbLine
 10
369.5754994138919
 20
434.1174394693521
 30
0.0
 11
369.5754994138919
 21
437.1174394693521
 31
0.0
  0
LINE
  5
48EC
102
{ACAD_REACTORS
330
4912
330
493C
102
}
330
1E
100
AcDbEntity
  8
STEMPEL
100
AcDbLine
 10
370.0754994138919
 20
437.1174394693521
 30
0.0
 11
369.5754994138919
 21
437.1174394693521
 31
0.0
  0
LINE
  5
48ED
102
{ACAD_REACTORS
330
4912
330
493C
102
}
330
1E
100
AcDbEntity
  8
STEMPEL
100
AcDbLine
 10
370.0754994138919
 20
437.117439469352
 30
0.0
 11
370.0754994138919
 21
440.1174394693519
 31
0.0
  0
LINE
  5
48EE
102
{ACAD_REACTORS
330
4912
102
}
330
1E
100
AcDbEntity
  8
STEMPEL
100
AcDbLine
 10
371.5754994138917
 20
434.1174394693519
 30
0.0
 11
371.5754994138917
 21
454.1174394693516
 31
0.0
  0
LINE
  5
48EF
102
{ACAD_REACTORS
330
4912
102
}
330
1E
100
AcDbEntity
  8
HILF
100
AcDbLine
 10
370.5754994138918
 20
434.1174394693519
 30
0.0
 11
370.5754994138918
 21
454.1174394693517
 31
0.0
  0
LINE
  5
48F0
102
{ACAD_REACTORS
330
4912
330
493C
102
}
330
1E
100
AcDbEntity
  8
STEMPEL
100
AcDbLine
 10
370.0754994138919
 20
448.1174394693519
 30
0.0
 11
370.0754994138919
 21
451.117439469352
 31
0.0
  0
HATCH
  5
4912
330
1E
100
AcDbEntity
  8
SCHRAFF
100
AcDbHatch
 10
0.0
 20
0.0
 30
0.0
210
0.0
220
0.0
230
1.0
  2
_USER
 70
     0
 71
     1
 91
        4
 92
        7
 72
     1
 73
     1
 93
       13
 10
377.5754994138918
 20
454.1174394693517
 42
0.0
 10
376.5754994138918
 20
454.1174394693515
 42
0.0
 10
376.5754994138918
 20
434.1174394693502
 42
0.0
 10
376.8365637475952
 20
434.11743946935
 42
0.0370996223327146
 10
377.5754994138919
 20
434.1723435065729
 42
0.0
 10
377.5754994138919
 20
437.1174394693521
 42
0.0
 10
377.0754994138918
 20
437.1174394693521
 42
0.0
 10
377.0754994138919
 20
440.1174394693521
 42
0.0
 10
377.5754994138919
 20
440.1174394693522
 42
0.0
 10
377.5754994138917
 20
448.117439469352
 42
0.0
 10
377.0754994138919
 20
448.1174394693519
 42
0.0
 10
377.0754994138919
 20
451.117439469352
 42
0.0
 10
377.5754994138917
 20
451.117439469352
 42
0.0
 97
       13
330
42D5
330
48E4
330
40EB
330
42E0
330
48E0
330
48E1
330
48E2
330
48DE
330
48DD
330
48DF
330
48E5
330
48DC
330
48DB
 92
        7
 72
     0
 73
     1
 93
        4
 10
376.5754994138918
 20
454.1174394693516
 10
375.5754994138917
 20
454.1174394693516
 10
375.5754994138918
 20
434.1174394693502
 10
376.5754994138918
 20
434.11743946935
 97
        4
330
42D5
330
48E3
330
40EB
330
48E4
 92
        7
 72
     0
 73
     1
 93
        4
 10
371.5754994138917
 20
454.1174394693516
 10
370.5754994138918
 20
454.1174394693516
 10
370.5754994138918
 20
434.1174394693502
 10
371.5754994138917
 20
434.1174394693502
 97
        4
330
42D5
330
48EF
330
40EB
330
48EE
 92
        7
 72
     0
 73
     1
 93
       12
 10
370.5754994138918
 20
454.1174394693517
 10
369.5754994138917
 20
454.1174394693517
 10
369.5754994138916
 20
451.1174394693519
 10
370.0754994138919
 20
451.117439469352
 10
370.0754994138918
 20
448.1174394693519
 10
369.5754994138916
 20
448.1174394693519
 10
369.5754994138919
 20
440.1174394693519
 10
370.0754994138918
 20
440.1174394693519
 10
370.0754994138919
 20
437.1174394693521
 10
369.5754994138918
 20
437.1174394693521
 10
369.5754994138919
 20
434.1174394693501
 10
370.5754994138918
 20
434.11743946935
 97
       12
330
42D5
330
48E6
330
48E7
330
48F0
330
48EA
330
48E8
330
48E9
330
48ED
330
48EC
330
48EB
330
40EB
330
48EF
 75
     0
 76
     0
 52
135.0
 41
1.0
 77
     0
 78
     1
 53
135.0
 43
0.0
 44
0.0
 45
-0.7071067811865476
 46
-0.7071067811865475
 79
     0
 47
0.0663131668739094
 98
        4
 10
376.838082948796
 20
452.7454366708978
 10
375.9757212970917
 20
453.0770025852141
 10
371.2658872140792
 20
453.0770025852141
 10
370.2045159662926
 20
453.2759409602297
  0
HATCH
  5
493C
330
1E
100
AcDbEntity
  8
SCHRAFF
100
AcDbHatch
 10
0.0
 20
0.0
 30
0.0
210
0.0
220
0.0
230
1.0
  2
_USER
 70
     0
 71
     1
 91
        5
 92
        7
 72
     1
 73
     1
 93
       12
 10
381.5754994138917
 20
454.1174394693516
 42
0.0
 10
377.5754994138917
 20
454.1174394693515
 42
0.0
 10
377.5754994138916
 20
451.117439469352
 42
0.0
 10
377.0754994138919
 20
451.117439469352
 42
0.0
 10
377.0754994138919
 20
448.1174394693519
 42
0.0
 10
377.5754994138917
 20
448.1174394693519
 42
0.0
 10
377.5754994138919
 20
440.1174394693522
 42
0.0
 10
377.0754994138919
 20
440.1174394693521
 42
0.0
 10
377.0754994138918
 20
437.1174394693521
 42
0.0
 10
377.5754994138918
 20
437.1174394693522
 42
0.0
 10
377.5754994138919
 20
434.172343506574
 42
0.3763797779543542
 10
381.835802223377
 20
439.2047015015375
 42
0.0
 97
       12
330
42D5
330
48DB
330
48DC
330
48E5
330
48DF
330
48DD
330
48DE
330
48E2
330
48E1
330
48E0
330
42E0
330
42DF
 92
        7
 72
     1
 73
     1
 93
       15
 10
370.0754994138919
 20
440.1174394693519
 42
0.0
 10
369.5754994138918
 20
440.1174394693519
 42
0.0
 10
369.5754994138916
 20
448.1174394693519
 42
0.0
 10
370.0754994138919
 20
448.1174394693519
 42
0.0
 10
370.0754994138919
 20
451.1174394693519
 42
0.0
 10
369.5754994138916
 20
451.1174394693519
 42
0.0
 10
369.5754994138917
 20
454.1174394693515
 42
0.0
 10
365.5754994138918
 20
454.1174394693515
 42
0.0
 10
365.4168806651005
 20
445.030177437165
 42
-0.4091108014277236
 10
360.4176421893186
 20
440.1174394693511
 42
0.0
 10
322.9754994138919
 20
440.1174394693511
 42
0.0
 10
322.9754994138919
 20
434.1174394693502
 42
0.0
 10
369.5754994138918
 20
434.11743946935
 42
0.0
 10
369.5754994138918
 20
437.1174394693521
 42
0.0
 10
370.0754994138919
 20
437.1174394693522
 42
0.0
 97
       15
330
48E9
330
48E8
330
48EA
330
48F0
330
48E7
330
48E6
330
42D5
330
42D7
330
42D9
330
40ED
330
42CC
330
40EB
330
48EB
330
48EC
330
48ED
 92
        7
 72
     1
 73
     1
 93
        4
 10
322.9754994138919
 20
440.1174394693511
 42
0.0
 10
317.0754994138917
 20
440.1174394693511
 42
1.0
 10
317.0754994138917
 20
434.1174394693501
 42
0.0
 10
322.9754994138919
 20
434.11743946935
 42
0.0
 97
        4
330
40ED
330
42BF
330
40EB
330
42CC
 92
        7
 72
     1
 73
     1
 93
        4
 10
186.075499413892
 20
440.117439469351
 42
0.0
 10
168.0754994138918
 20
440.1174394693509
 42
0.0
 10
168.0754994138918
 20
434.1174394693503
 42
0.0
 10
186.0754994138921
 20
434.1174394693502
 42
1.0
 97
        4
330
4156
330
4185
330
4153
330
418F
 92
        7
 72
     1
 73
     1
 93
        4
 10
155.0754994138918
 20
440.117439469351
 42
0.0
 10
139.5754994138918
 20
440.117439469351
 42
1.0
 10
139.5754994138918
 20
434.1174394693503
 42
0.0
 10
155.0754994138918
 20
434.1174394693502
 42
0.0
 97
        4
330
4156
330
4174
330
416A
330
4176
 75
     0
 76
     0
 52
45.0
 41
5.0
 77
     0
 78
     1
 53
45.0
 43
0.0
 44
0.0
 45
-3.535533905932737
 46
3.535533905932737
 79
     0
 47
0.3409984845051603
 98
        5
 10
380.0119331665296
 20
448.5612487558758
 10
363.2973356604011
 20
438.6722928186521
 10
318.2702638380411
 20
437.649296297722
 10
181.1423587660856
 20
437.649296297722
 10
151.4654258186583
 20
437.649296297722
  0
LINE
  5
493D
330
1E
100
AcDbEntity
  8
STEMPEL
100
AcDbLine
 10
327.9754994138917
 20
452.1174394693508
 30
0.0
 11
326.9754994138917
 21
453.1174394693508
 31
0.0
  0
LINE
  5
493E
330
1E
100
AcDbEntity
  8
STEMPEL
100
AcDbLine
 10
317.9754994138917
 20
452.1174394693508
 30
0.0
 11
327.9754994138914
 21
452.1174394693508
 31
0.0
  0
LINE
  5
493F
330
1E
100
AcDbEntity
  8
STEMPEL
100
AcDbLine
 10
318.9754994138917
 20
453.1174394693508
 30
0.0
 11
317.9754994138917
 21
452.1174394693508
 31
0.0
  0
LINE
  5
4940
330
1E
100
AcDbEntity
  8
STEMPEL
100
AcDbLine
 10
317.9754994138917
 20
452.1174394693508
 30
0.0
 11
317.9754994138917
 21
450.1174394693511
 31
0.0
  0
LINE
  5
4941
330
1E
100
AcDbEntity
  8
HILF
100
AcDbLine
 10
326.9754994138917
 20
453.1174394693508
 30
0.0
 11
326.9754994138918
 21
450.1174394693513
 31
0.0
  0
LINE
  5
4942
330
1E
100
AcDbEntity
  8
HILF
100
AcDbLine
 10
318.9754994138917
 20
453.1174394693507
 30
0.0
 11
318.9754994138917
 21
450.1174394693513
 31
0.0
  0
LINE
  5
4943
330
1E
100
AcDbEntity
  8
STEMPEL
100
AcDbLine
 10
326.9754994138917
 20
453.1174394693508
 30
0.0
 11
318.9754994138917
 21
453.1174394693508
 31
0.0
  0
LINE
  5
4944
330
1E
100
AcDbEntity
  8
STEMPEL
100
AcDbLine
 10
327.9754994138917
 20
452.1174394693507
 30
0.0
 11
327.9754994138917
 21
450.1174394693511
 31
0.0
  0
ARC
  5
4945
330
1E
100
AcDbEntity
  8
STEMPEL
100
AcDbCircle
 10
322.9754994138917
 20
419.8065503368964
 30
0.0
 40
30.31088913245485
100
AcDbArc
 50
81.78678929826011
 51
98.21321070173988
  0
ARC
  5
4946
330
1E
100
AcDbEntity
  8
STEMPEL
100
AcDbCircle
 10
316.4803088855085
 20
442.4231337615666
 30
0.0
 40
7.694305707784447
100
AcDbArc
 50
73.65710669401345
 51
106.3428933059834
  0
ARC
  5
4947
330
1E
100
AcDbEntity
  8
STEMPEL
100
AcDbCircle
 10
329.470689942275
 20
442.4231337615666
 30
0.0
 40
7.694305707784447
100
AcDbArc
 50
73.65710669401345
 51
106.3428933059834
  0
ARC
  5
4948
330
1E
100
AcDbEntity
  8
HILF
100
AcDbCircle
 10
322.9754994138917
 20
420.21897842169
 30
0.0
 40
22.41111549782308
100
AcDbArc
 50
78.85962783890391
 51
101.1403721610961
  0
ARC
  5
4949
330
1E
100
AcDbEntity
  8
HILF
100
AcDbCircle
 10
329.470689942275
 20
436.8689533198216
 30
0.0
 40
5.761140599691502
100
AcDbArc
 50
67.92594526326054
 51
112.0740547367394
  0
ARC
  5
494A
330
1E
100
AcDbEntity
  8
HILF
100
AcDbCircle
 10
316.4803088855084
 20
436.8689533198216
 30
0.0
 40
5.761140599691502
100
AcDbArc
 50
67.92594526326054
 51
112.0740547367394
  0
POINT
  5
494B
330
1E
100
AcDbEntity
  8
0
100
AcDbPoint
 10
322.9754994138917
 20
440.1174394693511
 30
0.0
210
0.0000000000000001
220
1.0
230
0.0
  0
LINE
  5
494C
330
1E
100
AcDbEntity
  8
STEMPEL
100
AcDbLine
 10
315.4754994138917
 20
450.1174394693511
 30
0.0
 11
330.4754994138917
 21
450.1174394693511
 31
0.0
  0
LINE
  5
494D
330
1E
100
AcDbEntity
  8
STEMPEL
100
AcDbLine
 10
331.6357534517361
 20
442.207795985551
 30
0.0
 11
331.6357534517361
 21
449.8065503368959
 31
0.0
  0
LINE
  5
494E
330
1E
100
AcDbEntity
  8
STEMPEL
100
AcDbLine
 10
327.3056264328139
 20
442.207795985551
 30
0.0
 11
327.3056264328139
 21
449.8065503368959
 31
0.0
  0
LINE
  5
494F
330
1E
100
AcDbEntity
  8
STEMPEL
100
AcDbLine
 10
318.6453723949695
 20
442.207795985551
 30
0.0
 11
318.6453723949695
 21
449.8065503368959
 31
0.0
  0
LINE
  5
4950
330
1E
100
AcDbEntity
  8
STEMPEL
100
AcDbLine
 10
333.382014521386
 20
441.5722089349406
 30
0.0
 11
312.5689843063975
 21
441.5722089349406
 31
0.0
  0
LINE
  5
4951
330
1E
100
AcDbEntity
  8
STEMPEL
100
AcDbLine
 10
333.1254994138916
 20
440.1174394693511
 30
0.0
 11
312.8254994138917
 21
440.1174394693511
 31
0.0
  0
LINE
  5
4952
330
1E
100
AcDbEntity
  8
STEMPEL
100
AcDbLine
 10
314.3152453760474
 20
442.207795985551
 30
0.0
 11
314.3152453760474
 21
449.8065503368959
 31
0.0
  0
LINE
  5
4953
330
1E
100
AcDbEntity
  8
STEMPEL
100
AcDbLine
 10
315.4754994138917
 20
450.1174394693511
 30
0.0
 11
314.3152453760474
 21
449.8065503368959
 31
0.0
  0
LINE
  5
4954
330
1E
100
AcDbEntity
  8
STEMPEL
100
AcDbLine
 10
331.6357534517361
 20
449.8065503368959
 30
0.0
 11
330.4754994138917
 21
450.1174394693511
 31
0.0
  0
LINE
  5
4955
330
1E
100
AcDbEntity
  8
STEMPEL
100
AcDbLine
 10
333.382014521386
 20
441.5722089349406
 30
0.0
 11
331.6357534517361
 21
442.207795985551
 31
0.0
  0
LINE
  5
4956
330
1E
100
AcDbEntity
  8
STEMPEL
100
AcDbLine
 10
314.3152453760474
 20
442.207795985551
 30
0.0
 11
312.5689843063975
 21
441.5722089349406
 31
0.0
  0
ARC
  5
4957
330
1E
100
AcDbEntity
  8
STEMPEL
100
AcDbCircle
 10
312.8254994138917
 20
440.8674394693512
 30
0.0
 40
0.7500000000000013
100
AcDbArc
 50
110.0000000000006
 51
269.9999991462263
  0
ARC
  5
4958
330
1E
100
AcDbEntity
  8
STEMPEL
100
AcDbCircle
 10
333.1254994138916
 20
440.8674394693512
 30
0.0
 40
0.750000000000001
100
AcDbArc
 50
269.9999991462263
 51
69.99999999999935
  0
LINE
  5
4959
330
1E
100
AcDbEntity
  8
STEMPEL
100
AcDbLine
 10
210.5754994138916
 20
453.1174394693504
 30
0.0
 11
202.5754994138916
 21
453.1174394693504
 31
0.0
  0
LINE
  5
495A
330
1E
100
AcDbEntity
  8
STEMPEL
100
AcDbLine
 10
201.5754994138916
 20
452.1174394693504
 30
0.0
 11
211.5754994138914
 21
452.1174394693504
 31
0.0
  0
LINE
  5
495B
330
1E
100
AcDbEntity
  8
STEMPEL
100
AcDbLine
 10
201.5754994138916
 20
452.1174394693504
 30
0.0
 11
201.5754994138916
 21
450.1174394693511
 31
0.0
  0
LINE
  5
495C
330
1E
100
AcDbEntity
  8
HILF
100
AcDbLine
 10
202.5754994138916
 20
453.1174394693503
 30
0.0
 11
202.5754994138916
 21
450.117439469351
 31
0.0
  0
LINE
  5
495D
330
1E
100
AcDbEntity
  8
STEMPEL
100
AcDbLine
 10
202.5754994138916
 20
453.1174394693504
 30
0.0
 11
201.5754994138916
 21
452.1174394693504
 31
0.0
  0
LINE
  5
495E
330
1E
100
AcDbEntity
  8
HILF
100
AcDbLine
 10
210.5754994138916
 20
453.1174394693504
 30
0.0
 11
210.5754994138916
 21
450.1174394693511
 31
0.0
  0
LINE
  5
495F
330
1E
100
AcDbEntity
  8
STEMPEL
100
AcDbLine
 10
211.5754994138916
 20
452.1174394693502
 30
0.0
 11
211.5754994138916
 21
450.117439469351
 31
0.0
  0
LINE
  5
4960
330
1E
100
AcDbEntity
  8
STEMPEL
100
AcDbLine
 10
211.5754994138916
 20
452.1174394693504
 30
0.0
 11
210.5754994138916
 21
453.1174394693504
 31
0.0
  0
ARC
  5
4961
330
1E
100
AcDbEntity
  8
STEMPEL
100
AcDbCircle
 10
206.5754994138916
 20
419.8065503368962
 30
0.0
 40
30.31088913245485
100
AcDbArc
 50
81.78678929826174
 51
98.21321070173826
  0
ARC
  5
4962
330
1E
100
AcDbEntity
  8
STEMPEL
100
AcDbCircle
 10
200.0803088855083
 20
442.4231337615666
 30
0.0
 40
7.694305707784447
100
AcDbArc
 50
73.65710669401501
 51
106.342893305985
  0
ARC
  5
4963
330
1E
100
AcDbEntity
  8
STEMPEL
100
AcDbCircle
 10
213.0706899422749
 20
442.4231337615666
 30
0.0
 40
7.694305707784447
100
AcDbArc
 50
74.89685203626369
 51
106.342893305985
  0
ARC
  5
4964
330
1E
100
AcDbEntity
  8
HILF
100
AcDbCircle
 10
206.5754994138916
 20
420.2189784216897
 30
0.0
 40
22.41111549782308
100
AcDbArc
 50
78.85962783890552
 51
101.1403721610945
  0
ARC
  5
4965
330
1E
100
AcDbEntity
  8
HILF
100
AcDbCircle
 10
213.0706899422749
 20
436.8689533198214
 30
0.0
 40
5.761140599691502
100
AcDbArc
 50
69.63568072596782
 51
112.0740547367379
  0
ARC
  5
4966
330
1E
100
AcDbEntity
  8
HILF
100
AcDbCircle
 10
200.0803088855083
 20
436.8689533198214
 30
0.0
 40
5.761140599691502
100
AcDbArc
 50
67.92594526326206
 51
112.0740547367379
  0
POINT
  5
4967
330
1E
100
AcDbEntity
  8
0
100
AcDbPoint
 10
206.5754994138916
 20
440.1174394693511
 30
0.0
210
0.0000000000000001
220
1.0
230
0.0
  0
LINE
  5
4968
330
1E
100
AcDbEntity
  8
STEMPEL
100
AcDbLine
 10
199.0754994138916
 20
450.1174394693511
 30
0.0
 11
214.0754994138916
 21
450.1174394693511
 31
0.0
  0
LINE
  5
496A
330
1E
100
AcDbEntity
  8
STEMPEL
100
AcDbLine
 10
210.9056264328138
 20
442.2077959855509
 30
0.0
 11
210.9056264328138
 21
449.8065503368956
 31
0.0
  0
LINE
  5
496B
330
1E
100
AcDbEntity
  8
STEMPEL
100
AcDbLine
 10
202.2453723949694
 20
442.2077959855509
 30
0.0
 11
202.2453723949694
 21
449.8065503368956
 31
0.0
  0
LINE
  5
496C
330
1E
100
AcDbEntity
  8
STEMPEL
100
AcDbLine
 10
215.0754994138932
 20
441.5722089349404
 30
0.0
 11
196.1689843063973
 21
441.5722089349405
 31
0.0
  0
LINE
  5
496E
330
1E
100
AcDbEntity
  8
STEMPEL
100
AcDbLine
 10
197.9152453760472
 20
442.2077959855509
 30
0.0
 11
197.9152453760472
 21
449.8065503368956
 31
0.0
  0
LINE
  5
496F
330
1E
100
AcDbEntity
  8
STEMPEL
100
AcDbLine
 10
199.0754994138916
 20
450.1174394693511
 30
0.0
 11
197.9152453760472
 21
449.8065503368956
 31
0.0
  0
LINE
  5
4970
330
1E
100
AcDbEntity
  8
STEMPEL
100
AcDbLine
 10
215.0754994138933
 20
449.8494902769194
 30
0.0
 11
214.0754994138916
 21
450.1174394693511
 31
0.0
  0
LINE
  5
4972
330
1E
100
AcDbEntity
  8
STEMPEL
100
AcDbLine
 10
197.9152453760472
 20
442.2077959855509
 30
0.0
 11
196.1689843063973
 21
441.5722089349405
 31
0.0
  0
ARC
  5
4973
330
1E
100
AcDbEntity
  8
STEMPEL
100
AcDbCircle
 10
196.4254994138916
 20
440.8674394693512
 30
0.0
 40
0.7500000000000013
100
AcDbArc
 50
110.0000000000006
 51
269.9999991462263
  0
LINE
  5
4975
330
1E
100
AcDbEntity
  8
STEMPEL
100
AcDbLine
 10
166.5754994138918
 20
452.1174394693502
 30
0.0
 11
166.5754994138918
 21
450.1174394693509
 31
0.0
  0
LINE
  5
4976
330
1E
100
AcDbEntity
  8
HILF
100
AcDbLine
 10
165.5754994138918
 20
453.1174394693504
 30
0.0
 11
165.5754994138918
 21
450.1174394693509
 31
0.0
  0
LINE
  5
4977
330
1E
100
AcDbEntity
  8
STEMPEL
100
AcDbLine
 10
156.5754994138918
 20
452.1174394693504
 30
0.0
 11
156.5754994138918
 21
450.1174394693509
 31
0.0
  0
LINE
  5
4978
330
1E
100
AcDbEntity
  8
HILF
100
AcDbLine
 10
157.5754994138918
 20
453.1174394693503
 30
0.0
 11
157.5754994138918
 21
450.1174394693509
 31
0.0
  0
LINE
  5
4979
330
1E
100
AcDbEntity
  8
STEMPEL
100
AcDbLine
 10
156.5754994138918
 20
452.1174394693504
 30
0.0
 11
166.5754994138916
 21
452.1174394693504
 31
0.0
  0
LINE
  5
497A
330
1E
100
AcDbEntity
  8
STEMPEL
100
AcDbLine
 10
165.5754994138918
 20
453.1174394693504
 30
0.0
 11
157.5754994138918
 21
453.1174394693504
 31
0.0
  0
LINE
  5
497B
330
1E
100
AcDbEntity
  8
STEMPEL
100
AcDbLine
 10
157.5754994138918
 20
453.1174394693504
 30
0.0
 11
156.5754994138918
 21
452.1174394693504
 31
0.0
  0
LINE
  5
497C
330
1E
100
AcDbEntity
  8
STEMPEL
100
AcDbLine
 10
166.5754994138918
 20
452.1174394693504
 30
0.0
 11
165.5754994138918
 21
453.1174394693504
 31
0.0
  0
ARC
  5
497D
330
1E
100
AcDbEntity
  8
STEMPEL
100
AcDbCircle
 10
161.5754994138918
 20
419.8065503368961
 30
0.0
 40
30.31088913245485
100
AcDbArc
 50
81.78678929826174
 51
98.21321070173826
  0
ARC
  5
497E
330
1E
100
AcDbEntity
  8
STEMPEL
100
AcDbCircle
 10
155.0803088855085
 20
442.4231337615665
 30
0.0
 40
7.694305707784447
100
AcDbArc
 50
73.65710669401501
 51
106.342893305985
  0
ARC
  5
497F
330
1E
100
AcDbEntity
  8
STEMPEL
100
AcDbCircle
 10
168.0706899422751
 20
442.4231337615665
 30
0.0
 40
7.694305707784447
100
AcDbArc
 50
73.65710669401501
 51
106.342893305985
  0
ARC
  5
4980
330
1E
100
AcDbEntity
  8
HILF
100
AcDbCircle
 10
161.5754994138918
 20
420.2189784216897
 30
0.0
 40
22.41111549782308
100
AcDbArc
 50
78.85962783890552
 51
101.1403721610945
  0
ARC
  5
4981
330
1E
100
AcDbEntity
  8
HILF
100
AcDbCircle
 10
168.0706899422751
 20
436.8689533198214
 30
0.0
 40
5.761140599691502
100
AcDbArc
 50
67.92594526326206
 51
112.0740547367379
  0
ARC
  5
4982
330
1E
100
AcDbEntity
  8
HILF
100
AcDbCircle
 10
155.0803088855085
 20
436.8689533198214
 30
0.0
 40
5.761140599691502
100
AcDbArc
 50
67.92594526326206
 51
112.0740547367379
  0
POINT
  5
4983
330
1E
100
AcDbEntity
  8
0
100
AcDbPoint
 10
161.5754994138918
 20
440.1174394693509
 30
0.0
210
0.0000000000000001
220
1.0
230
0.0
  0
LINE
  5
4984
330
1E
100
AcDbEntity
  8
STEMPEL
100
AcDbLine
 10
154.0754994138918
 20
450.1174394693509
 30
0.0
 11
169.0754994138918
 21
450.1174394693509
 31
0.0
  0
LINE
  5
4985
330
1E
100
AcDbEntity
  8
STEMPEL
100
AcDbLine
 10
170.2357534517362
 20
442.2077959855508
 30
0.0
 11
170.2357534517362
 21
449.8065503368956
 31
0.0
  0
LINE
  5
4986
330
1E
100
AcDbEntity
  8
STEMPEL
100
AcDbLine
 10
165.905626432814
 20
442.2077959855508
 30
0.0
 11
165.905626432814
 21
449.8065503368956
 31
0.0
  0
LINE
  5
4987
330
1E
100
AcDbEntity
  8
STEMPEL
100
AcDbLine
 10
157.2453723949696
 20
442.2077959855508
 30
0.0
 11
157.2453723949696
 21
449.8065503368956
 31
0.0
  0
LINE
  5
4988
330
1E
100
AcDbEntity
  8
STEMPEL
100
AcDbLine
 10
171.9820145213861
 20
441.5722089349404
 30
0.0
 11
151.1689843063976
 21
441.5722089349404
 31
0.0
  0
LINE
  5
4989
330
1E
100
AcDbEntity
  8
STEMPEL
100
AcDbLine
 10
171.7254994138918
 20
440.1174394693509
 30
0.0
 11
151.4254994138918
 21
440.1174394693509
 31
0.0
  0
LINE
  5
498A
330
1E
100
AcDbEntity
  8
STEMPEL
100
AcDbLine
 10
152.9152453760474
 20
442.2077959855508
 30
0.0
 11
152.9152453760474
 21
449.8065503368956
 31
0.0
  0
LINE
  5
498B
330
1E
100
AcDbEntity
  8
STEMPEL
100
AcDbLine
 10
154.0754994138918
 20
450.1174394693509
 30
0.0
 11
152.9152453760474
 21
449.8065503368956
 31
0.0
  0
LINE
  5
498C
330
1E
100
AcDbEntity
  8
STEMPEL
100
AcDbLine
 10
170.2357534517362
 20
449.8065503368956
 30
0.0
 11
169.0754994138918
 21
450.1174394693509
 31
0.0
  0
LINE
  5
498D
330
1E
100
AcDbEntity
  8
STEMPEL
100
AcDbLine
 10
171.9820145213861
 20
441.5722089349404
 30
0.0
 11
170.2357534517362
 21
442.2077959855508
 31
0.0
  0
LINE
  5
498E
330
1E
100
AcDbEntity
  8
STEMPEL
100
AcDbLine
 10
152.9152453760474
 20
442.2077959855508
 30
0.0
 11
151.1689843063976
 21
441.5722089349404
 31
0.0
  0
ARC
  5
498F
330
1E
100
AcDbEntity
  8
STEMPEL
100
AcDbCircle
 10
151.4254994138918
 20
440.8674394693509
 30
0.0
 40
0.7500000000000013
100
AcDbArc
 50
110.0000000000006
 51
269.9999991462263
  0
ARC
  5
4990
330
1E
100
AcDbEntity
  8
STEMPEL
100
AcDbCircle
 10
171.7254994138918
 20
440.8674394693509
 30
0.0
 40
0.750000000000001
100
AcDbArc
 50
269.9999991462263
 51
69.99999999999935
  0
TEXT
  5
49BB
330
1E
100
AcDbEntity
  8
VOLL
100
AcDbText
 10
486.3522299120094
 20
631.3884267060463
 30
0.0
 40
1.8
  1

  7
GREEKS
100
AcDbText
  0
HATCH
  5
4BA4
330
1E
100
AcDbEntity
  8
SCHRAFF
100
AcDbHatch
 10
0.0
 20
0.0
 30
0.0
210
0.0
220
0.0
230
1.0
  2
NET
 70
     0
 71
     0
 91
        5
 92
        7
 72
     0
 73
     1
 93
        5
 10
374.0754994138918
 20
581.1174394693499
 10
348.8949057673736
 20
581.1174394693499
 10
350.9018056811628
 20
578.1174394693498
 10
367.8579849926198
 20
578.11743946935
 10
374.0754994138918
 20
578.1174394693501
 97
        0
 92
        7
 72
     0
 73
     1
 93
        4
 10
348.8949057673733
 20
581.1174394693498
 10
322.9754994138918
 20
581.1174394693499
 10
322.9754994138918
 20
578.1174394693501
 10
350.9018056811627
 20
578.1174394693501
 97
        0
 92
        7
 72
     0
 73
     1
 93
        4
 10
322.9754994138917
 20
581.1174394693501
 10
314.0754994138918
 20
581.1174394693501
 10
314.0754994138917
 20
578.1174394693501
 10
322.9754994138918
 20
578.1174394693501
 97
        0
 92
        7
 72
     0
 73
     1
 93
        4
 10
189.0754994138917
 20
581.1174394693501
 10
168.0754994138917
 20
581.1174394693503
 10
168.0754994138917
 20
578.1174394693501
 10
189.0754994138917
 20
578.1174394693502
 97
        0
 92
        7
 72
     0
 73
     1
 93
        4
 10
155.0754994138917
 20
581.1174394693502
 10
129.0754994138917
 20
581.1174394693501
 10
129.0754994138917
 20
578.1174394693501
 10
155.0754994138917
 20
578.1174394693501
 97
        0
 75
     0
 76
     1
 52
45.0
 41
15.0
 77
     0
 78
     2
 53
45.0
 43
3.206010777319932
 44
100.2761554490654
 45
-1.325825214724776
 46
1.325825214724776
 79
     0
 53
135.0
 43
3.206010777319932
 44
100.2761554490654
 45
-1.325825214724776
 46
-1.325825214724776
 79
     0
 47
0.3214376106877918
 98
        5
 10
357.0860838086218
 20
579.8038571242309
 10
337.471736043416
 20
579.8038571242309
 10
321.3944021954503
 20
580.1252941031252
 10
186.3447963035791
 20
579.8038571242309
 10
152.5823954843439
 20
579.8038571242309
  0
LINE
  5
4BA5
330
1E
100
AcDbEntity
  8
STEMPEL
100
AcDbLine
 10
151.8563604073509
 20
606.1842704107839
 30
0.0
 11
148.0482808195325
 21
606.1842704107839
 31
0.0
  0
ARC
  5
4BA6
330
1E
100
AcDbEntity
  8
STEMPEL
100
AcDbCircle
 10
148.2363918983615
 20
605.6674394693516
 30
0.0
 40
0.5500000000000003
100
AcDbArc
 50
110.0000000000022
 51
270.0
  0
ARC
  5
4BA7
330
1E
100
AcDbEntity
  8
STEMPEL
100
AcDbCircle
 10
161.3363918983616
 20
605.6674394693516
 30
0.0
 40
0.5500000000000009
100
AcDbArc
 50
270.0
 51
69.99999999999783
  0
LINE
  5
4BA8
330
1E
100
AcDbEntity
  8
STEMPEL
100
AcDbLine
 10
161.5245029771906
 20
606.1842704107839
 30
0.0
 11
160.5598945902578
 21
606.535359151351
 31
0.0
  0
LINE
  5
4BA9
330
1E
100
AcDbEntity
  8
STEMPEL
100
AcDbLine
 10
149.0128892064653
 20
606.535359151351
 30
0.0
 11
148.0482808195325
 21
606.1842704107839
 31
0.0
  0
LINE
  5
4BAA
330
1E
100
AcDbEntity
  8
STEMPEL
100
AcDbLine
 10
153.0553709506315
 20
611.7174394693518
 30
0.0
 11
149.7863918983616
 21
611.7174394693518
 31
0.0
  0
LINE
  5
4BAB
330
1E
100
AcDbEntity
  8
STEMPEL
100
AcDbLine
 10
160.5598945902578
 20
608.4955107411661
 30
0.0
 11
160.5598945902578
 21
606.535359151351
 31
0.0
  0
LINE
  5
4BAC
330
1E
100
AcDbEntity
  8
STEMPEL
100
AcDbLine
 10
151.8996405524134
 20
611.5101800477148
 30
0.0
 11
151.8996405524134
 21
606.535359151351
 31
0.0
  0
LINE
  5
4BAD
330
1E
100
AcDbEntity
  8
STEMPEL
100
AcDbLine
 10
149.0128892064653
 20
611.5101800477148
 30
0.0
 11
149.0128892064653
 21
606.535359151351
 31
0.0
  0
LINE
  5
4BAE
330
1E
100
AcDbEntity
  8
STEMPEL
100
AcDbLine
 10
161.5245029771906
 20
606.1842704107839
 30
0.0
 11
159.6627150729183
 21
606.1842704107839
 31
0.0
  0
LINE
  5
4BAF
330
1E
100
AcDbEntity
  8
STEMPEL
100
AcDbLine
 10
149.7863918983616
 20
611.7174394693518
 30
0.0
 11
149.0128892064653
 21
611.5101800477148
 31
0.0
  0
ARC
  5
4BB0
330
1E
100
AcDbEntity
  8
STEMPEL
100
AcDbCircle
 10
150.4562648794393
 20
606.5879023308286
 30
0.0
 40
5.129537138523076
100
AcDbArc
 50
73.65710669401657
 51
106.3428933059834
  0
ARC
  5
4BB1
330
1E
100
AcDbEntity
  8
STEMPEL
100
AcDbCircle
 10
154.7863918983616
 20
591.5101800477148
 30
0.0
 40
20.20725942163691
100
AcDbArc
 50
94.91416948520869
 51
98.21321070173988
  0
ARC
  5
4BB2
330
1E
100
AcDbEntity
  8
HILF
100
AcDbCircle
 10
159.1165189172838
 20
602.9749661456471
 30
0.0
 40
3.841839622940954
100
AcDbArc
 50
67.9324721810067
 51
77.40284130776929
  0
ARC
  5
4BB3
330
1E
100
AcDbEntity
  8
HILF
100
AcDbCircle
 10
150.4562648794393
 20
602.9761307075353
 30
0.0
 40
3.840760399790701
100
AcDbArc
 50
67.92594526323999
 51
112.07405473676
  0
ARC
  5
4BB4
330
1E
100
AcDbEntity
  8
HILF
100
AcDbCircle
 10
154.7863918983616
 20
591.8761474421255
 30
0.0
 40
14.94074366520046
100
AcDbArc
 50
100.2909006776788
 51
101.1403721611056
  0
ARC
  5
4BB5
330
1E
100
AcDbEntity
  8
HILF
100
AcDbCircle
 10
373.5754994138917
 20
591.8761474421255
 30
0.0
 40
14.94074366520046
100
AcDbArc
 50
78.85962783889434
 51
101.1403721611056
  0
ARC
  5
4BB6
330
1E
100
AcDbEntity
  8
HILF
100
AcDbCircle
 10
369.2453723949695
 20
602.9761307075353
 30
0.0
 40
3.840760399790701
100
AcDbArc
 50
67.92594526323999
 51
112.07405473676
  0
ARC
  5
4BB7
330
1E
100
AcDbEntity
  8
HILF
100
AcDbCircle
 10
377.905626432814
 20
602.9749661456471
 30
0.0
 40
3.841839622940954
100
AcDbArc
 50
67.9324721810067
 51
112.0675278189933
  0
ARC
  5
4BB8
330
1E
100
AcDbEntity
  8
STEMPEL
100
AcDbCircle
 10
373.5754994138917
 20
591.5101800477148
 30
0.0
 40
20.20725942163691
100
AcDbArc
 50
81.78678929826011
 51
98.21321070173988
  0
ARC
  5
4BB9
330
1E
100
AcDbEntity
  8
STEMPEL
100
AcDbCircle
 10
369.2453723949695
 20
606.5879023308286
 30
0.0
 40
5.129537138523076
100
AcDbArc
 50
73.65710669401657
 51
106.3428933059834
  0
LINE
  5
4BBA
330
1E
100
AcDbEntity
  8
STEMPEL
100
AcDbLine
 10
368.5754994138918
 20
611.7174394693518
 30
0.0
 11
367.8019967219955
 21
611.5101800477148
 31
0.0
  0
LINE
  5
4BBB
330
1E
100
AcDbEntity
  8
STEMPEL
100
AcDbLine
 10
378.5754994138918
 20
611.7174394693518
 30
0.0
 11
379.3490021057881
 21
611.5101800477148
 31
0.0
  0
ARC
  5
4BBC
330
1E
100
AcDbEntity
  8
STEMPEL
100
AcDbCircle
 10
377.905626432814
 20
606.5879023308286
 30
0.0
 40
5.129537138523076
100
AcDbArc
 50
73.65710669401657
 51
106.3428933059834
  0
LINE
  5
4BBD
330
1E
100
AcDbEntity
  8
STEMPEL
100
AcDbLine
 10
380.3136104927208
 20
606.1842704107839
 30
0.0
 11
366.8373883350627
 21
606.1842704107839
 31
0.0
  0
LINE
  5
4BBE
330
1E
100
AcDbEntity
  8
STEMPEL
100
AcDbLine
 10
380.1254994138917
 20
605.1174394693516
 30
0.0
 11
367.0254994138917
 21
605.1174394693516
 31
0.0
  0
LINE
  5
4BBF
330
1E
100
AcDbEntity
  8
STEMPEL
100
AcDbLine
 10
367.8019967219955
 20
611.5101800477148
 30
0.0
 11
367.8019967219955
 21
606.535359151351
 31
0.0
  0
LINE
  5
4BC0
330
1E
100
AcDbEntity
  8
STEMPEL
100
AcDbLine
 10
370.6887480679436
 20
611.5101800477148
 30
0.0
 11
370.6887480679436
 21
606.535359151351
 31
0.0
  0
LINE
  5
4BC1
330
1E
100
AcDbEntity
  8
STEMPEL
100
AcDbLine
 10
376.4622507598399
 20
611.5101800477148
 30
0.0
 11
376.4622507598399
 21
606.535359151351
 31
0.0
  0
LINE
  5
4BC2
330
1E
100
AcDbEntity
  8
STEMPEL
100
AcDbLine
 10
379.3490021057881
 20
611.5101800477148
 30
0.0
 11
379.349002105788
 21
606.535359151351
 31
0.0
  0
LINE
  5
4BC3
330
1E
100
AcDbEntity
  8
STEMPEL
100
AcDbLine
 10
378.5754994138918
 20
611.7174394693518
 30
0.0
 11
368.5754994138918
 21
611.7174394693518
 31
0.0
  0
LINE
  5
4BC4
330
1E
100
AcDbEntity
  8
STEMPEL
100
AcDbLine
 10
367.8019967219955
 20
606.535359151351
 30
0.0
 11
366.8373883350627
 21
606.1842704107839
 31
0.0
  0
LINE
  5
4BC5
330
1E
100
AcDbEntity
  8
STEMPEL
100
AcDbLine
 10
380.3136104927208
 20
606.1842704107839
 30
0.0
 11
379.349002105788
 21
606.535359151351
 31
0.0
  0
ARC
  5
4BC6
330
1E
100
AcDbEntity
  8
STEMPEL
100
AcDbCircle
 10
380.1254994138917
 20
605.6674394693516
 30
0.0
 40
0.5500000000000009
100
AcDbArc
 50
270.0
 51
69.99999999999783
  0
ARC
  5
4BC7
330
1E
100
AcDbEntity
  8
STEMPEL
100
AcDbCircle
 10
367.0254994138917
 20
605.6674394693516
 30
0.0
 40
0.5500000000000003
100
AcDbArc
 50
110.0000000000022
 51
270.0
  0
HATCH
  5
4BC8
330
1E
100
AcDbEntity
  8
SCHRAFF
100
AcDbHatch
 10
0.0
 20
0.0
 30
0.0
210
0.0
220
0.0
230
1.0
  2
_U
 70
     0
 71
     0
 91
        5
 92
        7
 72
     1
 73
     1
 93
       39
 10
331.5754994138921
 20
694.1174394693514
 42
0.0
 10
277.0150140089486
 20
694.1174394693511
 42
-0.2679491924311848
 10
275.7159759032716
 20
694.8674394693512
 42
0.2859076546239628
 10
274.3169377975945
 20
695.6141024240608
 42
0.2859076546237491
 10
272.9178996919184
 20
694.8674394693512
 42
-0.2679491924311245
 10
271.6188615862417
 20
694.1174394693511
 42
0.0
 10
265.1650140089482
 20
694.1174394693511
 42
-0.2679491924311449
 10
263.8659759032715
 20
694.8674394693512
 42
0.2859076546238214
 10
262.466937797595
 20
695.6141024240608
 42
0.3607372083888889
 10
260.9145690427668
 20
694.4924394693511
 42
-0.3419987131196436
 10
260.4304461244908
 20
694.1174394693511
 42
0.0
 10
260.2416969318915
 20
694.1174394693511
 42
-0.341998713119513
 10
259.7575740136158
 20
694.4924394693511
 42
0.3419987131196436
 10
258.3052052587881
 20
695.6174394693512
 42
0.0
 10
251.5754994138919
 20
695.6174394693512
 42
0.0
 10
251.5754994138919
 20
694.6174394693512
 42
0.0
 10
258.3052052587882
 20
694.6174394693512
 42
-0.3419987131195064
 10
258.7893281770638
 20
694.2424394693512
 42
0.3596757619904947
 10
260.3360715281911
 20
693.1204112680225
 42
0.3596757619905158
 10
261.8828148793185
 20
694.2424394693512
 42
-0.3419987131196715
 10
262.3669377975944
 20
694.6174394693512
 42
0.0
 10
262.5669377975947
 20
694.6174394693512
 42
-0.267949192431149
 10
262.999950499487
 20
694.3674394693512
 42
0.2679491924311241
 10
265.1650140089482
 20
693.1174394693512
 42
0.0
 10
271.6188615862422
 20
693.1174394693512
 42
0.2679491924310771
 10
273.7839250957031
 20
694.3674394693509
 42
-0.2679491924312612
 10
274.2169377975953
 20
694.6174394693512
 42
0.0
 10
274.4169377975946
 20
694.6174394693512
 42
-0.2679491924313018
 10
274.8499504994873
 20
694.3674394693514
 42
0.2679491924311406
 10
277.0150140089485
 20
693.1174394693514
 42
0.0
 10
331.57549941389
 20
693.1174394693514
 42
-0.1340385084113211
 10
334.1159990890686
 20
692.4239300824174
 42
0.0
 10
358.0948529820188
 20
678.4362769162323
 42
-0.2667503951500854
 10
360.5754994138919
 20
674.1173815020358
 42
0.0
 10
360.5754994138919
 20
669.1174394693514
 42
0.0
 10
361.575499413892
 20
669.1174394693514
 42
0.0
 10
361.575499413892
 20
674.1173815020356
 42
0.2662608607120724
 10
358.6081940355667
 20
679.2945200294143
 42
0.0
 10
334.5754994138403
 20
693.3135918920875
 42
0.1316524975848892
 97
        0
 92
        7
 72
     1
 73
     1
 93
        8
 10
361.575499413892
 20
629.1174394693514
 42
0.0
 10
360.5754994138919
 20
629.1174394693514
 42
0.0
 10
360.5754994138919
 20
610.1174394693519
 42
0.4142135623731166
 10
366.5754994138919
 20
604.1174394693514
 42
0.0
 10
369.5754994138919
 20
604.1174394693514
 42
0.0
 10
369.5754994138918
 20
605.1174394693518
 42
0.0
 10
366.5754994138917
 20
605.1174394693519
 42
-0.4142135623730752
 10
361.575499413892
 20
610.1174394693519
 42
0.0
 97
        0
 92
        7
 72
     0
 73
     1
 93
        4
 10
381.5754994138917
 20
605.1174394693514
 10
377.5754994138918
 20
605.1174394693516
 10
377.5754994138919
 20
604.1174394693514
 10
381.5754994138918
 20
604.1174394693514
 97
        0
 92
        7
 72
     1
 73
     1
 93
        8
 10
142.5754994138919
 20
610.1174394693519
 42
0.0
 10
142.575499413892
 20
629.1174394693514
 42
0.0
 10
141.5754994138918
 20
629.1174394693514
 42
0.0
 10
141.5754994138918
 20
610.1174394693519
 42
-0.4142135623730909
 10
136.5754994138919
 20
605.1174394693519
 42
0.0
 10
121.5754994138917
 20
605.1174394693514
 42
0.0
 10
121.5754994138916
 20
604.1174394693514
 42
0.0
 10
136.5754994138919
 20
604.1174394693514
 42
0.4142135623731175
 97
        0
 92
        7
 72
     1
 73
     1
 93
       40
 10
228.4789250957024
 20
694.3674394693512
 42
-0.2679491924310875
 10
228.9119377975946
 20
694.6174394693512
 42
0.0
 10
229.1119377975948
 20
694.6174394693512
 42
-0.2679491924312574
 10
229.5449504994873
 20
694.3674394693514
 42
0.267949192431145
 10
231.7100140089486
 20
693.1174394693512
 42
0.0
 10
233.768861586241
 20
693.1174394693512
 42
0.2679491924311416
 10
235.9339250957022
 20
694.3674394693512
 42
-0.2679491924310647
 10
236.3669377975944
 20
694.6174394693512
 42
0.0
 10
236.5669377975947
 20
694.6174394693512
 42
-0.267949192430994
 10
236.9999504994866
 20
694.3674394693512
 42
0.2679491924311175
 10
239.1650140089477
 20
693.1174394693512
 42
0.0
 10
245.6188615862419
 20
693.1174394693512
 42
0.2679491924310871
 10
247.7839250957027
 20
694.3674394693509
 42
-0.2679491924312534
 10
248.2169377975951
 20
694.6174394693512
 42
0.0
 10
251.5754994138919
 20
694.6174394693512
 42
0.0
 10
251.5754994138919
 20
695.6174394693512
 42
0.0
 10
248.2169377975946
 20
695.6174394693512
 42
0.2679491924310706
 10
246.9178996919182
 20
694.8674394693512
 42
-0.2679491924311357
 10
245.6188615862415
 20
694.1174394693511
 42
0.0
 10
239.1650140089476
 20
694.1174394693511
 42
-0.2679491924310962
 10
237.8659759032712
 20
694.8674394693512
 42
0.2859076546238522
 10
236.4669377975945
 20
695.6141024240608
 42
0.2859076546238809
 10
235.0678996919178
 20
694.8674394693512
 42
-0.2679491924311237
 10
233.7688615862411
 20
694.1174394693511
 42
0.0
 10
231.7100140089486
 20
694.1174394693511
 42
-0.2679491924311723
 10
230.4109759032717
 20
694.8674394693512
 42
0.2859076546238861
 10
229.0119377975949
 20
695.6141024240608
 42
0.2859076546239122
 10
227.612899691918
 20
694.8674394693512
 42
-0.267949192431137
 10
226.3138615862413
 20
694.117439469351
 42
0.0
 10
171.5754994138918
 20
694.1174394693507
 42
0.1316524975836561
 10
168.5754994139681
 20
693.3135918921018
 42
0.0
 10
144.5428047921872
 20
679.2945200293968
 42
0.2662608607105233
 10
141.5754994138918
 20
674.1173815020361
 42
0.0
 10
141.5754994138918
 20
669.1174394693514
 42
0.0
 10
142.5754994138919
 20
669.1174394693514
 42
0.0
 10
142.5754994138919
 20
674.1173815020361
 42
-0.2667503951500889
 10
145.0561458457648
 20
678.4362769162321
 42
0.0
 10
169.0349997387057
 20
692.4239300824117
 42
-0.1340385084119114
 10
171.5754994138918
 20
693.117439469351
 42
0.0
 10
226.3138615862413
 20
693.1174394693512
 42
0.2679491924311331
 97
        0
 75
     0
 76
     0
 52
45.0
 41
2.0
 77
     0
 78
     1
 53
45.0
 43
17.09098303921422
 44
175.589229561192
 45
-1.414213562373094
 46
1.414213562373095
 79
     0
 47
0.2376111440341236
 98
        5
 10
313.685577075618
 20
693.9122622522693
 10
361.3662913876094
 20
620.2479673738642
 10
379.8961672872785
 20
604.900046342277
 10
128.4484903114118
 20
604.4763060111517
 10
178.8668009088216
 20
693.8180985320025
  0
ELLIPSE
  5
4BC9
330
1E
100
AcDbEntity
  8
STEMPEL
100
AcDbEllipse
 10
306.4475095830129
 20
661.6174394693516
 30
0.0
 11
0.0
 21
7.5
 31
0.0
210
0.0
220
0.0
230
-1.0
 40
0.8660254037843856
 41
4.712388980384689
 42
6.24459510668465
  0
ELLIPSE
  5
4BCA
330
1E
100
AcDbEntity
  8
STEMPEL
100
AcDbEllipse
 10
305.946332587571
 20
661.6174394693516
 30
0.0
 11
0.0
 21
7.5
 31
0.0
210
0.0
220
0.0
230
-1.0
 40
0.8660254037843856
 41
4.712388980384689
 42
7.853981633974482
  0
ELLIPSE
  5
4BCB
330
1E
100
AcDbEntity
  8
STEMPEL
100
AcDbEllipse
 10
305.946332587571
 20
636.6174394693516
 30
0.0
 11
0.0
 21
-7.5
 31
0.0
210
0.0
220
0.0
230
1.0
 40
0.8660254037843856
 41
4.712388980384689
 42
7.853981633974482
  0
ELLIPSE
  5
4BCC
330
1E
100
AcDbEntity
  8
STEMPEL
100
AcDbEllipse
 10
306.4475095830129
 20
636.6174394693516
 30
0.0
 11
0.0
 21
-7.5
 31
0.0
210
0.0
220
0.0
230
1.0
 40
0.8660254037843856
 41
4.712388980384689
 42
6.24459510668465
  0
LINE
  5
4BCD
330
1E
100
AcDbEntity
  8
STEMPEL
100
AcDbLine
 10
299.4511420591882
 20
661.6174394693516
 30
0.0
 11
299.4511420591882
 21
636.6174394693516
 31
0.0
  0
LINE
  5
4BCE
330
1E
100
AcDbEntity
  8
STEMPEL
100
AcDbLine
 10
299.9523190546301
 20
661.6174394693516
 30
0.0
 11
299.9523190546301
 21
636.6174394693516
 31
0.0
  0
LINE
  5
4BCF
330
1E
100
AcDbEntity
  8
STEMPEL
100
AcDbLine
 10
312.4415231159539
 20
661.6174394693516
 30
0.0
 11
312.4415231159539
 21
636.6174394693532
 31
0.0
  0
LINE
  5
4BD0
330
1E
100
AcDbEntity
  8
STEMPEL
100
AcDbLine
 10
349.4985449205549
 20
661.6174394693516
 30
0.0
 11
349.4985449205549
 21
636.6174394693548
 31
0.0
  0
LINE
  5
4BD1
330
1E
100
AcDbEntity
  8
STEMPEL
100
AcDbLine
 10
341.9985449205551
 20
661.6174394693516
 30
0.0
 11
341.9985449205551
 21
636.6174394693532
 31
0.0
  0
LINE
  5
4BD2
330
1E
100
AcDbEntity
  8
STEMPEL
100
AcDbLine
 10
342.866608940244
 20
636.6174394693516
 30
0.0
 11
342.866608940244
 21
661.6174394693532
 31
0.0
  0
ELLIPSE
  5
4BD3
330
1E
100
AcDbEntity
  8
STEMPEL
100
AcDbEllipse
 10
346.6166089402438
 20
636.6174394693532
 30
0.0
 11
0.0
 21
-7.499999999999999
 31
0.0
210
0.0
220
0.0
230
1.0
 40
0.4999999999999926
 41
4.712388980384689
 42
6.167183451052224
  0
ELLIPSE
  5
4BD4
330
1E
100
AcDbEntity
  8
STEMPEL
100
AcDbEllipse
 10
345.7485449205551
 20
636.6174394693532
 30
0.0
 11
0.0
 21
-7.499999999999999
 31
0.0
210
0.0
220
0.0
230
1.0
 40
0.4999999999999926
 41
4.712388980384689
 42
7.853981633974482
  0
ELLIPSE
  5
4BD5
330
1E
100
AcDbEntity
  8
STEMPEL
100
AcDbEllipse
 10
346.6166089402438
 20
661.6174394693516
 30
0.0
 11
0.0
 21
7.499999999999999
 31
0.0
210
0.0
220
0.0
230
-1.0
 40
0.4999999999999926
 41
4.712388980384689
 42
6.167183451052224
  0
ELLIPSE
  5
4BD6
330
1E
100
AcDbEntity
  8
STEMPEL
100
AcDbEllipse
 10
345.7485449205551
 20
661.6174394693516
 30
0.0
 11
0.0
 21
7.499999999999999
 31
0.0
210
0.0
220
0.0
230
-1.0
 40
0.4999999999999926
 41
4.712388980384689
 42
7.853981633974482
  0
LINE
  5
4BD7
330
1E
100
AcDbEntity
  8
STEMPEL
100
AcDbLine
 10
361.5754994138917
 20
629.1174394693514
 30
0.0
 11
360.5754994138917
 21
629.1174394693514
 31
0.0
  0
LINE
  5
4BD8
330
1E
100
AcDbEntity
  8
STEMPEL
100
AcDbLine
 10
361.5754994138917
 20
669.1174394693514
 30
0.0
 11
360.5754994138917
 21
669.1174394693514
 31
0.0
  0
ELLIPSE
  5
4BD9
330
1E
100
AcDbEntity
  8
STEMPEL
100
AcDbEllipse
 10
196.7034892447706
 20
661.6174394693516
 30
0.0
 11
0.0
 21
7.5
 31
0.0
210
0.0
220
0.0
230
1.0
 40
0.8660254037843856
 41
4.712388980384689
 42
6.24459510668465
  0
ELLIPSE
  5
4BDA
330
1E
100
AcDbEntity
  8
STEMPEL
100
AcDbEllipse
 10
157.4024539072288
 20
661.6174394693516
 30
0.0
 11
0.0
 21
7.499999999999999
 31
0.0
210
0.0
220
0.0
230
1.0
 40
0.4999999999999926
 41
4.712388980384689
 42
7.853981633974482
  0
ELLIPSE
  5
4BDB
330
1E
100
AcDbEntity
  8
STEMPEL
100
AcDbEllipse
 10
156.5343898875398
 20
661.6174394693516
 30
0.0
 11
0.0
 21
7.499999999999999
 31
0.0
210
0.0
220
0.0
230
1.0
 40
0.4999999999999926
 41
4.712388980384689
 42
6.167183451052224
  0
ELLIPSE
  5
4BDC
330
1E
100
AcDbEntity
  8
STEMPEL
100
AcDbEllipse
 10
156.5343898875398
 20
636.6174394693532
 30
0.0
 11
0.0
 21
-7.499999999999999
 31
0.0
210
0.0
220
0.0
230
-1.0
 40
0.4999999999999926
 41
4.712388980384689
 42
6.167183451052224
  0
ELLIPSE
  5
4BDD
330
1E
100
AcDbEntity
  8
STEMPEL
100
AcDbEllipse
 10
157.4024539072288
 20
636.6174394693532
 30
0.0
 11
0.0
 21
-7.499999999999999
 31
0.0
210
0.0
220
0.0
230
-1.0
 40
0.4999999999999926
 41
4.712388980384689
 42
7.853981633974482
  0
LINE
  5
4BDE
330
1E
100
AcDbEntity
  8
STEMPEL
100
AcDbLine
 10
153.6524539072288
 20
661.6174394693516
 30
0.0
 11
153.6524539072288
 21
636.6174394693548
 31
0.0
  0
LINE
  5
4BDF
330
1E
100
AcDbEntity
  8
STEMPEL
100
AcDbLine
 10
141.5754994138914
 20
629.1174394693514
 30
0.0
 11
142.5754994138917
 21
629.1174394693514
 31
0.0
  0
LINE
  5
4BE0
330
1E
100
AcDbEntity
  8
STEMPEL
100
AcDbLine
 10
141.5754994138917
 20
669.1174394693514
 30
0.0
 11
142.5754994138917
 21
669.1174394693514
 31
0.0
  0
LINE
  5
4BE1
330
1E
100
AcDbEntity
  8
STEMPEL
100
AcDbLine
 10
160.2843898875398
 20
636.6174394693516
 30
0.0
 11
160.2843898875398
 21
661.6174394693532
 31
0.0
  0
LINE
  5
4BE2
330
1E
100
AcDbEntity
  8
STEMPEL
100
AcDbLine
 10
161.1524539072286
 20
661.6174394693516
 30
0.0
 11
161.1524539072286
 21
636.6174394693532
 31
0.0
  0
LINE
  5
4BE3
330
1E
100
AcDbEntity
  8
STEMPEL
100
AcDbLine
 10
203.1986797731535
 20
661.6174394693516
 30
0.0
 11
203.1986797731535
 21
636.6174394693516
 31
0.0
  0
LINE
  5
4BE4
330
1E
100
AcDbEntity
  8
STEMPEL
100
AcDbLine
 10
190.7094757118297
 20
661.6174394693516
 30
0.0
 11
190.7094757118297
 21
636.6174394693532
 31
0.0
  0
LINE
  5
4BE5
330
1E
100
AcDbEntity
  8
STEMPEL
100
AcDbLine
 10
203.6998567685956
 20
661.6174394693516
 30
0.0
 11
203.6998567685956
 21
636.6174394693516
 31
0.0
  0
ELLIPSE
  5
4BE6
330
1E
100
AcDbEntity
  8
STEMPEL
100
AcDbEllipse
 10
196.7034892447706
 20
636.6174394693516
 30
0.0
 11
0.0
 21
-7.5
 31
0.0
210
0.0
220
0.0
230
-1.0
 40
0.8660254037843856
 41
4.712388980384689
 42
6.24459510668465
  0
ELLIPSE
  5
4BE7
330
1E
100
AcDbEntity
  8
STEMPEL
100
AcDbEllipse
 10
197.2046662402126
 20
636.6174394693516
 30
0.0
 11
0.0
 21
-7.5
 31
0.0
210
0.0
220
0.0
230
-1.0
 40
0.8660254037843856
 41
4.712388980384689
 42
7.853981633974482
  0
ELLIPSE
  5
4BE8
330
1E
100
AcDbEntity
  8
STEMPEL
100
AcDbEllipse
 10
197.2046662402126
 20
661.6174394693516
 30
0.0
 11
0.0
 21
7.5
 31
0.0
210
0.0
220
0.0
230
1.0
 40
0.8660254037843856
 41
4.712388980384689
 42
7.853981633974482
  0
ARC
  5
4BE9
330
1E
100
AcDbEntity
  8
STEMPEL
100
AcDbCircle
 10
251.5754994138919
 20
661.6174394693516
 30
0.0
 40
7.5
100
AcDbArc
 50
0.0000000000260551
 51
180.000000000013
  0
ARC
  5
4BEA
330
1E
100
AcDbEntity
  8
STEMPEL
100
AcDbCircle
 10
251.5754994138919
 20
636.6174394693516
 30
0.0
 40
7.5
100
AcDbArc
 50
179.999999999987
 51
359.999999999974
  0
LINE
  5
4BEB
330
1E
100
AcDbEntity
  8
STEMPEL
100
AcDbLine
 10
244.075499413892
 20
661.61743946935
 30
0.0
 11
244.075499413892
 21
636.61743946935
 31
0.0
  0
LINE
  5
4BEC
330
1E
100
AcDbEntity
  8
STEMPEL
100
AcDbLine
 10
259.075499413892
 20
661.6174394693516
 30
0.0
 11
259.075499413892
 21
636.6174394693516
 31
0.0
  0
ARC
  5
4BED
330
1E
100
AcDbEntity
  8
STEMPEL
100
AcDbCircle
 10
171.7254994138919
 20
590.8674394693507
 30
0.0
 40
0.750000000000001
100
AcDbArc
 50
269.9999991462263
 51
70.00000000000088
  0
ARC
  5
4BEE
330
1E
100
AcDbEntity
  8
STEMPEL
100
AcDbCircle
 10
151.4254994138918
 20
590.8674394693507
 30
0.0
 40
0.7500000000000013
100
AcDbArc
 50
109.9999999999991
 51
269.9999991462263
  0
LINE
  5
4BEF
330
1E
100
AcDbEntity
  8
STEMPEL
100
AcDbLine
 10
152.9152453760475
 20
592.2077959855506
 30
0.0
 11
151.1689843063976
 21
591.5722089349401
 31
0.0
  0
LINE
  5
4BF0
330
1E
100
AcDbEntity
  8
STEMPEL
100
AcDbLine
 10
171.9820145213861
 20
591.5722089349401
 30
0.0
 11
170.2357534517362
 21
592.2077959855506
 31
0.0
  0
LINE
  5
4BF1
330
1E
100
AcDbEntity
  8
STEMPEL
100
AcDbLine
 10
170.2357534517362
 20
599.8065503368953
 30
0.0
 11
169.0754994138918
 21
600.1174394693507
 31
0.0
  0
LINE
  5
4BF2
330
1E
100
AcDbEntity
  8
STEMPEL
100
AcDbLine
 10
154.0754994138919
 20
600.1174394693507
 30
0.0
 11
152.9152453760474
 21
599.8065503368953
 31
0.0
  0
LINE
  5
4BF3
330
1E
100
AcDbEntity
  8
STEMPEL
100
AcDbLine
 10
152.9152453760474
 20
592.2077959855506
 30
0.0
 11
152.9152453760474
 21
599.8065503368953
 31
0.0
  0
LINE
  5
4BF4
330
1E
100
AcDbEntity
  8
STEMPEL
100
AcDbLine
 10
171.7254994138919
 20
590.1174394693507
 30
0.0
 11
151.4254994138918
 21
590.1174394693507
 31
0.0
  0
LINE
  5
4BF5
330
1E
100
AcDbEntity
  8
STEMPEL
100
AcDbLine
 10
171.9820145213861
 20
591.5722089349401
 30
0.0
 11
151.1689843063976
 21
591.5722089349401
 31
0.0
  0
LINE
  5
4BF6
330
1E
100
AcDbEntity
  8
STEMPEL
100
AcDbLine
 10
157.2453723949696
 20
592.2077959855506
 30
0.0
 11
157.2453723949696
 21
599.8065503368953
 31
0.0
  0
LINE
  5
4BF7
330
1E
100
AcDbEntity
  8
STEMPEL
100
AcDbLine
 10
165.905626432814
 20
592.2077959855506
 30
0.0
 11
165.905626432814
 21
599.8065503368953
 31
0.0
  0
LINE
  5
4BF8
330
1E
100
AcDbEntity
  8
STEMPEL
100
AcDbLine
 10
170.2357534517362
 20
592.2077959855506
 30
0.0
 11
170.2357534517362
 21
599.8065503368953
 31
0.0
  0
LINE
  5
4BF9
330
1E
100
AcDbEntity
  8
STEMPEL
100
AcDbLine
 10
154.0754994138919
 20
600.1174394693507
 30
0.0
 11
169.0754994138918
 21
600.1174394693507
 31
0.0
  0
POINT
  5
4BFA
330
1E
100
AcDbEntity
  8
0
100
AcDbPoint
 10
161.5754994138918
 20
590.1174394693507
 30
0.0
210
0.0000000000000001
220
1.0
230
0.0
  0
ARC
  5
4BFB
330
1E
100
AcDbEntity
  8
HILF
100
AcDbCircle
 10
155.0803088855085
 20
586.8689533198209
 30
0.0
 40
5.761140599691502
100
AcDbArc
 50
67.92594526326357
 51
112.0740547367364
  0
ARC
  5
4BFC
330
1E
100
AcDbEntity
  8
HILF
100
AcDbCircle
 10
168.0706899422751
 20
586.8689533198209
 30
0.0
 40
5.761140599691502
100
AcDbArc
 50
67.92594526326357
 51
112.0740547367364
  0
ARC
  5
4BFD
330
1E
100
AcDbEntity
  8
HILF
100
AcDbCircle
 10
161.5754994138918
 20
570.2189784216893
 30
0.0
 40
22.41111549782308
100
AcDbArc
 50
78.85962783890552
 51
101.1403721610945
  0
ARC
  5
4BFE
330
1E
100
AcDbEntity
  8
STEMPEL
100
AcDbCircle
 10
168.0706899422751
 20
592.4231337615663
 30
0.0
 40
7.694305707784447
100
AcDbArc
 50
73.65710669401501
 51
106.342893305985
  0
ARC
  5
4BFF
330
1E
100
AcDbEntity
  8
STEMPEL
100
AcDbCircle
 10
155.0803088855085
 20
592.4231337615663
 30
0.0
 40
7.694305707784447
100
AcDbArc
 50
73.65710669401501
 51
106.342893305985
  0
ARC
  5
4C00
330
1E
100
AcDbEntity
  8
STEMPEL
100
AcDbCircle
 10
161.5754994138918
 20
569.8065503368958
 30
0.0
 40
30.31088913245485
100
AcDbArc
 50
81.78678929826174
 51
98.21321070173826
  0
ARC
  5
4C01
330
1E
100
AcDbEntity
  8
STEMPEL
100
AcDbCircle
 10
216.7254994138916
 20
590.8674394693507
 30
0.0
 40
0.750000000000001
100
AcDbArc
 50
269.9999991462263
 51
70.00000000000088
  0
ARC
  5
4C02
330
1E
100
AcDbEntity
  8
STEMPEL
100
AcDbCircle
 10
196.4254994138916
 20
590.8674394693507
 30
0.0
 40
0.7500000000000013
100
AcDbArc
 50
109.9999999999991
 51
269.9999991462263
  0
LINE
  5
4C03
330
1E
100
AcDbEntity
  8
STEMPEL
100
AcDbLine
 10
197.9152453760472
 20
592.2077959855506
 30
0.0
 11
196.1689843063974
 21
591.5722089349402
 31
0.0
  0
LINE
  5
4C04
330
1E
100
AcDbEntity
  8
STEMPEL
100
AcDbLine
 10
216.9820145213859
 20
591.5722089349402
 30
0.0
 11
215.235753451736
 21
592.2077959855506
 31
0.0
  0
LINE
  5
4C05
330
1E
100
AcDbEntity
  8
STEMPEL
100
AcDbLine
 10
215.235753451736
 20
599.8065503368954
 30
0.0
 11
214.0754994138916
 21
600.1174394693507
 31
0.0
  0
LINE
  5
4C06
330
1E
100
AcDbEntity
  8
STEMPEL
100
AcDbLine
 10
199.0754994138916
 20
600.1174394693507
 30
0.0
 11
197.9152453760472
 21
599.8065503368954
 31
0.0
  0
LINE
  5
4C07
330
1E
100
AcDbEntity
  8
STEMPEL
100
AcDbLine
 10
197.9152453760472
 20
592.2077959855506
 30
0.0
 11
197.9152453760472
 21
599.8065503368954
 31
0.0
  0
LINE
  5
4C08
330
1E
100
AcDbEntity
  8
STEMPEL
100
AcDbLine
 10
216.7254994138916
 20
590.1174394693507
 30
0.0
 11
196.4254994138916
 21
590.1174394693507
 31
0.0
  0
LINE
  5
4C09
330
1E
100
AcDbEntity
  8
STEMPEL
100
AcDbLine
 10
216.9820145213859
 20
591.5722089349402
 30
0.0
 11
196.1689843063974
 21
591.5722089349402
 31
0.0
  0
LINE
  5
4C0A
330
1E
100
AcDbEntity
  8
STEMPEL
100
AcDbLine
 10
202.2453723949694
 20
592.2077959855506
 30
0.0
 11
202.2453723949694
 21
599.8065503368954
 31
0.0
  0
LINE
  5
4C0B
330
1E
100
AcDbEntity
  8
STEMPEL
100
AcDbLine
 10
210.9056264328138
 20
592.2077959855506
 30
0.0
 11
210.9056264328138
 21
599.8065503368954
 31
0.0
  0
LINE
  5
4C0C
330
1E
100
AcDbEntity
  8
STEMPEL
100
AcDbLine
 10
215.235753451736
 20
592.2077959855506
 30
0.0
 11
215.235753451736
 21
599.8065503368954
 31
0.0
  0
LINE
  5
4C0D
330
1E
100
AcDbEntity
  8
STEMPEL
100
AcDbLine
 10
199.0754994138916
 20
600.1174394693507
 30
0.0
 11
214.0754994138916
 21
600.1174394693507
 31
0.0
  0
POINT
  5
4C0E
330
1E
100
AcDbEntity
  8
0
100
AcDbPoint
 10
206.5754994138916
 20
590.1174394693507
 30
0.0
210
0.0000000000000001
220
1.0
230
0.0
  0
ARC
  5
4C0F
330
1E
100
AcDbEntity
  8
HILF
100
AcDbCircle
 10
200.0803088855084
 20
586.8689533198212
 30
0.0
 40
5.761140599691502
100
AcDbArc
 50
67.92594526326357
 51
112.0740547367364
  0
ARC
  5
4C10
330
1E
100
AcDbEntity
  8
HILF
100
AcDbCircle
 10
213.0706899422749
 20
586.8689533198212
 30
0.0
 40
5.761140599691502
100
AcDbArc
 50
67.92594526326357
 51
112.0740547367364
  0
ARC
  5
4C11
330
1E
100
AcDbEntity
  8
HILF
100
AcDbCircle
 10
206.5754994138916
 20
570.2189784216896
 30
0.0
 40
22.41111549782308
100
AcDbArc
 50
78.85962783890552
 51
101.1403721610945
  0
ARC
  5
4C12
330
1E
100
AcDbEntity
  8
STEMPEL
100
AcDbCircle
 10
213.0706899422749
 20
592.4231337615663
 30
0.0
 40
7.694305707784447
100
AcDbArc
 50
73.65710669401501
 51
106.342893305985
  0
ARC
  5
4C13
330
1E
100
AcDbEntity
  8
STEMPEL
100
AcDbCircle
 10
200.0803088855084
 20
592.4231337615663
 30
0.0
 40
7.694305707784447
100
AcDbArc
 50
73.65710669401501
 51
106.342893305985
  0
ARC
  5
4C14
330
1E
100
AcDbEntity
  8
STEMPEL
100
AcDbCircle
 10
206.5754994138916
 20
569.8065503368959
 30
0.0
 40
30.31088913245485
100
AcDbArc
 50
81.78678929826174
 51
98.21321070173826
  0
ARC
  5
4C15
330
1E
100
AcDbEntity
  8
STEMPEL
100
AcDbCircle
 10
333.1254994138917
 20
590.867439469351
 30
0.0
 40
0.750000000000001
100
AcDbArc
 50
269.9999991462263
 51
70.00000000000088
  0
ARC
  5
4C16
330
1E
100
AcDbEntity
  8
STEMPEL
100
AcDbCircle
 10
312.8254994138917
 20
590.867439469351
 30
0.0
 40
0.7500000000000013
100
AcDbArc
 50
109.9999999999991
 51
269.9999991462263
  0
LINE
  5
4C17
330
1E
100
AcDbEntity
  8
STEMPEL
100
AcDbLine
 10
314.3152453760474
 20
592.2077959855507
 30
0.0
 11
312.5689843063975
 21
591.5722089349404
 31
0.0
  0
LINE
  5
4C18
330
1E
100
AcDbEntity
  8
STEMPEL
100
AcDbLine
 10
333.382014521386
 20
591.5722089349404
 30
0.0
 11
331.6357534517361
 21
592.2077959855507
 31
0.0
  0
LINE
  5
4C19
330
1E
100
AcDbEntity
  8
STEMPEL
100
AcDbLine
 10
331.6357534517361
 20
599.8065503368954
 30
0.0
 11
330.4754994138917
 21
600.1174394693509
 31
0.0
  0
LINE
  5
4C1A
330
1E
100
AcDbEntity
  8
STEMPEL
100
AcDbLine
 10
315.4754994138917
 20
600.1174394693509
 30
0.0
 11
314.3152453760474
 21
599.8065503368954
 31
0.0
  0
LINE
  5
4C1B
330
1E
100
AcDbEntity
  8
STEMPEL
100
AcDbLine
 10
314.3152453760474
 20
592.2077959855507
 30
0.0
 11
314.3152453760474
 21
599.8065503368954
 31
0.0
  0
LINE
  5
4C1C
330
1E
100
AcDbEntity
  8
STEMPEL
100
AcDbLine
 10
333.1254994138917
 20
590.117439469351
 30
0.0
 11
312.8254994138917
 21
590.117439469351
 31
0.0
  0
LINE
  5
4C1D
330
1E
100
AcDbEntity
  8
STEMPEL
100
AcDbLine
 10
333.382014521386
 20
591.5722089349404
 30
0.0
 11
312.5689843063975
 21
591.5722089349404
 31
0.0
  0
LINE
  5
4C1E
330
1E
100
AcDbEntity
  8
STEMPEL
100
AcDbLine
 10
318.6453723949695
 20
592.2077959855507
 30
0.0
 11
318.6453723949695
 21
599.8065503368954
 31
0.0
  0
LINE
  5
4C1F
330
1E
100
AcDbEntity
  8
STEMPEL
100
AcDbLine
 10
327.3056264328139
 20
592.2077959855507
 30
0.0
 11
327.3056264328139
 21
599.8065503368954
 31
0.0
  0
LINE
  5
4C20
330
1E
100
AcDbEntity
  8
STEMPEL
100
AcDbLine
 10
331.6357534517361
 20
592.2077959855507
 30
0.0
 11
331.6357534517361
 21
599.8065503368954
 31
0.0
  0
LINE
  5
4C21
330
1E
100
AcDbEntity
  8
STEMPEL
100
AcDbLine
 10
315.4754994138917
 20
600.1174394693509
 30
0.0
 11
330.4754994138917
 21
600.1174394693509
 31
0.0
  0
POINT
  5
4C22
330
1E
100
AcDbEntity
  8
0
100
AcDbPoint
 10
322.9754994138917
 20
590.117439469351
 30
0.0
210
0.0000000000000001
220
1.0
230
0.0
  0
ARC
  5
4C23
330
1E
100
AcDbEntity
  8
HILF
100
AcDbCircle
 10
316.4803088855084
 20
586.8689533198212
 30
0.0
 40
5.761140599691502
100
AcDbArc
 50
67.92594526326054
 51
112.0740547367394
  0
ARC
  5
4C24
330
1E
100
AcDbEntity
  8
HILF
100
AcDbCircle
 10
329.470689942275
 20
586.8689533198212
 30
0.0
 40
5.761140599691502
100
AcDbArc
 50
67.92594526326054
 51
112.0740547367394
  0
ARC
  5
4C25
330
1E
100
AcDbEntity
  8
HILF
100
AcDbCircle
 10
322.9754994138917
 20
570.2189784216896
 30
0.0
 40
22.41111549782308
100
AcDbArc
 50
78.85962783890391
 51
101.1403721610961
  0
ARC
  5
4C26
330
1E
100
AcDbEntity
  8
STEMPEL
100
AcDbCircle
 10
329.470689942275
 20
592.4231337615665
 30
0.0
 40
7.694305707784447
100
AcDbArc
 50
73.65710669401345
 51
106.3428933059834
  0
ARC
  5
4C27
330
1E
100
AcDbEntity
  8
STEMPEL
100
AcDbCircle
 10
316.4803088855085
 20
592.4231337615665
 30
0.0
 40
7.694305707784447
100
AcDbArc
 50
73.65710669401345
 51
106.3428933059834
  0
ARC
  5
4C28
330
1E
100
AcDbEntity
  8
STEMPEL
100
AcDbCircle
 10
322.9754994138917
 20
569.806550336896
 30
0.0
 40
30.31088913245485
100
AcDbArc
 50
81.78678929826011
 51
98.21321070173988
  0
LINE
  5
4C29
330
1E
100
AcDbEntity
  8
STEMPEL
100
AcDbLine
 10
370.0754994138918
 20
598.1174394693519
 30
0.0
 11
370.0754994138918
 21
601.117439469352
 31
0.0
  0
LINE
  5
4C2A
330
1E
100
AcDbEntity
  8
HILF
100
AcDbLine
 10
370.5754994138917
 20
584.1174394693519
 30
0.0
 11
370.5754994138917
 21
591.3674394693518
 31
0.0
  0
LINE
  5
4C2B
330
1E
100
AcDbEntity
  8
STEMPEL
100
AcDbLine
 10
371.5754994138917
 20
584.1174394693519
 30
0.0
 11
371.5754994138917
 21
590.7174394693518
 31
0.0
  0
LINE
  5
4C2C
330
1E
100
AcDbEntity
  8
STEMPEL
100
AcDbLine
 10
370.0754994138918
 20
587.117439469352
 30
0.0
 11
370.0754994138918
 21
590.1174394693519
 31
0.0
  0
LINE
  5
4C2D
330
1E
100
AcDbEntity
  8
STEMPEL
100
AcDbLine
 10
370.0754994138918
 20
587.1174394693521
 30
0.0
 11
369.5754994138918
 21
587.1174394693521
 31
0.0
  0
LINE
  5
4C2E
330
1E
100
AcDbEntity
  8
STEMPEL
100
AcDbLine
 10
369.5754994138918
 20
584.1174394693521
 30
0.0
 11
369.5754994138918
 21
587.1174394693521
 31
0.0
  0
LINE
  5
4C2F
330
1E
100
AcDbEntity
  8
STEMPEL
100
AcDbLine
 10
370.0754994138918
 20
598.1174394693519
 30
0.0
 11
369.5754994138917
 21
598.1174394693519
 31
0.0
  0
LINE
  5
4C30
330
1E
100
AcDbEntity
  8
STEMPEL
100
AcDbLine
 10
370.0754994138918
 20
590.1174394693519
 30
0.0
 11
369.5754994138918
 21
590.1174394693519
 31
0.0
  0
LINE
  5
4C31
330
1E
100
AcDbEntity
  8
STEMPEL
100
AcDbLine
 10
369.5754994138918
 20
590.1174394693518
 30
0.0
 11
369.5754994138916
 21
598.1174394693519
 31
0.0
  0
LINE
  5
4C32
330
1E
100
AcDbEntity
  8
STEMPEL
100
AcDbLine
 10
370.0754994138918
 20
601.117439469352
 30
0.0
 11
369.5754994138917
 21
601.117439469352
 31
0.0
  0
LINE
  5
4C33
330
1E
100
AcDbEntity
  8
STEMPEL
100
AcDbLine
 10
369.5754994138916
 20
601.1174394693519
 30
0.0
 11
369.5754994138917
 21
604.117439469352
 31
0.0
  0
LINE
  5
4C34
330
1E
100
AcDbEntity
  8
STEMPEL
100
AcDbLine
 10
377.0754994138918
 20
598.1174394693519
 30
0.0
 11
377.0754994138918
 21
601.117439469352
 31
0.0
  0
LINE
  5
4C35
330
1E
100
AcDbEntity
  8
HILF
100
AcDbLine
 10
376.5754994138917
 20
584.1174394693519
 30
0.0
 11
376.5754994138917
 21
591.3674394693518
 31
0.0
  0
LINE
  5
4C36
330
1E
100
AcDbEntity
  8
STEMPEL
100
AcDbLine
 10
375.5754994138917
 20
584.1174394693519
 30
0.0
 11
375.5754994138917
 21
590.7174394693518
 31
0.0
  0
LINE
  5
4C37
330
1E
100
AcDbEntity
  8
STEMPEL
100
AcDbLine
 10
377.0754994138918
 20
587.1174394693521
 30
0.0
 11
377.0754994138918
 21
590.1174394693522
 31
0.0
  0
LINE
  5
4C38
330
1E
100
AcDbEntity
  8
STEMPEL
100
AcDbLine
 10
377.5754994138918
 20
587.1174394693521
 30
0.0
 11
377.0754994138917
 21
587.1174394693521
 31
0.0
  0
LINE
  5
4C39
330
1E
100
AcDbEntity
  8
STEMPEL
100
AcDbLine
 10
377.5754994138918
 20
584.1174394693521
 30
0.0
 11
377.5754994138918
 21
587.1174394693521
 31
0.0
  0
LINE
  5
4C3A
330
1E
100
AcDbEntity
  8
STEMPEL
100
AcDbLine
 10
377.5754994138917
 20
598.1174394693519
 30
0.0
 11
377.0754994138918
 21
598.1174394693519
 31
0.0
  0
LINE
  5
4C3B
330
1E
100
AcDbEntity
  8
STEMPEL
100
AcDbLine
 10
377.5754994138918
 20
590.1174394693522
 30
0.0
 11
377.0754994138918
 21
590.1174394693521
 31
0.0
  0
LINE
  5
4C3C
330
1E
100
AcDbEntity
  8
STEMPEL
100
AcDbLine
 10
377.5754994138918
 20
590.1174394693521
 30
0.0
 11
377.5754994138916
 21
598.1174394693519
 31
0.0
  0
LINE
  5
4C3D
330
1E
100
AcDbEntity
  8
STEMPEL
100
AcDbLine
 10
377.5754994138917
 20
601.117439469352
 30
0.0
 11
377.0754994138918
 21
601.117439469352
 31
0.0
  0
LINE
  5
4C3E
330
1E
100
AcDbEntity
  8
STEMPEL
100
AcDbLine
 10
377.5754994138916
 20
601.117439469352
 30
0.0
 11
377.5754994138917
 21
604.117439469352
 31
0.0
  0
HATCH
  5
4C3F
330
1E
100
AcDbEntity
  8
SCHRAFF
100
AcDbHatch
 10
0.0
 20
0.0
 30
0.0
210
0.0
220
0.0
230
1.0
  2
_USER
 70
     0
 71
     0
 91
        5
 92
        7
 72
     1
 73
     1
 93
       12
 10
381.5754994138915
 20
604.1174394693508
 42
0.0
 10
377.5754994138917
 20
604.1174394693512
 42
0.0
 10
377.5754994138916
 20
601.117439469352
 42
0.0
 10
377.0754994138918
 20
601.117439469352
 42
0.0
 10
377.0754994138918
 20
598.1174394693519
 42
0.0
 10
377.5754994138916
 20
598.1174394693521
 42
0.0
 10
377.5754994138918
 20
590.1174394693522
 42
0.0
 10
377.0754994138918
 20
590.1174394693521
 42
0.0
 10
377.0754994138919
 20
587.1174394693521
 42
0.0
 10
377.5754994138919
 20
587.1174394693521
 42
0.0
 10
377.5754994138918
 20
584.1723435065739
 42
0.3763797779543461
 10
381.8358022233768
 20
589.2047015015374
 42
0.0
 97
        0
 92
        7
 72
     1
 73
     1
 93
       11
 10
369.5754994138916
 20
597.6144529685639
 42
0.0
 10
365.5236037946922
 20
601.1443414366148
 42
0.0
 10
365.4168806651004
 20
595.0301774371649
 42
-0.4091108014277268
 10
360.4176421893183
 20
590.117439469351
 42
0.0
 10
317.0754994138917
 20
590.117439469351
 42
1.0
 10
317.0754994138917
 20
584.1174394693507
 42
0.0
 10
369.5754994138918
 20
584.1174394693509
 42
0.0
 10
369.5754994138918
 20
587.1174394693521
 42
0.0
 10
370.0754994138918
 20
587.117439469352
 42
0.0
 10
370.0754994138918
 20
590.1174394693519
 42
0.0
 10
369.5754994138918
 20
590.1174394693519
 42
0.0
 97
        0
 92
        7
 72
     0
 73
     1
 93
        8
 10
369.5754994138917
 20
597.614452968564
 10
369.5754994138916
 20
598.1174394693518
 10
370.0754994138918
 20
598.1174394693519
 10
370.0754994138918
 20
601.1174394693519
 10
369.5754994138916
 20
601.1174394693519
 10
369.5754994138917
 20
604.117439469352
 10
365.5754994138916
 20
604.1174394693523
 10
365.5236037946924
 20
601.1443414366145
 97
        0
 92
        7
 72
     1
 73
     1
 93
        4
 10
168.0754994138912
 20
590.117439469351
 42
0.0
 10
168.0754994138912
 20
584.1174394693496
 42
0.0
 10
186.0754994138917
 20
584.1174394693498
 42
1.0
 10
186.0754994138917
 20
590.1174394693509
 42
0.0
 97
        0
 92
        7
 72
     1
 73
     1
 93
        4
 10
139.5754994138916
 20
590.1174394693509
 42
1.0
 10
139.5754994138916
 20
584.1174394693495
 42
0.0
 10
155.0754994138912
 20
584.1174394693496
 42
0.0
 10
155.0754994138914
 20
590.1174394693509
 42
0.0
 97
        0
 75
     0
 76
     0
 52
45.0
 41
5.0
 77
     0
 78
     1
 53
45.0
 43
50.14710974566378
 44
74.4281682247767
 45
-3.535533905932737
 46
3.535533905932737
 79
     0
 47
0.4273487917069632
 98
        5
 10
380.0775360099428
 20
592.3123764042253
 10
367.6753433702211
 20
591.030330306634
 10
367.247683621541
 20
601.7140491848451
 10
177.7934996922768
 20
587.1841906155772
 10
148.2848353853528
 20
588.0388880139713
  0
LINE
  5
4C40
330
1E
100
AcDbEntity
  8
STEMPEL
100
AcDbLine
 10
165.995689889931
 20
604.1174394693496
 30
0.0
 11
166.020919796559
 21
602.6720190866824
 31
0.0
  0
LINE
  5
4C41
330
1E
100
AcDbEntity
  8
STEMPEL
100
AcDbLine
 10
156.6091112144778
 20
604.1174394693505
 30
0.0
 11
156.6091112144779
 21
602.1510512699355
 31
0.0
  0
LINE
  5
4C42
330
1E
100
AcDbEntity
  8
STEMPEL
100
AcDbLine
 10
327.9754994138917
 20
602.1174394693503
 30
0.0
 11
327.9754994138917
 21
600.1174394693509
 31
0.0
  0
LINE
  5
4C43
330
1E
100
AcDbEntity
  8
STEMPEL
100
AcDbLine
 10
326.9754994138917
 20
603.1174394693505
 30
0.0
 11
318.9754994138917
 21
603.1174394693505
 31
0.0
  0
LINE
  5
4C44
330
1E
100
AcDbEntity
  8
HILF
100
AcDbLine
 10
318.9754994138917
 20
603.1174394693505
 30
0.0
 11
318.9754994138917
 21
600.1174394693509
 31
0.0
  0
LINE
  5
4C45
330
1E
100
AcDbEntity
  8
HILF
100
AcDbLine
 10
326.9754994138917
 20
603.1174394693505
 30
0.0
 11
326.9754994138918
 21
600.1174394693509
 31
0.0
  0
LINE
  5
4C46
330
1E
100
AcDbEntity
  8
STEMPEL
100
AcDbLine
 10
317.9754994138917
 20
602.1174394693505
 30
0.0
 11
317.9754994138917
 21
600.1174394693509
 31
0.0
  0
LINE
  5
4C47
330
1E
100
AcDbEntity
  8
STEMPEL
100
AcDbLine
 10
318.9754994138917
 20
603.1174394693505
 30
0.0
 11
317.9754994138917
 21
602.1174394693505
 31
0.0
  0
LINE
  5
4C48
330
1E
100
AcDbEntity
  8
STEMPEL
100
AcDbLine
 10
317.9754994138917
 20
602.1174394693505
 30
0.0
 11
327.9754994138915
 21
602.1174394693505
 31
0.0
  0
LINE
  5
4C49
330
1E
100
AcDbEntity
  8
STEMPEL
100
AcDbLine
 10
327.9754994138917
 20
602.1174394693505
 30
0.0
 11
326.9754994138917
 21
603.1174394693505
 31
0.0
  0
LINE
  5
4C4A
330
1E
100
AcDbEntity
  8
STEMPEL
100
AcDbLine
 10
327.9754994138918
 20
584.11743946935
 30
0.0
 11
327.975499413892
 21
581.1174394693505
 31
0.0
  0
LINE
  5
4C4B
330
1E
100
AcDbEntity
  8
HILF
100
AcDbLine
 10
326.9754994138919
 20
584.11743946935
 30
0.0
 11
326.9754994138919
 21
581.1174394693505
 31
0.0
  0
LINE
  5
4C4C
330
1E
100
AcDbEntity
  8
HILF
100
AcDbLine
 10
318.9754994138921
 20
584.1174394693502
 30
0.0
 11
318.9754994138919
 21
581.1174394693505
 31
0.0
  0
LINE
  5
4C4D
330
1E
100
AcDbEntity
  8
STEMPEL
100
AcDbLine
 10
317.9754994138919
 20
584.11743946935
 30
0.0
 11
317.975499413892
 21
581.1174394693505
 31
0.0
  0
LWPOLYLINE
  5
4C4E
330
1E
100
AcDbEntity
  8
STEMPEL
100
AcDbPolyline
 90
       10
 70
   128
 43
0.0
 10
-327.3859848000039
 20
604.1174394693525
 10
-326.749980440003
 20
604.2085929512793
 10
-326.1333007506469
 20
604.4792837446371
 10
-325.5546832322418
 20
604.921287046646
 10
-325.03170888529
 20
605.5211728106388
 10
-324.5802680206855
 20
606.2607138112335
 10
-324.2140774406595
 20
607.1174394693528
 10
-323.9442636606846
 20
608.0653186093988
 10
-323.7790248359329
 20
609.0755504033514
 10
-323.7233816644798
 20
610.117439469353
210
0.0
220
0.0
230
-1.0
  0
LWPOLYLINE
  5
4C4F
330
1E
100
AcDbEntity
  8
STEMPEL
100
AcDbPolyline
 90
       10
 70
   128
 43
0.0
 10
200.3104254739452
 20
604.1174394693525
 10
200.7831554316988
 20
604.2085929512793
 10
201.241521728899
 20
604.4792837446371
 10
201.6715971375497
 20
604.921287046646
 10
202.060314033988
 20
605.5211728106388
 10
202.3958614520156
 20
606.2607138112335
 10
202.6680439531312
 20
607.1174394693528
 10
202.8685914097693
 20
608.0653186093988
 10
202.9914102889418
 20
609.0755504033514
 10
203.0327688011543
 20
610.117439469353
  0
LWPOLYLINE
  5
4C50
330
1E
100
AcDbEntity
  8
STEMPEL
100
AcDbPolyline
 90
        8
 70
   128
 43
0.0
 10
157.3036373679546
 20
604.1174394693507
 10
158.5573713835175
 20
604.9212870466442
 10
159.1804545575638
 20
605.5211728106371
 10
159.7183111626754
 20
606.2607138112318
 10
160.1545986980743
 20
607.117439469351
 10
160.4760607877696
 20
608.0653186093971
 10
160.6729299688336
 20
609.0755504033496
 10
160.7392244708204
 20
610.1174394693513
  0
LINE
  5
4C51
330
1E
100
AcDbEntity
  8
STEMPEL
100
AcDbLine
 10
158.7611089640258
 20
605.1174394693514
 30
0.0
 11
167.1238481906133
 21
605.1174394693514
 31
0.0
  0
LINE
  5
4C52
330
1E
100
AcDbEntity
  8
STEMPEL
100
AcDbLine
 10
211.5754994138916
 20
602.1174394693501
 30
0.0
 11
210.5754994138916
 21
603.1174394693501
 31
0.0
  0
LINE
  5
4C53
330
1E
100
AcDbEntity
  8
STEMPEL
100
AcDbLine
 10
211.5754994138916
 20
602.1174394693501
 30
0.0
 11
211.5754994138916
 21
600.1174394693507
 31
0.0
  0
LINE
  5
4C54
330
1E
100
AcDbEntity
  8
HILF
100
AcDbLine
 10
210.5754994138916
 20
603.1174394693501
 30
0.0
 11
210.5754994138916
 21
600.1174394693507
 31
0.0
  0
LINE
  5
4C55
330
1E
100
AcDbEntity
  8
STEMPEL
100
AcDbLine
 10
202.5754994138917
 20
603.1174394693501
 30
0.0
 11
201.5754994138916
 21
602.1174394693501
 31
0.0
  0
LINE
  5
4C56
330
1E
100
AcDbEntity
  8
HILF
100
AcDbLine
 10
202.5754994138917
 20
603.1174394693501
 30
0.0
 11
202.5754994138917
 21
600.1174394693507
 31
0.0
  0
LINE
  5
4C57
330
1E
100
AcDbEntity
  8
STEMPEL
100
AcDbLine
 10
201.5754994138916
 20
602.1174394693501
 30
0.0
 11
201.5754994138916
 21
600.1174394693507
 31
0.0
  0
LINE
  5
4C58
330
1E
100
AcDbEntity
  8
STEMPEL
100
AcDbLine
 10
201.5754994138916
 20
602.1174394693501
 30
0.0
 11
211.5754994138914
 21
602.1174394693501
 31
0.0
  0
LINE
  5
4C59
330
1E
100
AcDbEntity
  8
STEMPEL
100
AcDbLine
 10
210.5754994138916
 20
603.1174394693501
 30
0.0
 11
202.5754994138917
 21
603.1174394693501
 31
0.0
  0
LINE
  5
4C5A
330
1E
100
AcDbEntity
  8
STEMPEL
100
AcDbLine
 10
166.5754994138918
 20
590.1174394693507
 30
0.0
 11
166.5754994138918
 21
578.1174394693501
 31
0.0
  0
LINE
  5
4C5B
330
1E
100
AcDbEntity
  8
HILF
100
AcDbLine
 10
165.5754994138918
 20
590.1174394693507
 30
0.0
 11
165.5754994138918
 21
578.1174394693501
 31
0.0
  0
LINE
  5
4C5C
330
1E
100
AcDbEntity
  8
STEMPEL
100
AcDbLine
 10
156.5754994138918
 20
590.1174394693507
 30
0.0
 11
156.5754994138918
 21
578.1174394693501
 31
0.0
  0
LINE
  5
4C5D
330
1E
100
AcDbEntity
  8
HILF
100
AcDbLine
 10
157.5754994138918
 20
590.1174394693507
 30
0.0
 11
157.5754994138918
 21
578.1174394693501
 31
0.0
  0
LINE
  5
4C5E
330
1E
100
AcDbEntity
  8
STEMPEL
100
AcDbLine
 10
139.5754994138916
 20
590.1174394693507
 30
0.0
 11
360.4176421893184
 21
590.117439469351
 31
0.0
  0
LINE
  5
4C5F
330
1E
100
AcDbEntity
  8
STEMPEL
100
AcDbLine
 10
168.0754994138917
 20
590.1174394693509
 30
0.0
 11
168.0754994138917
 21
584.1174394693502
 31
0.0
  0
LINE
  5
4C60
330
1E
100
AcDbEntity
  8
STEMPEL
100
AcDbLine
 10
155.0754994138917
 20
590.1174394693507
 30
0.0
 11
155.0754994138917
 21
584.1174394693503
 31
0.0
  0
LINE
  5
4C61
330
1E
100
AcDbEntity
  8
HILF
100
AcDbLine
 10
210.5754994138918
 20
584.11743946935
 30
0.0
 11
210.5754994138919
 21
581.1174394693502
 31
0.0
  0
LINE
  5
4C62
330
1E
100
AcDbEntity
  8
STEMPEL
100
AcDbLine
 10
211.5754994138918
 20
584.11743946935
 30
0.0
 11
211.5754994138919
 21
581.1174394693502
 31
0.0
  0
LINE
  5
4C63
330
1E
100
AcDbEntity
  8
HILF
100
AcDbLine
 10
202.5754994138919
 20
584.1174394693502
 30
0.0
 11
202.5754994138918
 21
581.1174394693501
 31
0.0
  0
LINE
  5
4C64
330
1E
100
AcDbEntity
  8
STEMPEL
100
AcDbLine
 10
201.5754994138919
 20
584.11743946935
 30
0.0
 11
201.5754994138919
 21
581.1174394693502
 31
0.0
  0
LINE
  5
4C65
330
1E
100
AcDbEntity
  8
STEMPEL
100
AcDbLine
 10
166.5754994138918
 20
602.1174394693501
 30
0.0
 11
165.5754994138918
 21
603.1174394693501
 31
0.0
  0
LINE
  5
4C66
330
1E
100
AcDbEntity
  8
STEMPEL
100
AcDbLine
 10
157.5754994138918
 20
603.1174394693501
 30
0.0
 11
156.5754994138918
 21
602.1174394693501
 31
0.0
  0
LINE
  5
4C67
330
1E
100
AcDbEntity
  8
STEMPEL
100
AcDbLine
 10
165.5754994138918
 20
603.1174394693501
 30
0.0
 11
157.5754994138918
 21
603.1174394693501
 31
0.0
  0
LINE
  5
4C68
330
1E
100
AcDbEntity
  8
STEMPEL
100
AcDbLine
 10
156.5754994138918
 20
602.1174394693501
 30
0.0
 11
166.5754994138916
 21
602.1174394693501
 31
0.0
  0
LINE
  5
4C69
330
1E
100
AcDbEntity
  8
MITTEL
100
AcDbLine
 10
161.5754994138918
 20
608.11743946935
 30
0.0
 11
161.5754994138918
 21
573.1174394693497
 31
0.0
  0
LINE
  5
4C6A
330
1E
100
AcDbEntity
  8
HILF
100
AcDbLine
 10
157.5754994138918
 20
603.1174394693501
 30
0.0
 11
157.5754994138918
 21
600.1174394693507
 31
0.0
  0
LINE
  5
4C6B
330
1E
100
AcDbEntity
  8
STEMPEL
100
AcDbLine
 10
156.5754994138918
 20
602.1174394693501
 30
0.0
 11
156.5754994138918
 21
600.1174394693507
 31
0.0
  0
LINE
  5
4C6C
330
1E
100
AcDbEntity
  8
HILF
100
AcDbLine
 10
165.5754994138918
 20
603.1174394693501
 30
0.0
 11
165.5754994138918
 21
600.1174394693507
 31
0.0
  0
LINE
  5
4C6D
330
1E
100
AcDbEntity
  8
STEMPEL
100
AcDbLine
 10
166.5754994138918
 20
602.1174394693501
 30
0.0
 11
166.5754994138918
 21
600.1174394693506
 31
0.0
  0
LINE
  5
4C6E
330
1E
100
AcDbEntity
  8
MITTEL
100
AcDbLine
 10
206.5754994138916
 20
608.11743946935
 30
0.0
 11
206.5754994138916
 21
573.1174394693495
 31
0.0
  0
LINE
  5
4C6F
330
1E
100
AcDbEntity
  8
STEMPEL
100
AcDbLine
 10
150.9017993179632
 20
605.1174394693519
 30
0.0
 11
148.7863918983615
 21
605.1174394693519
 31
0.0
  0
ARC
  5
4C70
330
1E
100
AcDbEntity
  8
STEMPEL
100
AcDbCircle
 10
355.575499413892
 20
674.1173815020358
 30
0.0
 40
6.0
100
AcDbArc
 50
0.0
 51
59.74358352517972
  0
ARC
  5
4C71
330
1E
100
AcDbEntity
  8
STEMPEL
100
AcDbCircle
 10
361.0866430182036
 20
683.6372764518132
 30
0.0
 40
5.0
100
AcDbArc
 50
239.7435628364684
 51
239.9329541615128
  0
ARC
  5
4C72
330
1E
100
AcDbEntity
  8
STEMPEL
100
AcDbCircle
 10
355.575499413892
 20
674.1173815020358
 30
0.0
 40
5.0
100
AcDbArc
 50
0.0
 51
59.74358352517972
  0
ARC
  5
4C73
330
1E
100
AcDbEntity
  8
STEMPEL
100
AcDbCircle
 10
331.5754994138921
 20
688.1174394693509
 30
0.0
 40
6.0
100
AcDbArc
 50
90.0
 51
90.0
  0
ARC
  5
4C74
330
1E
100
AcDbEntity
  8
STEMPEL
100
AcDbCircle
 10
331.5754994138921
 20
688.1174394693509
 30
0.0
 40
5.0
100
AcDbArc
 50
59.46264995169952
 51
90.0
  0
ARC
  5
4C75
330
1E
100
AcDbEntity
  8
STEMPEL
100
AcDbCircle
 10
331.5754994138921
 20
688.1174394693509
 30
0.0
 40
6.0
100
AcDbArc
 50
59.48712567237889
 51
90.0
  0
LINE
  5
4C76
330
1E
100
AcDbEntity
  8
STEMPEL
100
AcDbLine
 10
358.6081940355999
 20
679.2945200293948
 30
0.0
 11
334.621891160133
 21
693.2865300400833
 31
0.0
  0
LINE
  5
4C77
330
1E
100
AcDbEntity
  8
STEMPEL
100
AcDbLine
 10
358.0948529820191
 20
678.4362769162321
 30
0.0
 11
334.1159990890679
 21
692.4239300824176
 31
0.0
  0
ARC
  5
4C78
330
1E
100
AcDbEntity
  8
STEMPEL
100
AcDbCircle
 10
274.4169377975946
 20
694.1174394693511
 30
0.0
 40
1.5
100
AcDbArc
 50
29.99999999999246
 51
90.0
  0
ARC
  5
4C79
330
1E
100
AcDbEntity
  8
STEMPEL
100
AcDbCircle
 10
274.4169377975946
 20
694.1174394693511
 30
0.0
 40
0.5
100
AcDbArc
 50
29.99999999999246
 51
90.0
  0
LINE
  5
4C7A
330
1E
100
AcDbEntity
  8
STEMPEL
100
AcDbLine
 10
274.2169377975946
 20
694.6174394693512
 30
0.0
 11
274.4169377975946
 21
694.6174394693512
 31
0.0
  0
ARC
  5
4C7B
330
1E
100
AcDbEntity
  8
STEMPEL
100
AcDbCircle
 10
274.2169377975946
 20
694.1174394693511
 30
0.0
 40
0.5
100
AcDbArc
 50
90.0
 51
149.9999999999922
  0
ARC
  5
4C7C
330
1E
100
AcDbEntity
  8
STEMPEL
100
AcDbCircle
 10
274.2169377975946
 20
694.1174394693511
 30
0.0
 40
1.5
100
AcDbArc
 50
90.0
 51
149.9999999999922
  0
ARC
  5
4C7D
330
1E
100
AcDbEntity
  8
STEMPEL
100
AcDbCircle
 10
277.0150140089487
 20
695.6174394693512
 30
0.0
 40
1.5
100
AcDbArc
 50
209.9999999999925
 51
270.0
  0
ARC
  5
4C7E
330
1E
100
AcDbEntity
  8
STEMPEL
100
AcDbCircle
 10
277.0150140089487
 20
695.6174394693512
 30
0.0
 40
2.5
100
AcDbArc
 50
209.9999999999925
 51
270.0
  0
LINE
  5
4C7F
330
1E
100
AcDbEntity
  8
STEMPEL
100
AcDbLine
 10
265.1650140089482
 20
694.1174394693511
 30
0.0
 11
271.6188615862423
 21
694.1174394693511
 31
0.0
  0
LINE
  5
4C80
330
1E
100
AcDbEntity
  8
STEMPEL
100
AcDbLine
 10
265.1650140089482
 20
694.1174394693511
 30
0.0
 11
271.6188615862423
 21
694.1174394693511
 31
0.0
  0
ARC
  5
4C81
330
1E
100
AcDbEntity
  8
STEMPEL
100
AcDbCircle
 10
262.5669377975947
 20
694.1174394693511
 30
0.0
 40
0.5
100
AcDbArc
 50
29.99999999999973
 51
90.0
  0
LINE
  5
4C82
330
1E
100
AcDbEntity
  8
STEMPEL
100
AcDbLine
 10
262.3669377975947
 20
694.6174394693512
 30
0.0
 11
262.5669377975947
 21
694.6174394693512
 31
0.0
  0
ARC
  5
4C83
330
1E
100
AcDbEntity
  8
STEMPEL
100
AcDbCircle
 10
262.3669377975947
 20
694.1174394693511
 30
0.0
 40
0.5
100
AcDbArc
 50
90.0
 51
165.5224878140701
  0
LINE
  5
4C84
330
1E
100
AcDbEntity
  8
STEMPEL
100
AcDbLine
 10
260.2416969318915
 20
694.1174394693511
 30
0.0
 11
260.4304461244907
 21
694.1174394693511
 31
0.0
  0
ARC
  5
4C85
330
1E
100
AcDbEntity
  8
STEMPEL
100
AcDbCircle
 10
260.4304461244907
 20
694.6174394693512
 30
0.0
 40
0.5
100
AcDbArc
 50
270.0
 51
345.5224878140701
  0
ARC
  5
4C86
330
1E
100
AcDbEntity
  8
STEMPEL
100
AcDbCircle
 10
262.3669377975947
 20
694.1174394693511
 30
0.0
 40
1.5
100
AcDbArc
 50
90.0
 51
165.5224878140701
  0
ARC
  5
4C87
330
1E
100
AcDbEntity
  8
STEMPEL
100
AcDbCircle
 10
262.5669377975947
 20
694.1174394693511
 30
0.0
 40
1.5
100
AcDbArc
 50
29.99999999999973
 51
90.0
  0
ARC
  5
4C88
330
1E
100
AcDbEntity
  8
STEMPEL
100
AcDbCircle
 10
258.3052052587882
 20
694.1174394693511
 30
0.0
 40
1.5
100
AcDbArc
 50
14.47751218592986
 51
90.0
  0
ARC
  5
4C89
330
1E
100
AcDbEntity
  8
STEMPEL
100
AcDbCircle
 10
258.3052052587882
 20
694.1174394693511
 30
0.0
 40
0.5
100
AcDbArc
 50
14.47751218592986
 51
90.0
  0
ARC
  5
4C8A
330
1E
100
AcDbEntity
  8
STEMPEL
100
AcDbCircle
 10
260.2416969318915
 20
694.6174394693512
 30
0.0
 40
0.5
100
AcDbArc
 50
194.4775121859299
 51
270.0
  0
ARC
  5
4C8B
330
1E
100
AcDbEntity
  8
STEMPEL
100
AcDbCircle
 10
265.1650140089482
 20
695.6174394693512
 30
0.0
 40
1.5
100
AcDbArc
 50
209.9999999999997
 51
270.0
  0
ARC
  5
4C8C
330
1E
100
AcDbEntity
  8
STEMPEL
100
AcDbCircle
 10
265.1650140089482
 20
695.6174394693512
 30
0.0
 40
2.5
100
AcDbArc
 50
209.9999999999997
 51
270.0
  0
ARC
  5
4C8D
330
1E
100
AcDbEntity
  8
STEMPEL
100
AcDbCircle
 10
260.4304461244907
 20
694.6174394693512
 30
0.0
 40
1.5
100
AcDbArc
 50
270.0
 51
345.5224878140701
  0
ARC
  5
4C8E
330
1E
100
AcDbEntity
  8
STEMPEL
100
AcDbCircle
 10
260.2416969318915
 20
694.6174394693512
 30
0.0
 40
1.5
100
AcDbArc
 50
194.4775121859299
 51
270.0
  0
ARC
  5
4C8F
330
1E
100
AcDbEntity
  8
STEMPEL
100
AcDbCircle
 10
271.6188615862423
 20
695.6174394693512
 30
0.0
 40
2.5
100
AcDbArc
 50
270.0
 51
329.9999999999922
  0
ARC
  5
4C90
330
1E
100
AcDbEntity
  8
STEMPEL
100
AcDbCircle
 10
271.6188615862423
 20
695.6174394693512
 30
0.0
 40
1.5
100
AcDbArc
 50
270.0
 51
329.9999999999922
  0
ARC
  5
4C91
330
1E
100
AcDbEntity
  8
STEMPEL
100
AcDbCircle
 10
248.2169377975946
 20
694.1174394693511
 30
0.0
 40
0.5
100
AcDbArc
 50
90.0
 51
149.9999999999922
  0
ARC
  5
4C92
330
1E
100
AcDbEntity
  8
STEMPEL
100
AcDbCircle
 10
245.6188615862419
 20
695.6174394693512
 30
0.0
 40
1.5
100
AcDbArc
 50
270.0
 51
329.9999999999922
  0
ARC
  5
4C93
330
1E
100
AcDbEntity
  8
STEMPEL
100
AcDbCircle
 10
248.2169377975946
 20
694.1174394693511
 30
0.0
 40
1.5
100
AcDbArc
 50
90.0
 51
149.9999999999922
  0
ARC
  5
4C94
330
1E
100
AcDbEntity
  8
STEMPEL
100
AcDbCircle
 10
245.6188615862419
 20
695.6174394693512
 30
0.0
 40
2.5
100
AcDbArc
 50
270.0
 51
329.9999999999922
  0
ARC
  5
4C95
330
1E
100
AcDbEntity
  8
STEMPEL
100
AcDbCircle
 10
236.5669377975947
 20
694.1174394693511
 30
0.0
 40
1.5
100
AcDbArc
 50
29.99999999999973
 51
90.0
  0
ARC
  5
4C96
330
1E
100
AcDbEntity
  8
STEMPEL
100
AcDbCircle
 10
236.5669377975947
 20
694.1174394693511
 30
0.0
 40
0.5
100
AcDbArc
 50
29.99999999999973
 51
90.0
  0
LINE
  5
4C97
330
1E
100
AcDbEntity
  8
STEMPEL
100
AcDbLine
 10
236.3669377975947
 20
694.6174394693512
 30
0.0
 11
236.5669377975947
 21
694.6174394693512
 31
0.0
  0
ARC
  5
4C98
330
1E
100
AcDbEntity
  8
STEMPEL
100
AcDbCircle
 10
236.3669377975947
 20
694.1174394693511
 30
0.0
 40
0.5
100
AcDbArc
 50
90.0
 51
150.0000000000075
  0
ARC
  5
4C99
330
1E
100
AcDbEntity
  8
STEMPEL
100
AcDbCircle
 10
239.1650140089477
 20
695.6174394693512
 30
0.0
 40
1.5
100
AcDbArc
 50
209.9999999999997
 51
270.0
  0
ARC
  5
4C9A
330
1E
100
AcDbEntity
  8
STEMPEL
100
AcDbCircle
 10
233.768861586241
 20
695.6174394693512
 30
0.0
 40
1.5
100
AcDbArc
 50
270.0
 51
330.0000000000076
  0
ARC
  5
4C9B
330
1E
100
AcDbEntity
  8
STEMPEL
100
AcDbCircle
 10
236.3669377975947
 20
694.1174394693511
 30
0.0
 40
1.5
100
AcDbArc
 50
90.0
 51
150.0000000000075
  0
ARC
  5
4C9C
330
1E
100
AcDbEntity
  8
STEMPEL
100
AcDbCircle
 10
228.9119377975948
 20
694.1174394693511
 30
0.0
 40
1.5
100
AcDbArc
 50
90.0
 51
150.0000000000002
  0
ARC
  5
4C9D
330
1E
100
AcDbEntity
  8
STEMPEL
100
AcDbCircle
 10
229.1119377975948
 20
694.1174394693511
 30
0.0
 40
1.5
100
AcDbArc
 50
29.99999999999246
 51
90.0
  0
ARC
  5
4C9E
330
1E
100
AcDbEntity
  8
STEMPEL
100
AcDbCircle
 10
229.1119377975948
 20
694.1174394693511
 30
0.0
 40
0.5
100
AcDbArc
 50
29.99999999999973
 51
90.0
  0
LINE
  5
4C9F
330
1E
100
AcDbEntity
  8
STEMPEL
100
AcDbLine
 10
228.9119377975948
 20
694.6174394693512
 30
0.0
 11
229.1119377975948
 21
694.6174394693512
 31
0.0
  0
ARC
  5
4CA0
330
1E
100
AcDbEntity
  8
STEMPEL
100
AcDbCircle
 10
228.9119377975948
 20
694.1174394693511
 30
0.0
 40
0.5
100
AcDbArc
 50
90.0
 51
150.0000000000002
  0
ARC
  5
4CA1
330
1E
100
AcDbEntity
  8
STEMPEL
100
AcDbCircle
 10
226.3138615862413
 20
695.6174394693512
 30
0.0
 40
1.5
100
AcDbArc
 50
270.0
 51
330.0000000000003
  0
ARC
  5
4CA2
330
1E
100
AcDbEntity
  8
STEMPEL
100
AcDbCircle
 10
231.7100140089486
 20
695.6174394693512
 30
0.0
 40
1.5
100
AcDbArc
 50
209.9999999999925
 51
270.0
  0
LINE
  5
4CA3
330
1E
100
AcDbEntity
  8
STEMPEL
100
AcDbLine
 10
231.7100140089486
 20
694.1174394693511
 30
0.0
 11
233.768861586241
 21
694.1174394693511
 31
0.0
  0
LINE
  5
4CA4
330
1E
100
AcDbEntity
  8
STEMPEL
100
AcDbLine
 10
231.7100140089486
 20
694.117439469351
 30
0.0
 11
233.768861586241
 21
694.117439469351
 31
0.0
  0
ARC
  5
4CA5
330
1E
100
AcDbEntity
  8
STEMPEL
100
AcDbCircle
 10
231.7100140089486
 20
695.6174394693512
 30
0.0
 40
2.5
100
AcDbArc
 50
209.9999999999925
 51
270.0
  0
ARC
  5
4CA6
330
1E
100
AcDbEntity
  8
STEMPEL
100
AcDbCircle
 10
226.3138615862413
 20
695.6174394693512
 30
0.0
 40
2.5
100
AcDbArc
 50
270.0
 51
330.0000000000003
  0
ARC
  5
4CA7
330
1E
100
AcDbEntity
  8
STEMPEL
100
AcDbCircle
 10
239.1650140089477
 20
695.6174394693512
 30
0.0
 40
2.5
100
AcDbArc
 50
209.9999999999997
 51
270.0
  0
ARC
  5
4CA8
330
1E
100
AcDbEntity
  8
STEMPEL
100
AcDbCircle
 10
233.768861586241
 20
695.6174394693512
 30
0.0
 40
2.5
100
AcDbArc
 50
270.0
 51
330.0000000000076
  0
LINE
  5
4CA9
330
1E
100
AcDbEntity
  8
STEMPEL
100
AcDbLine
 10
239.1650140089477
 20
694.1174394693511
 30
0.0
 11
245.6188615862419
 21
694.1174394693511
 31
0.0
  0
LINE
  5
4CAA
330
1E
100
AcDbEntity
  8
STEMPEL
100
AcDbLine
 10
239.1650140089477
 20
694.1174394693511
 30
0.0
 11
245.6188615862419
 21
694.1174394693511
 31
0.0
  0
LINE
  5
4CAB
330
1E
100
AcDbEntity
  8
STEMPEL
100
AcDbLine
 10
228.9119377975948
 20
695.6174394693512
 30
0.0
 11
274.4169377975946
 21
695.6174394693512
 31
0.0
  0
LINE
  5
4CAC
330
1E
100
AcDbEntity
  8
STEMPEL
100
AcDbLine
 10
248.2169377975946
 20
694.6174394693512
 30
0.0
 11
258.3052052587882
 21
694.6174394693512
 31
0.0
  0
ARC
  5
4CAD
330
1E
100
AcDbEntity
  8
STEMPEL
100
AcDbCircle
 10
171.5754994138919
 20
688.1174394693509
 30
0.0
 40
6.0
100
AcDbArc
 50
90.0
 51
90.0
  0
ARC
  5
4CAE
330
1E
100
AcDbEntity
  8
STEMPEL
100
AcDbCircle
 10
171.5754994138919
 20
688.1174394693509
 30
0.0
 40
6.0
100
AcDbArc
 50
90.0
 51
120.5128743276211
  0
ARC
  5
4CAF
330
1E
100
AcDbEntity
  8
STEMPEL
100
AcDbCircle
 10
171.5754994138919
 20
688.1174394693509
 30
0.0
 40
5.0
100
AcDbArc
 50
90.0
 51
120.5373500483005
  0
LINE
  5
4CB0
330
1E
100
AcDbEntity
  8
STEMPEL
100
AcDbLine
 10
171.5754994138919
 20
694.1174394693507
 30
0.0
 11
226.3138615862413
 21
694.117439469351
 31
0.0
  0
LINE
  5
4CB1
330
1E
100
AcDbEntity
  8
STEMPEL
100
AcDbLine
 10
277.0150140089487
 20
694.1174394693511
 30
0.0
 11
331.5754994138921
 21
694.1174394693514
 31
0.0
  0
LINE
  5
4CB2
330
1E
100
AcDbEntity
  8
STEMPEL
100
AcDbLine
 10
171.5754994138919
 20
693.1174394693507
 30
0.0
 11
331.5754994138921
 21
693.1174394693514
 31
0.0
  0
LWPOLYLINE
  5
4CB3
330
1E
100
AcDbEntity
  8
STEMPEL
100
AcDbPolyline
 90
        7
 70
   128
 43
0.0
 10
359.8837550879756
 20
623.0794935251894
 10
359.7459260784053
 20
622.327387288251
 10
359.6270618014391
 20
621.4046736775363
 10
359.5307137995379
 20
620.338922427632
 10
359.4597608519998
 20
619.1619770908107
 10
359.4163229599918
 20
617.9090035844089
 10
359.4016980030942
 20
616.6174394693496
  0
LWPOLYLINE
  5
4CB4
330
1E
100
AcDbEntity
  8
STEMPEL
100
AcDbPolyline
 90
       18
 70
   128
 43
0.0
 10
360.3658121728567
 20
616.6174394693496
 10
360.3491437493799
 20
617.9955608529742
 10
360.2997061021195
 20
619.3267519657538
 10
360.2191827708591
 20
620.5656806909307
 10
360.1103158810674
 20
621.6701567967
 10
359.9768127641052
 20
622.6025686739529
 10
359.823219708501
 20
623.331164154514
 10
359.654767141549
 20
623.8311317931472
 10
359.47719151338
 20
624.0854457915641
 10
359.296539949033
 20
624.0854457915641
 10
359.118964320864
 20
623.8311317931472
 10
358.950511753912
 20
623.331164154514
 10
358.7969186983079
 20
622.6025686739529
 10
358.6634155813456
 20
621.6701567967
 10
358.5545486915539
 20
620.5656806909307
 10
358.4740253602935
 20
619.3267519657538
 10
358.4245877130332
 20
617.9955608529742
 10
358.4079192895563
 20
616.6174394693496
  0
LWPOLYLINE
  5
4CB5
330
1E
100
AcDbEntity
  8
STEMPEL
100
AcDbPolyline
 90
        9
 70
   128
 43
0.0
 10
352.5027264516361
 20
624.0191977140148
 10
352.0136659083673
 20
623.6927648162573
 10
351.5540529404664
 20
623.147495803
 10
351.1381031368421
 20
622.4002555598722
 10
350.7786816075505
 20
621.4741558370946
 10
350.486905072663
 20
620.3978404151244
 10
350.2717980279249
 20
619.2045991674936
 10
350.1400136218174
 20
617.9313384224176
 10
350.0956278771525
 20
616.6174394693512
  0
LWPOLYLINE
  5
4CB6
330
1E
100
AcDbEntity
  8
STEMPEL
100
AcDbPolyline
 90
       18
 70
   128
 43
0.0
 10
354.9098250261229
 20
616.6174394693496
 10
354.8609556812067
 20
617.9955608529742
 10
354.7160118333866
 20
619.3267519657538
 10
354.4799293715594
 20
620.5656806909307
 10
354.1607478008127
 20
621.6701567967
 10
353.7693364667223
 20
622.6025686739529
 10
353.3190244128243
 20
623.331164154514
 10
352.8251464760249
 20
623.8311317931472
 10
352.3045210771199
 20
624.0854457915641
 10
351.7748774896481
 20
624.0854457915641
 10
351.2542520907432
 20
623.8311317931472
 10
350.7603741539437
 20
623.331164154514
 10
350.3100621000458
 20
622.6025686739529
 10
349.9186507659554
 20
621.6701567967
 10
349.5994691952087
 20
620.5656806909307
 10
349.3633867333815
 20
619.3267519657538
 10
349.2184428855614
 20
617.9955608529742
 10
349.1695735406452
 20
616.6174394693496
  0
LINE
  5
4CB7
330
1E
100
AcDbEntity
  8
STEMPEL
100
AcDbLine
 10
381.5754994138917
 20
605.1174394693516
 30
0.0
 11
381.5754994138919
 21
604.1174394693514
 31
0.0
  0
LINE
  5
4CB8
330
1E
100
AcDbEntity
  8
STEMPEL
100
AcDbLine
 10
381.5754994138917
 20
604.1174394693507
 30
0.0
 11
381.8358022233768
 21
589.2047015015373
 31
0.0
  0
LINE
  5
4CB9
330
1E
100
AcDbEntity
  8
STEMPEL
100
AcDbLine
 10
377.5754994138919
 20
605.1174394693514
 30
0.0
 11
377.5754994138919
 21
604.1174394693514
 31
0.0
  0
LINE
  5
4CBA
330
1E
100
AcDbEntity
  8
STEMPEL
100
AcDbLine
 10
369.5754994138919
 20
605.1174394693519
 30
0.0
 11
369.5754994138919
 21
604.1174394693514
 31
0.0
  0
LINE
  5
4CBB
330
1E
100
AcDbEntity
  8
STEMPEL
100
AcDbLine
 10
375.9254994138919
 20
590.7174394693518
 30
0.0
 11
376.5754994138918
 21
591.3674394693516
 31
0.0
  0
LINE
  5
4CBC
330
1E
100
AcDbEntity
  8
STEMPEL
100
AcDbLine
 10
370.5754994138918
 20
591.3674394693516
 30
0.0
 11
371.2254994138918
 21
590.7174394693518
 31
0.0
  0
LINE
  5
4CBD
330
1E
100
AcDbEntity
  8
STEMPEL
100
AcDbLine
 10
370.5754994138918
 20
591.3674394693516
 30
0.0
 11
376.5754994138918
 21
591.3674394693516
 31
0.0
  0
LINE
  5
4CBE
330
1E
100
AcDbEntity
  8
STEMPEL
100
AcDbLine
 10
371.2254994138918
 20
590.7174394693518
 30
0.0
 11
375.9254994138919
 21
590.7174394693518
 31
0.0
  0
LINE
  5
4CBF
330
1E
100
AcDbEntity
  8
STEMPEL
100
AcDbLine
 10
376.5754994138918
 20
605.1174394693516
 30
0.0
 11
376.5754994138918
 21
591.3674394693516
 31
0.0
  0
LINE
  5
4CC0
330
1E
100
AcDbEntity
  8
HILF
100
AcDbLine
 10
375.9254994138919
 20
590.7174394693518
 30
0.0
 11
375.9254994138919
 21
605.1174394693516
 31
0.0
  0
LINE
  5
4CC1
330
1E
100
AcDbEntity
  8
STEMPEL
100
AcDbLine
 10
370.5754994138918
 20
605.1174394693516
 30
0.0
 11
370.5754994138918
 21
591.3674394693516
 31
0.0
  0
LINE
  5
4CC2
330
1E
100
AcDbEntity
  8
HILF
100
AcDbLine
 10
371.2254994138918
 20
590.7174394693518
 30
0.0
 11
371.2254994138918
 21
605.1174394693516
 31
0.0
  0
LINE
  5
4CC3
330
1E
100
AcDbEntity
  8
STEMPEL
100
AcDbLine
 10
365.1360559465294
 20
604.1174394693519
 30
0.0
 11
364.9774371977382
 21
595.0301774371657
 31
0.0
  0
LINE
  5
4CC4
330
1E
100
AcDbEntity
  8
STEMPEL
100
AcDbLine
 10
365.5754994138916
 20
604.1174394693507
 30
0.0
 11
365.4168806651004
 21
595.0301774371647
 31
0.0
  0
LWPOLYLINE
  5
4CC5
330
1E
100
AcDbEntity
  8
STEMPEL
100
AcDbPolyline
 90
        7
 70
   128
 43
0.0
 10
-362.022157186765
 20
605.1174394693519
 10
-361.3454553116876
 20
605.7270401972109
 10
-360.7459058880536
 20
606.4545992811226
 10
-360.239617214904
 20
607.2805691428028
 10
-359.8401919228584
 20
608.1827581680059
 10
-359.5583615075955
 20
609.1369269361996
 10
-359.401698003094
 20
610.1174394693519
210
0.0
220
0.0
230
-1.0
  0
LWPOLYLINE
  5
4CC6
330
1E
100
AcDbEntity
  8
STEMPEL
100
AcDbPolyline
 90
       10
 70
   128
 43
0.0
 10
-363.9139080205871
 20
604.1174394693514
 10
-363.0558350243143
 20
604.1835666839241
 10
-362.2030228246921
 20
604.4361204336544
 10
-361.3822645177751
 20
604.8671661499719
 10
-360.619346151376
 20
605.4631615204118
 10
-359.9382365958769
 20
606.2053819521325
 10
-359.3603345059312
 20
607.0705088489298
 10
-358.903796031525
 20
608.0313622196459
 10
-358.5829643999274
 20
609.0577546013581
 10
-358.4079192895563
 20
610.1174394693507
210
0.0
220
0.0
230
-1.0
  0
LINE
  5
4CC7
330
1E
100
AcDbEntity
  8
STEMPEL
100
AcDbLine
 10
362.9862713565274
 20
605.1174394693514
 30
0.0
 11
362.0221571867647
 21
605.1174394693514
 31
0.0
  0
LWPOLYLINE
  5
4CC8
330
1E
100
AcDbEntity
  8
STEMPEL
100
AcDbPolyline
 90
       10
 70
   128
 43
0.0
 10
-353.9849380672191
 20
604.1174394693514
 10
-353.1487587923775
 20
604.2085929512782
 10
-352.3379864016749
 20
604.479283744636
 10
-351.5772558039321
 20
604.9212870466448
 10
-350.8896814134133
 20
605.5211728106377
 10
-350.2961548300449
 20
606.2607138112324
 10
-349.8147100587237
 20
607.1174394693517
 10
-349.4599755552033
 20
608.0653186093977
 10
-349.2427297478692
 20
609.0755504033502
 10
-349.1695735406452
 20
610.1174394693519
210
0.0
220
0.0
230
-1.0
  0
LWPOLYLINE
  5
4CC9
330
1E
100
AcDbEntity
  8
STEMPEL
100
AcDbPolyline
 90
        7
 70
   128
 43
0.0
 10
-352.2491995098211
 20
605.1174394693514
 10
-351.6291089867568
 20
605.7267773711924
 10
-351.0972888399733
 20
606.4542076444816
 10
-350.6680430402421
 20
607.2801651384252
 10
-350.3529166924447
 20
608.1824346888875
 10
-350.1603855154789
 20
609.1367486231307
 10
-350.0956278771525
 20
610.1174394693519
210
0.0
220
0.0
230
-1.0
  0
LWPOLYLINE
  5
4CCA
330
1E
100
AcDbEntity
  8
STEMPEL
100
AcDbPolyline
 90
       10
 70
   128
 43
0.0
 10
-359.7251895526969
 20
604.1174394693514
 10
-358.8890102778553
 20
604.2085929512782
 10
-358.0782378871527
 20
604.479283744636
 10
-357.3175072894098
 20
604.9212870466448
 10
-356.6299328988911
 20
605.5211728106377
 10
-356.0364063155227
 20
606.2607138112324
 10
-355.5549615442014
 20
607.1174394693517
 10
-355.2002270406811
 20
608.0653186093977
 10
-354.9829812333469
 20
609.0755504033502
 10
-354.9098250261229
 20
610.1174394693519
210
0.0
220
0.0
230
-1.0
  0
LINE
  5
4CCB
330
1E
100
AcDbEntity
  8
STEMPEL
100
AcDbLine
 10
357.0633966587915
 20
605.1174394693514
 30
0.0
 11
352.2491995098201
 21
605.1174394693514
 31
0.0
  0
ARC
  5
4CCC
330
1E
100
AcDbEntity
  8
STEMPEL
100
AcDbCircle
 10
359.9781987219561
 20
595.1174394693521
 30
0.0
 40
5.0
100
AcDbArc
 50
270.0
 51
358.9999999999982
  0
ARC
  5
4CCD
330
1E
100
AcDbEntity
  8
STEMPEL
100
AcDbCircle
 10
360.4176421893184
 20
595.1174394693509
 30
0.0
 40
5.0
100
AcDbArc
 50
270.0
 51
358.9999999999982
  0
ARC
  5
4CCE
330
1E
100
AcDbEntity
  8
STEMPEL
100
AcDbCircle
 10
366.575499413892
 20
610.1174394693519
 30
0.0
 40
6.0
100
AcDbArc
 50
180.0
 51
269.9999999999984
  0
LWPOLYLINE
  5
4CCF
330
1E
100
AcDbEntity
  8
STEMPEL
100
AcDbPolyline
 90
       10
 70
   128
 43
0.0
 10
-365.8718009038876
 20
604.1174394693525
 10
-365.0137279076148
 20
604.1835666839252
 10
-364.1609157079926
 20
604.4361204336555
 10
-363.3401574010755
 20
604.8671661499731
 10
-362.5772390346765
 20
605.4631615204129
 10
-361.8961294791774
 20
606.2053819521336
 10
-361.3182273892316
 20
607.070508848931
 10
-360.8616889148255
 20
608.0313622196471
 10
-360.5408572832279
 20
609.0577546013593
 10
-360.3658121728567
 20
610.1174394693519
210
0.0
220
0.0
230
-1.0
  0
ARC
  5
4CD0
330
1E
100
AcDbEntity
  8
STEMPEL
100
AcDbCircle
 10
366.575499413892
 20
610.1174394693519
 30
0.0
 40
5.0
100
AcDbArc
 50
180.0
 51
269.9999999999984
  0
LINE
  5
4CD1
330
1E
100
AcDbEntity
  8
STEMPEL
100
AcDbLine
 10
374.0754994138918
 20
581.1174394693501
 30
0.0
 11
374.0754994138918
 21
578.1174394693501
 31
0.0
  0
ARC
  5
4CD2
330
1E
100
AcDbEntity
  8
STEMPEL
100
AcDbCircle
 10
376.836563747595
 20
589.117439469351
 30
0.0
 40
5.0
100
AcDbArc
 50
270.0
 51
1.000000000001761
  0
LINE
  5
4CD3
330
1E
100
AcDbEntity
  8
STEMPEL
100
AcDbLine
 10
376.5754994138918
 20
604.1174394693514
 30
0.0
 11
381.575499413892
 21
604.1174394693514
 31
0.0
  0
LINE
  5
4CD4
330
1E
100
AcDbEntity
  8
STEMPEL
100
AcDbLine
 10
381.5754994138917
 20
605.1174394693514
 30
0.0
 11
366.5754994138918
 21
605.1174394693519
 31
0.0
  0
LINE
  5
4CD5
330
1E
100
AcDbEntity
  8
MITTEL
100
AcDbLine
 10
373.5754994138917
 20
616.7174394693518
 30
0.0
 11
373.5754994138917
 21
584.11743946935
 31
0.0
  0
LINE
  5
4CD6
330
1E
100
AcDbEntity
  8
STEMPEL
100
AcDbLine
 10
359.4016980030941
 20
616.6174394693496
 30
0.0
 11
359.4016980030941
 21
610.1174394693519
 31
0.0
  0
LINE
  5
4CD7
330
1E
100
AcDbEntity
  8
STEMPEL
100
AcDbLine
 10
358.4079192895563
 20
616.6174394693496
 30
0.0
 11
358.4079192895563
 21
610.1174394693507
 31
0.0
  0
LINE
  5
4CD8
330
1E
100
AcDbEntity
  8
STEMPEL
100
AcDbLine
 10
354.9098250261229
 20
616.6174394693496
 30
0.0
 11
354.9098250261229
 21
610.117439469353
 31
0.0
  0
LINE
  5
4CD9
330
1E
100
AcDbEntity
  8
STEMPEL
100
AcDbLine
 10
360.3658121728567
 20
616.6174394693496
 30
0.0
 11
360.3658121728567
 21
610.1174394693519
 31
0.0
  0
LINE
  5
4CDA
330
1E
100
AcDbEntity
  8
STEMPEL
100
AcDbLine
 10
349.1695735406452
 20
616.6174394693496
 30
0.0
 11
349.1695735406452
 21
610.117439469353
 31
0.0
  0
LINE
  5
4CDB
330
1E
100
AcDbEntity
  8
STEMPEL
100
AcDbLine
 10
350.0956278771524
 20
616.6174394693496
 30
0.0
 11
350.0956278771524
 21
610.117439469353
 31
0.0
  0
LWPOLYLINE
  5
4CDC
330
1E
100
AcDbEntity
  8
STEMPEL
100
AcDbPolyline
 90
       10
 70
   128
 43
0.0
 10
338.6412845262183
 20
624.1174394693528
 10
337.8484571803586
 20
624.0034976169445
 10
337.0797194922129
 20
623.665134125247
 10
336.3584291674353
 20
623.1126299977359
 10
335.7065022475539
 20
622.3627727927448
 10
335.1437472021382
 20
621.4383465420014
 10
334.6872630584753
 20
620.3674394693521
 10
334.3509198562785
 20
619.1825905442942
 10
334.1449372135485
 20
617.9198008018536
 10
334.0755738086524
 20
616.6174394693512
  0
LWPOLYLINE
  5
4CDD
330
1E
100
AcDbEntity
  8
STEMPEL
100
AcDbPolyline
 90
       18
 70
   128
 43
0.0
 10
342.4117743569633
 20
616.6174394693496
 10
342.3340344557032
 20
617.9955608529742
 10
342.1034620910214
 20
619.3267519657538
 10
341.7279091282562
 20
620.5656806909307
 10
341.2201645731285
 20
621.6701567967
 10
340.5975190574906
 20
622.6025686739529
 10
339.8811760275965
 20
623.331164154514
 10
339.0955296861706
 20
623.8311317931472
 10
338.2673342770912
 20
624.0854457915641
 10
337.4247930017035
 20
624.0854457915641
 10
336.5965975926241
 20
623.8311317931472
 10
335.8109512511983
 20
623.331164154514
 10
335.0946082213042
 20
622.6025686739529
 10
334.4719627056662
 20
621.6701567967
 10
333.9642181505385
 20
620.5656806909307
 10
333.5886651877733
 20
619.3267519657538
 10
333.3580928230915
 20
617.9955608529742
 10
333.2803529218314
 20
616.6174394693496
  0
LWPOLYLINE
  5
4CDE
330
1E
100
AcDbEntity
  8
STEMPEL
100
AcDbPolyline
 90
        9
 70
   128
 43
0.0
 10
318.078328836215
 20
624.1075735471733
 10
316.9619211148438
 20
623.9002664107663
 10
315.8966418631016
 20
623.4310116833126
 10
314.9208068800632
 20
622.7166874461438
 10
314.0695148472052
 20
621.7829864027476
 10
313.3733849044688
 20
620.6634917675871
 10
312.8574553457775
 20
619.3984693502484
 10
312.5402830455616
 20
618.0334192810391
 10
312.4332760079734
 20
616.6174394693512
  0
LWPOLYLINE
  5
4CDF
330
1E
100
AcDbEntity
  8
STEMPEL
100
AcDbPolyline
 90
       18
 70
   128
 43
0.0
 10
323.7233816644799
 20
616.6174394693496
 10
323.6220690526756
 20
617.9955608529742
 10
323.3215812967463
 20
619.3267519657538
 10
322.8321511468251
 20
620.5656806909307
 10
322.1704455596607
 20
621.6701567967
 10
321.3589981253956
 20
622.6025686739529
 10
320.4254417131799
 20
623.331164154514
 10
319.4015674669538
 20
623.8311317931472
 10
318.322242196171
 20
624.0854457915641
 10
317.22422102842
 20
624.0854457915641
 10
316.1448957576372
 20
623.8311317931472
 10
315.1210215114111
 20
623.331164154514
 10
314.1874650991954
 20
622.6025686739529
 10
313.3760176649303
 20
621.6701567967
 10
312.7143120777658
 20
620.5656806909307
 10
312.2248819278447
 20
619.3267519657538
 10
311.9243941719154
 20
617.9955608529742
 10
311.8230815601111
 20
616.6174394693496
  0
LWPOLYLINE
  5
4CE0
330
1E
100
AcDbEntity
  8
STEMPEL
100
AcDbPolyline
 90
       10
 70
   128
 43
0.0
 10
-346.7754805315693
 20
604.1174394693514
 10
-346.0177309064751
 20
604.2085929512782
 10
-345.2830051202996
 20
604.479283744636
 10
-344.5936274442664
 20
604.9212870466448
 10
-343.97054427022
 20
605.5211728106377
 10
-343.4326876651086
 20
606.2607138112324
 10
-342.9964001297096
 20
607.1174394693517
 10
-342.6749380400143
 20
608.0653186093977
 10
-342.4780688589503
 20
609.0755504033502
 10
-342.4117743569635
 20
610.1174394693519
210
0.0
220
0.0
230
-1.0
  0
LWPOLYLINE
  5
4CE1
330
1E
100
AcDbEntity
  8
STEMPEL
100
AcDbPolyline
 90
        7
 70
   128
 43
0.0
 10
-336.0271506371706
 20
605.1174394693514
 10
-335.4652216639065
 20
605.7267773711924
 10
-334.9832837243194
 20
606.4542076444816
 10
-334.5942991445695
 20
607.2801651384252
 10
-334.3087301534631
 20
608.1824346888875
 10
-334.1342574876671
 20
609.1367486231308
 10
-334.0755738086522
 20
610.1174394693519
210
0.0
220
0.0
230
-1.0
  0
LINE
  5
4CE2
330
1E
100
AcDbEntity
  8
STEMPEL
100
AcDbLine
 10
344.3633511854819
 20
605.1174394693514
 30
0.0
 11
336.0271506371699
 21
605.1174394693514
 31
0.0
  0
LWPOLYLINE
  5
4CE3
330
1E
100
AcDbEntity
  8
STEMPEL
100
AcDbPolyline
 90
       10
 70
   128
 43
0.0
 10
-337.6440590964374
 20
604.1174394693514
 10
-336.8863094713432
 20
604.2085929512782
 10
-336.1515836851677
 20
604.479283744636
 10
-335.4622060091346
 20
604.9212870466448
 10
-334.8391228350881
 20
605.5211728106377
 10
-334.3012662299767
 20
606.2607138112324
 10
-333.8649786945778
 20
607.1174394693517
 10
-333.5435166048825
 20
608.0653186093977
 10
-333.3466474238185
 20
609.0755504033502
 10
-333.2803529218316
 20
610.1174394693519
210
0.0
220
0.0
230
-1.0
  0
LWPOLYLINE
  5
4CE4
330
1E
100
AcDbEntity
  8
STEMPEL
100
AcDbPolyline
 90
       10
 70
   128
 43
0.0
 10
-315.4856846956351
 20
604.1174394693514
 10
-314.8496803356342
 20
604.2085929512782
 10
-314.233000646278
 20
604.479283744636
 10
-313.6543831278729
 20
604.9212870466448
 10
-313.1314087809211
 20
605.5211728106377
 10
-312.6799679163166
 20
606.2607138112324
 10
-312.3137773362906
 20
607.1174394693517
 10
-312.0439635563157
 20
608.0653186093977
 10
-311.8787247315641
 20
609.0755504033502
 10
-311.8230815601109
 20
610.1174394693519
210
0.0
220
0.0
230
-1.0
  0
LWPOLYLINE
  5
4CE5
330
1E
100
AcDbEntity
  8
STEMPEL
100
AcDbPolyline
 90
        7
 70
   128
 43
0.0
 10
-314.0712990840786
 20
605.1174394693514
 10
-313.5996534835118
 20
605.7267773711924
 10
-313.195147007129
 20
606.4542076444816
 10
-312.86865936464
 20
607.2801651384252
 10
-312.6289718512317
 20
608.1824346888875
 10
-312.4825311636057
 20
609.1367486231308
 10
-312.4332760079733
 20
610.1174394693519
210
0.0
220
0.0
230
-1.0
  0
LINE
  5
4CE6
330
1E
100
AcDbEntity
  8
STEMPEL
100
AcDbLine
 10
325.3836795323298
 20
605.1174394693512
 30
0.0
 11
314.0712990840781
 21
605.1174394693514
 31
0.0
  0
LWPOLYLINE
  5
4CE7
330
1E
100
AcDbEntity
  8
STEMPEL
100
AcDbPolyline
 90
       10
 70
   128
 43
0.0
 10
-302.8405733538388
 20
604.1174394693514
 10
-302.3678433960852
 20
604.2085929512782
 10
-301.909477098885
 20
604.479283744636
 10
-301.4794016902342
 20
604.9212870466448
 10
-301.090684793796
 20
605.5211728106377
 10
-300.7551373757683
 20
606.2607138112324
 10
-300.4829548746527
 20
607.1174394693517
 10
-300.2824074180146
 20
608.0653186093977
 10
-300.1595885388422
 20
609.0755504033502
 10
-300.1182300266297
 20
610.1174394693519
210
0.0
220
0.0
230
-1.0
  0
LINE
  5
4CE8
330
1E
100
AcDbEntity
  8
STEMPEL
100
AcDbLine
 10
301.3357414593588
 20
605.1174394693514
 30
0.0
 11
287.8611327373644
 21
605.1174394693514
 31
0.0
  0
LINE
  5
4CE9
330
1E
100
AcDbEntity
  8
STEMPEL
100
AcDbLine
 10
314.0754994138918
 20
581.1174394693501
 30
0.0
 11
314.0754994138918
 21
578.1174394693501
 31
0.0
  0
ARC
  5
4CEA
330
1E
100
AcDbEntity
  8
STEMPEL
100
AcDbCircle
 10
317.0754994138919
 20
587.1174394693507
 30
0.0
 40
3.0
100
AcDbArc
 50
90.0
 51
270.0
  0
LINE
  5
4CEB
330
1E
100
AcDbEntity
  8
MITTEL
100
AcDbLine
 10
322.9754994138916
 20
608.1174394693498
 30
0.0
 11
322.9754994138918
 21
573.1174394693498
 31
0.0
  0
LINE
  5
4CEC
330
1E
100
AcDbEntity
  8
STEMPEL
100
AcDbLine
 10
300.1182300266297
 20
616.6174394693496
 30
0.0
 11
300.1182300266297
 21
610.117439469353
 31
0.0
  0
LINE
  5
4CED
330
1E
100
AcDbEntity
  8
STEMPEL
100
AcDbLine
 10
311.8230815601109
 20
616.6174394693496
 30
0.0
 11
311.8230815601109
 21
610.117439469353
 31
0.0
  0
LINE
  5
4CEE
330
1E
100
AcDbEntity
  8
STEMPEL
100
AcDbLine
 10
312.4332760079733
 20
616.6174394693496
 30
0.0
 11
312.4332760079733
 21
610.117439469353
 31
0.0
  0
LINE
  5
4CEF
330
1E
100
AcDbEntity
  8
STEMPEL
100
AcDbLine
 10
333.2803529218316
 20
616.6174394693496
 30
0.0
 11
333.2803529218316
 21
610.117439469353
 31
0.0
  0
LINE
  5
4CF0
330
1E
100
AcDbEntity
  8
STEMPEL
100
AcDbLine
 10
323.7233816644798
 20
616.6174394693496
 30
0.0
 11
323.7233816644798
 21
610.117439469353
 31
0.0
  0
LINE
  5
4CF1
330
1E
100
AcDbEntity
  8
STEMPEL
100
AcDbLine
 10
342.4117743569634
 20
616.6174394693496
 30
0.0
 11
342.4117743569634
 21
610.117439469353
 31
0.0
  0
LINE
  5
4CF2
330
1E
100
AcDbEntity
  8
STEMPEL
100
AcDbLine
 10
334.0755738086523
 20
616.6174394693496
 30
0.0
 11
334.0755738086523
 21
610.117439469353
 31
0.0
  0
LWPOLYLINE
  5
4CF3
330
1E
100
AcDbEntity
  8
STEMPEL
100
AcDbPolyline
 90
        9
 70
   128
 43
0.0
 10
265.8345517826186
 20
624.1171492291243
 10
264.3932117987408
 20
623.9618478352008
 10
263.0091308952913
 20
623.5274475881865
 10
261.7349062827593
 20
622.8304563679111
 10
260.6189604630294
 20
621.8973609164654
 10
259.7037010995764
 20
620.763620301122
 10
259.0239094608013
 20
619.4723184150527
 10
258.6054186781518
 20
618.0725267228931
 10
258.464132047258
 20
616.6174394693512
  0
LWPOLYLINE
  5
4CF4
330
1E
100
AcDbEntity
  8
STEMPEL
100
AcDbPolyline
 90
       18
 70
   128
 43
0.0
 10
273.2049715181789
 20
616.6174394693496
 10
273.0783622720025
 20
617.9955608529742
 10
272.7028460595009
 20
619.3267519657538
 10
272.0912106349085
 20
620.5656806909307
 10
271.2642845090341
 20
621.6701567967
 10
270.2502276593059
 20
622.6025686739529
 10
269.0835725755142
 20
623.331164154514
 10
267.8040482972889
 20
623.8311317931472
 10
266.4552274893048
 20
624.0854457915641
 10
265.0830426264455
 20
624.0854457915641
 10
263.7342218184614
 20
623.8311317931472
 10
262.4546975402361
 20
623.331164154514
 10
261.2880424564444
 20
622.6025686739529
 10
260.2739856067161
 20
621.6701567967
 10
259.4470594808417
 20
620.5656806909307
 10
258.8354240562494
 20
619.3267519657538
 10
258.4599078437477
 20
617.9955608529742
 10
258.3332985975713
 20
616.6174394693496
  0
LWPOLYLINE
  5
4CF5
330
1E
100
AcDbEntity
  8
STEMPEL
100
AcDbPolyline
 90
       18
 70
   128
 43
0.0
 10
-229.946027309605
 20
616.6174394693496
 10
-230.0726365557814
 20
617.9955608529742
 10
-230.4481527682831
 20
619.3267519657538
 10
-231.0597881928754
 20
620.5656806909307
 10
-231.8867143187498
 20
621.6701567967
 10
-232.9007711684781
 20
622.6025686739529
 10
-234.0674262522698
 20
623.331164154514
 10
-235.3469505304951
 20
623.8311317931472
 10
-236.6957713384792
 20
624.0854457915641
 10
-238.0679562013384
 20
624.0854457915641
 10
-239.4167770093226
 20
623.8311317931472
 10
-240.6963012875479
 20
623.331164154514
 10
-241.8629563713396
 20
622.6025686739529
 10
-242.8770132210678
 20
621.6701567967
 10
-243.7039393469422
 20
620.5656806909307
 10
-244.3155747715346
 20
619.3267519657538
 10
-244.6910909840362
 20
617.9955608529742
 10
-244.8177002302126
 20
616.6174394693496
210
0.0
220
0.0
230
-1.0
  0
LWPOLYLINE
  5
4CF6
330
1E
100
AcDbEntity
  8
STEMPEL
100
AcDbPolyline
 90
        9
 70
   128
 43
0.0
 10
-237.3164470451653
 20
624.1171492291243
 10
-238.7577870290432
 20
623.9618478352008
 10
-240.1418679324927
 20
623.5274475881865
 10
-241.4160925450246
 20
622.8304563679111
 10
-242.5320383647545
 20
621.8973609164654
 10
-243.4472977282076
 20
620.763620301122
 10
-244.1270893669827
 20
619.4723184150527
 10
-244.5455801496321
 20
618.0725267228931
 10
-244.686866780526
 20
616.6174394693512
210
0.0
220
0.0
230
-1.0
  0
LWPOLYLINE
  5
4CF7
330
1E
100
AcDbEntity
  8
STEMPEL
100
AcDbPolyline
 90
       10
 70
   128
 43
0.0
 10
-274.5165462546869
 20
604.1174394693514
 10
-274.2887936918183
 20
604.2085929512782
 10
-274.0679612753242
 20
604.479283744636
 10
-273.8607588864329
 20
604.9212870466448
 10
-273.6734822648817
 20
605.5211728106377
 10
-273.5118217160498
 20
606.2607138112324
 10
-273.3806892139091
 20
607.1174394693517
 10
-273.2840691531812
 20
608.0653186093977
 10
-273.2248972855191
 20
609.0755504033502
 10
-273.2049715181791
 20
610.1174394693519
210
0.0
220
0.0
230
-1.0
  0
LWPOLYLINE
  5
4CF8
330
1E
100
AcDbEntity
  8
STEMPEL
100
AcDbPolyline
 90
        7
 70
   128
 43
0.0
 10
-259.050706569515
 20
605.1174394693514
 10
-258.8818107237465
 20
605.7267773711924
 10
-258.7369573351739
 20
606.4542076444816
 10
-258.6200424176068
 20
607.2801651384252
 10
-258.5342105445891
 20
608.1824346888875
 10
-258.4817702721434
 20
609.1367486231308
 10
-258.4641320472581
 20
610.1174394693519
210
0.0
220
0.0
230
-1.0
  0
LWPOLYLINE
  5
4CF9
330
1E
100
AcDbEntity
  8
STEMPEL
100
AcDbPolyline
 90
       10
 70
   128
 43
0.0
 10
-259.6448733340793
 20
604.1174394693514
 10
-259.4171207712108
 20
604.2085929512782
 10
-259.1962883547166
 20
604.479283744636
 10
-258.9890859658253
 20
604.9212870466448
 10
-258.8018093442741
 20
605.5211728106377
 10
-258.6401487954422
 20
606.2607138112324
 10
-258.5090162933016
 20
607.1174394693517
 10
-258.4123962325737
 20
608.0653186093977
 10
-258.3532243649114
 20
609.0755504033502
 10
-258.3332985975715
 20
610.1174394693519
210
0.0
220
0.0
230
-1.0
  0
LINE
  5
4CFA
330
1E
100
AcDbEntity
  8
STEMPEL
100
AcDbLine
 10
273.791546040436
 20
605.1174394693514
 30
0.0
 11
259.0507065695147
 21
605.1174394693514
 31
0.0
  0
LWPOLYLINE
  5
4CFB
330
1E
100
AcDbEntity
  8
STEMPEL
100
AcDbPolyline
 90
        7
 70
   128
 43
0.0
 10
244.1002922582689
 20
605.1174394693514
 10
244.2691881040374
 20
605.7267773711924
 10
244.4140414926101
 20
606.4542076444816
 10
244.5309564101772
 20
607.2801651384252
 10
244.6167882831949
 20
608.1824346888875
 10
244.6692285556405
 20
609.1367486231308
 10
244.6868667805258
 20
610.1174394693519
  0
LWPOLYLINE
  5
4CFC
330
1E
100
AcDbEntity
  8
STEMPEL
100
AcDbPolyline
 90
       10
 70
   128
 43
0.0
 10
243.5061254937046
 20
604.1174394693514
 10
243.7338780565732
 20
604.2085929512782
 10
243.9547104730674
 20
604.479283744636
 10
244.1619128619586
 20
604.9212870466448
 10
244.3491894835098
 20
605.5211728106377
 10
244.5108500323418
 20
606.2607138112324
 10
244.6419825344824
 20
607.1174394693517
 10
244.7386025952103
 20
608.0653186093977
 10
244.7977744628726
 20
609.0755504033502
 10
244.8177002302125
 20
610.1174394693519
  0
LWPOLYLINE
  5
4CFD
330
1E
100
AcDbEntity
  8
STEMPEL
100
AcDbPolyline
 90
       10
 70
   128
 43
0.0
 10
228.6344525730971
 20
604.1174394693514
 10
228.8622051359656
 20
604.2085929512782
 10
229.0830375524598
 20
604.479283744636
 10
229.290239941351
 20
604.9212870466448
 10
229.4775165629022
 20
605.5211728106377
 10
229.6391771117342
 20
606.2607138112324
 10
229.7703096138748
 20
607.1174394693517
 10
229.8669296746027
 20
608.0653186093977
 10
229.926101542265
 20
609.0755504033502
 10
229.9460273096049
 20
610.1174394693519
  0
LINE
  5
4CFE
330
1E
100
AcDbEntity
  8
STEMPEL
100
AcDbLine
 10
229.3594527873479
 20
605.1174394693514
 30
0.0
 11
244.1002922582693
 21
605.1174394693514
 31
0.0
  0
LINE
  5
4CFF
330
1E
100
AcDbEntity
  8
STEMPEL
100
AcDbLine
 10
229.9460273096048
 20
616.6174394693512
 30
0.0
 11
229.9460273096048
 21
610.117439469353
 31
0.0
  0
LINE
  5
4D00
330
1E
100
AcDbEntity
  8
STEMPEL
100
AcDbLine
 10
244.686866780526
 20
616.6174394693496
 30
0.0
 11
244.686866780526
 21
610.117439469353
 31
0.0
  0
LINE
  5
4D01
330
1E
100
AcDbEntity
  8
STEMPEL
100
AcDbLine
 10
244.8177002302125
 20
616.617439469348
 30
0.0
 11
244.8177002302125
 21
610.117439469353
 31
0.0
  0
LINE
  5
4D02
330
1E
100
AcDbEntity
  8
STEMPEL
100
AcDbLine
 10
258.3332985975715
 20
616.617439469348
 30
0.0
 11
258.3332985975715
 21
610.117439469353
 31
0.0
  0
LINE
  5
4D03
330
1E
100
AcDbEntity
  8
STEMPEL
100
AcDbLine
 10
258.464132047258
 20
616.6174394693496
 30
0.0
 11
258.464132047258
 21
610.117439469353
 31
0.0
  0
LINE
  5
4D04
330
1E
100
AcDbEntity
  8
STEMPEL
100
AcDbLine
 10
286.2600370389588
 20
616.617439469348
 30
0.0
 11
286.2600370389588
 21
610.117439469353
 31
0.0
  0
LINE
  5
4D05
330
1E
100
AcDbEntity
  8
STEMPEL
100
AcDbLine
 10
286.6436213046358
 20
616.6174394693496
 30
0.0
 11
286.6436213046358
 21
610.117439469353
 31
0.0
  0
LINE
  5
4D06
330
1E
100
AcDbEntity
  8
STEMPEL
100
AcDbLine
 10
273.2049715181791
 20
616.6174394693512
 30
0.0
 11
273.2049715181791
 21
610.117439469353
 31
0.0
  0
LWPOLYLINE
  5
4D07
330
1E
100
AcDbEntity
  8
STEMPEL
100
AcDbPolyline
 90
       18
 70
   128
 43
0.0
 10
-203.0327688011543
 20
616.6174394693496
 10
-203.1507498364354
 20
617.9955608529742
 10
-203.500675239625
 20
619.3267519657538
 10
-204.0706287208068
 20
620.5656806909307
 10
-204.8412011977629
 20
621.6701567967
 10
-205.7861517489904
 20
622.6025686739529
 10
-206.8733012168106
 20
623.331164154514
 10
-208.0656280299887
 20
623.8311317931472
 10
-209.3225289289405
 20
624.0854457915641
 10
-210.6012016610389
 20
624.0854457915641
 10
-211.8581025599907
 20
623.8311317931472
 10
-213.0504293731689
 20
623.331164154514
 10
-214.137578840989
 20
622.6025686739529
 10
-215.0825293922165
 20
621.6701567967
 10
-215.8531018691726
 20
620.5656806909307
 10
-216.4230553503544
 20
619.3267519657538
 10
-216.7729807535441
 20
617.9955608529742
 10
-216.8909617888252
 20
616.6174394693496
210
0.0
220
0.0
230
-1.0
  0
LWPOLYLINE
  5
4D08
330
1E
100
AcDbEntity
  8
STEMPEL
100
AcDbPolyline
 90
        9
 70
   128
 43
0.0
 10
-209.7700731621778
 20
624.1145658923898
 10
-211.0942826125076
 20
623.9357329853419
 10
-212.3622620096937
 20
623.4854570680179
 10
-213.5269806977793
 20
622.7804393358788
 10
-214.545238066386
 20
621.846829619495
 10
-215.3792659056482
 20
620.7192564605191
 10
-215.9981292678422
 20
619.4395427035672
 10
-216.3788738763163
 20
618.0551542440318
 10
-216.5073775231482
 20
616.6174394693512
210
0.0
220
0.0
230
-1.0
  0
LWPOLYLINE
  5
4D09
330
1E
100
AcDbEntity
  8
STEMPEL
100
AcDbPolyline
 90
        9
 70
   128
 43
0.0
 10
-185.072669991569
 20
624.1075735471733
 10
-186.1890777129401
 20
623.9002664107663
 10
-187.2543569646824
 20
623.4310116833126
 10
-188.2301919477207
 20
622.7166874461438
 10
-189.0814839805787
 20
621.7829864027476
 10
-189.7776139233151
 20
620.6634917675871
 10
-190.2935434820065
 20
619.3984693502484
 10
-190.6107157822224
 20
618.0334192810391
 10
-190.7177228198105
 20
616.6174394693512
210
0.0
220
0.0
230
-1.0
  0
LWPOLYLINE
  5
4D0A
330
1E
100
AcDbEntity
  8
STEMPEL
100
AcDbPolyline
 90
       18
 70
   128
 43
0.0
 10
-179.427617163304
 20
616.6174394693496
 10
-179.5289297751084
 20
617.9955608529742
 10
-179.8294175310376
 20
619.3267519657538
 10
-180.3188476809588
 20
620.5656806909307
 10
-180.9805532681232
 20
621.6701567967
 10
-181.7920007023883
 20
622.6025686739529
 10
-182.725557114604
 20
623.331164154514
 10
-183.7494313608301
 20
623.8311317931472
 10
-184.8287566316129
 20
624.0854457915641
 10
-185.926777799364
 20
624.0854457915641
 10
-187.0061030701467
 20
623.8311317931472
 10
-188.0299773163729
 20
623.331164154514
 10
-188.9635337285886
 20
622.6025686739529
 10
-189.7749811628537
 20
621.6701567967
 10
-190.4366867500181
 20
620.5656806909307
 10
-190.9261168999393
 20
619.3267519657538
 10
-191.2266046558685
 20
617.9955608529742
 10
-191.3279172676729
 20
616.6174394693496
210
0.0
220
0.0
230
-1.0
  0
LWPOLYLINE
  5
4D0B
330
1E
100
AcDbEntity
  8
STEMPEL
100
AcDbPolyline
 90
        7
 70
   128
 43
0.0
 10
215.2898660904191
 20
605.1174394693514
 10
215.6404313048311
 20
605.7267773711924
 10
215.9410932837698
 20
606.4542076444816
 10
216.1837653457044
 20
607.2801651384252
 10
216.3619205207528
 20
608.1824346888875
 10
216.4707671017334
 20
609.1367486231307
 10
216.5073775231482
 20
610.1174394693519
  0
LWPOLYLINE
  5
4D0C
330
1E
100
AcDbEntity
  8
STEMPEL
100
AcDbPolyline
 90
       10
 70
   128
 43
0.0
 10
214.1686184616161
 20
604.1174394693514
 10
214.6413484193697
 20
604.2085929512782
 10
215.0997147165699
 20
604.479283744636
 10
215.5297901252207
 20
604.9212870466448
 10
215.9185070216589
 20
605.5211728106377
 10
216.2540544396866
 20
606.2607138112324
 10
216.5262369408022
 20
607.1174394693517
 10
216.7267843974403
 20
608.0653186093977
 10
216.8496032766127
 20
609.0755504033502
 10
216.8909617888252
 20
610.1174394693519
  0
LINE
  5
4D0D
330
1E
100
AcDbEntity
  8
STEMPEL
100
AcDbLine
 10
201.798700938906
 20
605.1174394693518
 30
0.0
 11
215.2898660904195
 21
605.1174394693514
 31
0.0
  0
LWPOLYLINE
  5
4D0E
330
1E
100
AcDbEntity
  8
STEMPEL
100
AcDbPolyline
 90
       10
 70
   128
 43
0.0
 10
187.6653141321488
 20
604.1174394693514
 10
188.3013184921498
 20
604.2085929512782
 10
188.9179981815059
 20
604.479283744636
 10
189.496615699911
 20
604.9212870466448
 10
190.0195900468628
 20
605.5211728106377
 10
190.4710309114673
 20
606.2607138112324
 10
190.8372214914933
 20
607.1174394693517
 10
191.1070352714682
 20
608.0653186093977
 10
191.2722740962199
 20
609.0755504033502
 10
191.327917267673
 20
610.1174394693519
  0
LWPOLYLINE
  5
4D0F
330
1E
100
AcDbEntity
  8
STEMPEL
100
AcDbPolyline
 90
        7
 70
   128
 43
0.0
 10
189.0796997437053
 20
605.1174394693514
 10
189.5513453442721
 20
605.7267773711924
 10
189.955851820655
 20
606.4542076444816
 10
190.282339463144
 20
607.2801651384252
 10
190.5220269765522
 20
608.1824346888875
 10
190.6684676641782
 20
609.1367486231308
 10
190.7177228198106
 20
610.1174394693519
  0
LWPOLYLINE
  5
4D10
330
1E
100
AcDbEntity
  8
STEMPEL
100
AcDbPolyline
 90
       10
 70
   128
 43
0.0
 10
175.76501402778
 20
604.1174394693514
 10
176.4010183877809
 20
604.2085929512782
 10
177.0176980771371
 20
604.479283744636
 10
177.5963155955421
 20
604.9212870466448
 10
178.119289942494
 20
605.5211728106377
 10
178.5707308070984
 20
606.2607138112324
 10
178.9369213871244
 20
607.1174394693517
 10
179.2067351670994
 20
608.0653186093977
 10
179.371973991851
 20
609.0755504033502
 10
179.4276171633041
 20
610.1174394693519
  0
LWPOLYLINE
  5
4D11
330
1E
100
AcDbEntity
  8
STEMPEL
100
AcDbPolyline
 90
        8
 70
   128
 43
0.0
 10
166.4350588030865
 20
604.1174394693514
 10
167.6887928186494
 20
604.9212870466448
 10
168.3118759926957
 20
605.5211728106377
 10
168.8497325978072
 20
606.2607138112324
 10
169.2860201332062
 20
607.1174394693517
 10
169.6074822229014
 20
608.0653186093977
 10
169.8043514039655
 20
609.0755504033502
 10
169.8706459059523
 20
610.1174394693519
  0
LWPOLYLINE
  5
4D12
330
1E
100
AcDbEntity
  8
STEMPEL
100
AcDbPolyline
 90
        7
 70
   128
 43
0.0
 10
167.1238481906133
 20
605.1174394693514
 10
167.6857771638774
 20
605.7267773711924
 10
168.1677151034646
 20
606.4542076444816
 10
168.5566996832144
 20
607.2801651384252
 10
168.8422686743209
 20
608.1824346888875
 10
169.0167413401168
 20
609.1367486231308
 10
169.0754250191318
 20
610.1174394693519
  0
LINE
  5
4D13
330
1E
100
AcDbEntity
  8
STEMPEL
100
AcDbLine
 10
177.7895940871988
 20
605.1174394693514
 30
0.0
 11
189.0796997437059
 21
605.1174394693514
 31
0.0
  0
LINE
  5
4D14
330
1E
100
AcDbEntity
  8
STEMPEL
100
AcDbLine
 10
189.0754994138917
 20
581.1174394693502
 30
0.0
 11
189.0754994138917
 21
578.1174394693501
 31
0.0
  0
LINE
  5
4D15
330
1E
100
AcDbEntity
  8
STEMPEL
100
AcDbLine
 10
168.0754994138917
 20
581.1174394693502
 30
0.0
 11
168.0754994138917
 21
578.1174394693501
 31
0.0
  0
ARC
  5
4D16
330
1E
100
AcDbEntity
  8
STEMPEL
100
AcDbCircle
 10
186.0754994138914
 20
587.1174394693505
 30
0.0
 40
3.000000000000397
100
AcDbArc
 50
270.0000000000081
 51
89.99999999999186
  0
LINE
  5
4D17
330
1E
100
AcDbEntity
  8
STEMPEL
100
AcDbLine
 10
179.4276171633041
 20
616.6174394693496
 30
0.0
 11
179.4276171633041
 21
610.117439469353
 31
0.0
  0
LINE
  5
4D18
330
1E
100
AcDbEntity
  8
STEMPEL
100
AcDbLine
 10
169.0754250191316
 20
616.6174394693496
 30
0.0
 11
169.0754250191316
 21
610.117439469353
 31
0.0
  0
LINE
  5
4D19
330
1E
100
AcDbEntity
  8
STEMPEL
100
AcDbLine
 10
169.8706459059524
 20
616.6174394693496
 30
0.0
 11
169.8706459059524
 21
610.117439469353
 31
0.0
  0
LINE
  5
4D1A
330
1E
100
AcDbEntity
  8
STEMPEL
100
AcDbLine
 10
190.7177228198106
 20
616.6174394693496
 30
0.0
 11
190.7177228198106
 21
610.117439469353
 31
0.0
  0
LINE
  5
4D1B
330
1E
100
AcDbEntity
  8
STEMPEL
100
AcDbLine
 10
191.327917267673
 20
616.6174394693496
 30
0.0
 11
191.327917267673
 21
610.117439469353
 31
0.0
  0
LINE
  5
4D1C
330
1E
100
AcDbEntity
  8
STEMPEL
100
AcDbLine
 10
203.0327688011543
 20
616.6174394693496
 30
0.0
 11
203.0327688011543
 21
610.117439469353
 31
0.0
  0
LINE
  5
4D1D
330
1E
100
AcDbEntity
  8
STEMPEL
100
AcDbLine
 10
216.5073775231482
 20
616.6174394693496
 30
0.0
 11
216.5073775231482
 21
610.117439469353
 31
0.0
  0
LINE
  5
4D1E
330
1E
100
AcDbEntity
  8
STEMPEL
100
AcDbLine
 10
216.8909617888252
 20
616.617439469348
 30
0.0
 11
216.8909617888252
 21
610.117439469353
 31
0.0
  0
LINE
  5
4D1F
330
1E
100
AcDbEntity
  8
STEMPEL
100
AcDbLine
 10
121.5754994138916
 20
604.1174394693514
 30
0.0
 11
370.5754994138917
 21
604.1174394693515
 31
0.0
  0
LWPOLYLINE
  5
4D20
330
1E
100
AcDbEntity
  8
STEMPEL
100
AcDbPolyline
 90
        7
 70
   128
 43
0.0
 10
-287.8611327373649
 20
605.1174394693514
 10
-287.5105675229529
 20
605.7267773711924
 10
-287.2099055440142
 20
606.4542076444816
 10
-286.9672334820796
 20
607.2801651384252
 10
-286.7890783070311
 20
608.1824346888875
 10
-286.6802317260506
 20
609.1367486231307
 10
-286.6436213046358
 20
610.1174394693519
210
0.0
220
0.0
230
-1.0
  0
LWPOLYLINE
  5
4D21
330
1E
100
AcDbEntity
  8
STEMPEL
100
AcDbPolyline
 90
       18
 70
   128
 43
0.0
 10
300.1182300266297
 20
616.6174394693496
 10
300.0002489913486
 20
617.9955608529742
 10
299.650323588159
 20
619.3267519657538
 10
299.0803701069772
 20
620.5656806909307
 10
298.3097976300211
 20
621.6701567967
 10
297.3648470787935
 20
622.6025686739529
 10
296.2776976109735
 20
623.331164154514
 10
295.0853707977952
 20
623.8311317931472
 10
293.8284698988434
 20
624.0854457915641
 10
292.549797166745
 20
624.0854457915641
 10
291.2928962677932
 20
623.8311317931472
 10
290.1005694546149
 20
623.331164154514
 10
289.0134199867949
 20
622.6025686739529
 10
288.0684694355674
 20
621.6701567967
 10
287.2978969586113
 20
620.5656806909307
 10
286.7279434774296
 20
619.3267519657538
 10
286.3780180742399
 20
617.9955608529742
 10
286.2600370389588
 20
616.6174394693496
  0
LWPOLYLINE
  5
4D22
330
1E
100
AcDbEntity
  8
STEMPEL
100
AcDbPolyline
 90
        9
 70
   128
 43
0.0
 10
293.3809256656061
 20
624.1145658923898
 10
292.0567162152763
 20
623.9357329853419
 10
290.7887368180902
 20
623.4854570680179
 10
289.6240181300046
 20
622.7804393358788
 10
288.605760761398
 20
621.846829619495
 10
287.7717329221357
 20
620.7192564605191
 10
287.1528695599418
 20
619.4395427035672
 10
286.7721249514676
 20
618.0551542440318
 10
286.6436213046358
 20
616.6174394693512
  0
LWPOLYLINE
  5
4D23
330
1E
100
AcDbEntity
  8
STEMPEL
100
AcDbPolyline
 90
       10
 70
   128
 43
0.0
 10
-288.9823803661678
 20
604.1174394693514
 10
-288.5096504084142
 20
604.2085929512782
 10
-288.051284111214
 20
604.479283744636
 10
-287.6212087025633
 20
604.9212870466448
 10
-287.232491806125
 20
605.5211728106377
 10
-286.8969443880974
 20
606.2607138112324
 10
-286.6247618869818
 20
607.1174394693517
 10
-286.4242144303437
 20
608.0653186093977
 10
-286.3013955511712
 20
609.0755504033502
 10
-286.2600370389588
 20
610.1174394693519
210
0.0
220
0.0
230
-1.0
  0
LINE
  5
4D24
330
1E
100
AcDbEntity
  8
STEMPEL
100
AcDbLine
 10
166.5754994138919
 20
581.1174394693502
 30
0.0
 11
374.0754994138918
 21
581.1174394693501
 31
0.0
  0
LINE
  5
4D25
330
1E
100
AcDbEntity
  8
STEMPEL
100
AcDbLine
 10
166.5754994138918
 20
584.1174394693502
 30
0.0
 11
376.836563747595
 21
584.11743946935
 31
0.0
  0
LINE
  5
4D26
330
1E
100
AcDbEntity
  8
STEMPEL
100
AcDbLine
 10
361.5754994138921
 20
674.1173815020358
 30
0.0
 11
361.5754994138921
 21
610.1174394693519
 31
0.0
  0
LINE
  5
4D27
330
1E
100
AcDbEntity
  8
STEMPEL
100
AcDbLine
 10
360.575499413892
 20
674.1173815020358
 30
0.0
 11
360.575499413892
 21
610.1174394693519
 31
0.0
  0
ARC
  5
4D28
330
1E
100
AcDbEntity
  8
STEMPEL
100
AcDbCircle
 10
142.0643558095803
 20
683.6372764518132
 30
0.0
 40
5.0
100
AcDbArc
 50
300.0670458384872
 51
300.2564371635316
  0
ARC
  5
4D29
330
1E
100
AcDbEntity
  8
STEMPEL
100
AcDbCircle
 10
147.575499413892
 20
674.1173815020358
 30
0.0
 40
5.0
100
AcDbArc
 50
120.2564164748203
 51
180.0
  0
ARC
  5
4D2A
330
1E
100
AcDbEntity
  8
STEMPEL
100
AcDbCircle
 10
147.575499413892
 20
674.1173815020358
 30
0.0
 40
6.0
100
AcDbArc
 50
120.2564164748203
 51
180.0
  0
LWPOLYLINE
  5
4D2B
330
1E
100
AcDbEntity
  8
STEMPEL
100
AcDbPolyline
 90
        9
 70
   128
 43
0.0
 10
-150.6482723761479
 20
624.0191977140148
 10
-151.1373329194166
 20
623.6927648162573
 10
-151.5969458873176
 20
623.147495803
 10
-152.0128956909418
 20
622.4002555598722
 10
-152.3723172202334
 20
621.4741558370946
 10
-152.6640937551209
 20
620.3978404151244
 10
-152.879200799859
 20
619.2045991674936
 10
-153.0109852059665
 20
617.9313384224176
 10
-153.0553709506314
 20
616.6174394693512
210
0.0
220
0.0
230
-1.0
  0
LWPOLYLINE
  5
4D2C
330
1E
100
AcDbEntity
  8
STEMPEL
100
AcDbPolyline
 90
        7
 70
   128
 43
0.0
 10
-143.2672437398083
 20
623.0794935251894
 10
-143.4050727493786
 20
622.327387288251
 10
-143.5239370263448
 20
621.4046736775363
 10
-143.620285028246
 20
620.338922427632
 10
-143.6912379757842
 20
619.1619770908107
 10
-143.7346758677921
 20
617.9090035844089
 10
-143.7493008246897
 20
616.6174394693496
210
0.0
220
0.0
230
-1.0
  0
LWPOLYLINE
  5
4D2D
330
1E
100
AcDbEntity
  8
STEMPEL
100
AcDbPolyline
 90
       18
 70
   128
 43
0.0
 10
-142.7851866549272
 20
616.6174394693496
 10
-142.8018550784039
 20
617.9955608529742
 10
-142.8512927256644
 20
619.3267519657538
 10
-142.9318160569248
 20
620.5656806909307
 10
-143.0406829467165
 20
621.6701567967
 10
-143.1741860636788
 20
622.6025686739529
 10
-143.3277791192829
 20
623.331164154514
 10
-143.496231686235
 20
623.8311317931472
 10
-143.6738073144039
 20
624.0854457915641
 10
-143.8544588787509
 20
624.0854457915641
 10
-144.0320345069199
 20
623.8311317931472
 10
-144.2004870738719
 20
623.331164154514
 10
-144.354080129476
 20
622.6025686739529
 10
-144.4875832464383
 20
621.6701567967
 10
-144.59645013623
 20
620.5656806909307
 10
-144.6769734674905
 20
619.3267519657538
 10
-144.7264111147509
 20
617.9955608529742
 10
-144.7430795382276
 20
616.6174394693496
210
0.0
220
0.0
230
-1.0
  0
LWPOLYLINE
  5
4D2E
330
1E
100
AcDbEntity
  8
STEMPEL
100
AcDbPolyline
 90
       18
 70
   128
 43
0.0
 10
-148.241173801661
 20
616.6174394693496
 10
-148.2900431465773
 20
617.9955608529742
 10
-148.4349869943974
 20
619.3267519657538
 10
-148.6710694562246
 20
620.5656806909307
 10
-148.9902510269713
 20
621.6701567967
 10
-149.3816623610617
 20
622.6025686739529
 10
-149.8319744149596
 20
623.331164154514
 10
-150.325852351759
 20
623.8311317931472
 10
-150.846477750664
 20
624.0854457915641
 10
-151.3761213381358
 20
624.0854457915641
 10
-151.8967467370407
 20
623.8311317931472
 10
-152.3906246738402
 20
623.331164154514
 10
-152.8409367277381
 20
622.6025686739529
 10
-153.2323480618285
 20
621.6701567967
 10
-153.5515296325752
 20
620.5656806909307
 10
-153.7876120944024
 20
619.3267519657538
 10
-153.9325559422225
 20
617.9955608529742
 10
-153.9814252871388
 20
616.6174394693496
210
0.0
220
0.0
230
-1.0
  0
LWPOLYLINE
  5
4D2F
330
1E
100
AcDbEntity
  8
STEMPEL
100
AcDbPolyline
 90
        7
 70
   128
 43
0.0
 10
150.9017993179628
 20
605.1174394693514
 10
151.5218898410272
 20
605.7267773711924
 10
152.0537099878106
 20
606.4542076444816
 10
152.4829557875419
 20
607.2801651384252
 10
152.7980821353392
 20
608.1824346888875
 10
152.990613312305
 20
609.1367486231307
 10
153.0553709506314
 20
610.1174394693519
  0
LWPOLYLINE
  5
4D30
330
1E
100
AcDbEntity
  8
STEMPEL
100
AcDbPolyline
 90
       10
 70
   128
 43
0.0
 10
143.4258092750871
 20
604.1174394693514
 10
144.2619885499286
 20
604.2085929512782
 10
145.0727609406312
 20
604.479283744636
 10
145.8334915383741
 20
604.9212870466448
 10
146.5210659288929
 20
605.5211728106377
 10
147.1145925122613
 20
606.2607138112324
 10
147.5960372835825
 20
607.1174394693517
 10
147.9507717871029
 20
608.0653186093977
 10
148.168017594437
 20
609.0755504033502
 10
148.241173801661
 20
610.1174394693519
  0
LINE
  5
4D31
330
1E
100
AcDbEntity
  8
STEMPEL
100
AcDbLine
 10
140.1647274712566
 20
605.1174394693514
 30
0.0
 11
141.1288416410192
 21
605.1174394693514
 31
0.0
  0
LWPOLYLINE
  5
4D32
330
1E
100
AcDbEntity
  8
STEMPEL
100
AcDbPolyline
 90
        7
 70
   128
 43
0.0
 10
141.128841641019
 20
605.1174394693519
 10
141.8055435160964
 20
605.7270401972109
 10
142.4050929397303
 20
606.4545992811226
 10
142.91138161288
 20
607.2805691428028
 10
143.3108069049256
 20
608.1827581680059
 10
143.5926373201885
 20
609.1369269361996
 10
143.7493008246899
 20
610.1174394693519
  0
ARC
  5
4D33
330
1E
100
AcDbEntity
  8
STEMPEL
100
AcDbCircle
 10
136.5754994138919
 20
610.1174394693519
 30
0.0
 40
6.0
100
AcDbArc
 50
270.0000000000017
 51
0.0
  0
ARC
  5
4D34
330
1E
100
AcDbEntity
  8
STEMPEL
100
AcDbCircle
 10
136.5754994138919
 20
610.1174394693519
 30
0.0
 40
5.0
100
AcDbArc
 50
270.0000000000017
 51
0.0
  0
LWPOLYLINE
  5
4D35
330
1E
100
AcDbEntity
  8
STEMPEL
100
AcDbPolyline
 90
       10
 70
   128
 43
0.0
 10
137.2791979238964
 20
604.1174394693525
 10
138.1372709201691
 20
604.1835666839252
 10
138.9900831197914
 20
604.4361204336555
 10
139.8108414267084
 20
604.8671661499731
 10
140.5737597931073
 20
605.4631615204129
 10
141.2548693486066
 20
606.2053819521336
 10
141.8327714385523
 20
607.070508848931
 10
142.2893099129585
 20
608.0313622196471
 10
142.6101415445561
 20
609.0577546013593
 10
142.7851866549272
 20
610.1174394693519
  0
LWPOLYLINE
  5
4D36
330
1E
100
AcDbEntity
  8
STEMPEL
100
AcDbPolyline
 90
       10
 70
   128
 43
0.0
 10
139.2370908071968
 20
604.1174394693514
 10
140.0951638034696
 20
604.1835666839241
 10
140.9479760030919
 20
604.4361204336544
 10
141.7687343100089
 20
604.8671661499719
 10
142.5316526764078
 20
605.4631615204118
 10
143.212762231907
 20
606.2053819521325
 10
143.7906643218527
 20
607.0705088489298
 10
144.247202796259
 20
608.0313622196459
 10
144.5680344278565
 20
609.0577546013581
 10
144.7430795382276
 20
610.1174394693507
  0
LWPOLYLINE
  5
4D37
330
1E
100
AcDbEntity
  8
STEMPEL
100
AcDbPolyline
 90
       10
 70
   128
 43
0.0
 10
141.9717570905635
 20
590.1174394693507
 10
142.2555972129392
 20
590.1920749979441
 10
142.5308129968267
 20
590.4137138209551
 10
142.7890421498983
 20
590.7756215549015
 10
143.0224385100081
 20
591.2668018164212
 10
143.2239104468586
 20
591.8723303418172
 10
143.3873363375982
 20
592.5738084532577
 10
143.5077505692344
 20
593.3499220932914
 10
143.5814944162713
 20
594.1770894416986
 10
143.6063272092329
 20
595.0301774371646
  0
LINE
  5
4D38
330
1E
100
AcDbEntity
  8
STEMPEL
100
AcDbLine
 10
143.7649459580242
 20
604.117439469352
 30
0.0
 11
143.6063272092329
 21
595.0301774371659
 31
0.0
  0
LINE
  5
4D39
330
1E
100
AcDbEntity
  8
STEMPEL
100
AcDbLine
 10
146.0876021689925
 20
605.1174394693514
 30
0.0
 11
150.9017993179639
 21
605.1174394693514
 31
0.0
  0
LINE
  5
4D3A
330
1E
100
AcDbEntity
  8
STEMPEL
100
AcDbLine
 10
143.7649459580242
 20
604.117439469352
 30
0.0
 11
155.5754994138917
 21
604.1174394693511
 31
0.0
  0
LWPOLYLINE
  5
4D3B
330
1E
100
AcDbEntity
  8
STEMPEL
100
AcDbPolyline
 90
       10
 70
   128
 43
0.0
 10
149.1660607605648
 20
604.1174394693514
 10
150.0022400354064
 20
604.2085929512782
 10
150.813012426109
 20
604.479283744636
 10
151.5737430238518
 20
604.9212870466448
 10
152.2613174143706
 20
605.5211728106377
 10
152.8548439977391
 20
606.2607138112324
 10
153.3362887690602
 20
607.1174394693517
 10
153.6910232725806
 20
608.0653186093977
 10
153.9082690799148
 20
609.0755504033502
 10
153.9814252871388
 20
610.1174394693519
  0
LINE
  5
4D3C
330
1E
100
AcDbEntity
  8
STEMPEL
100
AcDbLine
 10
155.0754994138917
 20
581.1174394693502
 30
0.0
 11
155.0754994138917
 21
578.1174394693501
 31
0.0
  0
LINE
  5
4D3D
330
1E
100
AcDbEntity
  8
STEMPEL
100
AcDbLine
 10
129.0754994138917
 20
581.1174394693502
 30
0.0
 11
129.0754994138917
 21
578.1174394693501
 31
0.0
  0
LINE
  5
4D3E
330
1E
100
AcDbEntity
  8
STEMPEL
100
AcDbLine
 10
129.0754994138917
 20
581.1174394693502
 30
0.0
 11
156.5754994138918
 21
581.1174394693503
 31
0.0
  0
LINE
  5
4D3F
330
1E
100
AcDbEntity
  8
STEMPEL
100
AcDbLine
 10
139.5754994138916
 20
584.1174394693502
 30
0.0
 11
156.5754994138918
 21
584.1174394693503
 31
0.0
  0
LINE
  5
4D40
330
1E
100
AcDbEntity
  8
MITTEL
100
AcDbLine
 10
154.7863918983616
 20
616.7174394693518
 30
0.0
 11
154.7863918983615
 21
588.1174394693507
 31
0.0
  0
ARC
  5
4D41
330
1E
100
AcDbEntity
  8
STEMPEL
100
AcDbCircle
 10
139.5754994138916
 20
587.1174394693507
 30
0.0
 40
2.999999999999943
100
AcDbArc
 50
89.99999999999836
 51
270.0000000000017
  0
LINE
  5
4D42
330
1E
100
AcDbEntity
  8
STEMPEL
100
AcDbLine
 10
121.5754994138917
 20
605.1174394693516
 30
0.0
 11
121.5754994138916
 21
604.1174394693514
 31
0.0
  0
LINE
  5
4D43
330
1E
100
AcDbEntity
  8
STEMPEL
100
AcDbLine
 10
121.5754994138918
 20
605.1174394693514
 30
0.0
 11
136.5754994138921
 21
605.1174394693519
 31
0.0
  0
LINE
  5
4D44
330
1E
100
AcDbEntity
  8
STEMPEL
100
AcDbLine
 10
144.7430795382276
 20
616.6174394693496
 30
0.0
 11
144.7430795382276
 21
610.1174394693507
 31
0.0
  0
LINE
  5
4D45
330
1E
100
AcDbEntity
  8
STEMPEL
100
AcDbLine
 10
143.7493008246898
 20
616.6174394693496
 30
0.0
 11
143.7493008246898
 21
610.1174394693519
 31
0.0
  0
LINE
  5
4D46
330
1E
100
AcDbEntity
  8
STEMPEL
100
AcDbLine
 10
142.7851866549272
 20
616.6174394693496
 30
0.0
 11
142.7851866549272
 21
610.1174394693519
 31
0.0
  0
LINE
  5
4D47
330
1E
100
AcDbEntity
  8
STEMPEL
100
AcDbLine
 10
148.241173801661
 20
616.6174394693496
 30
0.0
 11
148.241173801661
 21
610.117439469353
 31
0.0
  0
LINE
  5
4D48
330
1E
100
AcDbEntity
  8
STEMPEL
100
AcDbLine
 10
160.7392244708205
 20
616.6174394693496
 30
0.0
 11
160.7392244708205
 21
610.117439469353
 31
0.0
  0
LINE
  5
4D49
330
1E
100
AcDbEntity
  8
STEMPEL
100
AcDbLine
 10
153.0553709506315
 20
616.6174394693496
 30
0.0
 11
153.0553709506315
 21
610.117439469353
 31
0.0
  0
LINE
  5
4D4A
330
1E
100
AcDbEntity
  8
STEMPEL
100
AcDbLine
 10
153.9814252871388
 20
616.6174394693496
 30
0.0
 11
153.9814252871388
 21
610.117439469353
 31
0.0
  0
LINE
  5
4D4B
330
1E
100
AcDbEntity
  8
STEMPEL
100
AcDbLine
 10
142.575499413892
 20
674.1173815020358
 30
0.0
 11
142.575499413892
 21
610.1174394693519
 31
0.0
  0
LINE
  5
4D4C
330
1E
100
AcDbEntity
  8
STEMPEL
100
AcDbLine
 10
141.5754994138918
 20
674.1173815020358
 30
0.0
 11
141.5754994138918
 21
610.1174394693519
 31
0.0
  0
LINE
  5
4D4D
330
1E
100
AcDbEntity
  8
STEMPEL
100
AcDbLine
 10
145.0561458457648
 20
678.4362769162321
 30
0.0
 11
169.034999738716
 21
692.4239300824176
 31
0.0
  0
LINE
  5
4D4E
330
1E
100
AcDbEntity
  8
STEMPEL
100
AcDbLine
 10
144.542804792184
 20
679.2945200293948
 30
0.0
 11
168.5291076676509
 21
693.2865300400833
 31
0.0
  0
LWPOLYLINE
  5
4D4F
330
1E
100
AcDbEntity
  8
STEMPEL
100
AcDbPolyline
 90
       18
 70
   128
 43
0.0
 10
-160.7392244708206
 20
616.6174394693496
 10
-160.8169643720807
 20
617.9955608529742
 10
-161.0475367367626
 20
619.3267519657538
 10
-161.4230896995277
 20
620.5656806909307
 10
-161.9308342546554
 20
621.6701567967
 10
-162.5534797702934
 20
622.6025686739529
 10
-163.2698228001874
 20
623.331164154514
 10
-164.0554691416133
 20
623.8311317931472
 10
-164.8836645506927
 20
624.0854457915641
 10
-165.7262058260804
 20
624.0854457915641
 10
-166.5544012351598
 20
623.8311317931472
 10
-167.3400475765857
 20
623.331164154514
 10
-168.0563906064798
 20
622.6025686739529
 10
-168.6790361221177
 20
621.6701567967
 10
-169.1867806772454
 20
620.5656806909307
 10
-169.5623336400106
 20
619.3267519657538
 10
-169.7929060046924
 20
617.9955608529742
 10
-169.8706459059525
 20
616.6174394693496
210
0.0
220
0.0
230
-1.0
  0
LINE
  5
4D50
330
1E
100
AcDbEntity
  8
HILF
100
AcDbLine
 10
353.9018324714225
 20
677.1174394693542
 30
0.0
 11
148.7491663563611
 21
677.1174394693539
 31
0.0
  0
LWPOLYLINE
  5
4D51
330
1E
100
AcDbEntity
  8
STEMPEL
100
AcDbPolyline
 90
       10
 70
   128
 43
0.0
 10
-164.5097143015656
 20
624.1174394693528
 10
-165.3025416474253
 20
624.0034976169445
 10
-166.071279335571
 20
623.665134125247
 10
-166.7925696603486
 20
623.1126299977359
 10
-167.44449658023
 20
622.3627727927448
 10
-168.0072516256457
 20
621.4383465420014
 10
-168.4637357693086
 20
620.3674394693521
 10
-168.8000789715054
 20
619.1825905442942
 10
-169.0060616142354
 20
617.9198008018536
 10
-169.0754250191315
 20
616.6174394693512
210
0.0
220
0.0
230
-1.0
  0
LINE
  5
4DD9
330
1E
100
AcDbEntity
  8
STEMPEL
100
AcDbLine
 10
166.575499413892
 20
431.1174394693503
 30
0.0
 11
209.775499413889
 21
431.1174394693503
 31
0.0
  0
LINE
  5
4DDA
330
1E
100
AcDbEntity
  8
STEMPEL
100
AcDbLine
 10
374.0754994138919
 20
431.1174394693502
 30
0.0
 11
374.0754994138919
 21
428.1174394693502
 31
0.0
  0
HATCH
  5
4DDB
330
1E
100
AcDbEntity
  8
SCHRAFF
100
AcDbHatch
 10
0.0
 20
0.0
 30
0.0
210
0.0
220
0.0
230
1.0
  2
NET
 70
     0
 71
     0
 91
        5
 92
        7
 72
     0
 73
     1
 93
        5
 10
374.0754994138919
 20
431.1174394693501
 10
348.8949057673737
 20
431.1174394693501
 10
350.9018056811629
 20
428.11743946935
 10
367.8579849926199
 20
428.1174394693501
 10
374.0754994138919
 20
428.1174394693502
 97
        0
 92
        7
 72
     0
 73
     1
 93
        4
 10
348.8949057673734
 20
431.11743946935
 10
322.9754994138919
 20
431.1174394693501
 10
322.9754994138919
 20
428.1174394693502
 10
350.9018056811628
 20
428.1174394693502
 97
        0
 92
        7
 72
     0
 73
     1
 93
        4
 10
322.9754994138918
 20
431.1174394693502
 10
314.0754994138919
 20
431.1174394693502
 10
314.0754994138918
 20
428.1174394693502
 10
322.9754994138919
 20
428.1174394693502
 97
        0
 92
        7
 72
     0
 73
     1
 93
        4
 10
189.0754994138918
 20
431.1174394693502
 10
168.0754994138919
 20
431.1174394693504
 10
168.0754994138919
 20
428.1174394693503
 10
189.0754994138918
 20
428.1174394693504
 97
        0
 92
        7
 72
     0
 73
     1
 93
        4
 10
155.0754994138918
 20
431.1174394693503
 10
129.0754994138918
 20
431.1174394693502
 10
129.0754994138918
 20
428.1174394693502
 10
155.0754994138918
 20
428.1174394693502
 97
        0
 75
     0
 76
     1
 52
45.0
 41
15.0
 77
     0
 78
     2
 53
45.0
 43
3.206010777320045
 44
-49.72384455093436
 45
-1.325825214724776
 46
1.325825214724776
 79
     0
 53
135.0
 43
3.206010777320045
 44
-49.72384455093436
 45
-1.325825214724776
 46
-1.325825214724776
 79
     0
 47
0.3214376106877918
 98
        5
 10
357.0860838086219
 20
429.8038571242311
 10
337.4717360434161
 20
429.8038571242311
 10
321.3944021954504
 20
430.1252941031254
 10
186.3447963035792
 20
429.8038571242311
 10
152.5823954843441
 20
429.8038571242311
  0
LINE
  5
4DDC
330
1E
100
AcDbEntity
  8
STEMPEL
100
AcDbLine
 10
314.0754994138919
 20
431.1174394693502
 30
0.0
 11
314.0754994138919
 21
428.1174394693502
 31
0.0
  0
LINE
  5
4DDD
330
1E
100
AcDbEntity
  8
STEMPEL
100
AcDbLine
 10
317.975499413892
 20
434.1174394693502
 30
0.0
 11
317.9754994138921
 21
431.1174394693507
 31
0.0
  0
LINE
  5
4DDE
330
1E
100
AcDbEntity
  8
HILF
100
AcDbLine
 10
318.9754994138922
 20
434.1174394693503
 30
0.0
 11
318.975499413892
 21
431.1174394693507
 31
0.0
  0
LINE
  5
4DDF
330
1E
100
AcDbEntity
  8
HILF
100
AcDbLine
 10
326.9754994138921
 20
434.1174394693502
 30
0.0
 11
326.9754994138921
 21
431.1174394693507
 31
0.0
  0
LINE
  5
4DE0
330
1E
100
AcDbEntity
  8
STEMPEL
100
AcDbLine
 10
327.975499413892
 20
434.1174394693502
 30
0.0
 11
327.9754994138921
 21
431.1174394693507
 31
0.0
  0
LINE
  5
4DE1
330
1E
100
AcDbEntity
  8
STEMPEL
100
AcDbLine
 10
201.575499413892
 20
434.1174394693502
 30
0.0
 11
201.575499413892
 21
431.1174394693503
 31
0.0
  0
LINE
  5
4DE2
330
1E
100
AcDbEntity
  8
HILF
100
AcDbLine
 10
202.5754994138921
 20
434.1174394693503
 30
0.0
 11
202.575499413892
 21
431.1174394693502
 31
0.0
  0
LINE
  5
4DE4
330
1E
100
AcDbEntity
  8
HILF
100
AcDbLine
 10
210.5754994138919
 20
434.1174394693502
 30
0.0
 11
210.5754994138919
 21
432.5365207287765
 31
0.0
  0
LINE
  5
4DE5
330
1E
100
AcDbEntity
  8
STEMPEL
100
AcDbLine
 10
155.0754994138918
 20
431.1174394693503
 30
0.0
 11
155.0754994138918
 21
428.1174394693502
 31
0.0
  0
LINE
  5
4DE6
330
1E
100
AcDbEntity
  8
STEMPEL
100
AcDbLine
 10
168.0754994138919
 20
431.1174394693503
 30
0.0
 11
168.0754994138919
 21
428.1174394693502
 31
0.0
  0
LINE
  5
4DE7
330
1E
100
AcDbEntity
  8
STEMPEL
100
AcDbLine
 10
189.0754994138918
 20
431.1174394693503
 30
0.0
 11
189.0754994138918
 21
428.1174394693502
 31
0.0
  0
LINE
  5
4DE8
330
1E
100
AcDbEntity
  8
STEMPEL
100
AcDbLine
 10
129.0754994138918
 20
431.1174394693503
 30
0.0
 11
156.5754994138919
 21
431.1174394693504
 31
0.0
  0
LINE
  5
4DE9
330
1E
100
AcDbEntity
  8
STEMPEL
100
AcDbLine
 10
129.0754994138918
 20
431.1174394693503
 30
0.0
 11
129.0754994138918
 21
428.1174394693503
 31
0.0
  0
LINE
  5
4DEA
330
1E
100
AcDbEntity
  8
STEMPEL
100
AcDbLine
 10
293.3754994138902
 20
431.1174394693501
 30
0.0
 11
374.0754994138919
 21
431.1174394693502
 31
0.0
  0
ENDSEC
  0
SECTION
  2
OBJECTS
  0
DICTIONARY
  5
C
330
0
100
AcDbDictionary
281
     1
  3
ACAD_COLOR
350
11A
  3
ACAD_GROUP
350
D
  3
ACAD_LAYOUT
350
19
  3
ACAD_MATERIAL
350
119
  3
ACAD_MLINESTYLE
350
16
  3
ACAD_PLOTSETTINGS
350
18
  3
ACAD_PLOTSTYLENAME
350
E
  3
AcDbVariableDictionary
350
125
  0
DICTIONARY
  5
DB
330
1E
100
AcDbDictionary
280
     1
281
     1
  3
ACAD_LAYOUTSELFREF
360
10F
  0
DICTIONARY
  5
DD
330
1A
100
AcDbDictionary
280
     1
281
     1
  3
ACAD_LAYOUTSELFREF
360
10E
  0
DICTIONARY
  5
11A
102
{ACAD_REACTORS
330
C
102
}
330
C
100
AcDbDictionary
281
     1
  0
DICTIONARY
  5
D
102
{ACAD_REACTORS
330
C
102
}
330
C
100
AcDbDictionary
281
     1
  0
DICTIONARY
  5
19
102
{ACAD_REACTORS
330
C
102
}
330
C
100
AcDbDictionary
281
     1
  3
Layout1
350
1D
  3
Model
350
21
  0
DICTIONARY
  5
119
102
{ACAD_REACTORS
330
C
102
}
330
C
100
AcDbDictionary
281
     1
  0
DICTIONARY
  5
16
102
{ACAD_REACTORS
330
C
102
}
330
C
100
AcDbDictionary
281
     1
  3
Standard
350
17
  0
DICTIONARY
  5
18
102
{ACAD_REACTORS
330
C
102
}
330
C
100
AcDbDictionary
281
     1
  0
ACDBDICTIONARYWDFLT
  5
E
102
{ACAD_REACTORS
330
C
102
}
330
C
100
AcDbDictionary
281
     1
  3
Normal
350
F
100
AcDbDictionaryWithDefault
340
F
  0
DICTIONARY
  5
125
102
{ACAD_REACTORS
330
C
102
}
330
C
100
AcDbDictionary
281
     1
  3
DIMASSOC
350
126
  3
PROJECTNAME
350
127
  0
XRECORD
  5
10F
102
{ACAD_REACTORS
330
DB
102
}
330
DB
100
AcDbXrecord
280
     1
340
1E
  0
XRECORD
  5
10E
102
{ACAD_REACTORS
330
DD
102
}
330
DD
100
AcDbXrecord
280
     1
340
1A
  0
LAYOUT
  5
1D
102
{ACAD_REACTORS
330
19
102
}
330
19
100
AcDbPlotSettings
  1

  2
\\NT_WORK01\HP LaserJet 5000 PCL 6
  4

  6

 40
0.0
 41
0.0
 42
0.0
 43
0.0
 44
0.0
 45
0.0
 46
0.0
 47
0.0
 48
0.0
 49
0.0
140
0.0
141
0.0
142
1.0
143
1.0
 70
   688
 72
     0
 73
     0
 74
     5
  7

 75
    16
147
1.0
 76
     0
 77
     2
 78
   300
148
0.0
149
0.0
100
AcDbLayout
  1
Layout1
 70
     0
 71
     1
 10
0.0
 20
0.0
 11
12.0
 21
9.0
 12
0.0
 22
0.0
 32
0.0
 14
1.000000000000000E+20
 24
1.000000000000000E+20
 34
1.000000000000000E+20
 15
-1.000000000000000E+20
 25
-1.000000000000000E+20
 35
-1.000000000000000E+20
146
0.0
 13
0.0
 23
0.0
 33
0.0
 16
1.0
 26
0.0
 36
0.0
 17
0.0
 27
1.0
 37
0.0
 76
     0
330
1A
  0
LAYOUT
  5
21
102
{ACAD_REACTORS
330
19
102
}
330
19
100
AcDbPlotSettings
  1

  2
\\NT_WORK01\HP LaserJet 5000 PCL 6
  4

  6

 40
0.0
 41
0.0
 42
0.0
 43
0.0
 44
0.0
 45
0.0
 46
0.0
 47
0.0
 48
0.0
 49
0.0
140
0.0
141
0.0
142
1.0
143
1.0
 70
  1712
 72
     0
 73
     0
 74
     0
  7

 75
     0
147
1.0
 76
     0
 77
     2
 78
   300
148
0.0
149
0.0
100
AcDbLayout
  1
Model
 70
     1
 71
     0
 10
0.0
 20
0.0
 11
12.0
 21
9.0
 12
0.0
 22
0.0
 32
0.0
 14
0.0
 24
0.0
 34
0.0
 15
0.0
 25
0.0
 35
0.0
146
0.0
 13
0.0
 23
0.0
 33
0.0
 16
1.0
 26
0.0
 36
0.0
 17
0.0
 27
1.0
 37
0.0
 76
     0
330
1E
  0
MLINESTYLE
  5
17
102
{ACAD_REACTORS
330
16
102
}
330
16
100
AcDbMlineStyle
  2
STANDARD
 70
     0
  3

 62
   256
 51
90.0
 52
90.0
 71
     2
 49
0.5
 62
   256
  6
BYLAYER
 49
-0.5
 62
   256
  6
BYLAYER
  0
ACDBPLACEHOLDER
  5
F
102
{ACAD_REACTORS
330
E
102
}
330
E
  0
DICTIONARYVAR
  5
126
102
{ACAD_REACTORS
330
125
102
}
330
125
100
DictionaryVariables
280
     0
  1
1
  0
DICTIONARYVAR
  5
127
102
{ACAD_REACTORS
330
125
102
}
330
125
100
DictionaryVariables
280
     0
  1

  0
ENDSEC
  0
EOF
