  0
SECTION
  2
HEADER
  9
$ACADVER
  1
AC1018
  9
$ACADMAINTVER
 70
     2
  9
$DWGCODEPAGE
  3
ANSI_1252
  9
$INSBASE
 10
0.0
 20
0.0
 30
0.0
  9
$EXTMIN
 10
-0.0362352423244374
 20
-0.0512417568236288
 30
-0.0000000000000053
  9
$EXTMAX
 10
594.0362670538004
 20
840.051286742748
 30
0.0000000000000099
  9
$LIMMIN
 10
0.0
 20
0.0
  9
$LIMMAX
 10
594.0
 20
840.0
  9
$ORTHOMODE
 70
     1
  9
$REGENMODE
 70
     1
  9
$FILLMODE
 70
     1
  9
$QTEXTMODE
 70
     0
  9
$MIRRTEXT
 70
     1
  9
$LTSCALE
 40
20.0
  9
$ATTMODE
 70
     1
  9
$TEXTSIZE
 40
3.5
  9
$TRACEWID
 40
1.0
  9
$TEXTSTYLE
  7
STANDARD
  9
$CLAYER
  8
VOLL
  9
$CELTYPE
  6
ByLayer
  9
$CECOLOR
 62
   256
  9
$CELTSCALE
 40
1.0
  9
$DISPSILH
 70
     0
  9
$DIMSCALE
 40
2.0
  9
$DIMASZ
 40
3.5
  9
$DIMEXO
 40
1.0
  9
$DIMDLI
 40
7.0
  9
$DIMRND
 40
0.0
  9
$DIMDLE
 40
0.0
  9
$DIMEXE
 40
1.0
  9
$DIMTP
 40
0.0
  9
$DIMTM
 40
0.0
  9
$DIMTXT
 40
3.5
  9
$DIMCEN
 40
1.5
  9
$DIMTSZ
 40
0.0
  9
$DIMTOL
 70
     0
  9
$DIMLIM
 70
     0
  9
$DIMTIH
 70
     0
  9
$DIMTOH
 70
     0
  9
$DIMSE1
 70
     0
  9
$DIMSE2
 70
     0
  9
$DIMTAD
 70
     1
  9
$DIMZIN
 70
     8
  9
$DIMBLK
  1

  9
$DIMASO
 70
     1
  9
$DIMSHO
 70
     0
  9
$DIMPOST
  1

  9
$DIMAPOST
  1

  9
$DIMALT
 70
     0
  9
$DIMALTD
 70
     2
  9
$DIMALTF
 40
25.4
  9
$DIMLFAC
 40
1.0
  9
$DIMTOFL
 70
     1
  9
$DIMTVP
 40
0.0
  9
$DIMTIX
 70
     0
  9
$DIMSOXD
 70
     0
  9
$DIMSAH
 70
     0
  9
$DIMBLK1
  1

  9
$DIMBLK2
  1

  9
$DIMSTYLE
  2
Standard
  9
$DIMCLRD
 70
     0
  9
$DIMCLRE
 70
     0
  9
$DIMCLRT
 70
     1
  9
$DIMTFAC
 40
0.5142857142857144
  9
$DIMGAP
 40
1.5
  9
$DIMJUST
 70
     0
  9
$DIMSD1
 70
     0
  9
$DIMSD2
 70
     0
  9
$DIMTOLJ
 70
     1
  9
$DIMTZIN
 70
     8
  9
$DIMALTZ
 70
     8
  9
$DIMALTTZ
 70
     8
  9
$DIMUPT
 70
     0
  9
$DIMDEC
 70
     2
  9
$DIMTDEC
 70
     2
  9
$DIMALTU
 70
     2
  9
$DIMALTTD
 70
     2
  9
$DIMTXSTY
  7
STANDARD
  9
$DIMAUNIT
 70
     0
  9
$DIMADEC
 70
     2
  9
$DIMALTRND
 40
0.0
  9
$DIMAZIN
 70
     2
  9
$DIMDSEP
 70
    46
  9
$DIMATFIT
 70
     3
  9
$DIMFRAC
 70
     0
  9
$DIMLDRBLK
  1

  9
$DIMLUNIT
 70
     2
  9
$DIMLWD
 70
    -2
  9
$DIMLWE
 70
    -2
  9
$DIMTMOVE
 70
     0
  9
$LUNITS
 70
     2
  9
$LUPREC
 70
     2
  9
$SKETCHINC
 40
1.0
  9
$FILLETRAD
 40
0.0
  9
$AUNITS
 70
     0
  9
$AUPREC
 70
     0
  9
$MENU
  1
ACAD
  9
$ELEVATION
 40
0.0
  9
$PELEVATION
 40
0.0
  9
$THICKNESS
 40
0.0
  9
$LIMCHECK
 70
     0
  9
$CHAMFERA
 40
0.0
  9
$CHAMFERB
 40
0.0
  9
$CHAMFERC
 40
0.0
  9
$CHAMFERD
 40
0.0
  9
$SKPOLY
 70
     0
  9
$TDCREATE
 40
2455397.825393172
  9
$TDUCREATE
 40
2455397.783726505
  9
$TDUPDATE
 40
2455583.465460556
  9
$TDUUPDATE
 40
2455583.423793889
  9
$TDINDWG
 40
0.1117905324
  9
$TDUSRTIMER
 40
0.1117905324
  9
$USRTIMER
 70
     1
  9
$ANGBASE
 50
0.0
  9
$ANGDIR
 70
     0
  9
$PDMODE
 70
     0
  9
$PDSIZE
 40
0.0
  9
$PLINEWID
 40
0.0
  9
$SPLFRAME
 70
     0
  9
$SPLINETYPE
 70
     6
  9
$SPLINESEGS
 70
     8
  9
$HANDSEED
  5
111F
  9
$SURFTAB1
 70
     6
  9
$SURFTAB2
 70
     6
  9
$SURFTYPE
 70
     6
  9
$SURFU
 70
     6
  9
$SURFV
 70
     6
  9
$UCSBASE
  2

  9
$UCSNAME
  2

  9
$UCSORG
 10
0.0
 20
0.0
 30
0.0
  9
$UCSXDIR
 10
1.0
 20
0.0
 30
0.0
  9
$UCSYDIR
 10
0.0
 20
1.0
 30
0.0
  9
$UCSORTHOREF
  2

  9
$UCSORTHOVIEW
 70
     0
  9
$UCSORGTOP
 10
0.0
 20
0.0
 30
0.0
  9
$UCSORGBOTTOM
 10
0.0
 20
0.0
 30
0.0
  9
$UCSORGLEFT
 10
0.0
 20
0.0
 30
0.0
  9
$UCSORGRIGHT
 10
0.0
 20
0.0
 30
0.0
  9
$UCSORGFRONT
 10
0.0
 20
0.0
 30
0.0
  9
$UCSORGBACK
 10
0.0
 20
0.0
 30
0.0
  9
$PUCSBASE
  2

  9
$PUCSNAME
  2

  9
$PUCSORG
 10
0.0
 20
0.0
 30
0.0
  9
$PUCSXDIR
 10
1.0
 20
0.0
 30
0.0
  9
$PUCSYDIR
 10
0.0
 20
1.0
 30
0.0
  9
$PUCSORTHOREF
  2

  9
$PUCSORTHOVIEW
 70
     0
  9
$PUCSORGTOP
 10
0.0
 20
0.0
 30
0.0
  9
$PUCSORGBOTTOM
 10
0.0
 20
0.0
 30
0.0
  9
$PUCSORGLEFT
 10
0.0
 20
0.0
 30
0.0
  9
$PUCSORGRIGHT
 10
0.0
 20
0.0
 30
0.0
  9
$PUCSORGFRONT
 10
0.0
 20
0.0
 30
0.0
  9
$PUCSORGBACK
 10
0.0
 20
0.0
 30
0.0
  9
$USERI1
 70
     0
  9
$USERI2
 70
     0
  9
$USERI3
 70
     0
  9
$USERI4
 70
     0
  9
$USERI5
 70
     0
  9
$USERR1
 40
0.0
  9
$USERR2
 40
0.0
  9
$USERR3
 40
0.0
  9
$USERR4
 40
0.0
  9
$USERR5
 40
0.0
  9
$WORLDVIEW
 70
     1
  9
$SHADEDGE
 70
     3
  9
$SHADEDIF
 70
    70
  9
$TILEMODE
 70
     1
  9
$MAXACTVP
 70
    16
  9
$PINSBASE
 10
0.0
 20
0.0
 30
0.0
  9
$PLIMCHECK
 70
     0
  9
$PEXTMIN
 10
1.000000000000000E+20
 20
1.000000000000000E+20
 30
1.000000000000000E+20
  9
$PEXTMAX
 10
-1.000000000000000E+20
 20
-1.000000000000000E+20
 30
-1.000000000000000E+20
  9
$PLIMMIN
 10
0.0
 20
0.0
  9
$PLIMMAX
 10
12.0
 20
9.0
  9
$UNITMODE
 70
     0
  9
$VISRETAIN
 70
     0
  9
$PLINEGEN
 70
     0
  9
$PSLTSCALE
 70
     0
  9
$TREEDEPTH
 70
  3020
  9
$CMLSTYLE
  2
Standard
  9
$CMLJUST
 70
     0
  9
$CMLSCALE
 40
1.0
  9
$PROXYGRAPHICS
 70
     1
  9
$MEASUREMENT
 70
     0
  9
$CELWEIGHT
370
    -1
  9
$ENDCAPS
280
     0
  9
$JOINSTYLE
280
     0
  9
$LWDISPLAY
290
     0
  9
$INSUNITS
 70
     0
  9
$HYPERLINKBASE
  1

  9
$STYLESHEET
  1
monochrome 1.ctb
  9
$XEDIT
290
     1
  9
$CEPSNTYPE
380
     0
  9
$PSTYLEMODE
290
     1
  9
$FINGERPRINTGUID
  2
{D68B0D0D-A558-11D7-B632-000102183313}
  9
$VERSIONGUID
  2
{0FB87209-7E11-40B9-84DF-5CD004BD8F79}
  9
$EXTNAMES
290
     1
  9
$PSVPSCALE
 40
0.0
  9
$OLESTARTUP
290
     0
  9
$SORTENTS
280
   127
  9
$INDEXCTL
280
     0
  9
$HIDETEXT
280
     0
  9
$XCLIPFRAME
290
     0
  9
$HALOGAP
280
     0
  9
$OBSCOLOR
 70
   257
  9
$OBSLTYPE
280
     0
  9
$INTERSECTIONDISPLAY
280
     0
  9
$INTERSECTIONCOLOR
 70
   257
  9
$DIMASSOC
280
     1
  9
$PROJECTNAME
  1

  0
ENDSEC
  0
SECTION
  2
CLASSES
  0
CLASS
  1
ACDBDICTIONARYWDFLT
  2
AcDbDictionaryWithDefault
  3
ObjectDBX Classes
 90
        0
 91
        1
280
     0
281
     0
  0
CLASS
  1
DICTIONARYVAR
  2
AcDbDictionaryVar
  3
ObjectDBX Classes
 90
        0
 91
        2
280
     0
281
     0
  0
ENDSEC
  0
SECTION
  2
TABLES
  0
TABLE
  2
VPORT
  5
8
330
0
100
AcDbSymbolTable
 70
     3
  0
VPORT
  5
111E
330
8
100
AcDbSymbolTableRecord
100
AcDbViewportTableRecord
  2
*Active
 70
     0
 10
0.0
 20
0.0
 11
1.0
 21
1.0
 12
296.9999999999999
 22
420.0
 13
0.0
 23
0.0
 14
1.0
 24
1.0
 15
10.0
 25
10.0
 16
0.0
 26
0.0
 36
1.0
 17
0.0
 27
0.0
 37
0.0
 40
840.2039941677626
 41
1.336927223719676
 42
50.0
 43
0.0
 44
0.0
 50
0.0
 51
0.0
 71
     0
 72
  1500
 73
     1
 74
     0
 75
     0
 76
     0
 77
     0
 78
     0
281
     0
 65
     1
110
0.0
120
0.0
130
0.0
111
1.0
121
0.0
131
0.0
112
0.0
122
1.0
132
0.0
 79
     0
146
0.0
  0
ENDTAB
  0
TABLE
  2
LTYPE
  5
5
330
0
100
AcDbSymbolTable
 70
     3
  0
LTYPE
  5
13
330
5
100
AcDbSymbolTableRecord
100
AcDbLinetypeTableRecord
  2
ByBlock
 70
     0
  3

 72
    65
 73
     0
 40
0.0
  0
LTYPE
  5
14
330
5
100
AcDbSymbolTableRecord
100
AcDbLinetypeTableRecord
  2
ByLayer
 70
     0
  3

 72
    65
 73
     0
 40
0.0
  0
LTYPE
  5
15
330
5
100
AcDbSymbolTableRecord
100
AcDbLinetypeTableRecord
  2
Continuous
 70
     0
  3
Solid line
 72
    65
 73
     0
 40
0.0
  0
LTYPE
  5
25
330
5
100
AcDbSymbolTableRecord
100
AcDbLinetypeTableRecord
  2
STRICHPUNKT
 70
     0
  3
__ . __ . __ . __ . __ . __ . __ . __ . __ . __
 72
    65
 73
     4
 40
1.0
 49
0.5
 74
     0
 49
-0.25
 74
     0
 49
0.0
 74
     0
 49
-0.25
 74
     0
  0
LTYPE
  5
34
330
5
100
AcDbSymbolTableRecord
100
AcDbLinetypeTableRecord
  2
AUSGEZOGEN
 70
     0
  3
Ausgezogene Linie
 72
    65
 73
     0
 40
0.0
  0
ENDTAB
  0
TABLE
  2
LAYER
  5
2
330
0
100
AcDbSymbolTable
 70
     9
  0
LAYER
  5
10
330
2
100
AcDbSymbolTableRecord
100
AcDbLayerTableRecord
  2
0
 70
     0
 62
     7
  6
Continuous
370
    -3
390
F
  0
LAYER
  5
2B
330
2
100
AcDbSymbolTableRecord
100
AcDbLayerTableRecord
  2
VOLL
 70
     0
 62
     1
  6
Continuous
370
    -3
390
F
  0
LAYER
  5
2C
330
2
100
AcDbSymbolTableRecord
100
AcDbLayerTableRecord
  2
HILF
 70
     0
 62
     2
  6
Continuous
370
    -3
390
F
  0
LAYER
  5
2D
330
2
100
AcDbSymbolTableRecord
100
AcDbLayerTableRecord
  2
MITTEL
 70
     0
 62
     2
  6
STRICHPUNKT
370
    -3
390
F
  0
LAYER
  5
2F
330
2
100
AcDbSymbolTableRecord
100
AcDbLayerTableRecord
  2
BEM
 70
     0
 62
     7
  6
Continuous
370
    -3
390
F
  0
LAYER
  5
30
330
2
100
AcDbSymbolTableRecord
100
AcDbLayerTableRecord
  2
STEMPEL
 70
     0
 62
     3
  6
Continuous
370
    -3
390
F
  0
LAYER
  5
33
330
2
100
AcDbSymbolTableRecord
100
AcDbLayerTableRecord
  2
TEXT
 70
     0
 62
     7
  6
Continuous
370
    -3
390
F
  0
LAYER
  5
1DD
330
2
100
AcDbSymbolTableRecord
100
AcDbLayerTableRecord
  2
DEFPOINTS
 70
     0
 62
     7
  6
AUSGEZOGEN
290
     0
370
    -3
390
F
  0
LAYER
  5
1DE
330
2
100
AcDbSymbolTableRecord
100
AcDbLayerTableRecord
  2
SCHRAFF
 70
     0
 62
     7
  6
AUSGEZOGEN
370
    -3
390
F
  0
ENDTAB
  0
TABLE
  2
STYLE
  5
3
330
0
100
AcDbSymbolTable
 70
     2
  0
STYLE
  5
11
330
3
100
AcDbSymbolTableRecord
100
AcDbTextStyleTableRecord
  2
STANDARD
 70
     0
 40
0.0
 41
0.8
 50
0.0
 71
     0
 42
3.5
  3
simplex.shx
  4

  0
STYLE
  5
24
330
3
100
AcDbSymbolTableRecord
100
AcDbTextStyleTableRecord
  2
GREEKS
 70
     0
 40
0.0
 41
0.8
 50
0.0
 71
     0
 42
2.5
  3
SIMPLEX.shx
  4

  0
ENDTAB
  0
TABLE
  2
VIEW
  5
6
330
0
100
AcDbSymbolTable
 70
     0
  0
ENDTAB
  0
TABLE
  2
UCS
  5
7
330
0
100
AcDbSymbolTable
 70
     0
  0
ENDTAB
  0
TABLE
  2
APPID
  5
9
330
0
100
AcDbSymbolTable
 70
     4
  0
APPID
  5
12
330
9
100
AcDbSymbolTableRecord
100
AcDbRegAppTableRecord
  2
ACAD
 70
     0
  0
APPID
  5
F53
330
9
100
AcDbSymbolTableRecord
100
AcDbRegAppTableRecord
  2
GENIUS_GENODEF_13
 70
     0
  0
APPID
  5
F54
330
9
100
AcDbSymbolTableRecord
100
AcDbRegAppTableRecord
  2
GENIUS_GENOBJ-N-HTC_13
 70
     0
  0
APPID
  5
F55
330
9
100
AcDbSymbolTableRecord
100
AcDbRegAppTableRecord
  2
GENIUS_GENHATCH_13
 70
     0
  0
ENDTAB
  0
TABLE
  2
DIMSTYLE
  5
A
330
0
100
AcDbSymbolTable
 70
     1
100
AcDbDimStyleTable
 71
     1
340
A2
  0
DIMSTYLE
105
A2
102
{ACAD_REACTORS
330
8EB
330
8DC
330
B20
330
B3F
330
DF9
330
FC1
330
FC0
102
}
330
A
100
AcDbSymbolTableRecord
100
AcDbDimStyleTableRecord
  2
Standard
 70
     0
340
11
  0
ENDTAB
  0
TABLE
  2
BLOCK_RECORD
  5
1
330
0
100
AcDbSymbolTable
 70
     9
  0
BLOCK_RECORD
  5
1E
102
{ACAD_XDICTIONARY
360
DB
102
}
330
1
100
AcDbSymbolTableRecord
100
AcDbBlockTableRecord
  2
*Model_Space
340
21
  0
BLOCK_RECORD
  5
1A
102
{ACAD_XDICTIONARY
360
DD
102
}
330
1
100
AcDbSymbolTableRecord
100
AcDbBlockTableRecord
  2
*Paper_Space
340
1D
  0
BLOCK_RECORD
  5
22
330
1
100
AcDbSymbolTableRecord
100
AcDbBlockTableRecord
  2
LOGO
340
0
102
{BLKREFS
331
56
102
}
  0
BLOCK_RECORD
  5
23
330
1
100
AcDbSymbolTableRecord
100
AcDbBlockTableRecord
  2
LORO
340
0
102
{BLKREFS
331
9B
102
}
  0
BLOCK_RECORD
  5
ABC
330
1
100
AcDbSymbolTableRecord
100
AcDbBlockTableRecord
  2
*D2
340
0
  0
BLOCK_RECORD
  5
AC8
330
1
100
AcDbSymbolTableRecord
100
AcDbBlockTableRecord
  2
*D3
340
0
  0
BLOCK_RECORD
  5
B21
330
1
100
AcDbSymbolTableRecord
100
AcDbBlockTableRecord
  2
*D4
340
0
  0
BLOCK_RECORD
  5
B40
330
1
100
AcDbSymbolTableRecord
100
AcDbBlockTableRecord
  2
*D5
340
0
  0
BLOCK_RECORD
  5
E01
330
1
100
AcDbSymbolTableRecord
100
AcDbBlockTableRecord
  2
*D6
340
0
  0
BLOCK_RECORD
  5
1025
330
1
100
AcDbSymbolTableRecord
100
AcDbBlockTableRecord
  2
*D7
340
0
  0
BLOCK_RECORD
  5
1031
330
1
100
AcDbSymbolTableRecord
100
AcDbBlockTableRecord
  2
*D8
340
0
  0
ENDTAB
  0
ENDSEC
  0
SECTION
  2
BLOCKS
  0
BLOCK
  5
37
330
1E
100
AcDbEntity
  8
0
100
AcDbBlockBegin
  2
*Model_Space
 70
     0
 10
0.0
 20
0.0
 30
0.0
  3
*Model_Space
  1

  0
ENDBLK
  5
38
330
1E
100
AcDbEntity
  8
0
100
AcDbBlockEnd
  0
BLOCK
  5
35
330
1A
100
AcDbEntity
 67
     1
  8
0
100
AcDbBlockBegin
  2
*Paper_Space
 70
     0
 10
0.0
 20
0.0
 30
0.0
  3
*Paper_Space
  1

  0
ENDBLK
  5
36
330
1A
100
AcDbEntity
 67
     1
  8
0
100
AcDbBlockEnd
  0
BLOCK
  5
39
330
22
100
AcDbEntity
  8
0
100
AcDbBlockBegin
  2
LOGO
 70
     0
 10
0.0
 20
0.0
 30
0.0
  3
LOGO
  1

  0
ARC
  5
3A
330
22
100
AcDbEntity
  8
0
100
AcDbCircle
 10
11.59973089678112
 20
-9.271599258481501
 30
0.0
 40
4.5
100
AcDbArc
 50
270.0
 51
231.0575587310159
  0
LINE
  5
3B
330
22
100
AcDbEntity
  8
0
100
AcDbLine
 10
3.599730896781125
 20
-4.771599258481529
 30
0.0
 11
3.599730896781153
 21
-11.77159925848133
 31
0.0
  0
LINE
  5
3C
330
22
100
AcDbEntity
  8
0
100
AcDbLine
 10
2.599730896781125
 20
-4.771599258481529
 30
0.0
 11
2.599730896781153
 21
-11.77159925848133
 31
0.0
  0
CIRCLE
  5
3D
330
22
100
AcDbEntity
  8
0
100
AcDbCircle
 10
11.59973089678112
 20
-9.271599258481501
 30
0.0
 40
3.5
  0
ARC
  5
3E
330
22
100
AcDbEntity
  8
0
100
AcDbCircle
 10
31.59973089678115
 20
-9.271599258481472
 30
0.0
 40
4.5
100
AcDbArc
 50
270.0
 51
231.0575587310182
  0
LINE
  5
3F
330
22
100
AcDbEntity
  8
0
100
AcDbLine
 10
17.59973089678112
 20
-4.771599258481472
 30
0.0
 11
17.59973089678115
 21
-13.77159925848147
 31
0.0
  0
ARC
  5
40
330
22
100
AcDbEntity
  8
0
100
AcDbCircle
 10
22.59973089678116
 20
-7.271599258481472
 30
0.0
 40
2.5
100
AcDbArc
 50
293.1161887722295
 51
90.0
  0
CIRCLE
  5
41
330
22
100
AcDbEntity
  8
0
100
AcDbCircle
 10
31.59973089678115
 20
-9.271599258481472
 30
0.0
 40
3.5
  0
ARC
  5
42
330
22
100
AcDbEntity
  8
0
100
AcDbCircle
 10
4.599730896781153
 20
-11.77159925848133
 30
0.0
 40
1.0
100
AcDbArc
 50
180.0
 51
270.0
  0
ARC
  5
43
330
22
100
AcDbEntity
  8
0
100
AcDbCircle
 10
4.599730896781153
 20
-11.77159925848133
 30
0.0
 40
2.0
100
AcDbArc
 50
179.9999999999992
 51
270.0
  0
LINE
  5
44
330
22
100
AcDbEntity
  8
0
100
AcDbLine
 10
11.59973089678115
 20
-13.77159925848144
 30
0.0
 11
4.599730896781153
 21
-13.77159925848147
 31
0.0
  0
LINE
  5
45
330
22
100
AcDbEntity
  8
0
100
AcDbLine
 10
8.771303772034769
 20
-12.77159925848136
 30
0.0
 11
4.599730896781153
 21
-12.77159925848133
 31
0.0
  0
LINE
  5
46
330
22
100
AcDbEntity
  8
0
100
AcDbLine
 10
31.59973089678115
 20
-13.77159925848147
 30
0.0
 11
23.6715276665056
 21
-13.77159925848144
 31
0.0
  0
LINE
  5
47
330
22
100
AcDbEntity
  8
0
100
AcDbLine
 10
23.56565672307022
 20
-9.51278021337896
 30
0.0
 11
24.4388546544846
 21
-12.77159925848144
 31
0.0
  0
LINE
  5
48
330
22
100
AcDbEntity
  8
0
100
AcDbLine
 10
22.59973089678116
 20
-9.771599258481472
 30
0.0
 11
18.59973089678112
 21
-9.771599258481472
 31
0.0
  0
LINE
  5
49
330
22
100
AcDbEntity
  8
0
100
AcDbLine
 10
18.59973089678115
 20
-13.77159925848144
 30
0.0
 11
17.59973089678115
 21
-13.77159925848144
 31
0.0
  0
LINE
  5
4A
330
22
100
AcDbEntity
  8
0
100
AcDbLine
 10
18.59973089678115
 20
-9.771599258481472
 30
0.0
 11
18.59973089678115
 21
-13.77159925848144
 31
0.0
  0
LINE
  5
4B
330
22
100
AcDbEntity
  8
0
100
AcDbLine
 10
22.59973089678116
 20
-9.771599258481472
 30
0.0
 11
23.67152766650562
 21
-13.77159925848147
 31
0.0
  0
ARC
  5
4C
330
22
100
AcDbEntity
  8
0
100
AcDbCircle
 10
22.59973089678116
 20
-7.271599258481472
 30
0.0
 40
2.5
100
AcDbArc
 50
270.0
 51
270.0000000000007
  0
LINE
  5
4D
330
22
100
AcDbEntity
  8
0
100
AcDbLine
 10
28.77130377203494
 20
-12.77159925848147
 30
0.0
 11
24.43885465448463
 21
-12.77159925848144
 31
0.0
  0
LINE
  5
4E
330
22
100
AcDbEntity
  8
0
100
AcDbLine
 10
3.599730896781125
 20
-4.771599258481472
 30
0.0
 11
2.599730896781125
 21
-4.771599258481472
 31
0.0
  0
LINE
  5
4F
330
22
100
AcDbEntity
  8
0
100
AcDbLine
 10
22.59973089678116
 20
-8.771599258481472
 30
0.0
 11
18.59973089678115
 21
-8.771599258481472
 31
0.0
  0
LINE
  5
50
330
22
100
AcDbEntity
  8
0
100
AcDbLine
 10
22.59973089678116
 20
-5.771599258481472
 30
0.0
 11
18.59973089678115
 21
-5.771599258481472
 31
0.0
  0
LINE
  5
51
330
22
100
AcDbEntity
  8
0
100
AcDbLine
 10
22.59973089678116
 20
-4.771599258481472
 30
0.0
 11
17.59973089678115
 21
-4.771599258481472
 31
0.0
  0
LINE
  5
52
330
22
100
AcDbEntity
  8
0
100
AcDbLine
 10
18.59973089678115
 20
-5.771599258481472
 30
0.0
 11
18.59973089678115
 21
-8.771599258481472
 31
0.0
  0
ARC
  5
53
330
22
100
AcDbEntity
  8
0
100
AcDbCircle
 10
22.59973089678116
 20
-7.271599258481472
 30
0.0
 40
1.5
100
AcDbArc
 50
270.0
 51
90.0
  0
ENDBLK
  5
54
330
22
100
AcDbEntity
  8
0
100
AcDbBlockEnd
  0
BLOCK
  5
55
330
23
100
AcDbEntity
  8
0
100
AcDbBlockBegin
  2
LORO
 70
     0
 10
0.0
 20
0.0
 30
0.0
  3
LORO
  1

  0
INSERT
  5
56
330
23
100
AcDbEntity
  8
STEMPEL
100
AcDbBlockReference
  2
LOGO
 10
-1.748032802467321
 20
3.771489518552062
 30
0.0
  0
ENDBLK
  5
57
330
23
100
AcDbEntity
  8
0
100
AcDbBlockEnd
  0
BLOCK
  5
AC6
330
ABC
100
AcDbEntity
  8
0
100
AcDbBlockBegin
  2
*D2
 70
     1
 10
0.0
 20
0.0
 30
0.0
  3
*D2
  1

  0
LINE
  5
E16
330
ABC
100
AcDbEntity
  8
BEM
 62
     0
370
    -2
100
AcDbLine
 10
52.10203275701508
 20
557.7048441312268
 30
0.0
 11
34.30566481675868
 21
557.7048441312268
 31
0.0
  0
LINE
  5
E17
330
ABC
100
AcDbEntity
  8
BEM
 62
     0
370
    -2
100
AcDbLine
 10
147.8019420652225
 20
157.7048441312268
 30
0.0
 11
34.3056648167586
 21
157.7048441312269
 31
0.0
  0
LINE
  5
E18
330
ABC
100
AcDbEntity
  8
BEM
 62
     0
370
    -2
100
AcDbLine
 10
36.30566481675868
 20
550.7048441312268
 30
0.0
 11
36.3056648167586
 21
164.7048441312269
 31
0.0
  0
SOLID
  5
E19
330
ABC
100
AcDbEntity
  8
BEM
 62
     0
100
AcDbTrace
 10
35.13899815009202
 20
550.7048441312268
 30
0.0
 11
37.47233148342534
 21
550.7048441312268
 31
0.0
 12
36.30566481675868
 22
557.7048441312268
 32
0.0
 13
36.30566481675868
 23
557.7048441312268
 33
0.0
  0
SOLID
  5
E1A
330
ABC
100
AcDbEntity
  8
BEM
 62
     0
100
AcDbTrace
 10
35.13899815009193
 20
164.7048441312269
 30
0.0
 11
37.47233148342526
 21
164.7048441312269
 31
0.0
 12
36.3056648167586
 22
157.7048441312269
 32
0.0
 13
36.3056648167586
 23
157.7048441312269
 33
0.0
  0
MTEXT
  5
E1B
330
ABC
100
AcDbEntity
  8
BEM
 62
     1
100
AcDbMText
 10
29.80566481675858
 20
357.7048441312269
 30
0.0
 40
7.0
 41
0.0
 71
     5
 72
     1
  1
\A1;400
 11
0.0000000000000001
 21
1.0
 31
0.0
 73
     1
 44
1.0
  0
POINT
  5
E1C
330
ABC
100
AcDbEntity
  8
DEFPOINTS
 62
     0
100
AcDbPoint
 10
54.10203275701508
 20
557.7048441312268
 30
0.0
  0
POINT
  5
E1D
330
ABC
100
AcDbEntity
  8
DEFPOINTS
 62
     0
100
AcDbPoint
 10
149.8019420652225
 20
157.7048441312268
 30
0.0
  0
POINT
  5
E1E
330
ABC
100
AcDbEntity
  8
DEFPOINTS
 62
     0
100
AcDbPoint
 10
36.3056648167586
 20
157.7048441312269
 30
0.0
  0
ENDBLK
  5
AC7
330
ABC
100
AcDbEntity
  8
0
100
AcDbBlockEnd
  0
BLOCK
  5
AD3
330
AC8
100
AcDbEntity
  8
0
100
AcDbBlockBegin
  2
*D3
 70
     1
 10
0.0
 20
0.0
 30
0.0
  3
*D3
  1

  0
LINE
  5
DC1
330
AC8
100
AcDbEntity
  8
BEM
 62
     0
370
    -2
100
AcDbLine
 10
52.10203275701508
 20
563.7048441312259
 30
0.0
 11
34.3056648167586
 21
563.7048441312259
 31
0.0
  0
LINE
  5
DC2
330
AC8
100
AcDbEntity
  8
BEM
 62
     0
370
    -2
100
AcDbLine
 10
122.102032757015
 20
673.7048441312252
 30
0.0
 11
34.30566481675862
 21
673.7048441312252
 31
0.0
  0
LINE
  5
DC3
330
AC8
100
AcDbEntity
  8
BEM
 62
     0
370
    -2
100
AcDbLine
 10
36.3056648167586
 20
570.7048441312259
 30
0.0
 11
36.30566481675862
 21
666.7048441312251
 31
0.0
  0
SOLID
  5
DC4
330
AC8
100
AcDbEntity
  8
BEM
 62
     0
100
AcDbTrace
 10
35.13899815009194
 20
570.7048441312259
 30
0.0
 11
37.47233148342527
 21
570.7048441312259
 31
0.0
 12
36.3056648167586
 22
563.7048441312259
 32
0.0
 13
36.3056648167586
 23
563.7048441312259
 33
0.0
  0
SOLID
  5
DC5
330
AC8
100
AcDbEntity
  8
BEM
 62
     0
100
AcDbTrace
 10
35.13899815009196
 20
666.7048441312251
 30
0.0
 11
37.47233148342529
 21
666.7048441312251
 31
0.0
 12
36.30566481675862
 22
673.7048441312252
 32
0.0
 13
36.30566481675862
 23
673.7048441312252
 33
0.0
  0
MTEXT
  5
DC6
330
AC8
100
AcDbEntity
  8
BEM
 62
     1
100
AcDbMText
 10
29.80566481675851
 20
618.7048441312256
 30
0.0
 40
7.0
 41
0.0
 71
     5
 72
     1
  1
\A1;110
 11
0.0000000000000001
 21
1.0
 31
0.0
 73
     1
 44
1.0
  0
POINT
  5
DC7
330
AC8
100
AcDbEntity
  8
DEFPOINTS
 62
     0
100
AcDbPoint
 10
54.10203275701508
 20
563.7048441312259
 30
0.0
  0
POINT
  5
DC8
330
AC8
100
AcDbEntity
  8
DEFPOINTS
 62
     0
100
AcDbPoint
 10
124.1020327570151
 20
673.7048441312252
 30
0.0
  0
POINT
  5
DC9
330
AC8
100
AcDbEntity
  8
DEFPOINTS
 62
     0
100
AcDbPoint
 10
36.30566481675862
 20
673.7048441312252
 30
0.0
  0
ENDBLK
  5
AD4
330
AC8
100
AcDbEntity
  8
0
100
AcDbBlockEnd
  0
BLOCK
  5
B2B
330
B21
100
AcDbEntity
  8
0
100
AcDbBlockBegin
  2
*D4
 70
     1
 10
0.0
 20
0.0
 30
0.0
  3
*D4
  1

  0
LINE
  5
DAF
330
B21
100
AcDbEntity
  8
BEM
 62
     0
370
    -2
100
AcDbLine
 10
54.10913953820167
 20
554.826164474787
 30
0.0
 11
54.10913953820168
 21
698.7396350392033
 31
0.0
  0
LINE
  5
DB0
330
B21
100
AcDbEntity
  8
BEM
 62
     0
370
    -2
100
AcDbLine
 10
354.1080041821294
 20
554.8130862684859
 30
0.0
 11
354.1080041821294
 21
698.7396350392033
 31
0.0
  0
LINE
  5
DB1
330
B21
100
AcDbEntity
  8
BEM
 62
     0
370
    -2
100
AcDbLine
 10
61.10913953820168
 20
696.7396350392033
 30
0.0
 11
347.1080041821295
 21
696.7396350392033
 31
0.0
  0
SOLID
  5
DB2
330
B21
100
AcDbEntity
  8
BEM
 62
     0
100
AcDbTrace
 10
61.10913953820168
 20
697.9063017058699
 30
0.0
 11
61.10913953820168
 21
695.5729683725366
 31
0.0
 12
54.10913953820168
 22
696.7396350392033
 32
0.0
 13
54.10913953820168
 23
696.7396350392033
 33
0.0
  0
SOLID
  5
DB3
330
B21
100
AcDbEntity
  8
BEM
 62
     0
100
AcDbTrace
 10
347.1080041821295
 20
697.9063017058699
 30
0.0
 11
347.1080041821295
 21
695.5729683725366
 31
0.0
 12
354.1080041821294
 22
696.7396350392033
 32
0.0
 13
354.1080041821294
 23
696.7396350392033
 33
0.0
  0
MTEXT
  5
DB4
330
B21
100
AcDbEntity
  8
BEM
 62
     1
100
AcDbMText
 10
204.1085718601656
 20
703.2396350392033
 30
0.0
 40
7.0
 41
0.0
 71
     5
 72
     1
  1
\A1;%%c300
 73
     1
 44
1.0
  0
POINT
  5
DB5
330
B21
100
AcDbEntity
  8
DEFPOINTS
 62
     0
100
AcDbPoint
 10
54.10913953820167
 20
552.8261644747869
 30
0.0
  0
POINT
  5
DB6
330
B21
100
AcDbEntity
  8
DEFPOINTS
 62
     0
100
AcDbPoint
 10
354.1080041821294
 20
552.8130862684859
 30
0.0
  0
POINT
  5
DB7
330
B21
100
AcDbEntity
  8
DEFPOINTS
 62
     0
100
AcDbPoint
 10
354.1080041821294
 20
696.7396350392033
 30
0.0
  0
ENDBLK
  5
B2C
330
B21
100
AcDbEntity
  8
0
100
AcDbBlockEnd
  0
BLOCK
  5
B4A
330
B40
100
AcDbEntity
  8
0
100
AcDbBlockBegin
  2
*D5
 70
     1
 10
0.0
 20
0.0
 30
0.0
  3
*D5
  1

  0
LINE
  5
DA6
330
B40
100
AcDbEntity
  8
BEM
 62
     0
370
    -2
100
AcDbLine
 10
94.10203275701508
 20
655.7047861639105
 30
0.0
 11
94.10203275701508
 21
684.9044239247347
 31
0.0
  0
LINE
  5
DA7
330
B40
100
AcDbEntity
  8
BEM
 62
     0
370
    -2
100
AcDbLine
 10
314.1020327570153
 20
655.7047861639105
 30
0.0
 11
314.1020327570153
 21
684.9044239247347
 31
0.0
  0
LINE
  5
DA8
330
B40
100
AcDbEntity
  8
BEM
 62
     0
370
    -2
100
AcDbLine
 10
101.1020327570151
 20
682.9044239247346
 30
0.0
 11
307.1020327570153
 21
682.9044239247346
 31
0.0
  0
SOLID
  5
DA9
330
B40
100
AcDbEntity
  8
BEM
 62
     0
100
AcDbTrace
 10
101.1020327570151
 20
684.0710905914013
 30
0.0
 11
101.1020327570151
 21
681.7377572580681
 31
0.0
 12
94.10203275701508
 22
682.9044239247346
 32
0.0
 13
94.10203275701508
 23
682.9044239247346
 33
0.0
  0
SOLID
  5
DAA
330
B40
100
AcDbEntity
  8
BEM
 62
     0
100
AcDbTrace
 10
307.1020327570153
 20
684.0710905914013
 30
0.0
 11
307.1020327570153
 21
681.7377572580681
 31
0.0
 12
314.1020327570153
 22
682.9044239247346
 32
0.0
 13
314.1020327570153
 23
682.9044239247346
 33
0.0
  0
MTEXT
  5
DAB
330
B40
100
AcDbEntity
  8
BEM
 62
     1
100
AcDbMText
 10
204.1020327570152
 20
689.4044239247347
 30
0.0
 40
7.0
 41
0.0
 71
     5
 72
     1
  1
\A1;%%c220
 73
     1
 44
1.0
  0
POINT
  5
DAC
330
B40
100
AcDbEntity
  8
DEFPOINTS
 62
     0
100
AcDbPoint
 10
94.10203275701508
 20
653.7047861639105
 30
0.0
  0
POINT
  5
DAD
330
B40
100
AcDbEntity
  8
DEFPOINTS
 62
     0
100
AcDbPoint
 10
314.1020327570153
 20
653.7047861639105
 30
0.0
  0
POINT
  5
DAE
330
B40
100
AcDbEntity
  8
DEFPOINTS
 62
     0
100
AcDbPoint
 10
314.1020327570153
 20
682.9044239247346
 30
0.0
  0
ENDBLK
  5
B4B
330
B40
100
AcDbEntity
  8
0
100
AcDbBlockEnd
  0
BLOCK
  5
E0B
330
E01
100
AcDbEntity
  8
0
100
AcDbBlockBegin
  2
*D6
 70
     1
 10
0.0
 20
0.0
 30
0.0
  3
*D6
  1

  0
LINE
  5
1098
330
E01
100
AcDbEntity
  8
BEM
 62
     0
370
    -2
100
AcDbLine
 10
149.1020327570151
 20
163.7048441312269
 30
0.0
 11
149.1020327570151
 21
132.4103498847903
 31
0.0
  0
LINE
  5
1099
330
E01
100
AcDbEntity
  8
BEM
 62
     0
370
    -2
100
AcDbLine
 10
259.1020327570151
 20
163.7048441312266
 30
0.0
 11
259.1020327570151
 21
132.4103498847903
 31
0.0
  0
LINE
  5
109A
330
E01
100
AcDbEntity
  8
BEM
 62
     0
370
    -2
100
AcDbLine
 10
156.1020327570151
 20
134.4103498847903
 30
0.0
 11
252.1020327570151
 21
134.4103498847903
 31
0.0
  0
SOLID
  5
109B
330
E01
100
AcDbEntity
  8
BEM
 62
     0
100
AcDbTrace
 10
156.1020327570151
 20
135.5770165514569
 30
0.0
 11
156.1020327570151
 21
133.2436832181236
 31
0.0
 12
149.1020327570151
 22
134.4103498847903
 32
0.0
 13
149.1020327570151
 23
134.4103498847903
 33
0.0
  0
SOLID
  5
109C
330
E01
100
AcDbEntity
  8
BEM
 62
     0
100
AcDbTrace
 10
252.1020327570151
 20
135.5770165514569
 30
0.0
 11
252.1020327570151
 21
133.2436832181236
 31
0.0
 12
259.1020327570151
 22
134.4103498847903
 32
0.0
 13
259.1020327570151
 23
134.4103498847903
 33
0.0
  0
MTEXT
  5
109D
330
E01
100
AcDbEntity
  8
BEM
 62
     1
100
AcDbMText
 10
204.1020327570151
 20
140.9103498847903
 30
0.0
 40
7.0
 41
0.0
 71
     5
 72
     1
  1
\A1;%%c110
 73
     1
 44
1.0
  0
POINT
  5
109E
330
E01
100
AcDbEntity
  8
DEFPOINTS
 62
     0
100
AcDbPoint
 10
149.1020327570151
 20
165.7048441312269
 30
0.0
  0
POINT
  5
109F
330
E01
100
AcDbEntity
  8
DEFPOINTS
 62
     0
100
AcDbPoint
 10
259.1020327570151
 20
165.7048441312266
 30
0.0
  0
POINT
  5
10A0
330
E01
100
AcDbEntity
  8
DEFPOINTS
 62
     0
100
AcDbPoint
 10
259.1020327570151
 20
134.4103498847903
 30
0.0
  0
ENDBLK
  5
E0C
330
E01
100
AcDbEntity
  8
0
100
AcDbBlockEnd
  0
BLOCK
  5
102F
330
1025
100
AcDbEntity
  8
0
100
AcDbBlockBegin
  2
*D7
 70
     1
 10
0.0
 20
0.0
 30
0.0
  3
*D7
  1

  0
LINE
  5
108F
330
1025
100
AcDbEntity
  8
BEM
 62
     0
370
    -2
100
AcDbLine
 10
144.1020327570155
 20
154.2048441312271
 30
0.0
 11
144.1020327570155
 21
115.5461679589542
 31
0.0
  0
LINE
  5
1090
330
1025
100
AcDbEntity
  8
BEM
 62
     0
370
    -2
100
AcDbLine
 10
264.1020327570146
 20
154.2048441312271
 30
0.0
 11
264.1020327570146
 21
115.5461679589542
 31
0.0
  0
LINE
  5
1091
330
1025
100
AcDbEntity
  8
BEM
 62
     0
370
    -2
100
AcDbLine
 10
151.1020327570155
 20
117.5461679589542
 30
0.0
 11
257.1020327570146
 21
117.5461679589542
 31
0.0
  0
SOLID
  5
1092
330
1025
100
AcDbEntity
  8
BEM
 62
     0
100
AcDbTrace
 10
151.1020327570155
 20
118.7128346256209
 30
0.0
 11
151.1020327570155
 21
116.3795012922876
 31
0.0
 12
144.1020327570155
 22
117.5461679589542
 32
0.0
 13
144.1020327570155
 23
117.5461679589542
 33
0.0
  0
SOLID
  5
1093
330
1025
100
AcDbEntity
  8
BEM
 62
     0
100
AcDbTrace
 10
257.1020327570146
 20
118.7128346256209
 30
0.0
 11
257.1020327570146
 21
116.3795012922876
 31
0.0
 12
264.1020327570146
 22
117.5461679589542
 32
0.0
 13
264.1020327570146
 23
117.5461679589542
 33
0.0
  0
MTEXT
  5
1094
330
1025
100
AcDbEntity
  8
BEM
 62
     1
100
AcDbMText
 10
204.1020327570151
 20
124.0461679589542
 30
0.0
 40
7.0
 41
0.0
 71
     5
 72
     1
  1
\A1;%%c120
 73
     1
 44
1.0
  0
POINT
  5
1095
330
1025
100
AcDbEntity
  8
DEFPOINTS
 62
     0
100
AcDbPoint
 10
144.1020327570155
 20
156.2048441312271
 30
0.0
  0
POINT
  5
1096
330
1025
100
AcDbEntity
  8
DEFPOINTS
 62
     0
100
AcDbPoint
 10
264.1020327570146
 20
156.2048441312271
 30
0.0
  0
POINT
  5
1097
330
1025
100
AcDbEntity
  8
DEFPOINTS
 62
     0
100
AcDbPoint
 10
264.1020327570146
 20
117.5461679589542
 30
0.0
  0
ENDBLK
  5
1030
330
1025
100
AcDbEntity
  8
0
100
AcDbBlockEnd
  0
BLOCK
  5
103B
330
1031
100
AcDbEntity
  8
0
100
AcDbBlockBegin
  2
*D8
 70
     1
 10
0.0
 20
0.0
 30
0.0
  3
*D8
  1

  0
LINE
  5
10AA
330
1031
100
AcDbEntity
  8
BEM
 62
     0
370
    -2
100
AcDbLine
 10
136.6020327570151
 20
205.7048441312262
 30
0.0
 11
136.6020327570151
 21
99.58587505128344
 31
0.0
  0
LINE
  5
10AB
330
1031
100
AcDbEntity
  8
BEM
 62
     0
370
    -2
100
AcDbLine
 10
271.6020327570151
 20
205.7048441312262
 30
0.0
 11
271.6020327570151
 21
99.58587505128344
 31
0.0
  0
LINE
  5
10AC
330
1031
100
AcDbEntity
  8
BEM
 62
     0
370
    -2
100
AcDbLine
 10
143.6020327570151
 20
101.5858750512834
 30
0.0
 11
264.6020327570151
 21
101.5858750512834
 31
0.0
  0
SOLID
  5
10AD
330
1031
100
AcDbEntity
  8
BEM
 62
     0
100
AcDbTrace
 10
143.6020327570151
 20
102.7525417179501
 30
0.0
 11
143.6020327570151
 21
100.4192083846167
 31
0.0
 12
136.6020327570151
 22
101.5858750512834
 32
0.0
 13
136.6020327570151
 23
101.5858750512834
 33
0.0
  0
SOLID
  5
10AE
330
1031
100
AcDbEntity
  8
BEM
 62
     0
100
AcDbTrace
 10
264.6020327570151
 20
102.7525417179501
 30
0.0
 11
264.6020327570151
 21
100.4192083846167
 31
0.0
 12
271.6020327570151
 22
101.5858750512834
 32
0.0
 13
271.6020327570151
 23
101.5858750512834
 33
0.0
  0
MTEXT
  5
10AF
330
1031
100
AcDbEntity
  8
BEM
 62
     1
100
AcDbMText
 10
204.1020327570151
 20
108.0858750512834
 30
0.0
 40
7.0
 41
0.0
 71
     5
 72
     1
  1
\A1;%%c135
 73
     1
 44
1.0
  0
POINT
  5
10B0
330
1031
100
AcDbEntity
  8
DEFPOINTS
 62
     0
100
AcDbPoint
 10
136.6020327570151
 20
207.7048441312262
 30
0.0
  0
POINT
  5
10B1
330
1031
100
AcDbEntity
  8
DEFPOINTS
 62
     0
100
AcDbPoint
 10
271.6020327570151
 20
207.7048441312262
 30
0.0
  0
POINT
  5
10B2
330
1031
100
AcDbEntity
  8
DEFPOINTS
 62
     0
100
AcDbPoint
 10
271.6020327570151
 20
101.5858750512834
 30
0.0
  0
ENDBLK
  5
103C
330
1031
100
AcDbEntity
  8
0
100
AcDbBlockEnd
  0
ENDSEC
  0
SECTION
  2
ENTITIES
  0
LINE
  5
58
330
1E
100
AcDbEntity
  8
STEMPEL
100
AcDbLine
 10
484.0
 20
830.0000000000002
 30
0.0
 11
484.0
 21
470.0000000000001
 31
0.0
  0
LINE
  5
59
330
1E
100
AcDbEntity
  8
STEMPEL
100
AcDbLine
 10
484.0
 20
470.0000000000001
 30
0.0
 11
584.0
 21
470.0000000000001
 31
0.0
  0
LINE
  5
5A
330
1E
100
AcDbEntity
  8
STEMPEL
100
AcDbLine
 10
484.0000000000001
 20
566.0000000000002
 30
0.0
 11
584.0000000000001
 21
566.0
 31
0.0
  0
LINE
  5
5B
330
1E
100
AcDbEntity
  8
STEMPEL
100
AcDbLine
 10
484.0
 20
650.0
 30
0.0
 11
584.0
 21
650.0
 31
0.0
  0
LINE
  5
5C
330
1E
100
AcDbEntity
  8
STEMPEL
100
AcDbLine
 10
484.0000000000003
 20
752.0000000000002
 30
0.0
 11
554.0
 21
752.0000000000002
 31
0.0
  0
LINE
  5
5D
330
1E
100
AcDbEntity
  8
STEMPEL
100
AcDbLine
 10
564.0
 20
566.0
 30
0.0
 11
564.0
 21
470.0000000000001
 31
0.0
  0
LINE
  5
5E
330
1E
100
AcDbEntity
  8
STEMPEL
100
AcDbLine
 10
554.0
 20
830.0000000000002
 30
0.0
 11
554.0
 21
566.0
 31
0.0
  0
LINE
  5
5F
330
1E
100
AcDbEntity
  8
STEMPEL
100
AcDbLine
 10
514.0
 20
830.0000000000002
 30
0.0
 11
514.0
 21
566.0000000000002
 31
0.0
  0
LINE
  5
60
330
1E
100
AcDbEntity
  8
VOLL
100
AcDbLine
 10
484.0
 20
484.0000000000001
 30
0.0
 11
584.0
 21
484.0
 31
0.0
  0
LINE
  5
61
330
1E
100
AcDbEntity
  8
VOLL
100
AcDbLine
 10
484.0000000000001
 20
524.0000000000001
 30
0.0
 11
584.0000000000001
 21
524.0
 31
0.0
  0
LINE
  5
62
330
1E
100
AcDbEntity
  8
VOLL
100
AcDbLine
 10
484.0000000000001
 20
544.0000000000002
 30
0.0
 11
584.0000000000001
 21
544.0
 31
0.0
  0
LINE
  5
63
330
1E
100
AcDbEntity
  8
VOLL
100
AcDbLine
 10
514.0
 20
584.0000000000002
 30
0.0
 11
554.0
 21
584.0000000000002
 31
0.0
  0
LINE
  5
64
330
1E
100
AcDbEntity
  8
VOLL
100
AcDbLine
 10
484.0000000000002
 20
610.0000000000002
 30
0.0
 11
554.0
 21
610.0
 31
0.0
  0
LINE
  5
65
330
1E
100
AcDbEntity
  8
HILF
100
AcDbLine
 10
494.0
 20
470.0000000000001
 30
0.0
 11
494.0
 21
566.0000000000002
 31
0.0
  0
LINE
  5
66
330
1E
100
AcDbEntity
  8
HILF
100
AcDbLine
 10
504.0
 20
470.0000000000001
 30
0.0
 11
504.0
 21
566.0000000000002
 31
0.0
  0
LINE
  5
67
330
1E
100
AcDbEntity
  8
HILF
100
AcDbLine
 10
514.0
 20
470.0000000000001
 30
0.0
 11
514.0
 21
566.0000000000002
 31
0.0
  0
LINE
  5
68
330
1E
100
AcDbEntity
  8
HILF
100
AcDbLine
 10
524.0
 20
470.0000000000001
 30
0.0
 11
524.0
 21
566.0000000000002
 31
0.0
  0
LINE
  5
69
330
1E
100
AcDbEntity
  8
HILF
100
AcDbLine
 10
534.0
 20
470.0000000000001
 30
0.0
 11
534.0
 21
566.0000000000002
 31
0.0
  0
LINE
  5
6A
330
1E
100
AcDbEntity
  8
HILF
100
AcDbLine
 10
544.0
 20
470.0000000000001
 30
0.0
 11
544.0
 21
566.0000000000002
 31
0.0
  0
LINE
  5
6B
330
1E
100
AcDbEntity
  8
HILF
100
AcDbLine
 10
554.0
 20
470.0000000000001
 30
0.0
 11
554.0
 21
566.0000000000002
 31
0.0
  0
LINE
  5
6C
330
1E
100
AcDbEntity
  8
HILF
100
AcDbLine
 10
524.0
 20
566.0000000000002
 30
0.0
 11
524.0
 21
650.0
 31
0.0
  0
LINE
  5
6D
330
1E
100
AcDbEntity
  8
HILF
100
AcDbLine
 10
534.0
 20
566.0000000000002
 30
0.0
 11
534.0
 21
650.0
 31
0.0
  0
LINE
  5
6E
330
1E
100
AcDbEntity
  8
HILF
100
AcDbLine
 10
544.0
 20
566.0000000000002
 30
0.0
 11
544.0
 21
650.0
 31
0.0
  0
LINE
  5
6F
330
1E
100
AcDbEntity
  8
HILF
100
AcDbLine
 10
509.9624175243587
 20
654.7736801096948
 30
0.0
 11
509.9624175243587
 21
746.6297842514811
 31
0.0
  0
LINE
  5
70
330
1E
100
AcDbEntity
  8
HILF
100
AcDbLine
 10
524.0
 20
654.7736801096948
 30
0.0
 11
524.0
 21
746.6297842514811
 31
0.0
  0
LINE
  5
71
330
1E
100
AcDbEntity
  8
HILF
100
AcDbLine
 10
534.0
 20
654.7736801096948
 30
0.0
 11
534.0
 21
746.6297842514811
 31
0.0
  0
LINE
  5
72
330
1E
100
AcDbEntity
  8
HILF
100
AcDbLine
 10
544.0
 20
654.7736801096948
 30
0.0
 11
544.0
 21
746.6297842514811
 31
0.0
  0
LINE
  5
73
330
1E
100
AcDbEntity
  8
VOLL
100
AcDbLine
 10
534.0
 20
752.0000000000002
 30
0.0
 11
534.0
 21
830.0000000000002
 31
0.0
  0
LINE
  5
74
330
1E
100
AcDbEntity
  8
HILF
100
AcDbLine
 10
510.2201636304418
 20
756.7238616296995
 30
0.0
 11
510.2201636304418
 21
824.858883932673
 31
0.0
  0
LINE
  5
75
330
1E
100
AcDbEntity
  8
HILF
100
AcDbLine
 10
579.1060174197169
 20
654.7736801096948
 30
0.0
 11
579.1060174197169
 21
824.858883932673
 31
0.0
  0
TEXT
  5
76
330
1E
100
AcDbEntity
  8
TEXT
100
AcDbText
 10
575.3261810501587
 20
492.3998239263297
 30
0.0
 40
4.0
  1
Änderung
 50
90.0
 41
0.8
  7
GREEKS
 72
     1
 11
575.3261810501587
 21
503.1426810691868
 31
0.0
100
AcDbText
  0
TEXT
  5
78
330
1E
100
AcDbEntity
  8
TEXT
100
AcDbText
 10
491.5379104912911
 20
573.5163572150376
 30
0.0
 40
5.0
  1
Maßstab
 50
90.0
 41
0.8
  7
GREEKS
100
AcDbText
  0
TEXT
  5
79
330
1E
100
AcDbEntity
  8
TEXT
100
AcDbText
 10
491.4510671988221
 20
654.8779403809009
 30
0.0
 40
5.0
  1
Benennung
 50
90.0
 41
0.8
  7
GREEKS
100
AcDbText
  0
TEXT
  5
7A
330
1E
100
AcDbEntity
  8
TEXT
100
AcDbText
 10
491.6867965462863
 20
756.1787549576343
 30
0.0
 40
5.0
  1
Zeichnungs Nr.
 50
90.0
 41
0.8
  7
GREEKS
100
AcDbText
  0
TEXT
  5
7B
330
1E
100
AcDbEntity
  8
TEXT
100
AcDbText
 10
563.1543942980694
 20
654.7422383911359
 30
0.0
 40
5.0
  1
Bauvorhaben
 50
90.0
 41
0.8
  7
GREEKS
100
AcDbText
  0
TEXT
  5
7C
330
1E
100
AcDbEntity
  8
TEXT
100
AcDbText
 10
520.8188176290003
 20
756.7238616296995
 30
0.0
 40
5.0
  1
Ersatz für:
 50
90.0
 41
0.8
  7
GREEKS
100
AcDbText
  0
TEXT
  5
7D
330
1E
100
AcDbEntity
  8
TEXT
100
AcDbText
 10
580.3453415397281
 20
478.2664110704577
 30
0.0
 40
4.0
  1
Index
 50
180.0
 41
0.8
  7
GREEKS
100
AcDbText
  0
TEXT
  5
7E
330
1E
100
AcDbEntity
  8
TEXT
100
AcDbText
 10
575.3284373066019
 20
529.8990113186978
 30
0.0
 40
4.0
  1
Tag
 50
90.0
 41
0.8
  7
GREEKS
 72
     1
 11
575.3284373066019
 21
533.6323446520311
 31
0.0
100
AcDbText
  0
TEXT
  5
7F
330
1E
100
AcDbEntity
  8
TEXT
100
AcDbText
 10
575.4067578303359
 20
548.9795678138292
 30
0.0
 40
4.0
  1
Name
 50
90.0
 41
0.8
  7
GREEKS
 72
     1
 11
575.4067578303359
 21
555.3033773376387
 31
0.0
100
AcDbText
  0
TEXT
  5
80
330
1E
100
AcDbEntity
  8
TEXT
100
AcDbText
 10
520.6811949877008
 20
592.3311673153651
 30
0.0
 40
4.0
  1
Tag
 50
90.0
 41
0.8
  7
GREEKS
100
AcDbText
  0
TEXT
  5
81
330
1E
100
AcDbEntity
  8
TEXT
100
AcDbText
 10
520.6903890808478
 20
622.4626584226296
 30
0.0
 40
4.0
  1
Name
 50
90.0
 41
0.8
  7
GREEKS
100
AcDbText
  0
TEXT
  5
82
330
1E
100
AcDbEntity
  8
TEXT
100
AcDbText
 10
530.3700963038204
 20
567.5836127167615
 30
0.0
 40
4.0
  1
Gez.
 50
90.0
 41
0.8
  7
GREEKS
100
AcDbText
  0
TEXT
  5
83
330
1E
100
AcDbEntity
  8
TEXT
100
AcDbText
 10
540.3107370857163
 20
567.5515086571672
 30
0.0
 40
4.0
  1
Gepr.
 50
90.0
 41
0.8
  7
GREEKS
100
AcDbText
  0
TEXT
  5
84
330
1E
100
AcDbEntity
  8
TEXT
100
AcDbText
 10
550.470536103502
 20
567.6006777387303
 30
0.0
 40
4.0
  1
Norm.
 50
90.0
 41
0.8
  7
GREEKS
100
AcDbText
  0
TEXT
  5
85
330
1E
100
AcDbEntity
  8
TEXT
100
AcDbText
 10
541.925838221214
 20
757.2400861497007
 30
0.0
 40
5.0
  1
ersetzt durch:
 50
90.0
 41
0.8
  7
GREEKS
100
AcDbText
  0
TEXT
  5
86
330
1E
100
AcDbEntity
  8
TEXT
100
AcDbText
 10
521.0331740347627
 20
568.8693027807324
 30
0.0
 40
4.0
  1
2011
 50
90.0
 41
0.8
  7
GREEKS
100
AcDbText
  0
LINE
  5
87
330
1E
100
AcDbEntity
  8
HILF
100
AcDbLine
 10
594.0
 20
-0.0000000000000568
 30
0.0
 11
594.0
 21
840.0
 31
0.0
  0
LINE
  5
88
330
1E
100
AcDbEntity
  8
HILF
100
AcDbLine
 10
594.0
 20
840.0
 30
0.0
 11
0.0
 21
840.0
 31
0.0
  0
LINE
  5
89
330
1E
100
AcDbEntity
  8
HILF
100
AcDbLine
 10
0.0
 20
840.0
 30
0.0
 11
0.0
 21
0.0
 31
0.0
  0
LINE
  5
8B
330
1E
100
AcDbEntity
  8
STEMPEL
100
AcDbLine
 10
10.0
 20
830.0
 30
0.0
 11
10.0
 21
39.99999999999995
 31
0.0
  0
LINE
  5
8D
330
1E
100
AcDbEntity
  8
STEMPEL
100
AcDbLine
 10
584.0
 20
39.99999999999995
 30
0.0
 11
584.0
 21
830.0
 31
0.0
  0
LINE
  5
8E
330
1E
100
AcDbEntity
  8
STEMPEL
100
AcDbLine
 10
584.0
 20
830.0
 30
0.0
 11
10.0
 21
830.0
 31
0.0
  0
TEXT
  5
8F
330
1E
100
AcDbEntity
  8
TEXT
 62
     1
100
AcDbText
 10
506.6265692434746
 20
655.0390572473189
 30
0.0
 40
7.0
  1
Drainlet Sanierungsablauf
 50
90.0
 41
0.7
  7
GREEKS
100
AcDbText
  0
TEXT
  5
90
330
1E
100
AcDbEntity
  8
TEXT
 62
     1
100
AcDbText
 10
506.6265692434746
 20
767.7294755517469
 30
0.0
 40
7.0
  1
21518100W
 50
90.0
 41
0.8
  7
GREEKS
 72
     1
 11
506.6265692434746
 21
790.1294755517469
 31
0.0
100
AcDbText
  0
TEXT
  5
91
330
1E
100
AcDbEntity
  8
TEXT
100
AcDbText
 10
491.16010388621
 20
618.5090226415829
 30
0.0
 40
5.0
  1
Zul.Abw.
 50
90.0
 41
0.8
  7
GREEKS
100
AcDbText
  0
TEXT
  5
93
330
1E
100
AcDbEntity
  8
TEXT
100
AcDbText
 10
530.8491412387978
 20
590.7660475607107
 30
0.0
 40
4.0
  1
21.01.
 50
90.0
 41
0.8
  7
GREEKS
 72
     1
 11
530.8491412387978
 21
597.1660475607107
 31
0.0
100
AcDbText
  0
TEXT
  5
94
330
1E
100
AcDbEntity
  8
TEXT
100
AcDbText
 10
531.0570234483452
 20
624.0231753226609
 30
0.0
 40
4.0
  1
Koeh
 50
90.0
 41
0.8
  7
GREEKS
 72
     1
 11
531.0570234483452
 21
629.2803181798038
 31
0.0
100
AcDbText
  0
TEXT
  5
95
330
1E
100
AcDbEntity
  8
TEXT
100
AcDbText
 10
521.8997861689246
 20
654.3410940884991
 30
0.0
 40
5.0
  1
DN100/DN125-KA
 50
90.0
 41
0.8
  7
GREEKS
100
AcDbText
  0
TEXT
  5
96
330
1E
100
AcDbEntity
  8
TEXT
100
AcDbText
 10
531.6544091479096
 20
654.3410940884991
 30
0.0
 40
5.0
  1

 50
90.0
 41
0.8
  7
GREEKS
100
AcDbText
  0
TEXT
  5
97
330
1E
100
AcDbEntity
  8
TEXT
100
AcDbText
 10
541.4090266215394
 20
654.3410940884991
 30
0.0
 40
5.0
  1
EDV-Art.Nr. 21518.100X
 50
90.0
 41
0.8
  7
GREEKS
100
AcDbText
  0
TEXT
  5
98
330
1E
100
AcDbEntity
  8
TEXT
100
AcDbText
 10
550.6887237520849
 20
654.1676050109347
 30
0.0
 40
4.0
  1
21518100W.DWG
 50
90.0
 41
0.8
  7
GREEKS
100
AcDbText
  0
TEXT
  5
99
330
1E
100
AcDbEntity
  8
TEXT
 62
     1
100
AcDbText
 10
506.5292291158502
 20
582.703491203422
 30
0.0
 40
7.0
  1
1:2
 50
90.0
 41
0.8
  7
GREEKS
100
AcDbText
  0
TEXT
  5
9A
330
1E
100
AcDbEntity
  8
TEXT
100
AcDbText
 10
479.8856414948956
 20
470.0441139350127
 30
0.0
 40
5.0
  1
Erstellt mit AUTOCAD 2004
 50
90.0
 41
0.8
  7
GREEKS
100
AcDbText
  0
INSERT
  5
9B
330
1E
100
AcDbEntity
  8
HILF
100
AcDbBlockReference
  2
LORO
 10
557.0194069970104
 20
573.0624985962354
 30
0.0
 41
2.0
 42
2.0
 43
2.0
 50
90.0
  0
LINE
  5
9C
330
1E
100
AcDbEntity
  8
BEM
100
AcDbLine
 10
594.0
 20
455.9999999999999
 30
0.0
 11
584.0
 21
455.9999999999999
 31
0.0
  0
LINE
  5
13E
330
1E
100
AcDbEntity
  8
HILF
100
AcDbLine
 10
594.0
 20
-0.0000000000000568
 30
0.0
 11
0.0
 21
0.0
 31
0.0
  0
LINE
  5
13F
330
1E
100
AcDbEntity
  8
STEMPEL
100
AcDbLine
 10
584.0
 20
39.99999999999995
 30
0.0
 11
10.0
 21
39.99999999999995
 31
0.0
  0
LINE
  5
14A
330
1E
100
AcDbEntity
  8
HILF
100
AcDbLine
 10
297.0
 20
-0.0000000000000568
 30
0.0
 11
297.0
 21
39.99999999999995
 31
0.0
  0
TEXT
  5
15B
330
1E
100
AcDbEntity
  8
BEM
100
AcDbText
 10
583.8320989200114
 20
837.3022923857165
 30
0.0
 40
4.0
  1
Diese Zeichnung ist urheberrechtlich geschützt und bleibt unser Eigentum. Sie darf weder ganz noch teilweise verfielfältigt und nicht an Dritte weitergegeben werden.
 50
180.0
 41
0.8
  7
GREEKS
100
AcDbText
  0
LINE
  5
19C
330
1E
100
AcDbEntity
  8
BEM
100
AcDbLine
 10
0.0
 20
455.9999999999999
 30
0.0
 11
10.0
 21
455.9999999999999
 31
0.0
  0
TEXT
  5
663
330
1E
100
AcDbEntity
  8
TEXT
100
AcDbText
 10
504.5307583482736
 20
612.2898419893275
 30
0.0
 40
4.0
  1
DIN EN1124-3
 50
90.0
 41
0.8
  7
GREEKS
 72
     1
 11
504.5307583482736
 21
629.2803181798038
 31
0.0
100
AcDbText
  0
LINE
  5
8C6
330
1E
100
AcDbEntity
  8
STEMPEL
100
AcDbLine
 10
184.0374877165428
 20
590.3725874656263
 30
0.0
 11
192.3181868952856
 21
590.3725874656263
 31
0.0
  0
LINE
  5
8C7
330
1E
100
AcDbEntity
  8
STEMPEL
100
AcDbLine
 10
182.2356179891694
 20
586.3048441312264
 30
0.0
 11
194.1778373061687
 21
586.3048441312262
 31
0.0
  0
ARC
  5
8C8
330
1E
100
AcDbEntity
  8
STEMPEL
100
AcDbCircle
 10
188.1778373061687
 20
582.0914698720264
 30
0.0
 40
8.281117593600001
100
AcDbArc
 50
70.5278273813868
 51
109.4721726186137
  0
LINE
  5
8C9
330
1E
100
AcDbEntity
  8
STEMPEL
100
AcDbLine
 10
194.1778373061689
 20
584.704844131226
 30
0.0
 11
182.1778373061687
 21
584.7048441312265
 31
0.0
  0
HATCH
  5
8CA
330
1E
100
AcDbEntity
  8
SCHRAFF
100
AcDbHatch
 10
0.0
 20
0.0
 30
0.0
210
0.0
220
0.0
230
1.0
  2
_U
 70
     0
 71
     0
 91
        6
 92
        7
 72
     1
 73
     1
 93
        6
 10
94.10203275701508
 20
589.7048441312265
 42
-0.2360679774997897
 10
92.10203275701507
 20
585.7048441312265
 42
0.0
 10
92.10203275701507
 20
584.5086917085198
 42
0.2679491924311283
 10
95.10203275701519
 20
589.7048441312265
 42
0.0
 10
95.10203275701519
 20
608.7048441312274
 42
0.0
 10
94.10203275701508
 20
608.7048441312273
 42
0.0
 97
        0
 92
        7
 72
     1
 73
     1
 93
        6
 10
89.10203275701508
 20
583.7048441312288
 42
0.1316524975873934
 10
92.10203275701507
 20
584.508691708522
 42
0.0
 10
92.10203275701507
 20
585.7048441312264
 42
-0.1622776601683657
 10
89.10203275701531
 20
584.7048441312265
 42
0.0
 10
74.10203275701497
 20
584.704844131226
 42
0.0
 10
74.10203275701485
 20
583.7048441312288
 42
0.0
 97
        0
 92
        7
 72
     1
 73
     1
 93
       40
 10
124.1020327570151
 20
673.7048441312252
 42
0.1316524975839241
 10
121.1020327570859
 20
672.9009965539732
 42
0.0
 10
97.06933813531771
 20
658.8819246912755
 42
0.2662608607108976
 10
94.10203275701508
 20
653.7047861639105
 42
0.0
 10
94.10203275701508
 20
648.7048441312273
 42
0.0
 10
95.10203275701519
 20
648.7048441312274
 42
0.0
 10
95.10203275701519
 20
653.7047861639105
 42
-0.2667503951500906
 10
97.58267918888805
 20
658.0236815781067
 42
0.0
 10
121.5615330818392
 20
672.0113347442922
 42
-0.1340385084112999
 10
124.1020327570151
 20
672.7048441312251
 42
0.0
 10
178.8403949293645
 20
672.7048441312255
 42
0.2679491924311331
 10
181.0054584388256
 20
673.9548441312256
 42
-0.2679491924311204
 10
181.4384711407178
 20
674.2048441312256
 42
0.0
 10
181.638471140718
 20
674.2048441312256
 42
-0.2679491924311275
 10
182.0714838426103
 20
673.9548441312256
 42
0.2679491924311328
 10
184.2365473520714
 20
672.7048441312255
 42
0.0
 10
186.2953949293642
 20
672.7048441312255
 42
0.2679491924311457
 10
188.4604584388254
 20
673.9548441312257
 42
-0.2679491924310647
 10
188.8934711407175
 20
674.2048441312256
 42
0.0
 10
189.0934711407179
 20
674.2048441312256
 42
-0.2679491924311112
 10
189.5264838426102
 20
673.9548441312256
 42
0.2679491924311319
 10
191.6915473520712
 20
672.7048441312255
 42
0.0
 10
198.1453949293651
 20
672.7048441312255
 42
0.2679491924310938
 10
200.310458438826
 20
673.9548441312254
 42
-0.2679491924312511
 10
200.7434711407184
 20
674.2048441312256
 42
0.0
 10
204.1020327570152
 20
674.2048441312257
 42
0.0
 10
204.1020327570152
 20
675.2048441312256
 42
0.0
 10
200.7434711407178
 20
675.2048441312256
 42
0.2679491924310706
 10
199.4444330350414
 20
674.4548441312256
 42
-0.2679491924310689
 10
198.1453949293651
 20
673.7048441312256
 42
0.0
 10
191.6915473520709
 20
673.7048441312256
 42
-0.267949192431115
 10
190.3925092463943
 20
674.4548441312256
 42
0.2859076546237126
 10
188.9934711407182
 20
675.2015070859352
 42
0.2859076546239818
 10
187.594433035041
 20
674.4548441312256
 42
-0.2679491924311542
 10
186.2953949293642
 20
673.7048441312256
 42
0.0
 10
184.2365473520718
 20
673.7048441312256
 42
-0.2679491924311477
 10
182.9375092463951
 20
674.4548441312257
 42
0.2859076546237682
 10
181.5384711407189
 20
675.2015070859352
 42
0.2859076546240622
 10
180.1394330350412
 20
674.4548441312256
 42
-0.2679491924311296
 10
178.8403949293645
 20
673.7048441312256
 42
0.0
 97
        0
 92
        7
 72
     1
 73
     1
 93
       39
 10
310.6213863251424
 20
658.0236815781067
 42
-0.2667503951500871
 10
313.1020327570152
 20
653.7047861639106
 42
0.0
 10
313.1020327570153
 20
648.7048441312273
 42
0.0
 10
314.1020327570153
 20
648.7048441312273
 42
0.0
 10
314.1020327570153
 20
653.7047861639105
 42
0.2662608607095104
 10
311.1347273787396
 20
658.8819246912597
 42
0.0
 10
287.1020327569387
 20
672.9009965539765
 42
0.1316524975836548
 10
284.1020327570153
 20
673.7048441312261
 42
0.0
 10
229.5415473520719
 20
673.7048441312256
 42
-0.2679491924311617
 10
228.2425092463951
 20
674.4548441312258
 42
0.2859076546237838
 10
226.8434711407186
 20
675.201507085935
 42
0.2859076546239305
 10
225.4444330350417
 20
674.4548441312255
 42
-0.2679491924310324
 10
224.1453949293655
 20
673.7048441312256
 42
0.0
 10
217.6915473520714
 20
673.7048441312256
 42
-0.2679491924311347
 10
216.3925092463947
 20
674.4548441312257
 42
0.2859076546239652
 10
214.9934711407175
 20
675.2015070859352
 42
0.3607372083887279
 10
213.4411023858901
 20
674.0798441312255
 42
-0.3419987131197213
 10
212.9569794676139
 20
673.7048441312256
 42
0.0
 10
212.7682302750147
 20
673.7048441312256
 42
-0.3419987131196471
 10
212.2841073567388
 20
674.0798441312256
 42
0.3419987131196458
 10
210.8317386019111
 20
675.2048441312256
 42
0.0
 10
204.1020327570152
 20
675.2048441312256
 42
0.0
 10
204.1020327570151
 20
674.2048441312256
 42
0.0
 10
210.8317386019114
 20
674.2048441312256
 42
-0.3419987131196405
 10
211.3158615201874
 20
673.8298441312256
 42
0.3596757619904217
 10
212.8626048713142
 20
672.7078159298969
 42
0.3596757619905239
 10
214.4093482224417
 20
673.8298441312256
 42
-0.3419987131196468
 10
214.8934711407177
 20
674.2048441312256
 42
0.0
 10
215.093471140718
 20
674.2048441312256
 42
-0.2679491924311338
 10
215.5264838426102
 20
673.9548441312256
 42
0.2679491924311175
 10
217.6915473520713
 20
672.7048441312257
 42
0.0
 10
224.1453949293656
 20
672.7048441312257
 42
0.2679491924310653
 10
226.3104584388262
 20
673.9548441312254
 42
-0.2679491924312635
 10
226.7434711407186
 20
674.2048441312256
 42
0.0
 10
226.9434711407178
 20
674.2048441312256
 42
-0.2679491924311589
 10
227.3764838426101
 20
673.9548441312255
 42
0.2679491924311022
 10
229.5415473520712
 20
672.7048441312257
 42
0.0
 10
284.1020327570153
 20
672.7048441312261
 42
-0.1340385084113154
 10
286.6425324321911
 20
672.0113347442922
 42
0.0
 97
        0
 92
        7
 72
     1
 73
     1
 93
        8
 10
314.1020327570153
 20
608.7048441312273
 42
0.0
 10
313.1020327570152
 20
608.7048441312273
 42
0.0
 10
313.1020327570152
 20
589.7048441312265
 42
0.4142135623731057
 10
319.1020327570151
 20
583.7048441312263
 42
0.0
 10
322.1020327570151
 20
583.7048441312261
 42
0.0
 10
322.1020327570151
 20
584.7048441312264
 42
0.0
 10
319.102032757015
 20
584.7048441312265
 42
-0.4142135623730752
 10
314.1020327570153
 20
589.7048441312265
 42
0.0
 97
        0
 92
        7
 72
     0
 73
     1
 93
        4
 10
334.1020327570151
 20
583.704844131226
 10
334.1020327570149
 20
584.704844131226
 10
330.1020327570151
 20
584.7048441312262
 10
330.1020327570151
 20
583.7048441312261
 97
        0
 75
     0
 76
     0
 52
45.0
 41
2.0
 77
     0
 78
     1
 53
45.0
 43
-22.34595766464224
 44
149.3255888505274
 45
-1.414213562373094
 46
1.414213562373095
 79
     0
 47
0.3201656181468079
 98
        6
 10
94.59569633271632
 20
606.1511937287974
 10
82.10092122680601
 20
584.0597654829061
 10
135.9245639026386
 20
673.3859736448506
 10
305.4049607001003
 20
661.5398459412755
 10
313.7348115119408
 20
604.2301991781279
 10
332.3167831498673
 20
584.0597654829061
  0
LINE
  5
8CB
330
1E
100
AcDbEntity
  8
STEMPEL
100
AcDbLine
 10
181.8859861304712
 20
584.7048441312274
 30
0.0
 11
196.6268256013926
 21
584.7048441312274
 31
0.0
  0
LWPOLYLINE
  5
8CC
330
1E
100
AcDbEntity
  8
STEMPEL
100
AcDbPolyline
 90
       18
 70
   128
 43
0.0
 10
-182.4725606527285
 20
596.2048441312256
 10
-182.5991698989047
 20
597.5829655148502
 10
-182.9746861114064
 20
598.9141566276298
 10
-183.5863215359987
 20
600.1530853528066
 10
-184.4132476618732
 20
601.2575614585759
 10
-185.4273045116014
 20
602.1899733358288
 10
-186.5939595953931
 20
602.91856881639
 10
-187.8734838736185
 20
603.4185364550234
 10
-189.2223046816026
 20
603.67285045344
 10
-190.5944895444619
 20
603.67285045344
 10
-191.943310352446
 20
603.4185364550234
 10
-193.2228346306711
 20
602.91856881639
 10
-194.3894897144629
 20
602.1899733358288
 10
-195.4035465641913
 20
601.2575614585759
 10
-196.2304726900655
 20
600.1530853528066
 10
-196.8421081146579
 20
598.9141566276298
 10
-197.2176243271595
 20
597.5829655148502
 10
-197.344233573336
 20
596.2048441312256
210
0.0
220
0.0
230
-1.0
  0
HATCH
  5
8CD
330
1E
100
AcDbEntity
  8
SCHRAFF
100
AcDbHatch
 10
0.0
 20
0.0
 30
0.0
210
0.0
220
0.0
230
1.0
  2
_U
 70
     0
 71
     1
 91
        5
 92
        7
 72
     1
 73
     1
 93
        4
 10
307.5765403982793
 20
563.7048441312259
 42
0.0
 10
307.5765403982792
 20
569.7048441312261
 42
0.0
 10
286.1020327570152
 20
569.7048441312261
 42
1.0
 10
286.1020327570152
 20
563.704844131226
 42
0.0
 97
        4
330
8D5
330
A03
330
8D6
330
A12
 92
        7
 72
     1
 73
     1
 93
        8
 10
313.4441755324418
 20
569.7048441312261
 42
0.0
 10
307.5765403982793
 20
569.7048441312261
 42
0.0
 10
307.5765403982793
 20
563.7048441312259
 42
0.0
 10
323.1020327570147
 20
563.704844131226
 42
0.0
 10
323.1020327570152
 20
576.3048441312264
 42
0.0
 10
323.1020327570149
 20
583.7048441312263
 42
0.0
 10
318.6020327570151
 20
583.7048441312263
 42
0.0
 10
318.4434140082237
 20
574.61758209904
 42
-0.4091108014277207
 97
        8
330
A84
330
8CE
330
A2F
330
9A4
330
8D5
330
A12
330
8D6
330
A81
 92
        7
 72
     1
 73
     1
 93
        8
 10
346.1020327570151
 20
563.704844131226
 42
1.0
 10
346.1020327570151
 20
569.7048441312261
 42
0.0
 10
338.7598899815885
 20
569.7048441312261
 42
-0.4091108014277024
 10
333.7606515058066
 20
574.6175820990394
 42
0.0
 10
333.6020327570151
 20
583.7048441312259
 42
0.0
 10
329.1020327570149
 20
583.7048441312259
 42
0.0
 10
329.1020327570152
 20
576.3048441312264
 42
0.0
 10
329.1020327570159
 20
563.7048441312259
 42
0.0
 97
        8
330
A90
330
A7B
330
A8D
330
A88
330
A8C
330
A87
330
8D6
330
A91
 92
        7
 72
     1
 73
     1
 93
        4
 10
99.10203275701507
 20
569.704844131226
 42
0.0
 10
99.1020327570151
 20
563.7048441312259
 42
0.0
 10
122.102032757015
 20
563.7048441312259
 42
1.0
 10
122.102032757015
 20
569.704844131226
 42
0.0
 97
        4
330
8D5
330
91C
330
8D6
330
8FA
 92
        7
 72
     1
 73
     1
 93
        4
 10
62.10203275701508
 20
569.704844131226
 42
1.0
 10
62.10203275701506
 20
563.7048441312259
 42
0.0
 10
85.1020327570151
 20
563.7048441312258
 42
0.0
 10
85.1020327570151
 20
569.7048441312261
 42
0.0
 97
        4
330
8D5
330
904
330
8E5
330
905
 75
     0
 76
     0
 52
135.0
 41
5.0
 77
     0
 78
     1
 53
135.0
 43
-22.34595766464224
 44
149.3255888505274
 45
-3.535533905932737
 46
-3.535533905932737
 79
     0
 47
0.4233752505078366
 98
        5
 10
299.2610063173507
 20
564.8730852121408
 10
318.7492371546915
 20
568.6834622412212
 10
340.7794084374856
 20
565.7198369057465
 10
113.6991581042385
 20
567.8367133436887
 10
64.97858323469348
 20
568.2600891904918
  0
LINE
  5
8CE
102
{ACAD_REACTORS
330
8CD
102
}
330
1E
100
AcDbEntity
  8
STEMPEL
100
AcDbLine
 10
74.10203275701485
 20
583.7048441312289
 30
0.0
 11
323.1020327570149
 21
583.7048441312261
 31
0.0
  0
ARC
  5
8CF
330
1E
100
AcDbEntity
  8
STEMPEL
100
AcDbCircle
 10
186.2953949293642
 20
675.2048441312256
 30
0.0
 40
1.5
100
AcDbArc
 50
270.0
 51
330.0000000000069
  0
ARC
  5
8D0
330
1E
100
AcDbEntity
  8
STEMPEL
100
AcDbCircle
 10
186.2953949293642
 20
675.2048441312256
 30
0.0
 40
2.5
100
AcDbArc
 50
270.0
 51
330.0000000000069
  0
ARC
  5
8D1
330
1E
100
AcDbEntity
  8
STEMPEL
100
AcDbCircle
 10
188.8934711407179
 20
673.7048441312256
 30
0.0
 40
1.5
100
AcDbArc
 50
90.0
 51
150.0000000000069
  0
LINE
  5
8D2
102
{ACAD_REACTORS
330
DA5
102
}
330
1E
100
AcDbEntity
  8
STEMPEL
100
AcDbLine
 10
54.10203275701508
 20
557.7048441312268
 30
0.0
 11
354.1020327570151
 21
557.7048441312258
 31
0.0
  0
LINE
  5
8D4
102
{ACAD_REACTORS
330
DA5
102
}
330
1E
100
AcDbEntity
  8
STEMPEL
100
AcDbLine
 10
97.10203275701509
 20
560.7048441312258
 30
0.0
 11
354.1020327570151
 21
560.7048441312259
 31
0.0
  0
LINE
  5
8D5
102
{ACAD_REACTORS
330
8CD
102
}
330
1E
100
AcDbEntity
  8
STEMPEL
100
AcDbLine
 10
62.10203275701508
 20
569.704844131226
 30
0.0
 11
313.4441755324418
 21
569.7048441312261
 31
0.0
  0
LINE
  5
8D6
102
{ACAD_REACTORS
330
8CD
102
}
330
1E
100
AcDbEntity
  8
STEMPEL
100
AcDbLine
 10
346.1020327570151
 20
563.704844131226
 30
0.0
 11
97.10203275701509
 21
563.7048441312258
 31
0.0
  0
LINE
  5
8D8
330
1E
100
AcDbEntity
  8
HILF
100
AcDbLine
 10
306.4283658145457
 20
656.7048441312287
 30
0.0
 11
101.2756996994843
 21
656.7048441312286
 31
0.0
  0
LINE
  5
8D9
330
1E
100
AcDbEntity
  8
STEMPEL
100
AcDbLine
 10
124.1020327570151
 20
672.7048441312251
 30
0.0
 11
284.1020327570153
 21
672.7048441312261
 31
0.0
  0
LINE
  5
8DA
330
1E
100
AcDbEntity
  8
STEMPEL
100
AcDbLine
 10
181.438471140718
 20
675.2048441312256
 30
0.0
 11
226.9434711407178
 21
675.2048441312256
 31
0.0
  0
DIMENSION
  5
8DC
330
1E
100
AcDbEntity
  8
BEM
100
AcDbDimension
  2
*D2
 10
36.3056648167586
 20
157.7048441312269
 30
0.0
 11
29.80566481675858
 21
357.7048441312269
 31
0.0
 70
    32
 71
     5
 42
400.0
  3
Standard
100
AcDbAlignedDimension
 13
54.10203275701508
 23
557.7048441312268
 33
0.0
 14
149.8019420652225
 24
157.7048441312268
 34
0.0
 50
90.0
100
AcDbRotatedDimension
1001
ACAD
1000
DSTYLE
1002
{
1070
    40
1040
2.0
1070
    41
1040
3.5
1070
    42
1040
1.0
1070
    43
1040
7.0
1070
    44
1040
1.0
1070
    73
1070
     0
1070
    74
1070
     0
1070
    77
1070
     1
1070
    78
1070
     8
1070
    79
1070
     2
1070
   140
1040
3.5
1070
   141
1040
1.5
1070
   146
1040
0.5142857142857144
1070
   147
1040
1.5
1070
   172
1070
     1
1070
   178
1070
     1
1070
   179
1070
     2
1070
   271
1070
     2
1070
   272
1070
     2
1070
   284
1070
     8
1070
   285
1070
     8
1070
   286
1070
     8
1002
}
  0
LINE
  5
8E3
102
{ACAD_REACTORS
330
DA5
102
}
330
1E
100
AcDbEntity
  8
STEMPEL
100
AcDbLine
 10
54.10203275701508
 20
560.7048441312259
 30
0.0
 11
87.10203275701507
 21
560.7048441312258
 31
0.0
  0
LINE
  5
8E5
102
{ACAD_REACTORS
330
8CD
102
}
330
1E
100
AcDbEntity
  8
STEMPEL
100
AcDbLine
 10
62.10203275701506
 20
563.7048441312259
 30
0.0
 11
87.10203275701507
 21
563.7048441312258
 31
0.0
  0
LINE
  5
8EA
330
1E
100
AcDbEntity
  8
STEMPEL
100
AcDbLine
 10
87.10203275701507
 20
563.7048441312258
 30
0.0
 11
62.10203275701506
 21
563.7048441312259
 31
0.0
  0
DIMENSION
  5
8EB
330
1E
100
AcDbEntity
  8
BEM
100
AcDbDimension
  2
*D3
 10
36.30566481675862
 20
673.7048441312252
 30
0.0
 11
29.80566481675851
 21
618.7048441312256
 31
0.0
 70
    32
 71
     5
 42
109.9999999999992
  3
Standard
100
AcDbAlignedDimension
 13
54.10203275701508
 23
563.7048441312259
 33
0.0
 14
124.1020327570151
 24
673.7048441312252
 34
0.0
 50
90.0
100
AcDbRotatedDimension
1001
ACAD
1000
DSTYLE
1002
{
1070
    40
1040
2.0
1070
    41
1040
3.5
1070
    42
1040
1.0
1070
    43
1040
7.0
1070
    44
1040
1.0
1070
    73
1070
     0
1070
    74
1070
     0
1070
    77
1070
     1
1070
    78
1070
     8
1070
    79
1070
     2
1070
   140
1040
3.5
1070
   141
1040
1.5
1070
   146
1040
0.5142857142857144
1070
   147
1040
1.5
1070
   172
1070
     1
1070
   178
1070
     1
1070
   179
1070
     2
1070
   271
1070
     2
1070
   272
1070
     2
1070
   284
1070
     8
1070
   285
1070
     8
1070
   286
1070
     8
1002
}
  0
LINE
  5
8EE
102
{ACAD_REACTORS
330
DA5
102
}
330
1E
100
AcDbEntity
  8
STEMPEL
100
AcDbLine
 10
54.10203275701508
 20
557.704844131226
 30
0.0
 11
54.10203275701508
 21
560.7048441312259
 31
0.0
  0
LINE
  5
8EF
330
1E
100
AcDbEntity
  8
STEMPEL
100
AcDbLine
 10
156.2263901117191
 20
641.2048441312276
 30
0.0
 11
156.2263901117191
 21
616.2048441312276
 31
0.0
  0
LINE
  5
8F0
330
1E
100
AcDbEntity
  8
STEMPEL
100
AcDbLine
 10
143.2360090549531
 20
641.2048441312276
 30
0.0
 11
143.2360090549531
 21
616.2048441312292
 31
0.0
  0
LINE
  5
8F1
330
1E
100
AcDbEntity
  8
STEMPEL
100
AcDbLine
 10
155.7252131162769
 20
641.2048441312276
 30
0.0
 11
155.7252131162769
 21
616.2048441312276
 31
0.0
  0
LINE
  5
8F2
330
1E
100
AcDbEntity
  8
STEMPEL
100
AcDbLine
 10
113.6789872503522
 20
641.2048441312276
 30
0.0
 11
113.6789872503522
 21
616.2048441312292
 31
0.0
  0
LINE
  5
8F3
330
1E
100
AcDbEntity
  8
STEMPEL
100
AcDbLine
 10
112.8109232306632
 20
616.2048441312276
 30
0.0
 11
112.8109232306632
 21
641.2048441312292
 31
0.0
  0
LINE
  5
8F4
330
1E
100
AcDbEntity
  8
STEMPEL
100
AcDbLine
 10
106.1789872503521
 20
641.2048441312276
 30
0.0
 11
106.1789872503521
 21
616.2048441312308
 31
0.0
  0
LINE
  5
8F5
330
1E
100
AcDbEntity
  8
STEMPEL
100
AcDbLine
 10
94.10203275701508
 20
653.7047861639105
 30
0.0
 11
94.10203275701508
 21
589.7048441312265
 31
0.0
  0
LINE
  5
8F6
330
1E
100
AcDbEntity
  8
STEMPEL
100
AcDbLine
 10
95.10203275701519
 20
653.7047861639105
 30
0.0
 11
95.10203275701519
 21
589.7048441312265
 31
0.0
  0
LWPOLYLINE
  5
8F8
330
1E
100
AcDbEntity
  8
STEMPEL
100
AcDbPolyline
 90
       10
 70
   128
 43
0.0
 10
118.0334730744699
 20
583.7048441312274
 10
118.7912226995641
 20
583.7959976131542
 10
119.5259484857396
 20
584.0666884065121
 10
120.2153261617728
 20
584.5086917085209
 10
120.8384093358191
 20
585.1085774725137
 10
121.3762659409307
 20
585.8481184731084
 10
121.8125534763295
 20
586.7048441312276
 10
122.1340155660249
 20
587.6527232712738
 10
122.3308847470888
 20
588.6629550652262
 10
122.3971792490757
 20
589.7048441312279
  0
LWPOLYLINE
  5
8F9
330
1E
100
AcDbEntity
  8
STEMPEL
100
AcDbPolyline
 90
       18
 70
   128
 43
0.0
 10
-113.2657578139441
 20
596.2048441312256
 10
-113.3434977152041
 20
597.5829655148502
 10
-113.5740700798859
 20
598.9141566276298
 10
-113.9496230426511
 20
600.1530853528066
 10
-114.4573675977789
 20
601.2575614585759
 10
-115.0800131134168
 20
602.1899733358288
 10
-115.7963561433108
 20
602.91856881639
 10
-116.5820024847368
 20
603.4185364550234
 10
-117.4101978938162
 20
603.67285045344
 10
-118.2527391692039
 20
603.67285045344
 10
-119.0809345782833
 20
603.4185364550234
 10
-119.8665809197092
 20
602.91856881639
 10
-120.5829239496032
 20
602.1899733358288
 10
-121.2055694652412
 20
601.2575614585759
 10
-121.7133140203688
 20
600.1530853528066
 10
-122.0888669831339
 20
598.9141566276298
 10
-122.3194393478157
 20
597.5829655148502
 10
-122.397179249076
 20
596.2048441312256
210
0.0
220
0.0
230
-1.0
  0
ARC
  5
8FA
102
{ACAD_REACTORS
330
8CD
102
}
330
1E
100
AcDbEntity
  8
STEMPEL
100
AcDbCircle
 10
122.102032757015
 20
566.7048441312259
 30
0.0
 40
3.0
100
AcDbArc
 50
270.0
 51
90.0
  0
LINE
  5
8FB
330
1E
100
AcDbEntity
  8
STEMPEL
100
AcDbLine
 10
96.10203275701508
 20
582.7048441312266
 30
0.0
 11
88.10203275701509
 21
582.7048441312266
 31
0.0
  0
LINE
  5
8FC
330
1E
100
AcDbEntity
  8
STEMPEL
100
AcDbLine
 10
87.10203275701507
 20
581.7048441312267
 30
0.0
 11
97.10203275701509
 21
581.7048441312267
 31
0.0
  0
ARC
  5
901
330
1E
100
AcDbEntity
  8
STEMPEL
100
AcDbCircle
 10
89.10203275701519
 20
589.7048441312265
 30
0.0
 40
5.0
100
AcDbArc
 50
270.0
 51
0.0
  0
ARC
  5
902
330
1E
100
AcDbEntity
  8
STEMPEL
100
AcDbCircle
 10
89.10203275701519
 20
589.7048441312265
 30
0.0
 40
6.0
100
AcDbArc
 50
270.0
 51
0.0
  0
ARC
  5
904
102
{ACAD_REACTORS
330
8CD
102
}
330
1E
100
AcDbEntity
  8
STEMPEL
100
AcDbCircle
 10
62.10203275701508
 20
566.7048441312259
 30
0.0
 40
3.0
100
AcDbArc
 50
90.0
 51
270.0
  0
LINE
  5
905
102
{ACAD_REACTORS
330
8CD
102
}
330
1E
100
AcDbEntity
  8
STEMPEL
100
AcDbLine
 10
85.10203275701508
 20
569.7048441312258
 30
0.0
 11
85.10203275701508
 21
563.7048441312259
 31
0.0
  0
LINE
  5
906
330
1E
100
AcDbEntity
  8
STEMPEL
100
AcDbLine
 10
87.10203275701507
 20
569.704844131226
 30
0.0
 11
87.10203275701507
 21
557.7048441312268
 31
0.0
  0
LINE
  5
907
330
1E
100
AcDbEntity
  8
HILF
100
AcDbLine
 10
88.10203275701509
 20
569.7048441312258
 30
0.0
 11
88.10203275701509
 21
557.7048441312268
 31
0.0
  0
LINE
  5
908
102
{ACAD_REACTORS
330
DA5
102
}
330
1E
100
AcDbEntity
  8
STEMPEL
100
AcDbLine
 10
85.10203275701508
 20
560.7048441312258
 30
0.0
 11
85.10203275701508
 21
557.7048441312268
 31
0.0
  0
LINE
  5
909
330
1E
100
AcDbEntity
  8
STEMPEL
100
AcDbLine
 10
74.10203275701508
 20
584.704844131226
 30
0.0
 11
89.10203275701531
 21
584.7048441312265
 31
0.0
  0
LINE
  5
90A
330
1E
100
AcDbEntity
  8
STEMPEL
100
AcDbLine
 10
74.10203275701497
 20
584.7048441312263
 30
0.0
 11
74.10203275701485
 21
583.704844131226
 31
0.0
  0
LINE
  5
910
330
1E
100
AcDbEntity
  8
HILF
100
AcDbLine
 10
88.10203275701509
 20
582.7048441312266
 30
0.0
 11
88.10203275701509
 21
579.7048441312259
 31
0.0
  0
LINE
  5
911
330
1E
100
AcDbEntity
  8
STEMPEL
100
AcDbLine
 10
87.10203275701507
 20
581.7048441312266
 30
0.0
 11
87.10203275701507
 21
579.7048441312258
 31
0.0
  0
LINE
  5
912
330
1E
100
AcDbEntity
  8
STEMPEL
100
AcDbLine
 10
88.10203275701509
 20
582.7048441312266
 30
0.0
 11
87.10203275701507
 21
581.7048441312266
 31
0.0
  0
LWPOLYLINE
  5
913
330
1E
100
AcDbEntity
  8
STEMPEL
100
AcDbPolyline
 90
       10
 70
   128
 43
0.0
 10
89.80573126701973
 20
583.7048441312285
 10
90.66380426329249
 20
583.7709713458012
 10
91.51661646291485
 20
584.0235250955315
 10
92.33737476983185
 20
584.4545708118491
 10
93.10029313623079
 20
585.0505661822889
 10
93.78140269173002
 20
585.7927866140096
 10
94.35930478167563
 20
586.657913510807
 10
94.81584325608185
 20
587.6187668815231
 10
95.13667488767953
 20
588.6451592632353
 10
95.31171999805053
 20
589.7048441312279
  0
LWPOLYLINE
  5
914
330
1E
100
AcDbEntity
  8
STEMPEL
100
AcDbPolyline
 90
        7
 70
   128
 43
0.0
 10
93.65537498414244
 20
584.7048441312279
 10
94.3320768592199
 20
585.3144448590869
 10
94.9316262828537
 20
586.0420039429986
 10
95.4379149560035
 20
586.8679738046788
 10
95.83734024804892
 20
587.7701628298819
 10
96.11917066331182
 20
588.7243315980756
 10
96.27583416781329
 20
589.7048441312279
  0
LWPOLYLINE
  5
915
330
1E
100
AcDbEntity
  8
STEMPEL
100
AcDbPolyline
 90
       10
 70
   128
 43
0.0
 10
95.95234261821053
 20
583.7048441312274
 10
96.78852189305201
 20
583.7959976131542
 10
97.5992942837546
 20
584.0666884065121
 10
98.36002488149745
 20
584.5086917085209
 10
99.04759927201633
 20
585.1085774725137
 10
99.64112585538476
 20
585.8481184731084
 10
100.1225706267058
 20
586.7048441312276
 10
100.4773051302262
 20
587.6527232712738
 10
100.6945509375604
 20
588.6629550652262
 10
100.7677071447844
 20
589.7048441312279
  0
LWPOLYLINE
  5
916
330
1E
100
AcDbEntity
  8
STEMPEL
100
AcDbPolyline
 90
       10
 70
   128
 43
0.0
 10
91.7636241503202
 20
583.7048441312274
 10
92.62169714659297
 20
583.7709713458001
 10
93.47450934621532
 20
584.0235250955304
 10
94.29526765313232
 20
584.4545708118479
 10
95.05818601953127
 20
585.0505661822878
 10
95.73929557503049
 20
585.7927866140085
 10
96.3171976649761
 20
586.6579135108058
 10
96.77373613938232
 20
587.6187668815219
 10
97.09456777098001
 20
588.6451592632341
 10
97.269612881351
 20
589.7048441312267
  0
LWPOLYLINE
  5
917
330
1E
100
AcDbEntity
  8
STEMPEL
100
AcDbPolyline
 90
        7
 70
   128
 43
0.0
 10
119.6503815337367
 20
584.7048441312274
 10
120.2123105070008
 20
585.3141820330684
 10
120.6942484465879
 20
586.0416123063576
 10
121.0832330263378
 20
586.8675698003012
 10
121.3688020174444
 20
587.7698393507635
 10
121.5432746832401
 20
588.7241532850068
 10
121.6019583622552
 20
589.7048441312279
  0
LWPOLYLINE
  5
918
330
1E
100
AcDbEntity
  8
STEMPEL
100
AcDbPolyline
 90
        7
 70
   128
 43
0.0
 10
103.4283326610863
 20
584.7048441312274
 10
104.0484231841507
 20
585.3141820330684
 10
104.5802433309339
 20
586.0416123063576
 10
105.0094891306652
 20
586.8675698003012
 10
105.3246154784625
 20
587.7698393507635
 10
105.5171466554285
 20
588.7241532850067
 10
105.5819042937547
 20
589.7048441312279
  0
LWPOLYLINE
  5
919
330
1E
100
AcDbEntity
  8
STEMPEL
100
AcDbPolyline
 90
       10
 70
   128
 43
0.0
 10
101.6925941036883
 20
583.7048441312274
 10
102.5287733785297
 20
583.7959976131542
 10
103.3395457692323
 20
584.0666884065121
 10
104.1002763669752
 20
584.5086917085209
 10
104.7878507574941
 20
585.1085774725137
 10
105.3813773408625
 20
585.8481184731084
 10
105.8628221121836
 20
586.7048441312276
 10
106.217556615704
 20
587.6527232712738
 10
106.4348024230381
 20
588.6629550652262
 10
106.5079586302621
 20
589.7048441312279
  0
LWPOLYLINE
  5
91A
330
1E
100
AcDbEntity
  8
STEMPEL
100
AcDbPolyline
 90
       10
 70
   128
 43
0.0
 10
108.9020516393381
 20
583.7048441312274
 10
109.6598012644323
 20
583.7959976131542
 10
110.3945270506077
 20
584.0666884065121
 10
111.083904726641
 20
584.5086917085209
 10
111.7069879006873
 20
585.1085774725137
 10
112.2448445057988
 20
585.8481184731084
 10
112.6811320411976
 20
586.7048441312276
 10
113.002594130893
 20
587.6527232712738
 10
113.1994633119569
 20
588.6629550652262
 10
113.2657578139439
 20
589.7048441312279
  0
LINE
  5
91B
330
1E
100
AcDbEntity
  8
MITTEL
100
AcDbLine
 10
92.10203275701507
 20
587.7048441312267
 30
0.0
 11
92.10203275701507
 21
557.7048441312268
 31
0.0
  0
LINE
  5
91C
102
{ACAD_REACTORS
330
8CD
102
}
330
1E
100
AcDbEntity
  8
STEMPEL
100
AcDbLine
 10
99.10203275701508
 20
569.7048441312261
 30
0.0
 11
99.1020327570151
 21
563.7048441312258
 31
0.0
  0
LINE
  5
91D
330
1E
100
AcDbEntity
  8
HILF
100
AcDbLine
 10
96.10203275701508
 20
569.7048441312258
 30
0.0
 11
96.10203275701508
 21
557.7048441312268
 31
0.0
  0
LINE
  5
91E
330
1E
100
AcDbEntity
  8
STEMPEL
100
AcDbLine
 10
97.10203275701509
 20
569.704844131226
 30
0.0
 11
97.10203275701509
 21
557.7048441312268
 31
0.0
  0
LINE
  5
91F
102
{ACAD_REACTORS
330
DA5
102
}
330
1E
100
AcDbEntity
  8
STEMPEL
100
AcDbLine
 10
99.10203275701508
 20
560.7048441312259
 30
0.0
 11
99.10203275701508
 21
557.7048441312268
 31
0.0
  0
LINE
  5
923
330
1E
100
AcDbEntity
  8
STEMPEL
100
AcDbLine
 10
92.69126081437992
 20
584.7048441312274
 30
0.0
 11
93.65537498414267
 21
584.7048441312274
 31
0.0
  0
LINE
  5
924
330
1E
100
AcDbEntity
  8
HILF
100
AcDbLine
 10
96.10203275701508
 20
582.7048441312266
 30
0.0
 11
96.10203275701508
 21
579.7048441312259
 31
0.0
  0
LINE
  5
925
330
1E
100
AcDbEntity
  8
STEMPEL
100
AcDbLine
 10
97.10203275701509
 20
581.7048441312266
 30
0.0
 11
97.10203275701507
 21
579.7048441312258
 31
0.0
  0
LINE
  5
926
330
1E
100
AcDbEntity
  8
STEMPEL
100
AcDbLine
 10
97.10203275701509
 20
581.7048441312266
 30
0.0
 11
96.10203275701508
 21
582.7048441312266
 31
0.0
  0
LINE
  5
929
330
1E
100
AcDbEntity
  8
STEMPEL
100
AcDbLine
 10
98.61413551211592
 20
584.7048441312274
 30
0.0
 11
103.4283326610872
 21
584.7048441312274
 31
0.0
  0
LINE
  5
92A
330
1E
100
AcDbEntity
  8
STEMPEL
100
AcDbLine
 10
111.3141809854254
 20
584.7048441312274
 30
0.0
 11
119.6503815337374
 21
584.7048441312274
 31
0.0
  0
LWPOLYLINE
  5
92B
330
1E
100
AcDbEntity
  8
STEMPEL
100
AcDbPolyline
 90
       18
 70
   128
 43
0.0
 10
-100.7677071447844
 20
596.2048441312256
 10
-100.8165764897006
 20
597.5829655148502
 10
-100.9615203375207
 20
598.9141566276298
 10
-101.1976027993479
 20
600.1530853528066
 10
-101.5167843700948
 20
601.2575614585759
 10
-101.908195704185
 20
602.1899733358288
 10
-102.3585077580829
 20
602.91856881639
 10
-102.8523856948824
 20
603.4185364550234
 10
-103.3730110937873
 20
603.67285045344
 10
-103.9026546812591
 20
603.67285045344
 10
-104.4232800801641
 20
603.4185364550234
 10
-104.9171580169635
 20
602.91856881639
 10
-105.3674700708615
 20
602.1899733358288
 10
-105.7588814049519
 20
601.2575614585759
 10
-106.0780629756985
 20
600.1530853528066
 10
-106.3141454375257
 20
598.9141566276298
 10
-106.4590892853458
 20
597.5829655148502
 10
-106.5079586302621
 20
596.2048441312256
210
0.0
220
0.0
230
-1.0
  0
LWPOLYLINE
  5
92C
330
1E
100
AcDbEntity
  8
STEMPEL
100
AcDbPolyline
 90
        7
 70
   128
 43
0.0
 10
-95.79377708293179
 20
602.6668981870654
 10
-95.93160609250196
 20
601.914791950127
 10
-96.05047036946814
 20
600.9920783394122
 10
-96.14681837136949
 20
599.9263270895079
 10
-96.2177713189077
 20
598.7493817526868
 10
-96.26120921091558
 20
597.4964082462849
 10
-96.27583416781305
 20
596.2048441312256
210
0.0
220
0.0
230
-1.0
  0
LWPOLYLINE
  5
92D
330
1E
100
AcDbEntity
  8
STEMPEL
100
AcDbPolyline
 90
       18
 70
   128
 43
0.0
 10
-95.31171999805053
 20
596.2048441312256
 10
-95.3283884215274
 20
597.5829655148502
 10
-95.37782606878783
 20
598.9141566276298
 10
-95.45834940004818
 20
600.1530853528066
 10
-95.56721628983984
 20
601.2575614585759
 10
-95.70071940680225
 20
602.1899733358288
 10
-95.85431246240625
 20
602.91856881639
 10
-96.02276502935831
 20
603.4185364550234
 10
-96.20034065752737
 20
603.67285045344
 10
-96.38099222187442
 20
603.67285045344
 10
-96.55856785004324
 20
603.4185364550234
 10
-96.7270204169953
 20
602.91856881639
 10
-96.88061347259953
 20
602.1899733358288
 10
-97.01411658956169
 20
601.2575614585759
 10
-97.12298347935337
 20
600.1530853528066
 10
-97.20350681061393
 20
598.9141566276298
 10
-97.25294445787438
 20
597.5829655148502
 10
-97.269612881351
 20
596.2048441312256
210
0.0
220
0.0
230
-1.0
  0
LINE
  5
92E
330
1E
100
AcDbEntity
  8
STEMPEL
100
AcDbLine
 10
97.269612881351
 20
596.2048441312256
 30
0.0
 11
97.269612881351
 21
589.7048441312267
 31
0.0
  0
LINE
  5
92F
330
1E
100
AcDbEntity
  8
STEMPEL
100
AcDbLine
 10
96.27583416781329
 20
596.2048441312256
 30
0.0
 11
96.27583416781329
 21
589.7048441312279
 31
0.0
  0
LINE
  5
930
330
1E
100
AcDbEntity
  8
STEMPEL
100
AcDbLine
 10
95.31171999805053
 20
596.2048441312256
 30
0.0
 11
95.31171999805053
 21
589.7048441312279
 31
0.0
  0
LINE
  5
931
330
1E
100
AcDbEntity
  8
STEMPEL
100
AcDbLine
 10
94.10203275701485
 20
608.7048441312273
 30
0.0
 11
95.10203275701508
 21
608.7048441312273
 31
0.0
  0
LWPOLYLINE
  5
932
330
1E
100
AcDbEntity
  8
STEMPEL
100
AcDbPolyline
 90
        9
 70
   128
 43
0.0
 10
-103.1748057192714
 20
603.6066023758908
 10
-103.6638662625399
 20
603.2801694781333
 10
-104.1234792304409
 20
602.7349004648762
 10
-104.5394290340651
 20
601.9876602217481
 10
-104.8988505633568
 20
601.0615604989705
 10
-105.1906270982443
 20
599.9852450770004
 10
-105.4057341429824
 20
598.7920038293695
 10
-105.5375185490899
 20
597.5187430842936
 10
-105.5819042937547
 20
596.2048441312272
210
0.0
220
0.0
230
-1.0
  0
LINE
  5
933
330
1E
100
AcDbEntity
  8
STEMPEL
100
AcDbLine
 10
100.7677071447844
 20
596.2048441312256
 30
0.0
 11
100.7677071447844
 21
589.704844131229
 31
0.0
  0
LINE
  5
934
330
1E
100
AcDbEntity
  8
STEMPEL
100
AcDbLine
 10
105.581904293755
 20
596.2048441312256
 30
0.0
 11
105.581904293755
 21
589.704844131229
 31
0.0
  0
ELLIPSE
  5
935
330
1E
100
AcDbEntity
  8
STEMPEL
100
AcDbEllipse
 10
109.9289872503522
 20
616.2048441312292
 30
0.0
 11
0.0
 21
-7.499999999999999
 31
0.0
210
0.0
220
0.0
230
-1.0
 40
0.4999999999999926
 41
4.712388980384689
 42
7.853981633974482
  0
ELLIPSE
  5
936
330
1E
100
AcDbEntity
  8
STEMPEL
100
AcDbEllipse
 10
109.0609232306632
 20
616.2048441312292
 30
0.0
 11
0.0
 21
-7.499999999999999
 31
0.0
210
0.0
220
0.0
230
-1.0
 40
0.4999999999999926
 41
4.712388980384689
 42
6.167183451052224
  0
LINE
  5
937
330
1E
100
AcDbEntity
  8
STEMPEL
100
AcDbLine
 10
106.5079586302621
 20
596.2048441312256
 30
0.0
 11
106.5079586302621
 21
589.704844131229
 31
0.0
  0
LINE
  5
938
330
1E
100
AcDbEntity
  8
STEMPEL
100
AcDbLine
 10
113.2657578139439
 20
596.2048441312256
 30
0.0
 11
113.2657578139439
 21
589.704844131229
 31
0.0
  0
LWPOLYLINE
  5
939
330
1E
100
AcDbEntity
  8
STEMPEL
100
AcDbPolyline
 90
       10
 70
   128
 43
0.0
 10
-117.036247644689
 20
603.7048441312289
 10
-117.8290749905487
 20
603.5909022788204
 10
-118.5978126786944
 20
603.252538787123
 10
-119.3191030034719
 20
602.7000346596119
 10
-119.9710299233535
 20
601.9501774546207
 10
-120.533784968769
 20
601.0257512038773
 10
-120.990269112432
 20
599.9548441312281
 10
-121.3266123146287
 20
598.7699952061703
 10
-121.5325949573588
 20
597.5072054637295
 10
-121.601958362255
 20
596.2048441312272
210
0.0
220
0.0
230
-1.0
  0
LINE
  5
93A
330
1E
100
AcDbEntity
  8
STEMPEL
100
AcDbLine
 10
121.601958362255
 20
596.2048441312256
 30
0.0
 11
121.601958362255
 21
589.704844131229
 31
0.0
  0
LWPOLYLINE
  5
940
330
1E
100
AcDbEntity
  8
STEMPEL
100
AcDbPolyline
 90
       10
 70
   128
 43
0.0
 10
152.8369588170686
 20
583.7048441312274
 10
153.3096887748221
 20
583.7959976131542
 10
153.7680550720223
 20
584.0666884065121
 10
154.198130480673
 20
584.5086917085209
 10
154.5868473771114
 20
585.1085774725137
 10
154.922394795139
 20
585.8481184731084
 10
155.1945772962546
 20
586.7048441312276
 10
155.3951247528926
 20
587.6527232712738
 10
155.5179436320651
 20
588.6629550652262
 10
155.5593021442777
 20
589.7048441312279
  0
LINE
  5
941
330
1E
100
AcDbEntity
  8
STEMPEL
100
AcDbLine
 10
154.3417907115484
 20
584.7048441312274
 30
0.0
 11
167.8163994335428
 21
584.7048441312274
 31
0.0
  0
ELLIPSE
  5
942
330
1E
100
AcDbEntity
  8
STEMPEL
100
AcDbEllipse
 10
149.731199583336
 20
616.2048441312276
 30
0.0
 11
0.0
 21
-7.5
 31
0.0
210
0.0
220
0.0
230
-1.0
 40
0.8660254037843856
 41
4.712388980384689
 42
7.853981633974482
  0
ELLIPSE
  5
943
330
1E
100
AcDbEntity
  8
STEMPEL
100
AcDbEllipse
 10
149.230022587894
 20
616.2048441312276
 30
0.0
 11
0.0
 21
-7.5
 31
0.0
210
0.0
220
0.0
230
-1.0
 40
0.8660254037843856
 41
4.712388980384689
 42
6.24459510668465
  0
LWPOLYLINE
  5
948
330
1E
100
AcDbEntity
  8
STEMPEL
100
AcDbPolyline
 90
       10
 70
   128
 43
0.0
 10
128.2915473709034
 20
583.7048441312274
 10
128.9275517309043
 20
583.7959976131542
 10
129.5442314202604
 20
584.0666884065121
 10
130.1228489386655
 20
584.5086917085209
 10
130.6458232856174
 20
585.1085774725137
 10
131.0972641502218
 20
585.8481184731084
 10
131.4634547302479
 20
586.7048441312276
 10
131.7332685102227
 20
587.6527232712738
 10
131.8985073349744
 20
588.6629550652262
 10
131.9541505064275
 20
589.7048441312279
  0
LWPOLYLINE
  5
949
330
1E
100
AcDbEntity
  8
STEMPEL
100
AcDbPolyline
 90
       10
 70
   128
 43
0.0
 10
140.1918474752723
 20
583.7048441312274
 10
140.8278518352732
 20
583.7959976131542
 10
141.4445315246292
 20
584.0666884065121
 10
142.0231490430343
 20
584.5086917085209
 10
142.5461233899863
 20
585.1085774725137
 10
142.9975642545906
 20
585.8481184731084
 10
143.3637548346167
 20
586.7048441312276
 10
143.6335686145915
 20
587.6527232712738
 10
143.7988074393432
 20
588.6629550652262
 10
143.8544506107963
 20
589.7048441312279
  0
LWPOLYLINE
  5
94A
330
1E
100
AcDbEntity
  8
STEMPEL
100
AcDbPolyline
 90
        7
 70
   128
 43
0.0
 10
141.6062330868286
 20
584.7048441312274
 10
142.0778786873956
 20
585.3141820330684
 10
142.4823851637783
 20
586.0416123063576
 10
142.8088728062674
 20
586.8675698003012
 10
143.0485603196756
 20
587.7698393507635
 10
143.1950010073015
 20
588.7241532850068
 10
143.244256162934
 20
589.7048441312279
  0
LINE
  5
94B
330
1E
100
AcDbEntity
  8
MITTEL
100
AcDbLine
 10
148.1020327570152
 20
587.7048441312265
 30
0.0
 11
148.1020327570152
 21
557.7048441312265
 31
0.0
  0
LINE
  5
94D
330
1E
100
AcDbEntity
  8
STEMPEL
100
AcDbLine
 10
130.3161274303221
 20
584.7048441312274
 30
0.0
 11
141.6062330868293
 21
584.7048441312274
 31
0.0
  0
LINE
  5
951
102
{ACAD_REACTORS
330
DA5
102
}
330
1E
100
AcDbEntity
  8
STEMPEL
100
AcDbLine
 10
124.1020327570151
 20
557.704844131226
 30
0.0
 11
124.1020327570151
 21
560.7048441312259
 31
0.0
  0
LINE
  5
954
330
1E
100
AcDbEntity
  8
STEMPEL
100
AcDbLine
 10
143.1020327570152
 20
563.7048441312258
 30
0.0
 11
143.1020327570152
 21
560.7048441312261
 31
0.0
  0
LINE
  5
955
330
1E
100
AcDbEntity
  8
HILF
100
AcDbLine
 10
144.1020327570151
 20
563.7048441312258
 30
0.0
 11
144.1020327570152
 21
560.7048441312261
 31
0.0
  0
LINE
  5
956
330
1E
100
AcDbEntity
  8
HILF
100
AcDbLine
 10
152.1020327570151
 20
563.7048441312258
 30
0.0
 11
152.1020327570152
 21
560.7048441312261
 31
0.0
  0
LINE
  5
957
330
1E
100
AcDbEntity
  8
STEMPEL
100
AcDbLine
 10
153.1020327570152
 20
563.7048441312258
 30
0.0
 11
153.1020327570152
 21
560.7048441312261
 31
0.0
  0
LINE
  5
958
330
1E
100
AcDbEntity
  8
STEMPEL
100
AcDbLine
 10
143.1020327570153
 20
581.7048441312266
 30
0.0
 11
153.1020327570151
 21
581.7048441312266
 31
0.0
  0
LINE
  5
959
330
1E
100
AcDbEntity
  8
STEMPEL
100
AcDbLine
 10
152.1020327570152
 20
582.7048441312264
 30
0.0
 11
144.1020327570152
 21
582.7048441312265
 31
0.0
  0
LINE
  5
960
330
1E
100
AcDbEntity
  8
STEMPEL
100
AcDbLine
 10
143.1020327570152
 20
581.7048441312265
 30
0.0
 11
143.1020327570152
 21
579.704844131226
 31
0.0
  0
LINE
  5
961
330
1E
100
AcDbEntity
  8
HILF
100
AcDbLine
 10
144.1020327570152
 20
582.7048441312265
 30
0.0
 11
144.1020327570151
 21
579.704844131226
 31
0.0
  0
LINE
  5
962
330
1E
100
AcDbEntity
  8
STEMPEL
100
AcDbLine
 10
144.1020327570152
 20
582.7048441312265
 30
0.0
 11
143.1020327570152
 21
581.7048441312265
 31
0.0
  0
LINE
  5
964
330
1E
100
AcDbEntity
  8
STEMPEL
100
AcDbLine
 10
153.1020327570152
 20
581.7048441312264
 30
0.0
 11
153.1020327570152
 21
579.704844131226
 31
0.0
  0
LINE
  5
965
330
1E
100
AcDbEntity
  8
HILF
100
AcDbLine
 10
152.1020327570152
 20
582.7048441312264
 30
0.0
 11
152.1020327570152
 21
579.704844131226
 31
0.0
  0
LINE
  5
966
330
1E
100
AcDbEntity
  8
STEMPEL
100
AcDbLine
 10
153.1020327570152
 20
581.7048441312264
 30
0.0
 11
152.1020327570152
 21
582.7048441312264
 31
0.0
  0
LWPOLYLINE
  5
967
330
1E
100
AcDbEntity
  8
STEMPEL
100
AcDbPolyline
 90
       18
 70
   128
 43
0.0
 10
-131.9541505064275
 20
596.2048441312256
 10
-132.0554631182318
 20
597.5829655148502
 10
-132.355950874161
 20
598.9141566276298
 10
-132.8453810240822
 20
600.1530853528066
 10
-133.5070866112465
 20
601.2575614585759
 10
-134.3185340455117
 20
602.1899733358288
 10
-135.2520904577273
 20
602.91856881639
 10
-136.2759647039535
 20
603.4185364550234
 10
-137.3552899747363
 20
603.67285045344
 10
-138.4533111424874
 20
603.67285045344
 10
-139.5326364132701
 20
603.4185364550234
 10
-140.5565106594962
 20
602.91856881639
 10
-141.4900670717119
 20
602.1899733358288
 10
-142.301514505977
 20
601.2575614585759
 10
-142.9632200931415
 20
600.1530853528066
 10
-143.4526502430627
 20
598.9141566276298
 10
-143.753137998992
 20
597.5829655148502
 10
-143.8544506107963
 20
596.2048441312256
210
0.0
220
0.0
230
-1.0
  0
LWPOLYLINE
  5
968
330
1E
100
AcDbEntity
  8
STEMPEL
100
AcDbPolyline
 90
        9
 70
   128
 43
0.0
 10
-137.5992033346923
 20
603.6949782090494
 10
-138.7156110560635
 20
603.4876710726422
 10
-139.7808903078058
 20
603.0184163451885
 10
-140.7567252908442
 20
602.3040921080199
 10
-141.608017323702
 20
601.3703910646235
 10
-142.3041472664384
 20
600.2508964294632
 10
-142.8200768251298
 20
598.9858740121244
 10
-143.1372491253458
 20
597.6208239429151
 10
-143.244256162934
 20
596.2048441312272
210
0.0
220
0.0
230
-1.0
  0
LINE
  5
969
330
1E
100
AcDbEntity
  8
STEMPEL
100
AcDbLine
 10
122.3971792490757
 20
596.2048441312256
 30
0.0
 11
122.3971792490757
 21
589.704844131229
 31
0.0
  0
LINE
  5
96A
330
1E
100
AcDbEntity
  8
STEMPEL
100
AcDbLine
 10
131.9541505064275
 20
596.2048441312256
 30
0.0
 11
131.9541505064275
 21
589.704844131229
 31
0.0
  0
LINE
  5
96B
330
1E
100
AcDbEntity
  8
STEMPEL
100
AcDbLine
 10
143.244256162934
 20
596.2048441312256
 30
0.0
 11
143.244256162934
 21
589.704844131229
 31
0.0
  0
LINE
  5
96C
330
1E
100
AcDbEntity
  8
STEMPEL
100
AcDbLine
 10
143.8544506107963
 20
596.2048441312256
 30
0.0
 11
143.8544506107963
 21
589.704844131229
 31
0.0
  0
LINE
  5
96D
330
1E
100
AcDbEntity
  8
STEMPEL
100
AcDbLine
 10
182.1778373061687
 20
585.9273466164053
 30
0.0
 11
182.1778373061687
 21
584.7048441312263
 31
0.0
  0
LWPOLYLINE
  5
96E
330
1E
100
AcDbEntity
  8
STEMPEL
100
AcDbPolyline
 90
       10
 70
   128
 43
0.0
 10
181.1609859162205
 20
583.7048441312274
 10
181.388738479089
 20
583.7959976131542
 10
181.6095708955833
 20
584.0666884065121
 10
181.8167732844744
 20
584.5086917085209
 10
182.0040499060256
 20
585.1085774725137
 10
182.1657104548575
 20
585.8481184731084
 10
182.2968429569981
 20
586.7048441312276
 10
182.393463017726
 20
587.6527232712738
 10
182.4526348853884
 20
588.6629550652262
 10
182.4725606527282
 20
589.7048441312279
  0
LWPOLYLINE
  5
96F
330
1E
100
AcDbEntity
  8
STEMPEL
100
AcDbPolyline
 90
        7
 70
   128
 43
0.0
 10
167.8163994335424
 20
584.7048441312274
 10
168.1669646479544
 20
585.3141820330684
 10
168.4676266268931
 20
586.0416123063576
 10
168.7102986888277
 20
586.8675698003012
 10
168.8884538638762
 20
587.7698393507635
 10
168.9973004448567
 20
588.7241532850067
 10
169.0339108662716
 20
589.7048441312279
  0
LWPOLYLINE
  5
970
330
1E
100
AcDbEntity
  8
STEMPEL
100
AcDbPolyline
 90
       10
 70
   128
 43
0.0
 10
166.6951518047395
 20
583.7048441312274
 10
167.167881762493
 20
583.7959976131542
 10
167.6262480596932
 20
584.0666884065121
 10
168.056323468344
 20
584.5086917085209
 10
168.4450403647823
 20
585.1085774725137
 10
168.7805877828099
 20
585.8481184731084
 10
169.0527702839255
 20
586.7048441312276
 10
169.2533177405636
 20
587.6527232712738
 10
169.376136619736
 20
588.6629550652262
 10
169.4174951319486
 20
589.7048441312279
  0
ARC
  5
973
330
1E
100
AcDbEntity
  8
STEMPEL
100
AcDbCircle
 10
175.5199800815953
 20
574.7048441312261
 30
0.0
 40
5.0
100
AcDbArc
 50
270.0
 51
358.9999999999998
  0
LINE
  5
974
330
1E
100
AcDbEntity
  8
STEMPEL
100
AcDbLine
 10
180.5192185573772
 20
574.6175820990397
 30
0.0
 11
180.6778373061687
 21
583.7048441312259
 31
0.0
  0
LWPOLYLINE
  5
975
330
1E
100
AcDbEntity
  8
STEMPEL
100
AcDbPolyline
 90
       18
 70
   128
 43
0.0
 10
-155.5593021442777
 20
596.2048441312256
 10
-155.6772831795587
 20
597.5829655148502
 10
-156.0272085827483
 20
598.9141566276298
 10
-156.5971620639301
 20
600.1530853528066
 10
-157.3677345408863
 20
601.2575614585759
 10
-158.3126850921138
 20
602.1899733358288
 10
-159.399834559934
 20
602.91856881639
 10
-160.5921613731121
 20
603.4185364550234
 10
-161.8490622720638
 20
603.67285045344
 10
-163.1277350041622
 20
603.67285045344
 10
-164.3846359031141
 20
603.4185364550234
 10
-165.5769627162923
 20
602.91856881639
 10
-166.6641121841125
 20
602.1899733358288
 10
-167.60906273534
 20
601.2575614585759
 10
-168.379635212296
 20
600.1530853528066
 10
-168.9495886934777
 20
598.9141566276298
 10
-169.2995140966674
 20
597.5829655148502
 10
-169.4174951319486
 20
596.2048441312256
210
0.0
220
0.0
230
-1.0
  0
LWPOLYLINE
  5
976
330
1E
100
AcDbEntity
  8
STEMPEL
100
AcDbPolyline
 90
        9
 70
   128
 43
0.0
 10
-162.2966065053011
 20
603.7019705542657
 10
-163.620815955631
 20
603.523137647218
 10
-164.888795352817
 20
603.0728617298938
 10
-166.0535140409028
 20
602.3678439977547
 10
-167.0717714095093
 20
601.4342342813712
 10
-167.9057992487716
 20
600.3066611223951
 10
-168.5246626109655
 20
599.0269473654432
 10
-168.9054072194398
 20
597.6425589059078
 10
-169.0339108662716
 20
596.2048441312272
210
0.0
220
0.0
230
-1.0
  0
LINE
  5
977
330
1E
100
AcDbEntity
  8
STEMPEL
100
AcDbLine
 10
155.5593021442777
 20
596.2048441312256
 30
0.0
 11
155.5593021442777
 21
589.704844131229
 31
0.0
  0
LINE
  5
978
330
1E
100
AcDbEntity
  8
STEMPEL
100
AcDbLine
 10
169.0339108662716
 20
596.2048441312256
 30
0.0
 11
169.0339108662716
 21
589.704844131229
 31
0.0
  0
LINE
  5
979
330
1E
100
AcDbEntity
  8
STEMPEL
100
AcDbLine
 10
169.4174951319486
 20
596.204844131224
 30
0.0
 11
169.4174951319486
 21
589.704844131229
 31
0.0
  0
ARC
  5
97A
330
1E
100
AcDbEntity
  8
STEMPEL
100
AcDbCircle
 10
184.0370839241947
 20
588.1246891453472
 30
0.0
 40
2.247898356545996
100
AcDbArc
 50
52.11936428281948
 51
121.4691945163676
  0
LINE
  5
97B
330
1E
100
AcDbEntity
  8
STEMPEL
100
AcDbLine
 10
182.6568327968701
 20
589.9225969204232
 30
0.0
 11
182.8635909286555
 21
590.0419687834666
 31
0.0
  0
LINE
  5
97C
330
1E
100
AcDbEntity
  8
STEMPEL
100
AcDbLine
 10
182.6568327968701
 20
589.9225969204232
 30
0.0
 11
182.6568327968701
 21
586.3048441312264
 31
0.0
  0
LINE
  5
97D
330
1E
100
AcDbEntity
  8
STEMPEL
100
AcDbLine
 10
182.4725606527282
 20
596.2048441312272
 30
0.0
 11
182.4725606527282
 21
589.704844131229
 31
0.0
  0
LINE
  5
97E
330
1E
100
AcDbEntity
  8
STEMPEL
100
AcDbLine
 10
185.4173350515194
 20
589.8989365482989
 30
0.0
 11
185.4173350515194
 21
586.3048441312264
 31
0.0
  0
ARC
  5
97F
330
1E
100
AcDbEntity
  8
STEMPEL
100
AcDbCircle
 10
124.1020327570151
 20
667.7048441312256
 30
0.0
 40
5.0
100
AcDbArc
 50
90.0
 51
120.5373500482991
  0
ARC
  5
980
330
1E
100
AcDbEntity
  8
STEMPEL
100
AcDbCircle
 10
124.1020327570151
 20
667.7048441312256
 30
0.0
 40
6.0
100
AcDbArc
 50
90.0
 51
120.5128743276203
  0
LINE
  5
981
330
1E
100
AcDbEntity
  8
STEMPEL
100
AcDbLine
 10
97.06933813530724
 20
658.8819246912694
 30
0.0
 11
121.0556410107741
 21
672.873934701958
 31
0.0
  0
LINE
  5
982
330
1E
100
AcDbEntity
  8
STEMPEL
100
AcDbLine
 10
97.58267918888805
 20
658.0236815781067
 30
0.0
 11
121.5615330818392
 21
672.0113347442922
 31
0.0
  0
ARC
  5
983
330
1E
100
AcDbEntity
  8
STEMPEL
100
AcDbCircle
 10
100.1020327570152
 20
653.7047861639105
 30
0.0
 40
5.0
100
AcDbArc
 50
120.2564164748172
 51
180.0
  0
ARC
  5
984
330
1E
100
AcDbEntity
  8
STEMPEL
100
AcDbCircle
 10
100.1020327570152
 20
653.7047861639105
 30
0.0
 40
6.0
100
AcDbArc
 50
120.2564164748172
 51
180.0
  0
LINE
  5
985
330
1E
100
AcDbEntity
  8
STEMPEL
100
AcDbLine
 10
94.10203275701508
 20
648.7048441312273
 30
0.0
 11
95.10203275701508
 21
648.7048441312273
 31
0.0
  0
ARC
  5
986
330
1E
100
AcDbEntity
  8
STEMPEL
100
AcDbCircle
 10
94.59088915270355
 20
663.2246811136878
 30
0.0
 40
5.0
100
AcDbArc
 50
300.0670458384836
 51
300.2564371635279
  0
ELLIPSE
  5
987
330
1E
100
AcDbEntity
  8
STEMPEL
100
AcDbEllipse
 10
109.0609232306632
 20
641.2048441312276
 30
0.0
 11
0.0
 21
7.499999999999999
 31
0.0
210
0.0
220
0.0
230
1.0
 40
0.4999999999999926
 41
4.712388980384689
 42
6.167183451052224
  0
ELLIPSE
  5
988
330
1E
100
AcDbEntity
  8
STEMPEL
100
AcDbEllipse
 10
109.9289872503522
 20
641.2048441312276
 30
0.0
 11
0.0
 21
7.499999999999999
 31
0.0
210
0.0
220
0.0
230
1.0
 40
0.4999999999999926
 41
4.712388980384689
 42
7.853981633974482
  0
ELLIPSE
  5
989
330
1E
100
AcDbEntity
  8
STEMPEL
100
AcDbEllipse
 10
149.731199583336
 20
641.2048441312276
 30
0.0
 11
0.0
 21
7.5
 31
0.0
210
0.0
220
0.0
230
1.0
 40
0.8660254037843856
 41
4.712388980384689
 42
7.853981633974482
  0
ELLIPSE
  5
98A
330
1E
100
AcDbEntity
  8
STEMPEL
100
AcDbEllipse
 10
149.230022587894
 20
641.2048441312276
 30
0.0
 11
0.0
 21
7.5
 31
0.0
210
0.0
220
0.0
230
1.0
 40
0.8660254037843856
 41
4.712388980384689
 42
6.24459510668465
  0
LINE
  5
98B
330
1E
100
AcDbEntity
  8
STEMPEL
100
AcDbLine
 10
124.1020327570151
 20
673.7048441312252
 30
0.0
 11
178.8403949293645
 21
673.7048441312256
 31
0.0
  0
ARC
  5
98C
330
1E
100
AcDbEntity
  8
STEMPEL
100
AcDbCircle
 10
124.1020327570151
 20
667.7048441312256
 30
0.0
 40
6.0
100
AcDbArc
 50
90.0
 51
90.0
  0
ARC
  5
98D
330
1E
100
AcDbEntity
  8
STEMPEL
100
AcDbCircle
 10
178.8403949293645
 20
675.2048441312256
 30
0.0
 40
2.5
100
AcDbArc
 50
270.0
 51
330.0000000000009
  0
ARC
  5
98E
330
1E
100
AcDbEntity
  8
STEMPEL
100
AcDbCircle
 10
178.8403949293645
 20
675.2048441312256
 30
0.0
 40
1.5
100
AcDbArc
 50
270.0
 51
330.0000000000009
  0
ARC
  5
98F
330
1E
100
AcDbEntity
  8
STEMPEL
100
AcDbCircle
 10
184.2365473520718
 20
675.2048441312256
 30
0.0
 40
2.5
100
AcDbArc
 50
209.9999999999931
 51
270.0
  0
ARC
  5
990
330
1E
100
AcDbEntity
  8
STEMPEL
100
AcDbCircle
 10
184.2365473520718
 20
675.2048441312256
 30
0.0
 40
1.5
100
AcDbArc
 50
209.9999999999931
 51
270.0
  0
ARC
  5
991
330
1E
100
AcDbEntity
  8
STEMPEL
100
AcDbCircle
 10
181.438471140718
 20
673.7048441312256
 30
0.0
 40
0.5
100
AcDbArc
 50
90.0
 51
149.9999999999994
  0
LINE
  5
992
330
1E
100
AcDbEntity
  8
STEMPEL
100
AcDbLine
 10
181.438471140718
 20
674.2048441312256
 30
0.0
 11
181.638471140718
 21
674.2048441312256
 31
0.0
  0
ARC
  5
993
330
1E
100
AcDbEntity
  8
STEMPEL
100
AcDbCircle
 10
181.638471140718
 20
673.7048441312256
 30
0.0
 40
0.5
100
AcDbArc
 50
29.99999999999913
 51
90.0
  0
ARC
  5
994
330
1E
100
AcDbEntity
  8
STEMPEL
100
AcDbCircle
 10
181.638471140718
 20
673.7048441312256
 30
0.0
 40
1.5
100
AcDbArc
 50
29.99999999999305
 51
90.0
  0
ARC
  5
995
330
1E
100
AcDbEntity
  8
STEMPEL
100
AcDbCircle
 10
181.438471140718
 20
673.7048441312256
 30
0.0
 40
1.5
100
AcDbArc
 50
90.0
 51
150.0000000000009
  0
LINE
  5
996
330
1E
100
AcDbEntity
  8
STEMPEL
100
AcDbLine
 10
184.2365473520718
 20
673.7048441312256
 30
0.0
 11
186.2953949293642
 21
673.7048441312256
 31
0.0
  0
LINE
  5
997
330
1E
100
AcDbEntity
  8
STEMPEL
100
AcDbLine
 10
184.2365473520718
 20
673.7048441312256
 30
0.0
 11
186.2953949293642
 21
673.7048441312256
 31
0.0
  0
TEXT
  5
998
330
1E
100
AcDbEntity
  8
TEXT
 62
     1
100
AcDbText
 10
200.3106829383503
 20
444.8140038154027
 30
0.0
 40
7.0
  1
DN100
 50
90.0
 41
0.8
  7
GREEKS
 72
     1
 11
200.3106829383503
 21
457.2140038154026
 31
0.0
100
AcDbText
  0
LINE
  5
99B
330
1E
100
AcDbEntity
  8
MITTEL
100
AcDbLine
 10
204.1020327570152
 20
680.2048441312256
 30
0.0
 11
204.1020327570151
 21
148.7048441312269
 31
0.0
  0
ARC
  5
9A4
102
{ACAD_REACTORS
330
8CD
102
}
330
1E
100
AcDbEntity
  8
STEMPEL
100
AcDbCircle
 10
313.4441755324418
 20
574.7048441312261
 30
0.0
 40
5.0
100
AcDbArc
 50
270.0
 51
359.0000000000015
  0
ARC
  5
9A5
330
1E
100
AcDbEntity
  8
STEMPEL
100
AcDbCircle
 10
319.1020327570152
 20
589.7048441312265
 30
0.0
 40
5.0
100
AcDbArc
 50
180.0
 51
270.0
  0
ARC
  5
9A6
330
1E
100
AcDbEntity
  8
STEMPEL
100
AcDbCircle
 10
319.1020327570152
 20
589.7048441312265
 30
0.0
 40
6.0
100
AcDbArc
 50
180.0
 51
270.0
  0
LINE
  5
9AA
330
1E
100
AcDbEntity
  8
STEMPEL
100
AcDbLine
 10
295.3931422833674
 20
616.2048441312276
 30
0.0
 11
295.3931422833674
 21
641.2048441312292
 31
0.0
  0
LINE
  5
9AB
330
1E
100
AcDbEntity
  8
STEMPEL
100
AcDbLine
 10
294.5250782636784
 20
641.2048441312276
 30
0.0
 11
294.5250782636784
 21
616.2048441312292
 31
0.0
  0
LINE
  5
9AC
330
1E
100
AcDbEntity
  8
STEMPEL
100
AcDbLine
 10
302.0250782636785
 20
641.2048441312276
 30
0.0
 11
302.0250782636785
 21
616.2048441312308
 31
0.0
  0
LINE
  5
9AD
330
1E
100
AcDbEntity
  8
STEMPEL
100
AcDbLine
 10
264.9680564590773
 20
641.2048441312276
 30
0.0
 11
264.9680564590773
 21
616.2048441312292
 31
0.0
  0
LINE
  5
9AE
330
1E
100
AcDbEntity
  8
STEMPEL
100
AcDbLine
 10
252.4788523977535
 20
641.2048441312276
 30
0.0
 11
252.4788523977535
 21
616.2048441312276
 31
0.0
  0
LINE
  5
9AF
330
1E
100
AcDbEntity
  8
STEMPEL
100
AcDbLine
 10
251.9776754023116
 20
641.2048441312276
 30
0.0
 11
251.9776754023116
 21
616.2048441312276
 31
0.0
  0
LINE
  5
9B0
330
1E
100
AcDbEntity
  8
STEMPEL
100
AcDbLine
 10
211.6020327570153
 20
641.2048441312276
 30
0.0
 11
211.6020327570153
 21
616.2048441312276
 31
0.0
  0
LINE
  5
9B1
330
1E
100
AcDbEntity
  8
STEMPEL
100
AcDbLine
 10
196.6020327570153
 20
641.204844131226
 30
0.0
 11
196.6020327570153
 21
616.204844131226
 31
0.0
  0
LINE
  5
9B2
330
1E
100
AcDbEntity
  8
STEMPEL
100
AcDbLine
 10
313.1020327570152
 20
653.7047861639105
 30
0.0
 11
313.1020327570152
 21
589.7048441312265
 31
0.0
  0
LINE
  5
9B3
330
1E
100
AcDbEntity
  8
STEMPEL
100
AcDbLine
 10
314.1020327570153
 20
653.7047861639105
 30
0.0
 11
314.1020327570153
 21
589.7048441312265
 31
0.0
  0
LWPOLYLINE
  5
9B4
330
1E
100
AcDbEntity
  8
STEMPEL
100
AcDbPolyline
 90
       10
 70
   128
 43
0.0
 10
-255.3671066969622
 20
583.7048441312274
 10
-254.8943767392085
 20
583.7959976131542
 10
-254.4360104420083
 20
584.0666884065121
 10
-254.0059350333576
 20
584.5086917085209
 10
-253.6172181369194
 20
585.1085774725137
 10
-253.2816707188916
 20
585.8481184731084
 10
-253.009488217776
 20
586.7048441312276
 10
-252.8089407611379
 20
587.6527232712738
 10
-252.6861218819655
 20
588.6629550652262
 10
-252.6447633697531
 20
589.7048441312279
210
0.0
220
0.0
230
-1.0
  0
LINE
  5
9B5
330
1E
100
AcDbEntity
  8
STEMPEL
100
AcDbLine
 10
253.8622748024821
 20
584.7048441312274
 30
0.0
 11
240.3876660804877
 21
584.7048441312274
 31
0.0
  0
ELLIPSE
  5
9B6
330
1E
100
AcDbEntity
  8
STEMPEL
100
AcDbEllipse
 10
258.9740429261364
 20
616.2048441312276
 30
0.0
 11
0.0
 21
-7.5
 31
0.0
210
0.0
220
0.0
230
1.0
 40
0.8660254037843856
 41
4.712388980384689
 42
6.24459510668465
  0
ELLIPSE
  5
9B7
330
1E
100
AcDbEntity
  8
STEMPEL
100
AcDbEllipse
 10
258.4728659306944
 20
616.2048441312276
 30
0.0
 11
0.0
 21
-7.5
 31
0.0
210
0.0
220
0.0
230
1.0
 40
0.8660254037843856
 41
4.712388980384689
 42
7.853981633974482
  0
LINE
  5
9B8
330
1E
100
AcDbEntity
  8
STEMPEL
100
AcDbLine
 10
226.3180793835594
 20
584.7048441312274
 30
0.0
 11
211.577239912638
 21
584.7048441312274
 31
0.0
  0
LWPOLYLINE
  5
9B9
330
1E
100
AcDbEntity
  8
STEMPEL
100
AcDbPolyline
 90
       18
 70
   128
 43
0.0
 10
225.7315048613024
 20
596.2048441312256
 10
225.6048956151259
 20
597.5829655148502
 10
225.2293794026242
 20
598.9141566276298
 10
224.6177439780319
 20
600.1530853528066
 10
223.7908178521576
 20
601.2575614585759
 10
222.7767610024292
 20
602.1899733358288
 10
221.6101059186375
 20
602.91856881639
 10
220.3305816404123
 20
603.4185364550234
 10
218.9817608324282
 20
603.67285045344
 10
217.609575969569
 20
603.67285045344
 10
216.2607551615848
 20
603.4185364550234
 10
214.9812308833594
 20
602.91856881639
 10
213.8145757995677
 20
602.1899733358288
 10
212.8005189498396
 20
601.2575614585759
 10
211.9735928239651
 20
600.1530853528066
 10
211.3619573993727
 20
598.9141566276298
 10
210.9864411868711
 20
597.5829655148502
 10
210.8598319406948
 20
596.2048441312256
  0
LINE
  5
9BC
330
1E
100
AcDbEntity
  8
STEMPEL
100
AcDbLine
 10
222.7209662856609
 20
582.7048441312264
 30
0.0
 11
214.7209662856609
 21
582.7048441312265
 31
0.0
  0
LINE
  5
9BD
330
1E
100
AcDbEntity
  8
STEMPEL
100
AcDbLine
 10
213.720966285661
 20
581.7048441312266
 30
0.0
 11
223.7209662856608
 21
581.7048441312266
 31
0.0
  0
LINE
  5
9C0
330
1E
100
AcDbEntity
  8
STEMPEL
100
AcDbLine
 10
194.1778373061687
 20
586.3048441312262
 30
0.0
 11
194.1778373061687
 21
584.7048441312263
 31
0.0
  0
LWPOLYLINE
  5
9C1
330
1E
100
AcDbEntity
  8
STEMPEL
100
AcDbPolyline
 90
        7
 70
   128
 43
0.0
 10
-211.5772399126385
 20
584.7048441312274
 10
-211.40834406687
 20
585.3141820330684
 10
-211.2634906782972
 20
586.0416123063576
 10
-211.1465757607301
 20
586.8675698003012
 10
-211.0607438877124
 20
587.7698393507635
 10
-211.0083036152667
 20
588.7241532850068
 10
-210.9906653903814
 20
589.7048441312279
210
0.0
220
0.0
230
-1.0
  0
LWPOLYLINE
  5
9C2
330
1E
100
AcDbEntity
  8
STEMPEL
100
AcDbPolyline
 90
       10
 70
   128
 43
0.0
 10
-212.1714066772028
 20
583.7048441312274
 10
-211.9436541143342
 20
583.7959976131542
 10
-211.72282169784
 20
584.0666884065121
 10
-211.5156193089486
 20
584.5086917085209
 10
-211.3283426873976
 20
585.1085774725137
 10
-211.1666821385655
 20
585.8481184731084
 10
-211.0355496364249
 20
586.7048441312276
 10
-210.938929575697
 20
587.6527232712738
 10
-210.8797577080348
 20
588.6629550652262
 10
-210.8598319406948
 20
589.7048441312279
210
0.0
220
0.0
230
-1.0
  0
LWPOLYLINE
  5
9C3
330
1E
100
AcDbEntity
  8
STEMPEL
100
AcDbPolyline
 90
        7
 70
   128
 43
0.0
 10
196.6268256013924
 20
584.7048441312274
 10
196.7957214471609
 20
585.3141820330684
 10
196.9405748357334
 20
586.0416123063576
 10
197.0574897533005
 20
586.8675698003012
 10
197.1433216263182
 20
587.7698393507635
 10
197.1957618987638
 20
588.7241532850068
 10
197.2134001236492
 20
589.7048441312279
  0
LWPOLYLINE
  5
9C4
330
1E
100
AcDbEntity
  8
STEMPEL
100
AcDbPolyline
 90
       10
 70
   128
 43
0.0
 10
196.0326588368281
 20
583.7048441312274
 10
196.2604113996966
 20
583.7959976131542
 10
196.4812438161908
 20
584.0666884065121
 10
196.6884462050819
 20
584.5086917085209
 10
196.8757228266332
 20
585.1085774725137
 10
197.0373833754651
 20
585.8481184731084
 10
197.1685158776057
 20
586.7048441312276
 10
197.2651359383336
 20
587.6527232712738
 10
197.324307805996
 20
588.6629550652262
 10
197.3442335733358
 20
589.7048441312279
  0
LINE
  5
9C5
330
1E
100
AcDbEntity
  8
MITTEL
100
AcDbLine
 10
218.7209662856609
 20
587.7048441312265
 30
0.0
 11
218.7209662856609
 21
557.7048441312265
 31
0.0
  0
LINE
  5
9C6
330
1E
100
AcDbEntity
  8
MITTEL
100
AcDbLine
 10
188.1778373061687
 20
559.704844131226
 30
0.0
 11
188.1778373061687
 21
595.3725874656263
 31
0.0
  0
ARC
  5
9C7
330
1E
100
AcDbEntity
  8
STEMPEL
100
AcDbCircle
 10
200.8356945307422
 20
574.704844131226
 30
0.0
 40
5.0
100
AcDbArc
 50
181.0000000000002
 51
270.0
  0
LINE
  5
9C8
330
1E
100
AcDbEntity
  8
STEMPEL
100
AcDbLine
 10
195.8364560549602
 20
574.6175820990396
 30
0.0
 11
195.6778373061687
 21
583.7048441312259
 31
0.0
  0
LINE
  5
9C9
330
1E
100
AcDbEntity
  8
STEMPEL
100
AcDbLine
 10
213.7209662856609
 20
563.7048441312259
 30
0.0
 11
213.7209662856609
 21
560.7048441312258
 31
0.0
  0
LINE
  5
9CA
330
1E
100
AcDbEntity
  8
HILF
100
AcDbLine
 10
214.7209662856609
 20
563.7048441312259
 30
0.0
 11
214.7209662856609
 21
560.7048441312258
 31
0.0
  0
LINE
  5
9D0
330
1E
100
AcDbEntity
  8
STEMPEL
100
AcDbLine
 10
213.7209662856609
 20
581.7048441312265
 30
0.0
 11
213.7209662856609
 21
579.704844131226
 31
0.0
  0
LINE
  5
9D1
330
1E
100
AcDbEntity
  8
HILF
100
AcDbLine
 10
214.7209662856609
 20
582.7048441312265
 30
0.0
 11
214.7209662856609
 21
579.704844131226
 31
0.0
  0
LINE
  5
9D2
330
1E
100
AcDbEntity
  8
STEMPEL
100
AcDbLine
 10
214.7209662856609
 20
582.7048441312265
 30
0.0
 11
213.7209662856609
 21
581.7048441312265
 31
0.0
  0
ARC
  5
9D3
330
1E
100
AcDbEntity
  8
STEMPEL
100
AcDbCircle
 10
204.1020327570153
 20
616.2048441312276
 30
0.0
 40
7.5
100
AcDbArc
 50
179.999999999987
 51
359.999999999974
  0
LWPOLYLINE
  5
9D4
330
1E
100
AcDbEntity
  8
STEMPEL
100
AcDbPolyline
 90
        9
 70
   128
 43
0.0
 10
-189.8429803882887
 20
603.7045538910005
 10
-191.2843203721664
 20
603.5492524970767
 10
-192.668401275616
 20
603.1148522500624
 10
-193.9426258881479
 20
602.4178610297872
 10
-195.0585717078778
 20
601.4847655783415
 10
-195.9738310713309
 20
600.3510249629981
 10
-196.6536227101061
 20
599.0597230769286
 10
-197.0721134927554
 20
597.6599313847692
 10
-197.2134001236494
 20
596.2048441312272
210
0.0
220
0.0
230
-1.0
  0
ARC
  5
9D5
330
1E
100
AcDbEntity
  8
STEMPEL
100
AcDbCircle
 10
192.3185906881427
 20
588.1246891453472
 30
0.0
 40
2.247898356545996
100
AcDbArc
 50
58.53080548383034
 51
127.8806357171805
  0
LINE
  5
9D6
330
1E
100
AcDbEntity
  8
STEMPEL
100
AcDbLine
 10
190.9383395608182
 20
589.8989365482989
 30
0.0
 11
190.938339560818
 21
586.3048441312264
 31
0.0
  0
LINE
  5
9D7
330
1E
100
AcDbEntity
  8
STEMPEL
100
AcDbLine
 10
193.6988418154675
 20
589.9225969204232
 30
0.0
 11
193.4920836836751
 21
590.0419687834706
 31
0.0
  0
LINE
  5
9D8
330
1E
100
AcDbEntity
  8
STEMPEL
100
AcDbLine
 10
193.6988418154675
 20
589.9225969204231
 30
0.0
 11
193.6988418154675
 21
586.3048441312264
 31
0.0
  0
LINE
  5
9D9
330
1E
100
AcDbEntity
  8
STEMPEL
100
AcDbLine
 10
192.3146314627835
 20
590.3725874656263
 30
0.0
 11
192.3181868957796
 21
590.3725874656263
 31
0.0
  0
LINE
  5
9DA
330
1E
100
AcDbEntity
  8
STEMPEL
100
AcDbLine
 10
197.2134001236494
 20
596.2048441312256
 30
0.0
 11
197.2134001236494
 21
589.704844131229
 31
0.0
  0
LINE
  5
9DB
330
1E
100
AcDbEntity
  8
STEMPEL
100
AcDbLine
 10
197.3442335733358
 20
596.204844131224
 30
0.0
 11
197.3442335733358
 21
589.704844131229
 31
0.0
  0
LWPOLYLINE
  5
9DC
330
1E
100
AcDbEntity
  8
STEMPEL
100
AcDbPolyline
 90
        9
 70
   128
 43
0.0
 10
218.3610851257421
 20
603.7045538910005
 10
216.9197451418642
 20
603.5492524970767
 10
215.5356642384146
 20
603.1148522500624
 10
214.2614396258827
 20
602.4178610297872
 10
213.1454938061528
 20
601.4847655783415
 10
212.2302344426997
 20
600.3510249629981
 10
211.5504428039247
 20
599.0597230769286
 10
211.1319520212752
 20
597.6599313847692
 10
210.9906653903814
 20
596.2048441312272
  0
LINE
  5
9DD
330
1E
100
AcDbEntity
  8
STEMPEL
100
AcDbLine
 10
210.8598319406948
 20
596.204844131224
 30
0.0
 11
210.8598319406948
 21
589.704844131229
 31
0.0
  0
LINE
  5
9DE
330
1E
100
AcDbEntity
  8
STEMPEL
100
AcDbLine
 10
210.9906653903814
 20
596.2048441312256
 30
0.0
 11
210.9906653903814
 21
589.704844131229
 31
0.0
  0
LWPOLYLINE
  5
9DF
330
1E
100
AcDbEntity
  8
STEMPEL
100
AcDbPolyline
 90
        7
 70
   128
 43
0.0
 10
-240.3876660804882
 20
584.7048441312274
 10
-240.0371008660762
 20
585.3141820330684
 10
-239.7364388871375
 20
586.0416123063576
 10
-239.4937668252029
 20
586.8675698003012
 10
-239.3156116501544
 20
587.7698393507635
 10
-239.2067650691739
 20
588.7241532850067
 10
-239.1701546477592
 20
589.7048441312279
210
0.0
220
0.0
230
-1.0
  0
LWPOLYLINE
  5
9E0
330
1E
100
AcDbEntity
  8
STEMPEL
100
AcDbPolyline
 90
       10
 70
   128
 43
0.0
 10
-227.0430795978104
 20
583.7048441312274
 10
-226.8153270349418
 20
583.7959976131542
 10
-226.5944946184476
 20
584.0666884065121
 10
-226.3872922295562
 20
584.5086917085209
 10
-226.2000156080052
 20
585.1085774725137
 10
-226.0383550591731
 20
585.8481184731084
 10
-225.9072225570325
 20
586.7048441312276
 10
-225.8106024963046
 20
587.6527232712738
 10
-225.7514306286424
 20
588.6629550652262
 10
-225.7315048613024
 20
589.7048441312279
210
0.0
220
0.0
230
-1.0
  0
LWPOLYLINE
  5
9E1
330
1E
100
AcDbEntity
  8
STEMPEL
100
AcDbPolyline
 90
       10
 70
   128
 43
0.0
 10
-241.5089137092913
 20
583.7048441312274
 10
-241.0361837515376
 20
583.7959976131542
 10
-240.5778174543374
 20
584.0666884065121
 10
-240.1477420456866
 20
584.5086917085209
 10
-239.7590251492485
 20
585.1085774725137
 10
-239.4234777312207
 20
585.8481184731084
 10
-239.1512952301051
 20
586.7048441312276
 10
-238.950747773467
 20
587.6527232712738
 10
-238.8279288942946
 20
588.6629550652262
 10
-238.7865703820822
 20
589.7048441312279
210
0.0
220
0.0
230
-1.0
  0
LINE
  5
9E2
330
1E
100
AcDbEntity
  8
STEMPEL
100
AcDbLine
 10
223.7209662856608
 20
563.7048441312259
 30
0.0
 11
223.7209662856609
 21
560.7048441312258
 31
0.0
  0
LINE
  5
9E3
330
1E
100
AcDbEntity
  8
HILF
100
AcDbLine
 10
222.7209662856608
 20
563.7048441312259
 30
0.0
 11
222.7209662856609
 21
560.7048441312258
 31
0.0
  0
LINE
  5
9E8
330
1E
100
AcDbEntity
  8
HILF
100
AcDbLine
 10
222.7209662856609
 20
582.7048441312264
 30
0.0
 11
222.7209662856608
 21
579.704844131226
 31
0.0
  0
LINE
  5
9E9
330
1E
100
AcDbEntity
  8
STEMPEL
100
AcDbLine
 10
223.7209662856609
 20
581.7048441312264
 30
0.0
 11
223.7209662856609
 21
579.704844131226
 31
0.0
  0
LINE
  5
9EA
330
1E
100
AcDbEntity
  8
STEMPEL
100
AcDbLine
 10
223.7209662856609
 20
581.7048441312264
 30
0.0
 11
222.7209662856609
 21
582.7048441312264
 31
0.0
  0
LINE
  5
9EC
330
1E
100
AcDbEntity
  8
STEMPEL
100
AcDbLine
 10
225.7315048613026
 20
596.2048441312272
 30
0.0
 11
225.7315048613026
 21
589.704844131229
 31
0.0
  0
LWPOLYLINE
  5
9ED
330
1E
100
AcDbEntity
  8
STEMPEL
100
AcDbPolyline
 90
       18
 70
   128
 43
0.0
 10
252.6447633697531
 20
596.2048441312256
 10
252.5267823344719
 20
597.5829655148502
 10
252.1768569312822
 20
598.9141566276298
 10
251.6069034501005
 20
600.1530853528066
 10
250.8363309731445
 20
601.2575614585759
 10
249.891380421917
 20
602.1899733358288
 10
248.8042309540968
 20
602.91856881639
 10
247.6119041409187
 20
603.4185364550234
 10
246.3550032419667
 20
603.67285045344
 10
245.0763305098684
 20
603.67285045344
 10
243.8194296109167
 20
603.4185364550234
 10
242.6271027977383
 20
602.91856881639
 10
241.5399533299184
 20
602.1899733358288
 10
240.5950027786909
 20
601.2575614585759
 10
239.8244303017346
 20
600.1530853528066
 10
239.2544768205529
 20
598.9141566276298
 10
238.9045514173632
 20
597.5829655148502
 10
238.7865703820822
 20
596.2048441312256
  0
LWPOLYLINE
  5
9EE
330
1E
100
AcDbEntity
  8
STEMPEL
100
AcDbPolyline
 90
        9
 70
   128
 43
0.0
 10
245.9074590087295
 20
603.7019705542657
 10
244.5832495583996
 20
603.523137647218
 10
243.3152701612136
 20
603.0728617298938
 10
242.1505514731281
 20
602.3678439977547
 10
241.1322941045213
 20
601.4342342813712
 10
240.298266265259
 20
600.3066611223951
 10
239.6794029030651
 20
599.0269473654432
 10
239.2986582945911
 20
597.6425589059078
 10
239.1701546477592
 20
596.2048441312272
  0
LINE
  5
9EF
330
1E
100
AcDbEntity
  8
STEMPEL
100
AcDbLine
 10
238.7865703820822
 20
596.204844131224
 30
0.0
 11
238.7865703820822
 21
589.704844131229
 31
0.0
  0
LINE
  5
9F0
330
1E
100
AcDbEntity
  8
STEMPEL
100
AcDbLine
 10
239.1701546477592
 20
596.2048441312256
 30
0.0
 11
239.1701546477592
 21
589.704844131229
 31
0.0
  0
LINE
  5
9F1
330
1E
100
AcDbEntity
  8
STEMPEL
100
AcDbLine
 10
252.6447633697531
 20
596.2048441312256
 30
0.0
 11
252.6447633697531
 21
589.704844131229
 31
0.0
  0
LWPOLYLINE
  5
9F7
330
1E
100
AcDbEntity
  8
STEMPEL
100
AcDbPolyline
 90
       10
 70
   128
 43
0.0
 10
-290.1705924395609
 20
583.7048441312274
 10
-289.4128428144666
 20
583.7959976131542
 10
-288.678117028291
 20
584.0666884065121
 10
-287.988739352258
 20
584.5086917085209
 10
-287.3656561782114
 20
585.1085774725137
 10
-286.8277995731002
 20
585.8481184731084
 10
-286.3915120377011
 20
586.7048441312276
 10
-286.070049948006
 20
587.6527232712738
 10
-285.8731807669418
 20
588.6629550652262
 10
-285.8068862649551
 20
589.7048441312279
210
0.0
220
0.0
230
-1.0
  0
LWPOLYLINE
  5
9F8
330
1E
100
AcDbEntity
  8
STEMPEL
100
AcDbPolyline
 90
       18
 70
   128
 43
0.0
 10
294.9383077000867
 20
596.2048441312256
 10
294.8605677988265
 20
597.5829655148502
 10
294.6299954341447
 20
598.9141566276298
 10
294.2544424713796
 20
600.1530853528066
 10
293.746697916252
 20
601.2575614585759
 10
293.124052400614
 20
602.1899733358288
 10
292.4077093707198
 20
602.91856881639
 10
291.622063029294
 20
603.4185364550234
 10
290.7938676202146
 20
603.67285045344
 10
289.951326344827
 20
603.67285045344
 10
289.1231309357475
 20
603.4185364550234
 10
288.3374845943216
 20
602.91856881639
 10
287.6211415644276
 20
602.1899733358288
 10
286.9984960487897
 20
601.2575614585759
 10
286.4907514936618
 20
600.1530853528066
 10
286.1151985308967
 20
598.9141566276298
 10
285.8846261662149
 20
597.5829655148502
 10
285.8068862649549
 20
596.2048441312256
  0
LWPOLYLINE
  5
9F9
330
1E
100
AcDbEntity
  8
STEMPEL
100
AcDbPolyline
 90
       10
 70
   128
 43
0.0
 10
-279.9125181431274
 20
583.7048441312274
 10
-279.2765137831265
 20
583.7959976131542
 10
-278.6598340937702
 20
584.0666884065121
 10
-278.0812165753651
 20
584.5086917085209
 10
-277.5582422284134
 20
585.1085774725137
 10
-277.1068013638088
 20
585.8481184731084
 10
-276.7406107837829
 20
586.7048441312276
 10
-276.4707970038079
 20
587.6527232712738
 10
-276.3055581790562
 20
588.6629550652262
 10
-276.2499150076031
 20
589.7048441312279
210
0.0
220
0.0
230
-1.0
  0
LWPOLYLINE
  5
9FA
330
1E
100
AcDbEntity
  8
STEMPEL
100
AcDbPolyline
 90
       10
 70
   128
 43
0.0
 10
-268.0122180387585
 20
583.7048441312274
 10
-267.3762136787576
 20
583.7959976131542
 10
-266.7595339894013
 20
584.0666884065121
 10
-266.1809164709963
 20
584.5086917085209
 10
-265.6579421240445
 20
585.1085774725137
 10
-265.20650125944
 20
585.8481184731084
 10
-264.8403106794141
 20
586.7048441312276
 10
-264.570496899439
 20
587.6527232712738
 10
-264.4052580746873
 20
588.6629550652262
 10
-264.3496149032343
 20
589.7048441312279
210
0.0
220
0.0
230
-1.0
  0
LWPOLYLINE
  5
9FB
330
1E
100
AcDbEntity
  8
STEMPEL
100
AcDbPolyline
 90
        7
 70
   128
 43
0.0
 10
-266.597832427202
 20
584.7048441312274
 10
-266.1261868266353
 20
585.3141820330684
 10
-265.7216803502523
 20
586.0416123063576
 10
-265.3951927077634
 20
586.8675698003012
 10
-265.155505194355
 20
587.7698393507635
 10
-265.009064506729
 20
588.7241532850068
 10
-264.9598093510966
 20
589.7048441312279
210
0.0
220
0.0
230
-1.0
  0
LINE
  5
9FD
330
1E
100
AcDbEntity
  8
STEMPEL
100
AcDbLine
 10
277.8879380837085
 20
584.7048441312274
 30
0.0
 11
266.5978324272015
 21
584.7048441312274
 31
0.0
  0
LINE
  5
A02
102
{ACAD_REACTORS
330
DA5
102
}
330
1E
100
AcDbEntity
  8
STEMPEL
100
AcDbLine
 10
284.1020327570151
 20
557.704844131226
 30
0.0
 11
284.1020327570151
 21
560.7048441312259
 31
0.0
  0
ARC
  5
A03
102
{ACAD_REACTORS
330
8CD
102
}
330
1E
100
AcDbEntity
  8
STEMPEL
100
AcDbCircle
 10
286.1020327570152
 20
566.7048441312263
 30
0.0
 40
2.999999999999886
100
AcDbArc
 50
90.0
 51
270.0
  0
LWPOLYLINE
  5
A04
330
1E
100
AcDbEntity
  8
STEMPEL
100
AcDbPolyline
 90
        9
 70
   128
 43
0.0
 10
270.6048621793383
 20
603.6949782090494
 10
269.4884544579671
 20
603.4876710726422
 10
268.423175206225
 20
603.0184163451885
 10
267.4473402231866
 20
602.3040921080199
 10
266.5960481903286
 20
601.3703910646235
 10
265.8999182475922
 20
600.2508964294632
 10
265.3839886889008
 20
598.9858740121244
 10
265.066816388685
 20
597.6208239429151
 10
264.9598093510968
 20
596.2048441312272
  0
LWPOLYLINE
  5
A05
330
1E
100
AcDbEntity
  8
STEMPEL
100
AcDbPolyline
 90
       18
 70
   128
 43
0.0
 10
276.2499150076034
 20
596.2048441312256
 10
276.148602395799
 20
597.5829655148502
 10
275.8481146398698
 20
598.9141566276298
 10
275.3586844899486
 20
600.1530853528066
 10
274.696978902784
 20
601.2575614585759
 10
273.8855314685189
 20
602.1899733358288
 10
272.9519750563032
 20
602.91856881639
 10
271.9281008100771
 20
603.4185364550234
 10
270.8487755392945
 20
603.67285045344
 10
269.7507543715434
 20
603.67285045344
 10
268.6714291007605
 20
603.4185364550234
 10
267.6475548545344
 20
602.91856881639
 10
266.7139984423187
 20
602.1899733358288
 10
265.9025510080536
 20
601.2575614585759
 10
265.2408454208893
 20
600.1530853528066
 10
264.7514152709681
 20
598.9141566276298
 10
264.4509275150389
 20
597.5829655148502
 10
264.3496149032345
 20
596.2048441312256
  0
LINE
  5
A06
330
1E
100
AcDbEntity
  8
STEMPEL
100
AcDbLine
 10
264.3496149032343
 20
596.2048441312256
 30
0.0
 11
264.3496149032343
 21
589.704844131229
 31
0.0
  0
LINE
  5
A07
330
1E
100
AcDbEntity
  8
STEMPEL
100
AcDbLine
 10
264.9598093510966
 20
596.2048441312256
 30
0.0
 11
264.9598093510966
 21
589.704844131229
 31
0.0
  0
LINE
  5
A08
330
1E
100
AcDbEntity
  8
STEMPEL
100
AcDbLine
 10
276.2499150076031
 20
596.2048441312256
 30
0.0
 11
276.2499150076031
 21
589.704844131229
 31
0.0
  0
LINE
  5
A09
330
1E
100
AcDbEntity
  8
STEMPEL
100
AcDbLine
 10
285.8068862649549
 20
596.2048441312256
 30
0.0
 11
285.8068862649549
 21
589.704844131229
 31
0.0
  0
LWPOLYLINE
  5
A0A
330
1E
100
AcDbEntity
  8
STEMPEL
100
AcDbPolyline
 90
        7
 70
   128
 43
0.0
 10
-314.5486905298884
 20
584.7048441312279
 10
-313.871988654811
 20
585.3144448590869
 10
-313.2724392311769
 20
586.0420039429986
 10
-312.7661505580273
 20
586.8679738046788
 10
-312.3667252659817
 20
587.7701628298819
 10
-312.0848948507188
 20
588.7243315980756
 10
-311.9282313462173
 20
589.7048441312279
210
0.0
220
0.0
230
-1.0
  0
LWPOLYLINE
  5
A0B
330
1E
100
AcDbEntity
  8
STEMPEL
100
AcDbPolyline
 90
       10
 70
   128
 43
0.0
 10
-316.4404413637104
 20
583.7048441312274
 10
-315.5823683674376
 20
583.7709713458001
 10
-314.7295561678155
 20
584.0235250955304
 10
-313.9087978608985
 20
584.4545708118479
 10
-313.1458794944994
 20
585.0505661822878
 10
-312.4647699390004
 20
585.7927866140085
 10
-311.8868678490545
 20
586.6579135108058
 10
-311.4303293746483
 20
587.6187668815219
 10
-311.1094977430509
 20
588.6451592632341
 10
-310.9344526326796
 20
589.7048441312267
210
0.0
220
0.0
230
-1.0
  0
LWPOLYLINE
  5
A0C
330
1E
100
AcDbEntity
  8
STEMPEL
100
AcDbPolyline
 90
       10
 70
   128
 43
0.0
 10
-318.3983342470109
 20
583.7048441312285
 10
-317.5402612507381
 20
583.7709713458012
 10
-316.687449051116
 20
584.0235250955315
 10
-315.866690744199
 20
584.4545708118491
 10
-315.1037723777998
 20
585.0505661822889
 10
-314.4226628223008
 20
585.7927866140096
 10
-313.844760732355
 20
586.657913510807
 10
-313.3882222579488
 20
587.6187668815231
 10
-313.0673906263513
 20
588.6451592632353
 10
-312.8923455159801
 20
589.7048441312279
210
0.0
220
0.0
230
-1.0
  0
LWPOLYLINE
  5
A0D
330
1E
100
AcDbEntity
  8
STEMPEL
100
AcDbPolyline
 90
       10
 70
   128
 43
0.0
 10
-312.2517228958203
 20
583.7048441312274
 10
-311.4155436209786
 20
583.7959976131542
 10
-310.604771230276
 20
584.0666884065121
 10
-309.8440406325332
 20
584.5086917085209
 10
-309.1564662420145
 20
585.1085774725137
 10
-308.5629396586461
 20
585.8481184731084
 10
-308.0814948873248
 20
586.7048441312276
 10
-307.7267603838044
 20
587.6527232712738
 10
-307.5095145764702
 20
588.6629550652262
 10
-307.4363583692463
 20
589.7048441312279
210
0.0
220
0.0
230
-1.0
  0
LWPOLYLINE
  5
A0E
330
1E
100
AcDbEntity
  8
STEMPEL
100
AcDbPolyline
 90
       10
 70
   128
 43
0.0
 10
-306.5114714103426
 20
583.7048441312274
 10
-305.6752921355009
 20
583.7959976131542
 10
-304.8645197447982
 20
584.0666884065121
 10
-304.1037891470554
 20
584.5086917085209
 10
-303.4162147565368
 20
585.1085774725137
 10
-302.8226881731683
 20
585.8481184731084
 10
-302.341243401847
 20
586.7048441312276
 10
-301.9865088983266
 20
587.6527232712738
 10
-301.7692630909925
 20
588.6629550652262
 10
-301.6961068837685
 20
589.7048441312279
210
0.0
220
0.0
230
-1.0
  0
LWPOLYLINE
  5
A0F
330
1E
100
AcDbEntity
  8
STEMPEL
100
AcDbPolyline
 90
        7
 70
   128
 43
0.0
 10
-304.7757328529446
 20
584.7048441312274
 10
-304.1556423298802
 20
585.3141820330684
 10
-303.6238221830966
 20
586.0416123063576
 10
-303.1945763833654
 20
586.8675698003012
 10
-302.8794500355681
 20
587.7698393507635
 10
-302.6869188586023
 20
588.7241532850067
 10
-302.6221612202759
 20
589.7048441312279
210
0.0
220
0.0
230
-1.0
  0
LWPOLYLINE
  5
A10
330
1E
100
AcDbEntity
  8
STEMPEL
100
AcDbPolyline
 90
       10
 70
   128
 43
0.0
 10
-299.3020138746928
 20
583.7048441312274
 10
-298.5442642495986
 20
583.7959976131542
 10
-297.8095384634229
 20
584.0666884065121
 10
-297.1201607873899
 20
584.5086917085209
 10
-296.4970776133433
 20
585.1085774725137
 10
-295.959221008232
 20
585.8481184731084
 10
-295.5229334728329
 20
586.7048441312276
 10
-295.2014713831378
 20
587.6527232712738
 10
-295.0046022020737
 20
588.6629550652262
 10
-294.938307700087
 20
589.7048441312279
210
0.0
220
0.0
230
-1.0
  0
LWPOLYLINE
  5
A11
330
1E
100
AcDbEntity
  8
STEMPEL
100
AcDbPolyline
 90
        7
 70
   128
 43
0.0
 10
-288.5536839802941
 20
584.7048441312274
 10
-287.9917550070299
 20
585.3141820330684
 10
-287.5098170674426
 20
586.0416123063576
 10
-287.1208324876928
 20
586.8675698003012
 10
-286.8352634965864
 20
587.7698393507635
 10
-286.6607908307905
 20
588.7241532850068
 10
-286.6021071517756
 20
589.7048441312279
210
0.0
220
0.0
230
-1.0
  0
LINE
  5
A12
102
{ACAD_REACTORS
330
8CD
330
DA5
102
}
330
1E
100
AcDbEntity
  8
MITTEL
100
AcDbLine
 10
307.5765403982793
 20
587.7048441312267
 30
0.0
 11
307.5765403982793
 21
557.7048441312268
 31
0.0
  0
LINE
  5
A17
330
1E
100
AcDbEntity
  8
STEMPEL
100
AcDbLine
 10
296.8898845286052
 20
584.7048441312274
 30
0.0
 11
288.5536839802934
 21
584.7048441312274
 31
0.0
  0
LINE
  5
A1A
330
1E
100
AcDbEntity
  8
HILF
100
AcDbLine
 10
303.5765403982793
 20
563.7048441312259
 30
0.0
 11
303.5765403982793
 21
560.7048441312259
 31
0.0
  0
LINE
  5
A1B
330
1E
100
AcDbEntity
  8
STEMPEL
100
AcDbLine
 10
302.5765403982792
 20
563.7048441312259
 30
0.0
 11
302.5765403982792
 21
560.7048441312259
 31
0.0
  0
LINE
  5
A1C
330
1E
100
AcDbEntity
  8
HILF
100
AcDbLine
 10
311.5765403982792
 20
563.7048441312259
 30
0.0
 11
311.5765403982792
 21
560.7048441312261
 31
0.0
  0
LINE
  5
A1D
330
1E
100
AcDbEntity
  8
STEMPEL
100
AcDbLine
 10
312.5765403982792
 20
563.7048441312259
 30
0.0
 11
312.5765403982792
 21
560.7048441312259
 31
0.0
  0
LINE
  5
A1E
330
1E
100
AcDbEntity
  8
STEMPEL
100
AcDbLine
 10
312.5765403982792
 20
581.7048441312267
 30
0.0
 11
302.5765403982792
 21
581.7048441312267
 31
0.0
  0
LINE
  5
A1F
330
1E
100
AcDbEntity
  8
STEMPEL
100
AcDbLine
 10
303.5765403982793
 20
582.7048441312266
 30
0.0
 11
311.5765403982792
 21
582.7048441312266
 31
0.0
  0
LINE
  5
A23
330
1E
100
AcDbEntity
  8
STEMPEL
100
AcDbLine
 10
309.5899300019149
 20
584.7048441312274
 30
0.0
 11
304.7757328529434
 21
584.7048441312274
 31
0.0
  0
LINE
  5
A24
330
1E
100
AcDbEntity
  8
HILF
100
AcDbLine
 10
303.5765403982793
 20
582.7048441312266
 30
0.0
 11
303.5765403982793
 21
579.7048441312262
 31
0.0
  0
LINE
  5
A25
330
1E
100
AcDbEntity
  8
STEMPEL
100
AcDbLine
 10
302.5765403982792
 20
581.7048441312266
 30
0.0
 11
302.5765403982792
 21
579.7048441312263
 31
0.0
  0
LINE
  5
A26
330
1E
100
AcDbEntity
  8
STEMPEL
100
AcDbLine
 10
302.5765403982792
 20
581.7048441312266
 30
0.0
 11
303.5765403982793
 21
582.7048441312266
 31
0.0
  0
LINE
  5
A2A
330
1E
100
AcDbEntity
  8
STEMPEL
100
AcDbLine
 10
315.5128046996507
 20
584.7048441312274
 30
0.0
 11
314.5486905298882
 21
584.7048441312274
 31
0.0
  0
LINE
  5
A2C
330
1E
100
AcDbEntity
  8
STEMPEL
100
AcDbLine
 10
312.5765403982792
 20
581.7048441312266
 30
0.0
 11
312.5765403982792
 21
579.7048441312262
 31
0.0
  0
LINE
  5
A2D
330
1E
100
AcDbEntity
  8
HILF
100
AcDbLine
 10
311.5765403982792
 20
582.7048441312266
 30
0.0
 11
311.5765403982792
 21
579.7048441312262
 31
0.0
  0
LINE
  5
A2E
330
1E
100
AcDbEntity
  8
STEMPEL
100
AcDbLine
 10
311.5765403982792
 20
582.7048441312266
 30
0.0
 11
312.5765403982792
 21
581.7048441312266
 31
0.0
  0
LINE
  5
A2F
102
{ACAD_REACTORS
330
8CD
102
}
330
1E
100
AcDbEntity
  8
STEMPEL
100
AcDbLine
 10
318.4434140082237
 20
574.61758209904
 30
0.0
 11
318.6020327570151
 21
583.7048441312259
 31
0.0
  0
LWPOLYLINE
  5
A30
330
1E
100
AcDbEntity
  8
STEMPEL
100
AcDbPolyline
 90
       18
 70
   128
 43
0.0
 10
307.4363583692463
 20
596.2048441312256
 10
307.3874890243299
 20
597.5829655148502
 10
307.2425451765099
 20
598.9141566276298
 10
307.0064627146827
 20
600.1530853528066
 10
306.6872811439361
 20
601.2575614585759
 10
306.2958698098456
 20
602.1899733358288
 10
305.8455577559477
 20
602.91856881639
 10
305.3516798191482
 20
603.4185364550234
 10
304.8310544202433
 20
603.67285045344
 10
304.3014108327715
 20
603.67285045344
 10
303.7807854338665
 20
603.4185364550234
 10
303.2869074970671
 20
602.91856881639
 10
302.8365954431691
 20
602.1899733358288
 10
302.4451841090787
 20
601.2575614585759
 10
302.1260025383321
 20
600.1530853528066
 10
301.8899200765048
 20
598.9141566276298
 10
301.7449762286848
 20
597.5829655148502
 10
301.6961068837685
 20
596.2048441312256
  0
ELLIPSE
  5
A31
330
1E
100
AcDbEntity
  8
STEMPEL
100
AcDbEllipse
 10
299.1431422833672
 20
616.2048441312292
 30
0.0
 11
0.0
 21
-7.499999999999999
 31
0.0
210
0.0
220
0.0
230
1.0
 40
0.4999999999999926
 41
4.712388980384689
 42
6.167183451052224
  0
ELLIPSE
  5
A32
330
1E
100
AcDbEntity
  8
STEMPEL
100
AcDbEllipse
 10
298.2750782636784
 20
616.2048441312292
 30
0.0
 11
0.0
 21
-7.499999999999999
 31
0.0
210
0.0
220
0.0
230
1.0
 40
0.4999999999999926
 41
4.712388980384689
 42
7.853981633974482
  0
LWPOLYLINE
  5
A33
330
1E
100
AcDbEntity
  8
STEMPEL
100
AcDbPolyline
 90
       10
 70
   128
 43
0.0
 10
291.1678178693417
 20
603.7048441312289
 10
290.3749905234821
 20
603.5909022788204
 10
289.6062528353363
 20
603.252538787123
 10
288.8849625105587
 20
602.7000346596119
 10
288.2330355906773
 20
601.9501774546207
 10
287.6702805452616
 20
601.0257512038773
 10
287.2137964015987
 20
599.9548441312281
 10
286.8774531994019
 20
598.7699952061703
 10
286.6714705566718
 20
597.5072054637295
 10
286.6021071517758
 20
596.2048441312272
  0
LINE
  5
A34
330
1E
100
AcDbEntity
  8
STEMPEL
100
AcDbLine
 10
286.6021071517756
 20
596.2048441312256
 30
0.0
 11
286.6021071517756
 21
589.704844131229
 31
0.0
  0
LINE
  5
A35
330
1E
100
AcDbEntity
  8
STEMPEL
100
AcDbLine
 10
294.9383077000867
 20
596.2048441312256
 30
0.0
 11
294.9383077000867
 21
589.704844131229
 31
0.0
  0
LINE
  5
A36
330
1E
100
AcDbEntity
  8
STEMPEL
100
AcDbLine
 10
301.6961068837685
 20
596.2048441312256
 30
0.0
 11
301.6961068837685
 21
589.704844131229
 31
0.0
  0
LWPOLYLINE
  5
A37
330
1E
100
AcDbEntity
  8
STEMPEL
100
AcDbPolyline
 90
        9
 70
   128
 43
0.0
 10
305.0292597947595
 20
603.6066023758908
 10
304.5401992514907
 20
603.2801694781333
 10
304.0805862835897
 20
602.7349004648762
 10
303.6646364799655
 20
601.9876602217481
 10
303.305214950674
 20
601.0615604989705
 10
303.0134384157865
 20
599.9852450770004
 10
302.7983313710482
 20
598.7920038293695
 10
302.6665469649407
 20
597.5187430842936
 10
302.6221612202759
 20
596.2048441312272
  0
LINE
  5
A38
330
1E
100
AcDbEntity
  8
STEMPEL
100
AcDbLine
 10
302.6221612202759
 20
596.2048441312256
 30
0.0
 11
302.6221612202759
 21
589.704844131229
 31
0.0
  0
LINE
  5
A39
330
1E
100
AcDbEntity
  8
STEMPEL
100
AcDbLine
 10
307.4363583692463
 20
596.2048441312256
 30
0.0
 11
307.4363583692463
 21
589.704844131229
 31
0.0
  0
LWPOLYLINE
  5
A3A
330
1E
100
AcDbEntity
  8
STEMPEL
100
AcDbPolyline
 90
        7
 70
   128
 43
0.0
 10
312.410288431099
 20
602.6668981870654
 10
312.2724594215287
 20
601.914791950127
 10
312.1535951445625
 20
600.9920783394122
 10
312.0572471426614
 20
599.9263270895079
 10
311.9862941951232
 20
598.7493817526868
 10
311.9428563031153
 20
597.4964082462849
 10
311.9282313462175
 20
596.2048441312256
  0
LWPOLYLINE
  5
A3B
330
1E
100
AcDbEntity
  8
STEMPEL
100
AcDbPolyline
 90
       18
 70
   128
 43
0.0
 10
312.8923455159801
 20
596.2048441312256
 10
312.8756770925032
 20
597.5829655148502
 10
312.826239445243
 20
598.9141566276298
 10
312.7457161139824
 20
600.1530853528066
 10
312.6368492241908
 20
601.2575614585759
 10
312.5033461072286
 20
602.1899733358288
 10
312.3497530516244
 20
602.91856881639
 10
312.1813004846723
 20
603.4185364550234
 10
312.0037248565035
 20
603.67285045344
 10
311.8230732921564
 20
603.67285045344
 10
311.6454976639874
 20
603.4185364550234
 10
311.4770450970353
 20
602.91856881639
 10
311.3234520414313
 20
602.1899733358288
 10
311.1899489244689
 20
601.2575614585759
 10
311.0810820346773
 20
600.1530853528066
 10
311.0005587034169
 20
598.9141566276298
 10
310.9511210561564
 20
597.5829655148502
 10
310.9344526326796
 20
596.2048441312256
  0
LINE
  5
A3C
330
1E
100
AcDbEntity
  8
STEMPEL
100
AcDbLine
 10
312.8923455159801
 20
596.2048441312256
 30
0.0
 11
312.8923455159801
 21
589.7048441312279
 31
0.0
  0
LINE
  5
A3D
330
1E
100
AcDbEntity
  8
STEMPEL
100
AcDbLine
 10
311.9282313462175
 20
596.2048441312256
 30
0.0
 11
311.9282313462175
 21
589.7048441312279
 31
0.0
  0
LINE
  5
A3E
330
1E
100
AcDbEntity
  8
STEMPEL
100
AcDbLine
 10
310.9344526326796
 20
596.2048441312256
 30
0.0
 11
310.9344526326796
 21
589.7048441312267
 31
0.0
  0
LINE
  5
A3F
330
1E
100
AcDbEntity
  8
STEMPEL
100
AcDbLine
 10
314.1020327570151
 20
608.7048441312273
 30
0.0
 11
313.1020327570151
 21
608.7048441312273
 31
0.0
  0
ELLIPSE
  5
A40
330
1E
100
AcDbEntity
  8
STEMPEL
100
AcDbEllipse
 10
258.9740429261364
 20
641.2048441312276
 30
0.0
 11
0.0
 21
7.5
 31
0.0
210
0.0
220
0.0
230
-1.0
 40
0.8660254037843856
 41
4.712388980384689
 42
6.24459510668465
  0
ELLIPSE
  5
A41
330
1E
100
AcDbEntity
  8
STEMPEL
100
AcDbEllipse
 10
258.4728659306944
 20
641.2048441312276
 30
0.0
 11
0.0
 21
7.5
 31
0.0
210
0.0
220
0.0
230
-1.0
 40
0.8660254037843856
 41
4.712388980384689
 42
7.853981633974482
  0
LINE
  5
A42
330
1E
100
AcDbEntity
  8
STEMPEL
100
AcDbLine
 10
229.5415473520719
 20
673.7048441312256
 30
0.0
 11
284.1020327570153
 21
673.7048441312261
 31
0.0
  0
LINE
  5
A43
330
1E
100
AcDbEntity
  8
STEMPEL
100
AcDbLine
 10
217.6915473520714
 20
673.7048441312256
 30
0.0
 11
224.1453949293655
 21
673.7048441312256
 31
0.0
  0
LINE
  5
A44
330
1E
100
AcDbEntity
  8
STEMPEL
100
AcDbLine
 10
217.6915473520714
 20
673.7048441312256
 30
0.0
 11
224.1453949293655
 21
673.7048441312256
 31
0.0
  0
ARC
  5
A45
330
1E
100
AcDbEntity
  8
STEMPEL
100
AcDbCircle
 10
204.1020327570153
 20
641.2048441312276
 30
0.0
 40
7.5
100
AcDbArc
 50
0.0000000000260551
 51
180.000000000013
  0
LINE
  5
A46
330
1E
100
AcDbEntity
  8
STEMPEL
100
AcDbLine
 10
200.7434711407178
 20
674.2048441312256
 30
0.0
 11
210.8317386019114
 21
674.2048441312256
 31
0.0
  0
LINE
  5
A47
330
1E
100
AcDbEntity
  8
STEMPEL
100
AcDbLine
 10
191.6915473520709
 20
673.7048441312256
 30
0.0
 11
198.1453949293651
 21
673.7048441312256
 31
0.0
  0
LINE
  5
A48
330
1E
100
AcDbEntity
  8
STEMPEL
100
AcDbLine
 10
191.6915473520709
 20
673.7048441312256
 30
0.0
 11
198.1453949293651
 21
673.7048441312256
 31
0.0
  0
ARC
  5
A49
330
1E
100
AcDbEntity
  8
STEMPEL
100
AcDbCircle
 10
191.6915473520709
 20
675.2048441312256
 30
0.0
 40
2.5
100
AcDbArc
 50
210.0000000000019
 51
270.0
  0
ARC
  5
A4A
330
1E
100
AcDbEntity
  8
STEMPEL
100
AcDbCircle
 10
191.6915473520709
 20
675.2048441312256
 30
0.0
 40
1.5
100
AcDbArc
 50
210.0000000000019
 51
270.0
  0
ARC
  5
A4B
330
1E
100
AcDbEntity
  8
STEMPEL
100
AcDbCircle
 10
188.8934711407179
 20
673.7048441312256
 30
0.0
 40
0.5
100
AcDbArc
 50
90.0
 51
150.0000000000069
  0
LINE
  5
A4C
330
1E
100
AcDbEntity
  8
STEMPEL
100
AcDbLine
 10
188.8934711407179
 20
674.2048441312256
 30
0.0
 11
189.0934711407179
 21
674.2048441312256
 31
0.0
  0
ARC
  5
A4D
330
1E
100
AcDbEntity
  8
STEMPEL
100
AcDbCircle
 10
189.0934711407179
 20
673.7048441312256
 30
0.0
 40
0.5
100
AcDbArc
 50
30.00000000000196
 51
90.0
  0
ARC
  5
A4E
330
1E
100
AcDbEntity
  8
STEMPEL
100
AcDbCircle
 10
189.0934711407179
 20
673.7048441312256
 30
0.0
 40
1.5
100
AcDbArc
 50
30.00000000000196
 51
90.0
  0
ARC
  5
A4F
330
1E
100
AcDbEntity
  8
STEMPEL
100
AcDbCircle
 10
198.1453949293651
 20
675.2048441312256
 30
0.0
 40
2.5
100
AcDbArc
 50
270.0
 51
329.9999999999952
  0
ARC
  5
A50
330
1E
100
AcDbEntity
  8
STEMPEL
100
AcDbCircle
 10
200.7434711407178
 20
673.7048441312256
 30
0.0
 40
1.5
100
AcDbArc
 50
90.0
 51
149.9999999999966
  0
ARC
  5
A51
330
1E
100
AcDbEntity
  8
STEMPEL
100
AcDbCircle
 10
198.1453949293651
 20
675.2048441312256
 30
0.0
 40
1.5
100
AcDbArc
 50
270.0
 51
329.9999999999952
  0
ARC
  5
A52
330
1E
100
AcDbEntity
  8
STEMPEL
100
AcDbCircle
 10
200.7434711407178
 20
673.7048441312256
 30
0.0
 40
0.5
100
AcDbArc
 50
90.0
 51
149.9999999999966
  0
ARC
  5
A53
330
1E
100
AcDbEntity
  8
STEMPEL
100
AcDbCircle
 10
212.7682302750147
 20
674.2048441312256
 30
0.0
 40
1.5
100
AcDbArc
 50
194.4775121859295
 51
270.0
  0
ARC
  5
A54
330
1E
100
AcDbEntity
  8
STEMPEL
100
AcDbCircle
 10
212.7682302750147
 20
674.2048441312256
 30
0.0
 40
0.5
100
AcDbArc
 50
194.4775121859295
 51
270.0
  0
ARC
  5
A55
330
1E
100
AcDbEntity
  8
STEMPEL
100
AcDbCircle
 10
210.8317386019114
 20
673.7048441312256
 30
0.0
 40
1.5
100
AcDbArc
 50
14.47751218592945
 51
90.0
  0
ARC
  5
A56
330
1E
100
AcDbEntity
  8
STEMPEL
100
AcDbCircle
 10
210.8317386019114
 20
673.7048441312256
 30
0.0
 40
0.5
100
AcDbArc
 50
14.47751218592945
 51
90.0
  0
ARC
  5
A57
330
1E
100
AcDbEntity
  8
STEMPEL
100
AcDbCircle
 10
215.093471140718
 20
673.7048441312256
 30
0.0
 40
1.5
100
AcDbArc
 50
29.99999999999913
 51
90.0
  0
ARC
  5
A58
330
1E
100
AcDbEntity
  8
STEMPEL
100
AcDbCircle
 10
217.6915473520714
 20
675.2048441312256
 30
0.0
 40
2.5
100
AcDbArc
 50
209.9999999999991
 51
270.0
  0
ARC
  5
A59
330
1E
100
AcDbEntity
  8
STEMPEL
100
AcDbCircle
 10
217.6915473520714
 20
675.2048441312256
 30
0.0
 40
1.5
100
AcDbArc
 50
209.9999999999991
 51
270.0
  0
ARC
  5
A5A
330
1E
100
AcDbEntity
  8
STEMPEL
100
AcDbCircle
 10
212.9569794676139
 20
674.2048441312256
 30
0.0
 40
1.5
100
AcDbArc
 50
270.0
 51
345.5224878140721
  0
ARC
  5
A5B
330
1E
100
AcDbEntity
  8
STEMPEL
100
AcDbCircle
 10
214.8934711407179
 20
673.7048441312256
 30
0.0
 40
1.5
100
AcDbArc
 50
90.0
 51
165.5224878140737
  0
ARC
  5
A5C
330
1E
100
AcDbEntity
  8
STEMPEL
100
AcDbCircle
 10
212.9569794676139
 20
674.2048441312256
 30
0.0
 40
0.5
100
AcDbArc
 50
270.0
 51
345.5224878140721
  0
LINE
  5
A5D
330
1E
100
AcDbEntity
  8
STEMPEL
100
AcDbLine
 10
212.7682302750147
 20
673.7048441312256
 30
0.0
 11
212.9569794676139
 21
673.7048441312256
 31
0.0
  0
ARC
  5
A5E
330
1E
100
AcDbEntity
  8
STEMPEL
100
AcDbCircle
 10
214.8934711407179
 20
673.7048441312256
 30
0.0
 40
0.5
100
AcDbArc
 50
90.0
 51
165.5224878140737
  0
LINE
  5
A5F
330
1E
100
AcDbEntity
  8
STEMPEL
100
AcDbLine
 10
214.8934711407179
 20
674.2048441312256
 30
0.0
 11
215.093471140718
 21
674.2048441312256
 31
0.0
  0
ARC
  5
A60
330
1E
100
AcDbEntity
  8
STEMPEL
100
AcDbCircle
 10
215.093471140718
 20
673.7048441312256
 30
0.0
 40
0.5
100
AcDbArc
 50
29.99999999999913
 51
90.0
  0
ARC
  5
A61
330
1E
100
AcDbEntity
  8
STEMPEL
100
AcDbCircle
 10
229.5415473520719
 20
675.2048441312256
 30
0.0
 40
2.5
100
AcDbArc
 50
209.9999999999903
 51
270.0
  0
ARC
  5
A62
330
1E
100
AcDbEntity
  8
STEMPEL
100
AcDbCircle
 10
229.5415473520719
 20
675.2048441312256
 30
0.0
 40
1.5
100
AcDbArc
 50
209.9999999999903
 51
270.0
  0
ARC
  5
A63
330
1E
100
AcDbEntity
  8
STEMPEL
100
AcDbCircle
 10
224.1453949293655
 20
675.2048441312256
 30
0.0
 40
1.5
100
AcDbArc
 50
270.0
 51
329.9999999999938
  0
ARC
  5
A64
330
1E
100
AcDbEntity
  8
STEMPEL
100
AcDbCircle
 10
224.1453949293655
 20
675.2048441312256
 30
0.0
 40
2.5
100
AcDbArc
 50
270.0
 51
329.9999999999938
  0
ARC
  5
A65
330
1E
100
AcDbEntity
  8
STEMPEL
100
AcDbCircle
 10
226.7434711407178
 20
673.7048441312256
 30
0.0
 40
1.5
100
AcDbArc
 50
90.0
 51
149.9999999999924
  0
ARC
  5
A66
330
1E
100
AcDbEntity
  8
STEMPEL
100
AcDbCircle
 10
226.7434711407178
 20
673.7048441312256
 30
0.0
 40
0.5
100
AcDbArc
 50
90.0
 51
149.9999999999924
  0
LINE
  5
A67
330
1E
100
AcDbEntity
  8
STEMPEL
100
AcDbLine
 10
226.7434711407178
 20
674.2048441312256
 30
0.0
 11
226.9434711407178
 21
674.2048441312256
 31
0.0
  0
ARC
  5
A68
330
1E
100
AcDbEntity
  8
STEMPEL
100
AcDbCircle
 10
226.9434711407178
 20
673.7048441312256
 30
0.0
 40
0.5
100
AcDbArc
 50
29.99999999999165
 51
90.0
  0
ARC
  5
A69
330
1E
100
AcDbEntity
  8
STEMPEL
100
AcDbCircle
 10
226.9434711407178
 20
673.7048441312256
 30
0.0
 40
1.5
100
AcDbArc
 50
29.99999999999165
 51
90.0
  0
ARC
  5
A6A
330
1E
100
AcDbEntity
  8
STEMPEL
100
AcDbCircle
 10
284.1020327570153
 20
667.7048441312256
 30
0.0
 40
5.0
100
AcDbArc
 50
59.46264995170093
 51
90.0
  0
ARC
  5
A6B
330
1E
100
AcDbEntity
  8
STEMPEL
100
AcDbCircle
 10
284.1020327570153
 20
667.7048441312256
 30
0.0
 40
6.0
100
AcDbArc
 50
59.48712567237972
 51
90.0
  0
ARC
  5
A6C
330
1E
100
AcDbEntity
  8
STEMPEL
100
AcDbCircle
 10
284.1020327570153
 20
667.7048441312256
 30
0.0
 40
6.0
100
AcDbArc
 50
90.0
 51
90.0
  0
LINE
  5
A6D
330
1E
100
AcDbEntity
  8
STEMPEL
100
AcDbLine
 10
310.6213863251424
 20
658.0236815781067
 30
0.0
 11
286.6425324321911
 21
672.0113347442922
 31
0.0
  0
LINE
  5
A6E
330
1E
100
AcDbEntity
  8
STEMPEL
100
AcDbLine
 10
311.1347273787231
 20
658.8819246912694
 30
0.0
 11
287.1484245032562
 21
672.873934701958
 31
0.0
  0
ELLIPSE
  5
A6F
330
1E
100
AcDbEntity
  8
STEMPEL
100
AcDbEllipse
 10
299.1431422833672
 20
641.2048441312276
 30
0.0
 11
0.0
 21
7.499999999999999
 31
0.0
210
0.0
220
0.0
230
-1.0
 40
0.4999999999999926
 41
4.712388980384689
 42
6.167183451052224
  0
ELLIPSE
  5
A70
330
1E
100
AcDbEntity
  8
STEMPEL
100
AcDbEllipse
 10
298.2750782636784
 20
641.2048441312276
 30
0.0
 11
0.0
 21
7.499999999999999
 31
0.0
210
0.0
220
0.0
230
-1.0
 40
0.4999999999999926
 41
4.712388980384689
 42
7.853981633974482
  0
ARC
  5
A71
330
1E
100
AcDbEntity
  8
STEMPEL
100
AcDbCircle
 10
308.1020327570152
 20
653.7047861639105
 30
0.0
 40
5.0
100
AcDbArc
 50
0.0
 51
59.74358352518276
  0
ARC
  5
A72
330
1E
100
AcDbEntity
  8
STEMPEL
100
AcDbCircle
 10
308.1020327570152
 20
653.7047861639105
 30
0.0
 40
6.0
100
AcDbArc
 50
0.0
 51
59.74358352518276
  0
LINE
  5
A73
330
1E
100
AcDbEntity
  8
STEMPEL
100
AcDbLine
 10
314.1020327570151
 20
648.7048441312273
 30
0.0
 11
313.1020327570151
 21
648.7048441312273
 31
0.0
  0
ARC
  5
A74
330
1E
100
AcDbEntity
  8
STEMPEL
100
AcDbCircle
 10
313.6131763613268
 20
663.2246811136878
 30
0.0
 40
5.0
100
AcDbArc
 50
239.743562836472
 51
239.9329541615164
  0
LINE
  5
A78
330
1E
100
AcDbEntity
  8
MITTEL
100
AcDbLine
 10
326.1020327570151
 20
563.704844131226
 30
0.0
 11
326.1020327570151
 21
595.3725874656263
 31
0.0
  0
LINE
  5
A79
330
1E
100
AcDbEntity
  8
STEMPEL
100
AcDbLine
 10
332.1020327570149
 20
586.3048441312262
 30
0.0
 11
332.1020327570149
 21
584.7048441312263
 31
0.0
  0
LINE
  5
A7A
330
1E
100
AcDbEntity
  8
STEMPEL
100
AcDbLine
 10
320.1020327570148
 20
586.3048441312264
 30
0.0
 11
320.1020327570148
 21
584.7048441312263
 31
0.0
  0
ARC
  5
A7B
102
{ACAD_REACTORS
330
8CD
102
}
330
1E
100
AcDbEntity
  8
STEMPEL
100
AcDbCircle
 10
338.7598899815886
 20
574.704844131226
 30
0.0
 40
4.99999999999995
100
AcDbArc
 50
181.0000000000002
 51
270.0
  0
LINE
  5
A7C
330
1E
100
AcDbEntity
  8
STEMPEL
100
AcDbLine
 10
323.7520327570148
 20
575.6548441312263
 30
0.0
 11
328.4520327570151
 21
575.6548441312263
 31
0.0
  0
LINE
  5
A7D
330
1E
100
AcDbEntity
  8
STEMPEL
100
AcDbLine
 10
334.1020327570149
 20
584.704844131226
 30
0.0
 11
319.102032757015
 21
584.7048441312265
 31
0.0
  0
LINE
  5
A7E
330
1E
100
AcDbEntity
  8
STEMPEL
100
AcDbLine
 10
323.1020327570152
 20
576.3048441312264
 30
0.0
 11
329.1020327570152
 21
576.3048441312264
 31
0.0
  0
LINE
  5
A7F
330
1E
100
AcDbEntity
  8
STEMPEL
100
AcDbLine
 10
332.1020327570151
 20
584.704844131226
 30
0.0
 11
320.1020327570148
 21
584.7048441312265
 31
0.0
  0
LINE
  5
A80
330
1E
100
AcDbEntity
  8
STEMPEL
100
AcDbLine
 10
323.7520327570158
 20
575.6548441312259
 30
0.0
 11
323.7520327570154
 21
563.7048441312259
 31
0.0
  0
LINE
  5
A81
102
{ACAD_REACTORS
330
8CD
102
}
330
1E
100
AcDbEntity
  8
HILF
100
AcDbLine
 10
323.1020327570152
 20
576.3048441312264
 30
0.0
 11
323.1020327570146
 21
563.704844131226
 31
0.0
  0
LINE
  5
A82
330
1E
100
AcDbEntity
  8
STEMPEL
100
AcDbLine
 10
322.1020327570151
 20
584.7048441312265
 30
0.0
 11
322.1020327570151
 21
583.704844131226
 31
0.0
  0
LINE
  5
A83
330
1E
100
AcDbEntity
  8
HILF
100
AcDbLine
 10
323.7520327570144
 20
575.6548441312263
 30
0.0
 11
323.7520327570142
 21
584.7048441312263
 31
0.0
  0
LINE
  5
A84
102
{ACAD_REACTORS
330
8CD
102
}
330
1E
100
AcDbEntity
  8
STEMPEL
100
AcDbLine
 10
323.1020327570149
 20
584.7048441312263
 30
0.0
 11
323.1020327570152
 21
576.3048441312264
 31
0.0
  0
LINE
  5
A85
330
1E
100
AcDbEntity
  8
STEMPEL
100
AcDbLine
 10
323.1020327570152
 20
576.3048441312264
 30
0.0
 11
323.7520327570148
 21
575.6548441312263
 31
0.0
  0
LINE
  5
A86
330
1E
100
AcDbEntity
  8
STEMPEL
100
AcDbLine
 10
328.4520327570147
 20
575.6548441312259
 30
0.0
 11
328.452032757015
 21
563.7048441312259
 31
0.0
  0
LINE
  5
A87
102
{ACAD_REACTORS
330
8CD
102
}
330
1E
100
AcDbEntity
  8
HILF
100
AcDbLine
 10
329.1020327570152
 20
576.3048441312264
 30
0.0
 11
329.1020327570159
 21
563.704844131226
 31
0.0
  0
LINE
  5
A88
102
{ACAD_REACTORS
330
8CD
102
}
330
1E
100
AcDbEntity
  8
STEMPEL
100
AcDbLine
 10
329.1020327570148
 20
583.704844131226
 30
0.0
 11
334.1020327570152
 21
583.704844131226
 31
0.0
  0
LINE
  5
A89
330
1E
100
AcDbEntity
  8
STEMPEL
100
AcDbLine
 10
330.1020327570151
 20
584.704844131226
 30
0.0
 11
330.1020327570151
 21
583.704844131226
 31
0.0
  0
LINE
  5
A8A
330
1E
100
AcDbEntity
  8
STEMPEL
100
AcDbLine
 10
328.4520327570151
 20
575.6548441312263
 30
0.0
 11
329.1020327570152
 21
576.3048441312264
 31
0.0
  0
LINE
  5
A8B
330
1E
100
AcDbEntity
  8
HILF
100
AcDbLine
 10
328.4520327570147
 20
575.6548441312263
 30
0.0
 11
328.4520327570143
 21
584.704844131226
 31
0.0
  0
LINE
  5
A8C
102
{ACAD_REACTORS
330
8CD
102
}
330
1E
100
AcDbEntity
  8
STEMPEL
100
AcDbLine
 10
329.1020327570148
 20
584.7048441312262
 30
0.0
 11
329.1020327570152
 21
576.3048441312264
 31
0.0
  0
LINE
  5
A8D
102
{ACAD_REACTORS
330
8CD
102
}
330
1E
100
AcDbEntity
  8
STEMPEL
100
AcDbLine
 10
333.6020327570151
 20
583.704844131226
 30
0.0
 11
333.7606515058066
 21
574.6175820990394
 31
0.0
  0
LINE
  5
A8E
330
1E
100
AcDbEntity
  8
STEMPEL
100
AcDbLine
 10
334.1020327570149
 20
584.7048441312263
 30
0.0
 11
334.1020327570151
 21
583.704844131226
 31
0.0
  0
LINE
  5
A90
102
{ACAD_REACTORS
330
8CD
102
}
330
1E
100
AcDbEntity
  8
STEMPEL
100
AcDbLine
 10
338.7598899815885
 20
569.7048441312261
 30
0.0
 11
346.1020327570151
 21
569.7048441312261
 31
0.0
  0
ARC
  5
A91
102
{ACAD_REACTORS
330
8CD
102
}
330
1E
100
AcDbEntity
  8
STEMPEL
100
AcDbCircle
 10
346.1020327570151
 20
566.704844131226
 30
0.0
 40
3.000000000000028
100
AcDbArc
 50
270.0
 51
90.0
  0
ARC
  5
A92
330
1E
100
AcDbEntity
  8
STEMPEL
100
AcDbCircle
 10
326.1020327570149
 20
582.0914698720264
 30
0.0
 40
8.281117593600001
100
AcDbArc
 50
70.5278273813868
 51
109.4721726186137
  0
LINE
  5
A93
330
1E
100
AcDbEntity
  8
STEMPEL
100
AcDbLine
 10
320.1020327570148
 20
586.3048441312264
 30
0.0
 11
332.1020327570149
 21
586.3048441312262
 31
0.0
  0
LINE
  5
A94
330
1E
100
AcDbEntity
  8
STEMPEL
100
AcDbLine
 10
321.961683167389
 20
590.3725874656263
 30
0.0
 11
330.2423823461318
 21
590.3725874656263
 31
0.0
  0
ARC
  5
A95
330
1E
100
AcDbEntity
  8
STEMPEL
100
AcDbCircle
 10
321.9612793750408
 20
588.1246891453472
 30
0.0
 40
2.247898356545996
100
AcDbArc
 50
52.11936428281948
 51
121.4691945163676
  0
LINE
  5
A96
330
1E
100
AcDbEntity
  8
STEMPEL
100
AcDbLine
 10
320.5810282477163
 20
589.9225969204232
 30
0.0
 11
320.5810282477163
 21
586.3048441312264
 31
0.0
  0
LINE
  5
A97
330
1E
100
AcDbEntity
  8
STEMPEL
100
AcDbLine
 10
320.5810282477163
 20
589.9225969204232
 30
0.0
 11
320.7877863795017
 21
590.0419687834666
 31
0.0
  0
LINE
  5
A98
330
1E
100
AcDbEntity
  8
STEMPEL
100
AcDbLine
 10
323.3415305023656
 20
589.8989365482989
 30
0.0
 11
323.3415305023656
 21
586.3048441312264
 31
0.0
  0
ARC
  5
A99
330
1E
100
AcDbEntity
  8
STEMPEL
100
AcDbCircle
 10
330.2427861389889
 20
588.1246891453472
 30
0.0
 40
2.247898356545996
100
AcDbArc
 50
58.53080548383034
 51
127.8806357171805
  0
LINE
  5
A9A
330
1E
100
AcDbEntity
  8
STEMPEL
100
AcDbLine
 10
328.8625350116644
 20
589.8989365482989
 30
0.0
 11
328.8625350116642
 21
586.3048441312264
 31
0.0
  0
LINE
  5
A9B
330
1E
100
AcDbEntity
  8
STEMPEL
100
AcDbLine
 10
330.2388269136296
 20
590.3725874656263
 30
0.0
 11
330.2423823466257
 21
590.3725874656263
 31
0.0
  0
LINE
  5
A9C
330
1E
100
AcDbEntity
  8
STEMPEL
100
AcDbLine
 10
331.6230372663136
 20
589.9225969204231
 30
0.0
 11
331.6230372663136
 21
586.3048441312264
 31
0.0
  0
LINE
  5
A9D
330
1E
100
AcDbEntity
  8
STEMPEL
100
AcDbLine
 10
331.6230372663136
 20
589.9225969204232
 30
0.0
 11
331.4162791345212
 21
590.0419687834706
 31
0.0
  0
LINE
  5
AA0
102
{ACAD_REACTORS
330
DA5
102
}
330
1E
100
AcDbEntity
  8
STEMPEL
100
AcDbLine
 10
354.1020327570151
 20
557.704844131226
 30
0.0
 11
354.1020327570151
 21
560.7048441312259
 31
0.0
  0
DIMENSION
  5
B20
330
1E
100
AcDbEntity
  8
BEM
100
AcDbDimension
  2
*D4
 10
354.1080041821294
 20
696.7396350392033
 30
0.0
 11
204.1085718601656
 21
703.2396350392033
 31
0.0
 70
    32
  1
%%c<>
 71
     5
 42
299.9988646439277
  3
Standard
100
AcDbAlignedDimension
 13
54.10913953820167
 23
552.8261644747869
 33
0.0
 14
354.1080041821294
 24
552.8130862684859
 34
0.0
100
AcDbRotatedDimension
1001
ACAD
1000
DSTYLE
1002
{
1070
    40
1040
2.0
1070
    41
1040
3.5
1070
    42
1040
1.0
1070
    43
1040
7.0
1070
    44
1040
1.0
1070
    73
1070
     0
1070
    74
1070
     0
1070
    77
1070
     1
1070
    78
1070
     8
1070
    79
1070
     2
1070
   140
1040
3.5
1070
   141
1040
1.5
1070
   146
1040
0.5142857142857144
1070
   147
1040
1.5
1070
   172
1070
     1
1070
   178
1070
     1
1070
   179
1070
     2
1070
   271
1070
     2
1070
   272
1070
     2
1070
   284
1070
     8
1070
   285
1070
     8
1070
   286
1070
     8
1002
}
  0
DIMENSION
  5
B3F
330
1E
100
AcDbEntity
  8
BEM
100
AcDbDimension
  2
*D5
 10
314.1020327570153
 20
682.9044239247346
 30
0.0
 11
204.1020327570152
 21
689.4044239247347
 31
0.0
 70
    32
  1
%%c<>
 71
     5
 42
220.0000000000002
  3
Standard
100
AcDbAlignedDimension
 13
94.10203275701508
 23
653.7047861639105
 33
0.0
 14
314.1020327570153
 24
653.7047861639105
 34
0.0
100
AcDbRotatedDimension
1001
ACAD
1000
DSTYLE
1002
{
1070
    40
1040
2.0
1070
    41
1040
3.5
1070
    42
1040
1.0
1070
    43
1040
7.0
1070
    44
1040
1.0
1070
    73
1070
     0
1070
    74
1070
     0
1070
    77
1070
     1
1070
    78
1070
     8
1070
    79
1070
     2
1070
   140
1040
3.5
1070
   141
1040
1.5
1070
   146
1040
0.5142857142857144
1070
   147
1040
1.5
1070
   172
1070
     1
1070
   178
1070
     1
1070
   179
1070
     2
1070
   271
1070
     2
1070
   272
1070
     2
1070
   284
1070
     8
1070
   285
1070
     8
1070
   286
1070
     8
1002
}
  0
TEXT
  5
B55
330
1E
100
AcDbEntity
  8
TEXT
 62
     1
100
AcDbText
 10
279.8795556155443
 20
741.2920865411733
 30
0.0
 40
7.0
  1
EDV-Art.Nr. 21004.000X
 41
0.8
  7
GREEKS
100
AcDbText
  0
LINE
  5
B56
330
1E
100
AcDbEntity
  8
TEXT
 62
     2
100
AcDbLine
 10
278.5281864673681
 20
751.8057654282772
 30
0.0
 11
386.8317911918799
 21
751.8057654282772
 31
0.0
  0
TEXT
  5
B57
330
1E
100
AcDbEntity
  8
TEXT
 62
     1
100
AcDbText
 10
279.8795556155443
 20
754.9684270589088
 30
0.0
 40
7.0
  1
Siebkorb
 41
0.8
  7
GREEKS
100
AcDbText
  0
LINE
  5
B58
330
1E
100
AcDbEntity
  8
TEXT
 62
     2
100
AcDbLine
 10
264.1428345311197
 20
698.4636136189033
 30
0.0
 11
278.5281864673681
 21
751.8057654282772
 31
0.0
  0
LINE
  5
B59
330
1E
100
AcDbEntity
  8
TEXT
 62
     2
100
AcDbLine
 10
260.5689323139221
 20
685.2112694658736
 30
0.0
 11
262.859920128846
 21
693.7064540368653
 31
0.0
  0
LINE
  5
B5A
330
1E
100
AcDbEntity
  8
TEXT
 62
     2
100
AcDbLine
 10
257.2287066716037
 20
672.82541863096
 30
0.0
 11
259.1778777989283
 21
680.0531168226325
 31
0.0
  0
TEXT
  5
B6D
330
1E
100
AcDbEntity
  8
TEXT
 62
     1
100
AcDbText
 10
359.9231624008199
 20
521.8108298861678
 30
0.0
 40
7.0
  1
EDV-Art.Nr. 21905.100X
 41
0.8
100
AcDbText
  0
LINE
  5
B6E
330
1E
100
AcDbEntity
  8
TEXT
 62
     2
100
AcDbLine
 10
465.2663710971986
 20
531.103326693967
 30
0.0
 11
359.3278065220655
 21
531.103326693967
 31
0.0
  0
TEXT
  5
B6F
330
1E
100
AcDbEntity
  8
TEXT
 62
     1
100
AcDbText
 10
359.9231624008199
 20
534.5871608548774
 30
0.0
 40
7.0
  1
Losflansch DN100
 41
0.8
100
AcDbText
  0
LINE
  5
B70
102
{ACAD_REACTORS
330
DA5
102
}
330
1E
100
AcDbEntity
  8
TEXT
 62
     2
100
AcDbLine
 10
359.3278065220655
 20
531.103326693967
 30
0.0
 11
335.59927975364
 21
566.5737454309288
 31
0.0
  0
LINE
  5
B74
330
1E
100
AcDbEntity
  8
TEXT
 62
     2
100
AcDbLine
 10
342.4588910822239
 20
494.5288315967733
 30
0.0
 11
290.0301268667121
 21
558.8572672445913
 31
0.0
  0
TEXT
  5
B76
330
1E
100
AcDbEntity
  8
TEXT
 62
     1
100
AcDbText
 10
334.95764508292
 20
330.296721085613
 30
0.0
 40
7.0
  1
Ablaufkörper DN100
 41
0.8
  7
GREEKS
100
AcDbText
  0
LINE
  5
B77
330
1E
100
AcDbEntity
  8
TEXT
 62
     2
100
AcDbLine
 10
333.876958684083
 20
326.6839528134193
 30
0.0
 11
258.0198142570254
 21
349.1836600928369
 31
0.0
  0
LINE
  5
B78
330
1E
100
AcDbEntity
  8
TEXT
 62
     2
100
AcDbLine
 10
437.4782132344442
 20
326.6839528134195
 30
0.0
 11
333.876958684083
 21
326.6839528134193
 31
0.0
  0
TEXT
  5
B79
330
1E
100
AcDbEntity
  8
TEXT
 62
     1
100
AcDbText
 10
334.777089788768
 20
317.2489489386338
 30
0.0
 40
7.0
  1
EDV-Art.Nr. 21519.100X
 41
0.8
  7
GREEKS
100
AcDbText
  0
TEXT
  5
BB1
330
1E
100
AcDbEntity
  8
TEXT
 62
     1
100
AcDbText
 10
349.1847177825691
 20
497.5153720888264
 30
0.0
 40
7.0
  1
Kompressionsdichtung
 41
0.8
100
AcDbText
  0
TEXT
  5
BB2
330
1E
100
AcDbEntity
  8
TEXT
 62
     1
100
AcDbText
 10
349.5406767854058
 20
483.9773587837781
 30
0.0
 40
7.0
  1
EDV-Art.Nr. 21810.125X
 41
0.8
100
AcDbText
  0
LINE
  5
BB3
330
1E
100
AcDbEntity
  8
TEXT
 62
     2
100
AcDbLine
 10
342.4588910822239
 20
494.5288315967733
 30
0.0
 11
453.9886324166267
 21
494.5288315967733
 31
0.0
  0
LINE
  5
C07
330
1E
100
AcDbEntity
  8
STEMPEL
100
AcDbLine
 10
262.4451785075211
 20
543.8261644747858
 30
0.0
 11
145.7588870065091
 21
543.8261644747858
 31
0.0
  0
LINE
  5
C08
330
1E
100
AcDbEntity
  8
STEMPEL
100
AcDbLine
 10
56.23045988176134
 20
550.704844131227
 30
0.0
 11
134.6375666629482
 21
550.7048441312267
 31
0.0
  0
LINE
  5
C09
330
1E
100
AcDbEntity
  8
STEMPEL
100
AcDbLine
 10
60.23045988176133
 20
554.7048441312269
 30
0.0
 11
129.809139538202
 21
554.7048441312267
 31
0.0
  0
LINE
  5
C0A
330
1E
100
AcDbEntity
  8
STEMPEL
100
AcDbLine
 10
54.10913953820167
 20
552.8261644747869
 30
0.0
 11
58.10913953820167
 21
556.8261644747868
 31
0.0
  0
LINE
  5
C0B
330
1E
100
AcDbEntity
  8
STEMPEL
100
AcDbLine
 10
56.23045988176134
 20
550.704844131227
 30
0.0
 11
60.23045988176133
 21
554.7048441312269
 31
0.0
  0
LINE
  5
C0C
330
1E
100
AcDbEntity
  8
STEMPEL
100
AcDbLine
 10
54.10913953820179
 20
552.8261644747868
 30
0.0
 11
56.23045988176134
 21
550.704844131227
 31
0.0
  0
ARC
  5
C0D
330
1E
100
AcDbEntity
  8
STEMPEL
100
AcDbCircle
 10
60.23045988176133
 20
554.7048441312269
 30
0.0
 40
3.0
100
AcDbArc
 50
90.0
 51
135.0
  0
ARC
  5
C0E
330
1E
100
AcDbEntity
  8
STEMPEL
100
AcDbCircle
 10
129.809139538202
 20
552.7048441312265
 30
0.0
 40
5.0
100
AcDbArc
 50
45.00000000000115
 51
90.0
  0
LINE
  5
C0F
102
{ACAD_REACTORS
330
E69
102
}
330
1E
100
AcDbEntity
  8
STEMPEL
100
AcDbLine
 10
131.223353100575
 20
554.1190576935996
 30
0.0
 11
143.6375666629489
 21
541.7048441312267
 31
0.0
  0
ARC
  5
C10
330
1E
100
AcDbEntity
  8
STEMPEL
100
AcDbCircle
 10
129.809139538202
 20
552.7048441312265
 30
0.0
 40
2.0
100
AcDbArc
 50
45.00000000000115
 51
90.0
  0
LINE
  5
C12
330
1E
100
AcDbEntity
  8
STEMPEL
  6
STRICHPUNKT
100
AcDbLine
 10
145.7588870065085
 20
543.8261644747862
 30
0.0
 11
143.6375666629489
 21
541.7048441312267
 31
0.0
  0
LINE
  5
C13
330
1E
100
AcDbEntity
  8
STEMPEL
100
AcDbLine
 10
273.5664988510815
 20
550.704844131226
 30
0.0
 11
351.9736056322702
 21
550.7048441312258
 31
0.0
  0
LINE
  5
C14
330
1E
100
AcDbEntity
  8
STEMPEL
100
AcDbLine
 10
278.3949259758283
 20
554.7048441312263
 30
0.0
 11
347.9736056322699
 21
554.7048441312258
 31
0.0
  0
LINE
  5
C15
330
1E
100
AcDbEntity
  8
STEMPEL
  6
STRICHPUNKT
100
AcDbLine
 10
262.4451785075211
 20
543.8261644747858
 30
0.0
 11
264.5664988510807
 21
541.7048441312261
 31
0.0
  0
LINE
  5
C17
102
{ACAD_REACTORS
330
E69
102
}
330
1E
100
AcDbEntity
  8
STEMPEL
100
AcDbLine
 10
276.9807124134553
 20
554.1190576935996
 30
0.0
 11
264.5664988510807
 21
541.7048441312261
 31
0.0
  0
ARC
  5
C18
330
1E
100
AcDbEntity
  8
STEMPEL
100
AcDbCircle
 10
278.3949259758283
 20
552.7048441312265
 30
0.0
 40
2.0
100
AcDbArc
 50
90.0
 51
134.9999999999988
  0
ARC
  5
C19
330
1E
100
AcDbEntity
  8
STEMPEL
100
AcDbCircle
 10
278.3949259758283
 20
552.7048441312265
 30
0.0
 40
5.0
100
AcDbArc
 50
90.0
 51
134.9999999999988
  0
LINE
  5
C1A
330
1E
100
AcDbEntity
  8
STEMPEL
100
AcDbLine
 10
354.1080041821294
 20
552.8130862684859
 30
0.0
 11
350.0949259758286
 21
556.8261644747868
 31
0.0
  0
LINE
  5
C1B
330
1E
100
AcDbEntity
  8
STEMPEL
100
AcDbLine
 10
354.1080041821294
 20
552.8130862684859
 30
0.0
 11
351.9866838385699
 21
550.6917659249261
 31
0.0
  0
LINE
  5
C1C
330
1E
100
AcDbEntity
  8
STEMPEL
100
AcDbLine
 10
351.9736056322702
 20
550.7048441312258
 30
0.0
 11
347.9736056322689
 21
554.7048441312269
 31
0.0
  0
ARC
  5
C1D
330
1E
100
AcDbEntity
  8
STEMPEL
100
AcDbCircle
 10
347.9736056322689
 20
554.7048441312269
 30
0.0
 40
3.0
100
AcDbArc
 50
45.0
 51
90.0
  0
HATCH
  5
C1E
330
1E
100
AcDbEntity
  8
SCHRAFF
100
AcDbHatch
 10
0.0
 20
0.0
 30
0.0
210
0.0
220
0.0
230
1.0
  2
_USER
 70
     0
 71
     0
 91
        1
 92
        7
 72
     1
 73
     1
 93
       11
 10
60.23045988176133
 20
557.7048441312269
 42
0.1989123673796551
 10
58.10913953820167
 20
556.8261644747868
 42
0.0
 10
54.10913953820167
 20
552.8261644747869
 42
0.0
 10
56.23045988176134
 20
550.704844131227
 42
0.0
 10
60.23045988176116
 20
554.7048441312268
 42
0.0
 10
129.809139538202
 20
554.7048441312267
 42
-0.1989123673796159
 10
131.2233531005748
 20
554.1190576935998
 42
0.0
 10
143.6375666629489
 20
541.7048441312267
 42
0.0
 10
145.7588870065085
 20
543.8261644747862
 42
0.0
 10
133.3446734441345
 20
556.2403780371594
 42
0.1989123673796481
 10
129.809139538202
 20
557.7048441312268
 42
0.0
 97
        0
 75
     0
 76
     0
 52
45.0
 41
2.0
 77
     0
 78
     1
 53
45.0
 43
-45.09165547608364
 44
282.394001323243
 45
-1.414213562373094
 46
1.414213562373095
 79
     0
 47
0.4118729359136521
 98
        1
 10
119.3717056783986
 20
556.2604813512195
  0
HATCH
  5
C1F
330
1E
100
AcDbEntity
  8
SCHRAFF
100
AcDbHatch
 10
0.0
 20
0.0
 30
0.0
210
0.0
220
0.0
230
1.0
  2
_USER
 70
     0
 71
     0
 91
        1
 92
        7
 72
     1
 73
     1
 93
       11
 10
278.3949259758283
 20
557.7048441312268
 42
0.0
 10
347.973605632269
 20
557.7048441312269
 42
-0.1989123673796547
 10
350.0949259758287
 20
556.8261644747868
 42
0.0
 10
354.0949259758287
 20
552.8261644747868
 42
0.0
 10
351.973605632269
 20
550.704844131227
 42
0.0
 10
347.9736056322691
 20
554.7048441312268
 42
0.0
 10
278.3949259758283
 20
554.7048441312267
 42
0.1989123673796182
 10
276.9807124134555
 20
554.1190576935998
 42
0.0
 10
264.5664988510814
 20
541.7048441312267
 42
0.0
 10
262.4451785075219
 20
543.8261644747862
 42
0.0
 10
274.8593920698958
 20
556.2403780371594
 42
-0.1989123673796434
 97
        0
 75
     0
 76
     0
 52
45.0
 41
2.0
 77
     0
 78
     1
 53
45.0
 43
-45.09165547608364
 44
282.394001323243
 45
-1.414213562373094
 46
1.414213562373095
 79
     0
 47
0.4118729359136521
 98
        1
 10
288.8323598356317
 20
556.2604813512195
  0
ARC
  5
CDA
330
1E
100
AcDbEntity
  8
STEMPEL
100
AcDbCircle
 10
92.10203275701507
 20
549.3939549987711
 30
0.0
 40
30.31088913245485
100
AcDbArc
 50
81.78678929826093
 51
98.21321070173826
  0
ARC
  5
CDB
330
1E
100
AcDbEntity
  8
STEMPEL
100
AcDbCircle
 10
85.60684222863178
 20
572.0105384234415
 30
0.0
 40
7.694305707784447
100
AcDbArc
 50
73.65710669401501
 51
106.342893305985
  0
ARC
  5
CDC
330
1E
100
AcDbEntity
  8
STEMPEL
100
AcDbCircle
 10
98.59722328539838
 20
572.0105384234415
 30
0.0
 40
7.694305707784447
100
AcDbArc
 50
73.65710669401501
 51
106.342893305985
  0
ARC
  5
CDD
330
1E
100
AcDbEntity
  8
HILF
100
AcDbCircle
 10
92.10203275701507
 20
549.8063830835646
 30
0.0
 40
22.41111549782308
100
AcDbArc
 50
78.85962783890473
 51
101.1403721610953
  0
ARC
  5
CDE
330
1E
100
AcDbEntity
  8
HILF
100
AcDbCircle
 10
98.59722328539838
 20
566.4563579816963
 30
0.0
 40
5.761140599691502
100
AcDbArc
 50
67.92594526326206
 51
112.0740547367379
  0
ARC
  5
CDF
330
1E
100
AcDbEntity
  8
HILF
100
AcDbCircle
 10
85.60684222863178
 20
566.4563579816963
 30
0.0
 40
5.761140599691502
100
AcDbArc
 50
67.92594526326206
 51
112.0740547367379
  0
POINT
  5
CE0
330
1E
100
AcDbEntity
  8
0
100
AcDbPoint
 10
92.10203275701507
 20
569.704844131226
 30
0.0
210
0.0000000000000001
220
1.0
230
0.0
  0
LINE
  5
CE1
330
1E
100
AcDbEntity
  8
STEMPEL
100
AcDbLine
 10
84.60203275701511
 20
579.7048441312259
 30
0.0
 11
99.60203275701507
 21
579.7048441312259
 31
0.0
  0
LINE
  5
CE2
330
1E
100
AcDbEntity
  8
STEMPEL
100
AcDbLine
 10
100.7622867948594
 20
571.7952006474257
 30
0.0
 11
100.7622867948594
 21
579.3939549987705
 31
0.0
  0
LINE
  5
CE3
330
1E
100
AcDbEntity
  8
STEMPEL
100
AcDbLine
 10
96.43215977593728
 20
571.7952006474257
 30
0.0
 11
96.43215977593728
 21
579.3939549987705
 31
0.0
  0
LINE
  5
CE4
330
1E
100
AcDbEntity
  8
STEMPEL
100
AcDbLine
 10
87.77190573809289
 20
571.7952006474257
 30
0.0
 11
87.77190573809289
 21
579.3939549987705
 31
0.0
  0
LINE
  5
CE5
330
1E
100
AcDbEntity
  8
STEMPEL
100
AcDbLine
 10
102.5085478645093
 20
571.1596135968153
 30
0.0
 11
81.69551764952082
 21
571.1596135968153
 31
0.0
  0
LINE
  5
CE6
330
1E
100
AcDbEntity
  8
STEMPEL
100
AcDbLine
 10
102.2520327570151
 20
569.704844131226
 30
0.0
 11
81.95203275701507
 21
569.704844131226
 31
0.0
  0
LINE
  5
CE7
330
1E
100
AcDbEntity
  8
STEMPEL
100
AcDbLine
 10
83.4417787191707
 20
571.7952006474257
 30
0.0
 11
83.4417787191707
 21
579.3939549987705
 31
0.0
  0
LINE
  5
CE8
330
1E
100
AcDbEntity
  8
STEMPEL
100
AcDbLine
 10
84.60203275701511
 20
579.7048441312259
 30
0.0
 11
83.4417787191707
 21
579.3939549987705
 31
0.0
  0
LINE
  5
CE9
330
1E
100
AcDbEntity
  8
STEMPEL
100
AcDbLine
 10
100.7622867948594
 20
579.3939549987705
 30
0.0
 11
99.60203275701507
 21
579.7048441312259
 31
0.0
  0
LINE
  5
CEA
330
1E
100
AcDbEntity
  8
STEMPEL
100
AcDbLine
 10
102.5085478645093
 20
571.1596135968153
 30
0.0
 11
100.7622867948594
 21
571.7952006474257
 31
0.0
  0
LINE
  5
CEB
330
1E
100
AcDbEntity
  8
STEMPEL
100
AcDbLine
 10
83.4417787191707
 20
571.7952006474257
 30
0.0
 11
81.69551764952084
 21
571.1596135968153
 31
0.0
  0
ARC
  5
CEC
330
1E
100
AcDbEntity
  8
STEMPEL
100
AcDbCircle
 10
81.95203275701507
 20
570.4548441312259
 30
0.0
 40
0.7500000000000013
100
AcDbArc
 50
110.0000000000006
 51
269.9999991462263
  0
ARC
  5
CED
330
1E
100
AcDbEntity
  8
STEMPEL
100
AcDbCircle
 10
102.2520327570151
 20
570.4548441312259
 30
0.0
 40
0.750000000000001
100
AcDbArc
 50
269.9999991462263
 51
69.99999999999935
  0
ARC
  5
D07
330
1E
100
AcDbEntity
  8
STEMPEL
100
AcDbCircle
 10
148.1020327570152
 20
549.3939549987713
 30
0.0
 40
30.31088913245485
100
AcDbArc
 50
81.78678929826174
 51
98.21321070173826
  0
ARC
  5
D08
330
1E
100
AcDbEntity
  8
STEMPEL
100
AcDbCircle
 10
141.6068422286319
 20
572.0105384234416
 30
0.0
 40
7.694305707784447
100
AcDbArc
 50
73.65710669401501
 51
106.342893305985
  0
ARC
  5
D09
330
1E
100
AcDbEntity
  8
STEMPEL
100
AcDbCircle
 10
154.5972232853985
 20
572.0105384234416
 30
0.0
 40
7.694305707784447
100
AcDbArc
 50
73.65710669401501
 51
106.342893305985
  0
ARC
  5
D0A
330
1E
100
AcDbEntity
  8
HILF
100
AcDbCircle
 10
148.1020327570152
 20
549.8063830835648
 30
0.0
 40
22.41111549782308
100
AcDbArc
 50
78.85962783890552
 51
101.1403721610945
  0
ARC
  5
D0B
330
1E
100
AcDbEntity
  8
HILF
100
AcDbCircle
 10
154.5972232853985
 20
566.4563579816964
 30
0.0
 40
5.761140599691502
100
AcDbArc
 50
67.92594526326206
 51
112.0740547367379
  0
ARC
  5
D0C
330
1E
100
AcDbEntity
  8
HILF
100
AcDbCircle
 10
141.6068422286319
 20
566.4563579816964
 30
0.0
 40
5.761140599691502
100
AcDbArc
 50
67.92594526326206
 51
112.0740547367379
  0
POINT
  5
D0D
330
1E
100
AcDbEntity
  8
0
100
AcDbPoint
 10
148.1020327570152
 20
569.7048441312261
 30
0.0
210
0.0000000000000001
220
1.0
230
0.0
  0
LINE
  5
D0E
330
1E
100
AcDbEntity
  8
STEMPEL
100
AcDbLine
 10
140.6020327570152
 20
579.704844131226
 30
0.0
 11
155.6020327570151
 21
579.704844131226
 31
0.0
  0
LINE
  5
D0F
330
1E
100
AcDbEntity
  8
STEMPEL
100
AcDbLine
 10
156.7622867948596
 20
571.7952006474258
 30
0.0
 11
156.7622867948596
 21
579.3939549987706
 31
0.0
  0
LINE
  5
D10
330
1E
100
AcDbEntity
  8
STEMPEL
100
AcDbLine
 10
152.4321597759374
 20
571.7952006474258
 30
0.0
 11
152.4321597759374
 21
579.3939549987706
 31
0.0
  0
LINE
  5
D11
330
1E
100
AcDbEntity
  8
STEMPEL
100
AcDbLine
 10
143.771905738093
 20
571.7952006474258
 30
0.0
 11
143.771905738093
 21
579.3939549987706
 31
0.0
  0
LINE
  5
D12
330
1E
100
AcDbEntity
  8
STEMPEL
100
AcDbLine
 10
158.5085478645094
 20
571.1596135968155
 30
0.0
 11
137.6955176495209
 21
571.1596135968155
 31
0.0
  0
LINE
  5
D13
330
1E
100
AcDbEntity
  8
STEMPEL
100
AcDbLine
 10
158.2520327570152
 20
569.7048441312261
 30
0.0
 11
137.9520327570152
 21
569.7048441312261
 31
0.0
  0
LINE
  5
D14
330
1E
100
AcDbEntity
  8
STEMPEL
100
AcDbLine
 10
139.4417787191708
 20
571.7952006474258
 30
0.0
 11
139.4417787191708
 21
579.3939549987706
 31
0.0
  0
LINE
  5
D15
330
1E
100
AcDbEntity
  8
STEMPEL
100
AcDbLine
 10
140.6020327570152
 20
579.704844131226
 30
0.0
 11
139.4417787191708
 21
579.3939549987706
 31
0.0
  0
LINE
  5
D16
330
1E
100
AcDbEntity
  8
STEMPEL
100
AcDbLine
 10
156.7622867948596
 20
579.3939549987706
 30
0.0
 11
155.6020327570151
 21
579.704844131226
 31
0.0
  0
LINE
  5
D17
330
1E
100
AcDbEntity
  8
STEMPEL
100
AcDbLine
 10
158.5085478645094
 20
571.1596135968155
 30
0.0
 11
156.7622867948595
 21
571.7952006474258
 31
0.0
  0
LINE
  5
D18
330
1E
100
AcDbEntity
  8
STEMPEL
100
AcDbLine
 10
139.4417787191708
 20
571.7952006474258
 30
0.0
 11
137.6955176495209
 21
571.1596135968155
 31
0.0
  0
ARC
  5
D19
330
1E
100
AcDbEntity
  8
STEMPEL
100
AcDbCircle
 10
137.9520327570152
 20
570.4548441312261
 30
0.0
 40
0.7500000000000013
100
AcDbArc
 50
110.0000000000006
 51
269.9999991462263
  0
ARC
  5
D1A
330
1E
100
AcDbEntity
  8
STEMPEL
100
AcDbCircle
 10
158.2520327570152
 20
570.4548441312261
 30
0.0
 40
0.750000000000001
100
AcDbArc
 50
269.9999991462263
 51
69.99999999999935
  0
ARC
  5
D34
330
1E
100
AcDbEntity
  8
STEMPEL
100
AcDbCircle
 10
218.7209662856609
 20
549.3939549987713
 30
0.0
 40
30.31088913245485
100
AcDbArc
 50
81.78678929826174
 51
98.21321070173826
  0
ARC
  5
D35
330
1E
100
AcDbEntity
  8
STEMPEL
100
AcDbCircle
 10
212.2257757572776
 20
572.0105384234416
 30
0.0
 40
7.694305707784447
100
AcDbArc
 50
73.65710669401501
 51
106.342893305985
  0
ARC
  5
D36
330
1E
100
AcDbEntity
  8
STEMPEL
100
AcDbCircle
 10
225.2161568140442
 20
572.0105384234416
 30
0.0
 40
7.694305707784447
100
AcDbArc
 50
73.65710669401501
 51
106.342893305985
  0
ARC
  5
D37
330
1E
100
AcDbEntity
  8
HILF
100
AcDbCircle
 10
218.7209662856609
 20
549.8063830835648
 30
0.0
 40
22.41111549782308
100
AcDbArc
 50
78.85962783890552
 51
101.1403721610945
  0
ARC
  5
D38
330
1E
100
AcDbEntity
  8
HILF
100
AcDbCircle
 10
225.2161568140442
 20
566.4563579816964
 30
0.0
 40
5.761140599691502
100
AcDbArc
 50
67.92594526326206
 51
112.0740547367379
  0
ARC
  5
D39
330
1E
100
AcDbEntity
  8
HILF
100
AcDbCircle
 10
212.2257757572776
 20
566.4563579816964
 30
0.0
 40
5.761140599691502
100
AcDbArc
 50
67.92594526326206
 51
112.0740547367379
  0
POINT
  5
D3A
330
1E
100
AcDbEntity
  8
0
100
AcDbPoint
 10
218.7209662856609
 20
569.7048441312261
 30
0.0
210
0.0000000000000001
220
1.0
230
0.0
  0
LINE
  5
D3B
330
1E
100
AcDbEntity
  8
STEMPEL
100
AcDbLine
 10
211.2209662856609
 20
579.704844131226
 30
0.0
 11
226.2209662856609
 21
579.704844131226
 31
0.0
  0
LINE
  5
D3C
330
1E
100
AcDbEntity
  8
STEMPEL
100
AcDbLine
 10
227.3812203235053
 20
571.7952006474258
 30
0.0
 11
227.3812203235053
 21
579.3939549987706
 31
0.0
  0
LINE
  5
D3D
330
1E
100
AcDbEntity
  8
STEMPEL
100
AcDbLine
 10
223.0510933045831
 20
571.7952006474258
 30
0.0
 11
223.0510933045831
 21
579.3939549987706
 31
0.0
  0
LINE
  5
D3E
330
1E
100
AcDbEntity
  8
STEMPEL
100
AcDbLine
 10
214.3908392667387
 20
571.7952006474258
 30
0.0
 11
214.3908392667387
 21
579.3939549987706
 31
0.0
  0
LINE
  5
D3F
330
1E
100
AcDbEntity
  8
STEMPEL
100
AcDbLine
 10
229.1274813931551
 20
571.1596135968155
 30
0.0
 11
208.3144511781667
 21
571.1596135968155
 31
0.0
  0
LINE
  5
D40
330
1E
100
AcDbEntity
  8
STEMPEL
100
AcDbLine
 10
228.8709662856609
 20
569.7048441312261
 30
0.0
 11
208.5709662856609
 21
569.7048441312261
 31
0.0
  0
LINE
  5
D41
330
1E
100
AcDbEntity
  8
STEMPEL
100
AcDbLine
 10
210.0607122478165
 20
571.7952006474258
 30
0.0
 11
210.0607122478165
 21
579.3939549987706
 31
0.0
  0
LINE
  5
D42
330
1E
100
AcDbEntity
  8
STEMPEL
100
AcDbLine
 10
211.2209662856609
 20
579.704844131226
 30
0.0
 11
210.0607122478165
 21
579.3939549987706
 31
0.0
  0
LINE
  5
D43
330
1E
100
AcDbEntity
  8
STEMPEL
100
AcDbLine
 10
227.3812203235053
 20
579.3939549987706
 30
0.0
 11
226.2209662856609
 21
579.704844131226
 31
0.0
  0
LINE
  5
D44
330
1E
100
AcDbEntity
  8
STEMPEL
100
AcDbLine
 10
229.1274813931551
 20
571.1596135968155
 30
0.0
 11
227.3812203235053
 21
571.7952006474258
 31
0.0
  0
LINE
  5
D45
330
1E
100
AcDbEntity
  8
STEMPEL
100
AcDbLine
 10
210.0607122478165
 20
571.7952006474258
 30
0.0
 11
208.3144511781667
 21
571.1596135968155
 31
0.0
  0
ARC
  5
D46
330
1E
100
AcDbEntity
  8
STEMPEL
100
AcDbCircle
 10
208.5709662856609
 20
570.4548441312261
 30
0.0
 40
0.7500000000000013
100
AcDbArc
 50
110.0000000000006
 51
269.9999991462263
  0
ARC
  5
D47
330
1E
100
AcDbEntity
  8
STEMPEL
100
AcDbCircle
 10
228.8709662856609
 20
570.4548441312261
 30
0.0
 40
0.750000000000001
100
AcDbArc
 50
269.9999991462263
 51
69.99999999999935
  0
ARC
  5
D61
330
1E
100
AcDbEntity
  8
STEMPEL
100
AcDbCircle
 10
307.5765403982793
 20
549.3939549987714
 30
0.0
 40
30.31088913245485
100
AcDbArc
 50
81.78678929826011
 51
98.21321070173988
  0
ARC
  5
D62
330
1E
100
AcDbEntity
  8
STEMPEL
100
AcDbCircle
 10
301.081349869896
 20
572.0105384234417
 30
0.0
 40
7.694305707784447
100
AcDbArc
 50
73.65710669401345
 51
106.3428933059834
  0
ARC
  5
D63
330
1E
100
AcDbEntity
  8
STEMPEL
100
AcDbCircle
 10
314.0717309266625
 20
572.0105384234417
 30
0.0
 40
7.694305707784447
100
AcDbArc
 50
73.65710669401345
 51
106.3428933059834
  0
ARC
  5
D64
330
1E
100
AcDbEntity
  8
HILF
100
AcDbCircle
 10
307.5765403982793
 20
549.8063830835649
 30
0.0
 40
22.41111549782308
100
AcDbArc
 50
78.85962783890391
 51
101.1403721610961
  0
ARC
  5
D65
330
1E
100
AcDbEntity
  8
HILF
100
AcDbCircle
 10
314.0717309266626
 20
566.4563579816965
 30
0.0
 40
5.761140599691502
100
AcDbArc
 50
67.92594526326054
 51
112.0740547367394
  0
ARC
  5
D66
330
1E
100
AcDbEntity
  8
HILF
100
AcDbCircle
 10
301.0813498698959
 20
566.4563579816965
 30
0.0
 40
5.761140599691502
100
AcDbArc
 50
67.92594526326054
 51
112.0740547367394
  0
POINT
  5
D67
330
1E
100
AcDbEntity
  8
0
100
AcDbPoint
 10
307.5765403982793
 20
569.7048441312261
 30
0.0
210
0.0000000000000001
220
1.0
230
0.0
  0
LINE
  5
D68
330
1E
100
AcDbEntity
  8
STEMPEL
100
AcDbLine
 10
300.0765403982792
 20
579.7048441312262
 30
0.0
 11
315.0765403982792
 21
579.7048441312262
 31
0.0
  0
LINE
  5
D69
330
1E
100
AcDbEntity
  8
STEMPEL
100
AcDbLine
 10
316.2367944361236
 20
571.7952006474259
 30
0.0
 11
316.2367944361236
 21
579.3939549987708
 31
0.0
  0
LINE
  5
D6A
330
1E
100
AcDbEntity
  8
STEMPEL
100
AcDbLine
 10
311.9066674172014
 20
571.7952006474259
 30
0.0
 11
311.9066674172014
 21
579.3939549987708
 31
0.0
  0
LINE
  5
D6B
330
1E
100
AcDbEntity
  8
STEMPEL
100
AcDbLine
 10
303.246413379357
 20
571.7952006474259
 30
0.0
 11
303.246413379357
 21
579.3939549987708
 31
0.0
  0
LINE
  5
D6C
330
1E
100
AcDbEntity
  8
STEMPEL
100
AcDbLine
 10
316.9699861424835
 20
571.1596135968155
 30
0.0
 11
297.1700252907849
 21
571.1596135968155
 31
0.0
  0
LINE
  5
D6D
330
1E
100
AcDbEntity
  8
STEMPEL
100
AcDbLine
 10
313.4441755324418
 20
569.7048441312261
 30
0.0
 11
297.4265403982792
 21
569.7048441312261
 31
0.0
  0
LINE
  5
D6E
330
1E
100
AcDbEntity
  8
STEMPEL
100
AcDbLine
 10
298.9162863604349
 20
571.7952006474259
 30
0.0
 11
298.9162863604349
 21
579.3939549987708
 31
0.0
  0
LINE
  5
D6F
330
1E
100
AcDbEntity
  8
STEMPEL
100
AcDbLine
 10
300.0765403982792
 20
579.7048441312262
 30
0.0
 11
298.9162863604349
 21
579.3939549987708
 31
0.0
  0
LINE
  5
D70
330
1E
100
AcDbEntity
  8
STEMPEL
100
AcDbLine
 10
316.2367944361236
 20
579.3939549987708
 30
0.0
 11
315.0765403982792
 21
579.7048441312262
 31
0.0
  0
LINE
  5
D71
330
1E
100
AcDbEntity
  8
STEMPEL
100
AcDbLine
 10
317.226700339688
 20
571.4349043638041
 30
0.0
 11
316.2367944361236
 21
571.7952006474259
 31
0.0
  0
LINE
  5
D72
330
1E
100
AcDbEntity
  8
STEMPEL
100
AcDbLine
 10
298.9162863604349
 20
571.7952006474259
 30
0.0
 11
297.1700252907849
 21
571.1596135968155
 31
0.0
  0
ARC
  5
D73
330
1E
100
AcDbEntity
  8
STEMPEL
100
AcDbCircle
 10
297.4265403982792
 20
570.4548441312262
 30
0.0
 40
0.7500000000000013
100
AcDbArc
 50
110.0000000000006
 51
269.9999991462263
  0
HATCH
  5
DA5
330
1E
100
AcDbEntity
  8
SCHRAFF
100
AcDbHatch
 10
0.0
 20
0.0
 30
0.0
210
0.0
220
0.0
230
1.0
  2
NET
 70
     0
 71
     1
 91
        5
 92
        7
 72
     0
 73
     1
 93
        4
 10
339.5253789244439
 20
560.7048441312261
 10
341.5322788382332
 20
557.704844131226
 10
354.1020327570151
 20
557.7048441312258
 10
354.102032757015
 20
560.7048441312261
 97
        4
330
8D4
330
B70
330
8D2
330
AA0
 92
        7
 72
     0
 73
     1
 93
        4
 10
307.5765403982793
 20
560.7048441312259
 10
307.5765403982793
 20
557.704844131226
 10
341.532278838233
 20
557.704844131226
 10
339.5253789244438
 20
560.7048441312261
 97
        4
330
8D4
330
A12
330
8D2
330
B70
 92
        7
 72
     0
 73
     1
 93
        4
 10
284.1020327570151
 20
560.7048441312259
 10
284.1020327570151
 20
557.704844131226
 10
307.5765403982793
 20
557.704844131226
 10
307.5765403982792
 20
560.7048441312259
 97
        4
330
8D4
330
A02
330
8D2
330
A12
 92
        7
 72
     0
 73
     1
 93
        4
 10
124.1020327570151
 20
560.7048441312259
 10
99.1020327570151
 20
560.7048441312258
 10
99.10203275701508
 20
557.7048441312268
 10
124.1020327570151
 20
557.7048441312266
 97
        4
330
8D4
330
91F
330
8D2
330
951
 92
        7
 72
     0
 73
     1
 93
        4
 10
54.10203275701508
 20
560.7048441312259
 10
54.10203275701508
 20
557.7048441312268
 10
85.10203275701508
 20
557.7048441312268
 10
85.10203275701508
 20
560.7048441312258
 97
        4
330
8E3
330
8EE
330
8D2
330
908
 75
     0
 76
     1
 52
45.0
 41
15.0
 77
     0
 78
     2
 53
45.0
 43
-11.31256056807251
 44
1.0
 45
-1.325825214724776
 46
1.325825214724776
 79
     0
 53
135.0
 43
-11.31256056807251
 44
1.0
 45
-1.325825214724776
 46
-1.325825214724776
 79
     0
 47
0.33350609548787
 98
        5
 10
348.3307479437863
 20
560.5332561901262
 10
322.3084450307365
 20
559.8662441420576
 10
304.6266266690432
 20
560.1997491881286
 10
111.1274573688333
 20
560.8667612361971
 10
77.43191158671516
 20
560.5332561901262
  0
LINE
  5
DF6
330
1E
100
AcDbEntity
  8
STEMPEL
100
AcDbLine
 10
257.1020327570151
 20
534.3408831005488
 30
0.0
 11
257.1020327570151
 21
165.7921660170439
 31
0.0
  0
LINE
  5
DF7
330
1E
100
AcDbEntity
  8
STEMPEL
100
AcDbLine
 10
257.1020327570151
 20
165.7921660170439
 30
0.0
 11
256.394483773721
 21
157.7048441312269
 31
0.0
  0
LINE
  5
DF8
102
{ACAD_REACTORS
330
1101
102
}
330
1E
100
AcDbEntity
  8
STEMPEL
100
AcDbLine
 10
259.1020327570151
 20
534.3408831005488
 30
0.0
 11
259.1020327570151
 21
157.7048441312264
 31
0.0
  0
DIMENSION
  5
DF9
330
1E
100
AcDbEntity
  8
BEM
100
AcDbDimension
  2
*D6
 10
259.1020327570151
 20
134.4103498847903
 30
0.0
 11
204.1020327570151
 21
140.9103498847903
 31
0.0
 70
    32
  1
%%c<>
 71
     5
 42
110.0
  3
Standard
100
AcDbAlignedDimension
 13
149.1020327570151
 23
165.7048441312269
 33
0.0
 14
259.1020327570151
 24
165.7048441312266
 34
0.0
100
AcDbRotatedDimension
1001
ACAD
1000
DSTYLE
1002
{
1070
    40
1040
2.0
1070
    41
1040
3.5
1070
    42
1040
1.0
1070
    43
1040
7.0
1070
    44
1040
1.0
1070
    73
1070
     0
1070
    74
1070
     0
1070
    77
1070
     1
1070
    78
1070
     8
1070
    79
1070
     2
1070
   140
1040
3.5
1070
   141
1040
1.5
1070
   146
1040
0.5
1070
   147
1040
1.5
1070
   172
1070
     1
1070
   178
1070
     1
1070
   179
1070
     2
1070
   271
1070
     2
1070
   272
1070
     2
1070
   284
1070
     8
1070
   285
1070
     8
1070
   286
1070
     8
1002
}
  0
LINE
  5
DFA
330
1E
100
AcDbEntity
  8
STEMPEL
100
AcDbLine
 10
259.1020327570151
 20
165.7048441312266
 30
0.0
 11
258.4021234488076
 21
157.7048441312264
 31
0.0
  0
LINE
  5
DFB
330
1E
100
AcDbEntity
  8
HILF
100
AcDbLine
 10
153.1173121071884
 20
165.7048441312269
 30
0.0
 11
255.0867534068417
 21
165.7048441312266
 31
0.0
  0
LINE
  5
DFD
330
1E
100
AcDbEntity
  8
STEMPEL
100
AcDbLine
 10
151.102032757015
 20
165.7921660170439
 30
0.0
 11
151.8095817403092
 21
157.7048441312269
 31
0.0
  0
LINE
  5
DFE
330
1E
100
AcDbEntity
  8
STEMPEL
100
AcDbLine
 10
149.1020327570151
 20
165.7048441312269
 30
0.0
 11
149.8019420652225
 21
157.7048441312268
 31
0.0
  0
LINE
  5
DFF
330
1E
100
AcDbEntity
  8
STEMPEL
100
AcDbLine
 10
151.102032757015
 20
534.3408831005488
 30
0.0
 11
151.102032757015
 21
165.7921660170439
 31
0.0
  0
LINE
  5
E00
102
{ACAD_REACTORS
330
1101
102
}
330
1E
100
AcDbEntity
  8
STEMPEL
100
AcDbLine
 10
149.1020327570151
 20
534.3408831005488
 30
0.0
 11
149.1020327570151
 21
157.7048441312268
 31
0.0
  0
ARC
  5
E34
102
{ACAD_REACTORS
330
E69
102
}
330
1E
100
AcDbEntity
  8
SCHRAFF
100
AcDbCircle
 10
263.2937066449449
 20
542.9776363373618
 30
0.0
 40
3.0
100
AcDbArc
 50
240.4660099534213
 51
8.130102354154827
  0
LINE
  5
E35
102
{ACAD_REACTORS
330
E69
102
}
330
1E
100
AcDbEntity
  8
STEMPEL
100
AcDbLine
 10
263.8593920698947
 20
542.4119509124132
 30
0.0
 11
261.4451785075229
 21
539.9977373500414
 31
0.0
  0
ARC
  5
E36
330
1E
100
AcDbEntity
  8
STEMPEL
100
AcDbCircle
 10
267.1020327570151
 20
534.3408831005488
 30
0.0
 40
8.0
100
AcDbArc
 50
134.9999999999988
 51
180.0
  0
ARC
  5
E37
330
1E
100
AcDbEntity
  8
STEMPEL
100
AcDbCircle
 10
267.1020327570151
 20
534.3408831005488
 30
0.0
 40
10.0
100
AcDbArc
 50
134.9999999999988
 51
180.0
  0
LINE
  5
E38
102
{ACAD_REACTORS
330
E69
102
}
330
1E
100
AcDbEntity
  8
STEMPEL
100
AcDbLine
 10
263.1522852887076
 20
541.7048441312261
 30
0.0
 11
264.5664988510805
 21
541.7048441312261
 31
0.0
  0
LINE
  5
E39
102
{ACAD_REACTORS
330
E69
102
}
330
1E
100
AcDbEntity
  8
STEMPEL
  6
STRICHPUNKT
100
AcDbLine
 10
262.4451785075209
 20
543.8261644747858
 30
0.0
 11
264.5664988510806
 21
541.7048441312261
 31
0.0
  0
LINE
  5
E3A
102
{ACAD_REACTORS
330
E69
102
}
330
1E
100
AcDbEntity
  8
STEMPEL
100
AcDbLine
 10
144.3446734441354
 20
542.4119509124132
 30
0.0
 11
146.7588870065072
 21
539.9977373500414
 31
0.0
  0
ARC
  5
E3B
102
{ACAD_REACTORS
330
E69
102
}
330
1E
100
AcDbEntity
  8
SCHRAFF
100
AcDbCircle
 10
144.9103588690853
 20
542.9776363373618
 30
0.0
 40
3.0
100
AcDbArc
 50
171.8698976458451
 51
299.5339900465787
  0
LINE
  5
E3C
102
{ACAD_REACTORS
330
E69
102
}
330
1E
100
AcDbEntity
  8
STEMPEL
100
AcDbLine
 10
143.6375666629488
 20
541.7048441312267
 30
0.0
 11
145.051780225322
 21
541.7048441312267
 31
0.0
  0
LINE
  5
E3D
102
{ACAD_REACTORS
330
E69
102
}
330
1E
100
AcDbEntity
  8
STEMPEL
  6
STRICHPUNKT
100
AcDbLine
 10
145.7588870065084
 20
543.8261644747862
 30
0.0
 11
143.6375666629488
 21
541.7048441312267
 31
0.0
  0
ARC
  5
E3F
330
1E
100
AcDbEntity
  8
STEMPEL
100
AcDbCircle
 10
141.1020327570151
 20
534.3408831005488
 30
0.0
 40
10.0
100
AcDbArc
 50
0.0
 51
45.00000000000115
  0
ARC
  5
E40
330
1E
100
AcDbEntity
  8
STEMPEL
100
AcDbCircle
 10
141.1020327570151
 20
534.3408831005488
 30
0.0
 40
8.0
100
AcDbArc
 50
0.0
 51
45.00000000000115
  0
LINE
  5
E41
330
1E
100
AcDbEntity
  8
STEMPEL
100
AcDbLine
 10
133.3446734441345
 20
556.2403780371594
 30
0.0
 11
148.1731005688804
 21
541.4119509124146
 31
0.0
  0
LINE
  5
E42
330
1E
100
AcDbEntity
  8
HILF
100
AcDbLine
 10
152.4754816208965
 20
538.1677174241999
 30
0.0
 11
255.7285838931337
 21
538.1677174241999
 31
0.0
  0
LINE
  5
E43
330
1E
100
AcDbEntity
  8
STEMPEL
100
AcDbLine
 10
274.8593920698957
 20
556.2403780371594
 30
0.0
 11
260.0309649451498
 21
541.4119509124146
 31
0.0
  0
HATCH
  5
E5A
330
1E
100
AcDbEntity
  8
SCHRAFF
100
AcDbHatch
 10
0.0
 20
0.0
 30
0.0
210
0.0
220
0.0
230
1.0
  2
_USER
 70
     0
 71
     0
 91
        2
 92
        7
 72
     1
 73
     1
 93
       10
 10
259.1020327570151
 20
534.3408831005488
 42
-0.1989123673796677
 10
261.4451785075229
 20
539.9977373500414
 42
0.0
 10
263.8593920698941
 20
542.4119509124126
 42
0.0
 10
262.4451785075211
 20
543.8261644747858
 42
0.0
 10
260.0309649451498
 20
541.4119509124146
 42
0.1989123673796631
 10
257.1020327570151
 20
534.340883100549
 42
0.0
 10
257.1020327570151
 20
165.7921660170438
 42
0.0
 10
256.3944837737209
 20
157.7048441312264
 42
0.0
 10
258.4021234488076
 20
157.7048441312264
 42
0.0
 10
259.1020327570151
 20
165.7048441312269
 42
0.0
 97
        0
 92
        7
 72
     1
 73
     1
 93
       10
 10
149.1020327570151
 20
165.7048441312271
 42
0.0
 10
149.8019420652225
 20
157.7048441312269
 42
0.0
 10
151.8095817403092
 20
157.7048441312269
 42
0.0
 10
151.102032757015
 20
165.7921660170438
 42
0.0
 10
151.102032757015
 20
534.3408831005488
 42
0.1989123673796691
 10
148.1731005688804
 20
541.4119509124146
 42
0.0
 10
145.7588870065085
 20
543.8261644747862
 42
0.0
 10
144.3446734441354
 20
542.4119509124132
 42
0.0
 10
146.7588870065072
 20
539.9977373500414
 42
-0.198912367379668
 10
149.1020327570151
 20
534.3408831005488
 42
0.0
 97
        0
 75
     0
 76
     0
 52
135.0
 41
2.0
 77
     0
 78
     1
 53
135.0
 43
0.0
 44
0.0
 45
-1.414213562373095
 46
-1.414213562373094
 79
     0
 47
0.535393507980999
 98
        2
 10
258.8222475402872
 20
427.9994695358935
 10
150.1004870209417
 20
446.7382416622402
  0
HATCH
  5
E69
330
1E
100
AcDbEntity
  8
SCHRAFF
100
AcDbHatch
 10
0.0
 20
0.0
 30
0.0
210
0.0
220
0.0
230
1.0
  2
_USER
 70
     0
 71
     1
 91
        4
 92
       23
 72
     0
 73
     1
 93
        3
 10
264.5664988510806
 20
541.7048441312261
 10
263.8593920698942
 20
542.4119509124126
 10
263.1522852887076
 20
541.7048441312261
 97
        3
330
E35
330
E38
330
E39
 92
        7
 72
     1
 73
     1
 93
        4
 10
266.2635551259284
 20
543.4019004060737
 42
0.0
 10
264.5664988510807
 20
541.7048441312261
 42
0.0
 10
263.1522852887077
 20
541.7048441312261
 42
0.0
 10
261.814887239868
 20
540.3674460823865
 42
0.6228332524879301
 97
        4
330
C17
330
E38
330
E35
330
E34
 92
       22
 72
     0
 73
     1
 93
        3
 10
145.0517802253219
 20
541.7048441312267
 10
144.3446734441354
 20
542.4119509124132
 10
143.6375666629487
 20
541.7048441312265
 97
        3
330
E3D
330
E3C
330
E3A
 92
        7
 72
     1
 73
     1
 93
        4
 10
146.3891782741621
 20
540.3674460823865
 42
0.0
 10
145.0517802253219
 20
541.7048441312267
 42
0.0
 10
143.6375666629489
 20
541.7048441312267
 42
0.0
 10
141.9405103881017
 20
543.4019004060736
 42
0.6228332524879078
 97
        4
330
E3C
330
C0F
330
E3B
330
E3A
 75
     0
 76
     0
 52
0.0
 41
0.1
 77
     0
 78
     1
 53
0.0
 43
0.0
 44
0.0
 45
0.0
 46
0.1
 79
     0
 47
0.1390399157785742
 98
        4
 10
263.7379643815821
 20
541.9156435565967
 10
263.877052640752
 20
540.6642836773992
 10
144.540325383869
 20
541.7766031352787
 10
144.8184992867354
 20
540.6642836773992
  0
LINE
  5
F2D
330
1E
100
AcDbEntity
  8
TEXT
 62
     2
100
AcDbLine
 10
329.399244622542
 20
204.2121021646433
 30
0.0
 11
438.6210579052108
 21
204.2121021646433
 31
0.0
  0
TEXT
  5
F2E
330
1E
100
AcDbEntity
  8
TEXT
 62
     1
100
AcDbText
 10
330.861698161711
 20
207.1986426566964
 30
0.0
 40
7.0
  1
Dichtelement DN100/125
 41
0.8
100
AcDbText
  0
TEXT
  5
F2F
330
1E
100
AcDbEntity
  8
TEXT
 62
     1
100
AcDbText
 10
330.861698161711
 20
194.5055867012672
 30
0.0
 40
7.0
  1
EDV-Art.Nr. 00940.100X
 41
0.8
100
AcDbText
  0
LINE
  5
F30
330
1E
100
AcDbEntity
  8
TEXT
 62
     2
100
AcDbLine
 10
329.399244622542
 20
204.2121021646433
 30
0.0
 11
267.0037470363851
 21
192.685280101778
 31
0.0
  0
DIMENSION
  5
FC0
330
1E
100
AcDbEntity
  8
BEM
100
AcDbDimension
  2
*D7
 10
264.1020327570146
 20
117.5461679589542
 30
0.0
 11
204.1020327570151
 21
124.0461679589542
 31
0.0
 70
    32
  1
%%c<>
 71
     5
 42
119.999999999999
  3
Standard
100
AcDbAlignedDimension
 13
144.1020327570155
 23
156.2048441312271
 33
0.0
 14
264.1020327570146
 24
156.2048441312271
 34
0.0
100
AcDbRotatedDimension
1001
ACAD
1000
DSTYLE
1002
{
1070
    40
1040
2.0
1070
    41
1040
3.5
1070
    42
1040
1.0
1070
    43
1040
7.0
1070
    44
1040
1.0
1070
    73
1070
     0
1070
    74
1070
     0
1070
    77
1070
     1
1070
    78
1070
     8
1070
    79
1070
     2
1070
   140
1040
3.5
1070
   141
1040
1.5
1070
   146
1040
0.5142857142857144
1070
   147
1040
1.5
1070
   172
1070
     1
1070
   178
1070
     1
1070
   179
1070
     2
1070
   271
1070
     2
1070
   272
1070
     2
1070
   284
1070
     8
1070
   285
1070
     8
1070
   286
1070
     8
1002
}
  0
DIMENSION
  5
FC1
330
1E
100
AcDbEntity
  8
BEM
100
AcDbDimension
  2
*D8
 10
271.6020327570151
 20
101.5858750512834
 30
0.0
 11
204.1020327570151
 21
108.0858750512834
 31
0.0
 70
    32
  1
%%c<>
 71
     5
 42
134.9999999999999
  3
Standard
100
AcDbAlignedDimension
 13
136.6020327570151
 23
207.7048441312262
 33
0.0
 14
271.6020327570151
 24
207.7048441312262
 34
0.0
100
AcDbRotatedDimension
1001
ACAD
1000
DSTYLE
1002
{
1070
    40
1040
2.0
1070
    41
1040
3.5
1070
    42
1040
1.0
1070
    43
1040
7.0
1070
    44
1040
1.0
1070
    73
1070
     0
1070
    74
1070
     0
1070
    77
1070
     1
1070
    78
1070
     8
1070
    79
1070
     2
1070
   140
1040
3.5
1070
   141
1040
1.5
1070
   146
1040
0.5142857142857144
1070
   147
1040
1.5
1070
   172
1070
     1
1070
   178
1070
     1
1070
   179
1070
     2
1070
   271
1070
     2
1070
   272
1070
     2
1070
   284
1070
     8
1070
   285
1070
     8
1070
   286
1070
     8
1002
}
  0
LINE
  5
FC2
102
{ACAD_REACTORS
330
1101
102
}
330
1E
100
AcDbEntity
  8
STEMPEL
100
AcDbLine
 10
265.0869068180797
 20
166.8138026422266
 30
0.0
 11
264.8109912680139
 21
167.0897181922922
 31
0.0
1001
GENIUS_GENODEF_13
1002
{
1000
HIER
1070
     0
1002
}
1002
{
1000
MANEDIT
1070
     0
1002
}
1002
{
1000
NOSEL
1070
     0
1002
}
1002
{
1000
BEHIND
1070
     0
1002
}
1002
{
1000
OTHER
1070
     0
1002
}
1002
{
1000
REACTOR
1002
}
1001
GENIUS_GENOBJ-N-HTC_13
1002
{
1000
OWNER
1000
GEN
1002
}
1001
GENIUS_GENHATCH_13
1002
{
1000
DATA
1040
45.0
1042
2.299999999999999
1000
_U
1070
     1
1011
261.4313933335753
1021
206.9648070809998
1031
0.0
1002
}
1002
{
1000
UCS
1010
0.0
1020
0.0
1030
0.0
1010
1.0
1020
0.0
1030
0.0
1010
0.0
1020
1.0
1030
0.0
1002
}
  0
LINE
  5
FC3
102
{ACAD_REACTORS
330
1101
102
}
330
1E
100
AcDbEntity
  8
STEMPEL
100
AcDbLine
 10
270.6020327570151
 20
208.7048441312266
 30
0.0
 11
259.1020327570142
 21
208.7048441312266
 31
0.0
  0
LINE
  5
FC4
102
{ACAD_REACTORS
330
1101
102
}
330
1E
100
AcDbEntity
  8
STEMPEL
100
AcDbLine
 10
270.8608518021175
 20
206.7389183049371
 30
0.0
 11
261.4726232344639
 21
204.2233500418755
 31
0.0
  0
ARC
  5
FC5
102
{ACAD_REACTORS
330
1101
102
}
330
1E
100
AcDbEntity
  8
STEMPEL
100
AcDbCircle
 10
261.6020327570151
 20
203.740387128731
 30
0.0
 40
0.5
100
AcDbArc
 50
104.9999999999944
 51
180.0
  0
ARC
  5
FC6
102
{ACAD_REACTORS
330
1101
102
}
330
1E
100
AcDbEntity
  8
STEMPEL
100
AcDbCircle
 10
270.6020327570151
 20
207.7048441312262
 30
0.0
 40
1.0
100
AcDbArc
 50
284.9999999999944
 51
90.0
  0
LINE
  5
FC8
102
{ACAD_REACTORS
330
1101
102
}
330
1E
100
AcDbEntity
  8
STEMPEL
100
AcDbLine
 10
269.6020327570151
 20
193.7048441312262
 30
0.0
 11
261.6020327570151
 21
193.7048441312262
 31
0.0
  0
LINE
  5
FC9
102
{ACAD_REACTORS
330
1101
102
}
330
1E
100
AcDbEntity
  8
STEMPEL
100
AcDbLine
 10
265.7020327570145
 20
179.6048441312263
 30
0.0
 11
260.9020327570153
 21
179.6048441312263
 31
0.0
  0
LINE
  5
FCA
102
{ACAD_REACTORS
330
1101
102
}
330
1E
100
AcDbEntity
  8
STEMPEL
100
AcDbLine
 10
260.8152086681813
 20
177.9369945496349
 30
0.0
 11
265.7714920280815
 21
178.8109210300216
 31
0.0
  0
LINE
  5
FCB
102
{ACAD_REACTORS
330
1101
102
}
330
1E
100
AcDbEntity
  8
STEMPEL
100
AcDbLine
 10
269.8608518021175
 20
191.7389183049371
 30
0.0
 11
261.4726232344639
 21
189.4912992343064
 31
0.0
  0
LINE
  5
FCC
102
{ACAD_REACTORS
330
1101
102
}
330
1E
100
AcDbEntity
  8
STEMPEL
100
AcDbLine
 10
264.7020327570146
 20
167.1048441312267
 30
0.0
 11
260.9020327570153
 21
167.1048441312267
 31
0.0
  0
ARC
  5
FCD
102
{ACAD_REACTORS
330
1101
102
}
330
1E
100
AcDbEntity
  8
STEMPEL
100
AcDbCircle
 10
260.9020327570153
 20
177.4445906731292
 30
0.0
 40
0.5
100
AcDbArc
 50
100.0000000000051
 51
180.0
  0
ARC
  5
FD2
102
{ACAD_REACTORS
330
1101
102
}
330
1E
100
AcDbEntity
  8
STEMPEL
100
AcDbCircle
 10
260.9020327570153
 20
167.6048441312267
 30
0.0
 40
0.5
100
AcDbArc
 50
180.0
 51
270.0
  0
LINE
  5
FD3
102
{ACAD_REACTORS
330
1101
102
}
330
1E
100
AcDbEntity
  8
STEMPEL
100
AcDbLine
 10
260.4020327570153
 20
167.6048441312267
 30
0.0
 11
260.4020327570153
 21
177.4445906731292
 31
0.0
  0
ARC
  5
FD4
102
{ACAD_REACTORS
330
1101
102
}
330
1E
100
AcDbEntity
  8
STEMPEL
100
AcDbCircle
 10
261.6020327570151
 20
194.2048441312262
 30
0.0
 40
0.5
100
AcDbArc
 50
180.0
 51
270.0
  0
ARC
  5
FD8
102
{ACAD_REACTORS
330
1101
102
}
330
1E
100
AcDbEntity
  8
STEMPEL
100
AcDbCircle
 10
261.6020327570151
 20
189.0083363211619
 30
0.0
 40
0.5
100
AcDbArc
 50
104.9999999999944
 51
174.9999999999994
  0
ARC
  5
FD9
102
{ACAD_REACTORS
330
1101
102
}
330
1E
100
AcDbEntity
  8
STEMPEL
100
AcDbCircle
 10
260.9020327570153
 20
180.1048441312263
 30
0.0
 40
0.5
100
AcDbArc
 50
180.0
 51
270.0
  0
LINE
  5
FDA
102
{ACAD_REACTORS
330
1101
102
}
330
1E
100
AcDbEntity
  8
STEMPEL
100
AcDbLine
 10
261.1057596811944
 20
189.0692709928647
 30
0.0
 11
260.4020327570153
 21
183.3378751316617
 31
0.0
  0
LINE
  5
FDB
102
{ACAD_REACTORS
330
1101
102
}
330
1E
100
AcDbEntity
  8
STEMPEL
100
AcDbLine
 10
260.4020327570162
 20
180.1048441312263
 30
0.0
 11
260.4020327570153
 21
183.3378751316617
 31
0.0
  0
ARC
  5
FDC
102
{ACAD_REACTORS
330
1101
102
}
330
1E
100
AcDbEntity
  8
STEMPEL
100
AcDbCircle
 10
269.6020327570151
 20
192.7048441312262
 30
0.0
 40
1.0
100
AcDbArc
 50
284.9999999999944
 51
90.0
  0
ARC
  5
FDD
102
{ACAD_REACTORS
330
1101
102
}
330
1E
100
AcDbEntity
  8
STEMPEL
100
AcDbCircle
 10
265.7020327570145
 20
179.2048441312266
 30
0.0
 40
0.4
100
AcDbArc
 50
280.0000000000052
 51
90.0
  0
LINE
  5
FE1
102
{ACAD_REACTORS
330
1101
102
}
330
1E
100
AcDbEntity
  8
STEMPEL
100
AcDbLine
 10
261.1020327570151
 20
194.2048441312262
 30
0.0
 11
261.1020327570151
 21
203.740387128731
 31
0.0
  0
LINE
  5
FE3
102
{ACAD_REACTORS
330
1101
102
}
330
1E
100
AcDbEntity
  8
STEMPEL
100
AcDbLine
 10
260.4020327570153
 20
157.1048441312267
 30
0.0
 11
260.4020327570153
 21
165.1209176538381
 31
0.0
  0
LINE
  5
FE4
102
{ACAD_REACTORS
330
1101
102
}
330
1E
100
AcDbEntity
  8
STEMPEL
100
AcDbLine
 10
260.8152086681813
 20
155.2896485110522
 30
0.0
 11
263.7714920280815
 21
155.8109210300221
 31
0.0
  0
LINE
  5
FE5
102
{ACAD_REACTORS
330
1101
102
}
330
1E
100
AcDbEntity
  8
STEMPEL
100
AcDbLine
 10
263.7020327570145
 20
156.6048441312267
 30
0.0
 11
260.9020327570153
 21
156.6048441312267
 31
0.0
  0
ARC
  5
FE6
102
{ACAD_REACTORS
330
1101
102
}
330
1E
100
AcDbEntity
  8
STEMPEL
100
AcDbCircle
 10
258.6020327570151
 20
158.2048441312266
 30
0.0
 40
0.5
100
AcDbArc
 50
270.0
 51
0.0
  0
ARC
  5
FE7
102
{ACAD_REACTORS
330
1101
102
}
330
1E
100
AcDbEntity
  8
STEMPEL
100
AcDbCircle
 10
260.9020327570153
 20
157.1048441312267
 30
0.0
 40
0.5
100
AcDbArc
 50
180.0
 51
270.0
  0
ARC
  5
FE8
102
{ACAD_REACTORS
330
1101
102
}
330
1E
100
AcDbEntity
  8
STEMPEL
100
AcDbCircle
 10
260.9020327570153
 20
154.797244634546
 30
0.0
 40
0.5
100
AcDbArc
 50
100.0000000000051
 51
180.0
  0
LINE
  5
FE9
102
{ACAD_REACTORS
330
1101
102
}
330
1E
100
AcDbEntity
  8
STEMPEL
100
AcDbLine
 10
260.4020327570153
 20
153.7048441312266
 30
0.0
 11
260.4020327570153
 21
154.797244634546
 31
0.0
  0
ARC
  5
FEA
102
{ACAD_REACTORS
330
1101
102
}
330
1E
100
AcDbEntity
  8
STEMPEL
100
AcDbCircle
 10
263.7020327570145
 20
156.2048441312271
 30
0.0
 40
0.4
100
AcDbArc
 50
279.9999999999787
 51
90.0
  0
LINE
  5
FEB
102
{ACAD_REACTORS
330
1101
102
}
330
1E
100
AcDbEntity
  8
STEMPEL
100
AcDbLine
 10
260.8152086681813
 20
165.6133215303438
 30
0.0
 11
264.7714920280815
 21
166.3109210300221
 31
0.0
  0
ARC
  5
FEC
102
{ACAD_REACTORS
330
1101
102
}
330
1E
100
AcDbEntity
  8
STEMPEL
100
AcDbCircle
 10
260.9020327570153
 20
165.1209176538381
 30
0.0
 40
0.5
100
AcDbArc
 50
100.0000000000051
 51
179.9999999999935
  0
LINE
  5
FED
102
{ACAD_REACTORS
330
1101
102
}
330
1E
100
AcDbEntity
  8
STEMPEL
100
AcDbLine
 10
255.1020327570151
 20
153.7048441312266
 30
0.0
 11
255.1020327570151
 21
157.7048441312266
 31
0.0
  0
LINE
  5
FEE
102
{ACAD_REACTORS
330
1101
102
}
330
1E
100
AcDbEntity
  8
STEMPEL
100
AcDbLine
 10
258.6020327570151
 20
157.7048441312266
 30
0.0
 11
255.1020327570151
 21
157.7048441312266
 31
0.0
  0
LINE
  5
FEF
102
{ACAD_REACTORS
330
1101
102
}
330
1E
100
AcDbEntity
  8
STEMPEL
100
AcDbLine
 10
255.1020327570151
 20
153.7048441312266
 30
0.0
 11
260.4020327570153
 21
153.7048441312266
 31
0.0
  0
LINE
  5
FF0
330
1E
100
AcDbEntity
  8
STEMPEL
100
AcDbLine
 10
259.1020327570151
 20
158.2048441312266
 30
0.0
 11
259.1020327570151
 21
167.7220014187518
 31
0.0
  0
ARC
  5
FF2
102
{ACAD_REACTORS
330
1101
102
}
330
1E
100
AcDbEntity
  8
STEMPEL
100
AcDbCircle
 10
264.7020327570146
 20
166.7048441312271
 30
0.0
 40
0.4
100
AcDbArc
 50
280.0000000000052
 51
90.0
  0
LINE
  5
FF3
102
{ACAD_REACTORS
330
1101
102
}
330
1E
100
AcDbEntity
  8
STEMPEL
100
AcDbLine
 10
137.6020327570151
 20
208.7048441312266
 30
0.0
 11
149.102032757016
 21
208.7048441312266
 31
0.0
  0
LINE
  5
FF4
102
{ACAD_REACTORS
330
1101
102
}
330
1E
100
AcDbEntity
  8
STEMPEL
100
AcDbLine
 10
137.3432137119127
 20
206.7389183049371
 30
0.0
 11
146.7314422795663
 21
204.2233500418755
 31
0.0
  0
ARC
  5
FF5
102
{ACAD_REACTORS
330
1101
102
}
330
1E
100
AcDbEntity
  8
STEMPEL
100
AcDbCircle
 10
137.6020327570151
 20
207.7048441312262
 30
0.0
 40
1.0
100
AcDbArc
 50
90.0
 51
255.0000000000056
  0
ARC
  5
FF6
102
{ACAD_REACTORS
330
1101
102
}
330
1E
100
AcDbEntity
  8
STEMPEL
100
AcDbCircle
 10
146.6020327570151
 20
203.740387128731
 30
0.0
 40
0.5
100
AcDbArc
 50
0.0
 51
75.00000000000555
  0
ARC
  5
FF7
102
{ACAD_REACTORS
330
1101
102
}
330
1E
100
AcDbEntity
  8
STEMPEL
100
AcDbCircle
 10
146.6020327570151
 20
194.2048441312262
 30
0.0
 40
0.5
100
AcDbArc
 50
270.0
 51
0.0
  0
LINE
  5
FF8
102
{ACAD_REACTORS
330
1101
102
}
330
1E
100
AcDbEntity
  8
STEMPEL
100
AcDbLine
 10
138.3432137119127
 20
191.7389183049371
 30
0.0
 11
146.7314422795663
 21
189.4912992343064
 31
0.0
  0
LINE
  5
FF9
102
{ACAD_REACTORS
330
1101
102
}
330
1E
100
AcDbEntity
  8
STEMPEL
100
AcDbLine
 10
143.5020327570156
 20
167.1048441312267
 30
0.0
 11
147.3020327570149
 21
167.1048441312267
 31
0.0
  0
LINE
  5
FFA
102
{ACAD_REACTORS
330
1101
102
}
330
1E
100
AcDbEntity
  8
STEMPEL
100
AcDbLine
 10
142.5020327570156
 20
179.6048441312263
 30
0.0
 11
147.3020327570149
 21
179.6048441312263
 31
0.0
  0
LINE
  5
FFB
102
{ACAD_REACTORS
330
1101
102
}
330
1E
100
AcDbEntity
  8
STEMPEL
100
AcDbLine
 10
147.3888568458489
 20
177.9369945496349
 30
0.0
 11
142.4325734859486
 21
178.8109210300216
 31
0.0
  0
ARC
  5
FFC
102
{ACAD_REACTORS
330
1101
102
}
330
1E
100
AcDbEntity
  8
STEMPEL
100
AcDbCircle
 10
138.6020327570151
 20
192.7048441312262
 30
0.0
 40
1.0
100
AcDbArc
 50
90.0
 51
255.0000000000056
  0
ARC
  5
FFD
102
{ACAD_REACTORS
330
1101
102
}
330
1E
100
AcDbEntity
  8
STEMPEL
100
AcDbCircle
 10
142.5020327570156
 20
179.2048441312266
 30
0.0
 40
0.4
100
AcDbArc
 50
90.0
 51
259.9999999999948
  0
LINE
  5
FFE
102
{ACAD_REACTORS
330
1101
102
}
330
1E
100
AcDbEntity
  8
STEMPEL
100
AcDbLine
 10
138.6020327570151
 20
193.7048441312262
 30
0.0
 11
146.6020327570151
 21
193.7048441312262
 31
0.0
  0
ARC
  5
1000
102
{ACAD_REACTORS
330
1101
102
}
330
1E
100
AcDbEntity
  8
STEMPEL
100
AcDbCircle
 10
147.3020327570149
 20
177.4445906731292
 30
0.0
 40
0.5
100
AcDbArc
 50
0.0
 51
79.99999999999483
  0
ARC
  5
1005
102
{ACAD_REACTORS
330
1101
102
}
330
1E
100
AcDbEntity
  8
STEMPEL
100
AcDbCircle
 10
147.3020327570149
 20
167.6048441312267
 30
0.0
 40
0.5
100
AcDbArc
 50
270.0
 51
0.0
  0
LINE
  5
1006
102
{ACAD_REACTORS
330
1101
102
}
330
1E
100
AcDbEntity
  8
STEMPEL
100
AcDbLine
 10
147.8020327570149
 20
167.6048441312267
 30
0.0
 11
147.8020327570149
 21
177.4445906731292
 31
0.0
  0
LINE
  5
1007
102
{ACAD_REACTORS
330
1101
102
}
330
1E
100
AcDbEntity
  8
STEMPEL
100
AcDbLine
 10
147.0983058328358
 20
189.0692709928647
 30
0.0
 11
147.8020327570149
 21
183.3378751316617
 31
0.0
  0
ARC
  5
1008
102
{ACAD_REACTORS
330
1101
102
}
330
1E
100
AcDbEntity
  8
STEMPEL
100
AcDbCircle
 10
146.6020327570151
 20
189.0083363211619
 30
0.0
 40
0.5
100
AcDbArc
 50
5.000000000000554
 51
75.00000000000555
  0
ARC
  5
100C
102
{ACAD_REACTORS
330
1101
102
}
330
1E
100
AcDbEntity
  8
STEMPEL
100
AcDbCircle
 10
147.3020327570149
 20
180.1048441312263
 30
0.0
 40
0.5
100
AcDbArc
 50
270.0
 51
0.0
  0
LINE
  5
100D
102
{ACAD_REACTORS
330
1101
102
}
330
1E
100
AcDbEntity
  8
STEMPEL
100
AcDbLine
 10
147.802032757014
 20
180.1048441312263
 30
0.0
 11
147.8020327570149
 21
183.3378751316617
 31
0.0
  0
LINE
  5
1011
102
{ACAD_REACTORS
330
1101
102
}
330
1E
100
AcDbEntity
  8
STEMPEL
100
AcDbLine
 10
147.1020327570151
 20
194.2048441312262
 30
0.0
 11
147.1020327570151
 21
203.740387128731
 31
0.0
  0
LINE
  5
1013
102
{ACAD_REACTORS
330
1101
102
}
330
1E
100
AcDbEntity
  8
STEMPEL
100
AcDbLine
 10
147.3888568458489
 20
155.2896485110522
 30
0.0
 11
144.4325734859486
 21
155.8109210300221
 31
0.0
  0
LINE
  5
1014
102
{ACAD_REACTORS
330
1101
102
}
330
1E
100
AcDbEntity
  8
STEMPEL
100
AcDbLine
 10
144.5020327570156
 20
156.6048441312267
 30
0.0
 11
147.3020327570149
 21
156.6048441312267
 31
0.0
  0
LINE
  5
1015
102
{ACAD_REACTORS
330
1101
102
}
330
1E
100
AcDbEntity
  8
STEMPEL
100
AcDbLine
 10
147.3888568458489
 20
165.6133215303438
 30
0.0
 11
143.4325734859486
 21
166.3109210300221
 31
0.0
  0
ARC
  5
1016
102
{ACAD_REACTORS
330
1101
102
}
330
1E
100
AcDbEntity
  8
STEMPEL
100
AcDbCircle
 10
144.5020327570156
 20
156.2048441312271
 30
0.0
 40
0.4
100
AcDbArc
 50
90.0
 51
260.0000000000213
  0
LINE
  5
1017
102
{ACAD_REACTORS
330
1101
102
}
330
1E
100
AcDbEntity
  8
STEMPEL
100
AcDbLine
 10
147.8020327570158
 20
157.1048441312267
 30
0.0
 11
147.8020327570149
 21
165.1209176538381
 31
0.0
  0
ARC
  5
1018
102
{ACAD_REACTORS
330
1101
102
}
330
1E
100
AcDbEntity
  8
STEMPEL
100
AcDbCircle
 10
147.3020327570149
 20
154.797244634546
 30
0.0
 40
0.5
100
AcDbArc
 50
0.0
 51
79.99999999999483
  0
LINE
  5
1019
102
{ACAD_REACTORS
330
1101
102
}
330
1E
100
AcDbEntity
  8
STEMPEL
100
AcDbLine
 10
153.1020327570151
 20
153.7048441312266
 30
0.0
 11
147.8020327570149
 21
153.7048441312266
 31
0.0
  0
LINE
  5
101A
102
{ACAD_REACTORS
330
1101
102
}
330
1E
100
AcDbEntity
  8
STEMPEL
100
AcDbLine
 10
149.6020327570151
 20
157.7048441312266
 30
0.0
 11
153.1020327570151
 21
157.7048441312266
 31
0.0
  0
ARC
  5
101B
102
{ACAD_REACTORS
330
1101
102
}
330
1E
100
AcDbEntity
  8
STEMPEL
100
AcDbCircle
 10
149.6020327570151
 20
158.2048441312266
 30
0.0
 40
0.5
100
AcDbArc
 50
180.0
 51
270.0
  0
LINE
  5
101C
102
{ACAD_REACTORS
330
1101
102
}
330
1E
100
AcDbEntity
  8
STEMPEL
100
AcDbLine
 10
147.8020327570149
 20
153.7048441312266
 30
0.0
 11
147.8020327570149
 21
154.797244634546
 31
0.0
  0
LINE
  5
101D
102
{ACAD_REACTORS
330
1101
102
}
330
1E
100
AcDbEntity
  8
STEMPEL
100
AcDbLine
 10
153.1020327570151
 20
153.7048441312266
 30
0.0
 11
153.1020327570151
 21
157.7048441312266
 31
0.0
  0
ARC
  5
101E
102
{ACAD_REACTORS
330
1101
102
}
330
1E
100
AcDbEntity
  8
STEMPEL
100
AcDbCircle
 10
147.3020327570149
 20
157.1048441312267
 30
0.0
 40
0.5
100
AcDbArc
 50
270.0
 51
0.0
  0
ARC
  5
101F
102
{ACAD_REACTORS
330
1101
102
}
330
1E
100
AcDbEntity
  8
STEMPEL
100
AcDbCircle
 10
147.3020327570149
 20
165.1209176538381
 30
0.0
 40
0.5
100
AcDbArc
 50
0.0
 51
79.99999999999483
  0
ARC
  5
1020
102
{ACAD_REACTORS
330
1101
102
}
330
1E
100
AcDbEntity
  8
STEMPEL
100
AcDbCircle
 10
143.5020327570156
 20
166.7048441312271
 30
0.0
 40
0.4
100
AcDbArc
 50
90.0
 51
259.9999999999948
  0
LINE
  5
1021
102
{ACAD_REACTORS
330
1101
102
}
330
1E
100
AcDbEntity
  8
STEMPEL
100
AcDbLine
 10
149.1020327570151
 20
158.2048441312266
 30
0.0
 11
149.1020327570151
 21
167.7220014187518
 31
0.0
  0
LINE
  5
1022
330
1E
100
AcDbEntity
  8
STEMPEL
100
AcDbLine
 10
153.1020327570151
 20
157.7048441312266
 30
0.0
 11
255.1020327570151
 21
157.7048441312266
 31
0.0
  0
LINE
  5
1023
330
1E
100
AcDbEntity
  8
STEMPEL
100
AcDbLine
 10
153.1020327570151
 20
153.7048441312266
 30
0.0
 11
255.1020327570151
 21
153.7048441312266
 31
0.0
  0
LINE
  5
104F
102
{ACAD_REACTORS
330
1101
102
}
330
1E
100
AcDbEntity
  8
STEMPEL
100
AcDbLine
 10
149.8019420652225
 20
157.7048441312268
 30
0.0
 11
258.4021234488076
 21
157.7048441312264
 31
0.0
  0
HATCH
  5
1101
330
1E
100
AcDbEntity
  8
SCHRAFF
100
AcDbHatch
 10
0.0
 20
0.0
 30
0.0
210
0.0
220
0.0
230
1.0
  2
NET
 70
     0
 71
     1
 91
        2
 92
        7
 72
     1
 73
     1
 93
       37
 10
259.1020327570151
 20
208.7048441312266
 42
0.0
 10
259.1020327570151
 20
158.2048441312266
 42
-0.4142135623730951
 10
258.6020327570151
 20
157.7048441312266
 42
0.0
 10
255.1020327570151
 20
157.7048441312266
 42
0.0
 10
255.1020327570151
 20
153.7048441312266
 42
0.0
 10
260.4020327570153
 20
153.7048441312267
 42
0.0
 10
260.4020327570153
 20
154.797244634546
 42
-0.3639702342662572
 10
260.8152086681818
 20
155.2896485110522
 42
0.0
 10
263.7714920280815
 20
155.8109210300221
 42
0.9163311740134465
 10
263.7020327570156
 20
156.6048441312267
 42
0.0
 10
260.9020327570153
 20
156.6048441312267
 42
-0.4142135623730951
 10
260.4020327570153
 20
157.1048441312267
 42
0.0
 10
260.4020327570153
 20
165.1209176538381
 42
-0.3639702342660539
 10
260.8152086681819
 20
165.6133215303439
 42
0.0
 10
264.7714920280815
 20
166.3109210300221
 42
0.4442195350681447
 10
265.086906818081
 20
166.8138026422253
 42
0.0
 10
264.8109912680139
 20
167.0897181922923
 42
0.0690802244144043
 10
264.7020327570146
 20
167.1048441312267
 42
0.0
 10
260.9020327570153
 20
167.1048441312267
 42
-0.4142135623730951
 10
260.4020327570153
 20
167.6048441312267
 42
0.0
 10
260.4020327570153
 20
177.4445906731292
 42
-0.3639702342660699
 10
260.8152086681819
 20
177.936994549635
 42
0.0
 10
265.7714920280815
 20
178.8109210300216
 42
0.916331174013479
 10
265.7020327570155
 20
179.6048441312263
 42
0.0
 10
260.9020327570153
 20
179.6048441312263
 42
-0.4142135623724791
 10
260.4020327570162
 20
180.1048441312261
 42
0.0
 10
260.4020327570153
 20
183.3378751316614
 42
0.0
 10
261.1057596811944
 20
189.0692709928645
 42
-0.3057306814586762
 10
261.4726232344639
 20
189.4912992343064
 42
0.0
 10
269.8608518021175
 20
191.7389183049371
 42
0.8769764629927989
 10
269.6020327570151
 20
193.7048441312262
 42
0.0
 10
261.6020327570151
 20
193.7048441312262
 42
-0.4142135623730951
 10
261.1020327570151
 20
194.2048441312262
 42
0.0
 10
261.1020327570151
 20
203.740387128731
 42
-0.3394542588634029
 10
261.4726232344639
 20
204.2233500418755
 42
0.0
 10
270.8608518021175
 20
206.7389183049371
 42
0.8769764629943265
 10
270.6020327570151
 20
208.7048441312266
 42
0.0
 97
       36
330
FC3
330
DF8
330
FE6
330
FEE
330
FED
330
FEF
330
FE9
330
FE8
330
FE4
330
FEA
330
FE5
330
FE7
330
FE3
330
FEC
330
FEB
330
FF2
330
FC2
330
FCC
330
FD2
330
FD3
330
FCD
330
FCA
330
FDD
330
FC9
330
FD9
330
FDB
330
FDA
330
FD8
330
FCB
330
FDC
330
FC8
330
FD4
330
FE1
330
FC5
330
FC4
330
FC6
 92
        7
 72
     1
 73
     1
 93
       37
 10
137.6020327570151
 20
208.7048441312266
 42
0.8769764629934966
 10
137.3432137119109
 20
206.7389183049376
 42
0.0
 10
146.7314422795663
 20
204.2233500418755
 42
-0.3394542588634029
 10
147.1020327570151
 20
203.740387128731
 42
0.0
 10
147.1020327570151
 20
194.2048441312262
 42
-0.4142135623730951
 10
146.6020327570151
 20
193.7048441312262
 42
0.0
 10
138.6020327570151
 20
193.7048441312262
 42
0.8769764629927532
 10
138.3432137119125
 20
191.7389183049371
 42
0.0
 10
146.7314422795663
 20
189.4912992343064
 42
-0.3057306814586767
 10
147.0983058328358
 20
189.0692709928645
 42
0.0
 10
147.8020327570149
 20
183.3378751316617
 42
0.0
 10
147.802032757014
 20
180.1048441312263
 42
-0.4142135623725624
 10
147.3020327570149
 20
179.6048441312263
 42
0.0
 10
142.5020327570156
 20
179.6048441312263
 42
0.91633117401459
 10
142.4325734859486
 20
178.8109210300216
 42
0.0
 10
147.3888568458489
 20
177.9369945496349
 42
-0.3639702342657354
 10
147.8020327570149
 20
177.4445906731292
 42
0.0
 10
147.8020327570149
 20
167.6048441312267
 42
-0.4142135623730951
 10
147.3020327570149
 20
167.1048441312267
 42
0.0
 10
143.5020327570156
 20
167.1048441312267
 42
0.91633117401459
 10
143.4325734859486
 20
166.3109210300221
 42
0.0
 10
147.3888568458489
 20
165.6133215303438
 42
-0.3639702342657354
 10
147.8020327570149
 20
165.1209176538381
 42
0.0
 10
147.8020327570158
 20
157.1048441312267
 42
-0.4142135623736279
 10
147.3020327570149
 20
156.6048441312267
 42
0.0
 10
144.5020327570156
 20
156.6048441312267
 42
0.9163311740146557
 10
144.4325734859486
 20
155.8109210300221
 42
0.0
 10
147.3888568458489
 20
155.2896485110522
 42
-0.3639702342659929
 10
147.8020327570149
 20
154.797244634546
 42
0.0
 10
147.8020327570149
 20
153.7048441312266
 42
0.0
 10
153.1020327570151
 20
153.7048441312266
 42
0.0
 10
153.1020327570151
 20
157.7048441312268
 42
0.0
 10
149.8019420652225
 20
157.7048441312268
 42
0.0
 10
149.6020327570151
 20
157.7048441312266
 42
-0.4142135623730951
 10
149.1020327570151
 20
158.2048441312266
 42
0.0
 10
149.1020327570151
 20
167.7220014187518
 42
0.0
 10
149.1020327570151
 20
208.7048441312266
 42
0.0
 97
       37
330
FF3
330
FF5
330
FF4
330
FF6
330
1011
330
FF7
330
FFE
330
FFC
330
FF8
330
1008
330
1007
330
100D
330
100C
330
FFA
330
FFD
330
FFB
330
1000
330
1006
330
1005
330
FF9
330
1020
330
1015
330
101F
330
1017
330
101E
330
1014
330
1016
330
1013
330
1018
330
101C
330
1019
330
101D
330
104F
330
101A
330
101B
330
1021
330
E00
 75
     0
 76
     1
 52
45.0
 41
15.0
 77
     0
 78
     2
 53
45.0
 43
0.0
 44
0.0
 45
-1.325825214724776
 46
1.325825214724776
 79
     0
 53
135.0
 43
0.0
 44
0.0
 45
-1.325825214724776
 46
-1.325825214724776
 79
     0
 47
0.1779747850997997
 98
        2
 10
261.5876403940633
 20
206.7597657640952
 10
145.8647746661968
 20
207.6496403346371
  0
ENDSEC
  0
SECTION
  2
OBJECTS
  0
DICTIONARY
  5
C
330
0
100
AcDbDictionary
281
     1
  3
ACAD_COLOR
350
11A
  3
ACAD_GROUP
350
D
  3
ACAD_LAYOUT
350
19
  3
ACAD_MATERIAL
350
119
  3
ACAD_MLINESTYLE
350
16
  3
ACAD_PLOTSETTINGS
350
18
  3
ACAD_PLOTSTYLENAME
350
E
  3
AcDbVariableDictionary
350
125
  0
DICTIONARY
  5
DB
330
1E
100
AcDbDictionary
280
     1
281
     1
  3
ACAD_LAYOUTSELFREF
360
10F
  0
DICTIONARY
  5
DD
330
1A
100
AcDbDictionary
280
     1
281
     1
  3
ACAD_LAYOUTSELFREF
360
10E
  0
DICTIONARY
  5
11A
102
{ACAD_REACTORS
330
C
102
}
330
C
100
AcDbDictionary
281
     1
  0
DICTIONARY
  5
D
102
{ACAD_REACTORS
330
C
102
}
330
C
100
AcDbDictionary
281
     1
  0
DICTIONARY
  5
19
102
{ACAD_REACTORS
330
C
102
}
330
C
100
AcDbDictionary
281
     1
  3
Layout1
350
1D
  3
Model
350
21
  0
DICTIONARY
  5
119
102
{ACAD_REACTORS
330
C
102
}
330
C
100
AcDbDictionary
281
     1
  0
DICTIONARY
  5
16
102
{ACAD_REACTORS
330
C
102
}
330
C
100
AcDbDictionary
281
     1
  3
Standard
350
17
  0
DICTIONARY
  5
18
102
{ACAD_REACTORS
330
C
102
}
330
C
100
AcDbDictionary
281
     1
  0
ACDBDICTIONARYWDFLT
  5
E
102
{ACAD_REACTORS
330
C
102
}
330
C
100
AcDbDictionary
281
     1
  3
Normal
350
F
100
AcDbDictionaryWithDefault
340
F
  0
DICTIONARY
  5
125
102
{ACAD_REACTORS
330
C
102
}
330
C
100
AcDbDictionary
281
     1
  3
DIMASSOC
350
126
  3
PROJECTNAME
350
127
  0
XRECORD
  5
10F
102
{ACAD_REACTORS
330
DB
102
}
330
DB
100
AcDbXrecord
280
     1
340
1E
  0
XRECORD
  5
10E
102
{ACAD_REACTORS
330
DD
102
}
330
DD
100
AcDbXrecord
280
     1
340
1A
  0
LAYOUT
  5
1D
102
{ACAD_REACTORS
330
19
102
}
330
19
100
AcDbPlotSettings
  1

  2
\\NT_WORK01\HP LaserJet 5000 PCL 6
  4

  6

 40
0.0
 41
0.0
 42
0.0
 43
0.0
 44
0.0
 45
0.0
 46
0.0
 47
0.0
 48
0.0
 49
0.0
140
0.0
141
0.0
142
1.0
143
1.0
 70
   688
 72
     0
 73
     0
 74
     5
  7

 75
    16
147
1.0
 76
     0
 77
     2
 78
   300
148
0.0
149
0.0
100
AcDbLayout
  1
Layout1
 70
     0
 71
     1
 10
0.0
 20
0.0
 11
12.0
 21
9.0
 12
0.0
 22
0.0
 32
0.0
 14
1.000000000000000E+20
 24
1.000000000000000E+20
 34
1.000000000000000E+20
 15
-1.000000000000000E+20
 25
-1.000000000000000E+20
 35
-1.000000000000000E+20
146
0.0
 13
0.0
 23
0.0
 33
0.0
 16
1.0
 26
0.0
 36
0.0
 17
0.0
 27
1.0
 37
0.0
 76
     0
330
1A
  0
LAYOUT
  5
21
102
{ACAD_REACTORS
330
19
102
}
330
19
100
AcDbPlotSettings
  1

  2
none_device
  4
Letter_(8.50_x_11.00_Inches)
  6

 40
6.349999904632568
 41
6.349999904632568
 42
6.350006103515625
 43
6.350006103515625
 44
215.8999938964844
 45
279.3999938964844
 46
0.0
 47
0.0
 48
0.0
 49
0.0
140
0.0
141
0.0
142
1.0
143
1.0
 70
 11952
 72
     0
 73
     1
 74
     0
  7

 75
     0
147
1.0
 76
     0
 77
     2
 78
   300
148
3124.2
149
0.0
100
AcDbLayout
  1
Model
 70
     1
 71
     0
 10
0.0
 20
0.0
 11
12.0
 21
9.0
 12
0.0
 22
0.0
 32
0.0
 14
0.0
 24
0.0
 34
0.0
 15
0.0
 25
0.0
 35
0.0
146
0.0
 13
0.0
 23
0.0
 33
0.0
 16
1.0
 26
0.0
 36
0.0
 17
0.0
 27
1.0
 37
0.0
 76
     0
330
1E
  0
MLINESTYLE
  5
17
102
{ACAD_REACTORS
330
16
102
}
330
16
100
AcDbMlineStyle
  2
STANDARD
 70
     0
  3

 62
   256
 51
90.0
 52
90.0
 71
     2
 49
0.5
 62
   256
  6
BYLAYER
 49
-0.5
 62
   256
  6
BYLAYER
  0
ACDBPLACEHOLDER
  5
F
102
{ACAD_REACTORS
330
E
102
}
330
E
  0
DICTIONARYVAR
  5
126
102
{ACAD_REACTORS
330
125
102
}
330
125
100
DictionaryVariables
280
     0
  1
1
  0
DICTIONARYVAR
  5
127
102
{ACAD_REACTORS
330
125
102
}
330
125
100
DictionaryVariables
280
     0
  1

  0
ENDSEC
  0
EOF
