  0
SECTION
  2
HEADER
  9
$ACADVER
  1
AC1018
  9
$ACADMAINTVER
 70
     2
  9
$DWGCODEPAGE
  3
ANSI_1252
  9
$INSBASE
 10
0.0
 20
0.0
 30
0.0
  9
$EXTMIN
 10
-0.0362442327386816
 20
-0.0512544705397886
 30
-0.000000000000013
  9
$EXTMAX
 10
594.0362629045896
 20
840.0512808751777
 30
0.0000000000000023
  9
$LIMMIN
 10
0.0
 20
0.0
  9
$LIMMAX
 10
594.0
 20
840.0
  9
$ORTHOMODE
 70
     1
  9
$REGENMODE
 70
     1
  9
$FILLMODE
 70
     1
  9
$QTEXTMODE
 70
     0
  9
$MIRRTEXT
 70
     1
  9
$LTSCALE
 40
20.0
  9
$ATTMODE
 70
     1
  9
$TEXTSIZE
 40
3.5
  9
$TRACEWID
 40
1.0
  9
$TEXTSTYLE
  7
STANDARD
  9
$CLAYER
  8
SCHRAFF
  9
$CELTYPE
  6
ByLayer
  9
$CECOLOR
 62
   256
  9
$CELTSCALE
 40
1.0
  9
$DISPSILH
 70
     0
  9
$DIMSCALE
 40
2.0
  9
$DIMASZ
 40
3.5
  9
$DIMEXO
 40
1.0
  9
$DIMDLI
 40
7.0
  9
$DIMRND
 40
0.0
  9
$DIMDLE
 40
0.0
  9
$DIMEXE
 40
1.0
  9
$DIMTP
 40
0.0
  9
$DIMTM
 40
0.0
  9
$DIMTXT
 40
3.5
  9
$DIMCEN
 40
1.5
  9
$DIMTSZ
 40
0.0
  9
$DIMTOL
 70
     0
  9
$DIMLIM
 70
     0
  9
$DIMTIH
 70
     0
  9
$DIMTOH
 70
     0
  9
$DIMSE1
 70
     0
  9
$DIMSE2
 70
     0
  9
$DIMTAD
 70
     1
  9
$DIMZIN
 70
     8
  9
$DIMBLK
  1

  9
$DIMASO
 70
     1
  9
$DIMSHO
 70
     0
  9
$DIMPOST
  1

  9
$DIMAPOST
  1

  9
$DIMALT
 70
     0
  9
$DIMALTD
 70
     2
  9
$DIMALTF
 40
25.4
  9
$DIMLFAC
 40
1.0
  9
$DIMTOFL
 70
     1
  9
$DIMTVP
 40
0.0
  9
$DIMTIX
 70
     0
  9
$DIMSOXD
 70
     0
  9
$DIMSAH
 70
     0
  9
$DIMBLK1
  1

  9
$DIMBLK2
  1

  9
$DIMSTYLE
  2
Standard
  9
$DIMCLRD
 70
     0
  9
$DIMCLRE
 70
     0
  9
$DIMCLRT
 70
     1
  9
$DIMTFAC
 40
0.5142857142857144
  9
$DIMGAP
 40
1.5
  9
$DIMJUST
 70
     0
  9
$DIMSD1
 70
     0
  9
$DIMSD2
 70
     0
  9
$DIMTOLJ
 70
     1
  9
$DIMTZIN
 70
     8
  9
$DIMALTZ
 70
     8
  9
$DIMALTTZ
 70
     8
  9
$DIMUPT
 70
     0
  9
$DIMDEC
 70
     2
  9
$DIMTDEC
 70
     2
  9
$DIMALTU
 70
     2
  9
$DIMALTTD
 70
     2
  9
$DIMTXSTY
  7
STANDARD
  9
$DIMAUNIT
 70
     0
  9
$DIMADEC
 70
     2
  9
$DIMALTRND
 40
0.0
  9
$DIMAZIN
 70
     2
  9
$DIMDSEP
 70
    46
  9
$DIMATFIT
 70
     3
  9
$DIMFRAC
 70
     0
  9
$DIMLDRBLK
  1

  9
$DIMLUNIT
 70
     2
  9
$DIMLWD
 70
    -2
  9
$DIMLWE
 70
    -2
  9
$DIMTMOVE
 70
     0
  9
$LUNITS
 70
     2
  9
$LUPREC
 70
     2
  9
$SKETCHINC
 40
1.0
  9
$FILLETRAD
 40
0.0
  9
$AUNITS
 70
     0
  9
$AUPREC
 70
     0
  9
$MENU
  1
ACAD
  9
$ELEVATION
 40
0.0
  9
$PELEVATION
 40
0.0
  9
$THICKNESS
 40
0.0
  9
$LIMCHECK
 70
     0
  9
$CHAMFERA
 40
0.0
  9
$CHAMFERB
 40
0.0
  9
$CHAMFERC
 40
0.0
  9
$CHAMFERD
 40
0.0
  9
$SKPOLY
 70
     0
  9
$TDCREATE
 40
2455397.825393172
  9
$TDUCREATE
 40
2455397.783726505
  9
$TDUPDATE
 40
2455502.410637720
  9
$TDUUPDATE
 40
2455502.368971053
  9
$TDINDWG
 40
0.0820221065
  9
$TDUSRTIMER
 40
0.0820221065
  9
$USRTIMER
 70
     1
  9
$ANGBASE
 50
0.0
  9
$ANGDIR
 70
     0
  9
$PDMODE
 70
     0
  9
$PDSIZE
 40
0.0
  9
$PLINEWID
 40
0.0
  9
$SPLFRAME
 70
     0
  9
$SPLINETYPE
 70
     6
  9
$SPLINESEGS
 70
     8
  9
$HANDSEED
  5
12A3
  9
$SURFTAB1
 70
     6
  9
$SURFTAB2
 70
     6
  9
$SURFTYPE
 70
     6
  9
$SURFU
 70
     6
  9
$SURFV
 70
     6
  9
$UCSBASE
  2

  9
$UCSNAME
  2

  9
$UCSORG
 10
0.0
 20
0.0
 30
0.0
  9
$UCSXDIR
 10
1.0
 20
0.0
 30
0.0
  9
$UCSYDIR
 10
0.0
 20
1.0
 30
0.0
  9
$UCSORTHOREF
  2

  9
$UCSORTHOVIEW
 70
     0
  9
$UCSORGTOP
 10
0.0
 20
0.0
 30
0.0
  9
$UCSORGBOTTOM
 10
0.0
 20
0.0
 30
0.0
  9
$UCSORGLEFT
 10
0.0
 20
0.0
 30
0.0
  9
$UCSORGRIGHT
 10
0.0
 20
0.0
 30
0.0
  9
$UCSORGFRONT
 10
0.0
 20
0.0
 30
0.0
  9
$UCSORGBACK
 10
0.0
 20
0.0
 30
0.0
  9
$PUCSBASE
  2

  9
$PUCSNAME
  2

  9
$PUCSORG
 10
0.0
 20
0.0
 30
0.0
  9
$PUCSXDIR
 10
1.0
 20
0.0
 30
0.0
  9
$PUCSYDIR
 10
0.0
 20
1.0
 30
0.0
  9
$PUCSORTHOREF
  2

  9
$PUCSORTHOVIEW
 70
     0
  9
$PUCSORGTOP
 10
0.0
 20
0.0
 30
0.0
  9
$PUCSORGBOTTOM
 10
0.0
 20
0.0
 30
0.0
  9
$PUCSORGLEFT
 10
0.0
 20
0.0
 30
0.0
  9
$PUCSORGRIGHT
 10
0.0
 20
0.0
 30
0.0
  9
$PUCSORGFRONT
 10
0.0
 20
0.0
 30
0.0
  9
$PUCSORGBACK
 10
0.0
 20
0.0
 30
0.0
  9
$USERI1
 70
     0
  9
$USERI2
 70
     0
  9
$USERI3
 70
     0
  9
$USERI4
 70
     0
  9
$USERI5
 70
     0
  9
$USERR1
 40
0.0
  9
$USERR2
 40
0.0
  9
$USERR3
 40
0.0
  9
$USERR4
 40
0.0
  9
$USERR5
 40
0.0
  9
$WORLDVIEW
 70
     1
  9
$SHADEDGE
 70
     3
  9
$SHADEDIF
 70
    70
  9
$TILEMODE
 70
     1
  9
$MAXACTVP
 70
    16
  9
$PINSBASE
 10
0.0
 20
0.0
 30
0.0
  9
$PLIMCHECK
 70
     0
  9
$PEXTMIN
 10
1.000000000000000E+20
 20
1.000000000000000E+20
 30
1.000000000000000E+20
  9
$PEXTMAX
 10
-1.000000000000000E+20
 20
-1.000000000000000E+20
 30
-1.000000000000000E+20
  9
$PLIMMIN
 10
0.0
 20
0.0
  9
$PLIMMAX
 10
12.0
 20
9.0
  9
$UNITMODE
 70
     0
  9
$VISRETAIN
 70
     0
  9
$PLINEGEN
 70
     0
  9
$PSLTSCALE
 70
     0
  9
$TREEDEPTH
 70
  3020
  9
$CMLSTYLE
  2
Standard
  9
$CMLJUST
 70
     0
  9
$CMLSCALE
 40
1.0
  9
$PROXYGRAPHICS
 70
     1
  9
$MEASUREMENT
 70
     0
  9
$CELWEIGHT
370
    -1
  9
$ENDCAPS
280
     0
  9
$JOINSTYLE
280
     0
  9
$LWDISPLAY
290
     0
  9
$INSUNITS
 70
     0
  9
$HYPERLINKBASE
  1

  9
$STYLESHEET
  1
monochrome 1.ctb
  9
$XEDIT
290
     1
  9
$CEPSNTYPE
380
     0
  9
$PSTYLEMODE
290
     1
  9
$FINGERPRINTGUID
  2
{D68B0D0D-A558-11D7-B632-000102183313}
  9
$VERSIONGUID
  2
{F1C72C6D-68EE-42B5-AD49-0E7468D5EB77}
  9
$EXTNAMES
290
     1
  9
$PSVPSCALE
 40
0.0
  9
$OLESTARTUP
290
     0
  9
$SORTENTS
280
   127
  9
$INDEXCTL
280
     0
  9
$HIDETEXT
280
     0
  9
$XCLIPFRAME
290
     0
  9
$HALOGAP
280
     0
  9
$OBSCOLOR
 70
   257
  9
$OBSLTYPE
280
     0
  9
$INTERSECTIONDISPLAY
280
     0
  9
$INTERSECTIONCOLOR
 70
   257
  9
$DIMASSOC
280
     1
  9
$PROJECTNAME
  1

  0
ENDSEC
  0
SECTION
  2
CLASSES
  0
CLASS
  1
ACDBDICTIONARYWDFLT
  2
AcDbDictionaryWithDefault
  3
ObjectDBX Classes
 90
        0
 91
        1
280
     0
281
     0
  0
CLASS
  1
DICTIONARYVAR
  2
AcDbDictionaryVar
  3
ObjectDBX Classes
 90
        0
 91
        2
280
     0
281
     0
  0
ENDSEC
  0
SECTION
  2
TABLES
  0
TABLE
  2
VPORT
  5
8
330
0
100
AcDbSymbolTable
 70
     2
  0
VPORT
  5
12A2
330
8
100
AcDbSymbolTableRecord
100
AcDbViewportTableRecord
  2
*Active
 70
     0
 10
0.0
 20
0.0
 11
1.0
 21
1.0
 12
297.0000093359254
 22
420.0000132023189
 13
0.0
 23
0.0
 14
1.0
 24
1.0
 15
10.0
 25
10.0
 16
0.0
 26
0.0
 36
1.0
 17
0.0
 27
0.0
 37
0.0
 40
846.8866742583342
 41
1.336927223719676
 42
50.0
 43
0.0
 44
0.0
 50
0.0
 51
0.0
 71
     0
 72
  1500
 73
     1
 74
     0
 75
     0
 76
     0
 77
     0
 78
     0
281
     0
 65
     1
110
0.0
120
0.0
130
0.0
111
1.0
121
0.0
131
0.0
112
0.0
122
1.0
132
0.0
 79
     0
146
0.0
  0
ENDTAB
  0
TABLE
  2
LTYPE
  5
5
330
0
100
AcDbSymbolTable
 70
     3
  0
LTYPE
  5
13
330
5
100
AcDbSymbolTableRecord
100
AcDbLinetypeTableRecord
  2
ByBlock
 70
     0
  3

 72
    65
 73
     0
 40
0.0
  0
LTYPE
  5
14
330
5
100
AcDbSymbolTableRecord
100
AcDbLinetypeTableRecord
  2
ByLayer
 70
     0
  3

 72
    65
 73
     0
 40
0.0
  0
LTYPE
  5
15
330
5
100
AcDbSymbolTableRecord
100
AcDbLinetypeTableRecord
  2
Continuous
 70
     0
  3
Solid line
 72
    65
 73
     0
 40
0.0
  0
LTYPE
  5
25
330
5
100
AcDbSymbolTableRecord
100
AcDbLinetypeTableRecord
  2
STRICHPUNKT
 70
     0
  3
__ . __ . __ . __ . __ . __ . __ . __ . __ . __
 72
    65
 73
     4
 40
1.0
 49
0.5
 74
     0
 49
-0.25
 74
     0
 49
0.0
 74
     0
 49
-0.25
 74
     0
  0
LTYPE
  5
34
330
5
100
AcDbSymbolTableRecord
100
AcDbLinetypeTableRecord
  2
AUSGEZOGEN
 70
     0
  3
Ausgezogene Linie
 72
    65
 73
     0
 40
0.0
  0
ENDTAB
  0
TABLE
  2
LAYER
  5
2
330
0
100
AcDbSymbolTable
 70
     9
  0
LAYER
  5
10
330
2
100
AcDbSymbolTableRecord
100
AcDbLayerTableRecord
  2
0
 70
     0
 62
     7
  6
Continuous
370
    -3
390
F
  0
LAYER
  5
2B
330
2
100
AcDbSymbolTableRecord
100
AcDbLayerTableRecord
  2
VOLL
 70
     0
 62
     1
  6
Continuous
370
    -3
390
F
  0
LAYER
  5
2C
330
2
100
AcDbSymbolTableRecord
100
AcDbLayerTableRecord
  2
HILF
 70
     0
 62
     2
  6
Continuous
370
    -3
390
F
  0
LAYER
  5
2D
330
2
100
AcDbSymbolTableRecord
100
AcDbLayerTableRecord
  2
MITTEL
 70
     0
 62
     2
  6
STRICHPUNKT
370
    -3
390
F
  0
LAYER
  5
2F
330
2
100
AcDbSymbolTableRecord
100
AcDbLayerTableRecord
  2
BEM
 70
     0
 62
     7
  6
Continuous
370
    -3
390
F
  0
LAYER
  5
30
330
2
100
AcDbSymbolTableRecord
100
AcDbLayerTableRecord
  2
STEMPEL
 70
     0
 62
     3
  6
Continuous
370
    -3
390
F
  0
LAYER
  5
33
330
2
100
AcDbSymbolTableRecord
100
AcDbLayerTableRecord
  2
TEXT
 70
     0
 62
     7
  6
Continuous
370
    -3
390
F
  0
LAYER
  5
1DD
330
2
100
AcDbSymbolTableRecord
100
AcDbLayerTableRecord
  2
DEFPOINTS
 70
     0
 62
     7
  6
AUSGEZOGEN
290
     0
370
    -3
390
F
  0
LAYER
  5
1DE
330
2
100
AcDbSymbolTableRecord
100
AcDbLayerTableRecord
  2
SCHRAFF
 70
     0
 62
     7
  6
AUSGEZOGEN
370
    -3
390
F
  0
ENDTAB
  0
TABLE
  2
STYLE
  5
3
330
0
100
AcDbSymbolTable
 70
     2
  0
STYLE
  5
11
330
3
100
AcDbSymbolTableRecord
100
AcDbTextStyleTableRecord
  2
STANDARD
 70
     0
 40
0.0
 41
0.8
 50
0.0
 71
     0
 42
3.5
  3
simplex.shx
  4

  0
STYLE
  5
24
330
3
100
AcDbSymbolTableRecord
100
AcDbTextStyleTableRecord
  2
GREEKS
 70
     0
 40
0.0
 41
0.8
 50
0.0
 71
     0
 42
2.5
  3
SIMPLEX.shx
  4

  0
ENDTAB
  0
TABLE
  2
VIEW
  5
6
330
0
100
AcDbSymbolTable
 70
     0
  0
ENDTAB
  0
TABLE
  2
UCS
  5
7
330
0
100
AcDbSymbolTable
 70
     0
  0
ENDTAB
  0
TABLE
  2
APPID
  5
9
330
0
100
AcDbSymbolTable
 70
     1
  0
APPID
  5
12
330
9
100
AcDbSymbolTableRecord
100
AcDbRegAppTableRecord
  2
ACAD
 70
     0
  0
ENDTAB
  0
TABLE
  2
DIMSTYLE
  5
A
330
0
100
AcDbSymbolTable
 70
     1
100
AcDbDimStyleTable
 71
     1
340
A2
  0
DIMSTYLE
105
A2
102
{ACAD_REACTORS
330
F7F
330
F84
330
F8B
330
F8C
330
F9D
102
}
330
A
100
AcDbSymbolTableRecord
100
AcDbDimStyleTableRecord
  2
Standard
 70
     0
340
11
  0
ENDTAB
  0
TABLE
  2
BLOCK_RECORD
  5
1
330
0
100
AcDbSymbolTable
 70
     7
  0
BLOCK_RECORD
  5
1E
102
{ACAD_XDICTIONARY
360
DB
102
}
330
1
100
AcDbSymbolTableRecord
100
AcDbBlockTableRecord
  2
*Model_Space
340
21
  0
BLOCK_RECORD
  5
1A
102
{ACAD_XDICTIONARY
360
DD
102
}
330
1
100
AcDbSymbolTableRecord
100
AcDbBlockTableRecord
  2
*Paper_Space
340
1D
  0
BLOCK_RECORD
  5
22
330
1
100
AcDbSymbolTableRecord
100
AcDbBlockTableRecord
  2
LOGO
340
0
102
{BLKREFS
331
56
102
}
  0
BLOCK_RECORD
  5
23
330
1
100
AcDbSymbolTableRecord
100
AcDbBlockTableRecord
  2
LORO
340
0
102
{BLKREFS
331
9B
102
}
  0
BLOCK_RECORD
  5
FA4
330
1
100
AcDbSymbolTableRecord
100
AcDbBlockTableRecord
  2
*D2
340
0
  0
BLOCK_RECORD
  5
FB0
330
1
100
AcDbSymbolTableRecord
100
AcDbBlockTableRecord
  2
*D3
340
0
  0
BLOCK_RECORD
  5
FBC
330
1
100
AcDbSymbolTableRecord
100
AcDbBlockTableRecord
  2
*D4
340
0
  0
BLOCK_RECORD
  5
FC8
330
1
100
AcDbSymbolTableRecord
100
AcDbBlockTableRecord
  2
*D5
340
0
  0
BLOCK_RECORD
  5
FD4
330
1
100
AcDbSymbolTableRecord
100
AcDbBlockTableRecord
  2
*D6
340
0
  0
ENDTAB
  0
ENDSEC
  0
SECTION
  2
BLOCKS
  0
BLOCK
  5
37
330
1E
100
AcDbEntity
  8
0
100
AcDbBlockBegin
  2
*Model_Space
 70
     0
 10
0.0
 20
0.0
 30
0.0
  3
*Model_Space
  1

  0
ENDBLK
  5
38
330
1E
100
AcDbEntity
  8
0
100
AcDbBlockEnd
  0
BLOCK
  5
35
330
1A
100
AcDbEntity
 67
     1
  8
0
100
AcDbBlockBegin
  2
*Paper_Space
 70
     0
 10
0.0
 20
0.0
 30
0.0
  3
*Paper_Space
  1

  0
ENDBLK
  5
36
330
1A
100
AcDbEntity
 67
     1
  8
0
100
AcDbBlockEnd
  0
BLOCK
  5
39
330
22
100
AcDbEntity
  8
0
100
AcDbBlockBegin
  2
LOGO
 70
     0
 10
0.0
 20
0.0
 30
0.0
  3
LOGO
  1

  0
ARC
  5
3A
330
22
100
AcDbEntity
  8
0
100
AcDbCircle
 10
11.59973089678112
 20
-9.271599258481501
 30
0.0
 40
4.5
100
AcDbArc
 50
270.0
 51
231.0575587310159
  0
LINE
  5
3B
330
22
100
AcDbEntity
  8
0
100
AcDbLine
 10
3.599730896781125
 20
-4.771599258481529
 30
0.0
 11
3.599730896781153
 21
-11.77159925848133
 31
0.0
  0
LINE
  5
3C
330
22
100
AcDbEntity
  8
0
100
AcDbLine
 10
2.599730896781125
 20
-4.771599258481529
 30
0.0
 11
2.599730896781153
 21
-11.77159925848133
 31
0.0
  0
CIRCLE
  5
3D
330
22
100
AcDbEntity
  8
0
100
AcDbCircle
 10
11.59973089678112
 20
-9.271599258481501
 30
0.0
 40
3.5
  0
ARC
  5
3E
330
22
100
AcDbEntity
  8
0
100
AcDbCircle
 10
31.59973089678115
 20
-9.271599258481472
 30
0.0
 40
4.5
100
AcDbArc
 50
270.0
 51
231.0575587310182
  0
LINE
  5
3F
330
22
100
AcDbEntity
  8
0
100
AcDbLine
 10
17.59973089678112
 20
-4.771599258481472
 30
0.0
 11
17.59973089678115
 21
-13.77159925848147
 31
0.0
  0
ARC
  5
40
330
22
100
AcDbEntity
  8
0
100
AcDbCircle
 10
22.59973089678116
 20
-7.271599258481472
 30
0.0
 40
2.5
100
AcDbArc
 50
293.1161887722295
 51
90.0
  0
CIRCLE
  5
41
330
22
100
AcDbEntity
  8
0
100
AcDbCircle
 10
31.59973089678115
 20
-9.271599258481472
 30
0.0
 40
3.5
  0
ARC
  5
42
330
22
100
AcDbEntity
  8
0
100
AcDbCircle
 10
4.599730896781153
 20
-11.77159925848133
 30
0.0
 40
1.0
100
AcDbArc
 50
180.0
 51
270.0
  0
ARC
  5
43
330
22
100
AcDbEntity
  8
0
100
AcDbCircle
 10
4.599730896781153
 20
-11.77159925848133
 30
0.0
 40
2.0
100
AcDbArc
 50
179.9999999999992
 51
270.0
  0
LINE
  5
44
330
22
100
AcDbEntity
  8
0
100
AcDbLine
 10
11.59973089678115
 20
-13.77159925848144
 30
0.0
 11
4.599730896781153
 21
-13.77159925848147
 31
0.0
  0
LINE
  5
45
330
22
100
AcDbEntity
  8
0
100
AcDbLine
 10
8.771303772034769
 20
-12.77159925848136
 30
0.0
 11
4.599730896781153
 21
-12.77159925848133
 31
0.0
  0
LINE
  5
46
330
22
100
AcDbEntity
  8
0
100
AcDbLine
 10
31.59973089678115
 20
-13.77159925848147
 30
0.0
 11
23.6715276665056
 21
-13.77159925848144
 31
0.0
  0
LINE
  5
47
330
22
100
AcDbEntity
  8
0
100
AcDbLine
 10
23.56565672307022
 20
-9.51278021337896
 30
0.0
 11
24.4388546544846
 21
-12.77159925848144
 31
0.0
  0
LINE
  5
48
330
22
100
AcDbEntity
  8
0
100
AcDbLine
 10
22.59973089678116
 20
-9.771599258481472
 30
0.0
 11
18.59973089678112
 21
-9.771599258481472
 31
0.0
  0
LINE
  5
49
330
22
100
AcDbEntity
  8
0
100
AcDbLine
 10
18.59973089678115
 20
-13.77159925848144
 30
0.0
 11
17.59973089678115
 21
-13.77159925848144
 31
0.0
  0
LINE
  5
4A
330
22
100
AcDbEntity
  8
0
100
AcDbLine
 10
18.59973089678115
 20
-9.771599258481472
 30
0.0
 11
18.59973089678115
 21
-13.77159925848144
 31
0.0
  0
LINE
  5
4B
330
22
100
AcDbEntity
  8
0
100
AcDbLine
 10
22.59973089678116
 20
-9.771599258481472
 30
0.0
 11
23.67152766650562
 21
-13.77159925848147
 31
0.0
  0
ARC
  5
4C
330
22
100
AcDbEntity
  8
0
100
AcDbCircle
 10
22.59973089678116
 20
-7.271599258481472
 30
0.0
 40
2.5
100
AcDbArc
 50
270.0
 51
270.0000000000007
  0
LINE
  5
4D
330
22
100
AcDbEntity
  8
0
100
AcDbLine
 10
28.77130377203494
 20
-12.77159925848147
 30
0.0
 11
24.43885465448463
 21
-12.77159925848144
 31
0.0
  0
LINE
  5
4E
330
22
100
AcDbEntity
  8
0
100
AcDbLine
 10
3.599730896781125
 20
-4.771599258481472
 30
0.0
 11
2.599730896781125
 21
-4.771599258481472
 31
0.0
  0
LINE
  5
4F
330
22
100
AcDbEntity
  8
0
100
AcDbLine
 10
22.59973089678116
 20
-8.771599258481472
 30
0.0
 11
18.59973089678115
 21
-8.771599258481472
 31
0.0
  0
LINE
  5
50
330
22
100
AcDbEntity
  8
0
100
AcDbLine
 10
22.59973089678116
 20
-5.771599258481472
 30
0.0
 11
18.59973089678115
 21
-5.771599258481472
 31
0.0
  0
LINE
  5
51
330
22
100
AcDbEntity
  8
0
100
AcDbLine
 10
22.59973089678116
 20
-4.771599258481472
 30
0.0
 11
17.59973089678115
 21
-4.771599258481472
 31
0.0
  0
LINE
  5
52
330
22
100
AcDbEntity
  8
0
100
AcDbLine
 10
18.59973089678115
 20
-5.771599258481472
 30
0.0
 11
18.59973089678115
 21
-8.771599258481472
 31
0.0
  0
ARC
  5
53
330
22
100
AcDbEntity
  8
0
100
AcDbCircle
 10
22.59973089678116
 20
-7.271599258481472
 30
0.0
 40
1.5
100
AcDbArc
 50
270.0
 51
90.0
  0
ENDBLK
  5
54
330
22
100
AcDbEntity
  8
0
100
AcDbBlockEnd
  0
BLOCK
  5
55
330
23
100
AcDbEntity
  8
0
100
AcDbBlockBegin
  2
LORO
 70
     0
 10
0.0
 20
0.0
 30
0.0
  3
LORO
  1

  0
INSERT
  5
56
330
23
100
AcDbEntity
  8
STEMPEL
100
AcDbBlockReference
  2
LOGO
 10
-1.748032802467321
 20
3.771489518552062
 30
0.0
  0
ENDBLK
  5
57
330
23
100
AcDbEntity
  8
0
100
AcDbBlockEnd
  0
BLOCK
  5
FAE
330
FA4
100
AcDbEntity
  8
0
100
AcDbBlockBegin
  2
*D2
 70
     1
 10
0.0
 20
0.0
 30
0.0
  3
*D2
  1

  0
LINE
  5
128F
330
FA4
100
AcDbEntity
  8
BEM
 62
     0
370
    -2
100
AcDbLine
 10
113.312744197991
 20
483.8412840202857
 30
0.0
 11
72.52937791886437
 21
483.8412840202857
 31
0.0
  0
LINE
  5
1290
330
FA4
100
AcDbEntity
  8
BEM
 62
     0
370
    -2
100
AcDbLine
 10
190.3127441979911
 20
593.841284020285
 30
0.0
 11
72.52937791886438
 21
593.841284020285
 31
0.0
  0
LINE
  5
1291
330
FA4
100
AcDbEntity
  8
BEM
 62
     0
370
    -2
100
AcDbLine
 10
75.52937791886437
 20
490.8412840202857
 30
0.0
 11
75.52937791886439
 21
586.8412840202851
 31
0.0
  0
SOLID
  5
1292
330
FA4
100
AcDbEntity
  8
BEM
 62
     0
100
AcDbTrace
 10
74.3627112521977
 20
490.8412840202857
 30
0.0
 11
76.69604458553104
 21
490.8412840202857
 31
0.0
 12
75.52937791886437
 22
483.8412840202857
 32
0.0
 13
75.52937791886437
 23
483.8412840202857
 33
0.0
  0
SOLID
  5
1293
330
FA4
100
AcDbEntity
  8
BEM
 62
     0
100
AcDbTrace
 10
74.36271125219771
 20
586.8412840202851
 30
0.0
 11
76.69604458553106
 21
586.8412840202851
 31
0.0
 12
75.52937791886439
 22
593.841284020285
 32
0.0
 13
75.52937791886439
 23
593.841284020285
 33
0.0
  0
MTEXT
  5
1294
330
FA4
100
AcDbEntity
  8
BEM
 62
     1
100
AcDbMText
 10
70.02937791886428
 20
538.8412840202854
 30
0.0
 40
7.0
 41
0.0
 71
     5
 72
     1
  1
\A1;110
  7
GREEKS
 11
0.0000000000000001
 21
1.0
 31
0.0
 73
     1
 44
1.0
  0
POINT
  5
1295
330
FA4
100
AcDbEntity
  8
DEFPOINTS
 62
     0
100
AcDbPoint
 10
115.312744197991
 20
483.8412840202857
 30
0.0
  0
POINT
  5
1296
330
FA4
100
AcDbEntity
  8
DEFPOINTS
 62
     0
100
AcDbPoint
 10
192.3127441979911
 20
593.841284020285
 30
0.0
  0
POINT
  5
1297
330
FA4
100
AcDbEntity
  8
DEFPOINTS
 62
     0
100
AcDbPoint
 10
75.52937791886439
 20
593.841284020285
 30
0.0
  0
ENDBLK
  5
FAF
330
FA4
100
AcDbEntity
  8
0
100
AcDbBlockEnd
  0
BLOCK
  5
FBA
330
FB0
100
AcDbEntity
  8
0
100
AcDbBlockBegin
  2
*D3
 70
     1
 10
0.0
 20
0.0
 30
0.0
  3
*D3
  1

  0
LINE
  5
1286
330
FB0
100
AcDbEntity
  8
BEM
 62
     0
370
    -2
100
AcDbLine
 10
205.3000514779319
 20
198.3412840202853
 30
0.0
 11
73.52937791886431
 21
198.3412840202853
 31
0.0
  0
LINE
  5
1287
330
FB0
100
AcDbEntity
  8
BEM
 62
     0
370
    -2
100
AcDbLine
 10
105.312744197991
 20
478.3412840202857
 30
0.0
 11
73.52937791886438
 21
478.3412840202857
 31
0.0
  0
LINE
  5
1288
330
FB0
100
AcDbEntity
  8
BEM
 62
     0
370
    -2
100
AcDbLine
 10
75.52937791886432
 20
205.3412840202854
 30
0.0
 11
75.52937791886439
 21
471.3412840202858
 31
0.0
  0
SOLID
  5
1289
330
FB0
100
AcDbEntity
  8
BEM
 62
     0
100
AcDbTrace
 10
74.36271125219765
 20
205.3412840202854
 30
0.0
 11
76.696044585531
 21
205.3412840202854
 31
0.0
 12
75.52937791886432
 22
198.3412840202853
 32
0.0
 13
75.52937791886432
 23
198.3412840202853
 33
0.0
  0
SOLID
  5
128A
330
FB0
100
AcDbEntity
  8
BEM
 62
     0
100
AcDbTrace
 10
74.36271125219771
 20
471.3412840202858
 30
0.0
 11
76.69604458553106
 21
471.3412840202858
 31
0.0
 12
75.52937791886439
 22
478.3412840202857
 32
0.0
 13
75.52937791886439
 23
478.3412840202857
 33
0.0
  0
MTEXT
  5
128B
330
FB0
100
AcDbEntity
  8
BEM
 62
     1
100
AcDbMText
 10
70.0293779188643
 20
338.3412840202856
 30
0.0
 40
7.0
 41
0.0
 71
     5
 72
     1
  1
\A1;280
  7
GREEKS
 11
0.0000000000000001
 21
1.0
 31
0.0
 73
     1
 44
1.0
  0
POINT
  5
128C
330
FB0
100
AcDbEntity
  8
DEFPOINTS
 62
     0
100
AcDbPoint
 10
207.3000514779319
 20
198.3412840202853
 30
0.0
  0
POINT
  5
128D
330
FB0
100
AcDbEntity
  8
DEFPOINTS
 62
     0
100
AcDbPoint
 10
107.312744197991
 20
478.3412840202857
 30
0.0
  0
POINT
  5
128E
330
FB0
100
AcDbEntity
  8
DEFPOINTS
 62
     0
100
AcDbPoint
 10
75.52937791886439
 20
478.3412840202857
 30
0.0
  0
ENDBLK
  5
FBB
330
FB0
100
AcDbEntity
  8
0
100
AcDbBlockEnd
  0
BLOCK
  5
FC6
330
FBC
100
AcDbEntity
  8
0
100
AcDbBlockBegin
  2
*D4
 70
     1
 10
0.0
 20
0.0
 30
0.0
  3
*D4
  1

  0
LINE
  5
126B
330
FBC
100
AcDbEntity
  8
BEM
 62
     0
370
    -2
100
AcDbLine
 10
107.3127441979911
 20
483.3412840202858
 30
0.0
 11
107.3127441979911
 21
619.6626358660739
 31
0.0
  0
LINE
  5
126C
330
FBC
100
AcDbEntity
  8
BEM
 62
     0
370
    -2
100
AcDbLine
 10
437.312744197991
 20
483.3412840202857
 30
0.0
 11
437.312744197991
 21
619.6626358660739
 31
0.0
  0
LINE
  5
126D
330
FBC
100
AcDbEntity
  8
BEM
 62
     0
370
    -2
100
AcDbLine
 10
114.3127441979912
 20
616.662635866074
 30
0.0
 11
430.312744197991
 21
616.662635866074
 31
0.0
  0
SOLID
  5
126E
330
FBC
100
AcDbEntity
  8
BEM
 62
     0
100
AcDbTrace
 10
114.3127441979912
 20
617.8293025327405
 30
0.0
 11
114.3127441979912
 21
615.4959691994073
 31
0.0
 12
107.3127441979911
 22
616.662635866074
 32
0.0
 13
107.3127441979911
 23
616.662635866074
 33
0.0
  0
SOLID
  5
126F
330
FBC
100
AcDbEntity
  8
BEM
 62
     0
100
AcDbTrace
 10
430.312744197991
 20
617.8293025327405
 30
0.0
 11
430.312744197991
 21
615.4959691994073
 31
0.0
 12
437.312744197991
 22
616.662635866074
 32
0.0
 13
437.312744197991
 23
616.662635866074
 33
0.0
  0
MTEXT
  5
1270
330
FBC
100
AcDbEntity
  8
BEM
 62
     1
100
AcDbMText
 10
272.3127441979911
 20
622.1626358660739
 30
0.0
 40
7.0
 41
0.0
 71
     5
 72
     1
  1
\A1;%%c330
  7
GREEKS
 73
     1
 44
1.0
  0
POINT
  5
1271
330
FBC
100
AcDbEntity
  8
DEFPOINTS
 62
     0
100
AcDbPoint
 10
107.3127441979911
 20
481.3412840202858
 30
0.0
  0
POINT
  5
1272
330
FBC
100
AcDbEntity
  8
DEFPOINTS
 62
     0
100
AcDbPoint
 10
437.312744197991
 20
481.3412840202857
 30
0.0
  0
POINT
  5
1273
330
FBC
100
AcDbEntity
  8
DEFPOINTS
 62
     0
100
AcDbPoint
 10
437.312744197991
 20
616.662635866074
 30
0.0
  0
ENDBLK
  5
FC7
330
FBC
100
AcDbEntity
  8
0
100
AcDbBlockEnd
  0
BLOCK
  5
FD2
330
FC8
100
AcDbEntity
  8
0
100
AcDbBlockBegin
  2
*D5
 70
     1
 10
0.0
 20
0.0
 30
0.0
  3
*D5
  1

  0
LINE
  5
1262
330
FC8
100
AcDbEntity
  8
BEM
 62
     0
370
    -2
100
AcDbLine
 10
205.8127441979912
 20
207.201204806829
 30
0.0
 11
205.8127441979912
 21
174.3240429185432
 31
0.0
  0
LINE
  5
1263
330
FC8
100
AcDbEntity
  8
BEM
 62
     0
370
    -2
100
AcDbLine
 10
338.8127441979912
 20
207.2012048068351
 30
0.0
 11
338.8127441979912
 21
174.3240429185432
 31
0.0
  0
LINE
  5
1264
330
FC8
100
AcDbEntity
  8
BEM
 62
     0
370
    -2
100
AcDbLine
 10
212.8127441979911
 20
176.3240429185431
 30
0.0
 11
331.8127441979911
 21
176.3240429185431
 31
0.0
  0
SOLID
  5
1265
330
FC8
100
AcDbEntity
  8
BEM
 62
     0
100
AcDbTrace
 10
212.8127441979911
 20
177.4907095852098
 30
0.0
 11
212.8127441979911
 21
175.1573762518765
 31
0.0
 12
205.8127441979912
 22
176.3240429185431
 32
0.0
 13
205.8127441979912
 23
176.3240429185431
 33
0.0
  0
SOLID
  5
1266
330
FC8
100
AcDbEntity
  8
BEM
 62
     0
100
AcDbTrace
 10
331.8127441979911
 20
177.4907095852098
 30
0.0
 11
331.8127441979911
 21
175.1573762518765
 31
0.0
 12
338.8127441979912
 22
176.3240429185431
 32
0.0
 13
338.8127441979912
 23
176.3240429185431
 33
0.0
  0
MTEXT
  5
1267
330
FC8
100
AcDbEntity
  8
BEM
 62
     1
100
AcDbMText
 10
272.3127441979912
 20
181.8240429185431
 30
0.0
 40
7.0
 41
0.0
 71
     5
 72
     1
  1
\A1;%%c133
  7
GREEKS
 73
     1
 44
1.0
  0
POINT
  5
1268
330
FC8
100
AcDbEntity
  8
DEFPOINTS
 62
     0
100
AcDbPoint
 10
205.8127441979912
 20
209.201204806829
 30
0.0
  0
POINT
  5
1269
330
FC8
100
AcDbEntity
  8
DEFPOINTS
 62
     0
100
AcDbPoint
 10
338.8127441979912
 20
209.2012048068351
 30
0.0
  0
POINT
  5
126A
330
FC8
100
AcDbEntity
  8
DEFPOINTS
 62
     0
100
AcDbPoint
 10
338.8127441979912
 20
176.3240429185431
 30
0.0
  0
ENDBLK
  5
FD3
330
FC8
100
AcDbEntity
  8
0
100
AcDbBlockEnd
  0
BLOCK
  5
FDE
330
FD4
100
AcDbEntity
  8
0
100
AcDbBlockBegin
  2
*D6
 70
     1
 10
0.0
 20
0.0
 30
0.0
  3
*D6
  1

  0
LINE
  5
1259
330
FD4
100
AcDbEntity
  8
BEM
 62
     0
370
    -2
100
AcDbLine
 10
162.3127441979911
 20
575.8412260529704
 30
0.0
 11
162.3127441979911
 21
603.9219305962924
 31
0.0
  0
LINE
  5
125A
330
FD4
100
AcDbEntity
  8
BEM
 62
     0
370
    -2
100
AcDbLine
 10
382.3127441979914
 20
575.8412260529704
 30
0.0
 11
382.3127441979914
 21
603.9219305962924
 31
0.0
  0
LINE
  5
125B
330
FD4
100
AcDbEntity
  8
BEM
 62
     0
370
    -2
100
AcDbLine
 10
169.3127441979911
 20
601.9219305962924
 30
0.0
 11
375.3127441979914
 21
601.9219305962924
 31
0.0
  0
SOLID
  5
125C
330
FD4
100
AcDbEntity
  8
BEM
 62
     0
100
AcDbTrace
 10
169.3127441979911
 20
603.088597262959
 30
0.0
 11
169.3127441979911
 21
600.7552639296258
 31
0.0
 12
162.3127441979911
 22
601.9219305962924
 32
0.0
 13
162.3127441979911
 23
601.9219305962924
 33
0.0
  0
SOLID
  5
125D
330
FD4
100
AcDbEntity
  8
BEM
 62
     0
100
AcDbTrace
 10
375.3127441979914
 20
603.088597262959
 30
0.0
 11
375.3127441979914
 21
600.7552639296258
 31
0.0
 12
382.3127441979914
 22
601.9219305962924
 32
0.0
 13
382.3127441979914
 23
601.9219305962924
 33
0.0
  0
MTEXT
  5
125E
330
FD4
100
AcDbEntity
  8
BEM
 62
     1
100
AcDbMText
 10
272.3127441979912
 20
607.4219305962924
 30
0.0
 40
7.0
 41
0.0
 71
     5
 72
     1
  1
\A1;%%c220
  7
GREEKS
 73
     1
 44
1.0
  0
POINT
  5
125F
330
FD4
100
AcDbEntity
  8
DEFPOINTS
 62
     0
100
AcDbPoint
 10
162.3127441979911
 20
573.8412260529704
 30
0.0
  0
POINT
  5
1260
330
FD4
100
AcDbEntity
  8
DEFPOINTS
 62
     0
100
AcDbPoint
 10
382.3127441979914
 20
573.8412260529704
 30
0.0
  0
POINT
  5
1261
330
FD4
100
AcDbEntity
  8
DEFPOINTS
 62
     0
100
AcDbPoint
 10
382.3127441979914
 20
601.9219305962924
 30
0.0
  0
ENDBLK
  5
FDF
330
FD4
100
AcDbEntity
  8
0
100
AcDbBlockEnd
  0
ENDSEC
  0
SECTION
  2
ENTITIES
  0
LINE
  5
58
330
1E
100
AcDbEntity
  8
STEMPEL
100
AcDbLine
 10
484.0
 20
830.0000000000002
 30
0.0
 11
484.0
 21
470.0000000000001
 31
0.0
  0
LINE
  5
59
330
1E
100
AcDbEntity
  8
STEMPEL
100
AcDbLine
 10
484.0
 20
470.0000000000001
 30
0.0
 11
584.0
 21
470.0000000000001
 31
0.0
  0
LINE
  5
5A
330
1E
100
AcDbEntity
  8
STEMPEL
100
AcDbLine
 10
484.0000000000001
 20
566.0000000000002
 30
0.0
 11
584.0000000000001
 21
566.0
 31
0.0
  0
LINE
  5
5B
330
1E
100
AcDbEntity
  8
STEMPEL
100
AcDbLine
 10
484.0
 20
650.0
 30
0.0
 11
584.0
 21
650.0
 31
0.0
  0
LINE
  5
5C
330
1E
100
AcDbEntity
  8
STEMPEL
100
AcDbLine
 10
484.0000000000003
 20
752.0000000000002
 30
0.0
 11
554.0
 21
752.0000000000002
 31
0.0
  0
LINE
  5
5D
330
1E
100
AcDbEntity
  8
STEMPEL
100
AcDbLine
 10
564.0
 20
566.0
 30
0.0
 11
564.0
 21
470.0000000000001
 31
0.0
  0
LINE
  5
5E
330
1E
100
AcDbEntity
  8
STEMPEL
100
AcDbLine
 10
554.0
 20
830.0000000000002
 30
0.0
 11
554.0
 21
566.0
 31
0.0
  0
LINE
  5
5F
330
1E
100
AcDbEntity
  8
STEMPEL
100
AcDbLine
 10
514.0
 20
830.0000000000002
 30
0.0
 11
514.0
 21
566.0000000000002
 31
0.0
  0
LINE
  5
60
330
1E
100
AcDbEntity
  8
VOLL
100
AcDbLine
 10
484.0
 20
484.0000000000001
 30
0.0
 11
584.0
 21
484.0
 31
0.0
  0
LINE
  5
61
330
1E
100
AcDbEntity
  8
VOLL
100
AcDbLine
 10
484.0000000000001
 20
524.0000000000001
 30
0.0
 11
584.0000000000001
 21
524.0
 31
0.0
  0
LINE
  5
62
330
1E
100
AcDbEntity
  8
VOLL
100
AcDbLine
 10
484.0000000000001
 20
544.0000000000002
 30
0.0
 11
584.0000000000001
 21
544.0
 31
0.0
  0
LINE
  5
63
330
1E
100
AcDbEntity
  8
VOLL
100
AcDbLine
 10
514.0
 20
584.0000000000002
 30
0.0
 11
554.0
 21
584.0000000000002
 31
0.0
  0
LINE
  5
64
330
1E
100
AcDbEntity
  8
VOLL
100
AcDbLine
 10
484.0000000000002
 20
610.0000000000002
 30
0.0
 11
554.0
 21
610.0
 31
0.0
  0
LINE
  5
65
330
1E
100
AcDbEntity
  8
HILF
100
AcDbLine
 10
494.0
 20
470.0000000000001
 30
0.0
 11
494.0
 21
566.0000000000002
 31
0.0
  0
LINE
  5
66
330
1E
100
AcDbEntity
  8
HILF
100
AcDbLine
 10
504.0
 20
470.0000000000001
 30
0.0
 11
504.0
 21
566.0000000000002
 31
0.0
  0
LINE
  5
67
330
1E
100
AcDbEntity
  8
HILF
100
AcDbLine
 10
514.0
 20
470.0000000000001
 30
0.0
 11
514.0
 21
566.0000000000002
 31
0.0
  0
LINE
  5
68
330
1E
100
AcDbEntity
  8
HILF
100
AcDbLine
 10
524.0
 20
470.0000000000001
 30
0.0
 11
524.0
 21
566.0000000000002
 31
0.0
  0
LINE
  5
69
330
1E
100
AcDbEntity
  8
HILF
100
AcDbLine
 10
534.0
 20
470.0000000000001
 30
0.0
 11
534.0
 21
566.0000000000002
 31
0.0
  0
LINE
  5
6A
330
1E
100
AcDbEntity
  8
HILF
100
AcDbLine
 10
544.0
 20
470.0000000000001
 30
0.0
 11
544.0
 21
566.0000000000002
 31
0.0
  0
LINE
  5
6B
330
1E
100
AcDbEntity
  8
HILF
100
AcDbLine
 10
554.0
 20
470.0000000000001
 30
0.0
 11
554.0
 21
566.0000000000002
 31
0.0
  0
LINE
  5
6C
330
1E
100
AcDbEntity
  8
HILF
100
AcDbLine
 10
524.0
 20
566.0000000000002
 30
0.0
 11
524.0
 21
650.0
 31
0.0
  0
LINE
  5
6D
330
1E
100
AcDbEntity
  8
HILF
100
AcDbLine
 10
534.0
 20
566.0000000000002
 30
0.0
 11
534.0
 21
650.0
 31
0.0
  0
LINE
  5
6E
330
1E
100
AcDbEntity
  8
HILF
100
AcDbLine
 10
544.0
 20
566.0000000000002
 30
0.0
 11
544.0
 21
650.0
 31
0.0
  0
LINE
  5
6F
330
1E
100
AcDbEntity
  8
HILF
100
AcDbLine
 10
509.9624175243587
 20
654.7736801096948
 30
0.0
 11
509.9624175243587
 21
746.6297842514811
 31
0.0
  0
LINE
  5
70
330
1E
100
AcDbEntity
  8
HILF
100
AcDbLine
 10
524.0
 20
654.7736801096948
 30
0.0
 11
524.0
 21
746.6297842514811
 31
0.0
  0
LINE
  5
71
330
1E
100
AcDbEntity
  8
HILF
100
AcDbLine
 10
534.0
 20
654.7736801096948
 30
0.0
 11
534.0
 21
746.6297842514811
 31
0.0
  0
LINE
  5
72
330
1E
100
AcDbEntity
  8
HILF
100
AcDbLine
 10
544.0
 20
654.7736801096948
 30
0.0
 11
544.0
 21
746.6297842514811
 31
0.0
  0
LINE
  5
73
330
1E
100
AcDbEntity
  8
VOLL
100
AcDbLine
 10
534.0
 20
752.0000000000002
 30
0.0
 11
534.0
 21
830.0000000000002
 31
0.0
  0
LINE
  5
74
330
1E
100
AcDbEntity
  8
HILF
100
AcDbLine
 10
510.2201636304418
 20
756.7238616296995
 30
0.0
 11
510.2201636304418
 21
824.858883932673
 31
0.0
  0
LINE
  5
75
330
1E
100
AcDbEntity
  8
HILF
100
AcDbLine
 10
579.1060174197169
 20
654.7736801096948
 30
0.0
 11
579.1060174197169
 21
824.858883932673
 31
0.0
  0
TEXT
  5
76
330
1E
100
AcDbEntity
  8
TEXT
100
AcDbText
 10
575.3261810501587
 20
492.3998239263297
 30
0.0
 40
4.0
  1
Änderung
 50
90.0
 41
0.8
  7
GREEKS
 72
     1
 11
575.3261810501587
 21
503.1426810691868
 31
0.0
100
AcDbText
  0
TEXT
  5
78
330
1E
100
AcDbEntity
  8
TEXT
100
AcDbText
 10
491.5379104912911
 20
573.5163572150376
 30
0.0
 40
5.0
  1
Maßstab
 50
90.0
 41
0.8
  7
GREEKS
100
AcDbText
  0
TEXT
  5
79
330
1E
100
AcDbEntity
  8
TEXT
100
AcDbText
 10
491.4510671988221
 20
654.8779403809009
 30
0.0
 40
5.0
  1
Benennung
 50
90.0
 41
0.8
  7
GREEKS
100
AcDbText
  0
TEXT
  5
7A
330
1E
100
AcDbEntity
  8
TEXT
100
AcDbText
 10
491.6867965462863
 20
756.1787549576343
 30
0.0
 40
5.0
  1
Zeichnungs Nr.
 50
90.0
 41
0.8
  7
GREEKS
100
AcDbText
  0
TEXT
  5
7B
330
1E
100
AcDbEntity
  8
TEXT
100
AcDbText
 10
563.1543942980694
 20
654.7422383911359
 30
0.0
 40
5.0
  1
Bauvorhaben
 50
90.0
 41
0.8
  7
GREEKS
100
AcDbText
  0
TEXT
  5
7C
330
1E
100
AcDbEntity
  8
TEXT
100
AcDbText
 10
520.8188176290003
 20
756.7238616296995
 30
0.0
 40
5.0
  1
Ersatz für:
 50
90.0
 41
0.8
  7
GREEKS
100
AcDbText
  0
TEXT
  5
7D
330
1E
100
AcDbEntity
  8
TEXT
100
AcDbText
 10
580.3453415397281
 20
478.2664110704577
 30
0.0
 40
4.0
  1
Index
 50
180.0
 41
0.8
  7
GREEKS
100
AcDbText
  0
TEXT
  5
7E
330
1E
100
AcDbEntity
  8
TEXT
100
AcDbText
 10
575.3284373066019
 20
529.8990113186978
 30
0.0
 40
4.0
  1
Tag
 50
90.0
 41
0.8
  7
GREEKS
 72
     1
 11
575.3284373066019
 21
533.6323446520311
 31
0.0
100
AcDbText
  0
TEXT
  5
7F
330
1E
100
AcDbEntity
  8
TEXT
100
AcDbText
 10
575.4067578303359
 20
548.9795678138292
 30
0.0
 40
4.0
  1
Name
 50
90.0
 41
0.8
  7
GREEKS
 72
     1
 11
575.4067578303359
 21
555.3033773376387
 31
0.0
100
AcDbText
  0
TEXT
  5
80
330
1E
100
AcDbEntity
  8
TEXT
100
AcDbText
 10
520.6811949877008
 20
592.3311673153651
 30
0.0
 40
4.0
  1
Tag
 50
90.0
 41
0.8
  7
GREEKS
100
AcDbText
  0
TEXT
  5
81
330
1E
100
AcDbEntity
  8
TEXT
100
AcDbText
 10
520.6903890808478
 20
622.4626584226296
 30
0.0
 40
4.0
  1
Name
 50
90.0
 41
0.8
  7
GREEKS
100
AcDbText
  0
TEXT
  5
82
330
1E
100
AcDbEntity
  8
TEXT
100
AcDbText
 10
530.3700963038204
 20
567.5836127167615
 30
0.0
 40
4.0
  1
Gez.
 50
90.0
 41
0.8
  7
GREEKS
100
AcDbText
  0
TEXT
  5
83
330
1E
100
AcDbEntity
  8
TEXT
100
AcDbText
 10
540.3107370857163
 20
567.5515086571672
 30
0.0
 40
4.0
  1
Gepr.
 50
90.0
 41
0.8
  7
GREEKS
100
AcDbText
  0
TEXT
  5
84
330
1E
100
AcDbEntity
  8
TEXT
100
AcDbText
 10
550.470536103502
 20
567.6006777387303
 30
0.0
 40
4.0
  1
Norm.
 50
90.0
 41
0.8
  7
GREEKS
100
AcDbText
  0
TEXT
  5
85
330
1E
100
AcDbEntity
  8
TEXT
100
AcDbText
 10
541.925838221214
 20
757.2400861497007
 30
0.0
 40
5.0
  1
ersetzt durch:
 50
90.0
 41
0.8
  7
GREEKS
100
AcDbText
  0
TEXT
  5
86
330
1E
100
AcDbEntity
  8
TEXT
100
AcDbText
 10
521.0331740347627
 20
568.8693027807324
 30
0.0
 40
4.0
  1
2010
 50
90.0
 41
0.8
  7
GREEKS
100
AcDbText
  0
LINE
  5
87
330
1E
100
AcDbEntity
  8
HILF
100
AcDbLine
 10
594.0
 20
-0.0000000000000568
 30
0.0
 11
594.0
 21
840.0
 31
0.0
  0
LINE
  5
88
330
1E
100
AcDbEntity
  8
HILF
100
AcDbLine
 10
594.0
 20
840.0
 30
0.0
 11
0.0
 21
840.0
 31
0.0
  0
LINE
  5
89
330
1E
100
AcDbEntity
  8
HILF
100
AcDbLine
 10
0.0
 20
840.0
 30
0.0
 11
0.0
 21
0.0
 31
0.0
  0
LINE
  5
8B
330
1E
100
AcDbEntity
  8
STEMPEL
100
AcDbLine
 10
10.0
 20
830.0
 30
0.0
 11
10.0
 21
39.99999999999995
 31
0.0
  0
LINE
  5
8D
330
1E
100
AcDbEntity
  8
STEMPEL
100
AcDbLine
 10
584.0
 20
39.99999999999995
 30
0.0
 11
584.0
 21
830.0
 31
0.0
  0
LINE
  5
8E
330
1E
100
AcDbEntity
  8
STEMPEL
100
AcDbLine
 10
584.0
 20
830.0
 30
0.0
 11
10.0
 21
830.0
 31
0.0
  0
TEXT
  5
8F
330
1E
100
AcDbEntity
  8
TEXT
 62
     1
100
AcDbText
 10
506.6265692434746
 20
655.0390572473189
 30
0.0
 40
7.0
  1
Drainlet Kompletteinheit 
 50
90.0
 41
0.7
  7
GREEKS
100
AcDbText
  0
TEXT
  5
90
330
1E
100
AcDbEntity
  8
TEXT
 62
     1
100
AcDbText
 10
506.6265692434746
 20
768.2628088850803
 30
0.0
 40
7.0
  1
21511125W
 50
90.0
 41
0.8
  7
GREEKS
 72
     1
 11
506.6265692434746
 21
790.1294755517469
 31
0.0
100
AcDbText
  0
TEXT
  5
91
330
1E
100
AcDbEntity
  8
TEXT
100
AcDbText
 10
491.16010388621
 20
618.5090226415829
 30
0.0
 40
5.0
  1
Zul.Abw.
 50
90.0
 41
0.8
  7
GREEKS
100
AcDbText
  0
TEXT
  5
93
330
1E
100
AcDbEntity
  8
TEXT
100
AcDbText
 10
530.8491412387978
 20
590.4612856559488
 30
0.0
 40
4.0
  1
29.10.
 50
90.0
 41
0.8
  7
GREEKS
 72
     1
 11
530.8491412387978
 21
597.1660475607107
 31
0.0
100
AcDbText
  0
TEXT
  5
94
330
1E
100
AcDbEntity
  8
TEXT
100
AcDbText
 10
531.0570234483452
 20
624.0231753226609
 30
0.0
 40
4.0
  1
Koeh
 50
90.0
 41
0.8
  7
GREEKS
 72
     1
 11
531.0570234483452
 21
629.2803181798038
 31
0.0
100
AcDbText
  0
TEXT
  5
95
330
1E
100
AcDbEntity
  8
TEXT
100
AcDbText
 10
521.8997861689246
 20
654.3410940884991
 30
0.0
 40
5.0
  1
DN125, einteilig
 50
90.0
 41
0.8
  7
GREEKS
100
AcDbText
  0
TEXT
  5
96
330
1E
100
AcDbEntity
  8
TEXT
100
AcDbText
 10
531.6544091479096
 20
654.3410940884991
 30
0.0
 40
5.0
  1

 50
90.0
 41
0.8
  7
GREEKS
100
AcDbText
  0
TEXT
  5
97
330
1E
100
AcDbEntity
  8
TEXT
100
AcDbText
 10
541.4090266215394
 20
654.3410940884991
 30
0.0
 40
5.0
  1
EDV-Art.Nr. 21511.125X
 50
90.0
 41
0.8
  7
GREEKS
100
AcDbText
  0
TEXT
  5
98
330
1E
100
AcDbEntity
  8
TEXT
100
AcDbText
 10
550.6887237520849
 20
654.1676050109347
 30
0.0
 40
4.0
  1
21511125W.DWG
 50
90.0
 41
0.8
  7
GREEKS
100
AcDbText
  0
TEXT
  5
99
330
1E
100
AcDbEntity
  8
TEXT
 62
     1
100
AcDbText
 10
506.5292291158502
 20
582.703491203422
 30
0.0
 40
7.0
  1
1:2
 50
90.0
 41
0.8
  7
GREEKS
100
AcDbText
  0
TEXT
  5
9A
330
1E
100
AcDbEntity
  8
TEXT
100
AcDbText
 10
479.8856414948956
 20
470.0441139350127
 30
0.0
 40
5.0
  1
Erstellt mit AUTOCAD 2004
 50
90.0
 41
0.8
  7
GREEKS
100
AcDbText
  0
INSERT
  5
9B
330
1E
100
AcDbEntity
  8
HILF
100
AcDbBlockReference
  2
LORO
 10
557.0194069970104
 20
573.0624985962354
 30
0.0
 41
2.0
 42
2.0
 43
2.0
 50
90.0
  0
LINE
  5
9C
330
1E
100
AcDbEntity
  8
BEM
100
AcDbLine
 10
594.0
 20
455.9999999999999
 30
0.0
 11
584.0
 21
455.9999999999999
 31
0.0
  0
LINE
  5
13E
330
1E
100
AcDbEntity
  8
HILF
100
AcDbLine
 10
594.0
 20
-0.0000000000000568
 30
0.0
 11
0.0
 21
0.0
 31
0.0
  0
LINE
  5
13F
330
1E
100
AcDbEntity
  8
STEMPEL
100
AcDbLine
 10
584.0
 20
39.99999999999995
 30
0.0
 11
10.0
 21
39.99999999999995
 31
0.0
  0
LINE
  5
14A
330
1E
100
AcDbEntity
  8
HILF
100
AcDbLine
 10
297.0
 20
-0.0000000000000568
 30
0.0
 11
297.0
 21
39.99999999999995
 31
0.0
  0
TEXT
  5
15B
330
1E
100
AcDbEntity
  8
BEM
100
AcDbText
 10
583.8320989200114
 20
837.3022923857165
 30
0.0
 40
4.0
  1
Diese Zeichnung ist urheberrechtlich geschützt und bleibt unser Eigentum. Sie darf weder ganz noch teilweise verfielfältigt und nicht an Dritte weitergegeben werden.
 50
180.0
 41
0.8
  7
GREEKS
100
AcDbText
  0
LINE
  5
19C
330
1E
100
AcDbEntity
  8
BEM
100
AcDbLine
 10
0.0
 20
455.9999999999999
 30
0.0
 11
10.0
 21
455.9999999999999
 31
0.0
  0
TEXT
  5
663
330
1E
100
AcDbEntity
  8
TEXT
100
AcDbText
 10
504.5307583482736
 20
612.2898419893275
 30
0.0
 40
4.0
  1
DIN EN1124-3
 50
90.0
 41
0.8
  7
GREEKS
 72
     1
 11
504.5307583482736
 21
629.2803181798038
 31
0.0
100
AcDbText
  0
TEXT
  5
B6D
330
1E
100
AcDbEntity
  8
TEXT
 62
     1
100
AcDbText
 10
450.3328521511373
 20
443.7431934527886
 30
0.0
 40
7.0
  1
EDV-Art.Nr. 21905.125X
 41
0.8
100
AcDbText
  0
LINE
  5
B6E
330
1E
100
AcDbEntity
  8
TEXT
 62
     2
100
AcDbLine
 10
555.6760608475163
 20
453.0356902605878
 30
0.0
 11
449.7374962723831
 21
453.0356902605878
 31
0.0
  0
TEXT
  5
B6F
330
1E
100
AcDbEntity
  8
TEXT
 62
     1
100
AcDbText
 10
450.3328521511373
 20
456.5195244214982
 30
0.0
 40
7.0
  1
Losflansch DN125
 41
0.8
100
AcDbText
  0
LINE
  5
B70
330
1E
100
AcDbEntity
  8
TEXT
 62
     2
100
AcDbLine
 10
449.7374962723831
 20
453.0356902605878
 30
0.0
 11
426.0089695039575
 21
488.5061089975496
 31
0.0
  0
LINE
  5
B74
330
1E
100
AcDbEntity
  8
TEXT
 62
     2
100
AcDbLine
 10
448.1372868139893
 20
415.5640662284493
 30
0.0
 11
392.9520423994319
 21
479.8925018762673
 31
0.0
  0
TEXT
  5
B76
330
1E
100
AcDbEntity
  8
TEXT
 62
     1
100
AcDbText
 10
418.2163645658627
 20
230.3799232768407
 30
0.0
 40
7.0
  1
Ablaufkörper DN125
 41
0.8
  7
GREEKS
100
AcDbText
  0
LINE
  5
B77
330
1E
100
AcDbEntity
  8
TEXT
 62
     2
100
AcDbLine
 10
417.1356781670257
 20
226.767155004647
 30
0.0
 11
337.5106131653741
 21
249.2668622840646
 31
0.0
  0
LINE
  5
B78
330
1E
100
AcDbEntity
  8
TEXT
 62
     2
100
AcDbLine
 10
523.2595727747036
 20
226.7671550046472
 30
0.0
 11
417.1356781670257
 21
226.767155004647
 31
0.0
  0
TEXT
  5
B79
330
1E
100
AcDbEntity
  8
TEXT
 62
     1
100
AcDbText
 10
418.0358092717106
 20
217.3321511298615
 30
0.0
 40
7.0
  1
EDV-Art.Nr. 21981.125X
 41
0.8
  7
GREEKS
100
AcDbText
  0
TEXT
  5
BB1
330
1E
100
AcDbEntity
  8
TEXT
 62
     1
100
AcDbText
 10
450.1377236292573
 20
418.5506067205024
 30
0.0
 40
7.0
  1
Kompressionsdichtung
 41
0.8
100
AcDbText
  0
TEXT
  5
BB2
330
1E
100
AcDbEntity
  8
TEXT
 62
     1
100
AcDbText
 10
450.4936826320941
 20
405.0125934154541
 30
0.0
 40
7.0
  1
EDV-Art.Nr. 21810.150X
 41
0.8
100
AcDbText
  0
LINE
  5
BB3
330
1E
100
AcDbEntity
  8
TEXT
 62
     2
100
AcDbLine
 10
448.1372868139893
 20
415.5640662284493
 30
0.0
 11
555.3354168812204
 21
415.5640662284493
 31
0.0
  0
LINE
  5
DD0
330
1E
100
AcDbEntity
  8
STEMPEL
100
AcDbLine
 10
382.3127441979912
 20
568.8412840202873
 30
0.0
 11
381.3127441979911
 21
568.8412840202873
 31
0.0
  0
LINE
  5
DD1
330
1E
100
AcDbEntity
  8
STEMPEL
100
AcDbLine
 10
402.312744197991
 20
504.8412840202862
 30
0.0
 11
402.3127441979911
 21
503.841284020286
 31
0.0
  0
LINE
  5
DD2
330
1E
100
AcDbEntity
  8
STEMPEL
100
AcDbLine
 10
397.0732464526404
 20
510.0353764373588
 30
0.0
 11
397.0732464526402
 21
506.4412840202863
 31
0.0
  0
LINE
  5
DD3
330
1E
100
AcDbEntity
  8
STEMPEL
100
AcDbLine
 10
399.8337487072897
 20
510.0590368094831
 30
0.0
 11
399.8337487072897
 21
506.4412840202863
 31
0.0
  0
LINE
  5
DD4
330
1E
100
AcDbEntity
  8
STEMPEL
100
AcDbLine
 10
398.3127441979911
 20
504.841284020286
 30
0.0
 11
398.3127441979911
 21
503.841284020286
 31
0.0
  0
LINE
  5
DD5
330
1E
100
AcDbEntity
  8
STEMPEL
100
AcDbLine
 10
400.3127441979909
 20
506.4412840202861
 30
0.0
 11
400.3127441979909
 21
504.8412840202862
 31
0.0
  0
LINE
  5
DD6
330
1E
100
AcDbEntity
  8
STEMPEL
100
AcDbLine
 10
399.8337487072897
 20
510.0590368094832
 30
0.0
 11
399.6269905754973
 21
510.1784086725306
 31
0.0
  0
ARC
  5
DD7
330
1E
100
AcDbEntity
  8
STEMPEL
100
AcDbCircle
 10
398.4534975799649
 20
508.2611290344072
 30
0.0
 40
2.247898356545996
100
AcDbArc
 50
58.53080548383034
 51
127.8806357171815
  0
LINE
  5
DD8
330
1E
100
AcDbEntity
  8
STEMPEL
100
AcDbLine
 10
398.4495383546057
 20
510.5090273546863
 30
0.0
 11
398.4530937876018
 21
510.5090273546863
 31
0.0
  0
LINE
  5
DD9
330
1E
100
AcDbEntity
  8
STEMPEL
100
AcDbLine
 10
397.3127441979909
 20
503.8412840202861
 30
0.0
 11
402.3127441979912
 21
503.841284020286
 31
0.0
  0
LINE
  5
DDA
330
1E
100
AcDbEntity
  8
STEMPEL
100
AcDbLine
 10
396.6627441979924
 20
496.4412840202863
 30
0.0
 11
397.3127441979925
 21
497.0912840202863
 31
0.0
  0
LINE
  5
DDB
330
1E
100
AcDbEntity
  8
STEMPEL
100
AcDbLine
 10
401.8127441979912
 20
503.8412840202863
 30
0.0
 11
401.9713629467826
 21
494.7540219880997
 31
0.0
  0
LINE
  5
DDC
330
1E
100
AcDbEntity
  8
HILF
100
AcDbLine
 10
396.662744197992
 20
504.8412840202861
 30
0.0
 11
396.6627441979924
 21
496.4412840202853
 31
0.0
  0
LINE
  5
DDD
330
1E
100
AcDbEntity
  8
STEMPEL
100
AcDbLine
 10
397.3127441979914
 20
504.8412840202862
 30
0.0
 11
397.3127441979932
 21
497.0912840202863
 31
0.0
  0
LINE
  5
DDE
330
1E
100
AcDbEntity
  8
STEMPEL
100
AcDbLine
 10
382.3127441979912
 20
528.8412840202872
 30
0.0
 11
381.3127441979911
 21
528.8412840202872
 31
0.0
  0
LWPOLYLINE
  5
DDF
330
1E
100
AcDbEntity
  8
STEMPEL
100
AcDbPolyline
 90
        7
 70
   128
 43
0.0
 10
380.620999872075
 20
522.8033380761253
 10
380.4831708625047
 20
522.0512318391867
 10
380.3643065855386
 20
521.128518228472
 10
380.2679585836373
 20
520.0627669785679
 10
380.1970056360992
 20
518.8858216417466
 10
380.1535677440912
 20
517.6328481353448
 10
380.1389427871936
 20
516.3412840202855
  0
LINE
  5
DE0
330
1E
100
AcDbEntity
  8
STEMPEL
100
AcDbLine
 10
388.7917396886924
 20
510.0590368094832
 30
0.0
 11
388.7917396886924
 21
506.4412840202863
 31
0.0
  0
LINE
  5
DE1
330
1E
100
AcDbEntity
  8
STEMPEL
100
AcDbLine
 10
391.5522419433417
 20
510.0353764373588
 30
0.0
 11
391.5522419433417
 21
506.4412840202863
 31
0.0
  0
LINE
  5
DE2
330
1E
100
AcDbEntity
  8
STEMPEL
100
AcDbLine
 10
388.3127441979909
 20
506.4412840202863
 30
0.0
 11
388.3127441979909
 21
504.8412840202862
 31
0.0
  0
LINE
  5
DE3
330
1E
100
AcDbEntity
  8
STEMPEL
100
AcDbLine
 10
390.3127441979912
 20
504.8412840202864
 30
0.0
 11
390.3127441979912
 21
503.841284020286
 31
0.0
  0
ARC
  5
DE4
330
1E
100
AcDbEntity
  8
STEMPEL
100
AcDbCircle
 10
390.1719908160169
 20
508.2611290344072
 30
0.0
 40
2.247898356545996
100
AcDbArc
 50
52.11936428281847
 51
121.4691945163685
  0
LINE
  5
DE5
330
1E
100
AcDbEntity
  8
STEMPEL
100
AcDbLine
 10
388.7917396886924
 20
510.0590368094832
 30
0.0
 11
388.9984978204777
 21
510.1784086725266
 31
0.0
  0
LINE
  5
DE6
330
1E
100
AcDbEntity
  8
STEMPEL
100
AcDbLine
 10
391.3127441979925
 20
497.0912840202863
 30
0.0
 11
391.9627441979922
 21
496.4412840202863
 31
0.0
  0
LINE
  5
DE7
330
1E
100
AcDbEntity
  8
HILF
100
AcDbLine
 10
391.9627441979926
 20
504.8412840202863
 30
0.0
 11
391.9627441979931
 21
496.4412840202853
 31
0.0
  0
LINE
  5
DE8
330
1E
100
AcDbEntity
  8
STEMPEL
100
AcDbLine
 10
391.3127441979905
 20
504.8412840202863
 30
0.0
 11
391.3127441979925
 21
497.0912840202856
 31
0.0
  0
LWPOLYLINE
  5
DE9
330
1E
100
AcDbEntity
  8
STEMPEL
100
AcDbPolyline
 90
        7
 70
   128
 43
0.0
 10
-382.7594019708643
 20
504.8412840202878
 10
-382.082700095787
 20
505.4508847481469
 10
-381.483150672153
 20
506.1784438320585
 10
-380.9768619990034
 20
507.0044136937387
 10
-380.5774367069578
 20
507.9066027189418
 10
-380.2956062916948
 20
508.8607714871354
 10
-380.1389427871934
 20
509.8412840202878
210
0.0
220
0.0
230
-1.0
  0
LINE
  5
DEA
330
1E
100
AcDbEntity
  8
STEMPEL
100
AcDbLine
 10
383.7235161406267
 20
504.8412840202874
 30
0.0
 11
382.7594019708641
 21
504.8412840202874
 31
0.0
  0
LWPOLYLINE
  5
DEB
330
1E
100
AcDbEntity
  8
STEMPEL
100
AcDbPolyline
 90
       10
 70
   128
 43
0.0
 10
-386.609045687987
 20
503.8412840202885
 10
-385.7509726917142
 20
503.9074112348612
 10
-384.898160492092
 20
504.1599649845913
 10
-384.0774021851749
 20
504.591010700909
 10
-383.3144838187759
 20
505.1870060713488
 10
-382.6333742632768
 20
505.9292265030694
 10
-382.055472173331
 20
506.7943533998669
 10
-381.5989336989249
 20
507.7552067705831
 10
-381.2781020673273
 20
508.7815991522952
 10
-381.1030569569561
 20
509.8412840202878
210
0.0
220
0.0
230
-1.0
  0
ARC
  5
DEC
330
1E
100
AcDbEntity
  8
STEMPEL
100
AcDbCircle
 10
387.3127441979913
 20
509.8412840202865
 30
0.0
 40
5.0
100
AcDbArc
 50
180.0
 51
270.0
  0
LINE
  5
DED
330
1E
100
AcDbEntity
  8
STEMPEL
100
AcDbLine
 10
386.6541254491998
 20
494.7540219881
 30
0.0
 11
386.8127441979912
 21
503.8412840202861
 31
0.0
  0
ARC
  5
DEE
330
1E
100
AcDbEntity
  8
STEMPEL
100
AcDbCircle
 10
387.3127441979913
 20
509.8412840202865
 30
0.0
 40
6.0
100
AcDbArc
 50
180.0
 51
270.0
  0
LINE
  5
DEF
330
1E
100
AcDbEntity
  8
STEMPEL
100
AcDbLine
 10
381.1030569569561
 20
516.3412840202855
 30
0.0
 11
381.1030569569561
 21
509.8412840202878
 31
0.0
  0
LINE
  5
DF0
330
1E
100
AcDbEntity
  8
STEMPEL
100
AcDbLine
 10
380.1389427871935
 20
516.3412840202855
 30
0.0
 11
380.1389427871935
 21
509.8412840202878
 31
0.0
  0
LINE
  5
DF1
330
1E
100
AcDbEntity
  8
STEMPEL
100
AcDbLine
 10
402.3127441979909
 20
504.841284020286
 30
0.0
 11
387.3127441979911
 21
504.8412840202864
 31
0.0
  0
LINE
  5
DF2
330
1E
100
AcDbEntity
  8
STEMPEL
100
AcDbLine
 10
400.3127441979911
 20
504.841284020286
 30
0.0
 11
388.3127441979909
 21
504.8412840202864
 31
0.0
  0
LINE
  5
DF3
330
1E
100
AcDbEntity
  8
STEMPEL
100
AcDbLine
 10
388.3127441979909
 20
506.4412840202863
 30
0.0
 11
400.3127441979909
 21
506.4412840202861
 31
0.0
  0
LINE
  5
DF4
330
1E
100
AcDbEntity
  8
STEMPEL
100
AcDbLine
 10
390.1723946083651
 20
510.5090273546863
 30
0.0
 11
398.4530937871078
 21
510.5090273546863
 31
0.0
  0
ARC
  5
DF5
330
1E
100
AcDbEntity
  8
STEMPEL
100
AcDbCircle
 10
394.3127441979909
 20
502.2279097610863
 30
0.0
 40
8.281117593600001
100
AcDbArc
 50
70.52782738138624
 51
109.4721726186137
  0
LINE
  5
DF6
330
1E
100
AcDbEntity
  8
STEMPEL
100
AcDbLine
 10
391.9627441979922
 20
496.4412840202863
 30
0.0
 11
396.6627441979924
 21
496.4412840202863
 31
0.0
  0
LINE
  5
DF7
330
1E
100
AcDbEntity
  8
STEMPEL
100
AcDbLine
 10
391.3127441979925
 20
497.0912840202863
 30
0.0
 11
397.3127441979925
 21
497.0912840202863
 31
0.0
  0
LINE
  5
DF8
330
1E
100
AcDbEntity
  8
STEMPEL
100
AcDbLine
 10
382.3127441979914
 20
573.8412260529704
 30
0.0
 11
382.3127441979914
 21
509.8412840202865
 31
0.0
  0
LINE
  5
DF9
330
1E
100
AcDbEntity
  8
STEMPEL
100
AcDbLine
 10
381.3127441979913
 20
573.8412260529704
 30
0.0
 11
381.3127441979913
 21
509.8412840202865
 31
0.0
  0
ARC
  5
DFB
330
1E
100
AcDbEntity
  8
STEMPEL
100
AcDbCircle
 10
429.312744197991
 20
486.8412840202857
 30
0.0
 40
3.0
100
AcDbArc
 50
270.0
 51
90.0
  0
LINE
  5
DFC
102
{ACAD_REACTORS
330
FA2
102
}
330
1E
100
AcDbEntity
  8
STEMPEL
100
AcDbLine
 10
437.3127441979909
 20
474.4626043638454
 30
0.0
 11
435.1914238544313
 21
472.3412840202857
 31
0.0
  0
LINE
  5
DFD
102
{ACAD_REACTORS
330
FA2
102
}
330
1E
100
AcDbEntity
  8
STEMPEL
100
AcDbLine
 10
437.3127441979909
 20
474.4626043638454
 30
0.0
 11
435.1914238544313
 21
476.5839247074052
 31
0.0
  0
ARC
  5
DFE
102
{ACAD_REACTORS
330
FA2
102
}
330
1E
100
AcDbEntity
  8
STEMPEL
100
AcDbCircle
 10
430.9487831673118
 20
472.3412840202858
 30
0.0
 40
3.0
100
AcDbArc
 50
45.0
 51
90.0
  0
LINE
  5
DFF
102
{ACAD_REACTORS
330
FA2
102
}
330
1E
100
AcDbEntity
  8
STEMPEL
100
AcDbLine
 10
435.1914238544313
 20
472.3412840202858
 30
0.0
 11
433.0701035108713
 21
474.4626043638454
 31
0.0
  0
ARC
  5
E00
102
{ACAD_REACTORS
330
FA2
102
}
330
1E
100
AcDbEntity
  8
STEMPEL
100
AcDbCircle
 10
430.9487831673118
 20
472.3412840202858
 30
0.0
 40
6.0
100
AcDbArc
 50
45.0
 51
90.0
  0
LINE
  5
E01
330
1E
100
AcDbEntity
  8
STEMPEL
100
AcDbLine
 10
437.312744197991
 20
481.3412840202857
 30
0.0
 11
437.312744197991
 21
478.3412840202857
 31
0.0
  0
LINE
  5
E02
330
1E
100
AcDbEntity
  8
STEMPEL
100
AcDbLine
 10
406.9706014225646
 20
489.841284020286
 30
0.0
 11
429.312744197991
 21
489.8412840202861
 31
0.0
  0
LINE
  5
E03
330
1E
100
AcDbEntity
  8
MITTEL
100
AcDbLine
 10
394.3127441979911
 20
515.5090273546863
 30
0.0
 11
394.3127441979945
 21
483.8412840202856
 31
0.0
  0
LINE
  5
E04
330
1E
100
AcDbEntity
  8
STEMPEL
100
AcDbLine
 10
396.6627441979925
 20
496.4412840202863
 30
0.0
 11
396.6627441979915
 21
483.8412840202855
 31
0.0
  0
LINE
  5
E05
330
1E
100
AcDbEntity
  8
HILF
100
AcDbLine
 10
397.3127441979932
 20
497.091284020287
 30
0.0
 11
397.3127441979923
 21
483.8412840202856
 31
0.0
  0
LINE
  5
E06
330
1E
100
AcDbEntity
  8
STEMPEL
100
AcDbLine
 10
391.9627441979931
 20
496.4412840202853
 30
0.0
 11
391.9627441979915
 21
483.8412840202855
 31
0.0
  0
LINE
  5
E07
330
1E
100
AcDbEntity
  8
HILF
100
AcDbLine
 10
391.3127441979925
 20
497.0912840202863
 30
0.0
 11
391.3127441979907
 21
483.8412840202856
 31
0.0
  0
ARC
  5
E08
330
1E
100
AcDbEntity
  8
STEMPEL
100
AcDbCircle
 10
406.9706014225646
 20
494.8412840202861
 30
0.0
 40
4.99999999999995
100
AcDbArc
 50
181.0000000000017
 51
270.0
  0
ARC
  5
E09
330
1E
100
AcDbEntity
  8
STEMPEL
100
AcDbCircle
 10
381.6548869734179
 20
494.8412840202863
 30
0.0
 40
5.0
100
AcDbArc
 50
270.0
 51
358.9999999999982
  0
ARC
  5
E0B
330
1E
100
AcDbEntity
  8
STEMPEL
100
AcDbCircle
 10
352.3127441979914
 20
587.8412840202855
 30
0.0
 40
5.0
100
AcDbArc
 50
59.46264995170093
 51
90.0
  0
ARC
  5
E0C
330
1E
100
AcDbEntity
  8
STEMPEL
100
AcDbCircle
 10
352.3127441979914
 20
587.8412840202855
 30
0.0
 40
6.0
100
AcDbArc
 50
90.0
 51
90.0
  0
ARC
  5
E0D
330
1E
100
AcDbEntity
  8
STEMPEL
100
AcDbCircle
 10
352.3127441979914
 20
587.8412840202855
 30
0.0
 40
6.0
100
AcDbArc
 50
59.48712567237889
 51
90.0
  0
ARC
  5
E0E
330
1E
100
AcDbEntity
  8
STEMPEL
100
AcDbCircle
 10
295.1541825816939
 20
593.8412840202856
 30
0.0
 40
1.5
100
AcDbArc
 50
29.99999999999165
 51
90.0
  0
ARC
  5
E0F
330
1E
100
AcDbEntity
  8
STEMPEL
100
AcDbCircle
 10
295.1541825816939
 20
593.8412840202856
 30
0.0
 40
0.5
100
AcDbArc
 50
29.99999999999165
 51
90.0
  0
LINE
  5
E10
330
1E
100
AcDbEntity
  8
STEMPEL
100
AcDbLine
 10
294.9541825816939
 20
594.3412840202856
 30
0.0
 11
295.1541825816939
 21
594.3412840202856
 31
0.0
  0
ARC
  5
E11
330
1E
100
AcDbEntity
  8
STEMPEL
100
AcDbCircle
 10
294.9541825816939
 20
593.8412840202856
 30
0.0
 40
0.5
100
AcDbArc
 50
90.0
 51
149.9999999999938
  0
ARC
  5
E12
330
1E
100
AcDbEntity
  8
STEMPEL
100
AcDbCircle
 10
297.752258793048
 20
595.3412840202855
 30
0.0
 40
1.5
100
AcDbArc
 50
209.9999999999917
 51
270.0
  0
ARC
  5
E13
330
1E
100
AcDbEntity
  8
STEMPEL
100
AcDbCircle
 10
297.752258793048
 20
595.3412840202855
 30
0.0
 40
2.5
100
AcDbArc
 50
209.9999999999917
 51
270.0
  0
ARC
  5
E14
330
1E
100
AcDbEntity
  8
STEMPEL
100
AcDbCircle
 10
292.3561063703415
 20
595.3412840202855
 30
0.0
 40
1.5
100
AcDbArc
 50
270.0
 51
329.9999999999938
  0
ARC
  5
E15
330
1E
100
AcDbEntity
  8
STEMPEL
100
AcDbCircle
 10
292.3561063703415
 20
595.3412840202855
 30
0.0
 40
2.5
100
AcDbArc
 50
270.0
 51
329.9999999999938
  0
ARC
  5
E16
330
1E
100
AcDbEntity
  8
STEMPEL
100
AcDbCircle
 10
294.9541825816939
 20
593.8412840202856
 30
0.0
 40
1.5
100
AcDbArc
 50
90.0
 51
149.9999999999938
  0
ARC
  5
E17
330
1E
100
AcDbEntity
  8
STEMPEL
100
AcDbCircle
 10
283.304182581694
 20
593.8412840202856
 30
0.0
 40
0.5
100
AcDbArc
 50
30.00000000000055
 51
90.0
  0
ARC
  5
E18
330
1E
100
AcDbEntity
  8
STEMPEL
100
AcDbCircle
 10
283.304182581694
 20
593.8412840202856
 30
0.0
 40
1.5
100
AcDbArc
 50
30.00000000000055
 51
90.0
  0
LINE
  5
E19
330
1E
100
AcDbEntity
  8
STEMPEL
100
AcDbLine
 10
283.104182581694
 20
594.3412840202856
 30
0.0
 11
283.304182581694
 21
594.3412840202856
 31
0.0
  0
ARC
  5
E1A
330
1E
100
AcDbEntity
  8
STEMPEL
100
AcDbCircle
 10
283.104182581694
 20
593.8412840202856
 30
0.0
 40
0.5
100
AcDbArc
 50
90.0
 51
165.5224878140769
  0
ARC
  5
E1B
330
1E
100
AcDbEntity
  8
STEMPEL
100
AcDbCircle
 10
285.9022587930475
 20
595.3412840202855
 30
0.0
 40
2.5
100
AcDbArc
 50
210.0000000000005
 51
270.0
  0
ARC
  5
E1C
330
1E
100
AcDbEntity
  8
STEMPEL
100
AcDbCircle
 10
285.9022587930475
 20
595.3412840202855
 30
0.0
 40
1.5
100
AcDbArc
 50
210.0000000000005
 51
270.0
  0
LINE
  5
E1D
330
1E
100
AcDbEntity
  8
STEMPEL
100
AcDbLine
 10
285.9022587930475
 20
593.8412840202856
 30
0.0
 11
292.3561063703415
 21
593.8412840202856
 31
0.0
  0
LINE
  5
E1E
330
1E
100
AcDbEntity
  8
STEMPEL
100
AcDbLine
 10
285.9022587930475
 20
593.8412840202856
 30
0.0
 11
292.3561063703415
 21
593.8412840202856
 31
0.0
  0
ARC
  5
E1F
330
1E
100
AcDbEntity
  8
STEMPEL
100
AcDbCircle
 10
279.0424500428875
 20
593.8412840202856
 30
0.0
 40
1.5
100
AcDbArc
 50
14.47751218592945
 51
90.0
  0
ARC
  5
E20
330
1E
100
AcDbEntity
  8
STEMPEL
100
AcDbCircle
 10
280.9789417159908
 20
594.3412840202856
 30
0.0
 40
0.5
100
AcDbArc
 50
194.4775121859295
 51
270.0
  0
ARC
  5
E21
330
1E
100
AcDbEntity
  8
STEMPEL
100
AcDbCircle
 10
280.9789417159908
 20
594.3412840202856
 30
0.0
 40
1.5
100
AcDbArc
 50
194.4775121859295
 51
270.0
  0
ARC
  5
E22
330
1E
100
AcDbEntity
  8
STEMPEL
100
AcDbCircle
 10
279.0424500428875
 20
593.8412840202856
 30
0.0
 40
0.5
100
AcDbArc
 50
14.47751218592945
 51
90.0
  0
LINE
  5
E23
330
1E
100
AcDbEntity
  8
STEMPEL
100
AcDbLine
 10
280.9789417159908
 20
593.8412840202856
 30
0.0
 11
281.16769090859
 21
593.8412840202856
 31
0.0
  0
ARC
  5
E24
330
1E
100
AcDbEntity
  8
STEMPEL
100
AcDbCircle
 10
268.9541825816939
 20
593.8412840202856
 30
0.0
 40
1.5
100
AcDbArc
 50
90.0
 51
149.9999999999994
  0
ARC
  5
E25
330
1E
100
AcDbEntity
  8
STEMPEL
100
AcDbCircle
 10
266.3561063703412
 20
595.3412840202855
 30
0.0
 40
2.5
100
AcDbArc
 50
270.0
 51
329.9999999999995
  0
ARC
  5
E26
330
1E
100
AcDbEntity
  8
STEMPEL
100
AcDbCircle
 10
266.3561063703412
 20
595.3412840202855
 30
0.0
 40
1.5
100
AcDbArc
 50
270.0
 51
329.9999999999995
  0
ARC
  5
E27
330
1E
100
AcDbEntity
  8
STEMPEL
100
AcDbCircle
 10
268.9541825816939
 20
593.8412840202856
 30
0.0
 40
0.5
100
AcDbArc
 50
90.0
 51
149.9999999999994
  0
LINE
  5
E28
330
1E
100
AcDbEntity
  8
STEMPEL
100
AcDbLine
 10
268.9541825816939
 20
594.3412840202856
 30
0.0
 11
279.0424500428875
 21
594.3412840202856
 31
0.0
  0
ARC
  5
E29
330
1E
100
AcDbEntity
  8
STEMPEL
100
AcDbCircle
 10
257.304182581694
 20
593.8412840202856
 30
0.0
 40
1.5
100
AcDbArc
 50
30.00000000000055
 51
90.0
  0
ARC
  5
E2A
330
1E
100
AcDbEntity
  8
STEMPEL
100
AcDbCircle
 10
257.304182581694
 20
593.8412840202856
 30
0.0
 40
0.5
100
AcDbArc
 50
30.00000000000055
 51
90.0
  0
LINE
  5
E2B
330
1E
100
AcDbEntity
  8
STEMPEL
100
AcDbLine
 10
257.104182581694
 20
594.3412840202856
 30
0.0
 11
257.304182581694
 21
594.3412840202856
 31
0.0
  0
ARC
  5
E2C
330
1E
100
AcDbEntity
  8
STEMPEL
100
AcDbCircle
 10
259.9022587930469
 20
595.3412840202855
 30
0.0
 40
1.5
100
AcDbArc
 50
210.0000000000005
 51
270.0
  0
ARC
  5
E2D
330
1E
100
AcDbEntity
  8
STEMPEL
100
AcDbCircle
 10
259.9022587930469
 20
595.3412840202855
 30
0.0
 40
2.5
100
AcDbArc
 50
210.0000000000005
 51
270.0
  0
ARC
  5
E2E
330
1E
100
AcDbEntity
  8
STEMPEL
100
AcDbCircle
 10
254.5061063703403
 20
595.3412840202855
 30
0.0
 40
2.5
100
AcDbArc
 50
270.0
 51
329.9999999999995
  0
ARC
  5
E2F
330
1E
100
AcDbEntity
  8
STEMPEL
100
AcDbCircle
 10
254.5061063703403
 20
595.3412840202855
 30
0.0
 40
1.5
100
AcDbArc
 50
270.0
 51
329.9999999999995
  0
ARC
  5
E30
330
1E
100
AcDbEntity
  8
STEMPEL
100
AcDbCircle
 10
252.4472587930479
 20
595.3412840202855
 30
0.0
 40
1.5
100
AcDbArc
 50
210.0000000000005
 51
270.0
  0
ARC
  5
E31
330
1E
100
AcDbEntity
  8
STEMPEL
100
AcDbCircle
 10
252.4472587930479
 20
595.3412840202855
 30
0.0
 40
2.5
100
AcDbArc
 50
209.9999999999917
 51
270.0
  0
ARC
  5
E32
330
1E
100
AcDbEntity
  8
STEMPEL
100
AcDbCircle
 10
249.8491825816941
 20
593.8412840202856
 30
0.0
 40
1.5
100
AcDbArc
 50
29.99999999999165
 51
90.0
  0
ARC
  5
E33
330
1E
100
AcDbEntity
  8
STEMPEL
100
AcDbCircle
 10
249.8491825816941
 20
593.8412840202856
 30
0.0
 40
0.5
100
AcDbArc
 50
30.00000000000055
 51
90.0
  0
LINE
  5
E34
330
1E
100
AcDbEntity
  8
STEMPEL
100
AcDbLine
 10
249.649182581694
 20
594.3412840202856
 30
0.0
 11
249.8491825816941
 21
594.3412840202856
 31
0.0
  0
ARC
  5
E35
330
1E
100
AcDbEntity
  8
STEMPEL
100
AcDbCircle
 10
249.649182581694
 20
593.8412840202856
 30
0.0
 40
0.5
100
AcDbArc
 50
90.0
 51
149.9999999999994
  0
LINE
  5
E36
330
1E
100
AcDbEntity
  8
STEMPEL
100
AcDbLine
 10
252.4472587930479
 20
593.8412840202856
 30
0.0
 11
254.5061063703403
 21
593.8412840202856
 31
0.0
  0
LINE
  5
E37
330
1E
100
AcDbEntity
  8
STEMPEL
100
AcDbLine
 10
252.4472587930479
 20
593.8412840202856
 30
0.0
 11
254.5061063703403
 21
593.8412840202856
 31
0.0
  0
ARC
  5
E38
330
1E
100
AcDbEntity
  8
STEMPEL
100
AcDbCircle
 10
257.104182581694
 20
593.8412840202856
 30
0.0
 40
1.5
100
AcDbArc
 50
90.0
 51
149.9999999999994
  0
ARC
  5
E39
330
1E
100
AcDbEntity
  8
STEMPEL
100
AcDbCircle
 10
257.104182581694
 20
593.8412840202856
 30
0.0
 40
0.5
100
AcDbArc
 50
90.0
 51
149.9999999999994
  0
LINE
  5
E3A
330
1E
100
AcDbEntity
  8
STEMPEL
100
AcDbLine
 10
259.9022587930469
 20
593.8412840202856
 30
0.0
 11
266.3561063703412
 21
593.8412840202856
 31
0.0
  0
LINE
  5
E3B
330
1E
100
AcDbEntity
  8
STEMPEL
100
AcDbLine
 10
259.9022587930469
 20
593.8412840202856
 30
0.0
 11
266.3561063703412
 21
593.8412840202856
 31
0.0
  0
LINE
  5
E3C
330
1E
100
AcDbEntity
  8
STEMPEL
100
AcDbLine
 10
249.649182581694
 20
595.3412840202855
 30
0.0
 11
295.1541825816939
 21
595.3412840202855
 31
0.0
  0
ARC
  5
E3D
330
1E
100
AcDbEntity
  8
STEMPEL
100
AcDbCircle
 10
281.16769090859
 20
594.3412840202856
 30
0.0
 40
0.5
100
AcDbArc
 50
270.0
 51
345.5224878140768
  0
ARC
  5
E3E
330
1E
100
AcDbEntity
  8
STEMPEL
100
AcDbCircle
 10
283.104182581694
 20
593.8412840202856
 30
0.0
 40
1.5
100
AcDbArc
 50
90.0
 51
165.5224878140769
  0
ARC
  5
E3F
330
1E
100
AcDbEntity
  8
STEMPEL
100
AcDbCircle
 10
281.16769090859
 20
594.3412840202856
 30
0.0
 40
1.5
100
AcDbArc
 50
270.0
 51
345.5224878140768
  0
LINE
  5
E40
330
1E
100
AcDbEntity
  8
STEMPEL
100
AcDbLine
 10
297.752258793048
 20
593.8412840202856
 30
0.0
 11
352.3127441979914
 21
593.841284020286
 31
0.0
  0
ARC
  5
E41
330
1E
100
AcDbEntity
  8
STEMPEL
100
AcDbCircle
 10
381.8238878023029
 20
583.3611210027478
 30
0.0
 40
5.0
100
AcDbArc
 50
239.743562836472
 51
239.9329541615164
  0
ELLIPSE
  5
E42
330
1E
100
AcDbEntity
  8
STEMPEL
100
AcDbEllipse
 10
367.3538537243433
 20
561.3412840202875
 30
0.0
 11
0.0
 21
7.499999999999999
 31
0.0
210
0.0
220
0.0
230
-1.0
 40
0.4999999999999926
 41
4.712388980384689
 42
6.167183451052224
  0
ELLIPSE
  5
E43
330
1E
100
AcDbEntity
  8
STEMPEL
100
AcDbEllipse
 10
366.4857897046545
 20
561.3412840202875
 30
0.0
 11
0.0
 21
7.499999999999999
 31
0.0
210
0.0
220
0.0
230
-1.0
 40
0.4999999999999926
 41
4.712388980384689
 42
7.853981633974482
  0
ELLIPSE
  5
E44
330
1E
100
AcDbEntity
  8
STEMPEL
100
AcDbEllipse
 10
367.3538537243433
 20
536.341284020289
 30
0.0
 11
0.0
 21
-7.499999999999999
 31
0.0
210
0.0
220
0.0
230
1.0
 40
0.4999999999999926
 41
4.712388980384689
 42
6.167183451052224
  0
LWPOLYLINE
  5
E45
330
1E
100
AcDbEntity
  8
STEMPEL
100
AcDbPolyline
 90
       18
 70
   128
 43
0.0
 10
375.6470698102223
 20
516.3412840202855
 10
375.598200465306
 20
517.71940540391
 10
375.453256617486
 20
519.0505965166898
 10
375.2171741556588
 20
520.2895252418666
 10
374.8979925849121
 20
521.3940013476358
 10
374.5065812508217
 20
522.3264132248886
 10
374.0562691969237
 20
523.0550087054499
 10
373.5623912601243
 20
523.5549763440832
 10
373.0417658612193
 20
523.8092903424999
 10
372.5121222737475
 20
523.8092903424999
 10
371.9914968748426
 20
523.5549763440832
 10
371.4976189380432
 20
523.0550087054499
 10
371.0473068841452
 20
522.3264132248886
 10
370.6558955500548
 20
521.3940013476358
 10
370.3367139793081
 20
520.2895252418666
 10
370.1006315174809
 20
519.0505965166898
 10
369.9556876696608
 20
517.71940540391
 10
369.9068183247446
 20
516.3412840202855
  0
LWPOLYLINE
  5
E46
330
1E
100
AcDbEntity
  8
STEMPEL
100
AcDbPolyline
 90
        9
 70
   128
 43
0.0
 10
373.2399712357355
 20
523.7430422649506
 10
372.7509106924667
 20
523.4166093671932
 10
372.2912977245658
 20
522.871340353936
 10
371.8753479209415
 20
522.124100110808
 10
371.51592639165
 20
521.1980003880305
 10
371.2241498567625
 20
520.1216849660602
 10
371.0090428120243
 20
518.9284437184294
 10
370.8772584059168
 20
517.6551829733535
 10
370.8328726612519
 20
516.3412840202871
  0
LINE
  5
E47
330
1E
100
AcDbEntity
  8
STEMPEL
100
AcDbLine
 10
377.8006414428909
 20
504.8412840202874
 30
0.0
 11
372.9864442939195
 21
504.8412840202874
 31
0.0
  0
LINE
  5
E4A
330
1E
100
AcDbEntity
  8
STEMPEL
100
AcDbLine
 10
374.1018517135228
 20
502.3412840202865
 30
0.0
 11
374.1018517135228
 21
499.8412840202861
 31
0.0
  0
LINE
  5
E4D
330
1E
100
AcDbEntity
  8
HILF
100
AcDbLine
 10
373.1018517135228
 20
503.3412840202865
 30
0.0
 11
373.1018517135229
 21
499.8412840202862
 31
0.0
  0
LINE
  5
E4E
330
1E
100
AcDbEntity
  8
STEMPEL
100
AcDbLine
 10
374.1018517135228
 20
502.3412840202865
 30
0.0
 11
373.1018517135228
 21
503.3412840202865
 31
0.0
  0
LINE
  5
E50
330
1E
100
AcDbEntity
  8
STEMPEL
100
AcDbLine
 10
364.1018517135228
 20
502.3412840202865
 30
0.0
 11
364.1018517135228
 21
499.8412840202861
 31
0.0
  0
LINE
  5
E51
330
1E
100
AcDbEntity
  8
STEMPEL
100
AcDbLine
 10
365.1018517135228
 20
503.3412840202865
 30
0.0
 11
364.1018517135228
 21
502.3412840202865
 31
0.0
  0
LINE
  5
E52
330
1E
100
AcDbEntity
  8
HILF
100
AcDbLine
 10
365.1018517135228
 20
503.3412840202865
 30
0.0
 11
365.1018517135228
 21
499.8412840202862
 31
0.0
  0
LWPOLYLINE
  5
E53
330
1E
100
AcDbEntity
  8
STEMPEL
100
AcDbPolyline
 90
       10
 70
   128
 43
0.0
 10
-374.7221828513185
 20
503.8412840202873
 10
-373.8860035764769
 20
503.9324375022141
 10
-373.0752311857743
 20
504.2031282955719
 10
-372.3145005880315
 20
504.6451315975807
 10
-371.6269261975127
 20
505.2450173615737
 10
-371.0333996141443
 20
505.9845583621684
 10
-370.5519548428231
 20
506.8412840202876
 10
-370.1972203393027
 20
507.7891631603336
 10
-369.9799745319686
 20
508.7993949542862
 10
-369.9068183247446
 20
509.8412840202878
210
0.0
220
0.0
230
-1.0
  0
LWPOLYLINE
  5
E54
330
1E
100
AcDbEntity
  8
STEMPEL
100
AcDbPolyline
 90
        7
 70
   128
 43
0.0
 10
-372.9864442939205
 20
504.8412840202874
 10
-372.3663537708562
 20
505.4506219221281
 10
-371.8345336240727
 20
506.1780521954174
 10
-371.4052878243415
 20
507.0040096893611
 10
-371.0901614765441
 20
507.9062792398234
 10
-370.8976302995783
 20
508.8605931740667
 10
-370.8328726612519
 20
509.8412840202878
210
0.0
220
0.0
230
-1.0
  0
LINE
  5
E55
330
1E
100
AcDbEntity
  8
STEMPEL
100
AcDbLine
 10
373.1018517135228
 20
503.3412840202865
 30
0.0
 11
365.1018517135228
 21
503.3412840202865
 31
0.0
  0
LINE
  5
E57
330
1E
100
AcDbEntity
  8
STEMPEL
100
AcDbLine
 10
364.1018517135228
 20
502.3412840202865
 30
0.0
 11
374.1018517135228
 21
502.3412840202865
 31
0.0
  0
LINE
  5
E59
330
1E
100
AcDbEntity
  8
STEMPEL
100
AcDbLine
 10
369.9068183247446
 20
516.3412840202855
 30
0.0
 11
369.9068183247446
 21
509.841284020289
 31
0.0
  0
LINE
  5
E5A
330
1E
100
AcDbEntity
  8
STEMPEL
100
AcDbLine
 10
375.6470698102223
 20
516.3412840202855
 30
0.0
 11
375.6470698102223
 21
509.841284020289
 31
0.0
  0
LINE
  5
E5B
330
1E
100
AcDbEntity
  8
STEMPEL
100
AcDbLine
 10
370.8328726612518
 20
516.3412840202855
 30
0.0
 11
370.8328726612518
 21
509.841284020289
 31
0.0
  0
LINE
  5
E5C
330
1E
100
AcDbEntity
  8
STEMPEL
100
AcDbLine
 10
379.1451640736557
 20
516.3412840202855
 30
0.0
 11
379.1451640736557
 21
509.8412840202867
 31
0.0
  0
LWPOLYLINE
  5
E5D
330
1E
100
AcDbEntity
  8
STEMPEL
100
AcDbPolyline
 90
       10
 70
   128
 43
0.0
 10
359.3785293103177
 20
523.8412840202887
 10
358.585701964458
 20
523.7273421678803
 10
357.8169642763123
 20
523.3889786761828
 10
357.0956739515348
 20
522.8364745486718
 10
356.4437470316533
 20
522.0866173436807
 10
355.8809919862377
 20
521.1621910929372
 10
355.4245078425747
 20
520.0912840202879
 10
355.088164640378
 20
518.9064350952302
 10
354.8821819976479
 20
517.6436453527895
 10
354.8128185927518
 20
516.3412840202871
  0
LWPOLYLINE
  5
E5E
330
1E
100
AcDbEntity
  8
STEMPEL
100
AcDbPolyline
 90
       18
 70
   128
 43
0.0
 10
363.1490191410627
 20
516.3412840202855
 10
363.0712792398026
 20
517.71940540391
 10
362.8407068751207
 20
519.0505965166898
 10
362.4651539123556
 20
520.2895252418666
 10
361.9574093572279
 20
521.3940013476358
 10
361.33476384159
 20
522.3264132248886
 10
360.6184208116959
 20
523.0550087054499
 10
359.83277447027
 20
523.5549763440832
 10
359.0045790611906
 20
523.8092903424999
 10
358.1620377858029
 20
523.8092903424999
 10
357.3338423767235
 20
523.5549763440832
 10
356.5481960352977
 20
523.0550087054499
 10
355.8318530054036
 20
522.3264132248886
 10
355.2092074897656
 20
521.3940013476358
 10
354.7014629346379
 20
520.2895252418666
 10
354.3259099718728
 20
519.0505965166898
 10
354.0953376071909
 20
517.71940540391
 10
354.0175977059308
 20
516.3412840202855
  0
LWPOLYLINE
  5
E60
330
1E
100
AcDbEntity
  8
STEMPEL
100
AcDbPolyline
 90
        7
 70
   128
 43
0.0
 10
-356.76439542127
 20
504.8412840202874
 10
-356.2024664480059
 20
505.4506219221281
 10
-355.7205285084187
 20
506.1780521954175
 10
-355.3315439286689
 20
507.0040096893611
 10
-355.0459749375625
 20
507.9062792398234
 10
-354.8715022717666
 20
508.8605931740667
 10
-354.8128185927516
 20
509.8412840202878
210
0.0
220
0.0
230
-1.0
  0
LWPOLYLINE
  5
E61
330
1E
100
AcDbEntity
  8
STEMPEL
100
AcDbPolyline
 90
       10
 70
   128
 43
0.0
 10
-358.3813038805368
 20
503.8412840202873
 10
-357.6235542554426
 20
503.9324375022141
 10
-356.8888284692671
 20
504.2031282955719
 10
-356.199450793234
 20
504.6451315975807
 10
-355.5763676191875
 20
505.2450173615737
 10
-355.0385110140761
 20
505.9845583621684
 10
-354.6022234786772
 20
506.8412840202876
 10
-354.2807613889819
 20
507.7891631603336
 10
-354.0838922079179
 20
508.7993949542862
 10
-354.017597705931
 20
509.8412840202878
210
0.0
220
0.0
230
-1.0
  0
LINE
  5
E62
330
1E
100
AcDbEntity
  8
STEMPEL
100
AcDbLine
 10
354.0175977059309
 20
516.3412840202855
 30
0.0
 11
354.0175977059309
 21
509.841284020289
 31
0.0
  0
LINE
  5
E63
330
1E
100
AcDbEntity
  8
STEMPEL
100
AcDbLine
 10
354.8128185927517
 20
516.3412840202855
 30
0.0
 11
354.8128185927517
 21
509.841284020289
 31
0.0
  0
LINE
  5
E64
330
1E
100
AcDbEntity
  8
STEMPEL
100
AcDbLine
 10
363.1490191410628
 20
516.3412840202855
 30
0.0
 11
363.1490191410628
 21
509.841284020289
 31
0.0
  0
LWPOLYLINE
  5
E65
330
1E
100
AcDbEntity
  8
STEMPEL
100
AcDbPolyline
 90
       10
 70
   128
 43
0.0
 10
-367.5127253156687
 20
503.8412840202873
 10
-366.7549756905745
 20
503.9324375022141
 10
-366.020249904399
 20
504.2031282955719
 10
-365.3308722283658
 20
504.6451315975807
 10
-364.7077890543194
 20
505.2450173615737
 10
-364.169932449208
 20
505.9845583621684
 10
-363.733644913809
 20
506.8412840202876
 10
-363.4121828241138
 20
507.7891631603336
 10
-363.2153136430497
 20
508.7993949542862
 10
-363.1490191410629
 20
509.8412840202878
210
0.0
220
0.0
230
-1.0
  0
LINE
  5
E66
330
1E
100
AcDbEntity
  8
STEMPEL
100
AcDbLine
 10
365.1005959695813
 20
504.8412840202874
 30
0.0
 11
356.7643954212694
 21
504.8412840202874
 31
0.0
  0
ELLIPSE
  5
E67
330
1E
100
AcDbEntity
  8
STEMPEL
100
AcDbEllipse
 10
366.4857897046545
 20
536.341284020289
 30
0.0
 11
0.0
 21
-7.499999999999999
 31
0.0
210
0.0
220
0.0
230
1.0
 40
0.4999999999999926
 41
4.712388980384689
 42
7.853981633974482
  0
LINE
  5
E6C
330
1E
100
AcDbEntity
  8
STEMPEL
100
AcDbLine
 10
363.6038537243435
 20
536.3412840202875
 30
0.0
 11
363.6038537243435
 21
561.341284020289
 31
0.0
  0
LINE
  5
E6D
330
1E
100
AcDbEntity
  8
STEMPEL
100
AcDbLine
 10
362.7357897046545
 20
561.3412840202875
 30
0.0
 11
362.7357897046545
 21
536.341284020289
 31
0.0
  0
LINE
  5
E6E
330
1E
100
AcDbEntity
  8
STEMPEL
100
AcDbLine
 10
370.2357897046544
 20
561.3412840202875
 30
0.0
 11
370.2357897046544
 21
536.3412840202906
 31
0.0
  0
ELLIPSE
  5
E6F
330
1E
100
AcDbEntity
  8
STEMPEL
100
AcDbEllipse
 10
327.1847543671124
 20
561.3412840202875
 30
0.0
 11
0.0
 21
7.5
 31
0.0
210
0.0
220
0.0
230
-1.0
 40
0.8660254037843856
 41
4.712388980384689
 42
6.24459510668465
  0
ELLIPSE
  5
E70
330
1E
100
AcDbEntity
  8
STEMPEL
100
AcDbEllipse
 10
326.6835773716705
 20
561.3412840202875
 30
0.0
 11
0.0
 21
7.5
 31
0.0
210
0.0
220
0.0
230
-1.0
 40
0.8660254037843856
 41
4.712388980384689
 42
7.853981633974482
  0
LWPOLYLINE
  5
E71
330
1E
100
AcDbEntity
  8
STEMPEL
100
AcDbPolyline
 90
        9
 70
   128
 43
0.0
 10
338.8155736203144
 20
523.8314180981092
 10
337.6991658989432
 20
523.6241109617021
 10
336.6338866472009
 20
523.1548562342484
 10
335.6580516641626
 20
522.4405319970798
 10
334.8067596313047
 20
521.5068309536834
 10
334.1106296885682
 20
520.387336318523
 10
333.5947001298769
 20
519.1223139011842
 10
333.277527829661
 20
517.757263831975
 10
333.1705207920728
 20
516.3412840202871
  0
LWPOLYLINE
  5
E72
330
1E
100
AcDbEntity
  8
STEMPEL
100
AcDbPolyline
 90
       18
 70
   128
 43
0.0
 10
344.4606264485793
 20
516.3412840202855
 10
344.359313836775
 20
517.71940540391
 10
344.0588260808457
 20
519.0505965166898
 10
343.5693959309245
 20
520.2895252418666
 10
342.9076903437601
 20
521.3940013476358
 10
342.096242909495
 20
522.3264132248886
 10
341.1626864972793
 20
523.0550087054499
 10
340.1388122510532
 20
523.5549763440832
 10
339.0594869802705
 20
523.8092903424999
 10
337.9614658125194
 20
523.8092903424999
 10
336.8821405417366
 20
523.5549763440832
 10
335.8582662955105
 20
523.0550087054499
 10
334.9247098832948
 20
522.3264132248886
 10
334.1132624490297
 20
521.3940013476358
 10
333.4515568618652
 20
520.2895252418666
 10
332.9621267119441
 20
519.0505965166898
 10
332.6616389560148
 20
517.71940540391
 10
332.5603263442105
 20
516.3412840202855
  0
LWPOLYLINE
  5
E73
330
1E
100
AcDbEntity
  8
STEMPEL
100
AcDbPolyline
 90
        7
 70
   128
 43
0.0
 10
-334.808543868178
 20
504.8412840202874
 10
-334.3368982676112
 20
505.4506219221281
 10
-333.9323917912284
 20
506.1780521954175
 10
-333.6059041487394
 20
507.0040096893611
 10
-333.3662166353311
 20
507.9062792398234
 10
-333.2197759477051
 20
508.8605931740667
 10
-333.1705207920727
 20
509.8412840202878
210
0.0
220
0.0
230
-1.0
  0
LWPOLYLINE
  5
E74
330
1E
100
AcDbEntity
  8
STEMPEL
100
AcDbPolyline
 90
       10
 70
   128
 43
0.0
 10
-336.2229294797345
 20
503.8412840202873
 10
-335.5869251197336
 20
503.9324375022141
 10
-334.9702454303774
 20
504.2031282955719
 10
-334.3916279119724
 20
504.6451315975807
 10
-333.8686535650205
 20
505.2450173615737
 10
-333.417212700416
 20
505.9845583621684
 10
-333.05102212039
 20
506.8412840202876
 10
-332.7812083404151
 20
507.7891631603336
 10
-332.6159695156635
 20
508.7993949542862
 10
-332.5603263442104
 20
509.8412840202878
210
0.0
220
0.0
230
-1.0
  0
LINE
  5
E75
330
1E
100
AcDbEntity
  8
STEMPEL
100
AcDbLine
 10
346.0986495246846
 20
504.8412840202874
 30
0.0
 11
334.8085438681775
 21
504.8412840202874
 31
0.0
  0
LINE
  5
E76
330
1E
100
AcDbEntity
  8
STEMPEL
100
AcDbLine
 10
332.5603263442104
 20
516.3412840202855
 30
0.0
 11
332.5603263442104
 21
509.841284020289
 31
0.0
  0
LINE
  5
E77
330
1E
100
AcDbEntity
  8
STEMPEL
100
AcDbLine
 10
333.1705207920727
 20
516.3412840202855
 30
0.0
 11
333.1705207920727
 21
509.841284020289
 31
0.0
  0
LINE
  5
E78
330
1E
100
AcDbEntity
  8
STEMPEL
100
AcDbLine
 10
344.4606264485792
 20
516.3412840202855
 30
0.0
 11
344.4606264485792
 21
509.841284020289
 31
0.0
  0
ELLIPSE
  5
E79
330
1E
100
AcDbEntity
  8
STEMPEL
100
AcDbEllipse
 10
327.1847543671124
 20
536.3412840202875
 30
0.0
 11
0.0
 21
-7.5
 31
0.0
210
0.0
220
0.0
230
1.0
 40
0.8660254037843856
 41
4.712388980384689
 42
6.24459510668465
  0
LWPOLYLINE
  5
E7A
330
1E
100
AcDbEntity
  8
STEMPEL
100
AcDbPolyline
 90
       10
 70
   128
 43
0.0
 10
-323.5778181379382
 20
503.8412840202873
 10
-323.1050881801845
 20
503.9324375022141
 10
-322.6467218829843
 20
504.2031282955719
 10
-322.2166464743336
 20
504.6451315975807
 10
-321.8279295778954
 20
505.2450173615737
 10
-321.4923821598677
 20
505.9845583621684
 10
-321.2201996587521
 20
506.8412840202876
 10
-321.019652202114
 20
507.7891631603336
 10
-320.8968333229416
 20
508.7993949542862
 10
-320.8554748107291
 20
509.8412840202878
210
0.0
220
0.0
230
-1.0
  0
LINE
  5
E7B
330
1E
100
AcDbEntity
  8
STEMPEL
100
AcDbLine
 10
320.8554748107291
 20
516.3412840202855
 30
0.0
 11
320.8554748107291
 21
509.841284020289
 31
0.0
  0
ELLIPSE
  5
E7C
330
1E
100
AcDbEntity
  8
STEMPEL
100
AcDbEllipse
 10
326.6835773716705
 20
536.3412840202875
 30
0.0
 11
0.0
 21
-7.5
 31
0.0
210
0.0
220
0.0
230
1.0
 40
0.8660254037843856
 41
4.712388980384689
 42
7.853981633974482
  0
LINE
  5
E7D
330
1E
100
AcDbEntity
  8
STEMPEL
100
AcDbLine
 10
333.1787679000533
 20
561.3412840202875
 30
0.0
 11
333.1787679000533
 21
536.341284020289
 31
0.0
  0
LINE
  5
E7E
330
1E
100
AcDbEntity
  8
STEMPEL
100
AcDbLine
 10
320.6895638387296
 20
561.3412840202875
 30
0.0
 11
320.6895638387296
 21
536.3412840202875
 31
0.0
  0
LINE
  5
E7F
330
1E
100
AcDbEntity
  8
STEMPEL
100
AcDbLine
 10
320.1883868432876
 20
561.3412840202875
 30
0.0
 11
320.1883868432876
 21
536.3412840202875
 31
0.0
  0
LWPOLYLINE
  5
E80
330
1E
100
AcDbEntity
  8
STEMPEL
100
AcDbPolyline
 90
       10
 70
   128
 43
0.0
 10
-348.1232295841033
 20
503.8412840202873
 10
-347.4872252241024
 20
503.9324375022141
 10
-346.8705455347463
 20
504.2031282955719
 10
-346.2919280163412
 20
504.6451315975807
 10
-345.7689536693894
 20
505.2450173615737
 10
-345.3175128047849
 20
505.9845583621684
 10
-344.9513222247589
 20
506.8412840202876
 10
-344.681508444784
 20
507.7891631603336
 10
-344.5162696200323
 20
508.7993949542862
 10
-344.4606264485792
 20
509.8412840202878
210
0.0
220
0.0
230
-1.0
  0
LINE
  5
E81
330
1E
100
AcDbEntity
  8
HILF
100
AcDbLine
 10
373.1018517135227
 20
483.8412840202856
 30
0.0
 11
373.1018517135227
 21
481.3412840202858
 31
0.0
  0
LINE
  5
E82
330
1E
100
AcDbEntity
  8
STEMPEL
100
AcDbLine
 10
374.1018517135227
 20
483.8412840202856
 30
0.0
 11
374.1018517135227
 21
481.3412840202858
 31
0.0
  0
LINE
  5
E83
330
1E
100
AcDbEntity
  8
STEMPEL
100
AcDbLine
 10
364.1018517135227
 20
483.8412840202856
 30
0.0
 11
364.1018517135227
 21
481.3412840202858
 31
0.0
  0
LINE
  5
E84
330
1E
100
AcDbEntity
  8
HILF
100
AcDbLine
 10
365.1018517135227
 20
483.8412840202856
 30
0.0
 11
365.1018517135227
 21
481.3412840202858
 31
0.0
  0
ARC
  5
E86
330
1E
100
AcDbEntity
  8
STEMPEL
100
AcDbCircle
 10
369.312744197991
 20
486.8412840202857
 30
0.0
 40
3.0
100
AcDbArc
 50
90.0
 51
270.0
  0
LINE
  5
E87
330
1E
100
AcDbEntity
  8
STEMPEL
100
AcDbLine
 10
367.312744197991
 20
481.3412840202857
 30
0.0
 11
367.312744197991
 21
478.3412840202857
 31
0.0
  0
ARC
  5
E88
102
{ACAD_REACTORS
330
FA2
102
}
330
1E
100
AcDbEntity
  8
STEMPEL
100
AcDbCircle
 10
362.1558172363956
 20
472.3412840202859
 30
0.0
 40
3.0
100
AcDbArc
 50
90.0
 51
147.2999999999998
  0
ARC
  5
E89
102
{ACAD_REACTORS
330
FA2
102
}
330
1E
100
AcDbEntity
  8
STEMPEL
100
AcDbCircle
 10
362.1558172363956
 20
472.3412840202859
 30
0.0
 40
6.0
100
AcDbArc
 50
90.0
 51
147.2999999999998
  0
LINE
  5
E8A
102
{ACAD_REACTORS
330
FA2
102
}
330
1E
100
AcDbEntity
  8
STEMPEL
100
AcDbLine
 10
348.0627441979911
 20
461.4952351593283
 30
0.0
 11
350.587276543827
 21
459.8745141978954
 31
0.0
  0
ARC
  5
E8B
330
1E
100
AcDbEntity
  8
SCHRAFF
100
AcDbCircle
 10
349.7457657618817
 20
460.414754518373
 30
0.0
 40
2.0
100
AcDbArc
 50
237.2999999999999
 51
27.29999999999825
  0
LINE
  5
E8C
102
{ACAD_REACTORS
330
FA2
102
}
330
1E
100
AcDbEntity
  8
STEMPEL
100
AcDbLine
 10
359.6312848905597
 20
473.9620049817188
 30
0.0
 11
350.587276543827
 21
459.8745141978954
 31
0.0
  0
ARC
  5
E8D
330
1E
100
AcDbEntity
  8
STEMPEL
100
AcDbCircle
 10
341.8127441979911
 20
442.504719275421
 30
0.0
 40
3.0
100
AcDbArc
 50
147.2999999999998
 51
180.0
  0
ARC
  5
E8E
330
1E
100
AcDbEntity
  8
STEMPEL
100
AcDbCircle
 10
341.8127441979911
 20
442.504719275421
 30
0.0
 40
5.0
100
AcDbArc
 50
147.2999999999998
 51
180.0
  0
LINE
  5
E8F
102
{ACAD_REACTORS
330
FA2
102
}
330
1E
100
AcDbEntity
  8
STEMPEL
100
AcDbLine
 10
357.1067525447239
 20
475.5827259431517
 30
0.0
 11
337.6051902882647
 21
445.2059208778093
 31
0.0
  0
LINE
  5
E90
330
1E
100
AcDbEntity
  8
STEMPEL
100
AcDbLine
 10
349.7457657618817
 20
460.414754518373
 30
0.0
 11
339.2882118521553
 21
444.125440236854
 31
0.0
  0
LINE
  5
E93
330
1E
100
AcDbEntity
  8
MITTEL
100
AcDbLine
 10
369.1018517135228
 20
508.3412840202866
 30
0.0
 11
369.1018517135227
 21
478.3412840202855
 31
0.0
  0
LWPOLYLINE
  5
E94
330
1E
100
AcDbEntity
  8
STEMPEL
100
AcDbPolyline
 90
        9
 70
   128
 43
0.0
 10
314.1181704497055
 20
523.8384104433257
 10
312.7939609993757
 20
523.6595775362778
 10
311.5259816021896
 20
523.2093016189537
 10
310.361262914104
 20
522.5042838868146
 10
309.3430055454974
 20
521.570674170431
 10
308.5089777062351
 20
520.4431010114549
 10
307.8901143440412
 20
519.1633872545032
 10
307.509369735567
 20
517.7789987949677
 10
307.3808660887352
 20
516.3412840202871
  0
LWPOLYLINE
  5
E95
330
1E
100
AcDbEntity
  8
STEMPEL
100
AcDbPolyline
 90
        7
 70
   128
 43
0.0
 10
-308.5983775214643
 20
504.8412840202874
 10
-308.2478123070523
 20
505.4506219221281
 10
-307.9471503281136
 20
506.1780521954174
 10
-307.704478266179
 20
507.0040096893611
 10
-307.5263230911305
 20
507.9062792398234
 10
-307.41747651015
 20
508.8605931740667
 10
-307.3808660887352
 20
509.8412840202878
210
0.0
220
0.0
230
-1.0
  0
LWPOLYLINE
  5
E96
330
1E
100
AcDbEntity
  8
STEMPEL
100
AcDbPolyline
 90
       10
 70
   128
 43
0.0
 10
-309.7196251502672
 20
503.8412840202873
 10
-309.2468951925137
 20
503.9324375022141
 10
-308.7885288953135
 20
504.2031282955719
 10
-308.3584534866627
 20
504.6451315975807
 10
-307.9697365902244
 20
505.2450173615737
 10
-307.6341891721968
 20
505.9845583621684
 10
-307.3620066710812
 20
506.8412840202876
 10
-307.1614592144431
 20
507.7891631603336
 10
-307.0386403352707
 20
508.7993949542862
 10
-306.9972818230582
 20
509.8412840202878
210
0.0
220
0.0
230
-1.0
  0
LINE
  5
E97
330
1E
100
AcDbEntity
  8
STEMPEL
100
AcDbLine
 10
306.9972818230582
 20
516.3412840202839
 30
0.0
 11
306.9972818230582
 21
509.841284020289
 31
0.0
  0
LINE
  5
E98
330
1E
100
AcDbEntity
  8
STEMPEL
100
AcDbLine
 10
307.3808660887352
 20
516.3412840202855
 30
0.0
 11
307.3808660887352
 21
509.841284020289
 31
0.0
  0
LWPOLYLINE
  5
E99
330
1E
100
AcDbEntity
  8
STEMPEL
100
AcDbPolyline
 90
       10
 70
   128
 43
0.0
 10
-295.2537910387863
 20
503.8412840202873
 10
-295.0260384759177
 20
503.9324375022141
 10
-294.8052060594235
 20
504.2031282955719
 10
-294.5980036705323
 20
504.6451315975807
 10
-294.4107270489811
 20
505.2450173615737
 10
-294.2490665001492
 20
505.9845583621684
 10
-294.1179339980085
 20
506.8412840202876
 10
-294.0213139372806
 20
507.7891631603336
 10
-293.9621420696185
 20
508.7993949542862
 10
-293.9422163022785
 20
509.8412840202878
210
0.0
220
0.0
230
-1.0
  0
LINE
  5
E9A
330
1E
100
AcDbEntity
  8
STEMPEL
100
AcDbLine
 10
293.9422163022785
 20
516.3412840202871
 30
0.0
 11
293.9422163022785
 21
509.841284020289
 31
0.0
  0
ARC
  5
E9B
330
1E
100
AcDbEntity
  8
STEMPEL
100
AcDbCircle
 10
272.3127441979914
 20
561.3412840202875
 30
0.0
 40
7.5
100
AcDbArc
 50
0.0000000000260551
 51
180.000000000013
  0
LWPOLYLINE
  5
E9C
330
1E
100
AcDbEntity
  8
STEMPEL
100
AcDbPolyline
 90
        7
 70
   128
 43
0.0
 10
-279.7879513536144
 20
504.8412840202874
 10
-279.6190555078459
 20
505.4506219221281
 10
-279.4742021192733
 20
506.1780521954175
 10
-279.3572872017062
 20
507.0040096893611
 10
-279.2714553286885
 20
507.9062792398234
 10
-279.2190150562428
 20
508.8605931740667
 10
-279.2013768313575
 20
509.8412840202878
210
0.0
220
0.0
230
-1.0
  0
LWPOLYLINE
  5
E9D
330
1E
100
AcDbEntity
  8
STEMPEL
100
AcDbPolyline
 90
       10
 70
   128
 43
0.0
 10
-280.3821181181787
 20
503.8412840202873
 10
-280.1543655553102
 20
503.9324375022141
 10
-279.933533138816
 20
504.2031282955719
 10
-279.7263307499247
 20
504.6451315975807
 10
-279.5390541283735
 20
505.2450173615737
 10
-279.3773935795416
 20
505.9845583621684
 10
-279.246261077401
 20
506.8412840202876
 10
-279.1496410166731
 20
507.7891631603336
 10
-279.0904691490108
 20
508.7993949542862
 10
-279.0705433816709
 20
509.8412840202878
210
0.0
220
0.0
230
-1.0
  0
LINE
  5
E9E
330
1E
100
AcDbEntity
  8
STEMPEL
100
AcDbLine
 10
265.4241115646254
 20
516.3412840202855
 30
0.0
 11
265.4241115646254
 21
509.841284020289
 31
0.0
  0
LINE
  5
E9F
330
1E
100
AcDbEntity
  8
STEMPEL
100
AcDbLine
 10
265.5549450143119
 20
516.3412840202839
 30
0.0
 11
265.5549450143119
 21
509.841284020289
 31
0.0
  0
LINE
  5
EA0
330
1E
100
AcDbEntity
  8
STEMPEL
100
AcDbLine
 10
279.0705433816709
 20
516.3412840202839
 30
0.0
 11
279.0705433816709
 21
509.841284020289
 31
0.0
  0
LINE
  5
EA1
330
1E
100
AcDbEntity
  8
STEMPEL
100
AcDbLine
 10
279.2013768313574
 20
516.3412840202855
 30
0.0
 11
279.2013768313574
 21
509.841284020289
 31
0.0
  0
LINE
  5
EA2
330
1E
100
AcDbEntity
  8
STEMPEL
100
AcDbLine
 10
261.9095532564436
 20
510.0590368094831
 30
0.0
 11
261.9095532564436
 21
506.4412840202863
 31
0.0
  0
LINE
  5
EA3
330
1E
100
AcDbEntity
  8
STEMPEL
100
AcDbLine
 10
262.3885487471448
 20
506.4412840202861
 30
0.0
 11
262.3885487471448
 21
504.8412840202862
 31
0.0
  0
LINE
  5
EA4
330
1E
100
AcDbEntity
  8
STEMPEL
100
AcDbLine
 10
261.9095532564436
 20
510.0590368094832
 30
0.0
 11
261.7027951246512
 21
510.1784086725306
 31
0.0
  0
LINE
  5
EA5
330
1E
100
AcDbEntity
  8
STEMPEL
100
AcDbLine
 10
259.1490510017943
 20
510.0353764373588
 30
0.0
 11
259.1490510017941
 21
506.4412840202863
 31
0.0
  0
LINE
  5
EA6
330
1E
100
AcDbEntity
  8
STEMPEL
100
AcDbLine
 10
260.5253429037595
 20
510.5090273546863
 30
0.0
 11
260.5288983367557
 21
510.5090273546863
 31
0.0
  0
ARC
  5
EA7
330
1E
100
AcDbEntity
  8
STEMPEL
100
AcDbCircle
 10
260.5293021291188
 20
508.2611290344072
 30
0.0
 40
2.247898356545996
100
AcDbArc
 50
58.53080548383034
 51
127.8806357171815
  0
LINE
  5
EA8
330
1E
100
AcDbEntity
  8
STEMPEL
100
AcDbLine
 10
264.0471674959363
 20
494.7540219880993
 30
0.0
 11
263.8885487471448
 21
503.8412840202856
 31
0.0
  0
LINE
  5
EA9
330
1E
100
AcDbEntity
  8
STEMPEL
100
AcDbLine
 10
253.6280464924955
 20
510.0353764373588
 30
0.0
 11
253.6280464924955
 21
506.4412840202863
 31
0.0
  0
LINE
  5
EAA
330
1E
100
AcDbEntity
  8
STEMPEL
100
AcDbLine
 10
250.8675442378462
 20
510.0590368094832
 30
0.0
 11
250.8675442378462
 21
506.4412840202863
 31
0.0
  0
LWPOLYLINE
  5
EAB
330
1E
100
AcDbEntity
  8
STEMPEL
100
AcDbPolyline
 90
       10
 70
   128
 43
0.0
 10
249.3716973571965
 20
503.8412840202873
 10
249.599449920065
 20
503.9324375022141
 10
249.8202823365592
 20
504.2031282955719
 10
250.0274847254504
 20
504.6451315975807
 10
250.2147613470016
 20
505.2450173615737
 10
250.3764218958336
 20
505.9845583621684
 10
250.5075543979742
 20
506.8412840202876
 10
250.6041744587021
 20
507.7891631603336
 10
250.6633463263644
 20
508.7993949542862
 10
250.6832720937043
 20
509.8412840202878
  0
LINE
  5
EAC
330
1E
100
AcDbEntity
  8
STEMPEL
100
AcDbLine
 10
250.3885487471448
 20
506.0637865054656
 30
0.0
 11
250.3885487471448
 21
504.8412840202862
 31
0.0
  0
LINE
  5
EAD
330
1E
100
AcDbEntity
  8
STEMPEL
100
AcDbLine
 10
250.8675442378462
 20
510.0590368094832
 30
0.0
 11
251.0743023696316
 21
510.1784086725266
 31
0.0
  0
ARC
  5
EAE
330
1E
100
AcDbEntity
  8
STEMPEL
100
AcDbCircle
 10
252.2477953651708
 20
508.2611290344072
 30
0.0
 40
2.247898356545996
100
AcDbArc
 50
52.11936428281847
 51
121.4691945163685
  0
LINE
  5
EAF
330
1E
100
AcDbEntity
  8
STEMPEL
100
AcDbLine
 10
248.7299299983533
 20
494.7540219880996
 30
0.0
 11
248.8885487471448
 21
503.8412840202856
 31
0.0
  0
LINE
  5
EB0
330
1E
100
AcDbEntity
  8
STEMPEL
100
AcDbLine
 10
250.4463294301454
 20
506.4412840202863
 30
0.0
 11
262.3885487471448
 21
506.4412840202861
 31
0.0
  0
LINE
  5
EB1
330
1E
100
AcDbEntity
  8
STEMPEL
100
AcDbLine
 10
262.388548747145
 20
504.841284020286
 30
0.0
 11
250.3885487471448
 21
504.8412840202864
 31
0.0
  0
LINE
  5
EB2
330
1E
100
AcDbEntity
  8
STEMPEL
100
AcDbLine
 10
250.0966975714473
 20
504.8412840202874
 30
0.0
 11
264.8375370423687
 21
504.8412840202874
 31
0.0
  0
LINE
  5
EB3
330
1E
100
AcDbEntity
  8
STEMPEL
100
AcDbLine
 10
252.2481991575189
 20
510.5090273546863
 30
0.0
 11
260.5288983362617
 21
510.5090273546863
 31
0.0
  0
ARC
  5
EB4
330
1E
100
AcDbEntity
  8
STEMPEL
100
AcDbCircle
 10
256.3885487471448
 20
502.2279097610863
 30
0.0
 40
8.281117593600001
100
AcDbArc
 50
70.52782738138624
 51
109.4721726186137
  0
LINE
  5
EB5
330
1E
100
AcDbEntity
  8
STEMPEL
100
AcDbLine
 10
250.6832720937042
 20
516.3412840202871
 30
0.0
 11
250.6832720937042
 21
509.841284020289
 31
0.0
  0
ARC
  5
EB6
330
1E
100
AcDbEntity
  8
STEMPEL
100
AcDbCircle
 10
272.3127441979912
 20
536.3412840202875
 30
0.0
 40
7.5
100
AcDbArc
 50
179.999999999987
 51
359.999999999974
  0
LWPOLYLINE
  5
EB7
330
1E
100
AcDbEntity
  8
STEMPEL
100
AcDbPolyline
 90
        7
 70
   128
 43
0.0
 10
264.8375370423683
 20
504.8412840202874
 10
265.0064328881368
 20
505.4506219221281
 10
265.1512862767095
 20
506.1780521954175
 10
265.2682011942766
 20
507.0040096893611
 10
265.3540330672943
 20
507.9062792398234
 10
265.4064733397399
 20
508.8605931740667
 10
265.4241115646253
 20
509.8412840202878
  0
LWPOLYLINE
  5
EB8
330
1E
100
AcDbEntity
  8
STEMPEL
100
AcDbPolyline
 90
       10
 70
   128
 43
0.0
 10
264.2433702778041
 20
503.8412840202873
 10
264.4711228406726
 20
503.9324375022141
 10
264.6919552571668
 20
504.2031282955719
 10
264.899157646058
 20
504.6451315975807
 10
265.0864342676092
 20
505.2450173615737
 10
265.2480948164412
 20
505.9845583621684
 10
265.3792273185818
 20
506.8412840202876
 10
265.4758473793097
 20
507.7891631603336
 10
265.535019246972
 20
508.7993949542862
 10
265.5549450143119
 20
509.8412840202878
  0
LWPOLYLINE
  5
EB9
330
1E
100
AcDbEntity
  8
STEMPEL
100
AcDbPolyline
 90
       18
 70
   128
 43
0.0
 10
-250.6832720937044
 20
516.3412840202855
 10
-250.8098813398808
 20
517.71940540391
 10
-251.1853975523825
 20
519.0505965166898
 10
-251.7970329769748
 20
520.2895252418666
 10
-252.6239591028492
 20
521.3940013476358
 10
-253.6380159525775
 20
522.3264132248886
 10
-254.8046710363692
 20
523.0550087054499
 10
-256.0841953145945
 20
523.5549763440832
 10
-257.4330161225786
 20
523.8092903424999
 10
-258.8052009854379
 20
523.8092903424999
 10
-260.154021793422
 20
523.5549763440832
 10
-261.4335460716473
 20
523.0550087054499
 10
-262.600201155439
 20
522.3264132248886
 10
-263.6142580051672
 20
521.3940013476358
 10
-264.4411841310416
 20
520.2895252418666
 10
-265.052819555634
 20
519.0505965166898
 10
-265.4283357681356
 20
517.71940540391
 10
-265.554945014312
 20
516.3412840202855
210
0.0
220
0.0
230
-1.0
  0
LWPOLYLINE
  5
EBA
330
1E
100
AcDbEntity
  8
STEMPEL
100
AcDbPolyline
 90
        9
 70
   128
 43
0.0
 10
-258.0536918292647
 20
523.8409937800603
 10
-259.4950318131425
 20
523.6856923861366
 10
-260.8791127165921
 20
523.2512921391223
 10
-262.153337329124
 20
522.554300918847
 10
-263.2692831488539
 20
521.6212054674014
 10
-264.184542512307
 20
520.4874648520578
 10
-264.8643341510821
 20
519.1961629659886
 10
-265.2828249337315
 20
517.7963712738289
 10
-265.4241115646254
 20
516.3412840202871
210
0.0
220
0.0
230
-1.0
  0
LINE
  5
EBB
330
1E
100
AcDbEntity
  8
STEMPEL
100
AcDbLine
 10
264.8127441979914
 20
561.3412840202859
 30
0.0
 11
264.8127441979914
 21
536.3412840202859
 31
0.0
  0
LINE
  5
EBC
330
1E
100
AcDbEntity
  8
STEMPEL
100
AcDbLine
 10
279.8127441979914
 20
561.3412840202875
 30
0.0
 11
279.8127441979914
 21
536.3412840202875
 31
0.0
  0
LINE
  5
EBD
330
1E
100
AcDbEntity
  8
STEMPEL
100
AcDbLine
 10
294.5287908245354
 20
504.8412840202874
 30
0.0
 11
279.7879513536141
 21
504.8412840202874
 31
0.0
  0
LWPOLYLINE
  5
EBE
330
1E
100
AcDbEntity
  8
STEMPEL
100
AcDbPolyline
 90
        9
 70
   128
 43
0.0
 10
286.571796566718
 20
523.8409937800603
 10
285.1304565828402
 20
523.6856923861366
 10
283.7463756793907
 20
523.2512921391223
 10
282.4721510668587
 20
522.554300918847
 10
281.3562052471289
 20
521.6212054674014
 10
280.4409458836758
 20
520.4874648520578
 10
279.7611542449007
 20
519.1961629659886
 10
279.3426634622512
 20
517.7963712738289
 10
279.2013768313574
 20
516.3412840202871
  0
LWPOLYLINE
  5
EBF
330
1E
100
AcDbEntity
  8
STEMPEL
100
AcDbPolyline
 90
       18
 70
   128
 43
0.0
 10
293.9422163022783
 20
516.3412840202855
 10
293.8156070561019
 20
517.71940540391
 10
293.4400908436003
 20
519.0505965166898
 10
292.8284554190079
 20
520.2895252418666
 10
292.0015292931335
 20
521.3940013476358
 10
290.9874724434053
 20
522.3264132248886
 10
289.8208173596136
 20
523.0550087054499
 10
288.5412930813883
 20
523.5549763440832
 10
287.1924722734042
 20
523.8092903424999
 10
285.8202874105449
 20
523.8092903424999
 10
284.4714666025608
 20
523.5549763440832
 10
283.1919423243355
 20
523.0550087054499
 10
282.0252872405438
 20
522.3264132248886
 10
281.0112303908155
 20
521.3940013476358
 10
280.1843042649411
 20
520.2895252418666
 10
279.5726688403488
 20
519.0505965166898
 10
279.1971526278471
 20
517.71940540391
 10
279.0705433816707
 20
516.3412840202855
  0
ARC
  5
EC0
330
1E
100
AcDbEntity
  8
STEMPEL
100
AcDbCircle
 10
269.0464059717183
 20
494.8412840202856
 30
0.0
 40
5.0
100
AcDbArc
 50
181.0000000000017
 51
270.0
  0
LINE
  5
EC1
330
1E
100
AcDbEntity
  8
MITTEL
100
AcDbLine
 10
256.3885487471447
 20
515.5090273546863
 30
0.0
 11
256.3885487471452
 21
490.4845108876909
 31
0.0
  0
LWPOLYLINE
  5
EC2
330
1E
100
AcDbEntity
  8
STEMPEL
100
AcDbPolyline
 90
       18
 70
   128
 43
0.0
 10
320.8554748107291
 20
516.3412840202855
 10
320.737493775448
 20
517.71940540391
 10
320.3875683722583
 20
519.0505965166898
 10
319.8176148910766
 20
520.2895252418666
 10
319.0470424141205
 20
521.3940013476358
 10
318.1020918628929
 20
522.3264132248886
 10
317.0149423950729
 20
523.0550087054499
 10
315.8226155818947
 20
523.5549763440832
 10
314.5657146829428
 20
523.8092903424999
 10
313.2870419508445
 20
523.8092903424999
 10
312.0301410518927
 20
523.5549763440832
 10
310.8378142387144
 20
523.0550087054499
 10
309.7506647708943
 20
522.3264132248886
 10
308.8057142196668
 20
521.3940013476358
 10
308.0351417427107
 20
520.2895252418666
 10
307.4651882615289
 20
519.0505965166898
 10
307.1152628583393
 20
517.71940540391
 10
306.9972818230582
 20
516.3412840202855
  0
LINE
  5
EC3
330
1E
100
AcDbEntity
  8
STEMPEL
100
AcDbLine
 10
322.0729862434582
 20
504.8412840202874
 30
0.0
 11
308.5983775214638
 21
504.8412840202874
 31
0.0
  0
LINE
  5
EC4
330
1E
100
AcDbEntity
  8
STEMPEL
100
AcDbLine
 10
379.3454388196992
 20
579.0183645803294
 30
0.0
 11
355.3591359442323
 21
593.0103745910179
 31
0.0
  0
LINE
  5
EC5
330
1E
100
AcDbEntity
  8
STEMPEL
100
AcDbLine
 10
378.8320977661184
 20
578.1601214671667
 30
0.0
 11
354.8532438731673
 21
592.1477746333522
 31
0.0
  0
ARC
  5
EC6
330
1E
100
AcDbEntity
  8
STEMPEL
100
AcDbCircle
 10
376.3127441979913
 20
573.8412260529704
 30
0.0
 40
6.0
100
AcDbArc
 50
0.0
 51
59.74358352518194
  0
ARC
  5
EC7
330
1E
100
AcDbEntity
  8
STEMPEL
100
AcDbCircle
 10
376.3127441979913
 20
573.8412260529704
 30
0.0
 40
5.0
100
AcDbArc
 50
0.0
 51
59.74358352518194
  0
LWPOLYLINE
  5
EC8
330
1E
100
AcDbEntity
  8
STEMPEL
100
AcDbPolyline
 90
       10
 70
   128
 43
0.0
 10
-384.6511528046865
 20
503.8412840202873
 10
-383.7930798084137
 20
503.90741123486
 10
-382.9402676087915
 20
504.1599649845903
 10
-382.1195093018745
 20
504.5910107009079
 10
-381.3565909354754
 20
505.1870060713476
 10
-380.6754813799763
 20
505.9292265030683
 10
-380.0975792900306
 20
506.7943533998658
 10
-379.6410408156244
 20
507.7552067705819
 10
-379.3202091840268
 20
508.7815991522941
 10
-379.1451640736557
 20
509.8412840202867
210
0.0
220
0.0
230
-1.0
  0
LWPOLYLINE
  5
EC9
330
1E
100
AcDbEntity
  8
STEMPEL
100
AcDbPolyline
 90
       10
 70
   128
 43
0.0
 10
-380.4624343367962
 20
503.8412840202873
 10
-379.6262550619547
 20
503.9324375022141
 10
-378.8154826712521
 20
504.2031282955719
 10
-378.0547520735092
 20
504.6451315975807
 10
-377.3671776829905
 20
505.2450173615737
 10
-376.7736510996221
 20
505.9845583621684
 10
-376.2922063283008
 20
506.8412840202876
 10
-375.9374718247805
 20
507.7891631603336
 10
-375.7202260174463
 20
508.7993949542862
 10
-375.6470698102223
 20
509.8412840202878
210
0.0
220
0.0
230
-1.0
  0
LWPOLYLINE
  5
ECA
330
1E
100
AcDbEntity
  8
STEMPEL
100
AcDbPolyline
 90
       18
 70
   128
 43
0.0
 10
381.1030569569561
 20
516.3412840202855
 10
381.0863885334793
 20
517.71940540391
 10
381.036950886219
 20
519.0505965166898
 10
380.9564275549585
 20
520.2895252418666
 10
380.8475606651668
 20
521.3940013476358
 10
380.7140575482046
 20
522.3264132248886
 10
380.5604644926004
 20
523.0550087054499
 10
380.3920119256484
 20
523.5549763440832
 10
380.2144362974794
 20
523.8092903424999
 10
380.0337847331324
 20
523.8092903424999
 10
379.8562091049634
 20
523.5549763440832
 10
379.6877565380114
 20
523.0550087054499
 10
379.5341634824073
 20
522.3264132248886
 10
379.400660365445
 20
521.3940013476358
 10
379.2917934756533
 20
520.2895252418666
 10
379.2112701443929
 20
519.0505965166898
 10
379.1618324971326
 20
517.71940540391
 10
379.1451640736557
 20
516.3412840202855
  0
LINE
  5
ECB
102
{ACAD_REACTORS
330
FA2
102
}
330
1E
100
AcDbEntity
  8
STEMPEL
100
AcDbLine
 10
430.9487831673118
 20
475.3412840202858
 30
0.0
 11
362.1558172363956
 21
475.3412840202858
 31
0.0
  0
LINE
  5
ECC
330
1E
100
AcDbEntity
  8
STEMPEL
100
AcDbLine
 10
435.1914238544316
 20
472.3412840202854
 30
0.0
 11
358.5908005255399
 21
472.3412840202853
 31
0.0
  0
LINE
  5
ECF
330
1E
100
AcDbEntity
  8
STEMPEL
100
AcDbLine
 10
338.8127441979912
 20
209.2012048068352
 30
0.0
 11
337.3254369180497
 21
198.3412840202854
 31
0.0
  0
LINE
  5
ED0
330
1E
100
AcDbEntity
  8
STEMPEL
100
AcDbLine
 10
336.8127441979909
 20
209.2885266926499
 30
0.0
 11
335.317797242963
 21
198.3412840202854
 31
0.0
  0
LINE
  5
ED5
330
1E
100
AcDbEntity
  8
MITTEL
100
AcDbLine
 10
272.3127441979912
 20
600.3412840202856
 30
0.0
 11
272.3127441979909
 21
193.3412840202854
 31
0.0
  0
LINE
  5
ED6
330
1E
100
AcDbEntity
  8
STEMPEL
  6
Continuous
100
AcDbLine
 10
338.8127441979912
 20
442.504719275421
 30
0.0
 11
338.8127441979913
 21
209.2012048068363
 31
0.0
  0
LINE
  5
ED7
330
1E
100
AcDbEntity
  8
STEMPEL
  6
Continuous
100
AcDbLine
 10
336.8127441979909
 20
442.504719275421
 30
0.0
 11
336.812744197991
 21
209.2885266926499
 31
0.0
  0
TEXT
  5
ED8
330
1E
100
AcDbEntity
  8
TEXT
 62
     1
100
AcDbText
 10
258.8988592671794
 20
387.292297137959
 30
0.0
 40
7.0
  1
DN125
 50
90.0
 41
0.8
  7
GREEKS
100
AcDbText
  0
ARC
  5
ED9
330
1E
100
AcDbEntity
  8
STEMPEL
100
AcDbCircle
 10
247.0511063703406
 20
595.3412840202855
 30
0.0
 40
1.5
100
AcDbArc
 50
270.0
 51
329.9999999999995
  0
ARC
  5
EDC
330
1E
100
AcDbEntity
  8
STEMPEL
100
AcDbCircle
 10
192.3127441979911
 20
587.8412840202855
 30
0.0
 40
6.0
100
AcDbArc
 50
90.0
 51
90.0
  0
ARC
  5
EDD
330
1E
100
AcDbEntity
  8
STEMPEL
100
AcDbCircle
 10
192.3127441979911
 20
587.8412840202855
 30
0.0
 40
6.0
100
AcDbArc
 50
90.0
 51
120.5128743276211
  0
ARC
  5
EDE
330
1E
100
AcDbEntity
  8
STEMPEL
100
AcDbCircle
 10
192.3127441979911
 20
587.8412840202855
 30
0.0
 40
5.0
100
AcDbArc
 50
90.0
 51
120.5373500482991
  0
LINE
  5
EE0
330
1E
100
AcDbEntity
  8
STEMPEL
100
AcDbLine
 10
192.3127441979911
 20
593.841284020285
 30
0.0
 11
247.0511063703406
 21
593.8412840202856
 31
0.0
  0
ELLIPSE
  5
EE1
330
1E
100
AcDbEntity
  8
STEMPEL
100
AcDbEllipse
 10
217.4407340288701
 20
561.3412840202875
 30
0.0
 11
0.0
 21
7.5
 31
0.0
210
0.0
220
0.0
230
1.0
 40
0.8660254037843856
 41
4.712388980384689
 42
6.24459510668465
  0
LWPOLYLINE
  5
EE2
330
1E
100
AcDbEntity
  8
STEMPEL
100
AcDbPolyline
 90
        7
 70
   128
 43
0.0
 10
236.0271108745185
 20
504.8412840202874
 10
236.3776760889304
 20
505.4506219221281
 10
236.6783380678691
 20
506.1780521954174
 10
236.9210101298038
 20
507.0040096893611
 10
237.0991653048522
 20
507.9062792398234
 10
237.2080118858328
 20
508.8605931740667
 10
237.2446223072476
 20
509.8412840202878
  0
LWPOLYLINE
  5
EE3
330
1E
100
AcDbEntity
  8
STEMPEL
100
AcDbPolyline
 90
       10
 70
   128
 43
0.0
 10
234.9058632457155
 20
503.8412840202873
 10
235.3785932034691
 20
503.9324375022141
 10
235.8369595006693
 20
504.2031282955719
 10
236.2670349093201
 20
504.6451315975807
 10
236.6557518057583
 20
505.2450173615737
 10
236.991299223786
 20
505.9845583621684
 10
237.2634817249016
 20
506.8412840202876
 10
237.4640291815397
 20
507.7891631603336
 10
237.5868480607121
 20
508.7993949542862
 10
237.6282065729246
 20
509.8412840202878
  0
LINE
  5
EE4
330
1E
100
AcDbEntity
  8
STEMPEL
100
AcDbLine
 10
237.2446223072476
 20
516.3412840202855
 30
0.0
 11
237.2446223072476
 21
509.841284020289
 31
0.0
  0
LINE
  5
EE5
330
1E
100
AcDbEntity
  8
STEMPEL
100
AcDbLine
 10
237.6282065729246
 20
516.3412840202839
 30
0.0
 11
237.6282065729246
 21
509.841284020289
 31
0.0
  0
ELLIPSE
  5
EE6
330
1E
100
AcDbEntity
  8
STEMPEL
100
AcDbEllipse
 10
217.4407340288701
 20
536.3412840202875
 30
0.0
 11
0.0
 21
-7.5
 31
0.0
210
0.0
220
0.0
230
-1.0
 40
0.8660254037843856
 41
4.712388980384689
 42
6.24459510668465
  0
LWPOLYLINE
  5
EE7
330
1E
100
AcDbEntity
  8
STEMPEL
100
AcDbPolyline
 90
       10
 70
   128
 43
0.0
 10
221.0476702580446
 20
503.8412840202873
 10
221.5204002157982
 20
503.9324375022141
 10
221.9787665129984
 20
504.2031282955719
 10
222.4088419216491
 20
504.6451315975807
 10
222.7975588180874
 20
505.2450173615737
 10
223.133106236115
 20
505.9845583621684
 10
223.4052887372306
 20
506.8412840202876
 10
223.6058361938688
 20
507.7891631603336
 10
223.7286550730412
 20
508.7993949542862
 10
223.7700135852537
 20
509.8412840202878
  0
LINE
  5
EE9
330
1E
100
AcDbEntity
  8
STEMPEL
100
AcDbLine
 10
223.7700135852537
 20
516.3412840202855
 30
0.0
 11
223.7700135852537
 21
509.841284020289
 31
0.0
  0
LINE
  5
EEA
330
1E
100
AcDbEntity
  8
STEMPEL
100
AcDbLine
 10
222.5525021525245
 20
504.8412840202874
 30
0.0
 11
236.0271108745189
 21
504.8412840202874
 31
0.0
  0
LWPOLYLINE
  5
EEB
330
1E
100
AcDbEntity
  8
STEMPEL
100
AcDbPolyline
 90
       18
 70
   128
 43
0.0
 10
-223.7700135852537
 20
516.3412840202855
 10
-223.8879946205348
 20
517.71940540391
 10
-224.2379200237244
 20
519.0505965166898
 10
-224.8078735049062
 20
520.2895252418666
 10
-225.5784459818623
 20
521.3940013476358
 10
-226.5233965330898
 20
522.3264132248886
 10
-227.6105460009099
 20
523.0550087054499
 10
-228.8028728140881
 20
523.5549763440832
 10
-230.0597737130399
 20
523.8092903424999
 10
-231.3384464451383
 20
523.8092903424999
 10
-232.5953473440901
 20
523.5549763440832
 10
-233.7876741572683
 20
523.0550087054499
 10
-234.8748236250884
 20
522.3264132248886
 10
-235.8197741763159
 20
521.3940013476358
 10
-236.590346653272
 20
520.2895252418666
 10
-237.1603001344538
 20
519.0505965166898
 10
-237.5102255376435
 20
517.71940540391
 10
-237.6282065729246
 20
516.3412840202855
210
0.0
220
0.0
230
-1.0
  0
LWPOLYLINE
  5
EEC
330
1E
100
AcDbEntity
  8
STEMPEL
100
AcDbPolyline
 90
        9
 70
   128
 43
0.0
 10
-230.5073179462772
 20
523.8384104433257
 10
-231.831527396607
 20
523.6595775362778
 10
-233.0995067937931
 20
523.2093016189537
 10
-234.2642254818787
 20
522.5042838868146
 10
-235.2824828504854
 20
521.570674170431
 10
-236.1165106897477
 20
520.4431010114549
 10
-236.7353740519416
 20
519.1633872545032
 10
-237.1161186604157
 20
517.7789987949677
 10
-237.2446223072476
 20
516.3412840202871
210
0.0
220
0.0
230
-1.0
  0
LINE
  5
EED
330
1E
100
AcDbEntity
  8
STEMPEL
100
AcDbLine
 10
224.437101552695
 20
561.3412840202875
 30
0.0
 11
224.437101552695
 21
536.3412840202875
 31
0.0
  0
LINE
  5
EEE
330
1E
100
AcDbEntity
  8
STEMPEL
100
AcDbLine
 10
223.935924557253
 20
561.3412840202875
 30
0.0
 11
223.935924557253
 21
536.3412840202875
 31
0.0
  0
LWPOLYLINE
  5
EEF
330
1E
100
AcDbEntity
  8
STEMPEL
100
AcDbPolyline
 90
       18
 70
   128
 43
0.0
 10
-200.1648619474035
 20
516.3412840202855
 10
-200.2661745592078
 20
517.71940540391
 10
-200.566662315137
 20
519.0505965166898
 10
-201.0560924650582
 20
520.2895252418666
 10
-201.7177980522226
 20
521.3940013476358
 10
-202.5292454864878
 20
522.3264132248886
 10
-203.4628018987035
 20
523.0550087054499
 10
-204.4866761449295
 20
523.5549763440832
 10
-205.5660014157123
 20
523.8092903424999
 10
-206.6640225834634
 20
523.8092903424999
 10
-207.7433478542462
 20
523.5549763440832
 10
-208.7672221004723
 20
523.0550087054499
 10
-209.700778512688
 20
522.3264132248886
 10
-210.5122259469531
 20
521.3940013476358
 10
-211.1739315341175
 20
520.2895252418666
 10
-211.6633616840387
 20
519.0505965166898
 10
-211.9638494399679
 20
517.71940540391
 10
-212.0651620517723
 20
516.3412840202855
210
0.0
220
0.0
230
-1.0
  0
LWPOLYLINE
  5
EF0
330
1E
100
AcDbEntity
  8
STEMPEL
100
AcDbPolyline
 90
        9
 70
   128
 43
0.0
 10
-205.8099147756684
 20
523.8314180981092
 10
-206.9263224970395
 20
523.6241109617021
 10
-207.9916017487818
 20
523.1548562342484
 10
-208.9674367318202
 20
522.4405319970798
 10
-209.8187287646781
 20
521.5068309536834
 10
-210.5148587074145
 20
520.387336318523
 10
-211.0307882661059
 20
519.1223139011842
 10
-211.3479605663218
 20
517.757263831975
 10
-211.45496760391
 20
516.3412840202871
210
0.0
220
0.0
230
-1.0
  0
LWPOLYLINE
  5
EF1
330
1E
100
AcDbEntity
  8
STEMPEL
100
AcDbPolyline
 90
        7
 70
   128
 43
0.0
 10
209.8169445278047
 20
504.8412840202874
 10
210.2885901283715
 20
505.4506219221281
 10
210.6930966047544
 20
506.1780521954175
 10
211.0195842472434
 20
507.0040096893611
 10
211.2592717606516
 20
507.9062792398234
 10
211.4057124482776
 20
508.8605931740667
 10
211.45496760391
 20
509.8412840202878
  0
LWPOLYLINE
  5
EF2
330
1E
100
AcDbEntity
  8
STEMPEL
100
AcDbPolyline
 90
       10
 70
   128
 43
0.0
 10
208.4025589162483
 20
503.8412840202873
 10
209.0385632762492
 20
503.9324375022141
 10
209.6552429656053
 20
504.2031282955719
 10
210.2338604840104
 20
504.6451315975807
 10
210.7568348309623
 20
505.2450173615737
 10
211.2082756955667
 20
505.9845583621684
 10
211.5744662755927
 20
506.8412840202876
 10
211.8442800555676
 20
507.7891631603336
 10
212.0095188803193
 20
508.7993949542862
 10
212.0651620517724
 20
509.8412840202878
  0
LINE
  5
EF4
330
1E
100
AcDbEntity
  8
STEMPEL
100
AcDbLine
 10
213.812744197991
 20
502.3412840202865
 30
0.0
 11
213.812744197991
 21
499.8412840202859
 31
0.0
  0
LINE
  5
EF5
330
1E
100
AcDbEntity
  8
STEMPEL
100
AcDbLine
 10
213.812744197991
 20
502.3412840202865
 30
0.0
 11
212.812744197991
 21
503.3412840202865
 31
0.0
  0
LINE
  5
EF6
330
1E
100
AcDbEntity
  8
HILF
100
AcDbLine
 10
212.812744197991
 20
503.3412840202865
 30
0.0
 11
212.812744197991
 21
499.841284020286
 31
0.0
  0
LINE
  5
EF8
330
1E
100
AcDbEntity
  8
STEMPEL
100
AcDbLine
 10
203.812744197991
 20
502.3412840202865
 30
0.0
 11
203.812744197991
 21
499.8412840202859
 31
0.0
  0
LINE
  5
EFC
330
1E
100
AcDbEntity
  8
HILF
100
AcDbLine
 10
204.812744197991
 20
503.3412840202865
 30
0.0
 11
204.812744197991
 21
499.841284020286
 31
0.0
  0
LINE
  5
EFD
330
1E
100
AcDbEntity
  8
STEMPEL
100
AcDbLine
 10
204.812744197991
 20
503.3412840202865
 30
0.0
 11
203.812744197991
 21
502.3412840202865
 31
0.0
  0
LINE
  5
EFF
330
1E
100
AcDbEntity
  8
STEMPEL
100
AcDbLine
 10
203.812744197991
 20
502.3412840202865
 30
0.0
 11
213.812744197991
 21
502.3412840202865
 31
0.0
  0
LINE
  5
F02
330
1E
100
AcDbEntity
  8
STEMPEL
100
AcDbLine
 10
212.812744197991
 20
503.3412840202865
 30
0.0
 11
204.812744197991
 21
503.3412840202865
 31
0.0
  0
LINE
  5
F03
330
1E
100
AcDbEntity
  8
STEMPEL
100
AcDbLine
 10
200.1648619474035
 20
516.3412840202855
 30
0.0
 11
200.1648619474035
 21
509.841284020289
 31
0.0
  0
LINE
  5
F04
330
1E
100
AcDbEntity
  8
STEMPEL
100
AcDbLine
 10
211.45496760391
 20
516.3412840202855
 30
0.0
 11
211.45496760391
 21
509.841284020289
 31
0.0
  0
LINE
  5
F05
330
1E
100
AcDbEntity
  8
STEMPEL
100
AcDbLine
 10
212.0651620517724
 20
516.3412840202855
 30
0.0
 11
212.0651620517724
 21
509.841284020289
 31
0.0
  0
LWPOLYLINE
  5
F06
330
1E
100
AcDbEntity
  8
STEMPEL
100
AcDbPolyline
 90
       10
 70
   128
 43
0.0
 10
-185.246959085665
 20
523.8412840202887
 10
-186.0397864315247
 20
523.7273421678803
 10
-186.8085241196704
 20
523.3889786761828
 10
-187.529814444448
 20
522.8364745486718
 10
-188.1817413643295
 20
522.0866173436807
 10
-188.7444964097451
 20
521.1621910929372
 10
-189.200980553408
 20
520.0912840202879
 10
-189.5373237556048
 20
518.9064350952302
 10
-189.7433063983348
 20
517.6436453527895
 10
-189.8126698032309
 20
516.3412840202871
210
0.0
220
0.0
230
-1.0
  0
LWPOLYLINE
  5
F07
330
1E
100
AcDbEntity
  8
STEMPEL
100
AcDbPolyline
 90
        7
 70
   128
 43
0.0
 10
187.8610929747127
 20
504.8412840202874
 10
188.4230219479768
 20
505.4506219221281
 10
188.904959887564
 20
506.1780521954175
 10
189.2939444673138
 20
507.0040096893611
 10
189.5795134584203
 20
507.9062792398234
 10
189.7539861242162
 20
508.8605931740667
 10
189.8126698032312
 20
509.8412840202878
  0
LWPOLYLINE
  5
F08
330
1E
100
AcDbEntity
  8
STEMPEL
100
AcDbPolyline
 90
       10
 70
   128
 43
0.0
 10
186.2441845154459
 20
503.8412840202873
 10
187.0019341405401
 20
503.9324375022141
 10
187.7366599267157
 20
504.2031282955719
 10
188.4260376027488
 20
504.6451315975807
 10
189.0491207767951
 20
505.2450173615737
 10
189.5869773819066
 20
505.9845583621684
 10
190.0232649173056
 20
506.8412840202876
 10
190.3447270070008
 20
507.7891631603336
 10
190.5415961880649
 20
508.7993949542862
 10
190.6078906900517
 20
509.8412840202878
  0
LINE
  5
F09
330
1E
100
AcDbEntity
  8
STEMPEL
100
AcDbLine
 10
189.812669803231
 20
516.3412840202855
 30
0.0
 11
189.812669803231
 21
509.841284020289
 31
0.0
  0
LINE
  5
F0A
330
1E
100
AcDbEntity
  8
STEMPEL
100
AcDbLine
 10
190.6078906900518
 20
516.3412840202855
 30
0.0
 11
190.6078906900518
 21
509.841284020289
 31
0.0
  0
LWPOLYLINE
  5
F0B
330
1E
100
AcDbEntity
  8
STEMPEL
100
AcDbPolyline
 90
       10
 70
   128
 43
0.0
 10
196.5022588118794
 20
503.8412840202873
 10
197.1382631718803
 20
503.9324375022141
 10
197.7549428612365
 20
504.2031282955719
 10
198.3335603796415
 20
504.6451315975807
 10
198.8565347265934
 20
505.2450173615737
 10
199.3079755911979
 20
505.9845583621684
 10
199.6741661712239
 20
506.8412840202876
 10
199.9439799511988
 20
507.7891631603336
 10
200.1092187759505
 20
508.7993949542862
 10
200.1648619474035
 20
509.8412840202878
  0
LINE
  5
F0C
330
1E
100
AcDbEntity
  8
STEMPEL
100
AcDbLine
 10
198.5268388712982
 20
504.8412840202874
 30
0.0
 11
209.8169445278053
 21
504.8412840202874
 31
0.0
  0
LINE
  5
F0D
330
1E
100
AcDbEntity
  8
STEMPEL
100
AcDbLine
 10
211.4467204959292
 20
561.3412840202875
 30
0.0
 11
211.4467204959292
 21
536.341284020289
 31
0.0
  0
ELLIPSE
  5
F0E
330
1E
100
AcDbEntity
  8
STEMPEL
100
AcDbEllipse
 10
217.9419110243121
 20
536.3412840202875
 30
0.0
 11
0.0
 21
-7.5
 31
0.0
210
0.0
220
0.0
230
-1.0
 40
0.8660254037843856
 41
4.712388980384689
 42
7.853981633974482
  0
ELLIPSE
  5
F0F
330
1E
100
AcDbEntity
  8
STEMPEL
100
AcDbEllipse
 10
217.9419110243121
 20
561.3412840202875
 30
0.0
 11
0.0
 21
7.5
 31
0.0
210
0.0
220
0.0
230
1.0
 40
0.8660254037843856
 41
4.712388980384689
 42
7.853981633974482
  0
LINE
  5
F13
330
1E
100
AcDbEntity
  8
STEMPEL
100
AcDbLine
 10
213.8127441979909
 20
483.8412840202857
 30
0.0
 11
213.8127441979909
 21
481.3412840202858
 31
0.0
  0
LINE
  5
F14
330
1E
100
AcDbEntity
  8
HILF
100
AcDbLine
 10
212.812744197991
 20
483.8412840202857
 30
0.0
 11
212.812744197991
 21
481.3412840202858
 31
0.0
  0
LINE
  5
F15
330
1E
100
AcDbEntity
  8
HILF
100
AcDbLine
 10
204.8127441979907
 20
483.8412840202857
 30
0.0
 11
204.812744197991
 21
481.3412840202858
 31
0.0
  0
LINE
  5
F16
330
1E
100
AcDbEntity
  8
STEMPEL
100
AcDbLine
 10
203.8127441979909
 20
483.8412840202857
 30
0.0
 11
203.8127441979909
 21
481.3412840202858
 31
0.0
  0
ARC
  5
F17
330
1E
100
AcDbEntity
  8
SCHRAFF
100
AcDbCircle
 10
194.8797226341006
 20
460.414754518373
 30
0.0
 40
2.0
100
AcDbArc
 50
152.7000000000017
 51
302.7000000000001
  0
LINE
  5
F18
102
{ACAD_REACTORS
330
FA2
102
}
330
1E
100
AcDbEntity
  8
STEMPEL
100
AcDbLine
 10
196.5627441979912
 20
461.4952351593283
 30
0.0
 11
194.0382118521553
 21
459.8745141978954
 31
0.0
  0
LINE
  5
F19
102
{ACAD_REACTORS
330
FA2
102
}
330
1E
100
AcDbEntity
  8
STEMPEL
100
AcDbLine
 10
184.9942035054226
 20
473.9620049817188
 30
0.0
 11
194.0382118521553
 21
459.8745141978954
 31
0.0
  0
LINE
  5
F1A
102
{ACAD_REACTORS
330
FA2
102
}
330
1E
100
AcDbEntity
  8
STEMPEL
100
AcDbLine
 10
187.5187358512586
 20
475.5827259431517
 30
0.0
 11
207.0202981077179
 21
445.2059208778094
 31
0.0
  0
ARC
  5
F1B
330
1E
100
AcDbEntity
  8
STEMPEL
100
AcDbCircle
 10
202.8127441979913
 20
442.504719275421
 30
0.0
 40
3.0
100
AcDbArc
 50
0.0
 51
32.70000000000014
  0
LINE
  5
F1C
330
1E
100
AcDbEntity
  8
STEMPEL
100
AcDbLine
 10
194.8797226341006
 20
460.414754518373
 30
0.0
 11
205.3372765438272
 21
444.125440236854
 31
0.0
  0
ARC
  5
F1D
330
1E
100
AcDbEntity
  8
STEMPEL
100
AcDbCircle
 10
202.8127441979913
 20
442.504719275421
 30
0.0
 40
5.0
100
AcDbArc
 50
0.0
 51
32.70000000000014
  0
LINE
  5
F20
330
1E
100
AcDbEntity
  8
MITTEL
100
AcDbLine
 10
208.812744197991
 20
508.3412840202866
 30
0.0
 11
208.8127441979909
 21
478.3412840202855
 31
0.0
  0
ELLIPSE
  5
F21
330
1E
100
AcDbEntity
  8
STEMPEL
100
AcDbEllipse
 10
177.2716346716393
 20
561.3412840202875
 30
0.0
 11
0.0
 21
7.499999999999999
 31
0.0
210
0.0
220
0.0
230
1.0
 40
0.4999999999999926
 41
4.712388980384689
 42
6.167183451052224
  0
ELLIPSE
  5
F22
330
1E
100
AcDbEntity
  8
STEMPEL
100
AcDbEllipse
 10
178.1396986913282
 20
561.3412840202875
 30
0.0
 11
0.0
 21
7.499999999999999
 31
0.0
210
0.0
220
0.0
230
1.0
 40
0.4999999999999926
 41
4.712388980384689
 42
7.853981633974482
  0
ARC
  5
F23
330
1E
100
AcDbEntity
  8
STEMPEL
100
AcDbCircle
 10
168.3127441979912
 20
573.8412260529704
 30
0.0
 40
5.0
100
AcDbArc
 50
120.256416474818
 51
180.0
  0
ARC
  5
F24
330
1E
100
AcDbEntity
  8
STEMPEL
100
AcDbCircle
 10
162.8016005936796
 20
583.3611210027478
 30
0.0
 40
5.0
100
AcDbArc
 50
300.0670458384836
 51
300.2564371635279
  0
ARC
  5
F25
330
1E
100
AcDbEntity
  8
STEMPEL
100
AcDbCircle
 10
168.3127441979912
 20
573.8412260529704
 30
0.0
 40
6.0
100
AcDbArc
 50
120.256416474818
 51
180.0
  0
LINE
  5
F26
330
1E
100
AcDbEntity
  8
STEMPEL
100
AcDbLine
 10
162.3127441979911
 20
568.8412840202873
 30
0.0
 11
163.3127441979911
 21
568.8412840202873
 31
0.0
  0
ELLIPSE
  5
F27
330
1E
100
AcDbEntity
  8
STEMPEL
100
AcDbEllipse
 10
177.2716346716393
 20
536.341284020289
 30
0.0
 11
0.0
 21
-7.499999999999999
 31
0.0
210
0.0
220
0.0
230
-1.0
 40
0.4999999999999926
 41
4.712388980384689
 42
6.167183451052224
  0
LWPOLYLINE
  5
F28
330
1E
100
AcDbEntity
  8
STEMPEL
100
AcDbPolyline
 90
        9
 70
   128
 43
0.0
 10
-171.3855171602473
 20
523.7430422649506
 10
-171.874577703516
 20
523.4166093671932
 10
-172.334190671417
 20
522.871340353936
 10
-172.7501404750412
 20
522.124100110808
 10
-173.1095620043328
 20
521.1980003880305
 10
-173.4013385392203
 20
520.1216849660602
 10
-173.6164455839585
 20
518.9284437184294
 10
-173.7482299900659
 20
517.6551829733535
 10
-173.7926157347308
 20
516.3412840202871
210
0.0
220
0.0
230
-1.0
  0
LWPOLYLINE
  5
F29
330
1E
100
AcDbEntity
  8
STEMPEL
100
AcDbPolyline
 90
       18
 70
   128
 43
0.0
 10
-168.9784185857604
 20
516.3412840202855
 10
-169.0272879306767
 20
517.71940540391
 10
-169.1722317784968
 20
519.0505965166898
 10
-169.408314240324
 20
520.2895252418666
 10
-169.7274958110707
 20
521.3940013476358
 10
-170.118907145161
 20
522.3264132248886
 10
-170.569219199059
 20
523.0550087054499
 10
-171.0630971358584
 20
523.5549763440832
 10
-171.5837225347634
 20
523.8092903424999
 10
-172.1133661222352
 20
523.8092903424999
 10
-172.6339915211401
 20
523.5549763440832
 10
-173.1278694579396
 20
523.0550087054499
 10
-173.5781815118375
 20
522.3264132248886
 10
-173.9695928459279
 20
521.3940013476358
 10
-174.2887744166746
 20
520.2895252418666
 10
-174.5248568785018
 20
519.0505965166898
 10
-174.6698007263219
 20
517.71940540391
 10
-174.7186700712382
 20
516.3412840202855
210
0.0
220
0.0
230
-1.0
  0
ELLIPSE
  5
F2A
330
1E
100
AcDbEntity
  8
STEMPEL
100
AcDbEllipse
 10
178.1396986913282
 20
536.341284020289
 30
0.0
 11
0.0
 21
-7.499999999999999
 31
0.0
210
0.0
220
0.0
230
-1.0
 40
0.4999999999999926
 41
4.712388980384689
 42
7.853981633974482
  0
LWPOLYLINE
  5
F2B
330
1E
100
AcDbEntity
  8
STEMPEL
100
AcDbPolyline
 90
       10
 70
   128
 43
0.0
 10
177.112763080314
 20
503.8412840202873
 10
177.8705127054082
 20
503.9324375022141
 10
178.6052384915838
 20
504.2031282955719
 10
179.2946161676169
 20
504.6451315975807
 10
179.9176993416632
 20
505.2450173615737
 10
180.4555559467748
 20
505.9845583621684
 10
180.8918434821737
 20
506.8412840202876
 10
181.213305571869
 20
507.7891631603336
 10
181.410174752933
 20
508.7993949542862
 10
181.4764692549198
 20
509.8412840202878
  0
LWPOLYLINE
  5
F2C
330
1E
100
AcDbEntity
  8
STEMPEL
100
AcDbPolyline
 90
        7
 70
   128
 43
0.0
 10
171.6390441020622
 20
504.8412840202874
 10
172.2591346251266
 20
505.4506219221281
 10
172.79095477191
 20
506.1780521954174
 10
173.2202005716412
 20
507.0040096893611
 10
173.5353269194386
 20
507.9062792398234
 10
173.7278580964044
 20
508.8605931740667
 10
173.7926157347308
 20
509.8412840202878
  0
LWPOLYLINE
  5
F2D
330
1E
100
AcDbEntity
  8
STEMPEL
100
AcDbPolyline
 90
       10
 70
   128
 43
0.0
 10
169.9033055446642
 20
503.8412840202873
 10
170.7394848195058
 20
503.9324375022141
 10
171.5502572102084
 20
504.2031282955719
 10
172.3109878079513
 20
504.6451315975807
 10
172.99856219847
 20
505.2450173615737
 10
173.5920887818384
 20
505.9845583621684
 10
174.0735335531597
 20
506.8412840202876
 10
174.42826805668
 20
507.7891631603336
 10
174.6455138640142
 20
508.7993949542862
 10
174.7186700712382
 20
509.8412840202878
  0
LINE
  5
F2E
330
1E
100
AcDbEntity
  8
STEMPEL
100
AcDbLine
 10
166.8248469530919
 20
504.8412840202874
 30
0.0
 11
171.6390441020632
 21
504.8412840202874
 31
0.0
  0
LINE
  5
F2F
330
1E
100
AcDbEntity
  8
STEMPEL
100
AcDbLine
 10
168.9784185857604
 20
516.3412840202855
 30
0.0
 11
168.9784185857604
 21
509.841284020289
 31
0.0
  0
LINE
  5
F30
330
1E
100
AcDbEntity
  8
STEMPEL
100
AcDbLine
 10
173.7926157347309
 20
516.3412840202855
 30
0.0
 11
173.7926157347309
 21
509.841284020289
 31
0.0
  0
LINE
  5
F31
330
1E
100
AcDbEntity
  8
STEMPEL
100
AcDbLine
 10
174.7186700712382
 20
516.3412840202855
 30
0.0
 11
174.7186700712382
 21
509.841284020289
 31
0.0
  0
LINE
  5
F32
330
1E
100
AcDbEntity
  8
STEMPEL
100
AcDbLine
 10
181.4764692549199
 20
516.3412840202855
 30
0.0
 11
181.4764692549199
 21
509.841284020289
 31
0.0
  0
LINE
  5
F33
330
1E
100
AcDbEntity
  8
STEMPEL
100
AcDbLine
 10
162.3127441979909
 20
528.8412840202872
 30
0.0
 11
163.3127441979911
 21
528.8412840202872
 31
0.0
  0
LWPOLYLINE
  5
F34
330
1E
100
AcDbEntity
  8
STEMPEL
100
AcDbPolyline
 90
        7
 70
   128
 43
0.0
 10
-164.0044885239077
 20
522.8033380761253
 10
-164.142317533478
 20
522.0512318391867
 10
-164.2611818104442
 20
521.128518228472
 10
-164.3575298123454
 20
520.0627669785679
 10
-164.4284827598836
 20
518.8858216417466
 10
-164.4719206518915
 20
517.6328481353448
 10
-164.4865456087891
 20
516.3412840202855
210
0.0
220
0.0
230
-1.0
  0
LWPOLYLINE
  5
F35
330
1E
100
AcDbEntity
  8
STEMPEL
100
AcDbPolyline
 90
       18
 70
   128
 43
0.0
 10
-163.5224314390266
 20
516.3412840202855
 10
-163.5390998625033
 20
517.71940540391
 10
-163.5885375097638
 20
519.0505965166898
 10
-163.6690608410242
 20
520.2895252418666
 10
-163.7779277308159
 20
521.3940013476358
 10
-163.9114308477782
 20
522.3264132248886
 10
-164.0650239033823
 20
523.0550087054499
 10
-164.2334764703344
 20
523.5549763440832
 10
-164.4110520985033
 20
523.8092903424999
 10
-164.5917036628503
 20
523.8092903424999
 10
-164.7692792910193
 20
523.5549763440832
 10
-164.9377318579713
 20
523.0550087054499
 10
-165.0913249135754
 20
522.3264132248886
 10
-165.2248280305378
 20
521.3940013476358
 10
-165.3336949203294
 20
520.2895252418666
 10
-165.4142182515899
 20
519.0505965166898
 10
-165.4636558988503
 20
517.71940540391
 10
-165.4803243223271
 20
516.3412840202855
210
0.0
220
0.0
230
-1.0
  0
LINE
  5
F36
330
1E
100
AcDbEntity
  8
STEMPEL
100
AcDbLine
 10
160.901972255356
 20
504.8412840202874
 30
0.0
 11
161.8660864251186
 21
504.8412840202874
 31
0.0
  0
LWPOLYLINE
  5
F37
330
1E
100
AcDbEntity
  8
STEMPEL
100
AcDbPolyline
 90
        7
 70
   128
 43
0.0
 10
161.8660864251184
 20
504.8412840202878
 10
162.5427883001958
 20
505.4508847481469
 10
163.1423377238298
 20
506.1784438320585
 10
163.6486263969795
 20
507.0044136937387
 10
164.048051689025
 20
507.9066027189418
 10
164.3298821042879
 20
508.8607714871354
 10
164.4865456087893
 20
509.8412840202878
  0
LWPOLYLINE
  5
F38
330
1E
100
AcDbEntity
  8
STEMPEL
100
AcDbPolyline
 90
       10
 70
   128
 43
0.0
 10
159.9743355912963
 20
503.8412840202873
 10
160.832408587569
 20
503.90741123486
 10
161.6852207871913
 20
504.1599649845903
 10
162.5059790941083
 20
504.5910107009079
 10
163.2688974605072
 20
505.1870060713476
 10
163.9500070160064
 20
505.9292265030683
 10
164.5279091059522
 20
506.7943533998658
 10
164.9844475803584
 20
507.7552067705819
 10
165.3052792119559
 20
508.7815991522941
 10
165.4803243223271
 20
509.8412840202867
  0
LINE
  5
F3A
330
1E
100
AcDbEntity
  8
STEMPEL
100
AcDbLine
 10
150.3127441979911
 20
502.3412840202865
 30
0.0
 11
150.3127441979911
 21
499.8412840202859
 31
0.0
  0
LWPOLYLINE
  5
F3B
330
1E
100
AcDbEntity
  8
STEMPEL
100
AcDbPolyline
 90
       10
 70
   128
 43
0.0
 10
158.0164427079958
 20
503.8412840202885
 10
158.8745157042685
 20
503.9074112348612
 10
159.7273279038908
 20
504.1599649845913
 10
160.5480862108078
 20
504.591010700909
 10
161.3110045772067
 20
505.1870060713488
 10
161.9921141327059
 20
505.9292265030694
 10
162.5700162226517
 20
506.7943533998669
 10
163.0265546970579
 20
507.7552067705831
 10
163.3473863286555
 20
508.7815991522952
 10
163.5224314390266
 20
509.8412840202878
  0
ARC
  5
F3C
330
1E
100
AcDbEntity
  8
STEMPEL
100
AcDbCircle
 10
157.3127441979912
 20
509.8412840202865
 30
0.0
 40
6.0
100
AcDbArc
 50
270.0
 51
0.0
  0
ARC
  5
F3D
330
1E
100
AcDbEntity
  8
STEMPEL
100
AcDbCircle
 10
157.3127441979912
 20
509.8412840202865
 30
0.0
 40
5.0
100
AcDbArc
 50
270.0
 51
0.0
  0
LINE
  5
F3E
330
1E
100
AcDbEntity
  8
STEMPEL
100
AcDbLine
 10
165.4803243223271
 20
516.3412840202855
 30
0.0
 11
165.4803243223271
 21
509.8412840202867
 31
0.0
  0
LINE
  5
F3F
330
1E
100
AcDbEntity
  8
STEMPEL
100
AcDbLine
 10
164.4865456087892
 20
516.3412840202855
 30
0.0
 11
164.4865456087892
 21
509.8412840202878
 31
0.0
  0
LINE
  5
F40
330
1E
100
AcDbEntity
  8
STEMPEL
100
AcDbLine
 10
163.5224314390266
 20
516.3412840202855
 30
0.0
 11
163.5224314390266
 21
509.8412840202878
 31
0.0
  0
LWPOLYLINE
  5
F41
330
1E
100
AcDbEntity
  8
STEMPEL
100
AcDbPolyline
 90
       10
 70
   128
 43
0.0
 10
164.1630540591865
 20
503.8412840202873
 10
164.9992333340281
 20
503.9324375022141
 10
165.8100057247307
 20
504.2031282955719
 10
166.5707363224735
 20
504.6451315975807
 10
167.2583107129923
 20
505.2450173615737
 10
167.8518372963607
 20
505.9845583621684
 10
168.3332820676819
 20
506.8412840202876
 10
168.6880165712023
 20
507.7891631603336
 10
168.9052623785364
 20
508.7993949542862
 10
168.9784185857604
 20
509.8412840202878
  0
LINE
  5
F42
330
1E
100
AcDbEntity
  8
STEMPEL
100
AcDbLine
 10
174.3896986913282
 20
561.3412840202875
 30
0.0
 11
174.3896986913282
 21
536.3412840202906
 31
0.0
  0
LINE
  5
F43
330
1E
100
AcDbEntity
  8
STEMPEL
100
AcDbLine
 10
163.3127441979912
 20
573.8412260529704
 30
0.0
 11
163.3127441979912
 21
509.8412840202865
 31
0.0
  0
LINE
  5
F44
330
1E
100
AcDbEntity
  8
STEMPEL
100
AcDbLine
 10
162.3127441979911
 20
573.8412260529704
 30
0.0
 11
162.3127441979911
 21
509.8412840202865
 31
0.0
  0
LINE
  5
F45
330
1E
100
AcDbEntity
  8
STEMPEL
100
AcDbLine
 10
181.8896986913281
 20
561.3412840202875
 30
0.0
 11
181.8896986913281
 21
536.341284020289
 31
0.0
  0
LINE
  5
F46
330
1E
100
AcDbEntity
  8
STEMPEL
100
AcDbLine
 10
181.0216346716392
 20
536.3412840202875
 30
0.0
 11
181.0216346716392
 21
561.341284020289
 31
0.0
  0
LINE
  5
F47
330
1E
100
AcDbEntity
  8
STEMPEL
100
AcDbLine
 10
142.312744197991
 20
504.8412840202862
 30
0.0
 11
142.3127441979909
 21
503.841284020286
 31
0.0
  0
LINE
  5
F49
330
1E
100
AcDbEntity
  8
HILF
100
AcDbLine
 10
149.3127441979911
 20
503.3412840202865
 30
0.0
 11
149.3127441979912
 21
499.8412840202859
 31
0.0
  0
LINE
  5
F4B
330
1E
100
AcDbEntity
  8
STEMPEL
100
AcDbLine
 10
140.3127441979911
 20
502.3412840202865
 30
0.0
 11
140.3127441979911
 21
499.8412840202858
 31
0.0
  0
LINE
  5
F4F
330
1E
100
AcDbEntity
  8
STEMPEL
100
AcDbLine
 10
141.3127441979911
 20
503.3412840202865
 30
0.0
 11
140.3127441979911
 21
502.3412840202865
 31
0.0
  0
LINE
  5
F50
330
1E
100
AcDbEntity
  8
HILF
100
AcDbLine
 10
141.3127441979911
 20
503.3412840202865
 30
0.0
 11
141.3127441979912
 21
499.8412840202859
 31
0.0
  0
LINE
  5
F53
330
1E
100
AcDbEntity
  8
STEMPEL
100
AcDbLine
 10
149.3127441979911
 20
503.3412840202865
 30
0.0
 11
141.3127441979911
 21
503.3412840202865
 31
0.0
  0
LINE
  5
F57
330
1E
100
AcDbEntity
  8
STEMPEL
100
AcDbLine
 10
140.3127441979911
 20
502.3412840202865
 30
0.0
 11
150.3127441979911
 21
502.3412840202865
 31
0.0
  0
LINE
  5
F58
330
1E
100
AcDbEntity
  8
STEMPEL
100
AcDbLine
 10
142.3127441979911
 20
504.841284020286
 30
0.0
 11
157.3127441979913
 21
504.8412840202864
 31
0.0
  0
LINE
  5
F5A
330
1E
100
AcDbEntity
  8
STEMPEL
100
AcDbLine
 10
150.3127441979911
 20
502.3412840202865
 30
0.0
 11
149.3127441979911
 21
503.3412840202865
 31
0.0
  0
ARC
  5
F5C
330
1E
100
AcDbEntity
  8
STEMPEL
100
AcDbCircle
 10
175.3127441979911
 20
486.8412840202857
 30
0.0
 40
3.0
100
AcDbArc
 50
270.0
 51
90.0
  0
LINE
  5
F5D
330
1E
100
AcDbEntity
  8
STEMPEL
100
AcDbLine
 10
177.3127441979911
 20
481.3412840202857
 30
0.0
 11
177.3127441979911
 21
478.3412840202857
 31
0.0
  0
LINE
  5
F5F
330
1E
100
AcDbEntity
  8
STEMPEL
100
AcDbLine
 10
150.3127441979911
 20
489.8412840202858
 30
0.0
 11
150.3127441979911
 21
478.3412840202854
 31
0.0
  0
LINE
  5
F60
330
1E
100
AcDbEntity
  8
STEMPEL
100
AcDbLine
 10
152.3127441979912
 20
489.8412840202858
 30
0.0
 11
152.3127441979912
 21
483.8412840202857
 31
0.0
  0
LINE
  5
F61
330
1E
100
AcDbEntity
  8
HILF
100
AcDbLine
 10
149.3127441979911
 20
489.8412840202858
 30
0.0
 11
149.3127441979911
 21
478.3412840202854
 31
0.0
  0
LINE
  5
F63
330
1E
100
AcDbEntity
  8
HILF
100
AcDbLine
 10
141.3127441979911
 20
489.8412840202858
 30
0.0
 11
141.3127441979911
 21
478.3412840202855
 31
0.0
  0
LINE
  5
F64
330
1E
100
AcDbEntity
  8
STEMPEL
100
AcDbLine
 10
140.3127441979911
 20
489.8412840202858
 30
0.0
 11
140.3127441979911
 21
478.3412840202855
 31
0.0
  0
LINE
  5
F65
330
1E
100
AcDbEntity
  8
STEMPEL
100
AcDbLine
 10
138.3127441979911
 20
489.8412840202857
 30
0.0
 11
138.3127441979911
 21
483.8412840202858
 31
0.0
  0
LINE
  5
F66
330
1E
100
AcDbEntity
  8
MITTEL
100
AcDbLine
 10
145.3127441979911
 20
508.3412840202866
 30
0.0
 11
145.3127441979911
 21
478.3412840202855
 31
0.0
  0
LINE
  5
F69
330
1E
100
AcDbEntity
  8
STEMPEL
100
AcDbLine
 10
179.5248924264015
 20
504.8412840202874
 30
0.0
 11
187.8610929747134
 21
504.8412840202874
 31
0.0
  0
LWPOLYLINE
  5
F6A
330
1E
100
AcDbEntity
  8
STEMPEL
100
AcDbPolyline
 90
       18
 70
   128
 43
0.0
 10
-181.47646925492
 20
516.3412840202855
 10
-181.5542091561801
 20
517.71940540391
 10
-181.784781520862
 20
519.0505965166898
 10
-182.1603344836271
 20
520.2895252418666
 10
-182.6680790387548
 20
521.3940013476358
 10
-183.2907245543928
 20
522.3264132248886
 10
-184.0070675842868
 20
523.0550087054499
 10
-184.7927139257127
 20
523.5549763440832
 10
-185.6209093347921
 20
523.8092903424999
 10
-186.4634506101798
 20
523.8092903424999
 10
-187.2916460192592
 20
523.5549763440832
 10
-188.0772923606852
 20
523.0550087054499
 10
-188.7936353905792
 20
522.3264132248886
 10
-189.4162809062171
 20
521.3940013476358
 10
-189.9240254613448
 20
520.2895252418666
 10
-190.29957842411
 20
519.0505965166898
 10
-190.5301507887918
 20
517.71940540391
 10
-190.6078906900519
 20
516.3412840202855
210
0.0
220
0.0
230
-1.0
  0
ARC
  5
F6B
102
{ACAD_REACTORS
330
FA2
102
}
330
1E
100
AcDbEntity
  8
STEMPEL
100
AcDbCircle
 10
182.4696711595867
 20
472.3412840202859
 30
0.0
 40
3.0
100
AcDbArc
 50
32.70000000000014
 51
90.0
  0
ARC
  5
F6C
102
{ACAD_REACTORS
330
FA2
102
}
330
1E
100
AcDbEntity
  8
STEMPEL
100
AcDbCircle
 10
182.4696711595867
 20
472.3412840202859
 30
0.0
 40
6.0
100
AcDbArc
 50
32.70000000000014
 51
90.0
  0
LINE
  5
F6D
330
1E
100
AcDbEntity
  8
STEMPEL
100
AcDbLine
 10
165.7933906298641
 20
578.1601214671667
 30
0.0
 11
189.7722445228153
 21
592.1477746333522
 31
0.0
  0
LINE
  5
F6E
330
1E
100
AcDbEntity
  8
STEMPEL
100
AcDbLine
 10
165.2800495762833
 20
579.0183645803294
 30
0.0
 11
189.2663524517502
 21
593.0103745910179
 31
0.0
  0
ARC
  5
F6F
330
1E
100
AcDbEntity
  8
STEMPEL
100
AcDbCircle
 10
115.312744197991
 20
486.8412840202857
 30
0.0
 40
3.0
100
AcDbArc
 50
90.0
 51
270.0
  0
LINE
  5
F70
102
{ACAD_REACTORS
330
FA2
102
}
330
1E
100
AcDbEntity
  8
STEMPEL
100
AcDbLine
 10
109.4340645415507
 20
472.3412840202858
 30
0.0
 11
111.5553848851107
 21
474.4626043638454
 31
0.0
  0
ARC
  5
F71
102
{ACAD_REACTORS
330
FA2
102
}
330
1E
100
AcDbEntity
  8
STEMPEL
100
AcDbCircle
 10
113.6767052286702
 20
472.3412840202858
 30
0.0
 40
3.0
100
AcDbArc
 50
90.0
 51
135.0
  0
ARC
  5
F72
102
{ACAD_REACTORS
330
FA2
102
}
330
1E
100
AcDbEntity
  8
STEMPEL
100
AcDbCircle
 10
113.6767052286702
 20
472.3412840202858
 30
0.0
 40
6.0
100
AcDbArc
 50
90.0
 51
135.0
  0
LINE
  5
F74
330
1E
100
AcDbEntity
  8
STEMPEL
100
AcDbLine
 10
107.312744197991
 20
481.3412840202857
 30
0.0
 11
107.312744197991
 21
478.3412840202857
 31
0.0
  0
LINE
  5
F75
102
{ACAD_REACTORS
330
FA2
102
}
330
1E
100
AcDbEntity
  8
STEMPEL
100
AcDbLine
 10
107.3127441979911
 20
474.4626043638454
 30
0.0
 11
109.4340645415507
 21
472.3412840202857
 31
0.0
  0
LINE
  5
F76
102
{ACAD_REACTORS
330
FA2
102
}
330
1E
100
AcDbEntity
  8
STEMPEL
100
AcDbLine
 10
107.3127441979911
 20
474.4626043638454
 30
0.0
 11
109.4340645415507
 21
476.5839247074052
 31
0.0
  0
LINE
  5
F77
330
1E
100
AcDbEntity
  8
STEMPEL
100
AcDbLine
 10
107.312744197991
 20
481.3412840202858
 30
0.0
 11
140.3127441979911
 21
481.3412840202858
 31
0.0
  0
LINE
  5
F78
330
1E
100
AcDbEntity
  8
STEMPEL
100
AcDbLine
 10
115.312744197991
 20
483.8412840202857
 30
0.0
 11
140.3127441979911
 21
483.8412840202858
 31
0.0
  0
LINE
  5
F7D
330
1E
100
AcDbEntity
  8
STEMPEL
100
AcDbLine
 10
109.4340645415504
 20
472.3412840202854
 30
0.0
 11
186.0346878704424
 21
472.3412840202853
 31
0.0
  0
LINE
  5
F7E
102
{ACAD_REACTORS
330
FA2
102
}
330
1E
100
AcDbEntity
  8
STEMPEL
100
AcDbLine
 10
113.6767052286702
 20
475.3412840202858
 30
0.0
 11
182.4696711595867
 21
475.3412840202858
 31
0.0
  0
DIMENSION
  5
F7F
330
1E
100
AcDbEntity
  8
BEM
100
AcDbDimension
  2
*D2
 10
75.52937791886439
 20
593.841284020285
 30
0.0
 11
70.02937791886428
 21
538.8412840202854
 31
0.0
 70
    32
 71
     5
 42
109.9999999999994
  3
Standard
100
AcDbAlignedDimension
 13
115.312744197991
 23
483.8412840202857
 33
0.0
 14
192.3127441979911
 24
593.841284020285
 34
0.0
 50
90.0
100
AcDbRotatedDimension
1001
ACAD
1000
DSTYLE
1002
{
1070
    40
1040
2.0
1070
    41
1040
3.5
1070
    42
1040
1.0
1070
    43
1040
8.0
1070
    44
1040
1.5
1070
    47
1040
1.199999999999999
1070
    48
1040
1.199999999999999
1070
    73
1070
     0
1070
    74
1070
     0
1070
    77
1070
     1
1070
    78
1070
     8
1070
   140
1040
3.5
1070
   141
1040
1.5
1070
   147
1040
1.0
1070
   172
1070
     1
1070
   178
1070
     1
1070
   271
1070
     2
1070
   272
1070
     2
1070
   285
1070
     8
1070
   286
1070
     8
1070
   289
1070
     0
1070
   340
1005
24
1002
}
  0
LINE
  5
F80
330
1E
100
AcDbEntity
  8
STEMPEL
100
AcDbLine
 10
205.8127441979912
 20
209.201204806829
 30
0.0
 11
207.3000514779319
 21
198.3412840202853
 31
0.0
  0
LINE
  5
F81
330
1E
100
AcDbEntity
  8
STEMPEL
100
AcDbLine
 10
207.8127441979912
 20
209.2885266926461
 30
0.0
 11
209.3076911530186
 21
198.3412840202854
 31
0.0
  0
DIMENSION
  5
F84
330
1E
100
AcDbEntity
  8
BEM
100
AcDbDimension
  2
*D3
 10
75.52937791886439
 20
478.3412840202857
 30
0.0
 11
70.0293779188643
 21
338.3412840202856
 31
0.0
 70
    32
 71
     5
 42
280.0000000000004
  3
Standard
100
AcDbAlignedDimension
 13
207.3000514779319
 23
198.3412840202853
 33
0.0
 14
107.312744197991
 24
478.3412840202857
 34
0.0
 50
90.0
100
AcDbRotatedDimension
1001
ACAD
1000
DSTYLE
1002
{
1070
    40
1040
2.0
1070
    41
1040
3.5
1070
    42
1040
1.0
1070
    43
1040
7.0
1070
    44
1040
1.0
1070
    47
1040
0.7
1070
    48
1040
0.7
1070
    73
1070
     0
1070
    74
1070
     0
1070
    77
1070
     1
1070
    78
1070
     8
1070
   140
1040
3.5
1070
   141
1040
1.5
1070
   146
1040
0.5142857142857144
1070
   147
1040
1.0
1070
   172
1070
     1
1070
   178
1070
     1
1070
   271
1070
     2
1070
   272
1070
     2
1070
   279
1070
     2
1070
   284
1070
     8
1070
   285
1070
     8
1070
   286
1070
     8
1070
   340
1005
24
1002
}
  0
LINE
  5
F85
330
1E
100
AcDbEntity
  8
STEMPEL
  6
Continuous
100
AcDbLine
 10
205.8127441979912
 20
442.504719275421
 30
0.0
 11
205.812744197991
 21
209.2012048068298
 31
0.0
  0
LINE
  5
F86
330
1E
100
AcDbEntity
  8
STEMPEL
  6
Continuous
100
AcDbLine
 10
207.8127441979912
 20
442.504719275421
 30
0.0
 11
207.8127441979912
 21
209.2885266926448
 31
0.0
  0
LINE
  5
F87
102
{ACAD_REACTORS
330
FA2
102
}
330
1E
100
AcDbEntity
  8
STEMPEL
100
AcDbLine
 10
107.312744197991
 20
478.3412840202857
 30
0.0
 11
437.312744197991
 21
478.3412840202849
 31
0.0
  0
LINE
  5
F88
330
1E
100
AcDbEntity
  8
STEMPEL
100
AcDbLine
 10
150.3127441979911
 20
483.8412840202857
 30
0.0
 11
429.312744197991
 21
483.8412840202855
 31
0.0
  0
LINE
  5
F8A
330
1E
100
AcDbEntity
  8
STEMPEL
100
AcDbLine
 10
150.3127441979911
 20
481.3412840202858
 30
0.0
 11
437.312744197991
 21
481.3412840202857
 31
0.0
  0
DIMENSION
  5
F8B
330
1E
100
AcDbEntity
  8
BEM
100
AcDbDimension
  2
*D4
 10
437.312744197991
 20
616.662635866074
 30
0.0
 11
272.3127441979911
 21
622.1626358660739
 31
0.0
 70
    32
  1
%%c<>
 71
     5
 42
329.9999999999999
  3
Standard
100
AcDbAlignedDimension
 13
107.3127441979911
 23
481.3412840202858
 33
0.0
 14
437.312744197991
 24
481.3412840202857
 34
0.0
100
AcDbRotatedDimension
1001
ACAD
1000
DSTYLE
1002
{
1070
    40
1040
2.0
1070
    41
1040
3.5
1070
    42
1040
1.0
1070
    43
1040
8.0
1070
    44
1040
1.5
1070
    47
1040
1.199999999999999
1070
    48
1040
1.199999999999999
1070
    73
1070
     0
1070
    74
1070
     0
1070
    77
1070
     1
1070
    78
1070
     8
1070
   140
1040
3.5
1070
   141
1040
1.5
1070
   147
1040
1.0
1070
   172
1070
     1
1070
   178
1070
     1
1070
   271
1070
     2
1070
   272
1070
     2
1070
   285
1070
     8
1070
   286
1070
     8
1070
   289
1070
     0
1070
   340
1005
24
1002
}
  0
DIMENSION
  5
F8C
330
1E
100
AcDbEntity
  8
BEM
100
AcDbDimension
  2
*D5
 10
338.8127441979912
 20
176.3240429185431
 30
0.0
 11
272.3127441979912
 21
181.8240429185431
 31
0.0
 70
    32
  1
%%c<>
 71
     5
 42
133.0
  3
Standard
100
AcDbAlignedDimension
 13
205.8127441979912
 23
209.201204806829
 33
0.0
 14
338.8127441979912
 24
209.2012048068351
 34
0.0
100
AcDbRotatedDimension
1001
ACAD
1000
DSTYLE
1002
{
1070
    40
1040
2.0
1070
    41
1040
3.5
1070
    42
1040
1.0
1070
    43
1040
7.0
1070
    44
1040
1.0
1070
    47
1040
0.7
1070
    48
1040
0.7
1070
    73
1070
     0
1070
    74
1070
     0
1070
    77
1070
     1
1070
    78
1070
     8
1070
   140
1040
3.5
1070
   141
1040
1.5
1070
   146
1040
0.5142857142857144
1070
   147
1040
1.0
1070
   172
1070
     1
1070
   178
1070
     1
1070
   271
1070
     2
1070
   272
1070
     2
1070
   279
1070
     2
1070
   284
1070
     8
1070
   285
1070
     8
1070
   286
1070
     8
1070
   340
1005
24
1002
}
  0
LINE
  5
F90
330
1E
100
AcDbEntity
  8
STEMPEL
100
AcDbLine
 10
207.3000514779319
 20
198.3412840202853
 30
0.0
 11
337.3254369180497
 21
198.3412840202854
 31
0.0
  0
LINE
  5
F91
330
1E
100
AcDbEntity
  8
HILF
100
AcDbLine
 10
209.8203838730778
 20
209.2012048068286
 30
0.0
 11
334.8051045229038
 21
209.2012048068286
 31
0.0
  0
LINE
  5
F92
330
1E
100
AcDbEntity
  8
STEMPEL
100
AcDbLine
 10
115.312744197991
 20
489.8412840202857
 30
0.0
 11
381.6548869734179
 21
489.8412840202861
 31
0.0
  0
ARC
  5
F93
330
1E
100
AcDbEntity
  8
STEMPEL
100
AcDbCircle
 10
243.7306915225714
 20
494.8412840202859
 30
0.0
 40
5.0
100
AcDbArc
 50
270.0
 51
358.9999999999982
  0
HATCH
  5
F94
330
1E
100
AcDbEntity
  8
SCHRAFF
100
AcDbHatch
 10
0.0
 20
0.0
 30
0.0
210
0.0
220
0.0
230
1.0
  2
_U
 70
     0
 71
     0
 91
        6
 92
        7
 72
     1
 73
     1
 93
        6
 10
142.312744197991
 20
504.8412840202861
 42
0.0
 10
142.3127441979909
 20
503.8412840202889
 42
0.0
 10
157.3127441979911
 20
503.8412840202887
 42
0.131652497587392
 10
160.3127441979911
 20
504.6451315975819
 42
0.0
 10
160.3127441979911
 20
505.8412840202863
 42
-0.1622776601683613
 10
157.3127441979915
 20
504.8412840202864
 42
0.0
 97
        0
 92
        7
 72
     1
 73
     1
 93
        6
 10
163.3127441979912
 20
528.8412840202872
 42
0.0
 10
162.3127441979911
 20
528.8412840202873
 42
0.0
 10
162.3127441979911
 20
509.8412840202865
 42
-0.2360679774997897
 10
160.3127441979911
 20
505.8412840202865
 42
0.0
 10
160.3127441979911
 20
504.6451315975797
 42
0.2679491924311254
 10
163.3127441979912
 20
509.8412840202863
 42
0.0
 97
        0
 92
        7
 72
     1
 73
     1
 93
       40
 10
165.2800495762941
 20
579.0183645803357
 42
0.2662608607109159
 10
162.3127441979911
 20
573.8412260529705
 42
0.0
 10
162.3127441979911
 20
568.8412840202873
 42
0.0
 10
163.3127441979912
 20
568.8412840202873
 42
0.0
 10
163.3127441979912
 20
573.8412260529704
 42
-0.2667503951500923
 10
165.793390629864
 20
578.1601214671667
 42
0.0
 10
189.7722445228114
 20
592.14777463335
 42
-0.1340385084115268
 10
192.312744197991
 20
592.8412840202851
 42
0.0
 10
247.0511063703406
 20
592.8412840202854
 42
0.2679491924311331
 10
249.2161698798017
 20
594.0912840202855
 42
-0.2679491924311204
 10
249.6491825816939
 20
594.3412840202856
 42
0.0
 10
249.8491825816941
 20
594.3412840202856
 42
-0.2679491924312903
 10
250.2821952835867
 20
594.0912840202856
 42
0.2679491924311459
 10
252.4472587930478
 20
592.8412840202854
 42
0.0
 10
254.5061063703403
 20
592.8412840202854
 42
0.2679491924311487
 10
256.6711698798015
 20
594.0912840202856
 42
-0.2679491924310494
 10
257.1041825816935
 20
594.3412840202856
 42
0.0
 10
257.304182581694
 20
594.3412840202856
 42
-0.2679491924309788
 10
257.7371952835859
 20
594.0912840202854
 42
0.2679491924311188
 10
259.9022587930469
 20
592.8412840202854
 42
0.0
 10
266.3561063703412
 20
592.8412840202854
 42
0.2679491924310907
 10
268.5211698798021
 20
594.0912840202853
 42
-0.2679491924312511
 10
268.9541825816943
 20
594.3412840202856
 42
0.0
 10
272.3127441979912
 20
594.3412840202854
 42
0.0
 10
272.3127441979912
 20
595.3412840202855
 42
0.0
 10
268.9541825816939
 20
595.3412840202855
 42
0.2679491924310706
 10
267.6551444760175
 20
594.5912840202855
 42
-0.2679491924311248
 10
266.3561063703408
 20
593.8412840202856
 42
0.0
 10
259.9022587930469
 20
593.8412840202856
 42
-0.2679491924310946
 10
258.6032206873705
 20
594.5912840202855
 42
0.285907654623734
 10
257.2041825816945
 20
595.3379469749951
 42
0.2859076546239871
 10
255.8051444760172
 20
594.5912840202855
 42
-0.2679491924311237
 10
254.5061063703405
 20
593.8412840202856
 42
0.0
 10
252.4472587930479
 20
593.8412840202856
 42
-0.2679491924311664
 10
251.148220687371
 20
594.5912840202855
 42
0.2859076546237742
 10
249.7491825816949
 20
595.3379469749951
 42
0.2859076546240356
 10
248.3501444760173
 20
594.5912840202855
 42
-0.2679491924311194
 10
247.0511063703407
 20
593.8412840202856
 42
0.0
 10
192.312744197991
 20
593.841284020285
 42
0.1316524975840433
 10
189.3127441980593
 20
593.0374364430316
 42
0.0
 97
        0
 92
        7
 72
     1
 73
     1
 93
       39
 10
355.3127441979091
 20
593.0374364430397
 42
0.1316524975833739
 10
352.3127441979914
 20
593.841284020286
 42
0.0
 10
297.752258793048
 20
593.8412840202856
 42
-0.2679491924311991
 10
296.4532206873709
 20
594.5912840202855
 42
0.2859076546238128
 10
295.0541825816945
 20
595.3379469749951
 42
0.2859076546238881
 10
293.6551444760178
 20
594.5912840202855
 42
-0.2679491924311304
 10
292.3561063703411
 20
593.8412840202856
 42
0.0
 10
285.9022587930476
 20
593.8412840202856
 42
-0.2679491924311332
 10
284.6032206873708
 20
594.5912840202855
 42
0.2859076546241097
 10
283.2041825816929
 20
595.3379469749951
 42
0.3607372083885869
 10
281.6518138268662
 20
594.2162840202854
 42
-0.3419987131195785
 10
281.1676909085902
 20
593.8412840202856
 42
0.0
 10
280.9789417159908
 20
593.8412840202856
 42
-0.3419987131194884
 10
280.4948187977152
 20
594.2162840202855
 42
0.3419987131196405
 10
279.0424500428874
 20
595.3412840202855
 42
0.0
 10
272.3127441979912
 20
595.3412840202854
 42
0.0
 10
272.3127441979912
 20
594.3412840202854
 42
0.0
 10
279.0424500428875
 20
594.3412840202856
 42
-0.3419987131194818
 10
279.5265729611631
 20
593.9662840202855
 42
0.3596757619904723
 10
281.0733163122904
 20
592.8442558189568
 42
0.359675761990524
 10
282.6200596634178
 20
593.9662840202855
 42
-0.3419987131196628
 10
283.1041825816937
 20
594.3412840202856
 42
0.0
 10
283.304182581694
 20
594.3412840202856
 42
-0.2679491924311947
 10
283.7371952835863
 20
594.0912840202855
 42
0.2679491924311145
 10
285.9022587930474
 20
592.8412840202857
 42
0.0
 10
292.3561063703417
 20
592.8412840202857
 42
0.2679491924310684
 10
294.5211698798023
 20
594.0912840202853
 42
-0.2679491924312787
 10
294.9541825816947
 20
594.3412840202856
 42
0.0
 10
295.1541825816939
 20
594.3412840202856
 42
-0.2679491924313323
 10
295.5871952835867
 20
594.0912840202856
 42
0.2679491924311285
 10
297.7522587930478
 20
592.8412840202857
 42
0.0
 10
352.3127441979914
 20
592.8412840202859
 42
-0.1340385084120632
 10
354.85324387318
 20
592.1477746333448
 42
0.0
 10
378.8320977661185
 20
578.1601214671667
 42
-0.2667503951500853
 10
381.3127441979913
 20
573.8412260529705
 42
0.0
 10
381.3127441979913
 20
568.8412840202873
 42
0.0
 10
382.3127441979914
 20
568.8412840202873
 42
0.0
 10
382.3127441979914
 20
573.8412260529705
 42
0.2662608607118826
 10
379.3454388196697
 20
579.0183645803466
 42
0.0
 97
        0
 92
        7
 72
     1
 73
     1
 93
        9
 10
382.3127441979914
 20
528.8412840202872
 42
0.0
 10
381.3127441979913
 20
528.8412840202873
 42
0.0
 10
381.3127441979913
 20
509.8412840202865
 42
0.4142135623731085
 10
387.3127441979912
 20
503.8412840202861
 42
0.0
 10
390.3127441979912
 20
503.8412840202862
 42
0.0
 10
390.3127441979912
 20
504.8412840202863
 42
0.0
 10
388.3127441979909
 20
504.8412840202864
 42
0.0
 10
387.3127441979913
 20
504.8412840202864
 42
-0.4142135623730885
 10
382.3127441979914
 20
509.8412840202865
 42
0.0
 97
        0
 92
        7
 72
     0
 73
     1
 93
        4
 10
398.3127441979911
 20
504.8412840202861
 10
398.3127441979911
 20
503.8412840202862
 10
402.3127441979911
 20
503.8412840202861
 10
402.3127441979911
 20
504.841284020286
 97
        0
 75
     0
 76
     0
 52
45.0
 41
2.0
 77
     0
 78
     1
 53
45.0
 43
38.66327708587346
 44
101.3741943274406
 45
-1.414213562373094
 46
1.414213562373095
 79
     0
 47
0.3139380610148735
 98
        6
 10
150.847165114422
 20
504.4782606932501
 10
163.0989023859554
 20
527.395738389159
 10
185.4033475654944
 20
590.4972890570372
 10
359.75499867438
 20
590.1833509251648
 10
382.0594469985474
 20
526.1399858616694
 10
399.9658303064018
 20
504.4782606932501
  0
LINE
  5
F95
330
1E
100
AcDbEntity
  8
STEMPEL
100
AcDbLine
 10
192.3127441979911
 20
592.8412840202851
 30
0.0
 11
352.3127441979914
 21
592.8412840202859
 31
0.0
  0
LINE
  5
F96
330
1E
100
AcDbEntity
  8
HILF
100
AcDbLine
 10
374.6390772555218
 20
576.8412840202887
 30
0.0
 11
169.4864111404604
 21
576.8412840202885
 31
0.0
  0
LINE
  5
F97
330
1E
100
AcDbEntity
  8
STEMPEL
100
AcDbLine
 10
142.3127441979909
 20
503.8412840202888
 30
0.0
 11
391.3127441979909
 21
503.8412840202861
 31
0.0
  0
ARC
  5
F98
330
1E
100
AcDbEntity
  8
STEMPEL
100
AcDbCircle
 10
247.0511063703406
 20
595.3412840202855
 30
0.0
 40
2.5
100
AcDbArc
 50
270.0
 51
329.9999999999995
  0
ARC
  5
F99
330
1E
100
AcDbEntity
  8
STEMPEL
100
AcDbCircle
 10
249.649182581694
 20
593.8412840202856
 30
0.0
 40
1.5
100
AcDbArc
 50
90.0
 51
149.9999999999994
  0
DIMENSION
  5
F9D
330
1E
100
AcDbEntity
  8
BEM
100
AcDbDimension
  2
*D6
 10
382.3127441979914
 20
601.9219305962924
 30
0.0
 11
272.3127441979912
 21
607.4219305962924
 31
0.0
 70
    32
  1
%%c<>
 71
     5
 42
220.0000000000002
  3
Standard
100
AcDbAlignedDimension
 13
162.3127441979911
 23
573.8412260529704
 33
0.0
 14
382.3127441979914
 24
573.8412260529704
 34
0.0
100
AcDbRotatedDimension
1001
ACAD
1000
DSTYLE
1002
{
1070
    40
1040
2.0
1070
    41
1040
3.5
1070
    42
1040
1.0
1070
    43
1040
7.0
1070
    44
1040
1.0
1070
    47
1040
2.399999999999999
1070
    48
1040
2.399999999999999
1070
    73
1070
     0
1070
    74
1070
     0
1070
    77
1070
     1
1070
    78
1070
     8
1070
   140
1040
3.5
1070
   141
1040
1.5
1070
   145
1040
0.5714285714285714
1070
   147
1040
1.0
1070
   172
1070
     1
1070
   178
1070
     1
1070
   271
1070
     1
1070
   272
1070
     1
1070
   279
1070
     1
1070
   284
1070
     8
1070
   285
1070
     8
1070
   286
1070
     8
1070
   340
1005
24
1002
}
  0
HATCH
  5
F9E
330
1E
100
AcDbEntity
  8
SCHRAFF
100
AcDbHatch
 10
0.0
 20
0.0
 30
0.0
210
0.0
220
0.0
230
1.0
  2
_USER
 70
     0
 71
     0
 91
        7
 92
        7
 72
     1
 73
     1
 93
       10
 10
381.6548869734179
 20
489.8412840202861
 42
0.0
 10
369.312744197991
 20
489.8412840202861
 42
0.0175906946879192
 10
369.1018517135227
 20
489.8338622331311
 42
0.0
 10
369.1018517135227
 20
483.8487058074407
 42
0.0175906946879065
 10
369.3127441979909
 20
483.8412840202856
 42
0.0
 10
391.3127441979907
 20
483.8412840202856
 42
0.0
 10
391.3127441979925
 20
497.0912840202863
 42
0.0
 10
391.3127441979908
 20
503.8412840202861
 42
0.0
 10
386.812744197991
 20
503.8412840202861
 42
0.0
 10
386.6541254491998
 20
494.7540219881
 42
-0.4091108014277268
 97
        0
 92
        7
 72
     1
 73
     1
 93
        8
 10
401.9713629467826
 20
494.7540219880997
 42
0.0
 10
401.8127441979912
 20
503.8412840202861
 42
0.0
 10
397.3127441979916
 20
503.8412840202861
 42
0.0
 10
397.3127441979932
 20
497.0912840202863
 42
0.0
 10
397.3127441979923
 20
483.8412840202856
 42
0.0
 10
429.312744197991
 20
483.8412840202856
 42
1.0
 10
429.312744197991
 20
489.8412840202861
 42
0.0
 10
406.9706014225646
 20
489.841284020286
 42
-0.4091108014277239
 97
        0
 92
        7
 72
     1
 73
     1
 93
        2
 10
369.1018517135227
 20
483.8487058074407
 42
0.0
 10
369.1018517135227
 20
489.8338622331308
 42
0.9320082274074453
 97
        0
 92
        7
 72
     1
 73
     1
 93
        4
 10
175.3127441979911
 20
483.8412840202857
 42
1.0
 10
175.3127441979911
 20
489.8412840202858
 42
0.0
 10
152.3127441979911
 20
489.8412840202858
 42
0.0
 10
152.3127441979911
 20
483.8412840202858
 42
0.0
 97
        0
 92
        7
 72
     1
 73
     1
 93
        4
 10
115.312744197991
 20
489.8412840202857
 42
1.0
 10
115.312744197991
 20
483.8412840202858
 42
0.0
 10
138.3127441979911
 20
483.8412840202858
 42
0.0
 10
138.3127441979911
 20
489.8412840202858
 42
0.0
 97
        0
 92
        7
 72
     0
 73
     1
 93
        4
 10
397.3127441979932
 20
497.091284020287
 10
396.6627441979927
 20
496.4412840202864
 10
396.6627441979915
 20
483.8412840202856
 10
397.3127441979923
 20
483.8412840202857
 97
        0
 92
        7
 72
     0
 73
     1
 93
        4
 10
391.3127441979906
 20
483.8412840202856
 10
391.9627441979915
 20
483.8412840202856
 10
391.9627441979932
 20
496.4412840202853
 10
391.3127441979925
 20
497.0912840202863
 97
        0
 75
     0
 76
     0
 52
135.0
 41
5.0
 77
     0
 78
     1
 53
135.0
 43
38.66327708587346
 44
101.3741943274406
 45
-3.535533905932737
 46
-3.535533905932737
 79
     0
 47
0.0632476346549042
 98
        7
 10
384.4117324967963
 20
488.3704193625442
 10
406.5574995123827
 20
486.9272238440289
 10
367.5616907769192
 20
486.9272238440289
 10
164.398346103813
 20
486.4461582049643
 10
134.0682753676676
 20
486.9272238440289
 10
397.1293407093097
 20
493.4120227304243
 10
391.4960381267208
 20
493.348775892626
  0
HATCH
  5
F9F
330
1E
100
AcDbEntity
  8
SCHRAFF
100
AcDbHatch
 10
0.0
 20
0.0
 30
0.0
210
0.0
220
0.0
230
1.0
  2
_USER
 70
     0
 71
     0
 91
        2
 92
        7
 72
     1
 73
     1
 93
        4
 10
194.8797226341005
 20
460.414754518373
 42
0.0
 10
194.0382118521553
 20
459.8745141978955
 42
0.0
 10
193.1024881687908
 20
461.3320536273417
 42
0.7673269879789756
 10
195.9602032750559
 20
458.7317329544823
 42
0.0
 97
        0
 92
        7
 72
     1
 73
     1
 93
        4
 10
351.5230002271916
 20
461.3320536273417
 42
0.0
 10
350.5872765438269
 20
459.8745141978954
 42
0.0
 10
349.7457657618818
 20
460.4147545183731
 42
0.0
 10
348.6652851209263
 20
458.7317329544823
 42
0.7673269879790372
 97
        0
 75
     0
 76
     0
 52
45.0
 41
0.1
 77
     0
 78
     1
 53
45.0
 43
38.66327708587358
 44
36.11749446951012
 45
-0.0707106781186548
 46
0.0707106781186548
 79
     0
 47
0.4024564740976492
 98
        2
 10
195.3595781369148
 20
459.0838267379049
 10
350.0037000969117
 20
459.0838267379049
  0
LINE
  5
FA0
330
1E
100
AcDbEntity
  8
STEMPEL
100
AcDbLine
 10
196.5627441979912
 20
461.4952351593283
 30
0.0
 11
348.0627441979913
 21
461.4952351593283
 31
0.0
  0
LINE
  5
FA1
330
1E
100
AcDbEntity
  8
HILF
100
AcDbLine
 10
209.66977597379
 20
443.9122402257744
 30
0.0
 11
334.9557124221923
 21
443.9122402257742
 31
0.0
  0
HATCH
  5
FA2
330
1E
100
AcDbEntity
  8
SCHRAFF
100
AcDbHatch
 10
0.0
 20
0.0
 30
0.0
210
0.0
220
0.0
230
1.0
  2
_USER
 70
     0
 71
     1
 91
        2
 92
        7
 72
     1
 73
     1
 93
       12
 10
182.4696711595867
 20
475.3412840202858
 42
-0.2553615373329089
 10
184.9942035054227
 20
473.9620049817187
 42
0.0
 10
194.0382118521553
 20
459.8745141978954
 42
0.0
 10
196.5627441979912
 20
461.4952351593283
 42
0.0
 10
187.5187358512586
 20
475.5827259431517
 42
0.2553615373328983
 10
182.4696711595867
 20
478.3412840202855
 42
0.0
 10
113.6767052286703
 20
478.3412840202857
 42
0.1989123673796679
 10
109.4340645415507
 20
476.5839247074052
 42
0.0
 10
107.3127441979911
 20
474.4626043638454
 42
0.0
 10
109.4340645415506
 20
472.3412840202857
 42
0.0
 10
111.5553848851107
 20
474.4626043638454
 42
-0.1989123673796555
 10
113.6767052286703
 20
475.3412840202858
 42
0.0
 97
       12
330
F87
330
F72
330
F76
330
F75
330
F70
330
F71
330
F7E
330
F6B
330
F19
330
F18
330
F1A
330
F6C
 92
        7
 72
     1
 73
     1
 93
       12
 10
430.9487831673118
 20
475.3412840202858
 42
-0.1989123673796481
 10
433.0701035108713
 20
474.4626043638454
 42
0.0
 10
435.1914238544314
 20
472.3412840202857
 42
0.0
 10
437.3127441979909
 20
474.4626043638454
 42
0.0
 10
435.1914238544313
 20
476.5839247074052
 42
0.1989123673796358
 10
430.9487831673122
 20
478.3412840202849
 42
0.0
 10
362.1558172363956
 20
478.3412840202851
 42
0.2553615373329166
 10
357.1067525447234
 20
475.582725943151
 42
0.0
 10
348.0627441979911
 20
461.4952351593282
 42
0.0
 10
350.5872765438271
 20
459.8745141978954
 42
0.0
 10
359.6312848905597
 20
473.9620049817188
 42
-0.2553615373329009
 10
362.1558172363956
 20
475.3412840202858
 42
0.0
 97
       12
330
E00
330
F87
330
E89
330
E8F
330
E8A
330
E8C
330
E88
330
ECB
330
DFE
330
DFF
330
DFC
330
DFD
 75
     0
 76
     0
 52
45.0
 41
2.0
 77
     0
 78
     1
 53
45.0
 43
38.66327708587346
 44
101.3741943274406
 45
-1.414213562373094
 46
1.414213562373095
 79
     0
 47
0.5802597139239696
 98
        2
 10
170.7360420382995
 20
476.7103400548112
 10
373.963943723744
 20
476.130080659545
  0
LINE
  5
1043
330
1E
100
AcDbEntity
  8
TEXT
 62
     2
100
AcDbLine
 10
332.3535459720956
 20
618.6000535079633
 30
0.0
 11
346.738897908344
 21
671.9422053173373
 31
0.0
  0
TEXT
  5
1044
330
1E
100
AcDbEntity
  8
TEXT
 62
     1
100
AcDbText
 10
348.0902670565202
 20
675.1048669479688
 30
0.0
 40
7.0
  1
Siebkorb
 41
0.8
  7
GREEKS
100
AcDbText
  0
LINE
  5
1045
330
1E
100
AcDbEntity
  8
TEXT
 62
     2
100
AcDbLine
 10
346.738897908344
 20
671.9422053173373
 30
0.0
 11
455.042502632856
 21
671.9422053173373
 31
0.0
  0
TEXT
  5
1046
330
1E
100
AcDbEntity
  8
TEXT
 62
     1
100
AcDbText
 10
348.0902670565202
 20
661.4285264302333
 30
0.0
 40
7.0
  1
EDV-Art.Nr. 21004.000X
 41
0.8
  7
GREEKS
100
AcDbText
  0
LINE
  5
1047
330
1E
100
AcDbEntity
  8
TEXT
 62
     2
100
AcDbLine
 10
328.7796437548981
 20
605.3477093549337
 30
0.0
 11
331.070631569822
 21
613.8428939259254
 31
0.0
  0
LINE
  5
1048
330
1E
100
AcDbEntity
  8
TEXT
 62
     2
100
AcDbLine
 10
325.4394181125797
 20
592.96185852002
 30
0.0
 11
327.3885892399043
 21
600.1895567116926
 31
0.0
  0
HATCH
  5
109F
330
1E
100
AcDbEntity
  8
SCHRAFF
100
AcDbHatch
 10
0.0
 20
0.0
 30
0.0
210
0.0
220
0.0
230
1.0
  2
_USER
 70
     0
 71
     0
 91
        2
 92
        7
 72
     1
 73
     1
 93
       10
 10
207.8127441979912
 20
442.504719275421
 42
0.14365683636498
 10
207.0202981077179
 20
445.2059208778094
 42
0.0
 10
196.5627441979912
 20
461.4952351593283
 42
0.0
 10
194.8797226341006
 20
460.4147545183731
 42
0.0
 10
205.3372765438272
 20
444.125440236854
 42
-0.1436568363649654
 10
205.8127441979912
 20
442.5047192754211
 42
0.0
 10
205.8127441979911
 20
209.2012048068299
 42
0.0
 10
207.3000514779319
 20
198.3412840202852
 42
0.0
 10
209.3076911530186
 20
198.3412840202853
 42
0.0
 10
207.8127441979913
 20
209.2885266926453
 42
0.0
 97
        0
 92
        7
 72
     1
 73
     1
 93
       10
 10
338.8127441979912
 20
442.504719275421
 42
-0.1436568363649849
 10
339.2882118521553
 20
444.125440236854
 42
0.0
 10
349.7457657618816
 20
460.414754518373
 42
0.0
 10
348.0627441979911
 20
461.4952351593282
 42
0.0
 10
337.6051902882647
 20
445.2059208778093
 42
0.1436568363649897
 10
336.8127441979909
 20
442.5047192754208
 42
0.0
 10
336.812744197991
 20
209.2885266926507
 42
0.0
 10
335.3177972429631
 20
198.3412840202854
 42
0.0
 10
337.3254369180497
 20
198.3412840202854
 42
0.0
 10
338.8127441979912
 20
209.2012048068359
 42
0.0
 97
        0
 75
     0
 76
     0
 52
135.0
 41
2.0
 77
     0
 78
     1
 53
135.0
 43
23.94325556141939
 44
0.0
 45
-1.414213562373095
 46
-1.414213562373094
 79
     0
 47
0.4760146509441011
 98
        2
 10
207.4171832450329
 20
331.6345994891851
 10
338.3922159966492
 20
341.6309084068459
  0
HATCH
  5
11E3
330
1E
100
AcDbEntity
  8
SCHRAFF
100
AcDbHatch
 10
0.0
 20
0.0
 30
0.0
210
0.0
220
0.0
230
1.0
  2
NET
 70
     0
 71
     0
 91
        4
 92
        7
 72
     0
 73
     1
 93
        4
 10
369.1018517135227
 20
481.3412840202857
 10
369.1018517135228
 20
478.3412840202852
 10
437.312744197991
 20
478.341284020285
 10
437.3127441979911
 20
481.3412840202857
 97
        0
 92
        7
 72
     0
 73
     1
 93
        4
 10
367.312744197991
 20
478.3412840202851
 10
369.1018517135227
 20
478.3412840202851
 10
369.1018517135228
 20
481.3412840202857
 10
367.312744197991
 20
481.3412840202857
 97
        0
 92
        7
 72
     0
 73
     1
 93
        4
 10
177.3127441979911
 20
478.3412840202855
 10
177.3127441979911
 20
481.3412840202858
 10
152.3127441979911
 20
481.3412840202858
 10
152.3127441979911
 20
478.3412840202856
 97
        0
 92
        7
 72
     0
 73
     1
 93
        4
 10
138.3127441979911
 20
478.3412840202855
 10
138.3127441979911
 20
481.3412840202857
 10
107.312744197991
 20
481.3412840202858
 10
107.312744197991
 20
478.3412840202857
 97
        0
 75
     0
 76
     1
 52
45.0
 41
15.0
 77
     0
 78
     2
 53
45.0
 43
23.94325556141939
 44
0.0
 45
-1.325825214724776
 46
1.325825214724776
 79
     0
 53
135.0
 43
23.94325556141939
 44
0.0
 45
-1.325825214724776
 46
-1.325825214724776
 79
     0
 47
0.3489321173021789
 98
        4
 10
407.6975451469921
 20
480.4457029965081
 10
367.5567354171494
 20
480.0967708824784
 10
160.5697780250516
 20
479.3989066544188
 10
130.5514351470533
 20
479.3989066544188
  0
LINE
  5
11E4
330
1E
100
AcDbEntity
  8
STEMPEL
100
AcDbLine
 10
138.3127441979911
 20
481.3412840202858
 30
0.0
 11
138.3127441979911
 21
478.3412840202855
 31
0.0
  0
LINE
  5
11E5
330
1E
100
AcDbEntity
  8
STEMPEL
100
AcDbLine
 10
152.3127441979911
 20
481.3412840202858
 30
0.0
 11
152.3127441979911
 21
478.3412840202854
 31
0.0
  0
TEXT
  5
1203
330
1E
100
AcDbEntity
  8
VOLL
100
AcDbText
 10
185.8616596474488
 20
467.5247957289412
 30
0.0
 40
1.8
  1

  7
GREEKS
100
AcDbText
  0
ARC
  5
1219
330
1E
100
AcDbEntity
  8
STEMPEL
100
AcDbCircle
 10
369.1018517135228
 20
469.5303948878312
 30
0.0
 40
30.31088913245485
100
AcDbArc
 50
81.78678929826221
 51
98.2132107017378
  0
ARC
  5
121A
330
1E
100
AcDbEntity
  8
STEMPEL
100
AcDbCircle
 10
362.6066611851395
 20
492.1469783125017
 30
0.0
 40
7.694305707784447
100
AcDbArc
 50
73.65710669401501
 51
106.342893305985
  0
ARC
  5
121B
330
1E
100
AcDbEntity
  8
STEMPEL
100
AcDbCircle
 10
375.597042241906
 20
492.1469783125017
 30
0.0
 40
7.694305707784447
100
AcDbArc
 50
73.65710669401501
 51
106.342893305985
  0
ARC
  5
121C
330
1E
100
AcDbEntity
  8
HILF
100
AcDbCircle
 10
369.1018517135228
 20
469.9428229726249
 30
0.0
 40
22.41111549782308
100
AcDbArc
 50
78.85962783890537
 51
101.1403721610946
  0
ARC
  5
121D
330
1E
100
AcDbEntity
  8
HILF
100
AcDbCircle
 10
375.597042241906
 20
486.5927978707564
 30
0.0
 40
5.761140599691502
100
AcDbArc
 50
67.92594526326206
 51
112.0740547367379
  0
ARC
  5
121E
330
1E
100
AcDbEntity
  8
HILF
100
AcDbCircle
 10
362.6066611851395
 20
486.5927978707564
 30
0.0
 40
5.761140599691502
100
AcDbArc
 50
67.92594526326206
 51
112.0740547367379
  0
POINT
  5
121F
330
1E
100
AcDbEntity
  8
0
100
AcDbPoint
 10
369.1018517135228
 20
489.8412840202861
 30
0.0
210
0.0000000000000001
220
1.0
230
0.0
  0
LINE
  5
1220
330
1E
100
AcDbEntity
  8
STEMPEL
100
AcDbLine
 10
361.6018517135228
 20
499.8412840202861
 30
0.0
 11
376.6018517135228
 21
499.8412840202861
 31
0.0
  0
LINE
  5
1221
330
1E
100
AcDbEntity
  8
STEMPEL
100
AcDbLine
 10
377.7621057513671
 20
491.931640536486
 30
0.0
 11
377.7621057513671
 21
499.5303948878308
 31
0.0
  0
LINE
  5
1222
330
1E
100
AcDbEntity
  8
STEMPEL
100
AcDbLine
 10
373.431978732445
 20
491.931640536486
 30
0.0
 11
373.431978732445
 21
499.5303948878308
 31
0.0
  0
LINE
  5
1223
330
1E
100
AcDbEntity
  8
STEMPEL
100
AcDbLine
 10
364.7717246946006
 20
491.931640536486
 30
0.0
 11
364.7717246946006
 21
499.5303948878308
 31
0.0
  0
LINE
  5
1224
330
1E
100
AcDbEntity
  8
STEMPEL
100
AcDbLine
 10
379.508366821017
 20
491.2960534858755
 30
0.0
 11
358.6953366060285
 21
491.2960534858755
 31
0.0
  0
LINE
  5
1225
330
1E
100
AcDbEntity
  8
STEMPEL
100
AcDbLine
 10
379.2518517135228
 20
489.8412840202861
 30
0.0
 11
358.9518517135228
 21
489.8412840202861
 31
0.0
  0
LINE
  5
1226
330
1E
100
AcDbEntity
  8
STEMPEL
100
AcDbLine
 10
360.4415976756784
 20
491.931640536486
 30
0.0
 11
360.4415976756784
 21
499.5303948878308
 31
0.0
  0
LINE
  5
1227
330
1E
100
AcDbEntity
  8
STEMPEL
100
AcDbLine
 10
361.6018517135228
 20
499.8412840202861
 30
0.0
 11
360.4415976756784
 21
499.5303948878308
 31
0.0
  0
LINE
  5
1228
330
1E
100
AcDbEntity
  8
STEMPEL
100
AcDbLine
 10
377.7621057513671
 20
499.5303948878308
 30
0.0
 11
376.6018517135228
 21
499.8412840202861
 31
0.0
  0
LINE
  5
1229
330
1E
100
AcDbEntity
  8
STEMPEL
100
AcDbLine
 10
379.508366821017
 20
491.2960534858755
 30
0.0
 11
377.7621057513671
 21
491.931640536486
 31
0.0
  0
LINE
  5
122A
330
1E
100
AcDbEntity
  8
STEMPEL
100
AcDbLine
 10
360.4415976756784
 20
491.931640536486
 30
0.0
 11
358.6953366060285
 21
491.2960534858755
 31
0.0
  0
ARC
  5
122B
330
1E
100
AcDbEntity
  8
STEMPEL
100
AcDbCircle
 10
358.9518517135228
 20
490.5912840202861
 30
0.0
 40
0.7500000000000013
100
AcDbArc
 50
109.9999999999995
 51
269.9999991462263
  0
ARC
  5
122C
330
1E
100
AcDbEntity
  8
STEMPEL
100
AcDbCircle
 10
379.2518517135228
 20
490.5912840202861
 30
0.0
 40
0.750000000000001
100
AcDbArc
 50
269.9999991462263
 51
70.00000000000047
  0
ARC
  5
122D
330
1E
100
AcDbEntity
  8
STEMPEL
100
AcDbCircle
 10
208.812744197991
 20
469.5303948878311
 30
0.0
 40
30.31088913245485
100
AcDbArc
 50
81.78678929826221
 51
98.2132107017378
  0
ARC
  5
122E
330
1E
100
AcDbEntity
  8
STEMPEL
100
AcDbCircle
 10
202.3175536696077
 20
492.1469783125014
 30
0.0
 40
7.694305707784447
100
AcDbArc
 50
73.65710669401501
 51
106.342893305985
  0
ARC
  5
122F
330
1E
100
AcDbEntity
  8
STEMPEL
100
AcDbCircle
 10
215.3079347263743
 20
492.1469783125014
 30
0.0
 40
7.694305707784447
100
AcDbArc
 50
73.65710669401501
 51
106.342893305985
  0
ARC
  5
1230
330
1E
100
AcDbEntity
  8
HILF
100
AcDbCircle
 10
208.812744197991
 20
469.9428229726247
 30
0.0
 40
22.41111549782308
100
AcDbArc
 50
78.85962783890537
 51
101.1403721610946
  0
ARC
  5
1231
330
1E
100
AcDbEntity
  8
HILF
100
AcDbCircle
 10
215.3079347263743
 20
486.5927978707563
 30
0.0
 40
5.761140599691502
100
AcDbArc
 50
67.92594526326206
 51
112.0740547367379
  0
ARC
  5
1232
330
1E
100
AcDbEntity
  8
HILF
100
AcDbCircle
 10
202.3175536696077
 20
486.5927978707563
 30
0.0
 40
5.761140599691502
100
AcDbArc
 50
67.92594526326206
 51
112.0740547367379
  0
POINT
  5
1233
330
1E
100
AcDbEntity
  8
0
100
AcDbPoint
 10
208.812744197991
 20
489.8412840202858
 30
0.0
210
0.0000000000000001
220
1.0
230
0.0
  0
LINE
  5
1234
330
1E
100
AcDbEntity
  8
STEMPEL
100
AcDbLine
 10
201.312744197991
 20
499.8412840202859
 30
0.0
 11
216.312744197991
 21
499.8412840202859
 31
0.0
  0
LINE
  5
1235
330
1E
100
AcDbEntity
  8
STEMPEL
100
AcDbLine
 10
217.4729982358354
 20
491.9316405364857
 30
0.0
 11
217.4729982358354
 21
499.5303948878305
 31
0.0
  0
LINE
  5
1236
330
1E
100
AcDbEntity
  8
STEMPEL
100
AcDbLine
 10
213.1428712169132
 20
491.9316405364857
 30
0.0
 11
213.1428712169132
 21
499.5303948878305
 31
0.0
  0
LINE
  5
1237
330
1E
100
AcDbEntity
  8
STEMPEL
100
AcDbLine
 10
204.4826171790688
 20
491.9316405364857
 30
0.0
 11
204.4826171790688
 21
499.5303948878305
 31
0.0
  0
LINE
  5
1238
330
1E
100
AcDbEntity
  8
STEMPEL
100
AcDbLine
 10
219.2192593054853
 20
491.2960534858753
 30
0.0
 11
198.4062290904967
 21
491.2960534858753
 31
0.0
  0
LINE
  5
1239
330
1E
100
AcDbEntity
  8
STEMPEL
100
AcDbLine
 10
218.962744197991
 20
489.8412840202858
 30
0.0
 11
198.662744197991
 21
489.8412840202858
 31
0.0
  0
LINE
  5
123A
330
1E
100
AcDbEntity
  8
STEMPEL
100
AcDbLine
 10
200.1524901601466
 20
491.9316405364857
 30
0.0
 11
200.1524901601466
 21
499.5303948878305
 31
0.0
  0
LINE
  5
123B
330
1E
100
AcDbEntity
  8
STEMPEL
100
AcDbLine
 10
201.312744197991
 20
499.8412840202859
 30
0.0
 11
200.1524901601466
 21
499.5303948878305
 31
0.0
  0
LINE
  5
123C
330
1E
100
AcDbEntity
  8
STEMPEL
100
AcDbLine
 10
217.4729982358354
 20
499.5303948878305
 30
0.0
 11
216.312744197991
 21
499.8412840202859
 31
0.0
  0
LINE
  5
123D
330
1E
100
AcDbEntity
  8
STEMPEL
100
AcDbLine
 10
219.2192593054853
 20
491.2960534858753
 30
0.0
 11
217.4729982358354
 21
491.9316405364857
 31
0.0
  0
LINE
  5
123E
330
1E
100
AcDbEntity
  8
STEMPEL
100
AcDbLine
 10
200.1524901601466
 20
491.9316405364857
 30
0.0
 11
198.4062290904967
 21
491.2960534858753
 31
0.0
  0
ARC
  5
123F
330
1E
100
AcDbEntity
  8
STEMPEL
100
AcDbCircle
 10
198.662744197991
 20
490.5912840202859
 30
0.0
 40
0.7500000000000013
100
AcDbArc
 50
109.9999999999995
 51
269.9999991462263
  0
ARC
  5
1240
330
1E
100
AcDbEntity
  8
STEMPEL
100
AcDbCircle
 10
218.962744197991
 20
490.5912840202859
 30
0.0
 40
0.750000000000001
100
AcDbArc
 50
269.9999991462263
 51
70.00000000000047
  0
ARC
  5
1241
330
1E
100
AcDbEntity
  8
STEMPEL
100
AcDbCircle
 10
145.3127441979911
 20
469.530394887831
 30
0.0
 40
30.31088913245485
100
AcDbArc
 50
81.78678929826221
 51
98.2132107017378
  0
ARC
  5
1242
330
1E
100
AcDbEntity
  8
STEMPEL
100
AcDbCircle
 10
138.8175536696079
 20
492.1469783125013
 30
0.0
 40
7.694305707784447
100
AcDbArc
 50
73.65710669401501
 51
106.342893305985
  0
ARC
  5
1243
330
1E
100
AcDbEntity
  8
STEMPEL
100
AcDbCircle
 10
151.8079347263744
 20
492.1469783125013
 30
0.0
 40
7.694305707784447
100
AcDbArc
 50
73.65710669401501
 51
106.342893305985
  0
ARC
  5
1244
330
1E
100
AcDbEntity
  8
HILF
100
AcDbCircle
 10
145.3127441979911
 20
469.9428229726246
 30
0.0
 40
22.41111549782308
100
AcDbArc
 50
78.85962783890537
 51
101.1403721610946
  0
ARC
  5
1245
330
1E
100
AcDbEntity
  8
HILF
100
AcDbCircle
 10
151.8079347263744
 20
486.5927978707562
 30
0.0
 40
5.761140599691502
100
AcDbArc
 50
67.92594526326206
 51
112.0740547367379
  0
ARC
  5
1246
330
1E
100
AcDbEntity
  8
HILF
100
AcDbCircle
 10
138.8175536696078
 20
486.5927978707562
 30
0.0
 40
5.761140599691502
100
AcDbArc
 50
67.92594526326206
 51
112.0740547367379
  0
POINT
  5
1247
330
1E
100
AcDbEntity
  8
0
100
AcDbPoint
 10
145.3127441979911
 20
489.8412840202858
 30
0.0
210
0.0000000000000001
220
1.0
230
0.0
  0
LINE
  5
1248
330
1E
100
AcDbEntity
  8
STEMPEL
100
AcDbLine
 10
137.8127441979912
 20
499.8412840202858
 30
0.0
 11
152.8127441979911
 21
499.8412840202858
 31
0.0
  0
LINE
  5
1249
330
1E
100
AcDbEntity
  8
STEMPEL
100
AcDbLine
 10
153.9729982358355
 20
491.9316405364857
 30
0.0
 11
153.9729982358355
 21
499.5303948878304
 31
0.0
  0
LINE
  5
124A
330
1E
100
AcDbEntity
  8
STEMPEL
100
AcDbLine
 10
149.6428712169134
 20
491.9316405364857
 30
0.0
 11
149.6428712169134
 21
499.5303948878304
 31
0.0
  0
LINE
  5
124B
330
1E
100
AcDbEntity
  8
STEMPEL
100
AcDbLine
 10
140.9826171790689
 20
491.9316405364857
 30
0.0
 11
140.9826171790689
 21
499.5303948878304
 31
0.0
  0
LINE
  5
124C
330
1E
100
AcDbEntity
  8
STEMPEL
100
AcDbLine
 10
155.7192593054854
 20
491.2960534858752
 30
0.0
 11
134.9062290904969
 21
491.2960534858752
 31
0.0
  0
LINE
  5
124D
330
1E
100
AcDbEntity
  8
STEMPEL
100
AcDbLine
 10
155.4627441979911
 20
489.8412840202858
 30
0.0
 11
135.1627441979911
 21
489.8412840202858
 31
0.0
  0
LINE
  5
124E
330
1E
100
AcDbEntity
  8
STEMPEL
100
AcDbLine
 10
136.6524901601468
 20
491.9316405364857
 30
0.0
 11
136.6524901601468
 21
499.5303948878304
 31
0.0
  0
LINE
  5
124F
330
1E
100
AcDbEntity
  8
STEMPEL
100
AcDbLine
 10
137.8127441979912
 20
499.8412840202858
 30
0.0
 11
136.6524901601468
 21
499.5303948878304
 31
0.0
  0
LINE
  5
1250
330
1E
100
AcDbEntity
  8
STEMPEL
100
AcDbLine
 10
153.9729982358355
 20
499.5303948878304
 30
0.0
 11
152.8127441979911
 21
499.8412840202858
 31
0.0
  0
LINE
  5
1251
330
1E
100
AcDbEntity
  8
STEMPEL
100
AcDbLine
 10
155.7192593054854
 20
491.2960534858752
 30
0.0
 11
153.9729982358355
 21
491.9316405364857
 31
0.0
  0
LINE
  5
1252
330
1E
100
AcDbEntity
  8
STEMPEL
100
AcDbLine
 10
136.6524901601468
 20
491.9316405364857
 30
0.0
 11
134.9062290904969
 21
491.2960534858752
 31
0.0
  0
ARC
  5
1253
330
1E
100
AcDbEntity
  8
STEMPEL
100
AcDbCircle
 10
135.1627441979911
 20
490.5912840202858
 30
0.0
 40
0.7500000000000013
100
AcDbArc
 50
109.9999999999995
 51
269.9999991462263
  0
ARC
  5
1254
330
1E
100
AcDbEntity
  8
STEMPEL
100
AcDbCircle
 10
155.4627441979911
 20
490.5912840202858
 30
0.0
 40
0.750000000000001
100
AcDbArc
 50
269.9999991462263
 51
70.00000000000047
  0
ENDSEC
  0
SECTION
  2
OBJECTS
  0
DICTIONARY
  5
C
330
0
100
AcDbDictionary
281
     1
  3
ACAD_COLOR
350
11A
  3
ACAD_GROUP
350
D
  3
ACAD_LAYOUT
350
19
  3
ACAD_MATERIAL
350
119
  3
ACAD_MLINESTYLE
350
16
  3
ACAD_PLOTSETTINGS
350
18
  3
ACAD_PLOTSTYLENAME
350
E
  3
AcDbVariableDictionary
350
125
  0
DICTIONARY
  5
DB
330
1E
100
AcDbDictionary
280
     1
281
     1
  3
ACAD_LAYOUTSELFREF
360
10F
  0
DICTIONARY
  5
DD
330
1A
100
AcDbDictionary
280
     1
281
     1
  3
ACAD_LAYOUTSELFREF
360
10E
  0
DICTIONARY
  5
11A
102
{ACAD_REACTORS
330
C
102
}
330
C
100
AcDbDictionary
281
     1
  0
DICTIONARY
  5
D
102
{ACAD_REACTORS
330
C
102
}
330
C
100
AcDbDictionary
281
     1
  0
DICTIONARY
  5
19
102
{ACAD_REACTORS
330
C
102
}
330
C
100
AcDbDictionary
281
     1
  3
Layout1
350
1D
  3
Model
350
21
  0
DICTIONARY
  5
119
102
{ACAD_REACTORS
330
C
102
}
330
C
100
AcDbDictionary
281
     1
  0
DICTIONARY
  5
16
102
{ACAD_REACTORS
330
C
102
}
330
C
100
AcDbDictionary
281
     1
  3
Standard
350
17
  0
DICTIONARY
  5
18
102
{ACAD_REACTORS
330
C
102
}
330
C
100
AcDbDictionary
281
     1
  0
ACDBDICTIONARYWDFLT
  5
E
102
{ACAD_REACTORS
330
C
102
}
330
C
100
AcDbDictionary
281
     1
  3
Normal
350
F
100
AcDbDictionaryWithDefault
340
F
  0
DICTIONARY
  5
125
102
{ACAD_REACTORS
330
C
102
}
330
C
100
AcDbDictionary
281
     1
  3
DIMASSOC
350
126
  3
PROJECTNAME
350
127
  0
XRECORD
  5
10F
102
{ACAD_REACTORS
330
DB
102
}
330
DB
100
AcDbXrecord
280
     1
340
1E
  0
XRECORD
  5
10E
102
{ACAD_REACTORS
330
DD
102
}
330
DD
100
AcDbXrecord
280
     1
340
1A
  0
LAYOUT
  5
1D
102
{ACAD_REACTORS
330
19
102
}
330
19
100
AcDbPlotSettings
  1

  2
\\NT_WORK01\HP LaserJet 5000 PCL 6
  4

  6

 40
0.0
 41
0.0
 42
0.0
 43
0.0
 44
0.0
 45
0.0
 46
0.0
 47
0.0
 48
0.0
 49
0.0
140
0.0
141
0.0
142
1.0
143
1.0
 70
   688
 72
     0
 73
     0
 74
     5
  7

 75
    16
147
1.0
 76
     0
 77
     2
 78
   300
148
0.0
149
0.0
100
AcDbLayout
  1
Layout1
 70
     0
 71
     1
 10
0.0
 20
0.0
 11
12.0
 21
9.0
 12
0.0
 22
0.0
 32
0.0
 14
1.000000000000000E+20
 24
1.000000000000000E+20
 34
1.000000000000000E+20
 15
-1.000000000000000E+20
 25
-1.000000000000000E+20
 35
-1.000000000000000E+20
146
0.0
 13
0.0
 23
0.0
 33
0.0
 16
1.0
 26
0.0
 36
0.0
 17
0.0
 27
1.0
 37
0.0
 76
     0
330
1A
  0
LAYOUT
  5
21
102
{ACAD_REACTORS
330
19
102
}
330
19
100
AcDbPlotSettings
  1

  2
none_device
  4
Letter_(8.50_x_11.00_Inches)
  6

 40
6.349999904632568
 41
6.349999904632568
 42
6.350006103515625
 43
6.350006103515625
 44
215.8999938964844
 45
279.3999938964844
 46
0.0
 47
0.0
 48
0.0
 49
0.0
140
0.0
141
0.0
142
1.0
143
1.0
 70
 11952
 72
     0
 73
     1
 74
     0
  7

 75
     0
147
1.0
 76
     0
 77
     2
 78
   300
148
3124.2
149
0.0
100
AcDbLayout
  1
Model
 70
     1
 71
     0
 10
0.0
 20
0.0
 11
12.0
 21
9.0
 12
0.0
 22
0.0
 32
0.0
 14
0.0
 24
0.0
 34
0.0
 15
0.0
 25
0.0
 35
0.0
146
0.0
 13
0.0
 23
0.0
 33
0.0
 16
1.0
 26
0.0
 36
0.0
 17
0.0
 27
1.0
 37
0.0
 76
     0
330
1E
  0
MLINESTYLE
  5
17
102
{ACAD_REACTORS
330
16
102
}
330
16
100
AcDbMlineStyle
  2
STANDARD
 70
     0
  3

 62
   256
 51
90.0
 52
90.0
 71
     2
 49
0.5
 62
   256
  6
BYLAYER
 49
-0.5
 62
   256
  6
BYLAYER
  0
ACDBPLACEHOLDER
  5
F
102
{ACAD_REACTORS
330
E
102
}
330
E
  0
DICTIONARYVAR
  5
126
102
{ACAD_REACTORS
330
125
102
}
330
125
100
DictionaryVariables
280
     0
  1
1
  0
DICTIONARYVAR
  5
127
102
{ACAD_REACTORS
330
125
102
}
330
125
100
DictionaryVariables
280
     0
  1

  0
ENDSEC
  0
EOF
