  0
SECTION
  2
HEADER
  9
$ACADVER
  1
AC1018
  9
$ACADMAINTVER
 70
     2
  9
$DWGCODEPAGE
  3
ANSI_1252
  9
$INSBASE
 10
0.0
 20
0.0
 30
0.0
  9
$EXTMIN
 10
0.0
 20
-0.0000000000000568
 30
0.0
  9
$EXTMAX
 10
594.0
 20
840.0
 30
0.0
  9
$LIMMIN
 10
0.0
 20
0.0
  9
$LIMMAX
 10
594.0
 20
840.0
  9
$ORTHOMODE
 70
     1
  9
$REGENMODE
 70
     1
  9
$FILLMODE
 70
     1
  9
$QTEXTMODE
 70
     0
  9
$MIRRTEXT
 70
     1
  9
$LTSCALE
 40
20.0
  9
$ATTMODE
 70
     1
  9
$TEXTSIZE
 40
3.5
  9
$TRACEWID
 40
1.0
  9
$TEXTSTYLE
  7
STANDARD
  9
$CLAYER
  8
VOLL
  9
$CELTYPE
  6
ByLayer
  9
$CECOLOR
 62
   256
  9
$CELTSCALE
 40
1.0
  9
$DISPSILH
 70
     0
  9
$DIMSCALE
 40
2.0
  9
$DIMASZ
 40
3.5
  9
$DIMEXO
 40
1.0
  9
$DIMDLI
 40
7.0
  9
$DIMRND
 40
0.0
  9
$DIMDLE
 40
0.0
  9
$DIMEXE
 40
1.0
  9
$DIMTP
 40
0.0
  9
$DIMTM
 40
0.0
  9
$DIMTXT
 40
3.5
  9
$DIMCEN
 40
1.5
  9
$DIMTSZ
 40
0.0
  9
$DIMTOL
 70
     0
  9
$DIMLIM
 70
     0
  9
$DIMTIH
 70
     0
  9
$DIMTOH
 70
     0
  9
$DIMSE1
 70
     0
  9
$DIMSE2
 70
     0
  9
$DIMTAD
 70
     1
  9
$DIMZIN
 70
     8
  9
$DIMBLK
  1

  9
$DIMASO
 70
     1
  9
$DIMSHO
 70
     0
  9
$DIMPOST
  1

  9
$DIMAPOST
  1

  9
$DIMALT
 70
     0
  9
$DIMALTD
 70
     2
  9
$DIMALTF
 40
25.4
  9
$DIMLFAC
 40
1.0
  9
$DIMTOFL
 70
     1
  9
$DIMTVP
 40
0.0
  9
$DIMTIX
 70
     0
  9
$DIMSOXD
 70
     0
  9
$DIMSAH
 70
     0
  9
$DIMBLK1
  1

  9
$DIMBLK2
  1

  9
$DIMSTYLE
  2
Standard
  9
$DIMCLRD
 70
     0
  9
$DIMCLRE
 70
     0
  9
$DIMCLRT
 70
     1
  9
$DIMTFAC
 40
0.5142857142857144
  9
$DIMGAP
 40
1.5
  9
$DIMJUST
 70
     0
  9
$DIMSD1
 70
     0
  9
$DIMSD2
 70
     0
  9
$DIMTOLJ
 70
     1
  9
$DIMTZIN
 70
     8
  9
$DIMALTZ
 70
     8
  9
$DIMALTTZ
 70
     8
  9
$DIMUPT
 70
     0
  9
$DIMDEC
 70
     2
  9
$DIMTDEC
 70
     2
  9
$DIMALTU
 70
     2
  9
$DIMALTTD
 70
     2
  9
$DIMTXSTY
  7
STANDARD
  9
$DIMAUNIT
 70
     0
  9
$DIMADEC
 70
     2
  9
$DIMALTRND
 40
0.0
  9
$DIMAZIN
 70
     2
  9
$DIMDSEP
 70
    46
  9
$DIMATFIT
 70
     3
  9
$DIMFRAC
 70
     0
  9
$DIMLDRBLK
  1

  9
$DIMLUNIT
 70
     2
  9
$DIMLWD
 70
    -2
  9
$DIMLWE
 70
    -2
  9
$DIMTMOVE
 70
     0
  9
$LUNITS
 70
     2
  9
$LUPREC
 70
     2
  9
$SKETCHINC
 40
1.0
  9
$FILLETRAD
 40
0.0
  9
$AUNITS
 70
     0
  9
$AUPREC
 70
     0
  9
$MENU
  1
ACAD
  9
$ELEVATION
 40
0.0
  9
$PELEVATION
 40
0.0
  9
$THICKNESS
 40
0.0
  9
$LIMCHECK
 70
     0
  9
$CHAMFERA
 40
0.0
  9
$CHAMFERB
 40
0.0
  9
$CHAMFERC
 40
0.0
  9
$CHAMFERD
 40
0.0
  9
$SKPOLY
 70
     0
  9
$TDCREATE
 40
2455397.825393172
  9
$TDUCREATE
 40
2455397.783726505
  9
$TDUPDATE
 40
2455545.452588218
  9
$TDUUPDATE
 40
2455545.410921551
  9
$TDINDWG
 40
0.0973861574
  9
$TDUSRTIMER
 40
0.0973861574
  9
$USRTIMER
 70
     1
  9
$ANGBASE
 50
0.0
  9
$ANGDIR
 70
     0
  9
$PDMODE
 70
     0
  9
$PDSIZE
 40
0.0
  9
$PLINEWID
 40
0.0
  9
$SPLFRAME
 70
     0
  9
$SPLINETYPE
 70
     6
  9
$SPLINESEGS
 70
     8
  9
$HANDSEED
  5
1A82
  9
$SURFTAB1
 70
     6
  9
$SURFTAB2
 70
     6
  9
$SURFTYPE
 70
     6
  9
$SURFU
 70
     6
  9
$SURFV
 70
     6
  9
$UCSBASE
  2

  9
$UCSNAME
  2

  9
$UCSORG
 10
0.0
 20
0.0
 30
0.0
  9
$UCSXDIR
 10
1.0
 20
0.0
 30
0.0
  9
$UCSYDIR
 10
0.0
 20
1.0
 30
0.0
  9
$UCSORTHOREF
  2

  9
$UCSORTHOVIEW
 70
     0
  9
$UCSORGTOP
 10
0.0
 20
0.0
 30
0.0
  9
$UCSORGBOTTOM
 10
0.0
 20
0.0
 30
0.0
  9
$UCSORGLEFT
 10
0.0
 20
0.0
 30
0.0
  9
$UCSORGRIGHT
 10
0.0
 20
0.0
 30
0.0
  9
$UCSORGFRONT
 10
0.0
 20
0.0
 30
0.0
  9
$UCSORGBACK
 10
0.0
 20
0.0
 30
0.0
  9
$PUCSBASE
  2

  9
$PUCSNAME
  2

  9
$PUCSORG
 10
0.0
 20
0.0
 30
0.0
  9
$PUCSXDIR
 10
1.0
 20
0.0
 30
0.0
  9
$PUCSYDIR
 10
0.0
 20
1.0
 30
0.0
  9
$PUCSORTHOREF
  2

  9
$PUCSORTHOVIEW
 70
     0
  9
$PUCSORGTOP
 10
0.0
 20
0.0
 30
0.0
  9
$PUCSORGBOTTOM
 10
0.0
 20
0.0
 30
0.0
  9
$PUCSORGLEFT
 10
0.0
 20
0.0
 30
0.0
  9
$PUCSORGRIGHT
 10
0.0
 20
0.0
 30
0.0
  9
$PUCSORGFRONT
 10
0.0
 20
0.0
 30
0.0
  9
$PUCSORGBACK
 10
0.0
 20
0.0
 30
0.0
  9
$USERI1
 70
     0
  9
$USERI2
 70
     0
  9
$USERI3
 70
     0
  9
$USERI4
 70
     0
  9
$USERI5
 70
     0
  9
$USERR1
 40
0.0
  9
$USERR2
 40
0.0
  9
$USERR3
 40
0.0
  9
$USERR4
 40
0.0
  9
$USERR5
 40
0.0
  9
$WORLDVIEW
 70
     1
  9
$SHADEDGE
 70
     3
  9
$SHADEDIF
 70
    70
  9
$TILEMODE
 70
     1
  9
$MAXACTVP
 70
    16
  9
$PINSBASE
 10
0.0
 20
0.0
 30
0.0
  9
$PLIMCHECK
 70
     0
  9
$PEXTMIN
 10
1.000000000000000E+20
 20
1.000000000000000E+20
 30
1.000000000000000E+20
  9
$PEXTMAX
 10
-1.000000000000000E+20
 20
-1.000000000000000E+20
 30
-1.000000000000000E+20
  9
$PLIMMIN
 10
0.0
 20
0.0
  9
$PLIMMAX
 10
12.0
 20
9.0
  9
$UNITMODE
 70
     0
  9
$VISRETAIN
 70
     0
  9
$PLINEGEN
 70
     0
  9
$PSLTSCALE
 70
     0
  9
$TREEDEPTH
 70
  3020
  9
$CMLSTYLE
  2
Standard
  9
$CMLJUST
 70
     0
  9
$CMLSCALE
 40
1.0
  9
$PROXYGRAPHICS
 70
     1
  9
$MEASUREMENT
 70
     0
  9
$CELWEIGHT
370
    -1
  9
$ENDCAPS
280
     0
  9
$JOINSTYLE
280
     0
  9
$LWDISPLAY
290
     0
  9
$INSUNITS
 70
     0
  9
$HYPERLINKBASE
  1

  9
$STYLESHEET
  1
monochrome 1.ctb
  9
$XEDIT
290
     1
  9
$CEPSNTYPE
380
     0
  9
$PSTYLEMODE
290
     1
  9
$FINGERPRINTGUID
  2
{D68B0D0D-A558-11D7-B632-000102183313}
  9
$VERSIONGUID
  2
{F8D308C4-29A8-4C4D-A853-2F31ABCCC9B9}
  9
$EXTNAMES
290
     1
  9
$PSVPSCALE
 40
0.0
  9
$OLESTARTUP
290
     0
  9
$SORTENTS
280
   127
  9
$INDEXCTL
280
     0
  9
$HIDETEXT
280
     0
  9
$XCLIPFRAME
290
     0
  9
$HALOGAP
280
     0
  9
$OBSCOLOR
 70
   257
  9
$OBSLTYPE
280
     0
  9
$INTERSECTIONDISPLAY
280
     0
  9
$INTERSECTIONCOLOR
 70
   257
  9
$DIMASSOC
280
     1
  9
$PROJECTNAME
  1

  0
ENDSEC
  0
SECTION
  2
CLASSES
  0
CLASS
  1
ACDBDICTIONARYWDFLT
  2
AcDbDictionaryWithDefault
  3
ObjectDBX Classes
 90
        0
 91
        1
280
     0
281
     0
  0
CLASS
  1
DICTIONARYVAR
  2
AcDbDictionaryVar
  3
ObjectDBX Classes
 90
        0
 91
        2
280
     0
281
     0
  0
ENDSEC
  0
SECTION
  2
TABLES
  0
TABLE
  2
VPORT
  5
8
330
0
100
AcDbSymbolTable
 70
     2
  0
VPORT
  5
1A81
330
8
100
AcDbSymbolTableRecord
100
AcDbViewportTableRecord
  2
*Active
 70
     0
 10
0.0
 20
0.0
 11
1.0
 21
1.0
 12
297.0000186719772
 22
420.0000264048159
 13
0.0
 23
0.0
 14
1.0
 24
1.0
 15
10.0
 25
10.0
 16
0.0
 26
0.0
 36
1.0
 17
0.0
 27
0.0
 37
0.0
 40
847.3182870763627
 41
1.336927223719676
 42
50.0
 43
0.0
 44
0.0
 50
0.0
 51
0.0
 71
     0
 72
  1500
 73
     1
 74
     0
 75
     0
 76
     0
 77
     0
 78
     0
281
     0
 65
     1
110
0.0
120
0.0
130
0.0
111
1.0
121
0.0
131
0.0
112
0.0
122
1.0
132
0.0
 79
     0
146
0.0
  0
ENDTAB
  0
TABLE
  2
LTYPE
  5
5
330
0
100
AcDbSymbolTable
 70
     3
  0
LTYPE
  5
13
330
5
100
AcDbSymbolTableRecord
100
AcDbLinetypeTableRecord
  2
ByBlock
 70
     0
  3

 72
    65
 73
     0
 40
0.0
  0
LTYPE
  5
14
330
5
100
AcDbSymbolTableRecord
100
AcDbLinetypeTableRecord
  2
ByLayer
 70
     0
  3

 72
    65
 73
     0
 40
0.0
  0
LTYPE
  5
15
330
5
100
AcDbSymbolTableRecord
100
AcDbLinetypeTableRecord
  2
Continuous
 70
     0
  3
Solid line
 72
    65
 73
     0
 40
0.0
  0
LTYPE
  5
25
330
5
100
AcDbSymbolTableRecord
100
AcDbLinetypeTableRecord
  2
STRICHPUNKT
 70
     0
  3
__ . __ . __ . __ . __ . __ . __ . __ . __ . __
 72
    65
 73
     4
 40
1.0
 49
0.5
 74
     0
 49
-0.25
 74
     0
 49
0.0
 74
     0
 49
-0.25
 74
     0
  0
LTYPE
  5
34
330
5
100
AcDbSymbolTableRecord
100
AcDbLinetypeTableRecord
  2
AUSGEZOGEN
 70
     0
  3
Ausgezogene Linie
 72
    65
 73
     0
 40
0.0
  0
ENDTAB
  0
TABLE
  2
LAYER
  5
2
330
0
100
AcDbSymbolTable
 70
     9
  0
LAYER
  5
10
330
2
100
AcDbSymbolTableRecord
100
AcDbLayerTableRecord
  2
0
 70
     0
 62
     7
  6
Continuous
370
    -3
390
F
  0
LAYER
  5
2B
330
2
100
AcDbSymbolTableRecord
100
AcDbLayerTableRecord
  2
VOLL
 70
     0
 62
     1
  6
Continuous
370
    -3
390
F
  0
LAYER
  5
2C
330
2
100
AcDbSymbolTableRecord
100
AcDbLayerTableRecord
  2
HILF
 70
     0
 62
     2
  6
Continuous
370
    -3
390
F
  0
LAYER
  5
2D
330
2
100
AcDbSymbolTableRecord
100
AcDbLayerTableRecord
  2
MITTEL
 70
     0
 62
     2
  6
STRICHPUNKT
370
    -3
390
F
  0
LAYER
  5
2F
330
2
100
AcDbSymbolTableRecord
100
AcDbLayerTableRecord
  2
BEM
 70
     0
 62
     7
  6
Continuous
370
    -3
390
F
  0
LAYER
  5
30
330
2
100
AcDbSymbolTableRecord
100
AcDbLayerTableRecord
  2
STEMPEL
 70
     0
 62
     3
  6
Continuous
370
    -3
390
F
  0
LAYER
  5
33
330
2
100
AcDbSymbolTableRecord
100
AcDbLayerTableRecord
  2
TEXT
 70
     0
 62
     7
  6
Continuous
370
    -3
390
F
  0
LAYER
  5
1DD
330
2
100
AcDbSymbolTableRecord
100
AcDbLayerTableRecord
  2
DEFPOINTS
 70
     0
 62
     7
  6
AUSGEZOGEN
290
     0
370
    -3
390
F
  0
LAYER
  5
1DE
330
2
100
AcDbSymbolTableRecord
100
AcDbLayerTableRecord
  2
SCHRAFF
 70
     0
 62
     7
  6
AUSGEZOGEN
370
    -3
390
F
  0
ENDTAB
  0
TABLE
  2
STYLE
  5
3
330
0
100
AcDbSymbolTable
 70
     2
  0
STYLE
  5
11
330
3
100
AcDbSymbolTableRecord
100
AcDbTextStyleTableRecord
  2
STANDARD
 70
     0
 40
0.0
 41
0.8
 50
0.0
 71
     0
 42
3.5
  3
simplex.shx
  4

  0
STYLE
  5
24
330
3
100
AcDbSymbolTableRecord
100
AcDbTextStyleTableRecord
  2
GREEKS
 70
     0
 40
0.0
 41
0.8
 50
0.0
 71
     0
 42
2.5
  3
SIMPLEX.shx
  4

  0
ENDTAB
  0
TABLE
  2
VIEW
  5
6
330
0
100
AcDbSymbolTable
 70
     0
  0
ENDTAB
  0
TABLE
  2
UCS
  5
7
330
0
100
AcDbSymbolTable
 70
     0
  0
ENDTAB
  0
TABLE
  2
APPID
  5
9
330
0
100
AcDbSymbolTable
 70
     1
  0
APPID
  5
12
330
9
100
AcDbSymbolTableRecord
100
AcDbRegAppTableRecord
  2
ACAD
 70
     0
  0
ENDTAB
  0
TABLE
  2
DIMSTYLE
  5
A
330
0
100
AcDbSymbolTable
 70
     1
100
AcDbDimStyleTable
 71
     1
340
A2
  0
DIMSTYLE
105
A2
102
{ACAD_REACTORS
330
131F
330
1414
330
1418
330
148E
330
183A
330
183B
330
183C
330
186A
102
}
330
A
100
AcDbSymbolTableRecord
100
AcDbDimStyleTableRecord
  2
Standard
 70
     0
340
11
  0
ENDTAB
  0
TABLE
  2
BLOCK_RECORD
  5
1
330
0
100
AcDbSymbolTable
 70
    10
  0
BLOCK_RECORD
  5
1E
102
{ACAD_XDICTIONARY
360
DB
102
}
330
1
100
AcDbSymbolTableRecord
100
AcDbBlockTableRecord
  2
*Model_Space
340
21
  0
BLOCK_RECORD
  5
1A
102
{ACAD_XDICTIONARY
360
DD
102
}
330
1
100
AcDbSymbolTableRecord
100
AcDbBlockTableRecord
  2
*Paper_Space
340
1D
  0
BLOCK_RECORD
  5
22
330
1
100
AcDbSymbolTableRecord
100
AcDbBlockTableRecord
  2
LOGO
340
0
102
{BLKREFS
331
56
102
}
  0
BLOCK_RECORD
  5
23
330
1
100
AcDbSymbolTableRecord
100
AcDbBlockTableRecord
  2
LORO
340
0
102
{BLKREFS
331
9B
102
}
  0
BLOCK_RECORD
  5
141A
330
1
100
AcDbSymbolTableRecord
100
AcDbBlockTableRecord
  2
*D2
340
0
  0
BLOCK_RECORD
  5
1426
330
1
100
AcDbSymbolTableRecord
100
AcDbBlockTableRecord
  2
*D3
340
0
  0
BLOCK_RECORD
  5
1432
330
1
100
AcDbSymbolTableRecord
100
AcDbBlockTableRecord
  2
*D4
340
0
  0
BLOCK_RECORD
  5
148F
330
1
100
AcDbSymbolTableRecord
100
AcDbBlockTableRecord
  2
*D5
340
0
  0
BLOCK_RECORD
  5
191C
330
1
100
AcDbSymbolTableRecord
100
AcDbBlockTableRecord
  2
*D6
340
0
  0
BLOCK_RECORD
  5
1928
330
1
100
AcDbSymbolTableRecord
100
AcDbBlockTableRecord
  2
*D7
340
0
  0
BLOCK_RECORD
  5
1934
330
1
100
AcDbSymbolTableRecord
100
AcDbBlockTableRecord
  2
*D8
340
0
  0
BLOCK_RECORD
  5
1940
330
1
100
AcDbSymbolTableRecord
100
AcDbBlockTableRecord
  2
*D9
340
0
  0
ENDTAB
  0
ENDSEC
  0
SECTION
  2
BLOCKS
  0
BLOCK
  5
37
330
1E
100
AcDbEntity
  8
0
100
AcDbBlockBegin
  2
*Model_Space
 70
     0
 10
0.0
 20
0.0
 30
0.0
  3
*Model_Space
  1

  0
ENDBLK
  5
38
330
1E
100
AcDbEntity
  8
0
100
AcDbBlockEnd
  0
BLOCK
  5
35
330
1A
100
AcDbEntity
 67
     1
  8
0
100
AcDbBlockBegin
  2
*Paper_Space
 70
     0
 10
0.0
 20
0.0
 30
0.0
  3
*Paper_Space
  1

  0
ENDBLK
  5
36
330
1A
100
AcDbEntity
 67
     1
  8
0
100
AcDbBlockEnd
  0
BLOCK
  5
39
330
22
100
AcDbEntity
  8
0
100
AcDbBlockBegin
  2
LOGO
 70
     0
 10
0.0
 20
0.0
 30
0.0
  3
LOGO
  1

  0
ARC
  5
3A
330
22
100
AcDbEntity
  8
0
100
AcDbCircle
 10
11.59973089678112
 20
-9.271599258481501
 30
0.0
 40
4.5
100
AcDbArc
 50
270.0
 51
231.0575587310159
  0
LINE
  5
3B
330
22
100
AcDbEntity
  8
0
100
AcDbLine
 10
3.599730896781125
 20
-4.771599258481529
 30
0.0
 11
3.599730896781153
 21
-11.77159925848133
 31
0.0
  0
LINE
  5
3C
330
22
100
AcDbEntity
  8
0
100
AcDbLine
 10
2.599730896781125
 20
-4.771599258481529
 30
0.0
 11
2.599730896781153
 21
-11.77159925848133
 31
0.0
  0
CIRCLE
  5
3D
330
22
100
AcDbEntity
  8
0
100
AcDbCircle
 10
11.59973089678112
 20
-9.271599258481501
 30
0.0
 40
3.5
  0
ARC
  5
3E
330
22
100
AcDbEntity
  8
0
100
AcDbCircle
 10
31.59973089678115
 20
-9.271599258481472
 30
0.0
 40
4.5
100
AcDbArc
 50
270.0
 51
231.0575587310182
  0
LINE
  5
3F
330
22
100
AcDbEntity
  8
0
100
AcDbLine
 10
17.59973089678112
 20
-4.771599258481472
 30
0.0
 11
17.59973089678115
 21
-13.77159925848147
 31
0.0
  0
ARC
  5
40
330
22
100
AcDbEntity
  8
0
100
AcDbCircle
 10
22.59973089678116
 20
-7.271599258481472
 30
0.0
 40
2.5
100
AcDbArc
 50
293.1161887722295
 51
90.0
  0
CIRCLE
  5
41
330
22
100
AcDbEntity
  8
0
100
AcDbCircle
 10
31.59973089678115
 20
-9.271599258481472
 30
0.0
 40
3.5
  0
ARC
  5
42
330
22
100
AcDbEntity
  8
0
100
AcDbCircle
 10
4.599730896781153
 20
-11.77159925848133
 30
0.0
 40
1.0
100
AcDbArc
 50
180.0
 51
270.0
  0
ARC
  5
43
330
22
100
AcDbEntity
  8
0
100
AcDbCircle
 10
4.599730896781153
 20
-11.77159925848133
 30
0.0
 40
2.0
100
AcDbArc
 50
179.9999999999992
 51
270.0
  0
LINE
  5
44
330
22
100
AcDbEntity
  8
0
100
AcDbLine
 10
11.59973089678115
 20
-13.77159925848144
 30
0.0
 11
4.599730896781153
 21
-13.77159925848147
 31
0.0
  0
LINE
  5
45
330
22
100
AcDbEntity
  8
0
100
AcDbLine
 10
8.771303772034769
 20
-12.77159925848136
 30
0.0
 11
4.599730896781153
 21
-12.77159925848133
 31
0.0
  0
LINE
  5
46
330
22
100
AcDbEntity
  8
0
100
AcDbLine
 10
31.59973089678115
 20
-13.77159925848147
 30
0.0
 11
23.6715276665056
 21
-13.77159925848144
 31
0.0
  0
LINE
  5
47
330
22
100
AcDbEntity
  8
0
100
AcDbLine
 10
23.56565672307022
 20
-9.51278021337896
 30
0.0
 11
24.4388546544846
 21
-12.77159925848144
 31
0.0
  0
LINE
  5
48
330
22
100
AcDbEntity
  8
0
100
AcDbLine
 10
22.59973089678116
 20
-9.771599258481472
 30
0.0
 11
18.59973089678112
 21
-9.771599258481472
 31
0.0
  0
LINE
  5
49
330
22
100
AcDbEntity
  8
0
100
AcDbLine
 10
18.59973089678115
 20
-13.77159925848144
 30
0.0
 11
17.59973089678115
 21
-13.77159925848144
 31
0.0
  0
LINE
  5
4A
330
22
100
AcDbEntity
  8
0
100
AcDbLine
 10
18.59973089678115
 20
-9.771599258481472
 30
0.0
 11
18.59973089678115
 21
-13.77159925848144
 31
0.0
  0
LINE
  5
4B
330
22
100
AcDbEntity
  8
0
100
AcDbLine
 10
22.59973089678116
 20
-9.771599258481472
 30
0.0
 11
23.67152766650562
 21
-13.77159925848147
 31
0.0
  0
ARC
  5
4C
330
22
100
AcDbEntity
  8
0
100
AcDbCircle
 10
22.59973089678116
 20
-7.271599258481472
 30
0.0
 40
2.5
100
AcDbArc
 50
270.0
 51
270.0000000000007
  0
LINE
  5
4D
330
22
100
AcDbEntity
  8
0
100
AcDbLine
 10
28.77130377203494
 20
-12.77159925848147
 30
0.0
 11
24.43885465448463
 21
-12.77159925848144
 31
0.0
  0
LINE
  5
4E
330
22
100
AcDbEntity
  8
0
100
AcDbLine
 10
3.599730896781125
 20
-4.771599258481472
 30
0.0
 11
2.599730896781125
 21
-4.771599258481472
 31
0.0
  0
LINE
  5
4F
330
22
100
AcDbEntity
  8
0
100
AcDbLine
 10
22.59973089678116
 20
-8.771599258481472
 30
0.0
 11
18.59973089678115
 21
-8.771599258481472
 31
0.0
  0
LINE
  5
50
330
22
100
AcDbEntity
  8
0
100
AcDbLine
 10
22.59973089678116
 20
-5.771599258481472
 30
0.0
 11
18.59973089678115
 21
-5.771599258481472
 31
0.0
  0
LINE
  5
51
330
22
100
AcDbEntity
  8
0
100
AcDbLine
 10
22.59973089678116
 20
-4.771599258481472
 30
0.0
 11
17.59973089678115
 21
-4.771599258481472
 31
0.0
  0
LINE
  5
52
330
22
100
AcDbEntity
  8
0
100
AcDbLine
 10
18.59973089678115
 20
-5.771599258481472
 30
0.0
 11
18.59973089678115
 21
-8.771599258481472
 31
0.0
  0
ARC
  5
53
330
22
100
AcDbEntity
  8
0
100
AcDbCircle
 10
22.59973089678116
 20
-7.271599258481472
 30
0.0
 40
1.5
100
AcDbArc
 50
270.0
 51
90.0
  0
ENDBLK
  5
54
330
22
100
AcDbEntity
  8
0
100
AcDbBlockEnd
  0
BLOCK
  5
55
330
23
100
AcDbEntity
  8
0
100
AcDbBlockBegin
  2
LORO
 70
     0
 10
0.0
 20
0.0
 30
0.0
  3
LORO
  1

  0
INSERT
  5
56
330
23
100
AcDbEntity
  8
STEMPEL
100
AcDbBlockReference
  2
LOGO
 10
-1.748032802467321
 20
3.771489518552062
 30
0.0
  0
ENDBLK
  5
57
330
23
100
AcDbEntity
  8
0
100
AcDbBlockEnd
  0
BLOCK
  5
1424
330
141A
100
AcDbEntity
  8
0
100
AcDbBlockBegin
  2
*D2
 70
     1
 10
0.0
 20
0.0
 30
0.0
  3
*D2
  1

  0
LINE
  5
1475
330
141A
100
AcDbEntity
  8
BEM
 62
     0
370
    -2
100
AcDbLine
 10
254.0130222657311
 20
197.8644400956549
 30
0.0
 11
254.0130222657311
 21
169.3056240599608
 31
0.0
  0
LINE
  5
1476
330
141A
100
AcDbEntity
  8
BEM
 62
     0
370
    -2
100
AcDbLine
 10
152.413022265731
 20
197.8644400956521
 30
0.0
 11
152.413022265731
 21
169.3056240599608
 31
0.0
  0
LINE
  5
1477
330
141A
100
AcDbEntity
  8
BEM
 62
     0
370
    -2
100
AcDbLine
 10
247.0130222657311
 20
171.3056240599608
 30
0.0
 11
159.413022265731
 21
171.3056240599608
 31
0.0
  0
SOLID
  5
1478
330
141A
100
AcDbEntity
  8
BEM
 62
     0
100
AcDbTrace
 10
247.0130222657311
 20
172.4722907266275
 30
0.0
 11
247.0130222657311
 21
170.1389573932942
 31
0.0
 12
254.0130222657311
 22
171.3056240599608
 32
0.0
 13
254.0130222657311
 23
171.3056240599608
 33
0.0
  0
SOLID
  5
1479
330
141A
100
AcDbEntity
  8
BEM
 62
     0
100
AcDbTrace
 10
159.413022265731
 20
172.4722907266275
 30
0.0
 11
159.413022265731
 21
170.1389573932942
 31
0.0
 12
152.413022265731
 22
171.3056240599608
 32
0.0
 13
152.413022265731
 23
171.3056240599608
 33
0.0
  0
MTEXT
  5
147A
330
141A
100
AcDbEntity
  8
BEM
 62
     1
100
AcDbMText
 10
203.2130222657311
 20
177.8056240599608
 30
0.0
 40
7.0
 41
0.0
 71
     5
 72
     1
  1
\A1;%%c101.6
 73
     1
 44
1.0
  0
POINT
  5
147B
330
141A
100
AcDbEntity
  8
DEFPOINTS
 62
     0
100
AcDbPoint
 10
254.0130222657311
 20
199.864440095655
 30
0.0
  0
POINT
  5
147C
330
141A
100
AcDbEntity
  8
DEFPOINTS
 62
     0
100
AcDbPoint
 10
152.413022265731
 20
199.8644400956521
 30
0.0
  0
POINT
  5
147D
330
141A
100
AcDbEntity
  8
DEFPOINTS
 62
     0
100
AcDbPoint
 10
152.413022265731
 20
171.3056240599608
 30
0.0
  0
ENDBLK
  5
1425
330
141A
100
AcDbEntity
  8
0
100
AcDbBlockEnd
  0
BLOCK
  5
1430
330
1426
100
AcDbEntity
  8
0
100
AcDbBlockBegin
  2
*D3
 70
     1
 10
0.0
 20
0.0
 30
0.0
  3
*D3
  1

  0
LINE
  5
146C
330
1426
100
AcDbEntity
  8
BEM
 62
     0
370
    -2
100
AcDbLine
 10
51.21302226573073
 20
461.9168332271438
 30
0.0
 11
38.16113797103009
 21
461.9168332271438
 31
0.0
  0
LINE
  5
146D
330
1426
100
AcDbEntity
  8
BEM
 62
     0
370
    -2
100
AcDbLine
 10
151.1083477688864
 20
191.9168332271441
 30
0.0
 11
38.16113797103003
 21
191.9168332271441
 31
0.0
  0
LINE
  5
146E
330
1426
100
AcDbEntity
  8
BEM
 62
     0
370
    -2
100
AcDbLine
 10
40.16113797103009
 20
454.9168332271438
 30
0.0
 11
40.16113797103002
 21
198.9168332271441
 31
0.0
  0
SOLID
  5
146F
330
1426
100
AcDbEntity
  8
BEM
 62
     0
100
AcDbTrace
 10
38.99447130436342
 20
454.9168332271438
 30
0.0
 11
41.32780463769675
 21
454.9168332271438
 31
0.0
 12
40.16113797103009
 22
461.9168332271438
 32
0.0
 13
40.16113797103009
 23
461.9168332271438
 33
0.0
  0
SOLID
  5
1470
330
1426
100
AcDbEntity
  8
BEM
 62
     0
100
AcDbTrace
 10
38.99447130436337
 20
198.9168332271441
 30
0.0
 11
41.32780463769669
 21
198.9168332271441
 31
0.0
 12
40.16113797103002
 22
191.9168332271441
 32
0.0
 13
40.16113797103002
 23
191.9168332271441
 33
0.0
  0
MTEXT
  5
1471
330
1426
100
AcDbEntity
  8
BEM
 62
     1
100
AcDbMText
 10
33.66113797103001
 20
326.916833227144
 30
0.0
 40
7.0
 41
0.0
 71
     5
 72
     1
  1
\A1;270
 11
0.0000000000000001
 21
1.0
 31
0.0
 73
     1
 44
1.0
  0
POINT
  5
1472
330
1426
100
AcDbEntity
  8
DEFPOINTS
 62
     0
100
AcDbPoint
 10
53.21302226573073
 20
461.9168332271438
 30
0.0
  0
POINT
  5
1473
330
1426
100
AcDbEntity
  8
DEFPOINTS
 62
     0
100
AcDbPoint
 10
153.1083477688864
 20
191.9168332271441
 30
0.0
  0
POINT
  5
1474
330
1426
100
AcDbEntity
  8
DEFPOINTS
 62
     0
100
AcDbPoint
 10
40.16113797103002
 20
191.9168332271441
 30
0.0
  0
ENDBLK
  5
1431
330
1426
100
AcDbEntity
  8
0
100
AcDbBlockEnd
  0
BLOCK
  5
143C
330
1432
100
AcDbEntity
  8
0
100
AcDbBlockBegin
  2
*D4
 70
     1
 10
0.0
 20
0.0
 30
0.0
  3
*D4
  1

  0
LINE
  5
1517
330
1432
100
AcDbEntity
  8
BEM
 62
     0
370
    -2
100
AcDbLine
 10
353.2130222657309
 20
466.9168332271438
 30
0.0
 11
353.2130222657309
 21
502.714939124773
 31
0.0
  0
LINE
  5
1518
330
1432
100
AcDbEntity
  8
BEM
 62
     0
370
    -2
100
AcDbLine
 10
53.21302226573073
 20
466.9168332271438
 30
0.0
 11
53.21302226573073
 21
502.714939124773
 31
0.0
  0
LINE
  5
1519
330
1432
100
AcDbEntity
  8
BEM
 62
     0
370
    -2
100
AcDbLine
 10
346.2130222657309
 20
500.7149391247731
 30
0.0
 11
60.21302226573073
 21
500.7149391247731
 31
0.0
  0
SOLID
  5
151A
330
1432
100
AcDbEntity
  8
BEM
 62
     0
100
AcDbTrace
 10
346.2130222657309
 20
501.8816057914397
 30
0.0
 11
346.2130222657309
 21
499.5482724581064
 31
0.0
 12
353.2130222657309
 22
500.7149391247731
 32
0.0
 13
353.2130222657309
 23
500.7149391247731
 33
0.0
  0
SOLID
  5
151B
330
1432
100
AcDbEntity
  8
BEM
 62
     0
100
AcDbTrace
 10
60.21302226573073
 20
501.8816057914397
 30
0.0
 11
60.21302226573073
 21
499.5482724581064
 31
0.0
 12
53.21302226573073
 22
500.7149391247731
 32
0.0
 13
53.21302226573073
 23
500.7149391247731
 33
0.0
  0
MTEXT
  5
151C
330
1432
100
AcDbEntity
  8
BEM
 62
     1
100
AcDbMText
 10
203.2130222657308
 20
507.214939124773
 30
0.0
 40
7.0
 41
0.0
 71
     5
 72
     1
  1
\A1;%%c300
 73
     1
 44
1.0
  0
POINT
  5
151D
330
1432
100
AcDbEntity
  8
DEFPOINTS
 62
     0
100
AcDbPoint
 10
353.2130222657309
 20
464.9168332271438
 30
0.0
  0
POINT
  5
151E
330
1432
100
AcDbEntity
  8
DEFPOINTS
 62
     0
100
AcDbPoint
 10
53.21302226573073
 20
464.9168332271438
 30
0.0
  0
POINT
  5
151F
330
1432
100
AcDbEntity
  8
DEFPOINTS
 62
     0
100
AcDbPoint
 10
53.21302226573073
 20
500.7149391247731
 30
0.0
  0
ENDBLK
  5
143D
330
1432
100
AcDbEntity
  8
0
100
AcDbBlockEnd
  0
BLOCK
  5
1499
330
148F
100
AcDbEntity
  8
0
100
AcDbBlockBegin
  2
*D5
 70
     1
 10
0.0
 20
0.0
 30
0.0
  3
*D5
  1

  0
LINE
  5
150E
330
148F
100
AcDbEntity
  8
BEM
 62
     0
370
    -2
100
AcDbLine
 10
51.21302226573073
 20
461.9168332271448
 30
0.0
 11
38.05502184294436
 21
461.9168332271448
 31
0.0
  0
LINE
  5
150F
330
148F
100
AcDbEntity
  8
BEM
 62
     0
370
    -2
100
AcDbLine
 10
51.21302226573115
 20
611.9168332271448
 30
0.0
 11
38.0550218429444
 21
611.9168332271448
 31
0.0
  0
LINE
  5
1510
330
148F
100
AcDbEntity
  8
BEM
 62
     0
370
    -2
100
AcDbLine
 10
40.05502184294437
 20
468.9168332271448
 30
0.0
 11
40.0550218429444
 21
604.9168332271448
 31
0.0
  0
SOLID
  5
1511
330
148F
100
AcDbEntity
  8
BEM
 62
     0
100
AcDbTrace
 10
38.88835517627771
 20
468.9168332271448
 30
0.0
 11
41.22168850961103
 21
468.9168332271448
 31
0.0
 12
40.05502184294436
 22
461.9168332271448
 32
0.0
 13
40.05502184294436
 23
461.9168332271448
 33
0.0
  0
SOLID
  5
1512
330
148F
100
AcDbEntity
  8
BEM
 62
     0
100
AcDbTrace
 10
38.88835517627774
 20
604.9168332271448
 30
0.0
 11
41.22168850961106
 21
604.9168332271448
 31
0.0
 12
40.0550218429444
 22
611.9168332271448
 32
0.0
 13
40.0550218429444
 23
611.9168332271448
 33
0.0
  0
MTEXT
  5
1513
330
148F
100
AcDbEntity
  8
BEM
 62
     1
100
AcDbMText
 10
33.5550218429443
 20
536.9168332271448
 30
0.0
 40
7.0
 41
0.0
 71
     5
 72
     1
  1
\A1;min.35 - max.200
 11
0.0000000000000001
 21
1.0
 31
0.0
 73
     1
 44
1.0
  0
POINT
  5
1514
330
148F
100
AcDbEntity
  8
DEFPOINTS
 62
     0
100
AcDbPoint
 10
53.21302226573073
 20
461.9168332271448
 30
0.0
  0
POINT
  5
1515
330
148F
100
AcDbEntity
  8
DEFPOINTS
 62
     0
100
AcDbPoint
 10
53.21302226573116
 20
611.9168332271448
 30
0.0
  0
POINT
  5
1516
330
148F
100
AcDbEntity
  8
DEFPOINTS
 62
     0
100
AcDbPoint
 10
40.0550218429444
 20
611.9168332271448
 30
0.0
  0
ENDBLK
  5
149A
330
148F
100
AcDbEntity
  8
0
100
AcDbBlockEnd
  0
BLOCK
  5
1926
330
191C
100
AcDbEntity
  8
0
100
AcDbBlockBegin
  2
*D6
 70
     1
 10
0.0
 20
0.0
 30
0.0
  3
*D6
  1

  0
LINE
  5
194C
330
191C
100
AcDbEntity
  8
BEM
 62
     0
370
    -2
100
AcDbLine
 10
53.21302226573116
 20
609.031046789518
 30
0.0
 11
53.21302226573116
 21
751.9267342268561
 31
0.0
  0
LINE
  5
194D
330
191C
100
AcDbEntity
  8
BEM
 62
     0
370
    -2
100
AcDbLine
 10
353.2130222657312
 20
609.031046789518
 30
0.0
 11
353.2130222657312
 21
751.9267342268561
 31
0.0
  0
LINE
  5
194E
330
191C
100
AcDbEntity
  8
BEM
 62
     0
370
    -2
100
AcDbLine
 10
60.21302226573116
 20
749.926734226856
 30
0.0
 11
346.2130222657312
 21
749.926734226856
 31
0.0
  0
SOLID
  5
194F
330
191C
100
AcDbEntity
  8
BEM
 62
     0
100
AcDbTrace
 10
60.21302226573116
 20
751.0934008935227
 30
0.0
 11
60.21302226573116
 21
748.7600675601894
 31
0.0
 12
53.21302226573116
 22
749.926734226856
 32
0.0
 13
53.21302226573116
 23
749.926734226856
 33
0.0
  0
SOLID
  5
1950
330
191C
100
AcDbEntity
  8
BEM
 62
     0
100
AcDbTrace
 10
346.2130222657312
 20
751.0934008935227
 30
0.0
 11
346.2130222657312
 21
748.7600675601894
 31
0.0
 12
353.2130222657312
 22
749.926734226856
 32
0.0
 13
353.2130222657312
 23
749.926734226856
 33
0.0
  0
MTEXT
  5
1951
330
191C
100
AcDbEntity
  8
BEM
 62
     1
100
AcDbMText
 10
203.2130222657312
 20
756.4267342268561
 30
0.0
 40
7.0
 41
0.0
 71
     5
 72
     1
  1
\A1;%%c300
 73
     1
 44
1.0
  0
POINT
  5
1952
330
191C
100
AcDbEntity
  8
DEFPOINTS
 62
     0
100
AcDbPoint
 10
53.21302226573116
 20
607.0310467895181
 30
0.0
  0
POINT
  5
1953
330
191C
100
AcDbEntity
  8
DEFPOINTS
 62
     0
100
AcDbPoint
 10
353.2130222657312
 20
607.0310467895181
 30
0.0
  0
POINT
  5
1954
330
191C
100
AcDbEntity
  8
DEFPOINTS
 62
     0
100
AcDbPoint
 10
353.2130222657312
 20
749.926734226856
 30
0.0
  0
ENDBLK
  5
1927
330
191C
100
AcDbEntity
  8
0
100
AcDbBlockEnd
  0
BLOCK
  5
1932
330
1928
100
AcDbEntity
  8
0
100
AcDbBlockBegin
  2
*D7
 70
     1
 10
0.0
 20
0.0
 30
0.0
  3
*D7
  1

  0
LINE
  5
1955
330
1928
100
AcDbEntity
  8
BEM
 62
     0
370
    -2
100
AcDbLine
 10
51.21302226573118
 20
617.9168332271439
 30
0.0
 11
20.33502070419045
 21
617.9168332271439
 31
0.0
  0
LINE
  5
1956
330
1928
100
AcDbEntity
  8
BEM
 62
     0
370
    -2
100
AcDbLine
 10
121.2130222657312
 20
727.9168332271431
 30
0.0
 11
20.33502070419047
 21
727.9168332271431
 31
0.0
  0
LINE
  5
1957
330
1928
100
AcDbEntity
  8
BEM
 62
     0
370
    -2
100
AcDbLine
 10
22.33502070419045
 20
624.9168332271438
 30
0.0
 11
22.33502070419047
 21
720.9168332271431
 31
0.0
  0
SOLID
  5
1958
330
1928
100
AcDbEntity
  8
BEM
 62
     0
100
AcDbTrace
 10
21.16835403752378
 20
624.9168332271438
 30
0.0
 11
23.50168737085712
 21
624.9168332271438
 31
0.0
 12
22.33502070419045
 22
617.9168332271439
 32
0.0
 13
22.33502070419045
 23
617.9168332271439
 33
0.0
  0
SOLID
  5
1959
330
1928
100
AcDbEntity
  8
BEM
 62
     0
100
AcDbTrace
 10
21.1683540375238
 20
720.9168332271431
 30
0.0
 11
23.50168737085714
 21
720.9168332271431
 31
0.0
 12
22.33502070419047
 22
727.9168332271431
 32
0.0
 13
22.33502070419047
 23
727.9168332271431
 33
0.0
  0
MTEXT
  5
195A
330
1928
100
AcDbEntity
  8
BEM
 62
     1
100
AcDbMText
 10
15.83502070419035
 20
672.9168332271435
 30
0.0
 40
7.0
 41
0.0
 71
     5
 72
     1
  1
\A1;110
 11
0.0000000000000001
 21
1.0
 31
0.0
 73
     1
 44
1.0
  0
POINT
  5
195B
330
1928
100
AcDbEntity
  8
DEFPOINTS
 62
     0
100
AcDbPoint
 10
53.21302226573118
 20
617.9168332271439
 30
0.0
  0
POINT
  5
195C
330
1928
100
AcDbEntity
  8
DEFPOINTS
 62
     0
100
AcDbPoint
 10
123.2130222657312
 20
727.9168332271431
 30
0.0
  0
POINT
  5
195D
330
1928
100
AcDbEntity
  8
DEFPOINTS
 62
     0
100
AcDbPoint
 10
22.33502070419047
 20
727.9168332271431
 30
0.0
  0
ENDBLK
  5
1933
330
1928
100
AcDbEntity
  8
0
100
AcDbBlockEnd
  0
BLOCK
  5
193E
330
1934
100
AcDbEntity
  8
0
100
AcDbBlockBegin
  2
*D8
 70
     1
 10
0.0
 20
0.0
 30
0.0
  3
*D8
  1

  0
LINE
  5
195E
330
1934
100
AcDbEntity
  8
BEM
 62
     0
370
    -2
100
AcDbLine
 10
93.21302226573118
 20
709.9167752598284
 30
0.0
 11
93.21302226573118
 21
739.2560503739344
 31
0.0
  0
LINE
  5
195F
330
1934
100
AcDbEntity
  8
BEM
 62
     0
370
    -2
100
AcDbLine
 10
313.2130222657314
 20
709.9167752598284
 30
0.0
 11
313.2130222657314
 21
739.2560503739344
 31
0.0
  0
LINE
  5
1960
330
1934
100
AcDbEntity
  8
BEM
 62
     0
370
    -2
100
AcDbLine
 10
100.2130222657312
 20
737.2560503739343
 30
0.0
 11
306.2130222657314
 21
737.2560503739343
 31
0.0
  0
SOLID
  5
1961
330
1934
100
AcDbEntity
  8
BEM
 62
     0
100
AcDbTrace
 10
100.2130222657312
 20
738.422717040601
 30
0.0
 11
100.2130222657312
 21
736.0893837072677
 31
0.0
 12
93.21302226573118
 22
737.2560503739343
 32
0.0
 13
93.21302226573118
 23
737.2560503739343
 33
0.0
  0
SOLID
  5
1962
330
1934
100
AcDbEntity
  8
BEM
 62
     0
100
AcDbTrace
 10
306.2130222657314
 20
738.422717040601
 30
0.0
 11
306.2130222657314
 21
736.0893837072677
 31
0.0
 12
313.2130222657314
 22
737.2560503739343
 32
0.0
 13
313.2130222657314
 23
737.2560503739343
 33
0.0
  0
MTEXT
  5
1963
330
1934
100
AcDbEntity
  8
BEM
 62
     1
100
AcDbMText
 10
203.2130222657313
 20
743.7560503739343
 30
0.0
 40
7.0
 41
0.0
 71
     5
 72
     1
  1
\A1;%%c220
 73
     1
 44
1.0
  0
POINT
  5
1964
330
1934
100
AcDbEntity
  8
DEFPOINTS
 62
     0
100
AcDbPoint
 10
93.21302226573118
 20
707.9167752598285
 30
0.0
  0
POINT
  5
1965
330
1934
100
AcDbEntity
  8
DEFPOINTS
 62
     0
100
AcDbPoint
 10
313.2130222657314
 20
707.9167752598285
 30
0.0
  0
POINT
  5
1966
330
1934
100
AcDbEntity
  8
DEFPOINTS
 62
     0
100
AcDbPoint
 10
313.2130222657314
 20
737.2560503739343
 30
0.0
  0
ENDBLK
  5
193F
330
1934
100
AcDbEntity
  8
0
100
AcDbBlockEnd
  0
BLOCK
  5
194A
330
1940
100
AcDbEntity
  8
0
100
AcDbBlockBegin
  2
*D9
 70
     1
 10
0.0
 20
0.0
 30
0.0
  3
*D9
  1

  0
LINE
  5
1967
330
1940
100
AcDbEntity
  8
BEM
 62
     0
370
    -2
100
AcDbLine
 10
118.2752243310883
 20
672.916833227144
 30
0.0
 11
36.60411307088454
 21
672.916833227144
 31
0.0
  0
LINE
  5
1968
330
1940
100
AcDbEntity
  8
BEM
 62
     0
370
    -2
100
AcDbLine
 10
51.21302226573092
 20
617.916833227144
 30
0.0
 11
36.60411307088452
 21
617.916833227144
 31
0.0
  0
LINE
  5
1969
330
1940
100
AcDbEntity
  8
BEM
 62
     0
370
    -2
100
AcDbLine
 10
38.60411307088454
 20
665.916833227144
 30
0.0
 11
38.60411307088453
 21
624.916833227144
 31
0.0
  0
SOLID
  5
196A
330
1940
100
AcDbEntity
  8
BEM
 62
     0
100
AcDbTrace
 10
37.43744640421788
 20
665.916833227144
 30
0.0
 11
39.7707797375512
 21
665.916833227144
 31
0.0
 12
38.60411307088454
 22
672.916833227144
 32
0.0
 13
38.60411307088454
 23
672.916833227144
 33
0.0
  0
SOLID
  5
196B
330
1940
100
AcDbEntity
  8
BEM
 62
     0
100
AcDbTrace
 10
37.43744640421787
 20
624.916833227144
 30
0.0
 11
39.7707797375512
 21
624.916833227144
 31
0.0
 12
38.60411307088453
 22
617.916833227144
 32
0.0
 13
38.60411307088453
 23
617.916833227144
 33
0.0
  0
MTEXT
  5
196C
330
1940
100
AcDbEntity
  8
BEM
 62
     1
100
AcDbMText
 10
32.10411307088443
 20
645.416833227144
 30
0.0
 40
7.0
 41
0.0
 71
     5
 72
     1
  1
\A1;55
 11
0.0000000000000001
 21
1.0
 31
0.0
 73
     1
 44
1.0
  0
POINT
  5
196D
330
1940
100
AcDbEntity
  8
DEFPOINTS
 62
     0
100
AcDbPoint
 10
120.2752243310883
 20
672.916833227144
 30
0.0
  0
POINT
  5
196E
330
1940
100
AcDbEntity
  8
DEFPOINTS
 62
     0
100
AcDbPoint
 10
53.21302226573092
 20
617.916833227144
 30
0.0
  0
POINT
  5
196F
330
1940
100
AcDbEntity
  8
DEFPOINTS
 62
     0
100
AcDbPoint
 10
38.60411307088453
 20
617.916833227144
 30
0.0
  0
ENDBLK
  5
194B
330
1940
100
AcDbEntity
  8
0
100
AcDbBlockEnd
  0
ENDSEC
  0
SECTION
  2
ENTITIES
  0
LINE
  5
58
330
1E
100
AcDbEntity
  8
STEMPEL
100
AcDbLine
 10
484.0
 20
830.0000000000002
 30
0.0
 11
484.0
 21
470.0000000000001
 31
0.0
  0
LINE
  5
59
330
1E
100
AcDbEntity
  8
STEMPEL
100
AcDbLine
 10
484.0
 20
470.0000000000001
 30
0.0
 11
584.0
 21
470.0000000000001
 31
0.0
  0
LINE
  5
5A
330
1E
100
AcDbEntity
  8
STEMPEL
100
AcDbLine
 10
484.0000000000001
 20
566.0000000000002
 30
0.0
 11
584.0000000000001
 21
566.0
 31
0.0
  0
LINE
  5
5B
330
1E
100
AcDbEntity
  8
STEMPEL
100
AcDbLine
 10
484.0
 20
650.0
 30
0.0
 11
584.0
 21
650.0
 31
0.0
  0
LINE
  5
5C
330
1E
100
AcDbEntity
  8
STEMPEL
100
AcDbLine
 10
484.0000000000003
 20
752.0000000000002
 30
0.0
 11
554.0
 21
752.0000000000002
 31
0.0
  0
LINE
  5
5D
330
1E
100
AcDbEntity
  8
STEMPEL
100
AcDbLine
 10
564.0
 20
566.0
 30
0.0
 11
564.0
 21
470.0000000000001
 31
0.0
  0
LINE
  5
5E
330
1E
100
AcDbEntity
  8
STEMPEL
100
AcDbLine
 10
554.0
 20
830.0000000000002
 30
0.0
 11
554.0
 21
566.0
 31
0.0
  0
LINE
  5
5F
330
1E
100
AcDbEntity
  8
STEMPEL
100
AcDbLine
 10
514.0
 20
830.0000000000002
 30
0.0
 11
514.0
 21
566.0000000000002
 31
0.0
  0
LINE
  5
60
330
1E
100
AcDbEntity
  8
VOLL
100
AcDbLine
 10
484.0
 20
484.0000000000001
 30
0.0
 11
584.0
 21
484.0
 31
0.0
  0
LINE
  5
61
330
1E
100
AcDbEntity
  8
VOLL
100
AcDbLine
 10
484.0000000000001
 20
524.0000000000001
 30
0.0
 11
584.0000000000001
 21
524.0
 31
0.0
  0
LINE
  5
62
330
1E
100
AcDbEntity
  8
VOLL
100
AcDbLine
 10
484.0000000000001
 20
544.0000000000002
 30
0.0
 11
584.0000000000001
 21
544.0
 31
0.0
  0
LINE
  5
63
330
1E
100
AcDbEntity
  8
VOLL
100
AcDbLine
 10
514.0
 20
584.0000000000002
 30
0.0
 11
554.0
 21
584.0000000000002
 31
0.0
  0
LINE
  5
64
330
1E
100
AcDbEntity
  8
VOLL
100
AcDbLine
 10
484.0000000000002
 20
610.0000000000002
 30
0.0
 11
554.0
 21
610.0
 31
0.0
  0
LINE
  5
65
330
1E
100
AcDbEntity
  8
HILF
100
AcDbLine
 10
494.0
 20
470.0000000000001
 30
0.0
 11
494.0
 21
566.0000000000002
 31
0.0
  0
LINE
  5
66
330
1E
100
AcDbEntity
  8
HILF
100
AcDbLine
 10
504.0
 20
470.0000000000001
 30
0.0
 11
504.0
 21
566.0000000000002
 31
0.0
  0
LINE
  5
67
330
1E
100
AcDbEntity
  8
HILF
100
AcDbLine
 10
514.0
 20
470.0000000000001
 30
0.0
 11
514.0
 21
566.0000000000002
 31
0.0
  0
LINE
  5
68
330
1E
100
AcDbEntity
  8
HILF
100
AcDbLine
 10
524.0
 20
470.0000000000001
 30
0.0
 11
524.0
 21
566.0000000000002
 31
0.0
  0
LINE
  5
69
330
1E
100
AcDbEntity
  8
HILF
100
AcDbLine
 10
534.0
 20
470.0000000000001
 30
0.0
 11
534.0
 21
566.0000000000002
 31
0.0
  0
LINE
  5
6A
330
1E
100
AcDbEntity
  8
HILF
100
AcDbLine
 10
544.0
 20
470.0000000000001
 30
0.0
 11
544.0
 21
566.0000000000002
 31
0.0
  0
LINE
  5
6B
330
1E
100
AcDbEntity
  8
HILF
100
AcDbLine
 10
554.0
 20
470.0000000000001
 30
0.0
 11
554.0
 21
566.0000000000002
 31
0.0
  0
LINE
  5
6C
330
1E
100
AcDbEntity
  8
HILF
100
AcDbLine
 10
524.0
 20
566.0000000000002
 30
0.0
 11
524.0
 21
650.0
 31
0.0
  0
LINE
  5
6D
330
1E
100
AcDbEntity
  8
HILF
100
AcDbLine
 10
534.0
 20
566.0000000000002
 30
0.0
 11
534.0
 21
650.0
 31
0.0
  0
LINE
  5
6E
330
1E
100
AcDbEntity
  8
HILF
100
AcDbLine
 10
544.0
 20
566.0000000000002
 30
0.0
 11
544.0
 21
650.0
 31
0.0
  0
LINE
  5
6F
330
1E
100
AcDbEntity
  8
HILF
100
AcDbLine
 10
509.9624175243587
 20
654.7736801096948
 30
0.0
 11
509.9624175243587
 21
746.6297842514811
 31
0.0
  0
LINE
  5
70
330
1E
100
AcDbEntity
  8
HILF
100
AcDbLine
 10
524.0
 20
654.7736801096948
 30
0.0
 11
524.0
 21
746.6297842514811
 31
0.0
  0
LINE
  5
71
330
1E
100
AcDbEntity
  8
HILF
100
AcDbLine
 10
534.0
 20
654.7736801096948
 30
0.0
 11
534.0
 21
746.6297842514811
 31
0.0
  0
LINE
  5
72
330
1E
100
AcDbEntity
  8
HILF
100
AcDbLine
 10
544.0
 20
654.7736801096948
 30
0.0
 11
544.0
 21
746.6297842514811
 31
0.0
  0
LINE
  5
73
330
1E
100
AcDbEntity
  8
VOLL
100
AcDbLine
 10
534.0
 20
752.0000000000002
 30
0.0
 11
534.0
 21
830.0000000000002
 31
0.0
  0
LINE
  5
74
330
1E
100
AcDbEntity
  8
HILF
100
AcDbLine
 10
510.2201636304418
 20
756.7238616296995
 30
0.0
 11
510.2201636304418
 21
824.858883932673
 31
0.0
  0
LINE
  5
75
330
1E
100
AcDbEntity
  8
HILF
100
AcDbLine
 10
579.1060174197169
 20
654.7736801096948
 30
0.0
 11
579.1060174197169
 21
824.858883932673
 31
0.0
  0
TEXT
  5
76
330
1E
100
AcDbEntity
  8
TEXT
100
AcDbText
 10
575.3261810501587
 20
492.3998239263297
 30
0.0
 40
4.0
  1
Änderung
 50
90.0
 41
0.8
  7
GREEKS
 72
     1
 11
575.3261810501587
 21
503.1426810691868
 31
0.0
100
AcDbText
  0
TEXT
  5
78
330
1E
100
AcDbEntity
  8
TEXT
100
AcDbText
 10
491.5379104912911
 20
573.5163572150376
 30
0.0
 40
5.0
  1
Maßstab
 50
90.0
 41
0.8
  7
GREEKS
100
AcDbText
  0
TEXT
  5
79
330
1E
100
AcDbEntity
  8
TEXT
100
AcDbText
 10
491.4510671988221
 20
654.8779403809009
 30
0.0
 40
5.0
  1
Benennung
 50
90.0
 41
0.8
  7
GREEKS
100
AcDbText
  0
TEXT
  5
7A
330
1E
100
AcDbEntity
  8
TEXT
100
AcDbText
 10
491.6867965462863
 20
756.1787549576343
 30
0.0
 40
5.0
  1
Zeichnungs Nr.
 50
90.0
 41
0.8
  7
GREEKS
100
AcDbText
  0
TEXT
  5
7B
330
1E
100
AcDbEntity
  8
TEXT
100
AcDbText
 10
563.1543942980694
 20
654.7422383911359
 30
0.0
 40
5.0
  1
Bauvorhaben
 50
90.0
 41
0.8
  7
GREEKS
100
AcDbText
  0
TEXT
  5
7C
330
1E
100
AcDbEntity
  8
TEXT
100
AcDbText
 10
520.8188176290003
 20
756.7238616296995
 30
0.0
 40
5.0
  1
Ersatz für:
 50
90.0
 41
0.8
  7
GREEKS
100
AcDbText
  0
TEXT
  5
7D
330
1E
100
AcDbEntity
  8
TEXT
100
AcDbText
 10
580.3453415397281
 20
478.2664110704577
 30
0.0
 40
4.0
  1
Index
 50
180.0
 41
0.8
  7
GREEKS
100
AcDbText
  0
TEXT
  5
7E
330
1E
100
AcDbEntity
  8
TEXT
100
AcDbText
 10
575.3284373066019
 20
529.8990113186978
 30
0.0
 40
4.0
  1
Tag
 50
90.0
 41
0.8
  7
GREEKS
 72
     1
 11
575.3284373066019
 21
533.6323446520311
 31
0.0
100
AcDbText
  0
TEXT
  5
7F
330
1E
100
AcDbEntity
  8
TEXT
100
AcDbText
 10
575.4067578303359
 20
548.9795678138292
 30
0.0
 40
4.0
  1
Name
 50
90.0
 41
0.8
  7
GREEKS
 72
     1
 11
575.4067578303359
 21
555.3033773376387
 31
0.0
100
AcDbText
  0
TEXT
  5
80
330
1E
100
AcDbEntity
  8
TEXT
100
AcDbText
 10
520.6811949877008
 20
592.3311673153651
 30
0.0
 40
4.0
  1
Tag
 50
90.0
 41
0.8
  7
GREEKS
100
AcDbText
  0
TEXT
  5
81
330
1E
100
AcDbEntity
  8
TEXT
100
AcDbText
 10
520.6903890808478
 20
622.4626584226296
 30
0.0
 40
4.0
  1
Name
 50
90.0
 41
0.8
  7
GREEKS
100
AcDbText
  0
TEXT
  5
82
330
1E
100
AcDbEntity
  8
TEXT
100
AcDbText
 10
530.3700963038204
 20
567.5836127167615
 30
0.0
 40
4.0
  1
Gez.
 50
90.0
 41
0.8
  7
GREEKS
100
AcDbText
  0
TEXT
  5
83
330
1E
100
AcDbEntity
  8
TEXT
100
AcDbText
 10
540.3107370857163
 20
567.5515086571672
 30
0.0
 40
4.0
  1
Gepr.
 50
90.0
 41
0.8
  7
GREEKS
100
AcDbText
  0
TEXT
  5
84
330
1E
100
AcDbEntity
  8
TEXT
100
AcDbText
 10
550.470536103502
 20
567.6006777387303
 30
0.0
 40
4.0
  1
Norm.
 50
90.0
 41
0.8
  7
GREEKS
100
AcDbText
  0
TEXT
  5
85
330
1E
100
AcDbEntity
  8
TEXT
100
AcDbText
 10
541.925838221214
 20
757.2400861497007
 30
0.0
 40
5.0
  1
ersetzt durch:
 50
90.0
 41
0.8
  7
GREEKS
100
AcDbText
  0
TEXT
  5
86
330
1E
100
AcDbEntity
  8
TEXT
100
AcDbText
 10
521.0331740347627
 20
568.8693027807324
 30
0.0
 40
4.0
  1
2010
 50
90.0
 41
0.8
  7
GREEKS
100
AcDbText
  0
LINE
  5
87
330
1E
100
AcDbEntity
  8
HILF
100
AcDbLine
 10
594.0
 20
-0.0000000000000568
 30
0.0
 11
594.0
 21
840.0
 31
0.0
  0
LINE
  5
88
330
1E
100
AcDbEntity
  8
HILF
100
AcDbLine
 10
594.0
 20
840.0
 30
0.0
 11
0.0
 21
840.0
 31
0.0
  0
LINE
  5
89
330
1E
100
AcDbEntity
  8
HILF
100
AcDbLine
 10
0.0
 20
840.0
 30
0.0
 11
0.0
 21
0.0
 31
0.0
  0
LINE
  5
8B
330
1E
100
AcDbEntity
  8
STEMPEL
100
AcDbLine
 10
10.0
 20
830.0
 30
0.0
 11
10.0
 21
39.99999999999995
 31
0.0
  0
LINE
  5
8D
330
1E
100
AcDbEntity
  8
STEMPEL
100
AcDbLine
 10
584.0
 20
39.99999999999995
 30
0.0
 11
584.0
 21
830.0
 31
0.0
  0
LINE
  5
8E
330
1E
100
AcDbEntity
  8
STEMPEL
100
AcDbLine
 10
584.0
 20
830.0
 30
0.0
 11
10.0
 21
830.0
 31
0.0
  0
TEXT
  5
8F
330
1E
100
AcDbEntity
  8
TEXT
 62
     1
100
AcDbText
 10
506.6265692434746
 20
655.0390572473189
 30
0.0
 40
7.0
  1
Drainjet-Notablauf DN100
 50
90.0
 41
0.65
  7
GREEKS
100
AcDbText
  0
TEXT
  5
90
330
1E
100
AcDbEntity
  8
TEXT
 62
     1
100
AcDbText
 10
506.6265692434746
 20
767.7294755517469
 30
0.0
 40
7.0
  1
21321100W
 50
90.0
 41
0.8
  7
GREEKS
 72
     1
 11
506.6265692434746
 21
790.1294755517469
 31
0.0
100
AcDbText
  0
TEXT
  5
91
330
1E
100
AcDbEntity
  8
TEXT
100
AcDbText
 10
491.16010388621
 20
618.5090226415829
 30
0.0
 40
5.0
  1
Zul.Abw.
 50
90.0
 41
0.8
  7
GREEKS
100
AcDbText
  0
TEXT
  5
93
330
1E
100
AcDbEntity
  8
TEXT
100
AcDbText
 10
530.8491412387978
 20
590.7660475607107
 30
0.0
 40
4.0
  1
14.12.
 50
90.0
 41
0.8
  7
GREEKS
 72
     1
 11
530.8491412387978
 21
597.1660475607107
 31
0.0
100
AcDbText
  0
TEXT
  5
94
330
1E
100
AcDbEntity
  8
TEXT
100
AcDbText
 10
531.0570234483452
 20
624.0231753226609
 30
0.0
 40
4.0
  1
Koeh
 50
90.0
 41
0.8
  7
GREEKS
 72
     1
 11
531.0570234483452
 21
629.2803181798038
 31
0.0
100
AcDbText
  0
TEXT
  5
95
330
1E
100
AcDbEntity
  8
TEXT
100
AcDbText
 10
521.8997861689246
 20
654.3410940884991
 30
0.0
 40
5.0
  1
zweiteilig
 50
90.0
 41
0.8
  7
GREEKS
100
AcDbText
  0
TEXT
  5
96
330
1E
100
AcDbEntity
  8
TEXT
100
AcDbText
 10
531.6544091479096
 20
654.3410940884991
 30
0.0
 40
5.0
  1

 50
90.0
 41
0.8
  7
GREEKS
100
AcDbText
  0
TEXT
  5
97
330
1E
100
AcDbEntity
  8
TEXT
100
AcDbText
 10
541.4090266215394
 20
654.3410940884991
 30
0.0
 40
5.0
  1
EDV-Art.Nr. 21321.100X
 50
90.0
 41
0.8
  7
GREEKS
100
AcDbText
  0
TEXT
  5
98
330
1E
100
AcDbEntity
  8
TEXT
100
AcDbText
 10
550.6887237520849
 20
654.1676050109347
 30
0.0
 40
4.0
  1
21321100W.DWG
 50
90.0
 41
0.8
  7
GREEKS
100
AcDbText
  0
TEXT
  5
99
330
1E
100
AcDbEntity
  8
TEXT
 62
     1
100
AcDbText
 10
506.5292291158502
 20
582.703491203422
 30
0.0
 40
7.0
  1
1:2
 50
90.0
 41
0.8
  7
GREEKS
100
AcDbText
  0
TEXT
  5
9A
330
1E
100
AcDbEntity
  8
TEXT
100
AcDbText
 10
479.8856414948956
 20
470.0441139350127
 30
0.0
 40
5.0
  1
Erstellt mit AUTOCAD 2004
 50
90.0
 41
0.8
  7
GREEKS
100
AcDbText
  0
INSERT
  5
9B
330
1E
100
AcDbEntity
  8
HILF
100
AcDbBlockReference
  2
LORO
 10
557.0194069970104
 20
573.0624985962354
 30
0.0
 41
2.0
 42
2.0
 43
2.0
 50
90.0
  0
LINE
  5
9C
330
1E
100
AcDbEntity
  8
BEM
100
AcDbLine
 10
594.0
 20
455.9999999999999
 30
0.0
 11
584.0
 21
455.9999999999999
 31
0.0
  0
LINE
  5
13E
330
1E
100
AcDbEntity
  8
HILF
100
AcDbLine
 10
594.0
 20
-0.0000000000000568
 30
0.0
 11
0.0
 21
0.0
 31
0.0
  0
LINE
  5
13F
330
1E
100
AcDbEntity
  8
STEMPEL
100
AcDbLine
 10
584.0
 20
39.99999999999995
 30
0.0
 11
10.0
 21
39.99999999999995
 31
0.0
  0
LINE
  5
14A
330
1E
100
AcDbEntity
  8
HILF
100
AcDbLine
 10
297.0
 20
-0.0000000000000568
 30
0.0
 11
297.0
 21
39.99999999999995
 31
0.0
  0
TEXT
  5
15B
330
1E
100
AcDbEntity
  8
BEM
100
AcDbText
 10
583.8320989200114
 20
837.3022923857165
 30
0.0
 40
4.0
  1
Diese Zeichnung ist urheberrechtlich geschützt und bleibt unser Eigentum. Sie darf weder ganz noch teilweise verfielfältigt und nicht an Dritte weitergegeben werden.
 50
180.0
 41
0.8
  7
GREEKS
100
AcDbText
  0
LINE
  5
19C
330
1E
100
AcDbEntity
  8
BEM
100
AcDbLine
 10
0.0
 20
455.9999999999999
 30
0.0
 11
10.0
 21
455.9999999999999
 31
0.0
  0
TEXT
  5
663
330
1E
100
AcDbEntity
  8
TEXT
100
AcDbText
 10
504.5307583482736
 20
612.2898419893275
 30
0.0
 40
4.0
  1
DIN EN1124-3
 50
90.0
 41
0.8
  7
GREEKS
 72
     1
 11
504.5307583482736
 21
629.2803181798038
 31
0.0
100
AcDbText
  0
TEXT
  5
998
330
1E
100
AcDbEntity
  8
TEXT
 62
     1
100
AcDbText
 10
197.7896183724508
 20
542.3832455901031
 30
0.0
 40
7.0
  1
DN100
 50
90.0
 41
0.8
  7
GREEKS
 72
     1
 11
197.7896183724508
 21
554.7832455901031
 31
0.0
100
AcDbText
  0
TEXT
  5
B76
330
1E
100
AcDbEntity
  8
TEXT
 62
     1
100
AcDbText
 10
335.9034952369845
 20
521.2407102236701
 30
0.0
 40
7.0
  1
Ablaufkörper DN100
 41
0.8
  7
GREEKS
100
AcDbText
  0
LINE
  5
B77
330
1E
100
AcDbEntity
  8
TEXT
 62
     2
100
AcDbLine
 10
334.8228088381473
 20
517.6279419514763
 30
0.0
 11
254.1242349355163
 21
531.6504424042792
 31
0.0
  0
LINE
  5
B78
330
1E
100
AcDbEntity
  8
TEXT
 62
     2
100
AcDbLine
 10
440.9467034458251
 20
517.6279419514766
 30
0.0
 11
334.8228088381473
 21
517.6279419514763
 31
0.0
  0
TEXT
  5
B79
330
1E
100
AcDbEntity
  8
TEXT
 62
     1
100
AcDbText
 10
335.7229399428323
 20
508.1929380766909
 30
0.0
 40
7.0
  1
EDV-Art.Nr. 21981.100X
 41
0.8
  7
GREEKS
100
AcDbText
  0
TEXT
  5
BB1
330
1E
100
AcDbEntity
  8
TEXT
 62
     1
100
AcDbText
 10
348.2957072912852
 20
552.4107963618233
 30
0.0
 40
7.0
  1
Kompressionsdichtung
 41
0.8
100
AcDbText
  0
TEXT
  5
BB2
330
1E
100
AcDbEntity
  8
TEXT
 62
     1
100
AcDbText
 10
348.6516662941219
 20
538.8727830567749
 30
0.0
 40
7.0
  1
EDV-Art.Nr. 21810.125X
 41
0.8
100
AcDbText
  0
LINE
  5
BB3
330
1E
100
AcDbEntity
  8
TEXT
 62
     2
100
AcDbLine
 10
341.56988059094
 20
549.4242558697703
 30
0.0
 11
453.0996219253428
 21
549.4242558697703
 31
0.0
  0
LINE
  5
DCE
330
1E
100
AcDbEntity
  8
STEMPEL
100
AcDbLine
 10
59.75566295285034
 20
611.9168332271449
 30
0.0
 11
346.670381578613
 21
611.9168332271438
 31
0.0
  0
LINE
  5
E99
330
1E
100
AcDbEntity
  8
MITTEL
100
AcDbLine
 10
203.2130222657313
 20
734.4168332271435
 30
0.0
 11
203.2130222657308
 21
512.3002058519921
 31
0.0
  0
HATCH
  5
10F7
330
1E
100
AcDbEntity
  8
SCHRAFF
100
AcDbHatch
 10
0.0
 20
0.0
 30
0.0
210
0.0
220
0.0
230
1.0
  2
_USER
 70
     0
 71
     0
 91
        2
 92
        7
 72
     1
 73
     1
 93
       10
 10
252.8130222657309
 20
349.9692263586342
 42
0.0
 10
252.1085291524716
 20
341.9168332271444
 42
0.0
 10
253.3131129575236
 20
341.9168332271444
 42
0.0
 10
254.013022265731
 20
349.916833227144
 42
0.0
 10
254.013022265731
 20
586.726883733485
 42
-0.198912367379669
 10
255.4774883597984
 20
590.2624176394178
 42
0.0
 10
262.4046961536608
 20
597.1896254332799
 42
0.0
 10
261.5561680162369
 20
598.0381535707038
 42
0.0
 10
254.6289602223744
 20
591.1109457768418
 42
0.1989123673796574
 10
252.813022265731
 20
586.7268837334852
 42
0.0
 97
        0
 92
        7
 72
     1
 73
     1
 93
       10
 10
152.4130222657309
 20
349.9168332271452
 42
0.0
 10
153.1129315739383
 20
341.9168332271448
 42
0.0
 10
154.3175153789904
 20
341.9168332271448
 42
0.0
 10
153.6130222657309
 20
349.9692263586354
 42
0.0
 10
153.6130222657309
 20
586.726883733485
 42
0.198912367379669
 10
151.7970843090874
 20
591.1109457768417
 42
0.0
 10
144.8698765152243
 20
598.0381535707042
 42
0.0
 10
144.0213483778005
 20
597.1896254332802
 42
0.0
 10
150.9485561716635
 20
590.2624176394178
 42
-0.1989123673796631
 10
152.4130222657309
 20
586.726883733485
 42
0.0
 97
        0
 75
     0
 76
     0
 52
135.0
 41
2.0
 77
     0
 78
     1
 53
135.0
 43
-32.93917703807392
 44
168.6772290668291
 45
-1.414213562373095
 46
-1.414213562373094
 79
     0
 47
0.4814251419694602
 98
        2
 10
253.1966631028113
 20
518.7035724767304
 10
153.0059197067039
 20
524.9620995806221
  0
HATCH
  5
10F8
330
1E
100
AcDbEntity
  8
SCHRAFF
100
AcDbHatch
 10
0.0
 20
0.0
 30
0.0
210
0.0
220
0.0
230
1.0
  2
_USER
 70
     0
 71
     0
 91
        4
 92
        7
 72
     1
 73
     1
 93
        4
 10
261.1319039475249
 20
595.9168332271441
 42
0.0
 10
260.283375810101
 20
595.0683050897203
 42
0.7207592200561592
 10
265.3745446346443
 20
597.6138895019917
 42
0.0
 10
263.6774883597964
 20
595.9168332271442
 42
0.0
 97
        0
 92
       23
 72
     0
 73
     1
 93
        3
 10
262.4046961536608
 20
597.1896254332798
 10
261.1319039475249
 20
595.916833227144
 10
263.6774883597965
 20
595.9168332271441
 97
        0
 92
       23
 72
     0
 73
     1
 93
        3
 10
144.0213483778004
 20
597.1896254332803
 10
142.7485561716648
 20
595.9168332271445
 10
145.2941405839364
 20
595.9168332271445
 97
        0
 92
        7
 72
     1
 73
     1
 93
        4
 10
146.1426687213608
 20
595.0683050897203
 42
0.0
 10
145.2941405839363
 20
595.9168332271446
 42
0.0
 10
142.7485561716647
 20
595.9168332271445
 42
0.0
 10
141.0514998968176
 20
597.6138895019914
 42
0.7207592200560974
 97
        0
 75
     0
 76
     0
 52
0.0
 41
0.1
 77
     0
 78
     1
 53
0.0
 43
-32.93917703807392
 44
168.6772290668291
 45
0.0
 46
0.1
 79
     0
 47
0.229449449055442
 98
        4
 10
262.4070205638022
 20
595.1799732627269
 10
262.6365945072689
 20
596.0977715428937
 10
144.4060317985895
 20
596.3272207630714
 10
143.9468839116566
 20
594.7210748223715
  0
ARC
  5
10F9
330
1E
100
AcDbEntity
  8
SCHRAFF
100
AcDbCircle
 10
144.0213483778011
 20
597.1896254332798
 30
0.0
 40
3.0
100
AcDbArc
 50
171.8698976458433
 51
315.0000000000012
  0
ARC
  5
10FA
330
1E
100
AcDbEntity
  8
SCHRAFF
100
AcDbCircle
 10
262.4046961536608
 20
597.1896254332798
 30
0.0
 40
3.0
100
AcDbArc
 50
224.9999999999988
 51
8.130102354156669
  0
LINE
  5
10FB
330
1E
100
AcDbEntity
  8
STEMPEL
100
AcDbLine
 10
261.131903947525
 20
595.916833227144
 30
0.0
 11
263.6774883597964
 21
595.9168332271441
 31
0.0
  0
LINE
  5
10FC
330
1E
100
AcDbEntity
  8
STEMPEL
100
AcDbLine
 10
262.4046961536608
 20
597.1896254332798
 30
0.0
 11
255.4774883597984
 21
590.2624176394178
 31
0.0
  0
ARC
  5
10FD
330
1E
100
AcDbEntity
  8
STEMPEL
100
AcDbCircle
 10
259.013022265731
 20
586.726883733485
 30
0.0
 40
5.0
100
AcDbArc
 50
134.9999999999988
 51
180.0
  0
ARC
  5
10FE
330
1E
100
AcDbEntity
  8
STEMPEL
100
AcDbCircle
 10
259.013022265731
 20
586.726883733485
 30
0.0
 40
6.2
100
AcDbArc
 50
134.9999999999988
 51
180.0
  0
ARC
  5
10FF
330
1E
100
AcDbEntity
  8
STEMPEL
100
AcDbCircle
 10
147.4130222657309
 20
586.726883733485
 30
0.0
 40
6.2
100
AcDbArc
 50
0.0
 51
45.00000000000115
  0
ARC
  5
1100
330
1E
100
AcDbEntity
  8
STEMPEL
100
AcDbCircle
 10
147.4130222657309
 20
586.726883733485
 30
0.0
 40
5.0
100
AcDbArc
 50
0.0
 51
45.00000000000115
  0
LINE
  5
1101
330
1E
100
AcDbEntity
  8
STEMPEL
100
AcDbLine
 10
143.9568196529487
 20
597.2541541581322
 30
0.0
 11
150.9485561716635
 21
590.2624176394178
 31
0.0
  0
LINE
  5
1102
330
1E
100
AcDbEntity
  8
STEMPEL
100
AcDbLine
 10
252.813022265731
 20
349.9692263586346
 30
0.0
 11
252.1085291524715
 21
341.9168332271444
 31
0.0
  0
LINE
  5
1103
330
1E
100
AcDbEntity
  8
STEMPEL
100
AcDbLine
 10
153.6130222657309
 20
349.9692263586353
 30
0.0
 11
154.3175153789904
 21
341.9168332271448
 31
0.0
  0
LINE
  5
1104
330
1E
100
AcDbEntity
  8
STEMPEL
100
AcDbLine
 10
153.6130222657309
 20
586.726883733485
 30
0.0
 11
153.6130222657309
 21
349.9692263586353
 31
0.0
  0
LINE
  5
1105
330
1E
100
AcDbEntity
  8
STEMPEL
100
AcDbLine
 10
252.813022265731
 20
586.726883733485
 30
0.0
 11
252.813022265731
 21
349.9692263586346
 31
0.0
  0
LINE
  5
1106
330
1E
100
AcDbEntity
  8
STEMPEL
100
AcDbLine
 10
254.013022265731
 20
349.9168332271446
 30
0.0
 11
253.3131129575236
 21
341.9168332271444
 31
0.0
  0
LINE
  5
1107
330
1E
100
AcDbEntity
  8
STEMPEL
100
AcDbLine
 10
152.4130222657309
 20
349.9168332271449
 30
0.0
 11
153.1129315739383
 21
341.9168332271448
 31
0.0
  0
LINE
  5
1108
102
{ACAD_REACTORS
330
14D2
102
}
330
1E
100
AcDbEntity
  8
STEMPEL
100
AcDbLine
 10
254.013022265731
 20
586.726883733485
 30
0.0
 11
254.013022265731
 21
349.9168332271446
 31
0.0
  0
LINE
  5
1109
102
{ACAD_REACTORS
330
14D2
102
}
330
1E
100
AcDbEntity
  8
STEMPEL
100
AcDbLine
 10
152.4130222657309
 20
586.726883733485
 30
0.0
 11
152.4130222657309
 21
349.9168332271449
 31
0.0
  0
LINE
  5
110A
330
1E
100
AcDbEntity
  8
STEMPEL
100
AcDbLine
 10
142.7485561716647
 20
595.9168332271445
 30
0.0
 11
145.2941405839365
 21
595.9168332271445
 31
0.0
  0
LINE
  5
110B
330
1E
100
AcDbEntity
  8
STEMPEL
100
AcDbLine
 10
261.5561680162368
 20
598.0381535707038
 30
0.0
 11
144.8698765152248
 21
598.0381535707038
 31
0.0
  0
LINE
  5
110C
102
{ACAD_REACTORS
330
1123
102
}
330
1E
100
AcDbEntity
  8
STEMPEL
100
AcDbLine
 10
59.34144939047712
 20
611.9168332271449
 30
0.0
 11
347.0845951409847
 21
611.9168332271438
 31
0.0
  0
LINE
  5
110D
330
1E
100
AcDbEntity
  8
STEMPEL
100
AcDbLine
 10
55.34144939047712
 20
604.9168332271449
 30
0.0
 11
133.7485561716639
 21
604.9168332271447
 31
0.0
  0
LINE
  5
110E
102
{ACAD_REACTORS
330
1123
102
}
330
1E
100
AcDbEntity
  8
STEMPEL
100
AcDbLine
 10
59.34144939047712
 20
608.9168332271449
 30
0.0
 11
128.9201290469178
 21
608.9168332271447
 31
0.0
  0
LINE
  5
110F
102
{ACAD_REACTORS
330
1123
102
}
330
1E
100
AcDbEntity
  8
STEMPEL
100
AcDbLine
 10
53.22012904691746
 20
607.0381535707049
 30
0.0
 11
57.22012904691746
 21
611.0381535707047
 31
0.0
  0
LINE
  5
1110
102
{ACAD_REACTORS
330
1123
102
}
330
1E
100
AcDbEntity
  8
STEMPEL
100
AcDbLine
 10
55.34144939047712
 20
604.9168332271449
 30
0.0
 11
59.34144939047712
 21
608.9168332271449
 31
0.0
  0
LINE
  5
1111
102
{ACAD_REACTORS
330
1123
102
}
330
1E
100
AcDbEntity
  8
STEMPEL
100
AcDbLine
 10
53.22012904691757
 20
607.0381535707046
 30
0.0
 11
55.34144939047712
 21
604.9168332271449
 31
0.0
  0
ARC
  5
1112
102
{ACAD_REACTORS
330
1123
102
}
330
1E
100
AcDbEntity
  8
STEMPEL
100
AcDbCircle
 10
59.34144939047712
 20
608.9168332271449
 30
0.0
 40
3.0
100
AcDbArc
 50
90.0
 51
135.0
  0
ARC
  5
1113
102
{ACAD_REACTORS
330
1123
102
}
330
1E
100
AcDbEntity
  8
STEMPEL
100
AcDbCircle
 10
128.9201290469178
 20
606.9168332271445
 30
0.0
 40
5.0
100
AcDbArc
 50
45.0
 51
90.0
  0
LINE
  5
1114
102
{ACAD_REACTORS
330
1123
102
}
330
1E
100
AcDbEntity
  8
STEMPEL
100
AcDbLine
 10
130.3343426092908
 20
608.3310467895175
 30
0.0
 11
142.7485561716647
 21
595.9168332271445
 31
0.0
  0
ARC
  5
1115
102
{ACAD_REACTORS
330
1123
102
}
330
1E
100
AcDbEntity
  8
STEMPEL
100
AcDbCircle
 10
128.9201290469178
 20
606.9168332271445
 30
0.0
 40
2.0
100
AcDbArc
 50
45.0
 51
90.0
  0
LINE
  5
1116
102
{ACAD_REACTORS
330
1123
102
}
330
1E
100
AcDbEntity
  8
STEMPEL
100
AcDbLine
 10
132.4556629528504
 20
610.4523671330773
 30
0.0
 11
151.7970843090874
 21
591.1109457768417
 31
0.0
  0
LINE
  5
1117
102
{ACAD_REACTORS
330
1123
102
}
330
1E
100
AcDbEntity
  8
STEMPEL
  6
STRICHPUNKT
100
AcDbLine
 10
144.8698765152243
 20
598.0381535707042
 30
0.0
 11
142.7485561716647
 21
595.9168332271445
 31
0.0
  0
LINE
  5
1118
330
1E
100
AcDbEntity
  8
STEMPEL
100
AcDbLine
 10
272.6774883597973
 20
604.916833227144
 30
0.0
 11
351.0845951409859
 21
604.9168332271437
 31
0.0
  0
LINE
  5
1119
330
1E
100
AcDbEntity
  8
STEMPEL
100
AcDbLine
 10
277.5059154845441
 20
608.9168332271442
 30
0.0
 11
347.0845951409857
 21
608.9168332271437
 31
0.0
  0
LINE
  5
111A
330
1E
100
AcDbEntity
  8
STEMPEL
  6
STRICHPUNKT
100
AcDbLine
 10
261.5561680162368
 20
598.0381535707038
 30
0.0
 11
263.6774883597965
 21
595.9168332271441
 31
0.0
  0
LINE
  5
111B
330
1E
100
AcDbEntity
  8
STEMPEL
100
AcDbLine
 10
273.9703815786115
 20
610.4523671330773
 30
0.0
 11
254.6289602223744
 21
591.1109457768418
 31
0.0
  0
LINE
  5
111C
330
1E
100
AcDbEntity
  8
STEMPEL
100
AcDbLine
 10
276.0917019221711
 20
608.3310467895175
 30
0.0
 11
263.6774883597965
 21
595.9168332271441
 31
0.0
  0
ARC
  5
111D
330
1E
100
AcDbEntity
  8
STEMPEL
100
AcDbCircle
 10
277.5059154845441
 20
606.9168332271445
 30
0.0
 40
2.0
100
AcDbArc
 50
90.0
 51
135.0
  0
ARC
  5
111E
330
1E
100
AcDbEntity
  8
STEMPEL
100
AcDbCircle
 10
277.5059154845441
 20
606.9168332271445
 30
0.0
 40
5.0
100
AcDbArc
 50
90.0
 51
135.0
  0
LINE
  5
111F
330
1E
100
AcDbEntity
  8
STEMPEL
100
AcDbLine
 10
353.2189936908452
 20
607.0250753644038
 30
0.0
 11
349.2059154845443
 21
611.0381535707047
 31
0.0
  0
LINE
  5
1120
330
1E
100
AcDbEntity
  8
STEMPEL
100
AcDbLine
 10
353.2189936908452
 20
607.0250753644038
 30
0.0
 11
351.0976733472856
 21
604.903755020844
 31
0.0
  0
LINE
  5
1121
330
1E
100
AcDbEntity
  8
STEMPEL
100
AcDbLine
 10
351.0845951409859
 20
604.9168332271437
 30
0.0
 11
347.0845951409847
 21
608.9168332271449
 31
0.0
  0
ARC
  5
1122
330
1E
100
AcDbEntity
  8
STEMPEL
100
AcDbCircle
 10
347.0845951409847
 20
608.9168332271449
 30
0.0
 40
3.0
100
AcDbArc
 50
45.0
 51
90.0
  0
HATCH
  5
1123
330
1E
100
AcDbEntity
  8
SCHRAFF
100
AcDbHatch
 10
0.0
 20
0.0
 30
0.0
210
0.0
220
0.0
230
1.0
  2
_USER
 70
     0
 71
     1
 91
        1
 92
        7
 72
     1
 73
     1
 93
       11
 10
59.34144939047712
 20
611.9168332271449
 42
0.1989123673796551
 10
57.22012904691746
 20
611.0381535707047
 42
0.0
 10
53.22012904691735
 20
607.0381535707048
 42
0.0
 10
55.34144939047712
 20
604.9168332271449
 42
0.0
 10
59.34144939047719
 20
608.916833227145
 42
0.0
 10
128.9201290469178
 20
608.9168332271447
 42
-0.1989123673796173
 10
130.3343426092906
 20
608.3310467895178
 42
0.0
 10
142.7485561716647
 20
595.9168332271445
 42
0.0
 10
144.8698765152243
 20
598.0381535707042
 42
0.0
 10
132.4556629528504
 20
610.4523671330773
 42
0.1989123673796515
 10
128.9201290469178
 20
611.9168332271446
 42
0.0
 97
       11
330
110C
330
1112
330
110F
330
1111
330
1110
330
110E
330
1115
330
1114
330
1117
330
1116
330
1113
 75
     0
 76
     0
 52
45.0
 41
2.0
 77
     0
 78
     1
 53
45.0
 43
-45.98066596736782
 44
336.6059904191609
 45
-1.414213562373094
 46
1.414213562373095
 79
     0
 47
0.4118729359136521
 98
        1
 10
118.4826951871144
 20
610.4724704471375
  0
HATCH
  5
1124
330
1E
100
AcDbEntity
  8
SCHRAFF
100
AcDbHatch
 10
0.0
 20
0.0
 30
0.0
210
0.0
220
0.0
230
1.0
  2
_USER
 70
     0
 71
     0
 91
        1
 92
        7
 72
     1
 73
     1
 93
       11
 10
277.5059154845441
 20
611.9168332271446
 42
0.0
 10
347.0845951409848
 20
611.9168332271449
 42
-0.1989123673796547
 10
349.2059154845445
 20
611.0381535707047
 42
0.0
 10
353.2059154845445
 20
607.0381535707048
 42
0.0
 10
351.0845951409848
 20
604.9168332271449
 42
0.0
 10
347.0845951409849
 20
608.9168332271448
 42
0.0
 10
277.5059154845441
 20
608.9168332271447
 42
0.1989123673796182
 10
276.0917019221713
 20
608.3310467895178
 42
0.0
 10
263.6774883597972
 20
595.9168332271445
 42
0.0
 10
261.5561680162376
 20
598.0381535707042
 42
0.0
 10
273.9703815786115
 20
610.4523671330773
 42
-0.1989123673796434
 97
        0
 75
     0
 76
     0
 52
45.0
 41
2.0
 77
     0
 78
     1
 53
45.0
 43
-45.98066596736782
 44
336.6059904191609
 45
-1.414213562373094
 46
1.414213562373095
 79
     0
 47
0.4118729359136521
 98
        1
 10
287.9433493443475
 20
610.4724704471375
  0
LINE
  5
1127
330
1E
100
AcDbEntity
  8
HILF
100
AcDbLine
 10
154.813022265731
 20
349.9168332271449
 30
0.0
 11
251.6130222657309
 21
349.9168332271446
 31
0.0
  0
LINE
  5
1128
330
1E
100
AcDbEntity
  8
STEMPEL
100
AcDbLine
 10
153.1129315739383
 20
341.9168332271448
 30
0.0
 11
253.3131129575236
 21
341.9168332271444
 31
0.0
  0
LINE
  5
1129
330
1E
100
AcDbEntity
  8
HILF
100
AcDbLine
 10
154.4223440827404
 20
589.0995210141486
 30
0.0
 11
252.0037004487215
 21
589.0995210141486
 31
0.0
  0
LINE
  5
1305
102
{ACAD_REACTORS
330
14D2
102
}
330
1E
100
AcDbEntity
  8
STEMPEL
100
AcDbLine
 10
150.013022265731
 20
464.9168332271441
 30
0.0
 11
144.9630222657309
 21
464.9168332271441
 31
0.0
  0
ARC
  5
1307
102
{ACAD_REACTORS
330
14D2
102
}
330
1E
100
AcDbEntity
  8
STEMPEL
100
AcDbCircle
 10
148.9630222657309
 20
464.9753539706845
 30
0.0
 40
4.0
100
AcDbArc
 50
148.1457059206461
 51
180.0
  0
LINE
  5
1308
330
1E
100
AcDbEntity
  8
STEMPEL
100
AcDbLine
 10
144.9630222657309
 20
464.9753539706845
 30
0.0
 11
144.9630222657309
 21
464.9168332271439
 31
0.0
  0
POINT
  5
1309
330
1E
100
AcDbEntity
  8
DEFPOINTS
  6
ByBlock
 62
     0
100
AcDbPoint
 10
144.9630222657309
 20
464.9168332271439
 30
0.0
  0
LINE
  5
130A
102
{ACAD_REACTORS
330
14D2
102
}
330
1E
100
AcDbEntity
  8
STEMPEL
100
AcDbLine
 10
145.5654504151052
 20
467.0863976745987
 30
0.0
 11
148.126657346705
 21
471.2084746161118
 31
0.0
  0
LINE
  5
130B
102
{ACAD_REACTORS
330
14D2
102
}
330
1E
100
AcDbEntity
  8
STEMPEL
100
AcDbLine
 10
152.4130222657309
 20
464.9704230656303
 30
0.0
 11
150.8496355301232
 21
470.8050617947978
 31
0.0
  0
ARC
  5
130C
102
{ACAD_REACTORS
330
14D2
102
}
330
1E
100
AcDbEntity
  8
STEMPEL
100
AcDbCircle
 10
149.4007467906896
 20
470.4168332271438
 30
0.0
 40
1.5
100
AcDbArc
 50
15.00000000000074
 51
148.1457059206488
  0
LINE
  5
130D
330
1E
100
AcDbEntity
  8
STEMPEL
100
AcDbLine
 10
149.4007467906896
 20
471.9168332271439
 30
0.0
 11
152.4130222657308
 21
471.9168332271439
 31
0.0
  0
LINE
  5
130F
102
{ACAD_REACTORS
330
14D2
102
}
330
1E
100
AcDbEntity
  8
STEMPEL
100
AcDbLine
 10
254.013022265731
 20
444.6259806362046
 30
0.0
 11
255.1596411957811
 21
444.6259806362046
 31
0.0
  0
ARC
  5
1311
102
{ACAD_REACTORS
330
14D2
102
}
330
1E
100
AcDbEntity
  8
STEMPEL
100
AcDbCircle
 10
257.0252977407724
 20
470.4168332271438
 30
0.0
 40
1.5
100
AcDbArc
 50
31.85429407935114
 51
164.9999999999992
  0
LINE
  5
1312
102
{ACAD_REACTORS
330
14D2
102
}
330
1E
100
AcDbEntity
  8
STEMPEL
100
AcDbLine
 10
255.9489372998079
 20
446.9168332271439
 30
0.0
 11
259.9130222657309
 21
446.916833227144
 31
0.0
  0
LINE
  5
1313
102
{ACAD_REACTORS
330
14D2
102
}
330
1E
100
AcDbEntity
  8
STEMPEL
100
AcDbLine
 10
256.1120017512969
 20
448.9168332271439
 30
0.0
 11
258.3126071893114
 21
448.9168332271439
 31
0.0
  0
ARC
  5
1315
102
{ACAD_REACTORS
330
14D2
102
}
330
1E
100
AcDbEntity
  8
STEMPEL
100
AcDbCircle
 10
247.249479680365
 20
448.632766873463
 30
0.0
 40
8.867073426506241
100
AcDbArc
 50
333.1361176767924
 51
1.835846809551139
  0
LINE
  5
1318
102
{ACAD_REACTORS
330
14D2
102
}
330
1E
100
AcDbEntity
  8
STEMPEL
100
AcDbLine
 10
254.013022265731
 20
464.9704230656308
 30
0.0
 11
255.5764090013388
 21
470.8050617947978
 31
0.0
  0
LINE
  5
131A
102
{ACAD_REACTORS
330
14D2
102
}
330
1E
100
AcDbEntity
  8
STEMPEL
100
AcDbLine
 10
258.7985596388319
 20
446.9168332271439
 30
0.0
 11
258.3126071893114
 21
448.9168332271439
 31
0.0
  0
LINE
  5
131B
102
{ACAD_REACTORS
330
14D2
102
}
330
1E
100
AcDbEntity
  8
STEMPEL
100
AcDbLine
 10
260.8605941163566
 20
467.0863976745987
 30
0.0
 11
258.2993871847571
 21
471.2084746161118
 31
0.0
  0
ARC
  5
131C
102
{ACAD_REACTORS
330
14D2
102
}
330
1E
100
AcDbEntity
  8
STEMPEL
100
AcDbCircle
 10
257.4630222657309
 20
464.9753539706845
 30
0.0
 40
4.0
100
AcDbArc
 50
0.0
 51
31.85429407935391
  0
LINE
  5
131D
330
1E
100
AcDbEntity
  8
STEMPEL
100
AcDbLine
 10
261.4630222657309
 20
464.9753539706845
 30
0.0
 11
261.4630222657309
 21
464.9168332271439
 31
0.0
  0
POINT
  5
131E
330
1E
100
AcDbEntity
  8
DEFPOINTS
  6
ByBlock
 62
     0
100
AcDbPoint
 10
261.4630222657309
 20
464.9168332271439
 30
0.0
  0
DIMENSION
  5
131F
330
1E
100
AcDbEntity
  8
BEM
100
AcDbDimension
  2
*D2
 10
152.413022265731
 20
171.3056240599608
 30
0.0
 11
203.2130222657311
 21
177.8056240599608
 31
0.0
 70
    32
  1
%%c<>
 71
     5
 42
101.6000000000001
  3
Standard
100
AcDbAlignedDimension
 13
254.0130222657311
 23
199.864440095655
 33
0.0
 14
152.413022265731
 24
199.8644400956521
 34
0.0
100
AcDbRotatedDimension
1001
ACAD
1000
DSTYLE
1002
{
1070
    40
1040
2.0
1070
    41
1040
3.5
1070
    42
1040
1.0
1070
    43
1040
7.0
1070
    44
1040
1.0
1070
    73
1070
     0
1070
    74
1070
     0
1070
    77
1070
     1
1070
    78
1070
     8
1070
    79
1070
     2
1070
   140
1040
3.5
1070
   141
1040
1.5
1070
   146
1040
0.5142857142857144
1070
   147
1040
1.5
1070
   172
1070
     1
1070
   178
1070
     1
1070
   179
1070
     2
1070
   271
1070
     2
1070
   272
1070
     2
1070
   284
1070
     8
1070
   285
1070
     8
1070
   286
1070
     8
1002
}
  0
ARC
  5
1320
330
1E
100
AcDbEntity
  8
STEMPEL
100
AcDbCircle
 10
136.5130222657309
 20
417.4136326964625
 30
0.0
 40
14.0
100
AcDbArc
 50
0.0
 51
26.88804761772463
  0
ARC
  5
1321
330
1E
100
AcDbEntity
  8
STEMPEL
100
AcDbCircle
 10
169.5130222657309
 20
434.146833227144
 30
0.0
 40
23.0
100
AcDbArc
 50
180.0
 51
206.8880476177246
  0
ARC
  5
1322
102
{ACAD_REACTORS
330
14D2
102
}
330
1E
100
AcDbEntity
  8
STEMPEL
100
AcDbCircle
 10
169.5130222657309
 20
452.7205223094936
 30
0.0
 40
23.0
100
AcDbArc
 50
147.9760040253812
 51
180.0
  0
LINE
  5
1323
102
{ACAD_REACTORS
330
14D2
102
}
330
1E
100
AcDbEntity
  8
STEMPEL
100
AcDbLine
 10
146.5130222657309
 20
452.7205223094936
 30
0.0
 11
146.5130222657309
 21
434.146833227144
 31
0.0
  0
ARC
  5
1324
330
1E
100
AcDbEntity
  8
STEMPEL
100
AcDbCircle
 10
144.413022265731
 20
330.3737065505038
 30
0.0
 40
8.0
100
AcDbArc
 50
0.0
 51
30.85958109062394
  0
LINE
  5
1325
330
1E
100
AcDbEntity
  8
STEMPEL
100
AcDbLine
 10
150.5130222657309
 20
417.4136326964624
 30
0.0
 11
150.5130222657309
 21
341.6887407970272
 31
0.0
  0
LINE
  5
1326
330
1E
100
AcDbEntity
  8
STEMPEL
100
AcDbLine
 10
152.413022265731
 20
330.2732893218924
 30
0.0
 11
152.413022265731
 21
199.8644400956521
 31
0.0
  0
LINE
  5
1327
330
1E
100
AcDbEntity
  8
STEMPEL
100
AcDbLine
 10
153.6130222657309
 20
330.2732893218924
 30
0.0
 11
153.6130222657309
 21
199.9168332271442
 31
0.0
  0
ARC
  5
1328
330
1E
100
AcDbEntity
  8
STEMPEL
100
AcDbCircle
 10
144.413022265731
 20
330.3737065505038
 30
0.0
 40
9.199999999999999
100
AcDbArc
 50
0.0
 51
30.64293176293956
  0
ARC
  5
1329
330
1E
100
AcDbEntity
  8
STEMPEL
100
AcDbCircle
 10
163.5130222657309
 20
341.6887407970272
 30
0.0
 40
13.0
100
AcDbArc
 50
180.0
 51
210.6429317629395
  0
ARC
  5
132A
330
1E
100
AcDbEntity
  8
STEMPEL
100
AcDbCircle
 10
163.5130222657309
 20
341.6887407970272
 30
0.0
 40
14.2
100
AcDbArc
 50
180.0
 51
210.6429317629395
  0
LINE
  5
132B
330
1E
100
AcDbEntity
  8
STEMPEL
100
AcDbLine
 10
149.313022265731
 20
417.4136326964624
 30
0.0
 11
149.313022265731
 21
341.6887407970272
 31
0.0
  0
ARC
  5
132C
330
1E
100
AcDbEntity
  8
STEMPEL
100
AcDbCircle
 10
136.5130222657309
 20
417.4136326964625
 30
0.0
 40
12.8
100
AcDbArc
 50
0.0
 51
26.88804761772463
  0
ARC
  5
132D
330
1E
100
AcDbEntity
  8
STEMPEL
100
AcDbCircle
 10
169.5130222657309
 20
434.146833227144
 30
0.0
 40
24.2
100
AcDbArc
 50
180.0
 51
206.8880476177246
  0
LINE
  5
132E
330
1E
100
AcDbEntity
  8
STEMPEL
100
AcDbLine
 10
145.313022265731
 20
452.7205223094936
 30
0.0
 11
145.313022265731
 21
434.146833227144
 31
0.0
  0
ARC
  5
132F
330
1E
100
AcDbEntity
  8
STEMPEL
100
AcDbCircle
 10
169.5130222657309
 20
452.7205223094936
 30
0.0
 40
24.2
100
AcDbArc
 50
149.7363480579001
 51
180.0
  0
ARC
  5
1330
330
1E
100
AcDbEntity
  8
STEMPEL
100
AcDbCircle
 10
236.9130222657309
 20
452.7205223094936
 30
0.0
 40
24.2
100
AcDbArc
 50
0.0
 51
30.26365194209988
  0
LINE
  5
1331
102
{ACAD_REACTORS
330
136B
102
}
330
1E
100
AcDbEntity
  8
STEMPEL
100
AcDbLine
 10
261.1130222657308
 20
452.7205223094937
 30
0.0
 11
261.1130222657309
 21
434.1468332271441
 31
0.0
  0
ARC
  5
1332
330
1E
100
AcDbEntity
  8
STEMPEL
100
AcDbCircle
 10
236.9130222657309
 20
434.1468332271441
 30
0.0
 40
24.2
100
AcDbArc
 50
333.1119523822754
 51
0.0
  0
ARC
  5
1333
330
1E
100
AcDbEntity
  8
STEMPEL
100
AcDbCircle
 10
269.9130222657309
 20
417.4136326964626
 30
0.0
 40
12.8
100
AcDbArc
 50
153.1119523822753
 51
180.0
  0
LINE
  5
1334
330
1E
100
AcDbEntity
  8
STEMPEL
100
AcDbLine
 10
257.1130222657309
 20
417.4136326964626
 30
0.0
 11
257.1130222657309
 21
341.6887407970273
 31
0.0
  0
ARC
  5
1335
330
1E
100
AcDbEntity
  8
STEMPEL
100
AcDbCircle
 10
242.9130222657309
 20
341.6887407970273
 30
0.0
 40
14.2
100
AcDbArc
 50
329.3570682370604
 51
0.0
  0
ARC
  5
1336
330
1E
100
AcDbEntity
  8
STEMPEL
100
AcDbCircle
 10
242.9130222657309
 20
341.6887407970273
 30
0.0
 40
13.0
100
AcDbArc
 50
329.3570682370604
 51
0.0
  0
ARC
  5
1337
330
1E
100
AcDbEntity
  8
STEMPEL
100
AcDbCircle
 10
262.0130222657309
 20
330.3737065505039
 30
0.0
 40
9.199999999999999
100
AcDbArc
 50
149.3570682370604
 51
180.0
  0
LINE
  5
1338
330
1E
100
AcDbEntity
  8
STEMPEL
100
AcDbLine
 10
252.813022265731
 20
330.2732893218924
 30
0.0
 11
252.813022265731
 21
199.9168332271439
 31
0.0
  0
LINE
  5
1339
330
1E
100
AcDbEntity
  8
STEMPEL
100
AcDbLine
 10
254.0130222657309
 20
330.2732893218924
 30
0.0
 11
254.0130222657311
 21
199.864440095655
 31
0.0
  0
LINE
  5
133A
330
1E
100
AcDbEntity
  8
STEMPEL
100
AcDbLine
 10
255.9130222657309
 20
417.4136326964626
 30
0.0
 11
255.9130222657309
 21
341.6887407970273
 31
0.0
  0
ARC
  5
133B
330
1E
100
AcDbEntity
  8
STEMPEL
100
AcDbCircle
 10
262.0130222657309
 20
330.3737065505039
 30
0.0
 40
8.0
100
AcDbArc
 50
149.140418909376
 51
180.0
  0
LINE
  5
133C
102
{ACAD_REACTORS
330
14D2
102
}
330
1E
100
AcDbEntity
  8
STEMPEL
100
AcDbLine
 10
259.9130222657309
 20
452.7205223094937
 30
0.0
 11
259.9130222657309
 21
434.1468332271441
 31
0.0
  0
ARC
  5
133D
102
{ACAD_REACTORS
330
14D2
102
}
330
1E
100
AcDbEntity
  8
STEMPEL
100
AcDbCircle
 10
236.9130222657309
 20
452.7205223094936
 30
0.0
 40
23.0
100
AcDbArc
 50
0.0
 51
32.02399597461875
  0
ARC
  5
133E
330
1E
100
AcDbEntity
  8
STEMPEL
100
AcDbCircle
 10
236.9130222657309
 20
434.1468332271441
 30
0.0
 40
23.0
100
AcDbArc
 50
333.1119523822754
 51
0.0
  0
ARC
  5
133F
330
1E
100
AcDbEntity
  8
STEMPEL
100
AcDbCircle
 10
269.9130222657309
 20
417.4136326964626
 30
0.0
 40
14.0
100
AcDbArc
 50
153.1119523822753
 51
180.0
  0
LINE
  5
1340
330
1E
100
AcDbEntity
  8
STEMPEL
100
AcDbLine
 10
253.3176967625753
 20
191.9168332271438
 30
0.0
 11
153.1083477688864
 21
191.9168332271441
 31
0.0
  0
LINE
  5
1341
102
{ACAD_REACTORS
330
14D2
102
}
330
1E
100
AcDbEntity
  8
STEMPEL
100
AcDbLine
 10
261.4630222657309
 20
464.916833227144
 30
0.0
 11
256.413022265731
 21
464.916833227144
 31
0.0
  0
LINE
  5
1342
330
1E
100
AcDbEntity
  8
HILF
100
AcDbLine
 10
255.0071917359086
 20
420.3895722483044
 30
0.0
 11
254.013022265731
 21
420.3895722483044
 31
0.0
  0
LINE
  5
1343
330
1E
100
AcDbEntity
  8
HILF
100
AcDbLine
 10
254.1005837306584
 20
337.9366122719805
 30
0.0
 11
152.3254608008034
 21
337.9366122719805
 31
0.0
  0
LINE
  5
1344
330
1E
100
AcDbEntity
  8
HILF
100
AcDbLine
 10
251.8331567007371
 20
332.5021654010931
 30
0.0
 11
154.5928878307248
 21
332.5021654010931
 31
0.0
  0
HATCH
  5
1345
330
1E
100
AcDbEntity
  8
SCHRAFF
100
AcDbHatch
 10
0.0
 20
0.0
 30
0.0
210
0.0
220
0.0
230
1.0
  2
_USER
 70
     0
 71
     0
 91
        1
 92
        7
 72
     1
 73
     1
 93
       11
 10
277.505915484544
 20
461.9168332271442
 42
0.0
 10
347.0845951409847
 20
461.9168332271445
 42
-0.1989123673796547
 10
349.2059154845445
 20
461.0381535707042
 42
0.0
 10
353.2059154845445
 20
457.0381535707043
 42
0.0
 10
351.0845951409847
 20
454.9168332271444
 42
0.0
 10
347.0845951409849
 20
458.9168332271444
 42
0.0
 10
277.505915484544
 20
458.9168332271444
 42
0.1989123673796182
 10
276.0917019221712
 20
458.3310467895175
 42
0.0
 10
263.6774883597971
 20
445.9168332271442
 42
0.0
 10
261.5561680162375
 20
448.0381535707039
 42
0.0
 10
273.9703815786114
 20
460.452367133077
 42
-0.1989123673796434
 97
        0
 75
     0
 76
     0
 52
135.0
 41
2.0
 77
     0
 78
     1
 53
135.0
 43
0.0
 44
0.0
 45
-1.414213562373095
 46
-1.414213562373094
 79
     0
 47
0.4118729359136521
 98
        1
 10
287.9433493443473
 20
460.4724704471371
  0
HATCH
  5
1346
330
1E
100
AcDbEntity
  8
SCHRAFF
100
AcDbHatch
 10
0.0
 20
0.0
 30
0.0
210
0.0
220
0.0
230
1.0
  2
_USER
 70
     0
 71
     1
 91
        1
 92
        7
 72
     1
 73
     1
 93
       11
 10
59.34144939047712
 20
461.9168332271445
 42
0.1989123673796551
 10
57.22012904691746
 20
461.0381535707042
 42
0.0
 10
53.2201290469174
 20
457.0381535707043
 42
0.0
 10
55.34144939047711
 20
454.9168332271444
 42
0.0
 10
59.34144939047706
 20
458.9168332271444
 42
0.0
 10
128.9201290469177
 20
458.9168332271444
 42
-0.1989123673796173
 10
130.3343426092905
 20
458.3310467895175
 42
0.0
 10
142.7485561716646
 20
445.9168332271441
 42
0.0
 10
144.8698765152243
 20
448.038153570704
 42
0.0
 10
132.4556629528502
 20
460.452367133077
 42
0.198912367379648
 10
128.9201290469177
 20
461.9168332271442
 42
0.0
 97
       11
330
135D
330
1357
330
135A
330
1358
330
1359
330
135B
330
1354
330
1355
330
1352
330
1353
330
1356
 75
     0
 76
     0
 52
45.0
 41
2.0
 77
     0
 78
     1
 53
45.0
 43
-45.98066596736794
 44
186.6059904191605
 45
-1.414213562373094
 46
1.414213562373095
 79
     0
 47
0.4118729359136521
 98
        1
 10
118.4826951871143
 20
460.4724704471371
  0
ARC
  5
1347
330
1E
100
AcDbEntity
  8
STEMPEL
100
AcDbCircle
 10
347.0845951409847
 20
458.9168332271445
 30
0.0
 40
3.0
100
AcDbArc
 50
45.0
 51
90.0
  0
LINE
  5
1348
330
1E
100
AcDbEntity
  8
STEMPEL
100
AcDbLine
 10
351.0845951409858
 20
454.9168332271434
 30
0.0
 11
347.0845951409847
 21
458.9168332271445
 31
0.0
  0
LINE
  5
1349
330
1E
100
AcDbEntity
  8
STEMPEL
100
AcDbLine
 10
353.2189936908451
 20
457.0250753644034
 30
0.0
 11
351.0976733472855
 21
454.9037550208437
 31
0.0
  0
LINE
  5
134A
330
1E
100
AcDbEntity
  8
STEMPEL
100
AcDbLine
 10
353.2189936908451
 20
457.0250753644034
 30
0.0
 11
349.2059154845442
 21
461.0381535707042
 31
0.0
  0
ARC
  5
134B
330
1E
100
AcDbEntity
  8
STEMPEL
100
AcDbCircle
 10
277.505915484544
 20
456.9168332271441
 30
0.0
 40
5.0
100
AcDbArc
 50
90.0
 51
135.0
  0
ARC
  5
134C
330
1E
100
AcDbEntity
  8
STEMPEL
100
AcDbCircle
 10
277.505915484544
 20
456.9168332271441
 30
0.0
 40
2.0
100
AcDbArc
 50
90.0
 51
135.0
  0
LINE
  5
134D
102
{ACAD_REACTORS
330
136B
102
}
330
1E
100
AcDbEntity
  8
STEMPEL
100
AcDbLine
 10
276.091701922171
 20
458.3310467895172
 30
0.0
 11
263.6774883597964
 21
445.9168332271437
 31
0.0
  0
LINE
  5
134E
330
1E
100
AcDbEntity
  8
STEMPEL
100
AcDbLine
 10
273.9703815786114
 20
460.452367133077
 30
0.0
 11
261.5561680162368
 21
448.0381535707033
 31
0.0
  0
LINE
  5
134F
102
{ACAD_REACTORS
330
136B
102
}
330
1E
100
AcDbEntity
  8
STEMPEL
  6
STRICHPUNKT
100
AcDbLine
 10
261.5561680162368
 20
448.0381535707034
 30
0.0
 11
263.6774883597964
 21
445.9168332271437
 31
0.0
  0
LINE
  5
1350
330
1E
100
AcDbEntity
  8
STEMPEL
100
AcDbLine
 10
277.505915484544
 20
458.9168332271439
 30
0.0
 11
347.0845951409856
 21
458.9168332271434
 31
0.0
  0
LINE
  5
1351
330
1E
100
AcDbEntity
  8
STEMPEL
100
AcDbLine
 10
272.6774883597972
 20
454.9168332271436
 30
0.0
 11
351.0845951409858
 21
454.9168332271434
 31
0.0
  0
LINE
  5
1352
102
{ACAD_REACTORS
330
1346
102
}
330
1E
100
AcDbEntity
  8
STEMPEL
  6
STRICHPUNKT
100
AcDbLine
 10
144.8698765152242
 20
448.0381535707039
 30
0.0
 11
142.7485561716646
 21
445.9168332271442
 31
0.0
  0
LINE
  5
1353
102
{ACAD_REACTORS
330
1346
102
}
330
1E
100
AcDbEntity
  8
STEMPEL
100
AcDbLine
 10
132.4556629528502
 20
460.452367133077
 30
0.0
 11
144.8698765152243
 21
448.0381535707039
 31
0.0
  0
ARC
  5
1354
102
{ACAD_REACTORS
330
1346
102
}
330
1E
100
AcDbEntity
  8
STEMPEL
100
AcDbCircle
 10
128.9201290469177
 20
456.9168332271441
 30
0.0
 40
2.0
100
AcDbArc
 50
45.0
 51
90.0
  0
LINE
  5
1355
102
{ACAD_REACTORS
330
1346
102
}
330
1E
100
AcDbEntity
  8
STEMPEL
100
AcDbLine
 10
130.3343426092907
 20
458.3310467895172
 30
0.0
 11
142.7485561716646
 21
445.9168332271442
 31
0.0
  0
ARC
  5
1356
102
{ACAD_REACTORS
330
1346
102
}
330
1E
100
AcDbEntity
  8
STEMPEL
100
AcDbCircle
 10
128.9201290469177
 20
456.9168332271441
 30
0.0
 40
5.0
100
AcDbArc
 50
45.0
 51
90.0
  0
ARC
  5
1357
102
{ACAD_REACTORS
330
1346
102
}
330
1E
100
AcDbEntity
  8
STEMPEL
100
AcDbCircle
 10
59.34144939047712
 20
458.9168332271445
 30
0.0
 40
3.0
100
AcDbArc
 50
90.0
 51
135.0
  0
LINE
  5
1358
102
{ACAD_REACTORS
330
1346
102
}
330
1E
100
AcDbEntity
  8
STEMPEL
100
AcDbLine
 10
53.22012904691757
 20
457.0381535707042
 30
0.0
 11
55.34144939047712
 21
454.9168332271444
 31
0.0
  0
LINE
  5
1359
102
{ACAD_REACTORS
330
1346
102
}
330
1E
100
AcDbEntity
  8
STEMPEL
100
AcDbLine
 10
55.34144939047712
 20
454.9168332271444
 30
0.0
 11
59.34144939047712
 21
458.9168332271445
 31
0.0
  0
LINE
  5
135A
102
{ACAD_REACTORS
330
1346
102
}
330
1E
100
AcDbEntity
  8
STEMPEL
100
AcDbLine
 10
53.22012904691746
 20
457.0381535707045
 30
0.0
 11
57.22012904691746
 21
461.0381535707042
 31
0.0
  0
LINE
  5
135B
102
{ACAD_REACTORS
330
1346
102
}
330
1E
100
AcDbEntity
  8
STEMPEL
100
AcDbLine
 10
59.34144939047712
 20
458.9168332271444
 30
0.0
 11
128.9201290469177
 21
458.9168332271444
 31
0.0
  0
LINE
  5
135C
330
1E
100
AcDbEntity
  8
STEMPEL
100
AcDbLine
 10
55.34144939047712
 20
454.9168332271444
 30
0.0
 11
133.7485561716639
 21
454.9168332271442
 31
0.0
  0
LINE
  5
135D
102
{ACAD_REACTORS
330
1346
102
}
330
1E
100
AcDbEntity
  8
STEMPEL
100
AcDbLine
 10
59.34144939047712
 20
461.9168332271445
 30
0.0
 11
147.1284770278687
 21
461.9168332271441
 31
0.0
  0
LINE
  5
135E
102
{ACAD_REACTORS
330
136B
102
}
330
1E
100
AcDbEntity
  8
STEMPEL
100
AcDbLine
 10
261.5561680162368
 20
448.0381535707034
 30
0.0
 11
261.1130222657309
 21
448.0381535707035
 31
0.0
  0
LINE
  5
135F
330
1E
100
AcDbEntity
  8
STEMPEL
100
AcDbLine
 10
142.7485561716646
 20
445.9168332271442
 30
0.0
 11
145.313022265731
 21
445.9168332271441
 31
0.0
  0
LINE
  5
1360
330
1E
100
AcDbEntity
  8
STEMPEL
100
AcDbLine
 10
259.2975675035933
 20
461.9168332271438
 30
0.0
 11
347.0845951409847
 21
461.9168332271434
 31
0.0
  0
LINE
  5
1361
102
{ACAD_REACTORS
330
136B
102
}
330
1E
100
AcDbEntity
  8
STEMPEL
100
AcDbLine
 10
261.1130222657308
 20
445.9168332271437
 30
0.0
 11
263.6774883597964
 21
445.9168332271437
 31
0.0
  0
LINE
  5
1362
330
1E
100
AcDbEntity
  8
STEMPEL
100
AcDbLine
 10
145.3130222657311
 20
448.0381535707035
 30
0.0
 11
144.8698765152248
 21
448.0381535707034
 31
0.0
  0
LINE
  5
1363
330
1E
100
AcDbEntity
  8
HILF
100
AcDbLine
 10
154.813022265731
 20
199.9168332271442
 30
0.0
 11
251.6130222657309
 21
199.9168332271439
 31
0.0
  0
LINE
  5
1364
330
1E
100
AcDbEntity
  8
STEMPEL
100
AcDbLine
 10
153.6130222657309
 20
199.9168332271442
 30
0.0
 11
154.3129315739384
 21
191.9168332271441
 31
0.0
  0
LINE
  5
1365
330
1E
100
AcDbEntity
  8
STEMPEL
100
AcDbLine
 10
152.413022265731
 20
199.8644400956521
 30
0.0
 11
153.1083477688864
 21
191.9168332271441
 31
0.0
  0
LINE
  5
1366
330
1E
100
AcDbEntity
  8
STEMPEL
100
AcDbLine
 10
254.0130222657311
 20
199.864440095655
 30
0.0
 11
253.3176967625753
 21
191.9168332271438
 31
0.0
  0
LINE
  5
1367
330
1E
100
AcDbEntity
  8
STEMPEL
100
AcDbLine
 10
252.8130222657309
 20
199.9168332271442
 30
0.0
 11
252.1131129575234
 21
191.9168332271441
 31
0.0
  0
HATCH
  5
1368
330
1E
100
AcDbEntity
  8
SCHRAFF
100
AcDbHatch
 10
0.0
 20
0.0
 30
0.0
210
0.0
220
0.0
230
1.0
  2
_USER
 70
     0
 71
     0
 91
        1
 92
        7
 72
     1
 73
     1
 93
       23
 10
153.6130222657309
 20
330.3737065505038
 42
0.1345075013956313
 10
152.3283375810462
 20
335.0628198418559
 42
-0.1345075013956287
 10
150.5130222657309
 20
341.6887407970272
 42
0.0
 10
150.5130222657309
 20
417.4136326964624
 42
0.1178625008509361
 10
148.9995087522173
 20
423.745113978342
 42
-0.1178625008509353
 10
146.5130222657309
 20
434.146833227144
 42
0.0
 10
146.5130222657309
 20
452.7205223094936
 42
-0.1406476065140156
 10
150.0130222657309
 20
464.9168332271441
 42
0.0
 10
148.6111084777544
 20
464.9168332271441
 42
0.0323355871437242
 10
147.2130222657309
 20
462.1199903795496
 42
0.0
 10
147.2130222657309
 20
461.9168332271441
 42
0.0
 10
147.1284770278686
 20
461.9168332271441
 42
0.0977622252683791
 10
145.313022265731
 20
452.7205223094936
 42
0.0
 10
145.313022265731
 20
434.146833227144
 42
0.1178625008509346
 10
147.9292384819471
 20
423.2024155827524
 42
-0.1178625008509366
 10
149.313022265731
 20
417.4136326964626
 42
0.0
 10
149.313022265731
 20
341.6887407970272
 42
0.1345075013956306
 10
151.2959051486139
 20
334.4511963690708
 42
-0.1345075013956317
 10
152.413022265731
 20
330.3737065505037
 42
0.0
 10
152.4130222657311
 20
199.864440095651
 42
0.0
 10
153.1083477688864
 20
191.9168332271441
 42
0.0
 10
154.3129315739384
 20
191.9168332271441
 42
0.0
 10
153.6130222657309
 20
199.9168332271446
 42
0.0
 97
        0
 75
     0
 76
     0
 52
135.0
 41
2.0
 77
     0
 78
     1
 53
135.0
 43
-402.6221884813128
 44
-6.08601645509259
 45
-1.414213562373095
 46
-1.414213562373094
 79
     0
 47
0.4820997955160877
 98
        1
 10
152.7204375152739
 20
319.2293721944376
  0
HATCH
  5
1369
330
1E
100
AcDbEntity
  8
SCHRAFF
100
AcDbHatch
 10
0.0
 20
0.0
 30
0.0
210
0.0
220
0.0
230
1.0
  2
_USER
 70
     0
 71
     0
 91
        1
 92
        7
 72
     1
 73
     1
 93
       23
 10
252.813022265731
 20
330.3737065505038
 42
-0.1345075013956313
 10
254.0977069504157
 20
335.0628198418559
 42
0.1345075013956287
 10
255.913022265731
 20
341.6887407970272
 42
0.0
 10
255.913022265731
 20
417.4136326964624
 42
-0.1178625008509361
 10
257.4265357792445
 20
423.745113978342
 42
0.1178625008509353
 10
259.913022265731
 20
434.146833227144
 42
0.0
 10
259.913022265731
 20
452.7205223094936
 42
0.1406476065140156
 10
256.413022265731
 20
464.9168332271441
 42
0.0
 10
257.8149360537075
 20
464.9168332271441
 42
-0.0323355871437242
 10
259.2130222657309
 20
462.1199903795496
 42
0.0
 10
259.2130222657309
 20
461.9168332271441
 42
0.0
 10
259.2975675035933
 20
461.9168332271441
 42
-0.0977622252683791
 10
261.1130222657309
 20
452.7205223094936
 42
0.0
 10
261.1130222657309
 20
434.146833227144
 42
-0.1178625008509346
 10
258.4968060495148
 20
423.2024155827524
 42
0.1178625008509366
 10
257.1130222657309
 20
417.4136326964626
 42
0.0
 10
257.1130222657309
 20
341.6887407970272
 42
-0.1345075013956306
 10
255.130139382848
 20
334.4511963690708
 42
0.1345075013956317
 10
254.0130222657309
 20
330.3737065505037
 42
0.0
 10
254.0130222657308
 20
199.864440095651
 42
0.0
 10
253.3176967625755
 20
191.9168332271441
 42
0.0
 10
252.1131129575235
 20
191.9168332271441
 42
0.0
 10
252.813022265731
 20
199.9168332271446
 42
0.0
 97
        0
 75
     0
 76
     0
 52
45.0
 41
2.0
 77
     0
 78
     1
 53
45.0
 43
0.0
 44
0.0
 45
-1.414213562373094
 46
1.414213562373095
 79
     0
 47
0.4820997955160877
 98
        1
 10
253.705607016188
 20
319.2293721944376
  0
ARC
  5
136A
102
{ACAD_REACTORS
330
136B
102
}
330
1E
100
AcDbEntity
  8
SCHRAFF
100
AcDbCircle
 10
261.1130222657309
 20
448.0381535707035
 30
0.0
 40
4.042823390159128
100
AcDbArc
 50
270.0
 51
349.9588560189948
  0
HATCH
  5
136B
330
1E
100
AcDbEntity
  8
SCHRAFF
100
AcDbHatch
 10
0.0
 20
0.0
 30
0.0
210
0.0
220
0.0
230
1.0
  2
_USER
 70
     0
 71
     1
 91
        2
 92
        7
 72
     1
 73
     1
 93
        4
 10
265.0939209324132
 20
447.3332657997604
 42
0.0
 10
263.6774883597964
 20
445.9168332271437
 42
0.0
 10
261.1130222657309
 20
445.9168332271437
 42
0.0
 10
261.1130222657309
 20
443.9953301805443
 42
0.3637669406775804
 97
        4
330
134D
330
1361
330
1331
330
136A
 92
        7
 72
     0
 73
     1
 93
        4
 10
261.5561680162368
 20
448.0381535707034
 10
261.1130222657309
 20
448.0381535707035
 10
261.1130222657309
 20
445.9168332271437
 10
263.6774883597965
 20
445.9168332271437
 97
        4
330
135E
330
1331
330
1361
330
134F
 75
     0
 76
     0
 52
0.0
 41
0.1
 77
     0
 78
     1
 53
0.0
 43
-17.69532693579902
 44
17.06421036182104
 45
0.0
 46
0.1
 79
     0
 47
0.0587368280222698
 98
        2
 10
262.1705428809556
 20
444.9351192896626
 10
261.9942355504615
 20
446.2860662204638
  0
HATCH
  5
136C
330
1E
100
AcDbEntity
  8
SCHRAFF
100
AcDbHatch
 10
0.0
 20
0.0
 30
0.0
210
0.0
220
0.0
230
1.0
  2
_USER
 70
     0
 71
     0
 91
        2
 92
        7
 72
     1
 73
     1
 93
        4
 10
141.3321235990486
 20
447.3332657997603
 42
0.0
 10
142.7485561716654
 20
445.9168332271437
 42
0.0
 10
145.313022265731
 20
445.9168332271436
 42
0.0
 10
145.313022265731
 20
443.9953301805443
 42
-0.3637669406775779
 97
        0
 92
        7
 72
     0
 73
     1
 93
        4
 10
142.7485561716653
 20
445.9168332271437
 10
144.8698765152248
 20
448.0381535707034
 10
145.3130222657308
 20
448.0381535707034
 10
145.313022265731
 20
445.9168332271436
 97
        0
 75
     0
 76
     0
 52
0.0
 41
0.1
 77
     0
 78
     1
 53
180.0
 43
424.121371467261
 44
17.06421036182121
 45
-0.0000000000000001
 46
0.1
 79
     0
 47
0.0587368280222698
 98
        2
 10
144.2555016505061
 20
444.9351192896625
 10
144.4318089810003
 20
446.2860662204637
  0
ARC
  5
136D
330
1E
100
AcDbEntity
  8
SCHRAFF
100
AcDbCircle
 10
145.3130222657308
 20
448.0381535707034
 30
0.0
 40
4.042823390159128
100
AcDbArc
 50
190.0411439810052
 51
270.0
  0
ARC
  5
1373
330
1E
100
AcDbEntity
  8
STEMPEL
100
AcDbCircle
 10
345.2130222657308
 20
470.916833227144
 30
0.0
 40
3.000000000000028
100
AcDbArc
 50
270.0
 51
90.0
  0
LINE
  5
1374
330
1E
100
AcDbEntity
  8
STEMPEL
100
AcDbLine
 10
332.7130222657307
 20
487.916833227144
 30
0.0
 11
332.8716410145223
 21
478.8295711949575
 31
0.0
  0
LINE
  5
1375
330
1E
100
AcDbEntity
  8
MITTEL
100
AcDbLine
 10
325.2130222657307
 20
467.9168332271438
 30
0.0
 11
325.2130222657307
 21
492.9168332271441
 31
0.0
  0
ARC
  5
1376
330
1E
100
AcDbEntity
  8
STEMPEL
100
AcDbCircle
 10
337.8708794903043
 20
478.9168332271438
 30
0.0
 40
4.99999999999995
100
AcDbArc
 50
181.0000000000017
 51
270.0
  0
LINE
  5
1377
330
1E
100
AcDbEntity
  8
HILF
100
AcDbLine
 10
322.2130222657307
 20
467.9168332271441
 30
0.0
 11
322.2130222657307
 21
487.9168332271438
 31
0.0
  0
LINE
  5
1378
330
1E
100
AcDbEntity
  8
HILF
100
AcDbLine
 10
328.2130222657307
 20
467.9168332271438
 30
0.0
 11
328.2130222657307
 21
487.9168332271438
 31
0.0
  0
LINE
  5
1379
330
1E
100
AcDbEntity
  8
STEMPEL
100
AcDbLine
 10
323.2130222657307
 20
467.9168332271441
 30
0.0
 11
323.2130222657307
 21
487.9168332271438
 31
0.0
  0
LINE
  5
137A
330
1E
100
AcDbEntity
  8
STEMPEL
100
AcDbLine
 10
327.2130222657307
 20
467.9168332271441
 30
0.0
 11
327.2130222657307
 21
487.916833227144
 31
0.0
  0
LINE
  5
137B
330
1E
100
AcDbEntity
  8
STEMPEL
100
AcDbLine
 10
337.8708794903041
 20
473.916833227144
 30
0.0
 11
345.2130222657308
 21
473.916833227144
 31
0.0
  0
LINE
  5
137D
330
1E
100
AcDbEntity
  8
STEMPEL
100
AcDbLine
 10
317.5544035169394
 20
478.8295711949577
 30
0.0
 11
317.7130222657307
 21
487.9168332271438
 31
0.0
  0
LINE
  5
137E
330
1E
100
AcDbEntity
  8
STEMPEL
100
AcDbLine
 10
311.6875299069949
 20
485.9168332271445
 30
0.0
 11
311.6875299069949
 21
483.9168332271437
 31
0.0
  0
LINE
  5
1380
330
1E
100
AcDbEntity
  8
HILF
100
AcDbLine
 10
310.6875299069949
 20
486.9168332271445
 30
0.0
 11
310.6875299069949
 21
483.9168332271438
 31
0.0
  0
LINE
  5
1381
330
1E
100
AcDbEntity
  8
STEMPEL
100
AcDbLine
 10
310.6875299069949
 20
486.9168332271445
 30
0.0
 11
311.6875299069949
 21
485.9168332271445
 31
0.0
  0
LINE
  5
1386
330
1E
100
AcDbEntity
  8
MITTEL
100
AcDbLine
 10
306.6875299069949
 20
491.9168332271437
 30
0.0
 11
306.6875299069949
 21
461.9168332271445
 31
0.0
  0
ARC
  5
1387
330
1E
100
AcDbEntity
  8
STEMPEL
100
AcDbCircle
 10
312.5551650411575
 20
478.916833227144
 30
0.0
 40
5.0
100
AcDbArc
 50
270.0
 51
358.9999999999982
  0
LINE
  5
1388
330
1E
100
AcDbEntity
  8
STEMPEL
100
AcDbLine
 10
301.6875299069949
 20
485.9168332271445
 30
0.0
 11
301.6875299069949
 21
483.9168332271437
 31
0.0
  0
LINE
  5
138A
330
1E
100
AcDbEntity
  8
STEMPEL
100
AcDbLine
 10
301.6875299069949
 20
485.9168332271445
 30
0.0
 11
302.6875299069949
 21
486.9168332271445
 31
0.0
  0
LINE
  5
138B
330
1E
100
AcDbEntity
  8
HILF
100
AcDbLine
 10
302.6875299069949
 20
486.9168332271445
 30
0.0
 11
302.687529906995
 21
483.9168332271438
 31
0.0
  0
LINE
  5
1392
330
1E
100
AcDbEntity
  8
STEMPEL
100
AcDbLine
 10
311.6875299069949
 20
485.9168332271445
 30
0.0
 11
301.6875299069949
 21
485.9168332271445
 31
0.0
  0
LINE
  5
1393
330
1E
100
AcDbEntity
  8
STEMPEL
100
AcDbLine
 10
302.6875299069949
 20
486.9168332271445
 30
0.0
 11
310.6875299069949
 21
486.9168332271445
 31
0.0
  0
ARC
  5
1398
330
1E
100
AcDbEntity
  8
STEMPEL
100
AcDbCircle
 10
285.2130222657308
 20
470.916833227144
 30
0.0
 40
2.999999999999886
100
AcDbArc
 50
90.0
 51
270.0
  0
LINE
  5
139D
330
1E
100
AcDbEntity
  8
TEXT
 62
     2
100
AcDbLine
 10
345.4811317020667
 20
362.5978538472632
 30
0.0
 11
257.8086438956009
 21
451.4691899834238
 31
0.0
  0
TEXT
  5
13B7
330
1E
100
AcDbEntity
  8
TEXT
 62
     1
100
AcDbText
 10
198.0042053299384
 20
291.5591230897254
 30
0.0
 40
7.0
  1
DN100
 50
90.0
 41
0.8
100
AcDbText
  0
LINE
  5
13BB
330
1E
100
AcDbEntity
  8
TEXT
 62
     2
100
AcDbLine
 10
345.4811317020667
 20
362.5978538472632
 30
0.0
 11
457.0108730364695
 21
362.5978538472632
 31
0.0
  0
TEXT
  5
13BC
330
1E
100
AcDbEntity
  8
TEXT
 62
     1
100
AcDbText
 10
352.2069584024119
 20
365.5843943393163
 30
0.0
 40
7.0
  1
Dichtelement DN100
 41
0.8
100
AcDbText
  0
TEXT
  5
13BD
330
1E
100
AcDbEntity
  8
TEXT
 62
     1
100
AcDbText
 10
352.2069584024119
 20
352.0463810342679
 30
0.0
 40
7.0
  1
EDV-Art.Nr. 00911.100X
 41
0.8
100
AcDbText
  0
LINE
  5
13BE
330
1E
100
AcDbEntity
  8
STEMPEL
100
AcDbLine
 10
345.2130222657308
 20
467.9168332271437
 30
0.0
 11
260.344612167547
 21
467.9168332271439
 31
0.0
  0
LINE
  5
13BF
330
1E
100
AcDbEntity
  8
STEMPEL
100
AcDbLine
 10
317.7130222657307
 20
487.9168332271438
 30
0.0
 11
332.7130222657307
 21
487.916833227144
 31
0.0
  0
LINE
  5
13C2
330
1E
100
AcDbEntity
  8
TEXT
 62
     2
100
AcDbLine
 10
322.0513273211466
 20
251.4640437083922
 30
0.0
 11
253.639157002661
 21
268.3072335148494
 31
0.0
  0
TEXT
  5
13C3
330
1E
100
AcDbEntity
  8
TEXT
 62
     1
100
AcDbText
 10
328.7771540214918
 20
240.9125708953969
 30
0.0
 40
7.0
  1
EDV-Art.Nr. 21971.100X
 41
0.8
100
AcDbText
  0
TEXT
  5
13C4
330
1E
100
AcDbEntity
  8
TEXT
 62
     1
100
AcDbText
 10
328.7771540214918
 20
254.4505842004453
 30
0.0
 40
7.0
  1
Unterteil DN100
 41
0.8
100
AcDbText
  0
LINE
  5
13C5
330
1E
100
AcDbEntity
  8
TEXT
 62
     2
100
AcDbLine
 10
322.0513273211466
 20
251.4640437083922
 30
0.0
 11
429.0140909689101
 21
251.4640437083922
 31
0.0
  0
LINE
  5
13CB
330
1E
100
AcDbEntity
  8
STEMPEL
100
AcDbLine
 10
152.2130222657308
 20
485.9168332271443
 30
0.0
 11
152.2130222657308
 21
483.9168332271439
 31
0.0
  0
LINE
  5
13CF
330
1E
100
AcDbEntity
  8
HILF
100
AcDbLine
 10
151.2130222657308
 20
486.9168332271443
 30
0.0
 11
151.2130222657308
 21
483.9168332271438
 31
0.0
  0
LINE
  5
13D0
330
1E
100
AcDbEntity
  8
STEMPEL
100
AcDbLine
 10
152.2130222657308
 20
485.9168332271443
 30
0.0
 11
151.2130222657308
 21
486.9168332271443
 31
0.0
  0
LINE
  5
13D1
330
1E
100
AcDbEntity
  8
STEMPEL
100
AcDbLine
 10
142.2130222657308
 20
485.9168332271445
 30
0.0
 11
142.2130222657308
 21
483.9168332271439
 31
0.0
  0
LINE
  5
13D3
330
1E
100
AcDbEntity
  8
HILF
100
AcDbLine
 10
143.2130222657308
 20
486.9168332271445
 30
0.0
 11
143.2130222657308
 21
483.9168332271439
 31
0.0
  0
LINE
  5
13D4
330
1E
100
AcDbEntity
  8
STEMPEL
100
AcDbLine
 10
143.2130222657308
 20
486.9168332271445
 30
0.0
 11
142.2130222657308
 21
485.9168332271445
 31
0.0
  0
LINE
  5
13D5
330
1E
100
AcDbEntity
  8
STEMPEL
100
AcDbLine
 10
142.2130222657309
 20
485.9168332271445
 30
0.0
 11
152.2130222657307
 21
485.9168332271445
 31
0.0
  0
LINE
  5
13D6
330
1E
100
AcDbEntity
  8
STEMPEL
100
AcDbLine
 10
151.2130222657308
 20
486.9168332271443
 30
0.0
 11
143.2130222657308
 21
486.9168332271445
 31
0.0
  0
LINE
  5
13DB
330
1E
100
AcDbEntity
  8
MITTEL
100
AcDbLine
 10
147.2130222657308
 20
491.9168332271444
 30
0.0
 11
147.2130222657308
 21
471.7498879813714
 31
0.0
  0
ARC
  5
13E4
330
1E
100
AcDbEntity
  8
STEMPEL
100
AcDbCircle
 10
121.2130222657308
 20
470.9168332271438
 30
0.0
 40
3.0
100
AcDbArc
 50
270.0
 51
90.0
  0
LINE
  5
13E7
330
1E
100
AcDbEntity
  8
STEMPEL
100
AcDbLine
 10
96.21302226573073
 20
485.9168332271445
 30
0.0
 11
96.21302226573071
 21
483.9168332271438
 31
0.0
  0
LINE
  5
13EB
330
1E
100
AcDbEntity
  8
HILF
100
AcDbLine
 10
95.21302226573073
 20
486.9168332271445
 30
0.0
 11
95.21302226573073
 21
483.9168332271437
 31
0.0
  0
LINE
  5
13EC
330
1E
100
AcDbEntity
  8
STEMPEL
100
AcDbLine
 10
96.21302226573073
 20
485.9168332271445
 30
0.0
 11
95.21302226573073
 21
486.9168332271445
 31
0.0
  0
LINE
  5
13ED
330
1E
100
AcDbEntity
  8
STEMPEL
100
AcDbLine
 10
98.21302226573074
 20
473.9168332271439
 30
0.0
 11
98.21302226573081
 21
467.9168332271438
 31
0.0
  0
LINE
  5
13EE
330
1E
100
AcDbEntity
  8
HILF
100
AcDbLine
 10
95.21302226573073
 20
473.9168332271439
 30
0.0
 11
95.21302226573073
 21
461.9168332271445
 31
0.0
  0
LINE
  5
13EF
330
1E
100
AcDbEntity
  8
STEMPEL
100
AcDbLine
 10
96.21302226573073
 20
473.9168332271439
 30
0.0
 11
96.21302226573073
 21
461.9168332271445
 31
0.0
  0
LINE
  5
13F2
330
1E
100
AcDbEntity
  8
STEMPEL
100
AcDbLine
 10
86.21302226573073
 20
485.9168332271445
 30
0.0
 11
86.21302226573071
 21
483.9168332271438
 31
0.0
  0
LINE
  5
13F4
330
1E
100
AcDbEntity
  8
HILF
100
AcDbLine
 10
87.21302226573072
 20
486.9168332271445
 30
0.0
 11
87.21302226573071
 21
483.9168332271437
 31
0.0
  0
LINE
  5
13F5
330
1E
100
AcDbEntity
  8
STEMPEL
100
AcDbLine
 10
87.21302226573072
 20
486.9168332271445
 30
0.0
 11
86.21302226573073
 21
485.9168332271445
 31
0.0
  0
LINE
  5
13F9
330
1E
100
AcDbEntity
  8
STEMPEL
100
AcDbLine
 10
86.21302226573073
 20
473.9168332271439
 30
0.0
 11
86.21302226573073
 21
461.9168332271445
 31
0.0
  0
LINE
  5
13FA
330
1E
100
AcDbEntity
  8
HILF
100
AcDbLine
 10
87.21302226573072
 20
473.9168332271439
 30
0.0
 11
87.21302226573072
 21
461.9168332271445
 31
0.0
  0
LINE
  5
13FB
330
1E
100
AcDbEntity
  8
STEMPEL
100
AcDbLine
 10
84.21302226573073
 20
473.9168332271439
 30
0.0
 11
84.21302226573081
 21
467.9168332271438
 31
0.0
  0
LINE
  5
13FD
330
1E
100
AcDbEntity
  8
MITTEL
100
AcDbLine
 10
91.21302226573073
 20
491.9168332271446
 30
0.0
 11
91.21302226573073
 21
461.9168332271445
 31
0.0
  0
LINE
  5
13FF
330
1E
100
AcDbEntity
  8
STEMPEL
100
AcDbLine
 10
95.21302226573073
 20
486.9168332271445
 30
0.0
 11
87.21302226573072
 21
486.9168332271445
 31
0.0
  0
LINE
  5
1400
330
1E
100
AcDbEntity
  8
STEMPEL
100
AcDbLine
 10
86.21302226573073
 20
485.9168332271445
 30
0.0
 11
96.21302226573073
 21
485.9168332271445
 31
0.0
  0
LINE
  5
1407
330
1E
100
AcDbEntity
  8
STEMPEL
100
AcDbLine
 10
146.0814323639149
 20
467.9168332271438
 30
0.0
 11
96.21302226573073
 21
467.9168332271438
 31
0.0
  0
ARC
  5
140F
330
1E
100
AcDbEntity
  8
STEMPEL
100
AcDbCircle
 10
61.21302226573073
 20
470.9168332271438
 30
0.0
 40
3.0
100
AcDbArc
 50
90.0
 51
270.0
  0
LINE
  5
1413
330
1E
100
AcDbEntity
  8
STEMPEL
100
AcDbLine
 10
86.21302226573073
 20
467.9168332271438
 30
0.0
 11
61.21302226573073
 21
467.9168332271438
 31
0.0
  0
DIMENSION
  5
1414
330
1E
100
AcDbEntity
  8
BEM
100
AcDbDimension
  2
*D3
 10
40.16113797103002
 20
191.9168332271441
 30
0.0
 11
33.66113797103001
 21
326.916833227144
 31
0.0
 70
    32
 71
     5
 42
269.9999999999998
  3
Standard
100
AcDbAlignedDimension
 13
53.21302226573073
 23
461.9168332271438
 33
0.0
 14
153.1083477688864
 24
191.9168332271441
 34
0.0
 50
90.0
100
AcDbRotatedDimension
1001
ACAD
1000
DSTYLE
1002
{
1070
    40
1040
2.0
1070
    41
1040
3.5
1070
    42
1040
1.0
1070
    43
1040
7.0
1070
    44
1040
1.0
1070
    73
1070
     0
1070
    74
1070
     0
1070
    77
1070
     1
1070
    78
1070
     8
1070
    79
1070
     2
1070
   140
1040
3.5
1070
   141
1040
1.5
1070
   146
1040
0.5142857142857144
1070
   147
1040
1.5
1070
   172
1070
     1
1070
   178
1070
     1
1070
   179
1070
     2
1070
   271
1070
     2
1070
   272
1070
     2
1070
   284
1070
     8
1070
   285
1070
     8
1070
   286
1070
     8
1002
}
  0
LINE
  5
1416
330
1E
100
AcDbEntity
  8
STEMPEL
100
AcDbLine
 10
61.21302226573073
 20
473.9168332271439
 30
0.0
 11
152.4130222657309
 21
473.9168332271439
 31
0.0
  0
HATCH
  5
1417
330
1E
100
AcDbEntity
  8
SCHRAFF
100
AcDbHatch
 10
0.0
 20
0.0
 30
0.0
210
0.0
220
0.0
230
1.0
  2
_U
 70
     0
 71
     0
 91
        5
 92
        7
 72
     1
 73
     1
 93
        4
 10
84.21302226573073
 20
473.9168332271439
 42
0.0
 10
61.21302226573073
 20
473.9168332271439
 42
1.0
 10
61.21302226573073
 20
467.9168332271438
 42
0.0
 10
84.21302226573073
 20
467.9168332271438
 42
0.0
 97
        0
 92
        7
 72
     1
 73
     1
 93
        4
 10
121.2130222657308
 20
473.9168332271439
 42
0.0
 10
98.21302226573074
 20
473.9168332271439
 42
0.0
 10
98.21302226573074
 20
467.9168332271438
 42
0.0
 10
121.2130222657308
 20
467.9168332271438
 42
1.0
 97
        0
 92
        7
 72
     1
 73
     1
 93
        5
 10
306.6875299069949
 20
473.9168332271439
 42
0.0
 10
285.2130222657308
 20
473.9168332271439
 42
0.0
 10
285.2130214398246
 20
473.916833227144
 42
1.0
 10
285.2130222657308
 20
467.9168332271438
 42
0.0
 10
306.6875299069949
 20
467.9168332271438
 42
0.0
 97
        0
 92
        7
 72
     1
 73
     1
 93
        7
 10
323.2130222657307
 20
487.916833227144
 42
0.0
 10
317.7130222657307
 20
487.9168332271438
 42
0.0
 10
317.5544035169394
 20
478.8295711949577
 42
-0.4091108014277335
 10
312.5551650411575
 20
473.9168332271439
 42
0.0
 10
306.6875299069949
 20
473.9168332271439
 42
0.0
 10
306.6875299069949
 20
467.9168332271438
 42
0.0
 10
323.2130222657308
 20
467.9168332271438
 42
0.0
 97
        0
 92
        7
 72
     1
 73
     1
 93
        7
 10
345.2130222657308
 20
473.916833227144
 42
0.0
 10
337.8708794903043
 20
473.916833227144
 42
-0.4091108014277076
 10
332.8716410145223
 20
478.8295711949575
 42
0.0
 10
332.7130222657307
 20
487.916833227144
 42
0.0
 10
327.2130222657307
 20
487.9168332271438
 42
0.0
 10
327.2130222657307
 20
467.9168332271438
 42
0.0
 10
345.2130222657308
 20
467.9168332271438
 42
1.0
 97
        0
 75
     0
 76
     0
 52
135.0
 41
5.0
 77
     0
 78
     1
 53
135.0
 43
-19.09894090542434
 44
15.38949971250628
 45
-3.535533905932737
 46
-3.535533905932737
 79
     0
 47
0.374699653914983
 98
        5
 10
70.22989041902167
 20
470.4699907119221
 10
112.9740948013901
 20
471.594088781078
 10
299.3238339806623
 20
472.3434893592589
 10
314.6967496959788
 20
472.7181887156444
 10
331.9444130395297
 20
473.0928880720298
  0
DIMENSION
  5
1418
330
1E
100
AcDbEntity
  8
BEM
100
AcDbDimension
  2
*D4
 10
53.21302226573073
 20
500.7149391247731
 30
0.0
 11
203.2130222657308
 21
507.214939124773
 31
0.0
 70
    32
  1
%%c<>
 71
     5
 42
300.0000000000002
  3
Standard
100
AcDbAlignedDimension
 13
353.2130222657309
 23
464.9168332271438
 33
0.0
 14
53.21302226573073
 24
464.9168332271438
 34
0.0
100
AcDbRotatedDimension
1001
ACAD
1000
DSTYLE
1002
{
1070
    40
1040
2.0
1070
    41
1040
3.5
1070
    42
1040
1.0
1070
    43
1040
7.0
1070
    44
1040
1.0
1070
    73
1070
     0
1070
    74
1070
     0
1070
    77
1070
     1
1070
    78
1070
     8
1070
    79
1070
     2
1070
   140
1040
3.5
1070
   141
1040
1.5
1070
   146
1040
0.5142857142857144
1070
   147
1040
1.5
1070
   172
1070
     1
1070
   178
1070
     1
1070
   179
1070
     2
1070
   271
1070
     2
1070
   272
1070
     2
1070
   284
1070
     8
1070
   285
1070
     8
1070
   286
1070
     8
1002
}
  0
LINE
  5
1459
330
1E
100
AcDbEntity
  8
TEXT
 62
     2
100
AcDbLine
 10
341.5698805909396
 20
399.4242558697702
 30
0.0
 11
453.0996219253425
 21
399.4242558697702
 31
0.0
  0
TEXT
  5
145A
330
1E
100
AcDbEntity
  8
TEXT
 62
     1
100
AcDbText
 10
348.6516662941215
 20
388.8727830567749
 30
0.0
 40
7.0
  1
EDV-Art.Nr. 21810.125X
 41
0.8
100
AcDbText
  0
TEXT
  5
145B
330
1E
100
AcDbEntity
  8
TEXT
 62
     1
100
AcDbText
 10
348.2957072912848
 20
402.4107963618233
 30
0.0
 40
7.0
  1
Kompressionsdichtung
 41
0.8
100
AcDbText
  0
LINE
  5
145D
330
1E
100
AcDbEntity
  8
TEXT
 62
     2
100
AcDbLine
 10
341.5698805909396
 20
399.4242558697702
 30
0.0
 11
289.1411163754278
 21
463.7526915175882
 31
0.0
  0
LINE
  5
145E
330
1E
100
AcDbEntity
  8
TEXT
 62
     2
100
AcDbLine
 10
358.4387960307813
 20
436.4839587840927
 30
0.0
 11
334.7102692623557
 21
471.9543775210546
 31
0.0
  0
TEXT
  5
145F
330
1E
100
AcDbEntity
  8
TEXT
 62
     1
100
AcDbText
 10
359.0341519095357
 20
439.9677929450032
 30
0.0
 40
7.0
  1
Losflansch DN100
 41
0.8
100
AcDbText
  0
LINE
  5
1460
330
1E
100
AcDbEntity
  8
TEXT
 62
     2
100
AcDbLine
 10
464.3773606059144
 20
436.4839587840927
 30
0.0
 11
358.4387960307813
 21
436.4839587840927
 31
0.0
  0
TEXT
  5
1461
330
1E
100
AcDbEntity
  8
TEXT
 62
     1
100
AcDbText
 10
359.0341519095357
 20
427.1914619762936
 30
0.0
 40
7.0
  1
EDV-Art.Nr. 21905.100X
 41
0.8
100
AcDbText
  0
LINE
  5
1488
102
{ACAD_REACTORS
330
14D2
102
}
330
1E
100
AcDbEntity
  8
STEMPEL
100
AcDbLine
 10
147.6274848926294
 20
446.9168332271441
 30
0.0
 11
148.1134373421499
 21
448.9168332271441
 31
0.0
  0
ARC
  5
1489
102
{ACAD_REACTORS
330
14D2
102
}
330
1E
100
AcDbEntity
  8
STEMPEL
100
AcDbCircle
 10
159.1765648510963
 20
448.6327668734632
 30
0.0
 40
8.867073426506241
100
AcDbArc
 50
178.1641531904486
 51
206.8638823232074
  0
LINE
  5
148A
102
{ACAD_REACTORS
330
14D2
102
}
330
1E
100
AcDbEntity
  8
STEMPEL
100
AcDbLine
 10
150.3140427801644
 20
448.9168332271441
 30
0.0
 11
148.1134373421499
 21
448.9168332271441
 31
0.0
  0
LINE
  5
148B
102
{ACAD_REACTORS
330
14D2
102
}
330
1E
100
AcDbEntity
  8
STEMPEL
100
AcDbLine
 10
150.4771072316534
 20
446.9168332271442
 30
0.0
 11
146.5130222657304
 21
446.9168332271443
 31
0.0
  0
LINE
  5
148C
102
{ACAD_REACTORS
330
14D2
102
}
330
1E
100
AcDbEntity
  8
STEMPEL
100
AcDbLine
 10
152.4130222657303
 20
444.6259806362049
 30
0.0
 11
151.2664033356802
 21
444.6259806362049
 31
0.0
  0
LINE
  5
148D
330
1E
100
AcDbEntity
  8
HILF
100
AcDbLine
 10
152.4130222657308
 20
420.3895722483044
 30
0.0
 11
151.4188527955532
 21
420.3895722483044
 31
0.0
  0
DIMENSION
  5
148E
330
1E
100
AcDbEntity
  8
BEM
100
AcDbDimension
  2
*D5
 10
40.0550218429444
 20
611.9168332271448
 30
0.0
 11
33.5550218429443
 21
536.9168332271448
 31
0.0
 70
    32
  1
min.35 - max.200
 71
     5
 42
150.0
  3
Standard
100
AcDbAlignedDimension
 13
53.21302226573073
 23
461.9168332271448
 33
0.0
 14
53.21302226573116
 24
611.9168332271448
 34
0.0
 50
90.0
100
AcDbRotatedDimension
1001
ACAD
1000
DSTYLE
1002
{
1070
    40
1040
2.0
1070
    41
1040
3.5
1070
    42
1040
1.0
1070
    43
1040
7.0
1070
    44
1040
1.0
1070
    73
1070
     0
1070
    74
1070
     0
1070
    77
1070
     1
1070
    78
1070
     8
1070
    79
1070
     2
1070
   140
1040
3.5
1070
   141
1040
1.5
1070
   146
1040
0.5142857142857144
1070
   147
1040
1.5
1070
   172
1070
     1
1070
   178
1070
     1
1070
   179
1070
     2
1070
   271
1070
     2
1070
   272
1070
     2
1070
   284
1070
     8
1070
   285
1070
     8
1070
   286
1070
     8
1002
}
  0
LINE
  5
14B6
330
1E
100
AcDbEntity
  8
MITTEL
100
AcDbLine
 10
203.2130222657308
 20
496.764750297911
 30
0.0
 11
203.2130222657301
 21
186.9168332271439
 31
0.0
  0
HATCH
  5
14D2
330
1E
100
AcDbEntity
  8
SCHRAFF
100
AcDbHatch
 10
0.0
 20
0.0
 30
0.0
210
0.0
220
0.0
230
1.0
  2
NET
 70
     0
 71
     1
 91
        2
 92
        7
 72
     1
 73
     1
 93
       13
 10
254.013022265731
 20
444.6259806362047
 42
0.0
 10
255.1596411957811
 20
444.6259806362046
 42
0.1258849064518493
 10
256.1120017512972
 20
448.9168332271439
 42
0.0
 10
258.3126071893114
 20
448.9168332271439
 42
0.0
 10
258.7985596388318
 20
446.916833227144
 42
0.0
 10
259.9130222657309
 20
446.916833227144
 42
0.0
 10
259.9130222657309
 20
452.7205223094937
 42
0.1406476065140127
 10
256.413022265731
 20
464.916833227144
 42
0.0
 10
261.4625941581433
 20
464.916833227144
 42
0.1436237563963057
 10
260.8605941163568
 20
467.0863976745986
 42
0.0
 10
258.2993871847571
 20
471.2084746161118
 42
0.6565381519876399
 10
255.5764090013388
 20
470.8050617947978
 42
0.0
 10
254.013022265731
 20
464.9704230656309
 42
0.0
 97
       13
330
1341
330
131C
330
131B
330
1311
330
1318
330
1108
330
130F
330
1315
330
1313
330
131A
330
1312
330
133C
330
133D
 92
        7
 72
     1
 73
     1
 93
       13
 10
152.4130222657308
 20
464.9704230656304
 42
0.0
 10
150.8496355301232
 20
470.8050617947978
 42
0.6565381519876399
 10
148.126657346705
 20
471.2084746161118
 42
0.0
 10
145.5654504151052
 20
467.0863976745987
 42
0.1436237563963082
 10
144.9634503733185
 20
464.9168332271441
 42
0.0
 10
150.013022265731
 20
464.9168332271441
 42
0.1406476065140178
 10
146.5130222657309
 20
452.7205223094934
 42
0.0
 10
146.5130222657309
 20
446.9168332271443
 42
0.0
 10
147.6274848926295
 20
446.9168332271443
 42
0.0
 10
148.1134373421499
 20
448.9168332271442
 42
0.0
 10
150.3140427801644
 20
448.9168332271441
 42
0.1258849064518476
 10
151.2664033356802
 20
444.6259806362049
 42
0.0
 10
152.4130222657309
 20
444.6259806362048
 42
0.0
 97
       13
330
130B
330
130C
330
130A
330
1307
330
1305
330
1322
330
1323
330
148B
330
1488
330
148A
330
1489
330
148C
330
1109
 75
     0
 76
     1
 52
45.0
 41
15.0
 77
     0
 78
     2
 53
45.0
 43
0.0
 44
0.0
 45
-1.325825214724776
 46
1.325825214724776
 79
     0
 53
135.0
 43
0.0
 44
0.0
 45
-1.325825214724776
 46
-1.325825214724776
 79
     0
 47
0.1990490886213137
 98
        2
 10
255.7505044677701
 20
457.5464379193147
 10
149.7992254695018
 20
457.7454869258415
  0
LINE
  5
14D3
330
1E
100
AcDbEntity
  8
STEMPEL
100
AcDbLine
 10
254.013022265731
 20
471.9168332271439
 30
0.0
 11
257.0252977407724
 21
471.9168332271439
 31
0.0
  0
LINE
  5
14D4
330
1E
100
AcDbEntity
  8
STEMPEL
100
AcDbLine
 10
254.013022265731
 20
473.9168332271439
 30
0.0
 11
312.5551650411575
 21
473.9168332271439
 31
0.0
  0
ARC
  5
1605
330
1E
100
AcDbEntity
  8
STEMPEL
100
AcDbCircle
 10
306.6875299069949
 20
453.605944094689
 30
0.0
 40
30.31088913245485
100
AcDbArc
 50
81.78678929826059
 51
98.2132107017394
  0
ARC
  5
1606
330
1E
100
AcDbEntity
  8
STEMPEL
100
AcDbCircle
 10
300.1923393786116
 20
476.2225275193594
 30
0.0
 40
7.694305707784447
100
AcDbArc
 50
73.65710669401345
 51
106.3428933059834
  0
ARC
  5
1607
330
1E
100
AcDbEntity
  8
STEMPEL
100
AcDbCircle
 10
313.1827204353781
 20
476.2225275193594
 30
0.0
 40
7.694305707784447
100
AcDbArc
 50
73.65710669401345
 51
106.3428933059834
  0
ARC
  5
1608
330
1E
100
AcDbEntity
  8
HILF
100
AcDbCircle
 10
306.6875299069949
 20
454.0183721794826
 30
0.0
 40
22.41111549782308
100
AcDbArc
 50
78.85962783890455
 51
101.1403721610954
  0
ARC
  5
1609
330
1E
100
AcDbEntity
  8
HILF
100
AcDbCircle
 10
313.1827204353782
 20
470.6683470776142
 30
0.0
 40
5.761140599691502
100
AcDbArc
 50
67.92594526326054
 51
112.0740547367394
  0
ARC
  5
160A
330
1E
100
AcDbEntity
  8
HILF
100
AcDbCircle
 10
300.1923393786116
 20
470.6683470776142
 30
0.0
 40
5.761140599691502
100
AcDbArc
 50
67.92594526326054
 51
112.0740547367394
  0
POINT
  5
160B
330
1E
100
AcDbEntity
  8
0
100
AcDbPoint
 10
306.6875299069949
 20
473.9168332271439
 30
0.0
210
0.0000000000000001
220
1.0
230
0.0
  0
LINE
  5
160C
330
1E
100
AcDbEntity
  8
STEMPEL
100
AcDbLine
 10
299.1875299069949
 20
483.9168332271438
 30
0.0
 11
314.1875299069949
 21
483.9168332271438
 31
0.0
  0
LINE
  5
160D
330
1E
100
AcDbEntity
  8
STEMPEL
100
AcDbLine
 10
315.3477839448393
 20
476.0071897433436
 30
0.0
 11
315.3477839448393
 21
483.6059440946884
 31
0.0
  0
LINE
  5
160E
330
1E
100
AcDbEntity
  8
STEMPEL
100
AcDbLine
 10
311.0176569259171
 20
476.0071897433436
 30
0.0
 11
311.0176569259171
 21
483.6059440946884
 31
0.0
  0
LINE
  5
160F
330
1E
100
AcDbEntity
  8
STEMPEL
100
AcDbLine
 10
302.3574028880727
 20
476.0071897433436
 30
0.0
 11
302.3574028880727
 21
483.6059440946884
 31
0.0
  0
LINE
  5
1610
330
1E
100
AcDbEntity
  8
STEMPEL
100
AcDbLine
 10
316.080975651199
 20
475.3716026927332
 30
0.0
 11
296.2810147995006
 21
475.3716026927333
 31
0.0
  0
LINE
  5
1612
330
1E
100
AcDbEntity
  8
STEMPEL
100
AcDbLine
 10
298.0272758691505
 20
476.0071897433436
 30
0.0
 11
298.0272758691505
 21
483.6059440946884
 31
0.0
  0
LINE
  5
1613
330
1E
100
AcDbEntity
  8
STEMPEL
100
AcDbLine
 10
299.1875299069949
 20
483.9168332271438
 30
0.0
 11
298.0272758691505
 21
483.6059440946884
 31
0.0
  0
LINE
  5
1614
330
1E
100
AcDbEntity
  8
STEMPEL
100
AcDbLine
 10
315.3477839448393
 20
483.6059440946884
 30
0.0
 11
314.1875299069949
 21
483.9168332271438
 31
0.0
  0
LINE
  5
1615
330
1E
100
AcDbEntity
  8
STEMPEL
100
AcDbLine
 10
316.3376898484035
 20
475.6468934597219
 30
0.0
 11
315.3477839448393
 21
476.0071897433436
 31
0.0
  0
LINE
  5
1616
330
1E
100
AcDbEntity
  8
STEMPEL
100
AcDbLine
 10
298.0272758691505
 20
476.0071897433436
 30
0.0
 11
296.2810147995006
 21
475.3716026927333
 31
0.0
  0
ARC
  5
1617
330
1E
100
AcDbEntity
  8
STEMPEL
100
AcDbCircle
 10
296.5375299069949
 20
474.6668332271438
 30
0.0
 40
0.7500000000000013
100
AcDbArc
 50
109.9999999999995
 51
269.9999991462263
  0
ARC
  5
1632
330
1E
100
AcDbEntity
  8
STEMPEL
100
AcDbCircle
 10
147.2130222657308
 20
453.605944094689
 30
0.0
 40
30.31088913245485
100
AcDbArc
 50
81.78678929826221
 51
98.2132107017378
  0
ARC
  5
1633
330
1E
100
AcDbEntity
  8
STEMPEL
100
AcDbCircle
 10
140.7178317373475
 20
476.2225275193594
 30
0.0
 40
7.694305707784447
100
AcDbArc
 50
73.65710669401501
 51
106.342893305985
  0
ARC
  5
1634
330
1E
100
AcDbEntity
  8
STEMPEL
100
AcDbCircle
 10
153.7082127941141
 20
476.2225275193594
 30
0.0
 40
7.694305707784447
100
AcDbArc
 50
99.69079670689836
 51
106.342893305985
  0
ARC
  5
1635
330
1E
100
AcDbEntity
  8
HILF
100
AcDbCircle
 10
147.2130222657308
 20
454.0183721794826
 30
0.0
 40
22.41111549782308
100
AcDbArc
 50
78.85962783890615
 51
101.1403721610938
  0
ARC
  5
1636
330
1E
100
AcDbEntity
  8
HILF
100
AcDbCircle
 10
153.7082127941141
 20
470.6683470776142
 30
0.0
 40
5.761140599691502
100
AcDbArc
 50
102.9919967233922
 51
112.0740547367379
  0
ARC
  5
1637
330
1E
100
AcDbEntity
  8
HILF
100
AcDbCircle
 10
140.7178317373475
 20
470.6683470776142
 30
0.0
 40
5.761140599691502
100
AcDbArc
 50
67.92594526326206
 51
112.0740547367379
  0
POINT
  5
1638
330
1E
100
AcDbEntity
  8
0
100
AcDbPoint
 10
147.2130222657308
 20
473.9168332271439
 30
0.0
210
0.0000000000000001
220
1.0
230
0.0
  0
LINE
  5
1639
330
1E
100
AcDbEntity
  8
STEMPEL
100
AcDbLine
 10
139.7130222657309
 20
483.9168332271439
 30
0.0
 11
152.4130222657309
 21
483.9168332271439
 31
0.0
  0
LINE
  5
163B
330
1E
100
AcDbEntity
  8
STEMPEL
100
AcDbLine
 10
151.543149284653
 20
476.0071897433437
 30
0.0
 11
151.543149284653
 21
483.6059440946885
 31
0.0
  0
LINE
  5
163C
330
1E
100
AcDbEntity
  8
STEMPEL
100
AcDbLine
 10
142.8828952468086
 20
476.0071897433437
 30
0.0
 11
142.8828952468086
 21
483.6059440946885
 31
0.0
  0
LINE
  5
163D
330
1E
100
AcDbEntity
  8
STEMPEL
100
AcDbLine
 10
152.4130222657309
 20
475.3716026927333
 30
0.0
 11
136.8065071582366
 21
475.3716026927333
 31
0.0
  0
LINE
  5
163E
330
1E
100
AcDbEntity
  8
STEMPEL
100
AcDbLine
 10
152.4130222657309
 20
473.9168332271439
 30
0.0
 11
137.0630222657308
 21
473.9168332271439
 31
0.0
  0
LINE
  5
163F
330
1E
100
AcDbEntity
  8
STEMPEL
100
AcDbLine
 10
138.5527682278864
 20
476.0071897433437
 30
0.0
 11
138.5527682278864
 21
483.6059440946885
 31
0.0
  0
LINE
  5
1640
330
1E
100
AcDbEntity
  8
STEMPEL
100
AcDbLine
 10
139.7130222657309
 20
483.9168332271439
 30
0.0
 11
138.5527682278864
 21
483.6059440946885
 31
0.0
  0
LINE
  5
1643
330
1E
100
AcDbEntity
  8
STEMPEL
100
AcDbLine
 10
138.5527682278864
 20
476.0071897433437
 30
0.0
 11
136.8065071582366
 21
475.3716026927333
 31
0.0
  0
ARC
  5
1644
330
1E
100
AcDbEntity
  8
STEMPEL
100
AcDbCircle
 10
137.0630222657308
 20
474.6668332271439
 30
0.0
 40
0.7500000000000013
100
AcDbArc
 50
109.9999999999995
 51
269.9999991462263
  0
ARC
  5
165F
330
1E
100
AcDbEntity
  8
STEMPEL
100
AcDbCircle
 10
91.21302226573073
 20
453.605944094689
 30
0.0
 40
30.31088913245485
100
AcDbArc
 50
81.78678929826139
 51
98.2132107017378
  0
ARC
  5
1660
330
1E
100
AcDbEntity
  8
STEMPEL
100
AcDbCircle
 10
84.71783173734744
 20
476.2225275193594
 30
0.0
 40
7.694305707784447
100
AcDbArc
 50
73.65710669401501
 51
106.342893305985
  0
ARC
  5
1661
330
1E
100
AcDbEntity
  8
STEMPEL
100
AcDbCircle
 10
97.70821279411402
 20
476.2225275193594
 30
0.0
 40
7.694305707784447
100
AcDbArc
 50
73.65710669401501
 51
106.342893305985
  0
ARC
  5
1662
330
1E
100
AcDbEntity
  8
HILF
100
AcDbCircle
 10
91.21302226573073
 20
454.0183721794826
 30
0.0
 40
22.41111549782308
100
AcDbArc
 50
78.85962783890537
 51
101.1403721610946
  0
ARC
  5
1663
330
1E
100
AcDbEntity
  8
HILF
100
AcDbCircle
 10
97.70821279411402
 20
470.6683470776142
 30
0.0
 40
5.761140599691502
100
AcDbArc
 50
67.92594526326206
 51
112.0740547367379
  0
ARC
  5
1664
330
1E
100
AcDbEntity
  8
HILF
100
AcDbCircle
 10
84.71783173734744
 20
470.6683470776142
 30
0.0
 40
5.761140599691502
100
AcDbArc
 50
67.92594526326206
 51
112.0740547367379
  0
POINT
  5
1665
330
1E
100
AcDbEntity
  8
0
100
AcDbPoint
 10
91.21302226573073
 20
473.9168332271439
 30
0.0
210
0.0000000000000001
220
1.0
230
0.0
  0
LINE
  5
1666
330
1E
100
AcDbEntity
  8
STEMPEL
100
AcDbLine
 10
83.71302226573076
 20
483.9168332271438
 30
0.0
 11
98.71302226573071
 21
483.9168332271438
 31
0.0
  0
LINE
  5
1667
330
1E
100
AcDbEntity
  8
STEMPEL
100
AcDbLine
 10
99.87327630357512
 20
476.0071897433436
 30
0.0
 11
99.87327630357512
 21
483.6059440946884
 31
0.0
  0
LINE
  5
1668
330
1E
100
AcDbEntity
  8
STEMPEL
100
AcDbLine
 10
95.54314928465293
 20
476.0071897433436
 30
0.0
 11
95.54314928465293
 21
483.6059440946884
 31
0.0
  0
LINE
  5
1669
330
1E
100
AcDbEntity
  8
STEMPEL
100
AcDbLine
 10
86.88289524680852
 20
476.0071897433436
 30
0.0
 11
86.88289524680852
 21
483.6059440946884
 31
0.0
  0
LINE
  5
166A
330
1E
100
AcDbEntity
  8
STEMPEL
100
AcDbLine
 10
101.6195373732249
 20
475.3716026927333
 30
0.0
 11
80.80650715823647
 21
475.3716026927333
 31
0.0
  0
LINE
  5
166B
330
1E
100
AcDbEntity
  8
STEMPEL
100
AcDbLine
 10
101.3630222657307
 20
473.9168332271439
 30
0.0
 11
81.06302226573072
 21
473.9168332271439
 31
0.0
  0
LINE
  5
166C
330
1E
100
AcDbEntity
  8
STEMPEL
100
AcDbLine
 10
82.55276822788635
 20
476.0071897433436
 30
0.0
 11
82.55276822788635
 21
483.6059440946884
 31
0.0
  0
LINE
  5
166D
330
1E
100
AcDbEntity
  8
STEMPEL
100
AcDbLine
 10
83.71302226573076
 20
483.9168332271438
 30
0.0
 11
82.55276822788635
 21
483.6059440946884
 31
0.0
  0
LINE
  5
166E
330
1E
100
AcDbEntity
  8
STEMPEL
100
AcDbLine
 10
99.87327630357512
 20
483.6059440946884
 30
0.0
 11
98.71302226573071
 21
483.9168332271438
 31
0.0
  0
LINE
  5
166F
330
1E
100
AcDbEntity
  8
STEMPEL
100
AcDbLine
 10
101.6195373732249
 20
475.3716026927333
 30
0.0
 11
99.87327630357512
 21
476.0071897433436
 31
0.0
  0
LINE
  5
1670
330
1E
100
AcDbEntity
  8
STEMPEL
100
AcDbLine
 10
82.55276822788635
 20
476.0071897433436
 30
0.0
 11
80.80650715823649
 21
475.3716026927333
 31
0.0
  0
ARC
  5
1671
330
1E
100
AcDbEntity
  8
STEMPEL
100
AcDbCircle
 10
81.06302226573072
 20
474.6668332271438
 30
0.0
 40
0.7500000000000013
100
AcDbArc
 50
109.9999999999995
 51
269.9999991462263
  0
ARC
  5
1672
330
1E
100
AcDbEntity
  8
STEMPEL
100
AcDbCircle
 10
101.3630222657307
 20
474.6668332271438
 30
0.0
 40
0.750000000000001
100
AcDbArc
 50
269.9999991462263
 51
70.00000000000047
  0
LINE
  5
17E8
330
1E
100
AcDbEntity
  8
TEXT
 62
     2
100
AcDbLine
 10
358.4387960307816
 20
586.4839587840927
 30
0.0
 11
334.7102692623561
 21
621.9543775210546
 31
0.0
  0
TEXT
  5
17E9
330
1E
100
AcDbEntity
  8
TEXT
 62
     1
100
AcDbText
 10
359.034151909536
 20
589.9677929450032
 30
0.0
 40
7.0
  1
Losflansch DN100
 41
0.8
100
AcDbText
  0
LINE
  5
17EA
330
1E
100
AcDbEntity
  8
TEXT
 62
     2
100
AcDbLine
 10
464.3773606059148
 20
586.4839587840927
 30
0.0
 11
358.4387960307816
 21
586.4839587840927
 31
0.0
  0
TEXT
  5
17EB
330
1E
100
AcDbEntity
  8
TEXT
 62
     1
100
AcDbText
 10
359.034151909536
 20
577.1914619762936
 30
0.0
 40
7.0
  1
EDV-Art.Nr. 21906.100X
 41
0.8
100
AcDbText
  0
ARC
  5
17EC
330
1E
100
AcDbEntity
  8
STEMPEL
100
AcDbCircle
 10
312.7241658700427
 20
717.4366702096058
 30
0.0
 40
5.0
100
AcDbArc
 50
239.7435628364698
 51
239.9329541615142
  0
ARC
  5
17ED
330
1E
100
AcDbEntity
  8
STEMPEL
100
AcDbCircle
 10
307.2130222657311
 20
707.9167752598285
 30
0.0
 40
6.0
100
AcDbArc
 50
0.0
 51
59.74358352518254
  0
ARC
  5
17EE
330
1E
100
AcDbEntity
  8
STEMPEL
100
AcDbCircle
 10
307.2130222657311
 20
707.9167752598285
 30
0.0
 40
5.0
100
AcDbArc
 50
0.0
 51
59.74358352518254
  0
LINE
  5
17EF
330
1E
100
AcDbEntity
  8
STEMPEL
100
AcDbLine
 10
310.245716887439
 20
713.0939137871873
 30
0.0
 11
286.2594140119721
 21
727.0859237978759
 31
0.0
  0
LINE
  5
17F0
330
1E
100
AcDbEntity
  8
STEMPEL
100
AcDbLine
 10
309.7323758338582
 20
712.2356706740247
 30
0.0
 11
285.753521940907
 21
726.2233238402102
 31
0.0
  0
ARC
  5
17F1
330
1E
100
AcDbEntity
  8
STEMPEL
100
AcDbCircle
 10
283.2130222657312
 20
721.9168332271435
 30
0.0
 40
6.0
100
AcDbArc
 50
90.0
 51
90.0
  0
ARC
  5
17F2
330
1E
100
AcDbEntity
  8
STEMPEL
100
AcDbCircle
 10
283.2130222657312
 20
721.9168332271435
 30
0.0
 40
6.0
100
AcDbArc
 50
59.48712567238029
 51
90.0
  0
ARC
  5
17F3
330
1E
100
AcDbEntity
  8
STEMPEL
100
AcDbCircle
 10
283.2130222657312
 20
721.9168332271435
 30
0.0
 40
5.0
100
AcDbArc
 50
59.46264995169952
 51
90.0
  0
ARC
  5
17F4
330
1E
100
AcDbEntity
  8
STEMPEL
100
AcDbCircle
 10
226.0544606494337
 20
727.9168332271435
 30
0.0
 40
1.5
100
AcDbArc
 50
29.99999999999246
 51
90.0
  0
ARC
  5
17F5
330
1E
100
AcDbEntity
  8
STEMPEL
100
AcDbCircle
 10
226.0544606494337
 20
727.9168332271435
 30
0.0
 40
0.5
100
AcDbArc
 50
29.99999999999246
 51
90.0
  0
LINE
  5
17F6
330
1E
100
AcDbEntity
  8
STEMPEL
100
AcDbLine
 10
225.8544606494337
 20
728.4168332271435
 30
0.0
 11
226.0544606494337
 21
728.4168332271435
 31
0.0
  0
ARC
  5
17F7
330
1E
100
AcDbEntity
  8
STEMPEL
100
AcDbCircle
 10
225.8544606494337
 20
727.9168332271435
 30
0.0
 40
0.5
100
AcDbArc
 50
90.0
 51
149.9999999999922
  0
ARC
  5
17F8
330
1E
100
AcDbEntity
  8
STEMPEL
100
AcDbCircle
 10
225.8544606494337
 20
727.9168332271435
 30
0.0
 40
1.5
100
AcDbArc
 50
90.0
 51
149.9999999999922
  0
ARC
  5
17F9
330
1E
100
AcDbEntity
  8
STEMPEL
100
AcDbCircle
 10
223.2563844380814
 20
729.4168332271436
 30
0.0
 40
2.5
100
AcDbArc
 50
270.0
 51
329.9999999999922
  0
ARC
  5
17FA
330
1E
100
AcDbEntity
  8
STEMPEL
100
AcDbCircle
 10
223.2563844380814
 20
729.4168332271436
 30
0.0
 40
1.5
100
AcDbArc
 50
270.0
 51
329.9999999999922
  0
ARC
  5
17FB
330
1E
100
AcDbEntity
  8
STEMPEL
100
AcDbCircle
 10
228.6525368607878
 20
729.4168332271436
 30
0.0
 40
1.5
100
AcDbArc
 50
209.9999999999925
 51
270.0
  0
ARC
  5
17FC
330
1E
100
AcDbEntity
  8
STEMPEL
100
AcDbCircle
 10
228.6525368607878
 20
729.4168332271436
 30
0.0
 40
2.5
100
AcDbArc
 50
209.9999999999925
 51
270.0
  0
ARC
  5
17FD
330
1E
100
AcDbEntity
  8
STEMPEL
100
AcDbCircle
 10
214.2044606494338
 20
727.9168332271435
 30
0.0
 40
0.5
100
AcDbArc
 50
29.99999999999328
 51
90.0
  0
LINE
  5
17FE
330
1E
100
AcDbEntity
  8
STEMPEL
100
AcDbLine
 10
214.0044606494338
 20
728.4168332271435
 30
0.0
 11
214.2044606494338
 21
728.4168332271435
 31
0.0
  0
ARC
  5
17FF
330
1E
100
AcDbEntity
  8
STEMPEL
100
AcDbCircle
 10
214.0044606494338
 20
727.9168332271435
 30
0.0
 40
0.5
100
AcDbArc
 50
90.0
 51
165.5224878140701
  0
LINE
  5
1800
330
1E
100
AcDbEntity
  8
STEMPEL
100
AcDbLine
 10
211.8792197837306
 20
727.9168332271435
 30
0.0
 11
212.0679689763298
 21
727.9168332271435
 31
0.0
  0
ARC
  5
1801
330
1E
100
AcDbEntity
  8
STEMPEL
100
AcDbCircle
 10
212.0679689763298
 20
728.4168332271435
 30
0.0
 40
0.5
100
AcDbArc
 50
270.0
 51
345.5224878140701
  0
ARC
  5
1802
330
1E
100
AcDbEntity
  8
STEMPEL
100
AcDbCircle
 10
214.0044606494338
 20
727.9168332271435
 30
0.0
 40
1.5
100
AcDbArc
 50
90.0
 51
165.5224878140701
  0
ARC
  5
1803
330
1E
100
AcDbEntity
  8
STEMPEL
100
AcDbCircle
 10
212.0679689763298
 20
728.4168332271435
 30
0.0
 40
1.5
100
AcDbArc
 50
270.0
 51
345.5224878140701
  0
ARC
  5
1804
330
1E
100
AcDbEntity
  8
STEMPEL
100
AcDbCircle
 10
216.8025368607873
 20
729.4168332271436
 30
0.0
 40
1.5
100
AcDbArc
 50
209.9999999999933
 51
270.0
  0
ARC
  5
1805
330
1E
100
AcDbEntity
  8
STEMPEL
100
AcDbCircle
 10
216.8025368607873
 20
729.4168332271436
 30
0.0
 40
2.5
100
AcDbArc
 50
209.9999999999933
 51
270.0
  0
ARC
  5
1806
330
1E
100
AcDbEntity
  8
STEMPEL
100
AcDbCircle
 10
214.2044606494338
 20
727.9168332271435
 30
0.0
 40
1.5
100
AcDbArc
 50
29.99999999999328
 51
90.0
  0
ARC
  5
1807
330
1E
100
AcDbEntity
  8
STEMPEL
100
AcDbCircle
 10
209.9427281106272
 20
727.9168332271435
 30
0.0
 40
0.5
100
AcDbArc
 50
14.47751218592986
 51
90.0
  0
ARC
  5
1808
330
1E
100
AcDbEntity
  8
STEMPEL
100
AcDbCircle
 10
209.9427281106272
 20
727.9168332271435
 30
0.0
 40
1.5
100
AcDbArc
 50
14.47751218592986
 51
90.0
  0
ARC
  5
1809
330
1E
100
AcDbEntity
  8
STEMPEL
100
AcDbCircle
 10
211.8792197837306
 20
728.4168332271435
 30
0.0
 40
0.5
100
AcDbArc
 50
194.4775121859299
 51
270.0
  0
ARC
  5
180A
330
1E
100
AcDbEntity
  8
STEMPEL
100
AcDbCircle
 10
211.8792197837306
 20
728.4168332271435
 30
0.0
 40
1.5
100
AcDbArc
 50
194.4775121859299
 51
270.0
  0
ARC
  5
180B
330
1E
100
AcDbEntity
  8
STEMPEL
100
AcDbCircle
 10
199.8544606494336
 20
727.9168332271435
 30
0.0
 40
0.5
100
AcDbArc
 50
90.0
 51
149.999999999993
  0
ARC
  5
180C
330
1E
100
AcDbEntity
  8
STEMPEL
100
AcDbCircle
 10
197.2563844380809
 20
729.4168332271436
 30
0.0
 40
1.5
100
AcDbArc
 50
270.0
 51
329.999999999993
  0
ARC
  5
180D
330
1E
100
AcDbEntity
  8
STEMPEL
100
AcDbCircle
 10
199.8544606494336
 20
727.9168332271435
 30
0.0
 40
1.5
100
AcDbArc
 50
90.0
 51
149.999999999993
  0
ARC
  5
180E
330
1E
100
AcDbEntity
  8
STEMPEL
100
AcDbCircle
 10
197.2563844380809
 20
729.4168332271436
 30
0.0
 40
2.5
100
AcDbArc
 50
270.0
 51
329.999999999993
  0
ARC
  5
180F
330
1E
100
AcDbEntity
  8
STEMPEL
100
AcDbCircle
 10
188.2044606494338
 20
727.9168332271435
 30
0.0
 40
1.5
100
AcDbArc
 50
30.00000000000055
 51
90.0
  0
ARC
  5
1810
330
1E
100
AcDbEntity
  8
STEMPEL
100
AcDbCircle
 10
188.2044606494338
 20
727.9168332271435
 30
0.0
 40
0.5
100
AcDbArc
 50
30.00000000000055
 51
90.0
  0
LINE
  5
1811
330
1E
100
AcDbEntity
  8
STEMPEL
100
AcDbLine
 10
188.0044606494337
 20
728.4168332271435
 30
0.0
 11
188.2044606494338
 21
728.4168332271435
 31
0.0
  0
ARC
  5
1812
330
1E
100
AcDbEntity
  8
STEMPEL
100
AcDbCircle
 10
188.0044606494337
 20
727.9168332271435
 30
0.0
 40
0.5
100
AcDbArc
 50
90.0
 51
150.0000000000067
  0
ARC
  5
1813
330
1E
100
AcDbEntity
  8
STEMPEL
100
AcDbCircle
 10
190.8025368607867
 20
729.4168332271436
 30
0.0
 40
1.5
100
AcDbArc
 50
210.0000000000005
 51
270.0
  0
ARC
  5
1814
330
1E
100
AcDbEntity
  8
STEMPEL
100
AcDbCircle
 10
190.8025368607867
 20
729.4168332271436
 30
0.0
 40
2.5
100
AcDbArc
 50
210.0000000000005
 51
270.0
  0
LINE
  5
1815
330
1E
100
AcDbEntity
  8
STEMPEL
100
AcDbLine
 10
190.8025368607867
 20
727.9168332271435
 30
0.0
 11
197.2563844380809
 21
727.9168332271435
 31
0.0
  0
LINE
  5
1816
330
1E
100
AcDbEntity
  8
STEMPEL
100
AcDbLine
 10
190.8025368607867
 20
727.9168332271435
 30
0.0
 11
197.2563844380809
 21
727.9168332271435
 31
0.0
  0
LINE
  5
1817
330
1E
100
AcDbEntity
  8
STEMPEL
100
AcDbLine
 10
199.8544606494336
 20
728.4168332271435
 30
0.0
 11
209.9427281106272
 21
728.4168332271435
 31
0.0
  0
LINE
  5
1818
330
1E
100
AcDbEntity
  8
STEMPEL
100
AcDbLine
 10
216.8025368607873
 20
727.9168332271435
 30
0.0
 11
223.2563844380814
 21
727.9168332271435
 31
0.0
  0
LINE
  5
1819
330
1E
100
AcDbEntity
  8
STEMPEL
100
AcDbLine
 10
216.8025368607873
 20
727.9168332271435
 30
0.0
 11
223.2563844380814
 21
727.9168332271435
 31
0.0
  0
LINE
  5
181A
330
1E
100
AcDbEntity
  8
STEMPEL
100
AcDbLine
 10
228.6525368607878
 20
727.9168332271435
 30
0.0
 11
283.2130222657312
 21
727.916833227144
 31
0.0
  0
LINE
  5
181B
330
1E
100
AcDbEntity
  8
STEMPEL
100
AcDbLine
 10
313.2130222657312
 20
707.9167752598285
 30
0.0
 11
313.2130222657312
 21
643.9168332271444
 31
0.0
  0
LINE
  5
181C
330
1E
100
AcDbEntity
  8
STEMPEL
100
AcDbLine
 10
312.2130222657311
 20
707.9167752598285
 30
0.0
 11
312.2130222657311
 21
643.9168332271444
 31
0.0
  0
LINE
  5
181D
330
1E
100
AcDbEntity
  8
STEMPEL
100
AcDbLine
 10
183.3475368607877
 20
727.9168332271435
 30
0.0
 11
185.40638443808
 21
727.9168332271435
 31
0.0
  0
LINE
  5
181E
330
1E
100
AcDbEntity
  8
STEMPEL
100
AcDbLine
 10
183.3475368607877
 20
727.9168332271435
 30
0.0
 11
185.40638443808
 21
727.9168332271435
 31
0.0
  0
ARC
  5
181F
330
1E
100
AcDbEntity
  8
STEMPEL
100
AcDbCircle
 10
180.5494606494338
 20
727.9168332271435
 30
0.0
 40
1.5
100
AcDbArc
 50
90.0
 51
150.0000000000067
  0
ARC
  5
1820
330
1E
100
AcDbEntity
  8
STEMPEL
100
AcDbCircle
 10
180.7494606494338
 20
727.9168332271435
 30
0.0
 40
1.5
100
AcDbArc
 50
29.99999999999246
 51
90.0
  0
ARC
  5
1821
330
1E
100
AcDbEntity
  8
STEMPEL
100
AcDbCircle
 10
180.7494606494338
 20
727.9168332271435
 30
0.0
 40
0.5
100
AcDbArc
 50
29.99999999999973
 51
90.0
  0
LINE
  5
1822
330
1E
100
AcDbEntity
  8
STEMPEL
100
AcDbLine
 10
180.5494606494338
 20
728.4168332271435
 30
0.0
 11
180.7494606494338
 21
728.4168332271435
 31
0.0
  0
ARC
  5
1823
330
1E
100
AcDbEntity
  8
STEMPEL
100
AcDbCircle
 10
180.5494606494338
 20
727.9168332271435
 30
0.0
 40
0.5
100
AcDbArc
 50
90.0
 51
149.9999999999994
  0
ARC
  5
1824
330
1E
100
AcDbEntity
  8
STEMPEL
100
AcDbCircle
 10
183.3475368607877
 20
729.4168332271436
 30
0.0
 40
1.5
100
AcDbArc
 50
209.9999999999933
 51
270.0
  0
ARC
  5
1825
330
1E
100
AcDbEntity
  8
STEMPEL
100
AcDbCircle
 10
183.3475368607877
 20
729.4168332271436
 30
0.0
 40
2.5
100
AcDbArc
 50
209.9999999999925
 51
270.0
  0
ARC
  5
1826
330
1E
100
AcDbEntity
  8
STEMPEL
100
AcDbCircle
 10
177.9513844380803
 20
729.4168332271436
 30
0.0
 40
1.5
100
AcDbArc
 50
270.0
 51
330.0000000000068
  0
ARC
  5
1827
330
1E
100
AcDbEntity
  8
STEMPEL
100
AcDbCircle
 10
177.9513844380803
 20
729.4168332271436
 30
0.0
 40
2.5
100
AcDbArc
 50
270.0
 51
330.0000000000003
  0
ARC
  5
1828
330
1E
100
AcDbEntity
  8
STEMPEL
100
AcDbCircle
 10
123.2130222657309
 20
721.9168332271435
 30
0.0
 40
6.0
100
AcDbArc
 50
90.0
 51
90.0
  0
LINE
  5
1829
330
1E
100
AcDbEntity
  8
STEMPEL
100
AcDbLine
 10
123.2130222657309
 20
727.9168332271431
 30
0.0
 11
177.9513844380803
 21
727.9168332271435
 31
0.0
  0
ARC
  5
182A
330
1E
100
AcDbEntity
  8
STEMPEL
100
AcDbCircle
 10
93.70187866141938
 20
717.4366702096058
 30
0.0
 40
5.0
100
AcDbArc
 50
300.0670458384858
 51
300.2564371635302
  0
ARC
  5
182B
330
1E
100
AcDbEntity
  8
STEMPEL
100
AcDbCircle
 10
99.21302226573104
 20
707.9167752598285
 30
0.0
 40
6.0
100
AcDbArc
 50
120.2564164748174
 51
180.0
  0
ARC
  5
182C
330
1E
100
AcDbEntity
  8
STEMPEL
100
AcDbCircle
 10
99.21302226573104
 20
707.9167752598285
 30
0.0
 40
5.0
100
AcDbArc
 50
120.2564164748174
 51
180.0
  0
LINE
  5
182D
330
1E
100
AcDbEntity
  8
STEMPEL
100
AcDbLine
 10
96.6936686976039
 20
712.2356706740247
 30
0.0
 11
120.672522590555
 21
726.2233238402102
 31
0.0
  0
LINE
  5
182E
330
1E
100
AcDbEntity
  8
STEMPEL
100
AcDbLine
 10
96.18032764402309
 20
713.0939137871873
 30
0.0
 11
120.16663051949
 21
727.0859237978759
 31
0.0
  0
ARC
  5
182F
330
1E
100
AcDbEntity
  8
STEMPEL
100
AcDbCircle
 10
123.2130222657309
 20
721.9168332271435
 30
0.0
 40
6.0
100
AcDbArc
 50
90.0
 51
120.5128743276197
  0
ARC
  5
1830
330
1E
100
AcDbEntity
  8
STEMPEL
100
AcDbCircle
 10
123.2130222657309
 20
721.9168332271435
 30
0.0
 40
5.0
100
AcDbArc
 50
90.0
 51
120.5373500483005
  0
LINE
  5
1831
330
1E
100
AcDbEntity
  8
STEMPEL
100
AcDbLine
 10
94.21302226573104
 20
707.9167752598285
 30
0.0
 11
94.21302226573104
 21
643.9168332271444
 31
0.0
  0
LINE
  5
1832
330
1E
100
AcDbEntity
  8
STEMPEL
100
AcDbLine
 10
93.21302226573093
 20
707.9167752598285
 30
0.0
 11
93.21302226573093
 21
643.9168332271444
 31
0.0
  0
HATCH
  5
1833
330
1E
100
AcDbEntity
  8
SCHRAFF
  6
Continuous
100
AcDbHatch
 10
0.0
 20
0.0
 30
0.0
210
0.0
220
0.0
230
1.0
  2
ANSI31
 70
     0
 71
     0
 91
        4
 92
        7
 72
     1
 73
     1
 93
       44
 10
94.21302226573102
 20
707.9167752598285
 42
-0.266750395150088
 10
96.69366869760388
 20
712.2356706740247
 42
0.0
 10
120.6725225905448
 20
726.2233238402041
 42
-0.134038508411906
 10
123.2130222657308
 20
726.9168332271431
 42
0.0
 10
177.9513844380803
 20
726.9168332271435
 42
0.2679491924311371
 10
180.1164479475414
 20
728.1668332271435
 42
-0.2679491924311204
 10
180.5494606494336
 20
728.4168332271435
 42
0.0
 10
180.7494606494338
 20
728.4168332271435
 42
-0.2679491924312574
 10
181.1824733513264
 20
728.1668332271437
 42
0.2679491924311556
 10
183.3475368607876
 20
726.9168332271435
 42
0.0
 10
185.40638443808
 20
726.9168332271435
 42
0.2679491924311518
 10
187.5714479475412
 20
728.1668332271435
 42
-0.2679491924310975
 10
188.0044606494334
 20
728.4168332271435
 42
0.0
 10
188.2044606494337
 20
728.4168332271435
 42
-0.2679491924309788
 10
188.6374733513257
 20
728.1668332271435
 42
0.2679491924311251
 10
190.8025368607867
 20
726.9168332271435
 42
0.0
 10
197.2563844380809
 20
726.9168332271435
 42
0.2679491924310973
 10
199.4214479475418
 20
728.1668332271433
 42
-0.2679491924312862
 10
199.8544606494342
 20
728.4168332271435
 42
0.0
 10
203.213022265731
 20
728.4168332271438
 42
0.0
 10
203.213022265731
 20
729.4168332271436
 42
0.0
 10
199.8544606494336
 20
729.4168332271436
 42
0.2679491924310756
 10
198.5554225437572
 20
728.6668332271435
 42
-0.2679491924311246
 10
197.2563844380806
 20
727.9168332271435
 42
0.0
 10
190.8025368607867
 20
727.9168332271435
 42
-0.2679491924310962
 10
189.5034987551102
 20
728.6668332271435
 42
0.2859076546238575
 10
188.1044606494335
 20
729.4134961818531
 42
0.2859076546238756
 10
186.7054225437568
 20
728.6668332271435
 42
-0.2679491924311237
 10
185.4063844380802
 20
727.9168332271435
 42
0.0
 10
183.3475368607876
 20
727.9168332271435
 42
-0.2679491924311723
 10
182.0484987551108
 20
728.6668332271435
 42
0.2859076546238861
 10
180.649460649434
 20
729.4134961818531
 42
0.2859076546239122
 10
179.250422543757
 20
728.6668332271435
 42
-0.2679491924311319
 10
177.9513844380804
 20
727.9168332271435
 42
0.0
 10
123.2130222657308
 20
727.9168332271431
 42
0.1316524975837886
 10
120.2130222658045
 20
727.1129856498926
 42
0.0
 10
96.18032764403361
 20
713.0939137871934
 42
0.2662608607109036
 10
93.2130222657309
 20
707.9167752598285
 42
0.0
 10
93.2130222657309
 20
643.9168332271444
 42
-0.4142135623730909
 10
88.213022265731
 20
638.9168332271444
 42
0.0
 10
73.21302226573078
 20
638.916833227144
 42
0.0
 10
73.21302226573067
 20
637.916833227144
 42
0.0
 10
88.213022265731
 20
637.916833227144
 42
0.4142135623730952
 10
94.21302226573102
 20
643.916833227144
 42
0.0
 97
        0
 92
        7
 72
     1
 73
     1
 93
       31
 10
263.35536661122
 20
727.916833227144
 42
0.0
 10
228.6525368607877
 20
727.9168332271435
 42
-0.2679491924311948
 10
227.3534987551107
 20
728.6668332271435
 42
0.2859076546239628
 10
225.9544606494335
 20
729.4134961818531
 42
0.2859076546237491
 10
224.5554225437575
 20
728.6668332271435
 42
-0.2679491924311143
 10
223.2563844380808
 20
727.9168332271435
 42
0.0
 10
216.8025368607873
 20
727.9168332271435
 42
-0.2679491924311449
 10
215.5034987551105
 20
728.6668332271435
 42
0.2859076546238161
 10
214.1044606494341
 20
729.4134961818533
 42
0.3607372083888945
 10
212.5520918946058
 20
728.2918332271435
 42
-0.3419987131196436
 10
212.0679689763299
 20
727.9168332271435
 42
0.0
 10
211.8792197837306
 20
727.9168332271435
 42
-0.3419987131195289
 10
211.3950968654549
 20
728.2918332271435
 42
0.3419987131196487
 10
209.9427281106271
 20
729.4168332271436
 42
0.0
 10
203.213022265731
 20
729.4168332271436
 42
0.0
 10
203.213022265731
 20
728.4168332271435
 42
0.0
 10
209.9427281106272
 20
728.4168332271435
 42
-0.3419987131195064
 10
210.4268510289029
 20
728.0418332271436
 42
0.3596757619904947
 10
211.9735943800301
 20
726.9198050258149
 42
0.3596757619905158
 10
213.5203377311576
 20
728.0418332271436
 42
-0.3419987131196715
 10
214.0044606494335
 20
728.4168332271435
 42
0.0
 10
214.2044606494338
 20
728.4168332271435
 42
-0.2679491924311643
 10
214.6374733513261
 20
728.1668332271435
 42
0.2679491924311343
 10
216.8025368607873
 20
726.9168332271435
 42
0.0
 10
223.2563844380813
 20
726.9168332271435
 42
0.2679491924310781
 10
225.4214479475421
 20
728.1668332271433
 42
-0.2679491924312612
 10
225.8544606494344
 20
728.4168332271435
 42
0.0
 10
226.0544606494337
 20
728.4168332271435
 42
-0.2679491924313018
 10
226.4874733513263
 20
728.1668332271437
 42
0.2679491924311476
 10
228.6525368607876
 20
726.9168332271435
 42
0.0
 10
263.8560699374139
 20
726.916833227144
 42
0.0
 97
        0
 92
        7
 72
     1
 73
     1
 93
       16
 10
283.2130222657312
 20
727.916833227144
 42
0.0
 10
263.3553666112201
 20
727.916833227144
 42
0.0
 10
263.8560699374139
 20
726.9168332271438
 42
0.0
 10
283.2130222657312
 20
726.916833227144
 42
-0.1340385084118612
 10
285.7535219409162
 20
726.2233238402047
 42
0.0
 10
309.7323758338582
 20
712.2356706740247
 42
-0.2667503951500871
 10
312.2130222657311
 20
707.9167752598285
 42
0.0
 10
312.2130222657311
 20
643.9168332271444
 42
0.4142135623731166
 10
318.2130222657311
 20
637.916833227144
 42
0.0
 10
321.213022265731
 20
637.916833227144
 42
0.0
 10
321.213022265731
 20
638.9168332271442
 42
0.0
 10
318.2130222657308
 20
638.9168332271444
 42
-0.4142135623730784
 10
313.2130222657312
 20
643.9168332271444
 42
0.0
 10
313.2130222657312
 20
707.9167752598285
 42
0.2662608607107455
 10
310.2457168874315
 20
713.0939137871917
 42
0.0
 10
286.2130222656544
 20
727.1129856498944
 42
0.131652497583648
 97
        0
 92
        7
 72
     0
 73
     1
 93
        4
 10
333.213022265731
 20
638.916833227144
 10
329.213022265731
 20
638.916833227144
 10
329.213022265731
 20
637.916833227144
 10
333.213022265731
 20
637.916833227144
 97
        0
 75
     0
 76
     1
 52
0.0
 41
20.0
 77
     0
 78
     1
 53
45.0
 43
-35.23044928894416
 44
221.0904828786304
 45
-1.767766952966368
 46
1.767766952966368
 79
     0
 47
0.4197568243763778
 98
        4
 10
93.90842927233023
 20
676.9923211071118
 10
248.0758329901544
 20
727.3631412814511
 10
280.4215811483175
 20
727.3631412814511
 10
330.4104674942575
 20
638.3746929521914
  0
LINE
  5
1834
330
1E
100
AcDbEntity
  8
STEMPEL
100
AcDbLine
 10
180.5494606494338
 20
729.4168332271436
 30
0.0
 11
226.0544606494337
 21
729.4168332271436
 31
0.0
  0
LINE
  5
1835
330
1E
100
AcDbEntity
  8
STEMPEL
100
AcDbLine
 10
123.2130222657309
 20
726.9168332271431
 30
0.0
 11
283.2130222657312
 21
726.916833227144
 31
0.0
  0
LINE
  5
1836
330
1E
100
AcDbEntity
  8
HILF
100
AcDbLine
 10
305.5393553232616
 20
710.9168332271467
 30
0.0
 11
100.3866892082001
 21
710.9168332271465
 31
0.0
  0
ARC
  5
1837
330
1E
100
AcDbEntity
  8
STEMPEL
100
AcDbCircle
 10
188.0044606494337
 20
727.9168332271435
 30
0.0
 40
1.5
100
AcDbArc
 50
90.0
 51
150.0000000000067
  0
ARC
  5
1838
330
1E
100
AcDbEntity
  8
STEMPEL
100
AcDbCircle
 10
185.40638443808
 20
729.4168332271436
 30
0.0
 40
2.5
100
AcDbArc
 50
270.0
 51
330.0000000000068
  0
ARC
  5
1839
330
1E
100
AcDbEntity
  8
STEMPEL
100
AcDbCircle
 10
185.40638443808
 20
729.4168332271436
 30
0.0
 40
1.5
100
AcDbArc
 50
270.0
 51
330.0000000000068
  0
DIMENSION
  5
183A
330
1E
100
AcDbEntity
  8
BEM
100
AcDbDimension
  2
*D6
 10
353.2130222657312
 20
749.926734226856
 30
0.0
 11
203.2130222657312
 21
756.4267342268561
 31
0.0
 70
    32
  1
%%c<>
 71
     5
 42
300.0
  3
Standard
100
AcDbAlignedDimension
 13
53.21302226573116
 23
607.0310467895181
 33
0.0
 14
353.2130222657312
 24
607.0310467895181
 34
0.0
100
AcDbRotatedDimension
1001
ACAD
1000
DSTYLE
1002
{
1070
    40
1040
2.0
1070
    41
1040
3.5
1070
    42
1040
1.0
1070
    43
1040
7.0
1070
    44
1040
1.0
1070
    73
1070
     0
1070
    74
1070
     0
1070
    77
1070
     1
1070
    78
1070
     8
1070
    79
1070
     2
1070
   140
1040
3.5
1070
   141
1040
1.5
1070
   146
1040
0.5142857142857144
1070
   147
1040
1.5
1070
   172
1070
     1
1070
   178
1070
     1
1070
   179
1070
     2
1070
   271
1070
     2
1070
   272
1070
     2
1070
   284
1070
     8
1070
   285
1070
     8
1070
   286
1070
     8
1002
}
  0
DIMENSION
  5
183B
330
1E
100
AcDbEntity
  8
BEM
100
AcDbDimension
  2
*D7
 10
22.33502070419047
 20
727.9168332271431
 30
0.0
 11
15.83502070419035
 21
672.9168332271435
 31
0.0
 70
    32
 71
     5
 42
109.9999999999992
  3
Standard
100
AcDbAlignedDimension
 13
53.21302226573118
 23
617.9168332271439
 33
0.0
 14
123.2130222657312
 24
727.9168332271431
 34
0.0
 50
90.0
100
AcDbRotatedDimension
1001
ACAD
1000
DSTYLE
1002
{
1070
    40
1040
2.0
1070
    41
1040
3.5
1070
    42
1040
1.0
1070
    43
1040
7.0
1070
    44
1040
1.0
1070
    73
1070
     0
1070
    74
1070
     0
1070
    77
1070
     1
1070
    78
1070
     8
1070
    79
1070
     2
1070
   140
1040
3.5
1070
   141
1040
1.5
1070
   146
1040
0.5142857142857144
1070
   147
1040
1.5
1070
   172
1070
     1
1070
   178
1070
     1
1070
   179
1070
     2
1070
   271
1070
     2
1070
   272
1070
     2
1070
   284
1070
     8
1070
   285
1070
     8
1070
   286
1070
     8
1002
}
  0
DIMENSION
  5
183C
330
1E
100
AcDbEntity
  8
BEM
100
AcDbDimension
  2
*D8
 10
313.2130222657314
 20
737.2560503739343
 30
0.0
 11
203.2130222657313
 21
743.7560503739343
 31
0.0
 70
    32
  1
%%c<>
 71
     5
 42
220.0000000000002
  3
Standard
100
AcDbAlignedDimension
 13
93.21302226573118
 23
707.9167752598285
 33
0.0
 14
313.2130222657314
 24
707.9167752598285
 34
0.0
100
AcDbRotatedDimension
1001
ACAD
1000
DSTYLE
1002
{
1070
    40
1040
2.0
1070
    41
1040
3.5
1070
    42
1040
1.0
1070
    43
1040
7.0
1070
    44
1040
1.0
1070
    73
1070
     0
1070
    74
1070
     0
1070
    77
1070
     1
1070
    78
1070
     8
1070
    79
1070
     2
1070
   140
1040
3.5
1070
   141
1040
1.5
1070
   146
1040
0.5142857142857144
1070
   147
1040
1.5
1070
   172
1070
     1
1070
   178
1070
     1
1070
   179
1070
     2
1070
   271
1070
     2
1070
   272
1070
     2
1070
   284
1070
     8
1070
   285
1070
     8
1070
   286
1070
     8
1002
}
  0
LINE
  5
183D
330
1E
100
AcDbEntity
  8
TEXT
 62
     2
100
AcDbLine
 10
256.3396961803198
 20
727.5374077268771
 30
0.0
 11
258.2888673076444
 21
734.7651059185495
 31
0.0
  0
LINE
  5
183E
330
1E
100
AcDbEntity
  8
TEXT
 62
     2
100
AcDbLine
 10
259.6799218226382
 20
739.9232585617907
 30
0.0
 11
261.9709096375621
 21
748.4184431327824
 31
0.0
  0
LINE
  5
183F
330
1E
100
AcDbEntity
  8
TEXT
 62
     2
100
AcDbLine
 10
263.2538240398357
 20
753.1756027148203
 30
0.0
 11
277.6391759760842
 21
806.5177545241942
 31
0.0
  0
TEXT
  5
1840
330
1E
100
AcDbEntity
  8
TEXT
 62
     1
100
AcDbText
 10
278.9905451242604
 20
809.6804161548257
 30
0.0
 40
7.0
  1
Drainjethaube
 41
0.8
  7
GREEKS
100
AcDbText
  0
LINE
  5
1841
330
1E
100
AcDbEntity
  8
TEXT
 62
     2
100
AcDbLine
 10
277.6391759760842
 20
806.5177545241942
 30
0.0
 11
385.942780700596
 21
806.5177545241942
 31
0.0
  0
TEXT
  5
1842
330
1E
100
AcDbEntity
  8
TEXT
 62
     1
100
AcDbText
 10
278.9905451242604
 20
796.0040756370903
 30
0.0
 40
7.0
  1
EDV-Art.Nr. 21009.000X
 41
0.8
  7
GREEKS
100
AcDbText
  0
ARC
  5
1844
330
1E
100
AcDbEntity
  8
STEMPEL
100
AcDbCircle
 10
296.5375299069951
 20
624.6668332271442
 30
0.0
 40
0.7500000000000013
100
AcDbArc
 50
110.0000000000006
 51
269.9999991462263
  0
LINE
  5
1845
330
1E
100
AcDbEntity
  8
STEMPEL
100
AcDbLine
 10
298.0272758691508
 20
626.007189743344
 30
0.0
 11
296.2810147995008
 21
625.3716026927336
 31
0.0
  0
LINE
  5
1846
330
1E
100
AcDbEntity
  8
STEMPEL
100
AcDbLine
 10
316.3376898484039
 20
625.6468934597221
 30
0.0
 11
315.3477839448395
 21
626.007189743344
 31
0.0
  0
LINE
  5
1847
330
1E
100
AcDbEntity
  8
STEMPEL
100
AcDbLine
 10
315.3477839448395
 20
633.6059440946887
 30
0.0
 11
314.1875299069951
 21
633.9168332271442
 31
0.0
  0
LINE
  5
1848
330
1E
100
AcDbEntity
  8
STEMPEL
100
AcDbLine
 10
299.1875299069951
 20
633.9168332271442
 30
0.0
 11
298.0272758691508
 21
633.6059440946887
 31
0.0
  0
LINE
  5
1849
330
1E
100
AcDbEntity
  8
STEMPEL
100
AcDbLine
 10
298.0272758691508
 20
626.007189743344
 30
0.0
 11
298.0272758691508
 21
633.6059440946887
 31
0.0
  0
LINE
  5
184A
330
1E
100
AcDbEntity
  8
STEMPEL
100
AcDbLine
 10
316.0809756511994
 20
625.3716026927336
 30
0.0
 11
296.2810147995008
 21
625.3716026927336
 31
0.0
  0
LINE
  5
184B
330
1E
100
AcDbEntity
  8
STEMPEL
100
AcDbLine
 10
302.3574028880729
 20
626.007189743344
 30
0.0
 11
302.3574028880729
 21
633.6059440946887
 31
0.0
  0
LINE
  5
184C
330
1E
100
AcDbEntity
  8
STEMPEL
100
AcDbLine
 10
311.0176569259173
 20
626.007189743344
 30
0.0
 11
311.0176569259173
 21
633.6059440946887
 31
0.0
  0
LINE
  5
184D
330
1E
100
AcDbEntity
  8
STEMPEL
100
AcDbLine
 10
315.3477839448395
 20
626.007189743344
 30
0.0
 11
315.3477839448395
 21
633.6059440946887
 31
0.0
  0
LINE
  5
184E
330
1E
100
AcDbEntity
  8
STEMPEL
100
AcDbLine
 10
299.1875299069951
 20
633.9168332271442
 30
0.0
 11
314.1875299069951
 21
633.9168332271442
 31
0.0
  0
POINT
  5
184F
330
1E
100
AcDbEntity
  8
0
100
AcDbPoint
 10
306.6875299069951
 20
623.9168332271442
 30
0.0
210
0.0000000000000001
220
1.0
230
0.0
  0
ARC
  5
1850
330
1E
100
AcDbEntity
  8
HILF
100
AcDbCircle
 10
300.1923393786118
 20
620.6683470776145
 30
0.0
 40
5.761140599691502
100
AcDbArc
 50
67.92594526326054
 51
112.0740547367394
  0
ARC
  5
1851
330
1E
100
AcDbEntity
  8
HILF
100
AcDbCircle
 10
313.1827204353784
 20
620.6683470776145
 30
0.0
 40
5.761140599691502
100
AcDbArc
 50
67.92594526326054
 51
112.0740547367394
  0
ARC
  5
1852
330
1E
100
AcDbEntity
  8
HILF
100
AcDbCircle
 10
306.6875299069951
 20
604.0183721794829
 30
0.0
 40
22.41111549782308
100
AcDbArc
 50
78.85962783890391
 51
101.1403721610961
  0
ARC
  5
1853
330
1E
100
AcDbEntity
  8
STEMPEL
100
AcDbCircle
 10
313.1827204353784
 20
626.2225275193598
 30
0.0
 40
7.694305707784447
100
AcDbArc
 50
73.65710669401345
 51
106.3428933059834
  0
ARC
  5
1854
330
1E
100
AcDbEntity
  8
STEMPEL
100
AcDbCircle
 10
300.1923393786118
 20
626.2225275193598
 30
0.0
 40
7.694305707784447
100
AcDbArc
 50
73.65710669401345
 51
106.3428933059834
  0
ARC
  5
1855
330
1E
100
AcDbEntity
  8
STEMPEL
100
AcDbCircle
 10
306.6875299069951
 20
603.6059440946893
 30
0.0
 40
30.31088913245485
100
AcDbArc
 50
81.78678929826011
 51
98.21321070173988
  0
ARC
  5
1856
330
1E
100
AcDbEntity
  8
STEMPEL
100
AcDbCircle
 10
101.3630222657309
 20
624.666833227144
 30
0.0
 40
0.750000000000001
100
AcDbArc
 50
269.9999991462263
 51
69.99999999999935
  0
ARC
  5
1857
330
1E
100
AcDbEntity
  8
STEMPEL
100
AcDbCircle
 10
81.06302226573092
 20
624.666833227144
 30
0.0
 40
0.7500000000000013
100
AcDbArc
 50
110.0000000000006
 51
269.9999991462263
  0
LINE
  5
1858
330
1E
100
AcDbEntity
  8
STEMPEL
100
AcDbLine
 10
82.55276822788655
 20
626.0071897433438
 30
0.0
 11
80.80650715823669
 21
625.3716026927333
 31
0.0
  0
LINE
  5
1859
330
1E
100
AcDbEntity
  8
STEMPEL
100
AcDbLine
 10
101.6195373732251
 20
625.3716026927333
 30
0.0
 11
99.87327630357533
 21
626.0071897433438
 31
0.0
  0
LINE
  5
185A
330
1E
100
AcDbEntity
  8
STEMPEL
100
AcDbLine
 10
99.87327630357533
 20
633.6059440946885
 30
0.0
 11
98.7130222657309
 21
633.916833227144
 31
0.0
  0
LINE
  5
185B
330
1E
100
AcDbEntity
  8
STEMPEL
100
AcDbLine
 10
83.71302226573096
 20
633.916833227144
 30
0.0
 11
82.55276822788655
 21
633.6059440946885
 31
0.0
  0
LINE
  5
185C
330
1E
100
AcDbEntity
  8
STEMPEL
100
AcDbLine
 10
82.55276822788655
 20
626.0071897433438
 30
0.0
 11
82.55276822788655
 21
633.6059440946885
 31
0.0
  0
LINE
  5
185D
330
1E
100
AcDbEntity
  8
STEMPEL
100
AcDbLine
 10
101.3630222657309
 20
623.9168332271439
 30
0.0
 11
81.06302226573092
 21
623.9168332271439
 31
0.0
  0
LINE
  5
185E
330
1E
100
AcDbEntity
  8
STEMPEL
100
AcDbLine
 10
101.6195373732251
 20
625.3716026927333
 30
0.0
 11
80.80650715823667
 21
625.3716026927333
 31
0.0
  0
LINE
  5
185F
330
1E
100
AcDbEntity
  8
STEMPEL
100
AcDbLine
 10
86.88289524680874
 20
626.0071897433438
 30
0.0
 11
86.88289524680874
 21
633.6059440946885
 31
0.0
  0
LINE
  5
1860
330
1E
100
AcDbEntity
  8
STEMPEL
100
AcDbLine
 10
95.54314928465311
 20
626.0071897433438
 30
0.0
 11
95.54314928465311
 21
633.6059440946885
 31
0.0
  0
LINE
  5
1861
330
1E
100
AcDbEntity
  8
STEMPEL
100
AcDbLine
 10
99.87327630357533
 20
626.0071897433438
 30
0.0
 11
99.87327630357533
 21
633.6059440946885
 31
0.0
  0
LINE
  5
1862
330
1E
100
AcDbEntity
  8
STEMPEL
100
AcDbLine
 10
83.71302226573096
 20
633.916833227144
 30
0.0
 11
98.7130222657309
 21
633.916833227144
 31
0.0
  0
POINT
  5
1863
330
1E
100
AcDbEntity
  8
0
100
AcDbPoint
 10
91.21302226573092
 20
623.9168332271439
 30
0.0
210
0.0000000000000001
220
1.0
230
0.0
  0
ARC
  5
1864
330
1E
100
AcDbEntity
  8
HILF
100
AcDbCircle
 10
84.71783173734763
 20
620.6683470776142
 30
0.0
 40
5.761140599691502
100
AcDbArc
 50
67.92594526326206
 51
112.0740547367379
  0
ARC
  5
1865
330
1E
100
AcDbEntity
  8
HILF
100
AcDbCircle
 10
97.70821279411421
 20
620.6683470776142
 30
0.0
 40
5.761140599691502
100
AcDbArc
 50
67.92594526326206
 51
112.0740547367379
  0
ARC
  5
1866
330
1E
100
AcDbEntity
  8
HILF
100
AcDbCircle
 10
91.21302226573092
 20
604.0183721794827
 30
0.0
 40
22.41111549782308
100
AcDbArc
 50
78.85962783890552
 51
101.1403721610945
  0
ARC
  5
1867
330
1E
100
AcDbEntity
  8
STEMPEL
100
AcDbCircle
 10
97.70821279411421
 20
626.2225275193595
 30
0.0
 40
7.694305707784447
100
AcDbArc
 50
73.65710669401501
 51
106.342893305985
  0
ARC
  5
1868
330
1E
100
AcDbEntity
  8
STEMPEL
100
AcDbCircle
 10
84.71783173734763
 20
626.2225275193595
 30
0.0
 40
7.694305707784447
100
AcDbArc
 50
73.65710669401501
 51
106.342893305985
  0
ARC
  5
1869
330
1E
100
AcDbEntity
  8
STEMPEL
100
AcDbCircle
 10
91.21302226573092
 20
603.6059440946891
 30
0.0
 40
30.31088913245485
100
AcDbArc
 50
81.78678929826174
 51
98.21321070173826
  0
DIMENSION
  5
186A
330
1E
100
AcDbEntity
  8
BEM
100
AcDbDimension
  2
*D9
 10
38.60411307088453
 20
617.916833227144
 30
0.0
 11
32.10411307088443
 21
645.416833227144
 31
0.0
 70
    32
 71
     5
 42
55.0
  3
Standard
100
AcDbAlignedDimension
 13
120.2752243310883
 23
672.916833227144
 33
0.0
 14
53.21302226573092
 24
617.916833227144
 34
0.0
 50
90.0
100
AcDbRotatedDimension
1001
ACAD
1000
DSTYLE
1002
{
1070
    40
1040
2.0
1070
    41
1040
3.5
1070
    42
1040
1.0
1070
    43
1040
7.0
1070
    44
1040
1.0
1070
    73
1070
     0
1070
    74
1070
     0
1070
    77
1070
     1
1070
    78
1070
     8
1070
    79
1070
     2
1070
   140
1040
3.5
1070
   141
1040
1.5
1070
   146
1040
0.5142857142857144
1070
   147
1040
1.5
1070
   172
1070
     1
1070
   178
1070
     1
1070
   179
1070
     2
1070
   271
1070
     2
1070
   272
1070
     2
1070
   284
1070
     8
1070
   285
1070
     8
1070
   286
1070
     8
1002
}
  0
LINE
  5
186C
330
1E
100
AcDbEntity
  8
STEMPEL
100
AcDbLine
 10
330.7340267750295
 20
644.1345860163412
 30
0.0
 11
330.5272686432371
 21
644.2539578793887
 31
0.0
  0
LINE
  5
186D
330
1E
100
AcDbEntity
  8
STEMPEL
100
AcDbLine
 10
330.7340267750295
 20
644.1345860163412
 30
0.0
 11
330.7340267750295
 21
640.5168332271443
 31
0.0
  0
LINE
  5
186E
330
1E
100
AcDbEntity
  8
STEMPEL
100
AcDbLine
 10
329.3498164223455
 20
644.5845765615443
 30
0.0
 11
329.3533718553416
 21
644.5845765615443
 31
0.0
  0
LINE
  5
186F
330
1E
100
AcDbEntity
  8
STEMPEL
100
AcDbLine
 10
327.9735245203803
 20
644.1109256442168
 30
0.0
 11
327.97352452038
 21
640.5168332271443
 31
0.0
  0
ARC
  5
1870
330
1E
100
AcDbEntity
  8
STEMPEL
100
AcDbCircle
 10
329.3537756477048
 20
642.3366782412651
 30
0.0
 40
2.247898356545996
100
AcDbArc
 50
58.53080548383258
 51
127.8806357171802
  0
LINE
  5
1871
330
1E
100
AcDbEntity
  8
STEMPEL
100
AcDbLine
 10
322.4525200110814
 20
644.1109256442168
 30
0.0
 11
322.4525200110814
 21
640.5168332271443
 31
0.0
  0
LINE
  5
1872
330
1E
100
AcDbEntity
  8
STEMPEL
100
AcDbLine
 10
319.6920177564322
 20
644.1345860163412
 30
0.0
 11
319.8987758882176
 21
644.2539578793846
 31
0.0
  0
LINE
  5
1873
330
1E
100
AcDbEntity
  8
STEMPEL
100
AcDbLine
 10
319.6920177564322
 20
644.1345860163412
 30
0.0
 11
319.6920177564322
 21
640.5168332271443
 31
0.0
  0
ARC
  5
1874
330
1E
100
AcDbEntity
  8
STEMPEL
100
AcDbCircle
 10
321.0722688837567
 20
642.3366782412651
 30
0.0
 40
2.247898356545996
100
AcDbArc
 50
52.11936428281976
 51
121.4691945163663
  0
LINE
  5
1875
330
1E
100
AcDbEntity
  8
STEMPEL
100
AcDbLine
 10
321.0726726761048
 20
644.5845765615443
 30
0.0
 11
329.3533718548476
 21
644.5845765615443
 31
0.0
  0
LINE
  5
1876
330
1E
100
AcDbEntity
  8
STEMPEL
100
AcDbLine
 10
319.2130222657307
 20
640.5168332271443
 30
0.0
 11
331.2130222657307
 21
640.5168332271442
 31
0.0
  0
ARC
  5
1877
330
1E
100
AcDbEntity
  8
STEMPEL
100
AcDbCircle
 10
325.2130222657307
 20
636.3034589679443
 30
0.0
 40
8.281117593600001
100
AcDbArc
 50
70.52782738138933
 51
109.4721726186137
  0
ARC
  5
1878
330
1E
100
AcDbEntity
  8
STEMPEL
100
AcDbCircle
 10
345.213022265731
 20
620.916833227144
 30
0.0
 40
3.000000000000028
100
AcDbArc
 50
270.0
 51
90.0
  0
LINE
  5
1879
330
1E
100
AcDbEntity
  8
STEMPEL
100
AcDbLine
 10
337.8708794903043
 20
623.9168332271439
 30
0.0
 11
345.213022265731
 21
623.9168332271439
 31
0.0
  0
LINE
  5
187A
330
1E
100
AcDbEntity
  8
STEMPEL
100
AcDbLine
 10
333.2130222657308
 20
638.9168332271442
 30
0.0
 11
333.213022265731
 21
637.916833227144
 31
0.0
  0
LINE
  5
187B
330
1E
100
AcDbEntity
  8
STEMPEL
100
AcDbLine
 10
332.7130222657308
 20
637.9168332271441
 30
0.0
 11
332.8716410145224
 21
628.8295711949575
 31
0.0
  0
LINE
  5
187C
102
{ACAD_REACTORS
330
189F
102
}
330
1E
100
AcDbEntity
  8
STEMPEL
100
AcDbLine
 10
328.2130222657307
 20
638.9168332271442
 30
0.0
 11
328.2130222657311
 21
630.5168332271444
 31
0.0
  0
LINE
  5
187D
330
1E
100
AcDbEntity
  8
HILF
100
AcDbLine
 10
327.5630222657305
 20
629.8668332271443
 30
0.0
 11
327.5630222657302
 21
638.916833227144
 31
0.0
  0
LINE
  5
187E
102
{ACAD_REACTORS
330
189F
102
}
330
1E
100
AcDbEntity
  8
STEMPEL
100
AcDbLine
 10
327.563022265731
 20
629.8668332271443
 30
0.0
 11
328.2130222657311
 21
630.5168332271444
 31
0.0
  0
LINE
  5
187F
330
1E
100
AcDbEntity
  8
STEMPEL
100
AcDbLine
 10
329.213022265731
 20
638.916833227144
 30
0.0
 11
329.213022265731
 21
637.916833227144
 31
0.0
  0
LINE
  5
1880
102
{ACAD_REACTORS
330
189F
102
}
330
1E
100
AcDbEntity
  8
STEMPEL
100
AcDbLine
 10
328.713022265731
 20
631.9168332271445
 30
0.0
 11
328.713022265731
 21
634.9168332271446
 31
0.0
  0
LINE
  5
1881
102
{ACAD_REACTORS
330
189F
102
}
330
1E
100
AcDbEntity
  8
STEMPEL
100
AcDbLine
 10
329.2130222657308
 20
631.9168332271445
 30
0.0
 11
328.713022265731
 21
631.9168332271445
 31
0.0
  0
LINE
  5
1882
102
{ACAD_REACTORS
330
189F
102
}
330
1E
100
AcDbEntity
  8
STEMPEL
100
AcDbLine
 10
329.2130222657308
 20
634.9168332271444
 30
0.0
 11
328.713022265731
 21
634.9168332271444
 31
0.0
  0
LINE
  5
1883
102
{ACAD_REACTORS
330
189F
102
}
330
1E
100
AcDbEntity
  8
STEMPEL
100
AcDbLine
 10
329.2130222657307
 20
634.9168332271444
 30
0.0
 11
329.2130222657308
 21
637.9168332271444
 31
0.0
  0
LINE
  5
1884
102
{ACAD_REACTORS
330
189F
102
}
330
1E
100
AcDbEntity
  8
STEMPEL
100
AcDbLine
 10
328.2130222657307
 20
637.9168332271441
 30
0.0
 11
333.2130222657311
 21
637.916833227144
 31
0.0
  0
LINE
  5
1885
102
{ACAD_REACTORS
330
189F
102
}
330
1E
100
AcDbEntity
  8
STEMPEL
100
AcDbLine
 10
328.713022265731
 20
620.9168332271445
 30
0.0
 11
328.713022265731
 21
623.9168332271447
 31
0.0
  0
LINE
  5
1886
102
{ACAD_REACTORS
330
189F
102
}
330
1E
100
AcDbEntity
  8
STEMPEL
100
AcDbLine
 10
329.213022265731
 20
620.9168332271445
 30
0.0
 11
328.7130222657308
 21
620.9168332271445
 31
0.0
  0
LINE
  5
1887
102
{ACAD_REACTORS
330
189F
102
}
330
1E
100
AcDbEntity
  8
STEMPEL
100
AcDbLine
 10
329.213022265731
 20
617.9168332271445
 30
0.0
 11
329.213022265731
 21
620.9168332271445
 31
0.0
  0
LINE
  5
1888
102
{ACAD_REACTORS
330
189F
102
}
330
1E
100
AcDbEntity
  8
STEMPEL
100
AcDbLine
 10
329.213022265731
 20
623.9168332271447
 30
0.0
 11
328.713022265731
 21
623.9168332271446
 31
0.0
  0
LINE
  5
1889
102
{ACAD_REACTORS
330
189F
102
}
330
1E
100
AcDbEntity
  8
HILF
100
AcDbLine
 10
328.2130222657309
 20
617.9168332271443
 30
0.0
 11
328.2130222657309
 21
630.5168332271444
 31
0.0
  0
LINE
  5
188A
102
{ACAD_REACTORS
330
189F
102
}
330
1E
100
AcDbEntity
  8
STEMPEL
100
AcDbLine
 10
327.2130222657308
 20
617.9168332271443
 30
0.0
 11
327.2130222657308
 21
629.8668332271443
 31
0.0
  0
LINE
  5
188B
102
{ACAD_REACTORS
330
189F
102
}
330
1E
100
AcDbEntity
  8
STEMPEL
100
AcDbLine
 10
329.213022265731
 20
623.9168332271446
 30
0.0
 11
329.2130222657307
 21
631.9168332271445
 31
0.0
  0
LINE
  5
188C
102
{ACAD_REACTORS
330
189F
102
}
330
1E
100
AcDbEntity
  8
STEMPEL
100
AcDbLine
 10
322.2130222657311
 20
630.5168332271444
 30
0.0
 11
322.8630222657307
 21
629.8668332271443
 31
0.0
  0
LINE
  5
188D
102
{ACAD_REACTORS
330
189F
102
}
330
1E
100
AcDbEntity
  8
STEMPEL
100
AcDbLine
 10
322.2130222657307
 20
638.9168332271442
 30
0.0
 11
322.2130222657311
 21
630.5168332271444
 31
0.0
  0
LINE
  5
188E
330
1E
100
AcDbEntity
  8
HILF
100
AcDbLine
 10
322.8630222657303
 20
629.8668332271443
 30
0.0
 11
322.86302226573
 21
638.9168332271442
 31
0.0
  0
LINE
  5
188F
330
1E
100
AcDbEntity
  8
STEMPEL
100
AcDbLine
 10
321.213022265731
 20
638.9168332271444
 30
0.0
 11
321.213022265731
 21
637.916833227144
 31
0.0
  0
LINE
  5
1890
102
{ACAD_REACTORS
330
189F
102
}
330
1E
100
AcDbEntity
  8
STEMPEL
100
AcDbLine
 10
321.7130222657309
 20
631.9168332271445
 30
0.0
 11
321.7130222657309
 21
634.9168332271446
 31
0.0
  0
LINE
  5
1891
102
{ACAD_REACTORS
330
189F
102
}
330
1E
100
AcDbEntity
  8
STEMPEL
100
AcDbLine
 10
321.7130222657309
 20
631.9168332271445
 30
0.0
 11
321.2130222657308
 21
631.9168332271445
 31
0.0
  0
LINE
  5
1892
102
{ACAD_REACTORS
330
189F
102
}
330
1E
100
AcDbEntity
  8
STEMPEL
100
AcDbLine
 10
321.7130222657309
 20
634.9168332271444
 30
0.0
 11
321.2130222657308
 21
634.9168332271444
 31
0.0
  0
LINE
  5
1893
102
{ACAD_REACTORS
330
189F
102
}
330
1E
100
AcDbEntity
  8
STEMPEL
100
AcDbLine
 10
321.2130222657307
 20
634.9168332271443
 30
0.0
 11
321.2130222657308
 21
637.9168332271444
 31
0.0
  0
LINE
  5
1894
102
{ACAD_REACTORS
330
189F
102
}
330
1E
100
AcDbEntity
  8
STEMPEL
100
AcDbLine
 10
321.7130222657309
 20
620.9168332271445
 30
0.0
 11
321.7130222657309
 21
623.9168332271445
 31
0.0
  0
LINE
  5
1895
102
{ACAD_REACTORS
330
189F
102
}
330
1E
100
AcDbEntity
  8
STEMPEL
100
AcDbLine
 10
321.7130222657309
 20
620.9168332271445
 30
0.0
 11
321.213022265731
 21
620.9168332271445
 31
0.0
  0
LINE
  5
1896
102
{ACAD_REACTORS
330
189F
102
}
330
1E
100
AcDbEntity
  8
STEMPEL
100
AcDbLine
 10
321.213022265731
 20
617.9168332271445
 30
0.0
 11
321.213022265731
 21
620.9168332271445
 31
0.0
  0
LINE
  5
1897
102
{ACAD_REACTORS
330
189F
102
}
330
1E
100
AcDbEntity
  8
STEMPEL
100
AcDbLine
 10
321.7130222657309
 20
623.9168332271445
 30
0.0
 11
321.213022265731
 21
623.9168332271445
 31
0.0
  0
LINE
  5
1898
102
{ACAD_REACTORS
330
189F
102
}
330
1E
100
AcDbEntity
  8
HILF
100
AcDbLine
 10
322.2130222657308
 20
617.9168332271443
 30
0.0
 11
322.2130222657308
 21
630.5168332271444
 31
0.0
  0
LINE
  5
1899
102
{ACAD_REACTORS
330
189F
102
}
330
1E
100
AcDbEntity
  8
STEMPEL
100
AcDbLine
 10
323.2130222657308
 20
617.9168332271443
 30
0.0
 11
323.2130222657308
 21
629.8668332271443
 31
0.0
  0
LINE
  5
189A
102
{ACAD_REACTORS
330
189F
102
}
330
1E
100
AcDbEntity
  8
STEMPEL
100
AcDbLine
 10
321.213022265731
 20
623.9168332271443
 30
0.0
 11
321.2130222657307
 21
631.9168332271445
 31
0.0
  0
LINE
  5
189B
330
1E
100
AcDbEntity
  8
STEMPEL
100
AcDbLine
 10
331.213022265731
 20
638.916833227144
 30
0.0
 11
319.2130222657307
 21
638.9168332271444
 31
0.0
  0
LINE
  5
189C
330
1E
100
AcDbEntity
  8
STEMPEL
100
AcDbLine
 10
322.2130222657311
 20
630.5168332271444
 30
0.0
 11
328.2130222657311
 21
630.5168332271444
 31
0.0
  0
LINE
  5
189D
330
1E
100
AcDbEntity
  8
STEMPEL
100
AcDbLine
 10
333.2130222657307
 20
638.916833227144
 30
0.0
 11
318.2130222657308
 21
638.9168332271444
 31
0.0
  0
LINE
  5
189E
102
{ACAD_REACTORS
330
189F
102
}
330
1E
100
AcDbEntity
  8
STEMPEL
100
AcDbLine
 10
322.8630222657307
 20
629.8668332271443
 30
0.0
 11
327.563022265731
 21
629.8668332271443
 31
0.0
  0
HATCH
  5
189F
330
1E
100
AcDbEntity
  8
SCHRAFF
100
AcDbHatch
 10
0.0
 20
0.0
 30
0.0
210
0.0
220
0.0
230
1.0
  2
_USER
 70
     0
 71
     1
 91
        4
 92
        7
 72
     0
 73
     1
 93
       13
 10
329.2130222657307
 20
631.9168332271445
 10
328.7130222657308
 20
631.9168332271445
 10
328.713022265731
 20
634.9168332271444
 10
329.2130222657307
 20
634.9168332271444
 10
329.2130222657308
 20
637.9168332271441
 10
328.2130222657309
 20
637.9168332271442
 10
328.2130222657311
 20
630.5168332271444
 10
328.2130222657309
 20
617.916833227144
 10
329.213022265731
 20
617.916833227144
 10
329.2130222657308
 20
620.9168332271445
 10
328.713022265731
 20
620.9168332271445
 10
328.713022265731
 20
623.9168332271446
 10
329.213022265731
 20
623.9168332271447
 97
       13
330
1881
330
1880
330
1882
330
1883
330
1884
330
187C
330
1889
330
1917
330
1887
330
1886
330
1885
330
1888
330
188B
 92
        7
 72
     0
 73
     1
 93
       13
 10
322.2130222657308
 20
630.5168332271444
 10
322.2130222657307
 20
637.9168332271442
 10
321.2130222657308
 20
637.9168332271442
 10
321.2130222657307
 20
634.9168332271446
 10
321.7130222657309
 20
634.9168332271444
 10
321.7130222657309
 20
631.9168332271445
 10
321.2130222657307
 20
631.9168332271445
 10
321.213022265731
 20
623.9168332271445
 10
321.7130222657309
 20
623.9168332271445
 10
321.7130222657309
 20
620.9168332271445
 10
321.213022265731
 20
620.9168332271445
 10
321.213022265731
 20
617.916833227144
 10
322.2130222657308
 20
617.916833227144
 97
       13
330
188D
330
18D9
330
1893
330
1892
330
1890
330
1891
330
189A
330
1897
330
1894
330
1895
330
1896
330
1917
330
1898
 92
        7
 72
     0
 73
     1
 93
        5
 10
323.2130222657308
 20
629.8668332271443
 10
322.8630222657307
 20
629.8668332271443
 10
322.2130222657308
 20
630.5168332271446
 10
322.2130222657309
 20
617.916833227144
 10
323.2130222657307
 20
617.9168332271441
 97
        5
330
189E
330
188C
330
1898
330
1917
330
1899
 92
        7
 72
     0
 73
     1
 93
        5
 10
328.2130222657309
 20
630.5168332271441
 10
327.563022265731
 20
629.8668332271443
 10
327.2130222657307
 20
629.8668332271443
 10
327.2130222657308
 20
617.916833227144
 10
328.2130222657307
 20
617.9168332271439
 97
        5
330
187E
330
189E
330
188A
330
1917
330
1889
 75
     0
 76
     0
 52
135.0
 41
2.0
 77
     0
 78
     1
 53
135.0
 43
-23.2349681559264
 44
203.5375779464454
 45
-1.414213562373095
 46
-1.414213562373094
 79
     0
 47
0.076422445382283
 98
        4
 10
329.0006433104385
 20
628.6679388271918
 10
321.811670522405
 20
629.9671194714058
 10
322.652934183979
 20
628.2094028862814
 10
327.6240325085386
 20
628.2094028862814
  0
ARC
  5
18A0
330
1E
100
AcDbEntity
  8
STEMPEL
100
AcDbCircle
 10
337.8708794903043
 20
628.916833227144
 30
0.0
 40
4.99999999999995
100
AcDbArc
 50
181.0000000000017
 51
270.0
  0
LINE
  5
18A1
330
1E
100
AcDbEntity
  8
STEMPEL
100
AcDbLine
 10
319.2130222657307
 20
640.5168332271443
 30
0.0
 11
319.2130222657307
 21
638.9168332271442
 31
0.0
  0
LINE
  5
18A2
330
1E
100
AcDbEntity
  8
STEMPEL
100
AcDbLine
 10
331.2130222657307
 20
640.5168332271442
 30
0.0
 11
331.2130222657307
 21
638.9168332271442
 31
0.0
  0
LINE
  5
18A3
330
1E
100
AcDbEntity
  8
MITTEL
100
AcDbLine
 10
325.213022265731
 20
643.9168332271442
 30
0.0
 11
325.213022265731
 21
632.916833227144
 31
0.0
  0
LINE
  5
18A4
330
1E
100
AcDbEntity
  8
MITTEL
100
AcDbLine
 10
325.213022265731
 20
613.9168332271442
 30
0.0
 11
325.213022265731
 21
646.5845765615442
 31
0.0
  0
LINE
  5
18A5
330
1E
100
AcDbEntity
  8
STEMPEL
100
AcDbLine
 10
311.0392208549332
 20
650.4168332271421
 30
0.0
 11
311.0392208549332
 21
643.9168332271444
 31
0.0
  0
LINE
  5
18A6
330
1E
100
AcDbEntity
  8
STEMPEL
100
AcDbLine
 10
310.0454421413953
 20
650.4168332271421
 30
0.0
 11
310.0454421413953
 21
643.9168332271433
 31
0.0
  0
LINE
  5
18A7
330
1E
100
AcDbEntity
  8
STEMPEL
100
AcDbLine
 10
312.0033350246958
 20
650.4168332271421
 30
0.0
 11
312.0033350246958
 21
643.9168332271444
 31
0.0
  0
LWPOLYLINE
  5
18A8
330
1E
100
AcDbEntity
  8
STEMPEL
100
AcDbPolyline
 90
        7
 70
   128
 43
0.0
 10
311.5212779398147
 20
656.878887282982
 10
311.3834489302444
 20
656.1267810460433
 10
311.2645846532782
 20
655.2040674353285
 10
311.168236651377
 20
654.1383161854244
 10
311.0972837038389
 20
652.9613708486033
 10
311.0538458118309
 20
651.7083973422016
 10
311.0392208549333
 20
650.4168332271421
  0
LWPOLYLINE
  5
18A9
330
1E
100
AcDbEntity
  8
STEMPEL
100
AcDbPolyline
 90
       18
 70
   128
 43
0.0
 10
312.0033350246958
 20
650.4168332271421
 10
311.986666601219
 20
651.7949546107668
 10
311.9372289539587
 20
653.1261457235464
 10
311.8567056226982
 20
654.3650744487231
 10
311.7478387329065
 20
655.4695505544923
 10
311.6143356159442
 20
656.4019624317452
 10
311.4607425603401
 20
657.1305579123065
 10
311.2922899933881
 20
657.6305255509399
 10
311.1147143652191
 20
657.8848395493564
 10
310.9340628008721
 20
657.8848395493564
 10
310.7564871727031
 20
657.6305255509399
 10
310.5880346057511
 20
657.1305579123065
 10
310.434441550147
 20
656.4019624317452
 10
310.3009384331847
 20
655.4695505544923
 10
310.192071543393
 20
654.3650744487231
 10
310.1115482121326
 20
653.1261457235464
 10
310.0621105648722
 20
651.7949546107668
 10
310.0454421413953
 20
650.4168332271421
  0
LINE
  5
18AA
330
1E
100
AcDbEntity
  8
STEMPEL
100
AcDbLine
 10
306.547347877962
 20
650.4168332271421
 30
0.0
 11
306.547347877962
 21
643.9168332271456
 31
0.0
  0
LINE
  5
18AB
330
1E
100
AcDbEntity
  8
STEMPEL
100
AcDbLine
 10
301.7331507289915
 20
650.4168332271421
 30
0.0
 11
301.7331507289915
 21
643.9168332271456
 31
0.0
  0
LWPOLYLINE
  5
18AC
330
1E
100
AcDbEntity
  8
STEMPEL
100
AcDbPolyline
 90
        9
 70
   128
 43
0.0
 10
304.1402493034752
 20
657.8185914718071
 10
303.6511887602064
 20
657.4921585740498
 10
303.1915757923055
 20
656.9468895607927
 10
302.7756259886812
 20
656.1996493176645
 10
302.4162044593897
 20
655.273549594887
 10
302.1244279245021
 20
654.1972341729167
 10
301.909320879764
 20
653.0039929252859
 10
301.7775364736565
 20
651.7307321802102
 10
301.7331507289916
 20
650.4168332271437
  0
ARC
  5
18AD
330
1E
100
AcDbEntity
  8
STEMPEL
100
AcDbCircle
 10
286.1508202003738
 20
672.416833227144
 30
0.0
 40
0.5
100
AcDbArc
 50
1.999999999997159
 51
90.0
  0
LINE
  5
18AE
330
1E
100
AcDbEntity
  8
STEMPEL
100
AcDbLine
 10
300.8070963924843
 20
650.4168332271421
 30
0.0
 11
300.8070963924843
 21
643.9168332271456
 31
0.0
  0
LINE
  5
18AF
330
1E
100
AcDbEntity
  8
STEMPEL
100
AcDbLine
 10
294.0492972088025
 20
650.4168332271421
 30
0.0
 11
294.0492972088025
 21
643.9168332271456
 31
0.0
  0
LWPOLYLINE
  5
18B0
330
1E
100
AcDbEntity
  8
STEMPEL
100
AcDbPolyline
 90
        5
 70
   128
 43
0.0
 10
290.2788073780574
 20
657.9168332271454
 10
289.4859800321977
 20
657.8028913747369
 10
288.717242344052
 20
657.4645278830396
 10
287.9959520192745
 20
656.9120237555284
 10
287.2235879726385
 20
656.0236377607434
  0
LWPOLYLINE
  5
18B1
330
1E
100
AcDbEntity
  8
STEMPEL
100
AcDbPolyline
 90
       13
 70
   128
 43
0.0
 10
294.0492972088024
 20
650.4168332271421
 10
293.9715573075423
 20
651.7949546107668
 10
293.7409849428604
 20
653.1261457235464
 10
293.3654319800953
 20
654.3650744487231
 10
292.8576874249676
 20
655.4695505544923
 10
292.2350419093297
 20
656.4019624317452
 10
291.5186988794356
 20
657.1305579123065
 10
290.7330525380097
 20
657.6305255509399
 10
289.9048571289303
 20
657.8848395493564
 10
289.0623158535426
 20
657.8848395493564
 10
288.2341204444632
 20
657.6305255509399
 10
287.4484741030374
 20
657.1305579123065
 10
287.1939728596527
 20
656.8717036372052
  0
LWPOLYLINE
  5
18B2
330
1E
100
AcDbEntity
  8
STEMPEL
100
AcDbPolyline
 90
       18
 70
   128
 43
0.0
 10
306.547347877962
 20
650.4168332271421
 10
306.4984785330457
 20
651.7949546107668
 10
306.3535346852257
 20
653.1261457235464
 10
306.1174522233985
 20
654.3650744487231
 10
305.7982706526518
 20
655.4695505544923
 10
305.4068593185614
 20
656.4019624317452
 10
304.9565472646634
 20
657.1305579123065
 10
304.462669327864
 20
657.6305255509399
 10
303.942043928959
 20
657.8848395493564
 10
303.4124003414872
 20
657.8848395493564
 10
302.8917749425823
 20
657.6305255509399
 10
302.3978970057829
 20
657.1305579123065
 10
301.9475849518849
 20
656.4019624317452
 10
301.5561736177945
 20
655.4695505544923
 10
301.2369920470478
 20
654.3650744487231
 10
301.0009095852206
 20
653.1261457235464
 10
300.8559657374005
 20
651.7949546107668
 10
300.8070963924843
 20
650.4168332271421
  0
LINE
  5
18B3
330
1E
100
AcDbEntity
  8
STEMPEL
100
AcDbLine
 10
317.5544035169396
 20
628.8295711949579
 30
0.0
 11
317.7130222657309
 21
637.916833227144
 31
0.0
  0
LINE
  5
18B4
330
1E
100
AcDbEntity
  8
STEMPEL
100
AcDbLine
 10
310.6875299069951
 20
636.9168332271446
 30
0.0
 11
311.6875299069951
 21
635.9168332271447
 31
0.0
  0
LINE
  5
18B5
330
1E
100
AcDbEntity
  8
HILF
100
AcDbLine
 10
310.6875299069951
 20
636.9168332271446
 30
0.0
 11
310.6875299069951
 21
633.9168332271442
 31
0.0
  0
LINE
  5
18B6
330
1E
100
AcDbEntity
  8
STEMPEL
100
AcDbLine
 10
311.6875299069951
 20
635.9168332271447
 30
0.0
 11
311.6875299069951
 21
633.9168332271442
 31
0.0
  0
LINE
  5
18B7
330
1E
100
AcDbEntity
  8
STEMPEL
100
AcDbLine
 10
314.6237942083665
 20
638.916833227144
 30
0.0
 11
313.6596800386038
 21
638.916833227144
 31
0.0
  0
LINE
  5
18B8
330
1E
100
AcDbEntity
  8
STEMPEL
100
AcDbLine
 10
301.6875299069951
 20
635.9168332271447
 30
0.0
 11
302.6875299069951
 21
636.9168332271446
 31
0.0
  0
LINE
  5
18B9
330
1E
100
AcDbEntity
  8
STEMPEL
100
AcDbLine
 10
301.6875299069951
 20
635.9168332271447
 30
0.0
 11
301.6875299069951
 21
633.9168332271441
 31
0.0
  0
LINE
  5
18BA
330
1E
100
AcDbEntity
  8
HILF
100
AcDbLine
 10
302.6875299069951
 20
636.9168332271446
 30
0.0
 11
302.6875299069951
 21
633.9168332271442
 31
0.0
  0
LINE
  5
18BB
330
1E
100
AcDbEntity
  8
STEMPEL
100
AcDbLine
 10
308.7009195106306
 20
638.916833227144
 30
0.0
 11
303.8867223616592
 21
638.916833227144
 31
0.0
  0
LINE
  5
18BC
330
1E
100
AcDbEntity
  8
STEMPEL
100
AcDbLine
 10
302.6875299069951
 20
636.9168332271446
 30
0.0
 11
310.6875299069951
 21
636.9168332271446
 31
0.0
  0
LINE
  5
18BD
330
1E
100
AcDbEntity
  8
STEMPEL
100
AcDbLine
 10
311.6875299069951
 20
635.9168332271447
 30
0.0
 11
301.6875299069951
 21
635.9168332271447
 31
0.0
  0
LWPOLYLINE
  5
18C2
330
1E
100
AcDbEntity
  8
STEMPEL
100
AcDbPolyline
 90
        3
 70
   128
 43
0.0
 10
-289.2815819482765
 20
637.916833227144
 10
-288.5238323231823
 20
638.0079867090707
 10
-287.8439613831578
 20
638.2584676471281
210
0.0
220
0.0
230
-1.0
  0
ARC
  5
18C3
330
1E
100
AcDbEntity
  8
STEMPEL
100
AcDbCircle
 10
289.3104710676798
 20
624.9168332271437
 30
0.0
 40
1.0
100
AcDbArc
 50
181.9999999999971
 51
270.0
  0
LINE
  5
18C4
330
1E
100
AcDbEntity
  8
STEMPEL
100
AcDbLine
 10
296.000874037321
 20
638.916833227144
 30
0.0
 11
287.8209707504967
 21
638.916833227144
 31
0.0
  0
LINE
  5
18C5
330
1E
100
AcDbEntity
  8
STEMPEL
100
AcDbLine
 10
289.3104710676798
 20
623.9168332271441
 30
0.0
 11
312.5551650411577
 21
623.9168332271442
 31
0.0
  0
LWPOLYLINE
  5
18C6
330
1E
100
AcDbEntity
  8
STEMPEL
100
AcDbPolyline
 90
        7
 70
   128
 43
0.0
 10
-313.659680038604
 20
638.9168332271444
 10
-312.9829781635267
 20
639.5264339550035
 10
-312.3834287398927
 20
640.253993038915
 10
-311.8771400667431
 20
641.0799629005953
 10
-311.4777147746975
 20
641.9821519257984
 10
-311.1958843594345
 20
642.9363206939922
 10
-311.0392208549331
 20
643.9168332271444
210
0.0
220
0.0
230
-1.0
  0
LWPOLYLINE
  5
18C7
330
1E
100
AcDbEntity
  8
STEMPEL
100
AcDbPolyline
 90
       10
 70
   128
 43
0.0
 10
-311.3627124045359
 20
637.916833227144
 10
-310.5265331296944
 20
638.0079867090707
 10
-309.7157607389918
 20
638.2786775024285
 10
-308.9550301412489
 20
638.7206808044372
 10
-308.2674557507302
 20
639.3205665684302
 10
-307.6739291673618
 20
640.0601075690249
 10
-307.1924843960405
 20
640.9168332271442
 10
-306.8377498925201
 20
641.8647123671901
 10
-306.620504085186
 20
642.8749441611428
 10
-306.547347877962
 20
643.9168332271444
210
0.0
220
0.0
230
-1.0
  0
LWPOLYLINE
  5
18C8
330
1E
100
AcDbEntity
  8
STEMPEL
100
AcDbPolyline
 90
       10
 70
   128
 43
0.0
 10
-315.5514308724262
 20
637.916833227144
 10
-314.6933578761534
 20
637.9829604417166
 10
-313.8405456765312
 20
638.2355141914468
 10
-313.0197873696141
 20
638.6665599077644
 10
-312.2568690032151
 20
639.2625552782044
 10
-311.575759447716
 20
640.0047757099248
 10
-310.9978573577703
 20
640.8699026067225
 10
-310.5413188833641
 20
641.8307559774384
 10
-310.2204872517665
 20
642.8571483591506
 10
-310.0454421413953
 20
643.9168332271433
210
0.0
220
0.0
230
-1.0
  0
LWPOLYLINE
  5
18C9
330
1E
100
AcDbEntity
  8
STEMPEL
100
AcDbPolyline
 90
       10
 70
   128
 43
0.0
 10
-317.5093237557267
 20
637.9168332271452
 10
-316.6512507594539
 20
637.9829604417177
 10
-315.7984385598317
 20
638.2355141914479
 10
-314.9776802529146
 20
638.6665599077655
 10
-314.2147618865156
 20
639.2625552782053
 10
-313.5336523310165
 20
640.0047757099262
 10
-312.9557502410707
 20
640.8699026067235
 10
-312.4992117666645
 20
641.8307559774396
 10
-312.178380135067
 20
642.8571483591517
 10
-312.0033350246958
 20
643.9168332271444
210
0.0
220
0.0
230
-1.0
  0
LWPOLYLINE
  5
18CA
330
1E
100
AcDbEntity
  8
STEMPEL
100
AcDbPolyline
 90
       10
 70
   128
 43
0.0
 10
-305.6224609190582
 20
637.916833227144
 10
-304.7862816442166
 20
638.0079867090707
 10
-303.975509253514
 20
638.2786775024285
 10
-303.2147786557711
 20
638.7206808044372
 10
-302.5272042652524
 20
639.3205665684302
 10
-301.933677681884
 20
640.0601075690249
 10
-301.4522329105628
 20
640.9168332271442
 10
-301.0974984070424
 20
641.8647123671901
 10
-300.8802525997082
 20
642.8749441611428
 10
-300.8070963924843
 20
643.9168332271444
210
0.0
220
0.0
230
-1.0
  0
LWPOLYLINE
  5
18CB
330
1E
100
AcDbEntity
  8
STEMPEL
100
AcDbPolyline
 90
        7
 70
   128
 43
0.0
 10
-303.8867223616602
 20
638.916833227144
 10
-303.2666318385959
 20
639.5261711289847
 10
-302.7348116918124
 20
640.2536014022741
 10
-302.3055658920812
 20
641.0795588962177
 10
-301.9904395442838
 20
641.98182844668
 10
-301.797908367318
 20
642.9361423809232
 10
-301.7331507289916
 20
643.9168332271444
210
0.0
220
0.0
230
-1.0
  0
LWPOLYLINE
  5
18CC
330
1E
100
AcDbEntity
  8
STEMPEL
100
AcDbPolyline
 90
       10
 70
   128
 43
0.0
 10
-298.4130033834084
 20
637.916833227144
 10
-297.6552537583142
 20
638.0079867090707
 10
-296.9205279721387
 20
638.2786775024285
 10
-296.2311502961055
 20
638.7206808044372
 10
-295.6080671220591
 20
639.3205665684302
 10
-295.0702105169477
 20
640.0601075690249
 10
-294.6339229815487
 20
640.9168332271442
 10
-294.3124608918534
 20
641.8647123671901
 10
-294.1155917107894
 20
642.8749441611428
 10
-294.0492972088026
 20
643.9168332271444
210
0.0
220
0.0
230
-1.0
  0
LINE
  5
18CD
330
1E
100
AcDbEntity
  8
MITTEL
100
AcDbLine
 10
306.6875299069951
 20
641.9168332271446
 30
0.0
 11
306.6875299069951
 21
611.9168332271446
 31
0.0
  0
LINE
  5
18CE
330
1E
100
AcDbEntity
  8
STEMPEL
100
AcDbLine
 10
288.3110802406609
 20
624.8819337304414
 30
0.0
 11
286.6505156138833
 21
672.4342829754952
 31
0.0
  0
LINE
  5
18D0
330
1E
100
AcDbEntity
  8
STEMPEL
100
AcDbLine
 10
282.2130222657311
 20
617.9168332271437
 30
0.0
 11
284.1336645877773
 21
672.916833227144
 31
0.0
  0
LINE
  5
18D5
330
1E
100
AcDbEntity
  8
MITTEL
100
AcDbLine
 10
217.8319557943766
 20
623.9168332271439
 30
0.0
 11
217.8319557943768
 21
611.9168332271445
 31
0.0
  0
ARC
  5
18D6
330
1E
100
AcDbEntity
  8
STEMPEL
100
AcDbCircle
 10
318.2130222657311
 20
643.9168332271444
 30
0.0
 40
6.0
100
AcDbArc
 50
180.0
 51
269.9999999999984
  0
ARC
  5
18D7
330
1E
100
AcDbEntity
  8
STEMPEL
100
AcDbCircle
 10
318.2130222657311
 20
643.9168332271444
 30
0.0
 40
5.0
100
AcDbArc
 50
180.0
 51
269.9999999999984
  0
ARC
  5
18D8
330
1E
100
AcDbEntity
  8
STEMPEL
100
AcDbCircle
 10
312.5551650411577
 20
628.9168332271442
 30
0.0
 40
5.0
100
AcDbArc
 50
270.0
 51
358.9999999999982
  0
LINE
  5
18D9
102
{ACAD_REACTORS
330
189F
102
}
330
1E
100
AcDbEntity
  8
STEMPEL
100
AcDbLine
 10
287.8558915199884
 20
637.9168332271444
 30
0.0
 11
322.2130222657307
 21
637.9168332271442
 31
0.0
  0
LINE
  5
18DE
330
1E
100
AcDbEntity
  8
MITTEL
100
AcDbLine
 10
147.213022265731
 20
623.9168332271439
 30
0.0
 11
147.213022265731
 21
611.9168332271445
 31
0.0
  0
LINE
  5
18E0
330
1E
100
AcDbEntity
  8
STEMPEL
100
AcDbLine
 10
124.2130222657311
 20
617.9168332271437
 30
0.0
 11
122.2923799436849
 21
672.916833227144
 31
0.0
  0
ARC
  5
18E1
330
1E
100
AcDbEntity
  8
STEMPEL
100
AcDbCircle
 10
120.2752243310883
 20
672.416833227144
 30
0.0
 40
0.5
100
AcDbArc
 50
90.0
 51
178.0000000000028
  0
LWPOLYLINE
  5
18E2
330
1E
100
AcDbEntity
  8
STEMPEL
100
AcDbPolyline
 90
        5
 70
   128
 43
0.0
 10
-116.1472371534046
 20
657.9168332271454
 10
-116.9400644992643
 20
657.8028913747369
 10
-117.70880218741
 20
657.4645278830396
 10
-118.4300925121876
 20
656.9120237555284
 10
-119.2024565588237
 20
656.0236377607432
210
0.0
220
0.0
230
-1.0
  0
LINE
  5
18E3
330
1E
100
AcDbEntity
  8
STEMPEL
100
AcDbLine
 10
112.3767473226596
 20
650.4168332271421
 30
0.0
 11
112.3767473226596
 21
643.9168332271456
 31
0.0
  0
LINE
  5
18E4
330
1E
100
AcDbEntity
  8
STEMPEL
100
AcDbLine
 10
105.6189481389778
 20
650.4168332271421
 30
0.0
 11
105.6189481389778
 21
643.9168332271456
 31
0.0
  0
LWPOLYLINE
  5
18E5
330
1E
100
AcDbEntity
  8
STEMPEL
100
AcDbPolyline
 90
       13
 70
   128
 43
0.0
 10
-112.3767473226597
 20
650.4168332271421
 10
-112.4544872239198
 20
651.7949546107668
 10
-112.6850595886016
 20
653.1261457235464
 10
-113.0606125513667
 20
654.3650744487231
 10
-113.5683571064945
 20
655.4695505544923
 10
-114.1910026221324
 20
656.4019624317452
 10
-114.9073456520264
 20
657.1305579123065
 10
-115.6929919934523
 20
657.6305255509399
 10
-116.5211874025318
 20
657.8848395493564
 10
-117.3637286779195
 20
657.8848395493564
 10
-118.1919240869989
 20
657.6305255509399
 10
-118.9775704284248
 20
657.1305579123065
 10
-119.2320716718094
 20
656.8717036372049
210
0.0
220
0.0
230
-1.0
  0
LINE
  5
18E6
330
1E
100
AcDbEntity
  8
STEMPEL
100
AcDbLine
 10
104.6928938024706
 20
650.4168332271421
 30
0.0
 11
104.6928938024706
 21
643.9168332271456
 31
0.0
  0
LINE
  5
18E7
330
1E
100
AcDbEntity
  8
STEMPEL
100
AcDbLine
 10
99.87869665350011
 20
650.4168332271421
 30
0.0
 11
99.87869665350011
 21
643.9168332271456
 31
0.0
  0
LWPOLYLINE
  5
18E8
330
1E
100
AcDbEntity
  8
STEMPEL
100
AcDbPolyline
 90
        9
 70
   128
 43
0.0
 10
-102.2857952279869
 20
657.8185914718071
 10
-102.7748557712556
 20
657.4921585740498
 10
-103.2344687391566
 20
656.9468895607927
 10
-103.6504185427808
 20
656.1996493176645
 10
-104.0098400720724
 20
655.273549594887
 10
-104.3016166069599
 20
654.1972341729167
 10
-104.5167236516981
 20
653.0039929252859
 10
-104.6485080578056
 20
651.7307321802102
 10
-104.6928938024704
 20
650.4168332271437
210
0.0
220
0.0
230
-1.0
  0
LINE
  5
18E9
330
1E
100
AcDbEntity
  8
STEMPEL
100
AcDbLine
 10
96.38060239006675
 20
650.4168332271421
 30
0.0
 11
96.38060239006675
 21
643.9168332271433
 31
0.0
  0
LINE
  5
18EA
330
1E
100
AcDbEntity
  8
STEMPEL
100
AcDbLine
 10
95.3868236765289
 20
650.4168332271421
 30
0.0
 11
95.3868236765289
 21
643.9168332271444
 31
0.0
  0
LINE
  5
18EB
330
1E
100
AcDbEntity
  8
STEMPEL
100
AcDbLine
 10
94.42270950676627
 20
650.4168332271421
 30
0.0
 11
94.42270950676627
 21
643.9168332271444
 31
0.0
  0
LWPOLYLINE
  5
18EC
330
1E
100
AcDbEntity
  8
STEMPEL
100
AcDbPolyline
 90
        7
 70
   128
 43
0.0
 10
-94.90476659164739
 20
656.878887282982
 10
-95.04259560121766
 20
656.1267810460433
 10
-95.16145987818385
 20
655.2040674353285
 10
-95.25780788008507
 20
654.1383161854244
 10
-95.32876082762328
 20
652.9613708486033
 10
-95.37219871963117
 20
651.7083973422016
 10
-95.38682367652876
 20
650.4168332271421
210
0.0
220
0.0
230
-1.0
  0
LWPOLYLINE
  5
18ED
330
1E
100
AcDbEntity
  8
STEMPEL
100
AcDbPolyline
 90
       18
 70
   128
 43
0.0
 10
-94.42270950676624
 20
650.4168332271421
 10
-94.43937793024298
 20
651.7949546107668
 10
-94.48881557750343
 20
653.1261457235464
 10
-94.56933890876388
 20
654.3650744487231
 10
-94.67820579855555
 20
655.4695505544923
 10
-94.81170891551784
 20
656.4019624317452
 10
-94.96530197112196
 20
657.1305579123065
 10
-95.13375453807402
 20
657.6305255509399
 10
-95.31133016624295
 20
657.8848395493564
 10
-95.49198173059
 20
657.8848395493564
 10
-95.66955735875893
 20
657.6305255509399
 10
-95.83800992571099
 20
657.1305579123065
 10
-95.99160298131511
 20
656.4019624317452
 10
-96.1251060982774
 20
655.4695505544923
 10
-96.23397298806906
 20
654.3650744487231
 10
-96.31449631932952
 20
653.1261457235464
 10
-96.36393396658997
 20
651.7949546107668
 10
-96.38060239006671
 20
650.4168332271421
210
0.0
220
0.0
230
-1.0
  0
LWPOLYLINE
  5
18EE
330
1E
100
AcDbEntity
  8
STEMPEL
100
AcDbPolyline
 90
       18
 70
   128
 43
0.0
 10
-99.87869665350007
 20
650.4168332271421
 10
-99.92756599841635
 20
651.7949546107668
 10
-100.0725098462364
 20
653.1261457235464
 10
-100.3085923080636
 20
654.3650744487231
 10
-100.6277738788104
 20
655.4695505544923
 10
-101.0191852129007
 20
656.4019624317452
 10
-101.4694972667987
 20
657.1305579123065
 10
-101.9633752035981
 20
657.6305255509399
 10
-102.484000602503
 20
657.8848395493564
 10
-103.0136441899748
 20
657.8848395493564
 10
-103.5342695888798
 20
657.6305255509399
 10
-104.0281475256792
 20
657.1305579123065
 10
-104.4784595795772
 20
656.4019624317452
 10
-104.8698709136675
 20
655.4695505544923
 10
-105.1890524844143
 20
654.3650744487231
 10
-105.4251349462415
 20
653.1261457235464
 10
-105.5700787940615
 20
651.7949546107668
 10
-105.6189481389778
 20
650.4168332271421
210
0.0
220
0.0
230
-1.0
  0
LWPOLYLINE
  5
18EF
330
1E
100
AcDbEntity
  8
STEMPEL
100
AcDbPolyline
 90
        3
 70
   128
 43
0.0
 10
117.1444625831855
 20
637.916833227144
 10
117.9022122082797
 20
638.0079867090707
 10
118.5820831483044
 20
638.2584676471281
  0
ARC
  5
18F0
330
1E
100
AcDbEntity
  8
STEMPEL
100
AcDbCircle
 10
117.1155734637823
 20
624.9168332271437
 30
0.0
 40
1.0
100
AcDbArc
 50
270.0
 51
358.0000000000028
  0
LINE
  5
18F1
330
1E
100
AcDbEntity
  8
STEMPEL
100
AcDbLine
 10
110.4251704941411
 20
638.916833227144
 30
0.0
 11
118.6050737809654
 21
638.916833227144
 31
0.0
  0
LINE
  5
18F2
330
1E
100
AcDbEntity
  8
STEMPEL
100
AcDbLine
 10
97.72512502083154
 20
638.916833227144
 30
0.0
 11
102.5393221698029
 21
638.916833227144
 31
0.0
  0
LINE
  5
18F3
330
1E
100
AcDbEntity
  8
STEMPEL
100
AcDbLine
 10
96.21302226573092
 20
635.9168332271447
 30
0.0
 11
95.21302226573093
 21
636.9168332271446
 31
0.0
  0
LINE
  5
18F4
330
1E
100
AcDbEntity
  8
STEMPEL
100
AcDbLine
 10
96.21302226573092
 20
635.9168332271447
 30
0.0
 11
96.21302226573092
 21
633.9168332271439
 31
0.0
  0
LINE
  5
18F5
330
1E
100
AcDbEntity
  8
HILF
100
AcDbLine
 10
95.21302226573093
 20
636.9168332271446
 30
0.0
 11
95.21302226573093
 21
633.916833227144
 31
0.0
  0
LINE
  5
18F6
330
1E
100
AcDbEntity
  8
STEMPEL
100
AcDbLine
 10
91.80225032309564
 20
638.916833227144
 30
0.0
 11
92.76636449285829
 21
638.916833227144
 31
0.0
  0
LINE
  5
18F8
330
1E
100
AcDbEntity
  8
STEMPEL
100
AcDbLine
 10
96.21302226573092
 20
623.9168332271439
 30
0.0
 11
96.21302226573092
 21
611.9168332271446
 31
0.0
  0
LINE
  5
18F9
330
1E
100
AcDbEntity
  8
HILF
100
AcDbLine
 10
95.21302226573093
 20
623.9168332271439
 30
0.0
 11
95.21302226573093
 21
611.9168332271446
 31
0.0
  0
LINE
  5
18FA
330
1E
100
AcDbEntity
  8
STEMPEL
100
AcDbLine
 10
98.21302226573093
 20
623.9168332271439
 30
0.0
 11
98.21302226573093
 21
617.9168332271439
 31
0.0
  0
LWPOLYLINE
  5
18FB
330
1E
100
AcDbEntity
  8
STEMPEL
100
AcDbPolyline
 90
       10
 70
   128
 43
0.0
 10
88.91672077573543
 20
637.9168332271452
 10
89.7747937720082
 20
637.9829604417177
 10
90.62760597163043
 20
638.2355141914479
 10
91.44836427854745
 20
638.6665599077655
 10
92.21128264494637
 20
639.2625552782053
 10
92.89239220044562
 20
640.0047757099262
 10
93.47029429039134
 20
640.8699026067235
 10
93.92683276479756
 20
641.8307559774396
 10
94.24766439639512
 20
642.8571483591517
 10
94.42270950676624
 20
643.9168332271444
  0
LWPOLYLINE
  5
18FC
330
1E
100
AcDbEntity
  8
STEMPEL
100
AcDbPolyline
 90
       10
 70
   128
 43
0.0
 10
90.87461365903591
 20
637.916833227144
 10
91.73268665530867
 20
637.9829604417166
 10
92.5854988549309
 20
638.2355141914468
 10
93.40625716184792
 20
638.6665599077644
 10
94.16917552824685
 20
639.2625552782044
 10
94.85028508374609
 20
640.0047757099248
 10
95.42818717369181
 20
640.8699026067225
 10
95.88472564809803
 20
641.8307559774384
 10
96.20555727969559
 20
642.8571483591506
 10
96.38060239006671
 20
643.9168332271433
  0
LINE
  5
18FD
330
1E
100
AcDbEntity
  8
MITTEL
100
AcDbLine
 10
91.21302226573092
 20
641.9168332271446
 30
0.0
 11
91.21302226573092
 21
611.9168332271446
 31
0.0
  0
LWPOLYLINE
  5
18FE
330
1E
100
AcDbEntity
  8
STEMPEL
100
AcDbPolyline
 90
        7
 70
   128
 43
0.0
 10
102.5393221698019
 20
638.916833227144
 10
103.1594126928663
 20
639.5261711289847
 10
103.6912328396496
 20
640.2536014022741
 10
104.1204786393809
 20
641.0795588962177
 10
104.4356049871782
 20
641.98182844668
 10
104.6281361641441
 20
642.9361423809232
 10
104.6928938024704
 20
643.9168332271444
  0
LWPOLYLINE
  5
18FF
330
1E
100
AcDbEntity
  8
STEMPEL
100
AcDbPolyline
 90
        7
 70
   128
 43
0.0
 10
92.76636449285803
 20
638.9168332271444
 10
93.4430663679355
 20
639.5264339550035
 10
94.04261579156941
 20
640.253993038915
 10
94.5489044647191
 20
641.0799629005953
 10
94.94832975676462
 20
641.9821519257984
 10
95.23016017202753
 20
642.9363206939922
 10
95.38682367652899
 20
643.9168332271444
  0
LWPOLYLINE
  5
1900
330
1E
100
AcDbEntity
  8
STEMPEL
100
AcDbPolyline
 90
       10
 70
   128
 43
0.0
 10
95.06333212692613
 20
637.916833227144
 10
95.8995114017677
 20
638.0079867090707
 10
96.71028379247031
 20
638.2786775024285
 10
97.47101439021315
 20
638.7206808044372
 10
98.15858878073193
 20
639.3205665684302
 10
98.75211536410034
 20
640.0601075690249
 10
99.23356013542155
 20
640.9168332271442
 10
99.58829463894193
 20
641.8647123671901
 10
99.80554044627609
 20
642.8749441611428
 10
99.87869665350007
 20
643.9168332271444
  0
LWPOLYLINE
  5
1901
330
1E
100
AcDbEntity
  8
STEMPEL
100
AcDbPolyline
 90
       10
 70
   128
 43
0.0
 10
100.8035836124039
 20
637.916833227144
 10
101.6397628872454
 20
638.0079867090707
 10
102.450535277948
 20
638.2786775024285
 10
103.2112658756909
 20
638.7206808044372
 10
103.8988402662097
 20
639.3205665684302
 10
104.4923668495781
 20
640.0601075690249
 10
104.9738116208993
 20
640.9168332271442
 10
105.3285461244197
 20
641.8647123671901
 10
105.5457919317538
 20
642.8749441611428
 10
105.6189481389778
 20
643.9168332271444
  0
LWPOLYLINE
  5
1902
330
1E
100
AcDbEntity
  8
STEMPEL
100
AcDbPolyline
 90
       10
 70
   128
 43
0.0
 10
108.0130411480537
 20
637.916833227144
 10
108.7707907731479
 20
638.0079867090707
 10
109.5055165593234
 20
638.2786775024285
 10
110.1948942353565
 20
638.7206808044372
 10
110.8179774094029
 20
639.3205665684302
 10
111.3558340145144
 20
640.0601075690249
 10
111.7921215499133
 20
640.9168332271442
 10
112.1135836396086
 20
641.8647123671901
 10
112.3104528206726
 20
642.8749441611428
 10
112.3767473226594
 20
643.9168332271444
  0
LINE
  5
1903
330
1E
100
AcDbEntity
  8
STEMPEL
100
AcDbLine
 10
118.1149642908013
 20
624.8819337304414
 30
0.0
 11
119.7755289175789
 21
672.4342829754952
 31
0.0
  0
LINE
  5
1904
330
1E
100
AcDbEntity
  8
STEMPEL
100
AcDbLine
 10
87.21302226573092
 20
636.9168332271446
 30
0.0
 11
86.21302226573092
 21
635.9168332271447
 31
0.0
  0
LINE
  5
1905
330
1E
100
AcDbEntity
  8
STEMPEL
100
AcDbLine
 10
86.21302226573092
 20
635.9168332271447
 30
0.0
 11
86.21302226573092
 21
633.9168332271439
 31
0.0
  0
LINE
  5
1906
330
1E
100
AcDbEntity
  8
HILF
100
AcDbLine
 10
87.21302226573092
 20
636.9168332271446
 30
0.0
 11
87.21302226573092
 21
633.916833227144
 31
0.0
  0
LINE
  5
1907
330
1E
100
AcDbEntity
  8
STEMPEL
100
AcDbLine
 10
73.21302226573081
 20
638.9168332271442
 30
0.0
 11
73.2130222657307
 21
637.916833227144
 31
0.0
  0
LINE
  5
1908
330
1E
100
AcDbEntity
  8
STEMPEL
100
AcDbLine
 10
73.21302226573092
 20
638.916833227144
 30
0.0
 11
88.21302226573115
 21
638.9168332271444
 31
0.0
  0
LINE
  5
190A
330
1E
100
AcDbEntity
  8
HILF
100
AcDbLine
 10
87.21302226573092
 20
623.9168332271439
 30
0.0
 11
87.21302226573092
 21
611.9168332271446
 31
0.0
  0
LINE
  5
190B
330
1E
100
AcDbEntity
  8
STEMPEL
100
AcDbLine
 10
86.21302226573092
 20
623.9168332271439
 30
0.0
 11
86.21302226573092
 21
611.9168332271446
 31
0.0
  0
LINE
  5
190C
330
1E
100
AcDbEntity
  8
STEMPEL
100
AcDbLine
 10
84.21302226573093
 20
623.9168332271439
 30
0.0
 11
84.21302226573093
 21
617.9168332271439
 31
0.0
  0
ARC
  5
190D
330
1E
100
AcDbEntity
  8
STEMPEL
100
AcDbCircle
 10
61.21302226573092
 20
620.916833227144
 30
0.0
 40
3.0
100
AcDbArc
 50
90.0
 51
270.0
  0
LINE
  5
190E
330
1E
100
AcDbEntity
  8
STEMPEL
100
AcDbLine
 10
61.21302226573092
 20
623.9168332271439
 30
0.0
 11
117.1155734637823
 21
623.9168332271439
 31
0.0
  0
ARC
  5
190F
330
1E
100
AcDbEntity
  8
STEMPEL
100
AcDbCircle
 10
88.21302226573104
 20
643.9168332271444
 30
0.0
 40
6.0
100
AcDbArc
 50
270.0000000000017
 51
0.0
  0
ARC
  5
1910
330
1E
100
AcDbEntity
  8
STEMPEL
100
AcDbCircle
 10
88.21302226573104
 20
643.9168332271444
 30
0.0
 40
5.0
100
AcDbArc
 50
270.0000000000017
 51
0.0
  0
LINE
  5
1911
330
1E
100
AcDbEntity
  8
STEMPEL
100
AcDbLine
 10
86.21302226573092
 20
635.9168332271447
 30
0.0
 11
96.21302226573092
 21
635.9168332271447
 31
0.0
  0
LINE
  5
1912
330
1E
100
AcDbEntity
  8
STEMPEL
100
AcDbLine
 10
95.21302226573093
 20
636.9168332271446
 30
0.0
 11
87.21302226573092
 21
636.9168332271446
 31
0.0
  0
LINE
  5
1913
330
1E
100
AcDbEntity
  8
STEMPEL
100
AcDbLine
 10
73.2130222657307
 20
637.9168332271469
 30
0.0
 11
118.5701530114738
 21
637.9168332271464
 31
0.0
  0
LINE
  5
1915
330
1E
100
AcDbEntity
  8
STEMPEL
100
AcDbLine
 10
86.21302226573092
 20
617.9168332271439
 30
0.0
 11
61.21302226573092
 21
617.916833227144
 31
0.0
  0
LINE
  5
1917
102
{ACAD_REACTORS
330
189F
102
}
330
1E
100
AcDbEntity
  8
STEMPEL
100
AcDbLine
 10
345.213022265731
 20
617.916833227144
 30
0.0
 11
96.21302226573092
 21
617.9168332271439
 31
0.0
  0
LINE
  5
1919
330
1E
100
AcDbEntity
  8
STEMPEL
100
AcDbLine
 10
120.2752243310883
 20
672.916833227144
 30
0.0
 11
286.1508202003738
 21
672.9168332271442
 31
0.0
  0
HATCH
  5
191A
330
1E
100
AcDbEntity
  8
SCHRAFF
100
AcDbHatch
 10
0.0
 20
0.0
 30
0.0
210
0.0
220
0.0
230
1.0
  2
_USER
 70
     0
 71
     0
 91
        4
 92
        7
 72
     1
 73
     1
 93
        4
 10
61.2130222657311
 20
623.9168332271439
 42
1.0
 10
61.2130222657311
 20
617.916833227144
 42
0.0
 10
84.21302226573109
 20
617.916833227144
 42
0.0
 10
84.21302226573109
 20
623.9168332271439
 42
0.0
 97
        0
 92
        7
 72
     1
 73
     1
 93
        8
 10
98.21302226573109
 20
623.9168332271439
 42
0.0
 10
98.21302226573099
 20
617.916833227144
 42
0.0
 10
124.2130222657311
 20
617.9168332271437
 42
0.0
 10
122.2923799436849
 20
672.916833227144
 42
0.0
 10
120.2752243310883
 20
672.916833227144
 42
0.4040262258350415
 10
119.7755289175789
 20
672.4342829754952
 42
0.0
 10
118.1149642908013
 20
624.8819337304414
 42
-0.404026225835099
 10
117.1155734637823
 20
623.9168332271439
 42
0.0
 97
        0
 92
        7
 72
     1
 73
     1
 93
       19
 10
321.2130222657311
 20
617.916833227144
 42
0.0
 10
321.2130222657311
 20
620.9168332271445
 42
0.0
 10
321.7130222657311
 20
620.9168332271445
 42
0.0
 10
321.7130222657311
 20
623.9168332271445
 42
0.0
 10
321.2130222657311
 20
623.9168332271445
 42
0.0
 10
321.2130222657308
 20
631.9168332271445
 42
0.0
 10
321.7130222657311
 20
631.9168332271445
 42
0.0
 10
321.7130222657311
 20
634.9168332271444
 42
0.0
 10
321.2130222657308
 20
634.9168332271444
 42
0.0
 10
321.2130222657311
 20
637.916833227144
 42
0.0
 10
317.7130222657311
 20
637.916833227144
 42
0.0
 10
317.5544035169397
 20
628.8295711949579
 42
-0.4091108014277157
 10
312.5551650411578
 20
623.9168332271442
 42
0.0
 10
289.3104710676798
 20
623.9168332271442
 42
-0.4040262258351384
 10
288.3110802406609
 20
624.8819337304417
 42
0.0
 10
286.6505156138833
 20
672.4342829754952
 42
0.4040262258351858
 10
286.1508202003738
 20
672.9168332271442
 42
0.0
 10
284.1336645877773
 20
672.9168332271442
 42
0.0
 10
282.2130222657311
 20
617.916833227144
 42
0.0
 97
        0
 92
        7
 72
     1
 73
     1
 93
       15
 10
345.2130222657311
 20
617.916833227144
 42
1.0
 10
345.2130222657311
 20
623.9168332271439
 42
0.0
 10
337.8708794903046
 20
623.9168332271439
 42
-0.40911080142771
 10
332.8716410145227
 20
628.8295711949577
 42
0.0
 10
332.7130222657311
 20
637.916833227144
 42
0.0
 10
329.2130222657311
 20
637.916833227144
 42
0.0
 10
329.2130222657308
 20
634.9168332271444
 42
0.0
 10
328.7130222657311
 20
634.9168332271442
 42
0.0
 10
328.7130222657311
 20
631.9168332271442
 42
0.0
 10
329.2130222657308
 20
631.9168332271442
 42
0.0
 10
329.2130222657311
 20
623.9168332271447
 42
0.0
 10
328.7130222657312
 20
623.9168332271447
 42
0.0
 10
328.7130222657311
 20
620.9168332271445
 42
0.0
 10
329.2130222657312
 20
620.9168332271446
 42
0.0
 10
329.2130222657311
 20
617.916833227144
 42
0.0
 97
        0
 75
     0
 76
     0
 52
45.0
 41
5.0
 77
     0
 78
     1
 53
45.0
 43
-32.55442585657827
 44
115.5168057206821
 45
-3.535533905932737
 46
3.535533905932737
 79
     0
 47
0.4044218533258408
 98
        4
 10
77.66497799089941
 20
621.4680975961705
 10
105.9928714540456
 20
621.4680975961705
 10
301.8600258154356
 20
619.8504109962091
 10
333.8300779943402
 20
620.6592542961898
  0
LINE
  5
191B
330
1E
100
AcDbEntity
  8
TEXT
 62
     2
100
AcDbLine
 10
341.56988059094
 20
549.4242558697703
 30
0.0
 11
289.1411163754282
 21
613.6870750438284
 31
0.0
  0
LINE
  5
19B3
330
1E
100
AcDbEntity
  8
STEMPEL
100
AcDbLine
 10
53.21302226573113
 20
611.9168332271448
 30
0.0
 11
353.2130222657312
 21
611.9168332271438
 31
0.0
  0
LINE
  5
19B4
330
1E
100
AcDbEntity
  8
STEMPEL
100
AcDbLine
 10
53.21302226573101
 20
611.9168332271443
 30
0.0
 11
353.2130222657311
 21
611.9168332271443
 31
0.0
  0
LINE
  5
19B6
330
1E
100
AcDbEntity
  8
STEMPEL
100
AcDbLine
 10
123.213022265731
 20
611.9168332271443
 30
0.0
 11
123.213022265731
 21
613.9168332271443
 31
0.0
  0
LINE
  5
19B7
330
1E
100
AcDbEntity
  8
STEMPEL
100
AcDbLine
 10
123.213022265731
 20
615.9168332271439
 30
0.0
 11
123.213022265731
 21
617.9168332271439
 31
0.0
  0
LINE
  5
1A05
330
1E
100
AcDbEntity
  8
STEMPEL
100
AcDbLine
 10
53.21302226573081
 20
461.9168332271446
 30
0.0
 11
147.1284770278687
 21
461.9168332271443
 31
0.0
  0
LINE
  5
1A06
330
1E
100
AcDbEntity
  8
STEMPEL
100
AcDbLine
 10
53.2130222657307
 20
461.9168332271441
 30
0.0
 11
147.1284770278687
 21
461.9168332271441
 31
0.0
  0
LINE
  5
1A07
330
1E
100
AcDbEntity
  8
STEMPEL
100
AcDbLine
 10
96.2130222657309
 20
467.9168332271436
 30
0.0
 11
146.0814323639148
 21
467.9168332271436
 31
0.0
  0
LINE
  5
1A15
330
1E
100
AcDbEntity
  8
STEMPEL
100
AcDbLine
 10
259.2975675035932
 20
461.9168332271441
 30
0.0
 11
353.2130222657307
 21
461.9168332271441
 31
0.0
  0
LINE
  5
1A16
330
1E
100
AcDbEntity
  8
STEMPEL
100
AcDbLine
 10
259.2975675035932
 20
461.9168332271438
 30
0.0
 11
353.2130222657309
 21
461.9168332271436
 31
0.0
  0
LINE
  5
1A50
330
1E
100
AcDbEntity
  8
STEMPEL
100
AcDbLine
 10
353.2130222657311
 20
611.9168332271443
 30
0.0
 11
353.2130222657311
 21
614.9168332271443
 31
0.0
  0
LINE
  5
1A51
330
1E
100
AcDbEntity
  8
STEMPEL
100
AcDbLine
 10
353.2130222657312
 20
611.9168332271438
 30
0.0
 11
353.2130222657312
 21
614.9168332271443
 31
0.0
  0
HATCH
  5
1A52
330
1E
100
AcDbEntity
  8
SCHRAFF
100
AcDbHatch
 10
0.0
 20
0.0
 30
0.0
210
0.0
220
0.0
230
1.0
  2
NET
 70
     0
 71
     0
 91
        5
 92
        7
 72
     0
 73
     1
 93
        4
 10
353.2130222657311
 20
614.9168332271442
 10
339.418151607935
 20
614.9168332271442
 10
341.4250515217242
 20
611.9168332271442
 10
353.2130222657311
 20
611.9168332271442
 97
        0
 92
        7
 72
     0
 73
     1
 93
        4
 10
339.4181516079348
 20
614.9168332271442
 10
306.6875299069953
 20
614.9168332271442
 10
306.6875299069953
 20
611.9168332271443
 10
341.4250515217241
 20
611.9168332271442
 97
        0
 92
        7
 72
     0
 73
     1
 93
        4
 10
306.6875299069953
 20
614.9168332271442
 10
283.213022265731
 20
614.9168332271441
 10
283.213022265731
 20
611.9168332271443
 10
306.6875299069953
 20
611.9168332271443
 97
        0
 92
        7
 72
     0
 73
     1
 93
        4
 10
123.213022265731
 20
614.9168332271443
 10
99.21302226573136
 20
614.9168332271443
 10
99.21302226573134
 20
611.9168332271443
 10
123.213022265731
 20
611.9168332271442
 97
        0
 92
        7
 72
     0
 73
     1
 93
        4
 10
83.213022265731
 20
614.9168332271443
 10
53.21302226573101
 20
614.9168332271444
 10
53.21302226573101
 20
611.9168332271443
 10
83.213022265731
 20
611.9168332271443
 97
        0
 75
     0
 76
     1
 52
45.0
 41
15.0
 77
     0
 78
     2
 53
45.0
 43
0.0
 44
0.0
 45
-1.325825214724776
 46
1.325825214724776
 79
     0
 53
135.0
 43
0.0
 44
0.0
 45
-1.325825214724776
 46
-1.325825214724776
 79
     0
 47
0.3408066115903065
 98
        5
 10
344.0969772111216
 20
613.7726488405558
 10
335.9148431857402
 20
613.7726488405558
 10
297.7315501886251
 20
613.7726488405558
 10
109.5424676048551
 20
613.0910351450186
 10
77.49577710378116
 20
613.7726488405558
  0
LINE
  5
1A53
330
1E
100
AcDbEntity
  8
STEMPEL
100
AcDbLine
 10
96.21302226573121
 20
614.9168332271443
 30
0.0
 11
353.2130222657311
 21
614.9168332271443
 31
0.0
  0
LINE
  5
1A54
330
1E
100
AcDbEntity
  8
STEMPEL
100
AcDbLine
 10
311.6875299069954
 20
617.9168332271439
 30
0.0
 11
311.6875299069954
 21
614.9168332271443
 31
0.0
  0
LINE
  5
1A55
330
1E
100
AcDbEntity
  8
HILF
100
AcDbLine
 10
310.6875299069953
 20
617.9168332271439
 30
0.0
 11
310.6875299069953
 21
614.9168332271443
 31
0.0
  0
LINE
  5
1A56
330
1E
100
AcDbEntity
  8
STEMPEL
100
AcDbLine
 10
301.6875299069955
 20
617.9168332271439
 30
0.0
 11
301.6875299069953
 21
614.9168332271444
 31
0.0
  0
LINE
  5
1A57
330
1E
100
AcDbEntity
  8
HILF
100
AcDbLine
 10
302.6875299069953
 20
617.9168332271439
 30
0.0
 11
302.6875299069952
 21
614.9168332271444
 31
0.0
  0
LINE
  5
1A58
330
1E
100
AcDbEntity
  8
STEMPEL
100
AcDbLine
 10
283.213022265731
 20
611.9168332271443
 30
0.0
 11
283.213022265731
 21
614.9168332271443
 31
0.0
  0
LINE
  5
1A59
330
1E
100
AcDbEntity
  8
HILF
100
AcDbLine
 10
221.8319557943769
 20
617.9168332271439
 30
0.0
 11
221.831955794377
 21
614.9168332271443
 31
0.0
  0
LINE
  5
1A5A
330
1E
100
AcDbEntity
  8
STEMPEL
100
AcDbLine
 10
222.831955794377
 20
617.9168332271439
 30
0.0
 11
222.831955794377
 21
614.9168332271443
 31
0.0
  0
LINE
  5
1A5B
330
1E
100
AcDbEntity
  8
HILF
100
AcDbLine
 10
213.831955794377
 20
617.9168332271439
 30
0.0
 11
213.831955794377
 21
614.9168332271443
 31
0.0
  0
LINE
  5
1A5C
330
1E
100
AcDbEntity
  8
STEMPEL
100
AcDbLine
 10
212.831955794377
 20
617.9168332271439
 30
0.0
 11
212.831955794377
 21
614.9168332271443
 31
0.0
  0
LINE
  5
1A5D
330
1E
100
AcDbEntity
  8
STEMPEL
100
AcDbLine
 10
152.2130222657312
 20
617.9168332271436
 30
0.0
 11
152.2130222657313
 21
614.9168332271444
 31
0.0
  0
LINE
  5
1A5E
330
1E
100
AcDbEntity
  8
HILF
100
AcDbLine
 10
151.2130222657313
 20
617.9168332271437
 30
0.0
 11
151.2130222657313
 21
614.9168332271443
 31
0.0
  0
LINE
  5
1A5F
330
1E
100
AcDbEntity
  8
HILF
100
AcDbLine
 10
143.2130222657312
 20
617.9168332271436
 30
0.0
 11
143.2130222657313
 21
614.9168332271444
 31
0.0
  0
LINE
  5
1A60
330
1E
100
AcDbEntity
  8
STEMPEL
100
AcDbLine
 10
142.2130222657312
 20
617.9168332271436
 30
0.0
 11
142.2130222657313
 21
614.9168332271444
 31
0.0
  0
LINE
  5
1A61
330
1E
100
AcDbEntity
  8
STEMPEL
100
AcDbLine
 10
99.21302226573136
 20
611.9168332271442
 30
0.0
 11
99.21302226573136
 21
614.9168332271442
 31
0.0
  0
LINE
  5
1A62
330
1E
100
AcDbEntity
  8
STEMPEL
100
AcDbLine
 10
123.213022265731
 20
611.9168332271443
 30
0.0
 11
123.213022265731
 21
614.9168332271443
 31
0.0
  0
LINE
  5
1A63
330
1E
100
AcDbEntity
  8
STEMPEL
100
AcDbLine
 10
53.21302226573101
 20
614.9168332271443
 30
0.0
 11
86.21302226573121
 21
614.9168332271443
 31
0.0
  0
LINE
  5
1A64
330
1E
100
AcDbEntity
  8
STEMPEL
100
AcDbLine
 10
83.213022265731
 20
611.9168332271442
 30
0.0
 11
83.213022265731
 21
614.9168332271442
 31
0.0
  0
LINE
  5
1A65
330
1E
100
AcDbEntity
  8
STEMPEL
100
AcDbLine
 10
53.21302226573101
 20
611.9168332271443
 30
0.0
 11
53.21302226573101
 21
614.9168332271443
 31
0.0
  0
LINE
  5
1A66
330
1E
100
AcDbEntity
  8
STEMPEL
100
AcDbLine
 10
53.21302226573113
 20
611.9168332271438
 30
0.0
 11
53.21302226573113
 21
614.9168332271442
 31
0.0
  0
LINE
  5
1A67
330
1E
100
AcDbEntity
  8
STEMPEL
100
AcDbLine
 10
353.2130222657307
 20
461.9168332271441
 30
0.0
 11
353.2130222657307
 21
464.9168332271441
 31
0.0
  0
LINE
  5
1A68
330
1E
100
AcDbEntity
  8
STEMPEL
100
AcDbLine
 10
353.2130222657309
 20
461.9168332271437
 30
0.0
 11
353.2130222657309
 21
463.9168332271442
 31
0.0
  0
LINE
  5
1A69
330
1E
100
AcDbEntity
  8
STEMPEL
100
AcDbLine
 10
258.3672204990674
 20
464.9168332271441
 30
0.0
 11
353.2130222657307
 21
464.9168332271441
 31
0.0
  0
LINE
  5
1A6A
330
1E
100
AcDbEntity
  8
STEMPEL
100
AcDbLine
 10
311.6875299069951
 20
467.9168332271437
 30
0.0
 11
311.6875299069952
 21
464.9168332271441
 31
0.0
  0
LINE
  5
1A6B
330
1E
100
AcDbEntity
  8
HILF
100
AcDbLine
 10
310.687529906995
 20
467.9168332271437
 30
0.0
 11
310.687529906995
 21
464.9168332271441
 31
0.0
  0
LINE
  5
1A6C
330
1E
100
AcDbEntity
  8
STEMPEL
100
AcDbLine
 10
301.6875299069952
 20
467.9168332271437
 30
0.0
 11
301.6875299069951
 21
464.9168332271441
 31
0.0
  0
LINE
  5
1A6D
330
1E
100
AcDbEntity
  8
HILF
100
AcDbLine
 10
302.6875299069951
 20
467.9168332271437
 30
0.0
 11
302.687529906995
 21
464.9168332271441
 31
0.0
  0
LINE
  5
1A6E
330
1E
100
AcDbEntity
  8
STEMPEL
100
AcDbLine
 10
283.2130222657307
 20
461.9168332271441
 30
0.0
 11
283.2130222657307
 21
464.9168332271441
 31
0.0
  0
LINE
  5
1A6F
330
1E
100
AcDbEntity
  8
HILF
100
AcDbLine
 10
143.2130222657309
 20
467.9168332271436
 30
0.0
 11
143.213022265731
 21
464.9168332271441
 31
0.0
  0
LINE
  5
1A70
330
1E
100
AcDbEntity
  8
STEMPEL
100
AcDbLine
 10
142.213022265731
 20
467.9168332271436
 30
0.0
 11
142.213022265731
 21
464.9168332271441
 31
0.0
  0
LINE
  5
1A71
330
1E
100
AcDbEntity
  8
STEMPEL
100
AcDbLine
 10
123.2130222657307
 20
461.9168332271441
 30
0.0
 11
123.2130222657307
 21
464.9168332271441
 31
0.0
  0
HATCH
  5
1A72
330
1E
100
AcDbEntity
  8
SCHRAFF
100
AcDbHatch
 10
0.0
 20
0.0
 30
0.0
210
0.0
220
0.0
230
1.0
  2
NET
 70
     0
 71
     0
 91
        5
 92
        7
 72
     0
 73
     1
 93
        4
 10
353.2130222657307
 20
464.9168332271441
 10
339.4181516079347
 20
464.916833227144
 10
341.4250515217242
 20
461.9168332271437
 10
353.2130222657308
 20
461.9168332271437
 97
        0
 92
        7
 72
     0
 73
     1
 93
        4
 10
339.4181516079348
 20
464.9168332271441
 10
306.6875299069949
 20
464.9168332271442
 10
306.6875299069949
 20
461.9168332271438
 10
341.4250515217241
 20
461.9168332271437
 97
        0
 92
        7
 72
     0
 73
     1
 93
        4
 10
306.6875299069949
 20
464.9168332271441
 10
283.2130222657308
 20
464.9168332271441
 10
283.2130222657307
 20
461.9168332271438
 10
306.6875299069949
 20
461.9168332271438
 97
        0
 92
        7
 72
     0
 73
     1
 93
        4
 10
123.2130222657307
 20
464.9168332271441
 10
99.21302226573107
 20
464.9168332271442
 10
99.21302226573105
 20
461.9168332271441
 10
123.2130222657307
 20
461.9168332271442
 97
        0
 92
        7
 72
     0
 73
     1
 93
        4
 10
83.2130222657307
 20
464.9168332271441
 10
53.2130222657307
 20
464.9168332271442
 10
53.2130222657307
 20
461.9168332271441
 10
83.2130222657307
 20
461.9168332271441
 97
        0
 75
     0
 76
     1
 52
45.0
 41
15.0
 77
     0
 78
     2
 53
45.0
 43
0.0
 44
0.0
 45
-1.325825214724776
 46
1.325825214724776
 79
     0
 53
135.0
 43
0.0
 44
0.0
 45
-1.325825214724776
 46
-1.325825214724776
 79
     0
 47
0.3328781063554322
 98
        5
 10
348.0716578882525
 20
462.4155818854362
 10
311.7756331465807
 20
463.7470946213396
 10
300.7869284082767
 20
463.7470946213396
 10
116.6428762785108
 20
462.7484605623346
 10
77.01694101008024
 20
463.4142159444406
  0
LINE
  5
1A73
330
1E
100
AcDbEntity
  8
STEMPEL
100
AcDbLine
 10
96.2130222657309
 20
464.9168332271441
 30
0.0
 11
148.0588240323944
 21
464.9168332271441
 31
0.0
  0
LINE
  5
1A74
330
1E
100
AcDbEntity
  8
STEMPEL
100
AcDbLine
 10
99.21302226573104
 20
461.916833227144
 30
0.0
 11
99.21302226573105
 21
464.9168332271441
 31
0.0
  0
LINE
  5
1A75
330
1E
100
AcDbEntity
  8
STEMPEL
100
AcDbLine
 10
53.2130222657307
 20
464.9168332271441
 30
0.0
 11
86.2130222657309
 21
464.9168332271441
 31
0.0
  0
LINE
  5
1A76
330
1E
100
AcDbEntity
  8
STEMPEL
100
AcDbLine
 10
83.2130222657307
 20
461.916833227144
 30
0.0
 11
83.2130222657307
 21
464.9168332271441
 31
0.0
  0
LINE
  5
1A77
330
1E
100
AcDbEntity
  8
STEMPEL
100
AcDbLine
 10
53.2130222657307
 20
461.9168332271441
 30
0.0
 11
53.2130222657307
 21
464.9168332271441
 31
0.0
  0
LINE
  5
1A78
330
1E
100
AcDbEntity
  8
STEMPEL
100
AcDbLine
 10
53.21302226573081
 20
461.9168332271437
 30
0.0
 11
53.21302226573081
 21
463.9168332271441
 31
0.0
  0
ENDSEC
  0
SECTION
  2
OBJECTS
  0
DICTIONARY
  5
C
330
0
100
AcDbDictionary
281
     1
  3
ACAD_COLOR
350
11A
  3
ACAD_GROUP
350
D
  3
ACAD_LAYOUT
350
19
  3
ACAD_MATERIAL
350
119
  3
ACAD_MLINESTYLE
350
16
  3
ACAD_PLOTSETTINGS
350
18
  3
ACAD_PLOTSTYLENAME
350
E
  3
AcDbVariableDictionary
350
125
  0
DICTIONARY
  5
DB
330
1E
100
AcDbDictionary
280
     1
281
     1
  3
ACAD_LAYOUTSELFREF
360
10F
  0
DICTIONARY
  5
DD
330
1A
100
AcDbDictionary
280
     1
281
     1
  3
ACAD_LAYOUTSELFREF
360
10E
  0
DICTIONARY
  5
11A
102
{ACAD_REACTORS
330
C
102
}
330
C
100
AcDbDictionary
281
     1
  0
DICTIONARY
  5
D
102
{ACAD_REACTORS
330
C
102
}
330
C
100
AcDbDictionary
281
     1
  0
DICTIONARY
  5
19
102
{ACAD_REACTORS
330
C
102
}
330
C
100
AcDbDictionary
281
     1
  3
Layout1
350
1D
  3
Model
350
21
  0
DICTIONARY
  5
119
102
{ACAD_REACTORS
330
C
102
}
330
C
100
AcDbDictionary
281
     1
  0
DICTIONARY
  5
16
102
{ACAD_REACTORS
330
C
102
}
330
C
100
AcDbDictionary
281
     1
  3
Standard
350
17
  0
DICTIONARY
  5
18
102
{ACAD_REACTORS
330
C
102
}
330
C
100
AcDbDictionary
281
     1
  0
ACDBDICTIONARYWDFLT
  5
E
102
{ACAD_REACTORS
330
C
102
}
330
C
100
AcDbDictionary
281
     1
  3
Normal
350
F
100
AcDbDictionaryWithDefault
340
F
  0
DICTIONARY
  5
125
102
{ACAD_REACTORS
330
C
102
}
330
C
100
AcDbDictionary
281
     1
  3
DIMASSOC
350
126
  3
PROJECTNAME
350
127
  0
XRECORD
  5
10F
102
{ACAD_REACTORS
330
DB
102
}
330
DB
100
AcDbXrecord
280
     1
340
1E
  0
XRECORD
  5
10E
102
{ACAD_REACTORS
330
DD
102
}
330
DD
100
AcDbXrecord
280
     1
340
1A
  0
LAYOUT
  5
1D
102
{ACAD_REACTORS
330
19
102
}
330
19
100
AcDbPlotSettings
  1

  2
\\NT_WORK01\HP LaserJet 5000 PCL 6
  4

  6

 40
0.0
 41
0.0
 42
0.0
 43
0.0
 44
0.0
 45
0.0
 46
0.0
 47
0.0
 48
0.0
 49
0.0
140
0.0
141
0.0
142
1.0
143
1.0
 70
   688
 72
     0
 73
     0
 74
     5
  7

 75
    16
147
1.0
 76
     0
 77
     2
 78
   300
148
0.0
149
0.0
100
AcDbLayout
  1
Layout1
 70
     0
 71
     1
 10
0.0
 20
0.0
 11
12.0
 21
9.0
 12
0.0
 22
0.0
 32
0.0
 14
1.000000000000000E+20
 24
1.000000000000000E+20
 34
1.000000000000000E+20
 15
-1.000000000000000E+20
 25
-1.000000000000000E+20
 35
-1.000000000000000E+20
146
0.0
 13
0.0
 23
0.0
 33
0.0
 16
1.0
 26
0.0
 36
0.0
 17
0.0
 27
1.0
 37
0.0
 76
     0
330
1A
  0
LAYOUT
  5
21
102
{ACAD_REACTORS
330
19
102
}
330
19
100
AcDbPlotSettings
  1

  2
none_device
  4
Letter_(8.50_x_11.00_Inches)
  6

 40
6.349999904632568
 41
6.349999904632568
 42
6.350006103515625
 43
6.350006103515625
 44
215.8999938964844
 45
279.3999938964844
 46
0.0
 47
0.0
 48
0.0
 49
0.0
140
0.0
141
0.0
142
1.0
143
1.0
 70
 11952
 72
     0
 73
     1
 74
     0
  7

 75
     0
147
1.0
 76
     0
 77
     2
 78
   300
148
3124.2
149
0.0
100
AcDbLayout
  1
Model
 70
     1
 71
     0
 10
0.0
 20
0.0
 11
12.0
 21
9.0
 12
0.0
 22
0.0
 32
0.0
 14
0.0
 24
0.0
 34
0.0
 15
0.0
 25
0.0
 35
0.0
146
0.0
 13
0.0
 23
0.0
 33
0.0
 16
1.0
 26
0.0
 36
0.0
 17
0.0
 27
1.0
 37
0.0
 76
     0
330
1E
  0
MLINESTYLE
  5
17
102
{ACAD_REACTORS
330
16
102
}
330
16
100
AcDbMlineStyle
  2
STANDARD
 70
     0
  3

 62
   256
 51
90.0
 52
90.0
 71
     2
 49
0.5
 62
   256
  6
BYLAYER
 49
-0.5
 62
   256
  6
BYLAYER
  0
ACDBPLACEHOLDER
  5
F
102
{ACAD_REACTORS
330
E
102
}
330
E
  0
DICTIONARYVAR
  5
126
102
{ACAD_REACTORS
330
125
102
}
330
125
100
DictionaryVariables
280
     0
  1
1
  0
DICTIONARYVAR
  5
127
102
{ACAD_REACTORS
330
125
102
}
330
125
100
DictionaryVariables
280
     0
  1

  0
ENDSEC
  0
EOF
