  0
SECTION
  2
HEADER
  9
$ACADVER
  1
AC1018
  9
$ACADMAINTVER
 70
     2
  9
$DWGCODEPAGE
  3
ANSI_1252
  9
$INSBASE
 10
0.0
 20
0.0
 30
0.0
  9
$EXTMIN
 10
0.0
 20
-0.0000000000003411
 30
0.0
  9
$EXTMAX
 10
1050.0
 20
742.4999999999999
 30
0.0
  9
$LIMMIN
 10
0.0
 20
0.0
  9
$LIMMAX
 10
1050.0
 20
742.4999999999997
  9
$ORTHOMODE
 70
     1
  9
$REGENMODE
 70
     1
  9
$FILLMODE
 70
     1
  9
$QTEXTMODE
 70
     0
  9
$MIRRTEXT
 70
     1
  9
$LTSCALE
 40
25.0
  9
$ATTMODE
 70
     1
  9
$TEXTSIZE
 40
3.5
  9
$TRACEWID
 40
1.0
  9
$TEXTSTYLE
  7
STANDARD
  9
$CLAYER
  8
BEM
  9
$CELTYPE
  6
ByLayer
  9
$CECOLOR
 62
   256
  9
$CELTSCALE
 40
1.0
  9
$DISPSILH
 70
     0
  9
$DIMSCALE
 40
2.5
  9
$DIMASZ
 40
3.5
  9
$DIMEXO
 40
1.0
  9
$DIMDLI
 40
7.0
  9
$DIMRND
 40
0.0
  9
$DIMDLE
 40
0.0
  9
$DIMEXE
 40
1.0
  9
$DIMTP
 40
0.0
  9
$DIMTM
 40
0.0
  9
$DIMTXT
 40
3.5
  9
$DIMCEN
 40
1.5
  9
$DIMTSZ
 40
0.0
  9
$DIMTOL
 70
     0
  9
$DIMLIM
 70
     0
  9
$DIMTIH
 70
     0
  9
$DIMTOH
 70
     0
  9
$DIMSE1
 70
     0
  9
$DIMSE2
 70
     0
  9
$DIMTAD
 70
     1
  9
$DIMZIN
 70
     8
  9
$DIMBLK
  1

  9
$DIMASO
 70
     1
  9
$DIMSHO
 70
     0
  9
$DIMPOST
  1

  9
$DIMAPOST
  1

  9
$DIMALT
 70
     0
  9
$DIMALTD
 70
     2
  9
$DIMALTF
 40
25.4
  9
$DIMLFAC
 40
1.0
  9
$DIMTOFL
 70
     1
  9
$DIMTVP
 40
0.0
  9
$DIMTIX
 70
     0
  9
$DIMSOXD
 70
     0
  9
$DIMSAH
 70
     0
  9
$DIMBLK1
  1

  9
$DIMBLK2
  1

  9
$DIMSTYLE
  2
Standard
  9
$DIMCLRD
 70
     0
  9
$DIMCLRE
 70
     0
  9
$DIMCLRT
 70
     1
  9
$DIMTFAC
 40
0.5142857142857144
  9
$DIMGAP
 40
1.5
  9
$DIMJUST
 70
     0
  9
$DIMSD1
 70
     0
  9
$DIMSD2
 70
     0
  9
$DIMTOLJ
 70
     1
  9
$DIMTZIN
 70
     8
  9
$DIMALTZ
 70
     8
  9
$DIMALTTZ
 70
     8
  9
$DIMUPT
 70
     0
  9
$DIMDEC
 70
     2
  9
$DIMTDEC
 70
     2
  9
$DIMALTU
 70
     2
  9
$DIMALTTD
 70
     2
  9
$DIMTXSTY
  7
STANDARD
  9
$DIMAUNIT
 70
     0
  9
$DIMADEC
 70
     2
  9
$DIMALTRND
 40
0.0
  9
$DIMAZIN
 70
     2
  9
$DIMDSEP
 70
    46
  9
$DIMATFIT
 70
     3
  9
$DIMFRAC
 70
     0
  9
$DIMLDRBLK
  1

  9
$DIMLUNIT
 70
     2
  9
$DIMLWD
 70
    -2
  9
$DIMLWE
 70
    -2
  9
$DIMTMOVE
 70
     0
  9
$LUNITS
 70
     2
  9
$LUPREC
 70
     2
  9
$SKETCHINC
 40
1.0
  9
$FILLETRAD
 40
0.0
  9
$AUNITS
 70
     0
  9
$AUPREC
 70
     0
  9
$MENU
  1
ACAD
  9
$ELEVATION
 40
0.0
  9
$PELEVATION
 40
0.0
  9
$THICKNESS
 40
0.0
  9
$LIMCHECK
 70
     0
  9
$CHAMFERA
 40
0.0
  9
$CHAMFERB
 40
0.0
  9
$CHAMFERC
 40
0.0
  9
$CHAMFERD
 40
0.0
  9
$SKPOLY
 70
     0
  9
$TDCREATE
 40
2455397.825393172
  9
$TDUCREATE
 40
2455397.783726505
  9
$TDUPDATE
 40
2455502.407376262
  9
$TDUUPDATE
 40
2455502.365709595
  9
$TDINDWG
 40
0.7644382755
  9
$TDUSRTIMER
 40
0.7644382755
  9
$USRTIMER
 70
     1
  9
$ANGBASE
 50
0.0
  9
$ANGDIR
 70
     0
  9
$PDMODE
 70
     0
  9
$PDSIZE
 40
0.0
  9
$PLINEWID
 40
0.0
  9
$SPLFRAME
 70
     0
  9
$SPLINETYPE
 70
     6
  9
$SPLINESEGS
 70
     8
  9
$HANDSEED
  5
792D
  9
$SURFTAB1
 70
     6
  9
$SURFTAB2
 70
     6
  9
$SURFTYPE
 70
     6
  9
$SURFU
 70
     6
  9
$SURFV
 70
     6
  9
$UCSBASE
  2

  9
$UCSNAME
  2

  9
$UCSORG
 10
0.0
 20
0.0
 30
0.0
  9
$UCSXDIR
 10
1.0
 20
0.0
 30
0.0
  9
$UCSYDIR
 10
0.0
 20
1.0
 30
0.0
  9
$UCSORTHOREF
  2

  9
$UCSORTHOVIEW
 70
     0
  9
$UCSORGTOP
 10
0.0
 20
0.0
 30
0.0
  9
$UCSORGBOTTOM
 10
0.0
 20
0.0
 30
0.0
  9
$UCSORGLEFT
 10
0.0
 20
0.0
 30
0.0
  9
$UCSORGRIGHT
 10
0.0
 20
0.0
 30
0.0
  9
$UCSORGFRONT
 10
0.0
 20
0.0
 30
0.0
  9
$UCSORGBACK
 10
0.0
 20
0.0
 30
0.0
  9
$PUCSBASE
  2

  9
$PUCSNAME
  2

  9
$PUCSORG
 10
0.0
 20
0.0
 30
0.0
  9
$PUCSXDIR
 10
1.0
 20
0.0
 30
0.0
  9
$PUCSYDIR
 10
0.0
 20
1.0
 30
0.0
  9
$PUCSORTHOREF
  2

  9
$PUCSORTHOVIEW
 70
     0
  9
$PUCSORGTOP
 10
0.0
 20
0.0
 30
0.0
  9
$PUCSORGBOTTOM
 10
0.0
 20
0.0
 30
0.0
  9
$PUCSORGLEFT
 10
0.0
 20
0.0
 30
0.0
  9
$PUCSORGRIGHT
 10
0.0
 20
0.0
 30
0.0
  9
$PUCSORGFRONT
 10
0.0
 20
0.0
 30
0.0
  9
$PUCSORGBACK
 10
0.0
 20
0.0
 30
0.0
  9
$USERI1
 70
     0
  9
$USERI2
 70
     0
  9
$USERI3
 70
     0
  9
$USERI4
 70
     0
  9
$USERI5
 70
     0
  9
$USERR1
 40
0.0
  9
$USERR2
 40
0.0
  9
$USERR3
 40
0.0
  9
$USERR4
 40
0.0
  9
$USERR5
 40
0.0
  9
$WORLDVIEW
 70
     1
  9
$SHADEDGE
 70
     3
  9
$SHADEDIF
 70
    70
  9
$TILEMODE
 70
     1
  9
$MAXACTVP
 70
    16
  9
$PINSBASE
 10
0.0
 20
0.0
 30
0.0
  9
$PLIMCHECK
 70
     0
  9
$PEXTMIN
 10
1.000000000000000E+20
 20
1.000000000000000E+20
 30
1.000000000000000E+20
  9
$PEXTMAX
 10
-1.000000000000000E+20
 20
-1.000000000000000E+20
 30
-1.000000000000000E+20
  9
$PLIMMIN
 10
0.0
 20
0.0
  9
$PLIMMAX
 10
12.0
 20
9.0
  9
$UNITMODE
 70
     0
  9
$VISRETAIN
 70
     0
  9
$PLINEGEN
 70
     0
  9
$PSLTSCALE
 70
     0
  9
$TREEDEPTH
 70
  3020
  9
$CMLSTYLE
  2
Standard
  9
$CMLJUST
 70
     0
  9
$CMLSCALE
 40
1.0
  9
$PROXYGRAPHICS
 70
     1
  9
$MEASUREMENT
 70
     0
  9
$CELWEIGHT
370
    -1
  9
$ENDCAPS
280
     0
  9
$JOINSTYLE
280
     0
  9
$LWDISPLAY
290
     0
  9
$INSUNITS
 70
     0
  9
$HYPERLINKBASE
  1

  9
$STYLESHEET
  1
monochrome 1.ctb
  9
$XEDIT
290
     1
  9
$CEPSNTYPE
380
     0
  9
$PSTYLEMODE
290
     1
  9
$FINGERPRINTGUID
  2
{D68B0D0D-A558-11D7-B632-000102183313}
  9
$VERSIONGUID
  2
{CB4ED0AE-E0F8-4EFB-914F-7E008DD9D91A}
  9
$EXTNAMES
290
     1
  9
$PSVPSCALE
 40
0.0
  9
$OLESTARTUP
290
     0
  9
$SORTENTS
280
   127
  9
$INDEXCTL
280
     0
  9
$HIDETEXT
280
     0
  9
$XCLIPFRAME
290
     0
  9
$HALOGAP
280
     0
  9
$OBSCOLOR
 70
   257
  9
$OBSLTYPE
280
     0
  9
$INTERSECTIONDISPLAY
280
     0
  9
$INTERSECTIONCOLOR
 70
   257
  9
$DIMASSOC
280
     1
  9
$PROJECTNAME
  1

  0
ENDSEC
  0
SECTION
  2
CLASSES
  0
CLASS
  1
ACDBDICTIONARYWDFLT
  2
AcDbDictionaryWithDefault
  3
ObjectDBX Classes
 90
        0
 91
        1
280
     0
281
     0
  0
CLASS
  1
DICTIONARYVAR
  2
AcDbDictionaryVar
  3
ObjectDBX Classes
 90
        0
 91
        2
280
     0
281
     0
  0
ENDSEC
  0
SECTION
  2
TABLES
  0
TABLE
  2
VPORT
  5
8
330
0
100
AcDbSymbolTable
 70
     2
  0
VPORT
  5
792C
330
8
100
AcDbSymbolTableRecord
100
AcDbViewportTableRecord
  2
*Active
 70
     0
 10
0.0
 20
0.0
 11
1.0
 21
1.0
 12
524.9948055336492
 22
371.2427283038766
 13
0.0
 23
0.0
 14
1.0
 24
1.0
 15
10.0
 25
10.0
 16
0.0
 26
0.0
 36
1.0
 17
0.0
 27
0.0
 37
0.0
 40
790.4065739859539
 41
1.336927223719676
 42
50.0
 43
0.0
 44
0.0
 50
0.0
 51
0.0
 71
     0
 72
  1500
 73
     1
 74
     0
 75
     0
 76
     0
 77
     0
 78
     0
281
     0
 65
     1
110
0.0
120
0.0
130
0.0
111
1.0
121
0.0
131
0.0
112
0.0
122
1.0
132
0.0
 79
     0
146
0.0
  0
ENDTAB
  0
TABLE
  2
LTYPE
  5
5
330
0
100
AcDbSymbolTable
 70
     2
  0
LTYPE
  5
13
330
5
100
AcDbSymbolTableRecord
100
AcDbLinetypeTableRecord
  2
ByBlock
 70
     0
  3

 72
    65
 73
     0
 40
0.0
  0
LTYPE
  5
14
330
5
100
AcDbSymbolTableRecord
100
AcDbLinetypeTableRecord
  2
ByLayer
 70
     0
  3

 72
    65
 73
     0
 40
0.0
  0
LTYPE
  5
15
330
5
100
AcDbSymbolTableRecord
100
AcDbLinetypeTableRecord
  2
Continuous
 70
     0
  3
Solid line
 72
    65
 73
     0
 40
0.0
  0
LTYPE
  5
25
330
5
100
AcDbSymbolTableRecord
100
AcDbLinetypeTableRecord
  2
STRICHPUNKT
 70
     0
  3
__ . __ . __ . __ . __ . __ . __ . __ . __ . __
 72
    65
 73
     4
 40
1.0
 49
0.5
 74
     0
 49
-0.25
 74
     0
 49
0.0
 74
     0
 49
-0.25
 74
     0
  0
ENDTAB
  0
TABLE
  2
LAYER
  5
2
330
0
100
AcDbSymbolTable
 70
     9
  0
LAYER
  5
10
330
2
100
AcDbSymbolTableRecord
100
AcDbLayerTableRecord
  2
0
 70
     0
 62
     7
  6
Continuous
370
    -3
390
F
  0
LAYER
  5
2B
330
2
100
AcDbSymbolTableRecord
100
AcDbLayerTableRecord
  2
VOLL
 70
     0
 62
     1
  6
Continuous
370
    -3
390
F
  0
LAYER
  5
2C
330
2
100
AcDbSymbolTableRecord
100
AcDbLayerTableRecord
  2
HILF
 70
     0
 62
     2
  6
Continuous
370
    -3
390
F
  0
LAYER
  5
2D
330
2
100
AcDbSymbolTableRecord
100
AcDbLayerTableRecord
  2
MITTEL
 70
     0
 62
     2
  6
STRICHPUNKT
370
    -3
390
F
  0
LAYER
  5
2F
330
2
100
AcDbSymbolTableRecord
100
AcDbLayerTableRecord
  2
BEM
 70
     0
 62
     7
  6
Continuous
370
    -3
390
F
  0
LAYER
  5
30
330
2
100
AcDbSymbolTableRecord
100
AcDbLayerTableRecord
  2
STEMPEL
 70
     0
 62
     3
  6
Continuous
370
    -3
390
F
  0
LAYER
  5
33
330
2
100
AcDbSymbolTableRecord
100
AcDbLayerTableRecord
  2
TEXT
 70
     0
 62
     7
  6
Continuous
370
    -3
390
F
  0
LAYER
  5
5C9D
330
2
100
AcDbSymbolTableRecord
100
AcDbLayerTableRecord
  2
Defpoints
 70
     0
 62
     7
  6
Continuous
290
     0
370
    -3
390
F
  0
LAYER
  5
5D7A
330
2
100
AcDbSymbolTableRecord
100
AcDbLayerTableRecord
  2
SCHRAFF
 70
     0
 62
     7
  6
Continuous
370
    -3
390
F
  0
ENDTAB
  0
TABLE
  2
STYLE
  5
3
330
0
100
AcDbSymbolTable
 70
     2
  0
STYLE
  5
11
330
3
100
AcDbSymbolTableRecord
100
AcDbTextStyleTableRecord
  2
STANDARD
 70
     0
 40
0.0
 41
0.8
 50
0.0
 71
     0
 42
3.5
  3
simplex.shx
  4

  0
STYLE
  5
24
330
3
100
AcDbSymbolTableRecord
100
AcDbTextStyleTableRecord
  2
GREEKS
 70
     0
 40
0.0
 41
0.8
 50
0.0
 71
     0
 42
2.5
  3
SIMPLEX.shx
  4

  0
ENDTAB
  0
TABLE
  2
VIEW
  5
6
330
0
100
AcDbSymbolTable
 70
     0
  0
ENDTAB
  0
TABLE
  2
UCS
  5
7
330
0
100
AcDbSymbolTable
 70
     0
  0
ENDTAB
  0
TABLE
  2
APPID
  5
9
330
0
100
AcDbSymbolTable
 70
     1
  0
APPID
  5
12
330
9
100
AcDbSymbolTableRecord
100
AcDbRegAppTableRecord
  2
ACAD
 70
     0
  0
ENDTAB
  0
TABLE
  2
DIMSTYLE
  5
A
330
0
100
AcDbSymbolTable
 70
     1
100
AcDbDimStyleTable
 71
     1
340
A2
  0
DIMSTYLE
105
A2
102
{ACAD_REACTORS
330
7659
330
76D5
330
772B
330
7738
330
7757
330
7764
330
7783
330
77A2
330
77B8
102
}
330
A
100
AcDbSymbolTableRecord
100
AcDbDimStyleTableRecord
  2
Standard
 70
     0
340
11
  0
ENDTAB
  0
TABLE
  2
BLOCK_RECORD
  5
1
330
0
100
AcDbSymbolTable
 70
    11
  0
BLOCK_RECORD
  5
1E
102
{ACAD_XDICTIONARY
360
DB
102
}
330
1
100
AcDbSymbolTableRecord
100
AcDbBlockTableRecord
  2
*Model_Space
340
21
  0
BLOCK_RECORD
  5
1A
102
{ACAD_XDICTIONARY
360
DD
102
}
330
1
100
AcDbSymbolTableRecord
100
AcDbBlockTableRecord
  2
*Paper_Space
340
1D
  0
BLOCK_RECORD
  5
22
330
1
100
AcDbSymbolTableRecord
100
AcDbBlockTableRecord
  2
LOGO
340
0
102
{BLKREFS
331
56
102
}
  0
BLOCK_RECORD
  5
23
330
1
100
AcDbSymbolTableRecord
100
AcDbBlockTableRecord
  2
LORO
340
0
102
{BLKREFS
331
9B
102
}
  0
BLOCK_RECORD
  5
76F9
330
1
100
AcDbSymbolTableRecord
100
AcDbBlockTableRecord
  2
*D2
340
0
  0
BLOCK_RECORD
  5
7705
330
1
100
AcDbSymbolTableRecord
100
AcDbBlockTableRecord
  2
*D3
340
0
  0
BLOCK_RECORD
  5
772C
330
1
100
AcDbSymbolTableRecord
100
AcDbBlockTableRecord
  2
*D4
340
0
  0
BLOCK_RECORD
  5
7739
330
1
100
AcDbSymbolTableRecord
100
AcDbBlockTableRecord
  2
*D5
340
0
  0
BLOCK_RECORD
  5
7758
330
1
100
AcDbSymbolTableRecord
100
AcDbBlockTableRecord
  2
*D6
340
0
  0
BLOCK_RECORD
  5
7765
330
1
100
AcDbSymbolTableRecord
100
AcDbBlockTableRecord
  2
*D7
340
0
  0
BLOCK_RECORD
  5
7784
330
1
100
AcDbSymbolTableRecord
100
AcDbBlockTableRecord
  2
*D8
340
0
  0
BLOCK_RECORD
  5
77A3
330
1
100
AcDbSymbolTableRecord
100
AcDbBlockTableRecord
  2
*D9
340
0
  0
BLOCK_RECORD
  5
77B9
330
1
100
AcDbSymbolTableRecord
100
AcDbBlockTableRecord
  2
*D10
340
0
  0
ENDTAB
  0
ENDSEC
  0
SECTION
  2
BLOCKS
  0
BLOCK
  5
37
330
1E
100
AcDbEntity
  8
0
100
AcDbBlockBegin
  2
*Model_Space
 70
     0
 10
0.0
 20
0.0
 30
0.0
  3
*Model_Space
  1

  0
ENDBLK
  5
38
330
1E
100
AcDbEntity
  8
0
100
AcDbBlockEnd
  0
BLOCK
  5
35
330
1A
100
AcDbEntity
 67
     1
  8
0
100
AcDbBlockBegin
  2
*Paper_Space
 70
     0
 10
0.0
 20
0.0
 30
0.0
  3
*Paper_Space
  1

  0
ENDBLK
  5
36
330
1A
100
AcDbEntity
 67
     1
  8
0
100
AcDbBlockEnd
  0
BLOCK
  5
39
330
22
100
AcDbEntity
  8
0
100
AcDbBlockBegin
  2
LOGO
 70
     0
 10
0.0
 20
0.0
 30
0.0
  3
LOGO
  1

  0
ARC
  5
3A
330
22
100
AcDbEntity
  8
0
100
AcDbCircle
 10
11.59973089678112
 20
-9.271599258481501
 30
0.0
 40
4.5
100
AcDbArc
 50
270.0
 51
231.0575587310159
  0
LINE
  5
3B
330
22
100
AcDbEntity
  8
0
100
AcDbLine
 10
3.599730896781125
 20
-4.771599258481529
 30
0.0
 11
3.599730896781153
 21
-11.77159925848133
 31
0.0
  0
LINE
  5
3C
330
22
100
AcDbEntity
  8
0
100
AcDbLine
 10
2.599730896781125
 20
-4.771599258481529
 30
0.0
 11
2.599730896781153
 21
-11.77159925848133
 31
0.0
  0
CIRCLE
  5
3D
330
22
100
AcDbEntity
  8
0
100
AcDbCircle
 10
11.59973089678112
 20
-9.271599258481501
 30
0.0
 40
3.5
  0
ARC
  5
3E
330
22
100
AcDbEntity
  8
0
100
AcDbCircle
 10
31.59973089678115
 20
-9.271599258481472
 30
0.0
 40
4.5
100
AcDbArc
 50
270.0
 51
231.0575587310182
  0
LINE
  5
3F
330
22
100
AcDbEntity
  8
0
100
AcDbLine
 10
17.59973089678112
 20
-4.771599258481472
 30
0.0
 11
17.59973089678115
 21
-13.77159925848147
 31
0.0
  0
ARC
  5
40
330
22
100
AcDbEntity
  8
0
100
AcDbCircle
 10
22.59973089678116
 20
-7.271599258481472
 30
0.0
 40
2.5
100
AcDbArc
 50
293.1161887722295
 51
90.0
  0
CIRCLE
  5
41
330
22
100
AcDbEntity
  8
0
100
AcDbCircle
 10
31.59973089678115
 20
-9.271599258481472
 30
0.0
 40
3.5
  0
ARC
  5
42
330
22
100
AcDbEntity
  8
0
100
AcDbCircle
 10
4.599730896781153
 20
-11.77159925848133
 30
0.0
 40
1.0
100
AcDbArc
 50
180.0
 51
270.0
  0
ARC
  5
43
330
22
100
AcDbEntity
  8
0
100
AcDbCircle
 10
4.599730896781153
 20
-11.77159925848133
 30
0.0
 40
2.0
100
AcDbArc
 50
179.9999999999992
 51
270.0
  0
LINE
  5
44
330
22
100
AcDbEntity
  8
0
100
AcDbLine
 10
11.59973089678115
 20
-13.77159925848144
 30
0.0
 11
4.599730896781153
 21
-13.77159925848147
 31
0.0
  0
LINE
  5
45
330
22
100
AcDbEntity
  8
0
100
AcDbLine
 10
8.771303772034769
 20
-12.77159925848136
 30
0.0
 11
4.599730896781153
 21
-12.77159925848133
 31
0.0
  0
LINE
  5
46
330
22
100
AcDbEntity
  8
0
100
AcDbLine
 10
31.59973089678115
 20
-13.77159925848147
 30
0.0
 11
23.6715276665056
 21
-13.77159925848144
 31
0.0
  0
LINE
  5
47
330
22
100
AcDbEntity
  8
0
100
AcDbLine
 10
23.56565672307022
 20
-9.51278021337896
 30
0.0
 11
24.4388546544846
 21
-12.77159925848144
 31
0.0
  0
LINE
  5
48
330
22
100
AcDbEntity
  8
0
100
AcDbLine
 10
22.59973089678116
 20
-9.771599258481472
 30
0.0
 11
18.59973089678112
 21
-9.771599258481472
 31
0.0
  0
LINE
  5
49
330
22
100
AcDbEntity
  8
0
100
AcDbLine
 10
18.59973089678115
 20
-13.77159925848144
 30
0.0
 11
17.59973089678115
 21
-13.77159925848144
 31
0.0
  0
LINE
  5
4A
330
22
100
AcDbEntity
  8
0
100
AcDbLine
 10
18.59973089678115
 20
-9.771599258481472
 30
0.0
 11
18.59973089678115
 21
-13.77159925848144
 31
0.0
  0
LINE
  5
4B
330
22
100
AcDbEntity
  8
0
100
AcDbLine
 10
22.59973089678116
 20
-9.771599258481472
 30
0.0
 11
23.67152766650562
 21
-13.77159925848147
 31
0.0
  0
ARC
  5
4C
330
22
100
AcDbEntity
  8
0
100
AcDbCircle
 10
22.59973089678116
 20
-7.271599258481472
 30
0.0
 40
2.5
100
AcDbArc
 50
270.0
 51
270.0000000000007
  0
LINE
  5
4D
330
22
100
AcDbEntity
  8
0
100
AcDbLine
 10
28.77130377203494
 20
-12.77159925848147
 30
0.0
 11
24.43885465448463
 21
-12.77159925848144
 31
0.0
  0
LINE
  5
4E
330
22
100
AcDbEntity
  8
0
100
AcDbLine
 10
3.599730896781125
 20
-4.771599258481472
 30
0.0
 11
2.599730896781125
 21
-4.771599258481472
 31
0.0
  0
LINE
  5
4F
330
22
100
AcDbEntity
  8
0
100
AcDbLine
 10
22.59973089678116
 20
-8.771599258481472
 30
0.0
 11
18.59973089678115
 21
-8.771599258481472
 31
0.0
  0
LINE
  5
50
330
22
100
AcDbEntity
  8
0
100
AcDbLine
 10
22.59973089678116
 20
-5.771599258481472
 30
0.0
 11
18.59973089678115
 21
-5.771599258481472
 31
0.0
  0
LINE
  5
51
330
22
100
AcDbEntity
  8
0
100
AcDbLine
 10
22.59973089678116
 20
-4.771599258481472
 30
0.0
 11
17.59973089678115
 21
-4.771599258481472
 31
0.0
  0
LINE
  5
52
330
22
100
AcDbEntity
  8
0
100
AcDbLine
 10
18.59973089678115
 20
-5.771599258481472
 30
0.0
 11
18.59973089678115
 21
-8.771599258481472
 31
0.0
  0
ARC
  5
53
330
22
100
AcDbEntity
  8
0
100
AcDbCircle
 10
22.59973089678116
 20
-7.271599258481472
 30
0.0
 40
1.5
100
AcDbArc
 50
270.0
 51
90.0
  0
ENDBLK
  5
54
330
22
100
AcDbEntity
  8
0
100
AcDbBlockEnd
  0
BLOCK
  5
55
330
23
100
AcDbEntity
  8
0
100
AcDbBlockBegin
  2
LORO
 70
     0
 10
0.0
 20
0.0
 30
0.0
  3
LORO
  1

  0
INSERT
  5
56
330
23
100
AcDbEntity
  8
STEMPEL
100
AcDbBlockReference
  2
LOGO
 10
-1.748032802467321
 20
3.771489518552062
 30
0.0
  0
ENDBLK
  5
57
330
23
100
AcDbEntity
  8
0
100
AcDbBlockEnd
  0
BLOCK
  5
7703
330
76F9
100
AcDbEntity
  8
0
100
AcDbBlockBegin
  2
*D2
 70
     1
 10
0.0
 20
0.0
 30
0.0
  3
*D2
  1

  0
LINE
  5
782B
330
76F9
100
AcDbEntity
  8
BEM
 62
     0
370
    -2
100
AcDbLine
 10
757.3268632146092
 20
544.6339479555464
 30
0.0
 11
757.3268632146092
 21
646.9934184547578
 31
0.0
  0
LINE
  5
782C
330
76F9
100
AcDbEntity
  8
BEM
 62
     0
370
    -2
100
AcDbLine
 10
275.862033938923
 20
544.6339479555466
 30
0.0
 11
275.862033938923
 21
646.9934184547578
 31
0.0
  0
LINE
  5
782D
330
76F9
100
AcDbEntity
  8
BEM
 62
     0
370
    -2
100
AcDbLine
 10
748.5768632146093
 20
644.4934184547578
 30
0.0
 11
284.612033938923
 21
644.4934184547578
 31
0.0
  0
SOLID
  5
782E
330
76F9
100
AcDbEntity
  8
BEM
 62
     0
100
AcDbTrace
 10
748.5768632146093
 20
645.9517517880912
 30
0.0
 11
748.5768632146093
 21
643.0350851214244
 31
0.0
 12
757.3268632146092
 22
644.4934184547578
 32
0.0
 13
757.3268632146092
 23
644.4934184547578
 33
0.0
  0
SOLID
  5
782F
330
76F9
100
AcDbEntity
  8
BEM
 62
     0
100
AcDbTrace
 10
284.612033938923
 20
645.9517517880912
 30
0.0
 11
284.612033938923
 21
643.0350851214244
 31
0.0
 12
275.862033938923
 22
644.4934184547578
 32
0.0
 13
275.862033938923
 23
644.4934184547578
 33
0.0
  0
MTEXT
  5
7830
330
76F9
100
AcDbEntity
  8
BEM
 62
     1
100
AcDbMText
 10
516.5944485767661
 20
652.6184184547578
 30
0.0
 40
8.75
 41
0.0
 71
     5
 72
     1
  1
\A1;%%c482
 73
     1
 44
1.0
  0
POINT
  5
7831
330
76F9
100
AcDbEntity
  8
Defpoints
 62
     0
100
AcDbPoint
 10
757.3268632146092
 20
542.1339479555464
 30
0.0
  0
POINT
  5
7832
330
76F9
100
AcDbEntity
  8
Defpoints
 62
     0
100
AcDbPoint
 10
275.862033938923
 20
542.1339479555467
 30
0.0
  0
POINT
  5
7833
330
76F9
100
AcDbEntity
  8
Defpoints
 62
     0
100
AcDbPoint
 10
275.862033938923
 20
644.4934184547578
 30
0.0
  0
ENDBLK
  5
7704
330
76F9
100
AcDbEntity
  8
0
100
AcDbBlockEnd
  0
BLOCK
  5
770F
330
7705
100
AcDbEntity
  8
0
100
AcDbBlockBegin
  2
*D3
 70
     1
 10
0.0
 20
0.0
 30
0.0
  3
*D3
  1

  0
LINE
  5
7822
330
7705
100
AcDbEntity
  8
BEM
 62
     0
370
    -2
100
AcDbLine
 10
247.594448576766
 20
523.1339479555467
 30
0.0
 11
236.9731548658047
 21
523.1339479555467
 31
0.0
  0
LINE
  5
7823
330
7705
100
AcDbEntity
  8
BEM
 62
     0
370
    -2
100
AcDbLine
 10
358.362033938923
 20
631.1339479555466
 30
0.0
 11
236.9731548658048
 21
631.1339479555467
 31
0.0
  0
LINE
  5
7824
330
7705
100
AcDbEntity
  8
BEM
 62
     0
370
    -2
100
AcDbLine
 10
239.4731548658047
 20
531.8839479555467
 30
0.0
 11
239.4731548658048
 21
622.3839479555468
 31
0.0
  0
SOLID
  5
7825
330
7705
100
AcDbEntity
  8
BEM
 62
     0
100
AcDbTrace
 10
238.0148215324714
 20
531.8839479555467
 30
0.0
 11
240.9314881991381
 21
531.8839479555467
 31
0.0
 12
239.4731548658047
 22
523.1339479555467
 32
0.0
 13
239.4731548658047
 23
523.1339479555467
 33
0.0
  0
SOLID
  5
7826
330
7705
100
AcDbEntity
  8
BEM
 62
     0
100
AcDbTrace
 10
238.0148215324714
 20
622.3839479555468
 30
0.0
 11
240.9314881991381
 21
622.3839479555468
 31
0.0
 12
239.4731548658048
 22
631.1339479555467
 32
0.0
 13
239.4731548658048
 23
631.1339479555467
 33
0.0
  0
MTEXT
  5
7827
330
7705
100
AcDbEntity
  8
BEM
 62
     1
100
AcDbMText
 10
231.3481548658046
 20
577.1339479555467
 30
0.0
 40
8.75
 41
0.0
 71
     5
 72
     1
  1
\A1;108
 11
0.0000000000000001
 21
1.0
 31
0.0
 73
     1
 44
1.0
  0
POINT
  5
7828
330
7705
100
AcDbEntity
  8
Defpoints
 62
     0
100
AcDbPoint
 10
250.094448576766
 20
523.1339479555467
 30
0.0
  0
POINT
  5
7829
330
7705
100
AcDbEntity
  8
Defpoints
 62
     0
100
AcDbPoint
 10
360.862033938923
 20
631.1339479555466
 30
0.0
  0
POINT
  5
782A
330
7705
100
AcDbEntity
  8
Defpoints
 62
     0
100
AcDbPoint
 10
239.4731548658048
 20
631.1339479555467
 30
0.0
  0
ENDBLK
  5
7710
330
7705
100
AcDbEntity
  8
0
100
AcDbBlockEnd
  0
BLOCK
  5
7736
330
772C
100
AcDbEntity
  8
0
100
AcDbBlockBegin
  2
*D4
 70
     1
 10
0.0
 20
0.0
 30
0.0
  3
*D4
  1

  0
LINE
  5
7819
330
772C
100
AcDbEntity
  8
BEM
 62
     0
370
    -2
100
AcDbLine
 10
676.5944485767662
 20
515.1339479555469
 30
0.0
 11
676.5944485767662
 21
586.3359208329284
 31
0.0
  0
LINE
  5
781A
330
772C
100
AcDbEntity
  8
BEM
 62
     0
370
    -2
100
AcDbLine
 10
356.5944485767662
 20
515.1339479555469
 30
0.0
 11
356.5944485767662
 21
586.3359208329284
 31
0.0
  0
LINE
  5
781B
330
772C
100
AcDbEntity
  8
BEM
 62
     0
370
    -2
100
AcDbLine
 10
667.8444485767662
 20
583.8359208329284
 30
0.0
 11
365.3444485767662
 21
583.8359208329284
 31
0.0
  0
SOLID
  5
781C
330
772C
100
AcDbEntity
  8
BEM
 62
     0
100
AcDbTrace
 10
667.8444485767662
 20
585.2942541662618
 30
0.0
 11
667.8444485767662
 21
582.377587499595
 31
0.0
 12
676.5944485767662
 22
583.8359208329284
 32
0.0
 13
676.5944485767662
 23
583.8359208329284
 33
0.0
  0
SOLID
  5
781D
330
772C
100
AcDbEntity
  8
BEM
 62
     0
100
AcDbTrace
 10
365.3444485767662
 20
585.2942541662618
 30
0.0
 11
365.3444485767662
 21
582.377587499595
 31
0.0
 12
356.5944485767662
 22
583.8359208329284
 32
0.0
 13
356.5944485767662
 23
583.8359208329284
 33
0.0
  0
MTEXT
  5
781E
330
772C
100
AcDbEntity
  8
BEM
 62
     1
100
AcDbMText
 10
516.5944485767662
 20
591.9609208329283
 30
0.0
 40
8.75
 41
0.0
 71
     5
 72
     1
  1
\A1;%%c320
 73
     1
 44
1.0
  0
POINT
  5
781F
330
772C
100
AcDbEntity
  8
Defpoints
 62
     0
100
AcDbPoint
 10
676.5944485767662
 20
512.6339479555468
 30
0.0
  0
POINT
  5
7820
330
772C
100
AcDbEntity
  8
Defpoints
 62
     0
100
AcDbPoint
 10
356.5944485767662
 20
512.6339479555468
 30
0.0
  0
POINT
  5
7821
330
772C
100
AcDbEntity
  8
Defpoints
 62
     0
100
AcDbPoint
 10
356.5944485767662
 20
583.8359208329284
 30
0.0
  0
ENDBLK
  5
7737
330
772C
100
AcDbEntity
  8
0
100
AcDbBlockEnd
  0
BLOCK
  5
7743
330
7739
100
AcDbEntity
  8
0
100
AcDbBlockBegin
  2
*D5
 70
     1
 10
0.0
 20
0.0
 30
0.0
  3
*D5
  1

  0
LINE
  5
7810
330
7739
100
AcDbEntity
  8
BEM
 62
     0
370
    -2
100
AcDbLine
 10
710.0944485767662
 20
570.6339479555466
 30
0.0
 11
710.0944485767662
 21
606.5688662302336
 31
0.0
  0
LINE
  5
7811
330
7739
100
AcDbEntity
  8
BEM
 62
     0
370
    -2
100
AcDbLine
 10
323.0944485767663
 20
570.6339479555468
 30
0.0
 11
323.0944485767663
 21
606.5688662302336
 31
0.0
  0
LINE
  5
7812
330
7739
100
AcDbEntity
  8
BEM
 62
     0
370
    -2
100
AcDbLine
 10
701.3444485767662
 20
604.0688662302336
 30
0.0
 11
331.8444485767662
 21
604.0688662302336
 31
0.0
  0
SOLID
  5
7813
330
7739
100
AcDbEntity
  8
BEM
 62
     0
100
AcDbTrace
 10
701.3444485767662
 20
605.527199563567
 30
0.0
 11
701.3444485767662
 21
602.6105328969002
 31
0.0
 12
710.0944485767662
 22
604.0688662302336
 32
0.0
 13
710.0944485767662
 23
604.0688662302336
 33
0.0
  0
SOLID
  5
7814
330
7739
100
AcDbEntity
  8
BEM
 62
     0
100
AcDbTrace
 10
331.8444485767662
 20
605.527199563567
 30
0.0
 11
331.8444485767662
 21
602.6105328969002
 31
0.0
 12
323.0944485767663
 22
604.0688662302336
 32
0.0
 13
323.0944485767663
 23
604.0688662302336
 33
0.0
  0
MTEXT
  5
7815
330
7739
100
AcDbEntity
  8
BEM
 62
     1
100
AcDbMText
 10
516.5944485767662
 20
612.1938662302336
 30
0.0
 40
8.75
 41
0.0
 71
     5
 72
     1
  1
\A1;%%c387
 73
     1
 44
1.0
  0
POINT
  5
7816
330
7739
100
AcDbEntity
  8
Defpoints
 62
     0
100
AcDbPoint
 10
710.0944485767662
 20
568.1339479555466
 30
0.0
  0
POINT
  5
7817
330
7739
100
AcDbEntity
  8
Defpoints
 62
     0
100
AcDbPoint
 10
323.0944485767663
 20
568.1339479555467
 30
0.0
  0
POINT
  5
7818
330
7739
100
AcDbEntity
  8
Defpoints
 62
     0
100
AcDbPoint
 10
323.0944485767663
 20
604.0688662302336
 30
0.0
  0
ENDBLK
  5
7744
330
7739
100
AcDbEntity
  8
0
100
AcDbBlockEnd
  0
BLOCK
  5
7762
330
7758
100
AcDbEntity
  8
0
100
AcDbBlockBegin
  2
*D6
 70
     1
 10
0.0
 20
0.0
 30
0.0
  3
*D6
  1

  0
LINE
  5
7807
330
7758
100
AcDbEntity
  8
BEM
 62
     0
370
    -2
100
AcDbLine
 10
712.5944485767662
 20
568.1339479555466
 30
0.0
 11
806.5750832346903
 21
568.1339479555465
 31
0.0
  0
LINE
  5
7808
330
7758
100
AcDbEntity
  8
BEM
 62
     0
370
    -2
100
AcDbLine
 10
785.5944485767662
 20
508.1339479555469
 30
0.0
 11
806.5750832346903
 21
508.1339479555469
 31
0.0
  0
LINE
  5
7809
330
7758
100
AcDbEntity
  8
BEM
 62
     0
370
    -2
100
AcDbLine
 10
804.0750832346903
 20
559.3839479555465
 30
0.0
 11
804.0750832346903
 21
516.883947955547
 31
0.0
  0
SOLID
  5
780A
330
7758
100
AcDbEntity
  8
BEM
 62
     0
100
AcDbTrace
 10
802.616749901357
 20
559.3839479555465
 30
0.0
 11
805.5334165680237
 21
559.3839479555465
 31
0.0
 12
804.0750832346903
 22
568.1339479555465
 32
0.0
 13
804.0750832346903
 23
568.1339479555465
 33
0.0
  0
SOLID
  5
780B
330
7758
100
AcDbEntity
  8
BEM
 62
     0
100
AcDbTrace
 10
802.616749901357
 20
516.883947955547
 30
0.0
 11
805.5334165680237
 21
516.883947955547
 31
0.0
 12
804.0750832346903
 22
508.1339479555469
 32
0.0
 13
804.0750832346903
 23
508.1339479555469
 33
0.0
  0
MTEXT
  5
780C
330
7758
100
AcDbEntity
  8
BEM
 62
     1
100
AcDbMText
 10
795.9500832346902
 20
538.133947955547
 30
0.0
 40
8.75
 41
0.0
 71
     5
 72
     1
  1
\A1;60
 11
0.0000000000000001
 21
1.0
 31
0.0
 73
     1
 44
1.0
  0
POINT
  5
780D
330
7758
100
AcDbEntity
  8
Defpoints
 62
     0
100
AcDbPoint
 10
710.0944485767662
 20
568.1339479555466
 30
0.0
  0
POINT
  5
780E
330
7758
100
AcDbEntity
  8
Defpoints
 62
     0
100
AcDbPoint
 10
783.0944485767662
 20
508.1339479555469
 30
0.0
  0
POINT
  5
780F
330
7758
100
AcDbEntity
  8
Defpoints
 62
     0
100
AcDbPoint
 10
804.0750832346903
 20
508.1339479555469
 30
0.0
  0
ENDBLK
  5
7763
330
7758
100
AcDbEntity
  8
0
100
AcDbBlockEnd
  0
BLOCK
  5
776F
330
7765
100
AcDbEntity
  8
0
100
AcDbBlockBegin
  2
*D7
 70
     1
 10
0.0
 20
0.0
 30
0.0
  3
*D7
  1

  0
LINE
  5
77FE
330
7765
100
AcDbEntity
  8
BEM
 62
     0
370
    -2
100
AcDbLine
 10
681.5944485767662
 20
494.6339479555462
 30
0.0
 11
681.5944485767662
 21
466.5528833962635
 31
0.0
  0
LINE
  5
77FF
330
7765
100
AcDbEntity
  8
BEM
 62
     0
370
    -2
100
AcDbLine
 10
351.5944485767662
 20
494.6339479555462
 30
0.0
 11
351.5944485767662
 21
466.5528833962635
 31
0.0
  0
LINE
  5
7800
330
7765
100
AcDbEntity
  8
BEM
 62
     0
370
    -2
100
AcDbLine
 10
672.8444485767662
 20
469.0528833962635
 30
0.0
 11
360.3444485767663
 21
469.0528833962635
 31
0.0
  0
SOLID
  5
7801
330
7765
100
AcDbEntity
  8
BEM
 62
     0
100
AcDbTrace
 10
672.8444485767662
 20
470.5112167295967
 30
0.0
 11
672.8444485767662
 21
467.5945500629302
 31
0.0
 12
681.5944485767662
 22
469.0528833962635
 32
0.0
 13
681.5944485767662
 23
469.0528833962635
 33
0.0
  0
SOLID
  5
7802
330
7765
100
AcDbEntity
  8
BEM
 62
     0
100
AcDbTrace
 10
360.3444485767663
 20
470.5112167295967
 30
0.0
 11
360.3444485767663
 21
467.5945500629302
 31
0.0
 12
351.5944485767662
 22
469.0528833962635
 32
0.0
 13
351.5944485767662
 23
469.0528833962635
 33
0.0
  0
MTEXT
  5
7803
330
7765
100
AcDbEntity
  8
BEM
 62
     1
100
AcDbMText
 10
516.5944485767662
 20
477.1778833962635
 30
0.0
 40
8.75
 41
0.0
 71
     5
 72
     1
  1
\A1;%%c330
 73
     1
 44
1.0
  0
POINT
  5
7804
330
7765
100
AcDbEntity
  8
Defpoints
 62
     0
100
AcDbPoint
 10
681.5944485767662
 20
497.1339479555463
 30
0.0
  0
POINT
  5
7805
330
7765
100
AcDbEntity
  8
Defpoints
 62
     0
100
AcDbPoint
 10
351.5944485767662
 20
497.1339479555463
 30
0.0
  0
POINT
  5
7806
330
7765
100
AcDbEntity
  8
Defpoints
 62
     0
100
AcDbPoint
 10
351.5944485767662
 20
469.0528833962635
 30
0.0
  0
ENDBLK
  5
7770
330
7765
100
AcDbEntity
  8
0
100
AcDbBlockEnd
  0
BLOCK
  5
778E
330
7784
100
AcDbEntity
  8
0
100
AcDbBlockBegin
  2
*D8
 70
     1
 10
0.0
 20
0.0
 30
0.0
  3
*D8
  1

  0
LINE
  5
77F5
330
7784
100
AcDbEntity
  8
BEM
 62
     0
370
    -2
100
AcDbLine
 10
250.094448576766
 20
527.1339479555467
 30
0.0
 11
250.094448576766
 21
665.1405104183854
 31
0.0
  0
LINE
  5
77F6
330
7784
100
AcDbEntity
  8
BEM
 62
     0
370
    -2
100
AcDbLine
 10
783.094448576766
 20
527.1339479555467
 30
0.0
 11
783.094448576766
 21
665.1405104183854
 31
0.0
  0
LINE
  5
77F7
330
7784
100
AcDbEntity
  8
BEM
 62
     0
370
    -2
100
AcDbLine
 10
258.844448576766
 20
662.6405104183854
 30
0.0
 11
774.344448576766
 21
662.6405104183854
 31
0.0
  0
SOLID
  5
77F8
330
7784
100
AcDbEntity
  8
BEM
 62
     0
100
AcDbTrace
 10
258.844448576766
 20
664.0988437517188
 30
0.0
 11
258.844448576766
 21
661.1821770850521
 31
0.0
 12
250.094448576766
 22
662.6405104183854
 32
0.0
 13
250.094448576766
 23
662.6405104183854
 33
0.0
  0
SOLID
  5
77F9
330
7784
100
AcDbEntity
  8
BEM
 62
     0
100
AcDbTrace
 10
774.344448576766
 20
664.0988437517188
 30
0.0
 11
774.344448576766
 21
661.1821770850521
 31
0.0
 12
783.094448576766
 22
662.6405104183854
 32
0.0
 13
783.094448576766
 23
662.6405104183854
 33
0.0
  0
MTEXT
  5
77FA
330
7784
100
AcDbEntity
  8
BEM
 62
     1
100
AcDbMText
 10
516.594448576766
 20
670.7655104183855
 30
0.0
 40
8.75
 41
0.0
 71
     5
 72
     1
  1
\A1;%%c533
 73
     1
 44
1.0
  0
POINT
  5
77FB
330
7784
100
AcDbEntity
  8
Defpoints
 62
     0
100
AcDbPoint
 10
250.094448576766
 20
524.6339479555468
 30
0.0
  0
POINT
  5
77FC
330
7784
100
AcDbEntity
  8
Defpoints
 62
     0
100
AcDbPoint
 10
783.094448576766
 20
524.6339479555468
 30
0.0
  0
POINT
  5
77FD
330
7784
100
AcDbEntity
  8
Defpoints
 62
     0
100
AcDbPoint
 10
783.094448576766
 20
662.6405104183854
 30
0.0
  0
ENDBLK
  5
778F
330
7784
100
AcDbEntity
  8
0
100
AcDbBlockEnd
  0
BLOCK
  5
77AD
330
77A3
100
AcDbEntity
  8
0
100
AcDbBlockBegin
  2
*D9
 70
     1
 10
0.0
 20
0.0
 30
0.0
  3
*D9
  1

  0
LINE
  5
77EC
330
77A3
100
AcDbEntity
  8
BEM
 62
     0
370
    -2
100
AcDbLine
 10
596.0944485767662
 20
237.6339479555471
 30
0.0
 11
596.0944485767662
 21
196.0396572528584
 31
0.0
  0
LINE
  5
77ED
330
77A3
100
AcDbEntity
  8
BEM
 62
     0
370
    -2
100
AcDbLine
 10
437.0944485767664
 20
237.6339479555468
 30
0.0
 11
437.0944485767664
 21
196.0396572528584
 31
0.0
  0
LINE
  5
77EE
330
77A3
100
AcDbEntity
  8
BEM
 62
     0
370
    -2
100
AcDbLine
 10
587.3444485767662
 20
198.5396572528584
 30
0.0
 11
445.8444485767664
 21
198.5396572528584
 31
0.0
  0
SOLID
  5
77EF
330
77A3
100
AcDbEntity
  8
BEM
 62
     0
100
AcDbTrace
 10
587.3444485767662
 20
199.9979905861918
 30
0.0
 11
587.3444485767662
 21
197.0813239195251
 31
0.0
 12
596.0944485767662
 22
198.5396572528584
 32
0.0
 13
596.0944485767662
 23
198.5396572528584
 33
0.0
  0
SOLID
  5
77F0
330
77A3
100
AcDbEntity
  8
BEM
 62
     0
100
AcDbTrace
 10
445.8444485767664
 20
199.9979905861918
 30
0.0
 11
445.8444485767664
 21
197.0813239195251
 31
0.0
 12
437.0944485767664
 22
198.5396572528584
 32
0.0
 13
437.0944485767664
 23
198.5396572528584
 33
0.0
  0
MTEXT
  5
77F1
330
77A3
100
AcDbEntity
  8
BEM
 62
     1
100
AcDbMText
 10
516.5944485767663
 20
206.6646572528584
 30
0.0
 40
8.75
 41
0.0
 71
     5
 72
     1
  1
\A1;%%c159
 73
     1
 44
1.0
  0
POINT
  5
77F2
330
77A3
100
AcDbEntity
  8
Defpoints
 62
     0
100
AcDbPoint
 10
596.0944485767662
 20
240.1339479555471
 30
0.0
  0
POINT
  5
77F3
330
77A3
100
AcDbEntity
  8
Defpoints
 62
     0
100
AcDbPoint
 10
437.0944485767664
 20
240.1339479555468
 30
0.0
  0
POINT
  5
77F4
330
77A3
100
AcDbEntity
  8
Defpoints
 62
     0
100
AcDbPoint
 10
437.0944485767664
 20
198.5396572528584
 30
0.0
  0
ENDBLK
  5
77AE
330
77A3
100
AcDbEntity
  8
0
100
AcDbBlockEnd
  0
BLOCK
  5
77C3
330
77B9
100
AcDbEntity
  8
0
100
AcDbBlockBegin
  2
*D10
 70
     1
 10
0.0
 20
0.0
 30
0.0
  3
*D10
  1

  0
LINE
  5
77E3
330
77B9
100
AcDbEntity
  8
BEM
 62
     0
370
    -2
100
AcDbLine
 10
436.0817558567069
 20
223.1339479555463
 30
0.0
 11
236.9731548658045
 21
223.1339479555463
 31
0.0
  0
LINE
  5
77E4
330
77B9
100
AcDbEntity
  8
BEM
 62
     0
370
    -2
100
AcDbLine
 10
349.094448576766
 20
503.1339479555469
 30
0.0
 11
236.9731548658045
 21
503.1339479555469
 31
0.0
  0
LINE
  5
77E5
330
77B9
100
AcDbEntity
  8
BEM
 62
     0
370
    -2
100
AcDbLine
 10
239.4731548658045
 20
231.8839479555463
 30
0.0
 11
239.4731548658045
 21
494.3839479555469
 31
0.0
  0
SOLID
  5
77E6
330
77B9
100
AcDbEntity
  8
BEM
 62
     0
100
AcDbTrace
 10
238.0148215324711
 20
231.8839479555463
 30
0.0
 11
240.9314881991378
 21
231.8839479555463
 31
0.0
 12
239.4731548658045
 22
223.1339479555463
 32
0.0
 13
239.4731548658045
 23
223.1339479555463
 33
0.0
  0
SOLID
  5
77E7
330
77B9
100
AcDbEntity
  8
BEM
 62
     0
100
AcDbTrace
 10
238.0148215324712
 20
494.3839479555469
 30
0.0
 11
240.9314881991379
 21
494.3839479555469
 31
0.0
 12
239.4731548658045
 22
503.1339479555469
 32
0.0
 13
239.4731548658045
 23
503.1339479555469
 33
0.0
  0
MTEXT
  5
77E8
330
77B9
100
AcDbEntity
  8
BEM
 62
     1
100
AcDbMText
 10
231.3481548658045
 20
363.1339479555467
 30
0.0
 40
8.75
 41
0.0
 71
     5
 72
     1
  1
\A1;280
 11
0.0000000000000001
 21
1.0
 31
0.0
 73
     1
 44
1.0
  0
POINT
  5
77E9
330
77B9
100
AcDbEntity
  8
Defpoints
 62
     0
100
AcDbPoint
 10
438.581755856707
 20
223.1339479555463
 30
0.0
  0
POINT
  5
77EA
330
77B9
100
AcDbEntity
  8
Defpoints
 62
     0
100
AcDbPoint
 10
351.594448576766
 20
503.1339479555469
 30
0.0
  0
POINT
  5
77EB
330
77B9
100
AcDbEntity
  8
Defpoints
 62
     0
100
AcDbPoint
 10
239.4731548658045
 20
503.1339479555469
 30
0.0
  0
ENDBLK
  5
77C4
330
77B9
100
AcDbEntity
  8
0
100
AcDbBlockEnd
  0
ENDSEC
  0
SECTION
  2
ENTITIES
  0
LINE
  5
58
330
1E
100
AcDbEntity
  8
STEMPEL
100
AcDbLine
 10
1037.5
 20
137.4999999999998
 30
0.0
 11
587.5000000000002
 21
137.4999999999999
 31
0.0
  0
LINE
  5
59
330
1E
100
AcDbEntity
  8
STEMPEL
100
AcDbLine
 10
587.5000000000002
 20
137.4999999999999
 30
0.0
 11
587.5
 21
12.49999999999988
 31
0.0
  0
LINE
  5
5A
330
1E
100
AcDbEntity
  8
STEMPEL
100
AcDbLine
 10
707.5000000000002
 20
137.4999999999996
 30
0.0
 11
707.5000000000001
 21
12.49999999999966
 31
0.0
  0
LINE
  5
5B
330
1E
100
AcDbEntity
  8
STEMPEL
100
AcDbLine
 10
812.5000000000001
 20
137.4999999999999
 30
0.0
 11
812.5000000000001
 21
12.49999999999988
 31
0.0
  0
LINE
  5
5C
330
1E
100
AcDbEntity
  8
STEMPEL
100
AcDbLine
 10
940.0000000000002
 20
137.4999999999993
 30
0.0
 11
940.0000000000002
 21
49.99999999999977
 31
0.0
  0
LINE
  5
5D
330
1E
100
AcDbEntity
  8
STEMPEL
100
AcDbLine
 10
707.5
 20
37.49999999999989
 30
0.0
 11
587.5
 21
37.49999999999989
 31
0.0
  0
LINE
  5
5E
330
1E
100
AcDbEntity
  8
STEMPEL
100
AcDbLine
 10
1037.5
 20
49.99999999999966
 30
0.0
 11
707.5000000000001
 21
49.99999999999989
 31
0.0
  0
LINE
  5
5F
330
1E
100
AcDbEntity
  8
STEMPEL
100
AcDbLine
 10
1037.5
 20
99.99999999999978
 30
0.0
 11
707.5000000000002
 21
99.99999999999989
 31
0.0
  0
LINE
  5
60
330
1E
100
AcDbEntity
  8
VOLL
100
AcDbLine
 10
605.0000000000002
 20
137.4999999999999
 30
0.0
 11
605.0000000000001
 21
12.49999999999988
 31
0.0
  0
LINE
  5
61
330
1E
100
AcDbEntity
  8
VOLL
100
AcDbLine
 10
655.0000000000002
 20
137.4999999999998
 30
0.0
 11
655.0000000000001
 21
12.49999999999977
 31
0.0
  0
LINE
  5
62
330
1E
100
AcDbEntity
  8
VOLL
100
AcDbLine
 10
680.0000000000002
 20
137.4999999999998
 30
0.0
 11
680.0000000000001
 21
12.49999999999977
 31
0.0
  0
LINE
  5
63
330
1E
100
AcDbEntity
  8
VOLL
100
AcDbLine
 10
730.0000000000002
 20
99.99999999999989
 30
0.0
 11
730.0000000000002
 21
49.99999999999989
 31
0.0
  0
LINE
  5
64
330
1E
100
AcDbEntity
  8
VOLL
100
AcDbLine
 10
762.5000000000002
 20
137.4999999999996
 30
0.0
 11
762.5
 21
49.99999999999989
 31
0.0
  0
LINE
  5
65
330
1E
100
AcDbEntity
  8
HILF
100
AcDbLine
 10
587.5000000000002
 20
124.9999999999999
 30
0.0
 11
707.5000000000002
 21
124.9999999999999
 31
0.0
  0
LINE
  5
66
330
1E
100
AcDbEntity
  8
HILF
100
AcDbLine
 10
587.5000000000002
 20
112.4999999999999
 30
0.0
 11
707.5000000000002
 21
112.4999999999999
 31
0.0
  0
LINE
  5
67
330
1E
100
AcDbEntity
  8
HILF
100
AcDbLine
 10
587.5000000000002
 20
99.99999999999989
 30
0.0
 11
707.5000000000002
 21
99.99999999999989
 31
0.0
  0
LINE
  5
68
330
1E
100
AcDbEntity
  8
HILF
100
AcDbLine
 10
587.5000000000002
 20
87.49999999999989
 30
0.0
 11
707.5000000000002
 21
87.49999999999989
 31
0.0
  0
LINE
  5
69
330
1E
100
AcDbEntity
  8
HILF
100
AcDbLine
 10
587.5000000000002
 20
74.99999999999989
 30
0.0
 11
707.5000000000002
 21
74.99999999999989
 31
0.0
  0
LINE
  5
6A
330
1E
100
AcDbEntity
  8
HILF
100
AcDbLine
 10
587.5000000000002
 20
62.49999999999989
 30
0.0
 11
707.5000000000002
 21
62.49999999999989
 31
0.0
  0
LINE
  5
6B
330
1E
100
AcDbEntity
  8
HILF
100
AcDbLine
 10
587.5000000000002
 20
49.99999999999989
 30
0.0
 11
707.5000000000002
 21
49.99999999999989
 31
0.0
  0
LINE
  5
6C
330
1E
100
AcDbEntity
  8
HILF
100
AcDbLine
 10
707.5000000000002
 20
87.49999999999989
 30
0.0
 11
812.5000000000001
 21
87.49999999999989
 31
0.0
  0
LINE
  5
6D
330
1E
100
AcDbEntity
  8
HILF
100
AcDbLine
 10
707.5000000000002
 20
74.99999999999989
 30
0.0
 11
812.5000000000001
 21
74.99999999999989
 31
0.0
  0
LINE
  5
6E
330
1E
100
AcDbEntity
  8
HILF
100
AcDbLine
 10
707.5000000000002
 20
62.49999999999989
 30
0.0
 11
812.5000000000001
 21
62.49999999999989
 31
0.0
  0
LINE
  5
6F
330
1E
100
AcDbEntity
  8
HILF
100
AcDbLine
 10
818.4671001371185
 20
105.0469780945515
 30
0.0
 11
933.2872303143515
 21
105.0469780945513
 31
0.0
  0
LINE
  5
70
330
1E
100
AcDbEntity
  8
HILF
100
AcDbLine
 10
818.4671001371185
 20
87.49999999999989
 30
0.0
 11
933.2872303143515
 21
87.49999999999976
 31
0.0
  0
LINE
  5
71
330
1E
100
AcDbEntity
  8
HILF
100
AcDbLine
 10
818.4671001371185
 20
74.99999999999989
 30
0.0
 11
933.2872303143515
 21
74.99999999999977
 31
0.0
  0
LINE
  5
72
330
1E
100
AcDbEntity
  8
HILF
100
AcDbLine
 10
818.4671001371185
 20
62.49999999999989
 30
0.0
 11
933.2872303143515
 21
62.49999999999977
 31
0.0
  0
LINE
  5
73
330
1E
100
AcDbEntity
  8
VOLL
100
AcDbLine
 10
940.0000000000002
 20
74.99999999999977
 30
0.0
 11
1037.5
 21
74.99999999999977
 31
0.0
  0
LINE
  5
74
330
1E
100
AcDbEntity
  8
HILF
100
AcDbLine
 10
945.9048270371244
 20
104.7247954619474
 30
0.0
 11
1031.073604915841
 21
104.7247954619474
 31
0.0
  0
LINE
  5
75
330
1E
100
AcDbEntity
  8
HILF
100
AcDbLine
 10
818.4671001371185
 20
18.61747822535369
 30
0.0
 11
1031.073604915841
 21
18.61747822535358
 31
0.0
  0
TEXT
  5
76
330
1E
100
AcDbEntity
  8
TEXT
100
AcDbText
 10
615.4997799079121
 20
23.34227368730148
 30
0.0
 40
5.0
  1
Änderung
 41
0.8
  7
GREEKS
 72
     1
 11
628.9283513364836
 21
23.34227368730148
 31
0.0
100
AcDbText
  0
TEXT
  5
78
330
1E
100
AcDbEntity
  8
TEXT
100
AcDbText
 10
716.8954465187972
 20
128.0776118858858
 30
0.0
 40
6.25
  1
Maßstab
 41
0.8
  7
GREEKS
100
AcDbText
  0
TEXT
  5
79
330
1E
100
AcDbEntity
  8
TEXT
100
AcDbText
 10
818.5974254761264
 20
128.1861660014723
 30
0.0
 40
6.25
  1
Benennung
 41
0.8
  7
GREEKS
100
AcDbText
  0
TEXT
  5
7A
330
1E
100
AcDbEntity
  8
TEXT
100
AcDbText
 10
945.2234436970428
 20
127.8915043171418
 30
0.0
 40
6.25
  1
Zeichnungs Nr.
 41
0.8
  7
GREEKS
100
AcDbText
  0
TEXT
  5
7B
330
1E
100
AcDbEntity
  8
TEXT
100
AcDbText
 10
818.42779798892
 20
38.55700712741305
 30
0.0
 40
6.25
  1
Bauvorhaben
 41
0.8
  7
GREEKS
100
AcDbText
  0
TEXT
  5
7C
330
1E
100
AcDbEntity
  8
TEXT
100
AcDbText
 10
945.9048270371244
 20
91.47647796374929
 30
0.0
 40
6.25
  1
Ersatz für:
 41
0.8
  7
GREEKS
100
AcDbText
  0
TEXT
  5
7D
330
1E
100
AcDbEntity
  8
TEXT
100
AcDbText
 10
597.8330138380721
 20
17.06832307533978
 30
0.0
 40
5.0
  1
Index
 50
89.99999999999998
 41
0.8
  7
GREEKS
100
AcDbText
  0
TEXT
  5
7E
330
1E
100
AcDbEntity
  8
TEXT
100
AcDbText
 10
662.3737641483725
 20
23.33945336674753
 30
0.0
 40
5.0
  1
Tag
 41
0.8
  7
GREEKS
 72
     1
 11
667.0404308150391
 21
23.33945336674753
 31
0.0
100
AcDbText
  0
TEXT
  5
7F
330
1E
100
AcDbEntity
  8
TEXT
100
AcDbText
 10
686.2244597672866
 20
23.24155271207997
 30
0.0
 40
5.0
  1
Name
 41
0.8
  7
GREEKS
 72
     1
 11
694.1292216720484
 21
23.24155271207997
 31
0.0
100
AcDbText
  0
TEXT
  5
80
330
1E
100
AcDbEntity
  8
TEXT
100
AcDbText
 10
740.4139591442066
 20
91.64850626537385
 30
0.0
 40
5.0
  1
Tag
 41
0.8
  7
GREEKS
100
AcDbText
  0
TEXT
  5
81
330
1E
100
AcDbEntity
  8
TEXT
100
AcDbText
 10
778.0783230282872
 20
91.63701364894018
 30
0.0
 40
5.0
  1
Name
 41
0.8
  7
GREEKS
100
AcDbText
  0
TEXT
  5
82
330
1E
100
AcDbEntity
  8
TEXT
100
AcDbText
 10
709.4795158959522
 20
79.53737962022444
 30
0.0
 40
5.0
  1
Gez.
 41
0.8
  7
GREEKS
100
AcDbText
  0
TEXT
  5
83
330
1E
100
AcDbEntity
  8
TEXT
100
AcDbText
 10
709.4393858214592
 20
67.11157864285451
 30
0.0
 40
5.0
  1
Gepr.
 41
0.8
  7
GREEKS
100
AcDbText
  0
TEXT
  5
84
330
1E
100
AcDbEntity
  8
TEXT
100
AcDbText
 10
709.5008471734132
 20
54.41182987062245
 30
0.0
 40
5.0
  1
Norm.
 41
0.8
  7
GREEKS
100
AcDbText
  0
TEXT
  5
85
330
1E
100
AcDbEntity
  8
TEXT
100
AcDbText
 10
946.5501076871261
 20
65.0927022234822
 30
0.0
 40
6.25
  1
ersetzt durch:
 41
0.8
  7
GREEKS
100
AcDbText
  0
TEXT
  5
86
330
1E
100
AcDbEntity
  8
TEXT
100
AcDbText
 10
711.0866284759155
 20
91.20853245654643
 30
0.0
 40
5.0
  1
2010
 41
0.8
  7
GREEKS
100
AcDbText
  0
LINE
  5
87
330
1E
100
AcDbEntity
  8
HILF
100
AcDbLine
 10
0.0
 20
0.0
 30
0.0
 11
1050.0
 21
-0.0000000000003411
 31
0.0
  0
LINE
  5
88
330
1E
100
AcDbEntity
  8
HILF
100
AcDbLine
 10
1050.0
 20
-0.0000000000003411
 30
0.0
 11
1050.0
 21
742.4999999999997
 31
0.0
  0
LINE
  5
89
330
1E
100
AcDbEntity
  8
HILF
100
AcDbLine
 10
1050.0
 20
742.4999999999997
 30
0.0
 11
0.0000000000001368
 21
742.4999999999999
 31
0.0
  0
LINE
  5
8B
330
1E
100
AcDbEntity
  8
STEMPEL
100
AcDbLine
 10
1037.5
 20
729.9999999999997
 30
0.0
 11
50.0000000000002
 21
730.0
 31
0.0
  0
LINE
  5
8D
330
1E
100
AcDbEntity
  8
STEMPEL
100
AcDbLine
 10
50.0
 20
12.5
 30
0.0
 11
1037.5
 21
12.49999999999966
 31
0.0
  0
LINE
  5
8E
330
1E
100
AcDbEntity
  8
STEMPEL
100
AcDbLine
 10
1037.5
 20
12.49999999999966
 30
0.0
 11
1037.5
 21
729.9999999999997
 31
0.0
  0
TEXT
  5
8F
330
1E
100
AcDbEntity
  8
TEXT
 62
     1
100
AcDbText
 10
818.7988215591486
 20
109.2167884456566
 30
0.0
 40
8.75
  1
Drainjet-Kompletteinheit
 41
0.65
  7
GREEKS
100
AcDbText
  0
TEXT
  5
90
330
1E
100
AcDbEntity
  8
TEXT
 62
     1
100
AcDbText
 10
962.4645658928978
 20
109.2167884456565
 30
0.0
 40
8.75
  1
21311150W
 41
0.8
  7
GREEKS
 72
     1
 11
989.7978992262311
 21
109.2167884456565
 31
0.0
100
AcDbText
  0
TEXT
  5
91
330
1E
100
AcDbEntity
  8
TEXT
100
AcDbText
 10
773.1362783019789
 20
128.5498701422374
 30
0.0
 40
6.25
  1
Zul.Abw.
 41
0.8
  7
GREEKS
100
AcDbText
  0
TEXT
  5
93
330
1E
100
AcDbEntity
  8
TEXT
100
AcDbText
 10
738.076607069936
 20
78.93857345150263
 30
0.0
 40
5.0
  1
29.10.
 41
0.8
  7
GREEKS
 72
     1
 11
746.4575594508884
 21
78.93857345150263
 31
0.0
100
AcDbText
  0
TEXT
  5
94
330
1E
100
AcDbEntity
  8
TEXT
100
AcDbText
 10
780.0289691533264
 20
78.6787206895682
 30
0.0
 40
5.0
  1
Koeh
 41
0.8
  7
GREEKS
 72
     1
 11
786.600397724755
 21
78.6787206895682
 31
0.0
100
AcDbText
  0
TEXT
  5
95
330
1E
100
AcDbEntity
  8
TEXT
100
AcDbText
 10
817.9263676106241
 20
90.12526728884393
 30
0.0
 40
6.25
  1
Notablauf DN150, einteilig
 41
0.8
  7
GREEKS
100
AcDbText
  0
TEXT
  5
98
330
1E
100
AcDbEntity
  8
TEXT
100
AcDbText
 10
817.7095062636686
 20
54.13909530989371
 30
0.0
 40
5.0
  1
21311150W.DWG
 41
0.8
  7
GREEKS
100
AcDbText
  0
TEXT
  5
99
330
1E
100
AcDbEntity
  8
TEXT
 62
     1
100
AcDbText
 10
728.3793640042778
 20
109.3384636051871
 30
0.0
 40
8.75
  1
1:2.5
 41
0.8
  7
GREEKS
100
AcDbText
  0
TEXT
  5
9A
330
1E
100
AcDbEntity
  8
TEXT
100
AcDbText
 10
587.5551424187659
 20
142.6429481313802
 30
0.0
 40
6.25
  1
Erstellt mit AUTOCAD 2004
 41
0.8
  7
GREEKS
100
AcDbText
  0
INSERT
  5
9B
330
1E
100
AcDbEntity
  8
HILF
100
AcDbBlockReference
  2
LORO
 10
716.3281232452941
 20
46.22574125373683
 30
0.0
 41
2.5
 42
2.5
 43
2.5
  0
LINE
  5
9C
330
1E
100
AcDbEntity
  8
BEM
100
AcDbLine
 10
570.0
 20
-0.0000000000001137
 30
0.0
 11
570.0
 21
12.49999999999988
 31
0.0
  0
LINE
  5
13E
330
1E
100
AcDbEntity
  8
HILF
100
AcDbLine
 10
0.0
 20
0.0
 30
0.0
 11
0.0000000000001368
 21
742.4999999999999
 31
0.0
  0
LINE
  5
13F
330
1E
100
AcDbEntity
  8
STEMPEL
100
AcDbLine
 10
50.0
 20
12.5
 30
0.0
 11
50.0000000000002
 21
730.0
 31
0.0
  0
LINE
  5
14A
330
1E
100
AcDbEntity
  8
HILF
100
AcDbLine
 10
0.0000000000000693
 20
371.25
 30
0.0
 11
50.00000000000007
 21
371.25
 31
0.0
  0
TEXT
  5
15B
330
1E
100
AcDbEntity
  8
BEM
100
AcDbText
 10
1046.627865482146
 20
12.7098763499855
 30
0.0
 40
5.0
  1
Diese Zeichnung ist urheberrechtlich geschützt und bleibt unser Eigentum. Sie darf weder ganz noch teilweise verfielfältigt und nicht an Dritte weitergegeben werden.
 50
89.99999999999998
 41
0.8
  7
GREEKS
100
AcDbText
  0
TEXT
  5
63F9
330
1E
100
AcDbEntity
  8
TEXT
100
AcDbText
 10
817.9263676106241
 20
65.12526728884393
 30
0.0
 40
6.25
  1
EDV-Art.Nr. 21311.150X
 41
0.8
  7
GREEKS
100
AcDbText
  0
TEXT
  5
64A0
330
1E
100
AcDbEntity
  8
TEXT
 62
     1
100
AcDbText
 10
989.7978992262311
 20
77.68440803901182
 30
0.0
 40
8.75
  1

 41
0.8
  7
GREEKS
 72
     1
 11
989.7978992262311
 21
77.68440803901182
 31
0.0
100
AcDbText
  0
TEXT
  5
64DE
330
1E
100
AcDbEntity
  8
TEXT
100
AcDbText
 10
765.3623024866598
 20
110.0567385425341
 30
0.0
 40
5.0
  1
DIN EN1124-3
 41
0.8
  7
GREEKS
 72
     1
 11
786.600397724755
 21
110.0567385425341
 31
0.0
100
AcDbText
  0
LINE
  5
702F
330
1E
100
AcDbEntity
  8
BEM
100
AcDbLine
 10
570.0000000000001
 20
742.4999999999998
 30
0.0
 11
570.0000000000001
 21
729.9999999999998
 31
0.0
  0
HATCH
  5
7409
330
1E
100
AcDbEntity
  8
SCHRAFF
100
AcDbHatch
 10
0.0
 20
0.0
 30
0.0
210
0.0
220
0.0
230
1.0
  2
NET
 70
     0
 71
     0
 91
        4
 92
        7
 72
     0
 73
     1
 93
        4
 10
650.5944485767662
 20
506.1339479555469
 10
650.5944485767662
 20
503.1339479555462
 10
681.5944485767659
 20
503.1339479555462
 10
681.5944485767659
 20
506.1339479555469
 97
        0
 92
        7
 72
     0
 73
     1
 93
        4
 10
611.5944485767657
 20
506.1339479555467
 10
611.5944485767665
 20
503.1339479555462
 10
636.594448576766
 20
503.1339479555462
 10
636.5944485767665
 20
506.1339479555469
 97
        0
 92
        7
 72
     0
 73
     1
 93
        4
 10
396.5944485767667
 20
506.1339479555471
 10
396.594448576766
 20
503.1339479555468
 10
421.5944485767662
 20
503.1339479555467
 10
421.5944485767664
 20
506.1339479555471
 97
        0
 92
        7
 72
     0
 73
     1
 93
        4
 10
351.594448576766
 20
506.1339479555469
 10
351.594448576766
 20
503.1339479555469
 10
382.5944485767662
 20
503.1339479555469
 10
382.5944485767664
 20
506.133947955547
 97
        0
 75
     0
 76
     1
 52
45.0
 41
15.0
 77
     0
 78
     2
 53
45.0
 43
299.5087831794948
 44
60.91015840477126
 45
-1.325825214724776
 46
1.325825214724776
 79
     0
 53
135.0
 43
299.5087831794948
 44
60.91015840477126
 45
-1.325825214724776
 46
-1.325825214724776
 79
     0
 47
0.3587485544388043
 98
        4
 10
656.8964886535956
 20
504.9106323225371
 10
632.1344386674601
 20
504.9106323225371
 10
412.5058277522663
 20
505.2693815370504
 10
377.6954092485629
 20
504.9106323225371
  0
LINE
  5
740C
330
1E
100
AcDbEntity
  8
STEMPEL
100
AcDbLine
 10
393.5944485767663
 20
497.1339479555454
 30
0.0
 11
639.5944485767662
 21
497.1339479555472
 31
0.0
  0
LINE
  5
740D
330
1E
100
AcDbEntity
  8
HILF
  6
Continuous
100
AcDbLine
 10
436.557822431184
 20
451.5732631992473
 30
0.0
 11
596.6310747223484
 21
451.5732631992473
 31
0.0
  0
LINE
  5
740E
330
1E
100
AcDbEntity
  8
HILF
  6
Continuous
100
AcDbLine
 10
437.9474692344414
 20
426.9434086024432
 30
0.0
 11
595.241427919091
 21
426.9434086024432
 31
0.0
  0
LINE
  5
740F
330
1E
100
AcDbEntity
  8
STEMPEL
100
AcDbLine
 10
602.0944485767662
 20
503.1339479555464
 30
0.0
 11
602.0944485767662
 21
497.1339479555463
 31
0.0
  0
LINE
  5
7410
330
1E
100
AcDbEntity
  8
STEMPEL
100
AcDbLine
 10
431.0944485767664
 20
503.1339479555462
 30
0.0
 11
431.0944485767664
 21
497.1339479555463
 31
0.0
  0
LINE
  5
7411
330
1E
100
AcDbEntity
  8
STEMPEL
  6
Continuous
100
AcDbLine
 10
607.0944485767662
 20
487.3508437376123
 30
0.0
 11
607.0944485767662
 21
471.1865534847233
 31
0.0
  0
LINE
  5
7412
330
1E
100
AcDbEntity
  8
STEMPEL
  6
Continuous
100
AcDbLine
 10
604.5944485767662
 20
487.3508437376123
 30
0.0
 11
604.5944485767662
 21
471.1865534847233
 31
0.0
  0
ARC
  5
7413
330
1E
100
AcDbEntity
  8
STEMPEL
  6
Continuous
100
AcDbCircle
 10
619.0944485767662
 20
446.6339479555462
 30
0.0
 40
18.0
100
AcDbArc
 50
152.4728163794481
 51
180.0
  0
LINE
  5
7414
330
1E
100
AcDbEntity
  8
STEMPEL
  6
Continuous
100
AcDbLine
 10
601.0944485767662
 20
446.6339479555462
 30
0.0
 11
601.0944485767662
 21
431.5749194636132
 31
0.0
  0
LINE
  5
7415
330
1E
100
AcDbEntity
  8
STEMPEL
  6
Continuous
100
AcDbLine
 10
598.5944485767662
 20
446.6339479555462
 30
0.0
 11
598.5944485767662
 21
431.5749194636132
 31
0.0
  0
ARC
  5
7416
330
1E
100
AcDbEntity
  8
STEMPEL
  6
Continuous
100
AcDbCircle
 10
619.0944485767662
 20
446.6339479555462
 30
0.0
 40
20.5
100
AcDbArc
 50
152.4728163794481
 51
180.0
  0
ARC
  5
7417
330
1E
100
AcDbEntity
  8
STEMPEL
  6
Continuous
100
AcDbCircle
 10
572.0944485767662
 20
471.1289479555461
 30
0.0
 40
35.00004740563918
100
AcDbArc
 50
332.4728163794481
 51
0.0943014490885628
  0
ARC
  5
7418
330
1E
100
AcDbEntity
  8
STEMPEL
  6
Continuous
100
AcDbCircle
 10
572.0944485767662
 20
471.1289479555461
 30
0.0
 40
32.50004740563918
100
AcDbArc
 50
332.4728163794481
 51
0.0943014490885628
  0
ARC
  5
7419
330
1E
100
AcDbEntity
  8
STEMPEL
  6
Continuous
100
AcDbCircle
 10
572.0944485767662
 20
487.3508437376123
 30
0.0
 40
35.0
100
AcDbArc
 50
0.0
 51
16.23139559922624
  0
ARC
  5
741A
330
1E
100
AcDbEntity
  8
STEMPEL
  6
Continuous
100
AcDbCircle
 10
572.0944485767662
 20
487.3508437376123
 30
0.0
 40
32.5
100
AcDbArc
 50
0.0
 51
17.51879234504695
  0
ARC
  5
741B
330
1E
100
AcDbEntity
  8
STEMPEL
  6
Continuous
100
AcDbCircle
 10
606.0944485767662
 20
415.6062000409419
 30
0.0
 40
10.0
100
AcDbArc
 50
145.2280559680547
 51
180.0
  0
ARC
  5
741C
330
1E
100
AcDbEntity
  8
STEMPEL
  6
Continuous
100
AcDbCircle
 10
606.0944485767662
 20
415.6062000409419
 30
0.0
 40
12.5
100
AcDbArc
 50
145.2280559680547
 51
180.0
  0
ARC
  5
741D
330
1E
100
AcDbEntity
  8
STEMPEL
  6
Continuous
100
AcDbCircle
 10
583.0944485767662
 20
431.5749194636132
 30
0.0
 40
18.0
100
AcDbArc
 50
325.2280559680547
 51
0.0
  0
ARC
  5
741E
330
1E
100
AcDbEntity
  8
STEMPEL
  6
Continuous
100
AcDbCircle
 10
583.0944485767662
 20
431.5749194636132
 30
0.0
 40
15.5
100
AcDbArc
 50
325.2280559680547
 51
0.0
  0
ARC
  5
741F
330
1E
100
AcDbEntity
  8
STEMPEL
  6
Continuous
100
AcDbCircle
 10
414.0944485767662
 20
446.6339479555462
 30
0.0
 40
20.5
100
AcDbArc
 50
0.0
 51
27.52718362055185
  0
LINE
  5
7420
330
1E
100
AcDbEntity
  8
STEMPEL
  6
Continuous
100
AcDbLine
 10
432.0944485767662
 20
446.6339479555462
 30
0.0
 11
432.0944485767662
 21
431.5749194636132
 31
0.0
  0
LINE
  5
7421
330
1E
100
AcDbEntity
  8
STEMPEL
  6
Continuous
100
AcDbLine
 10
434.5944485767662
 20
446.6339479555462
 30
0.0
 11
434.5944485767662
 21
431.5749194636132
 31
0.0
  0
LINE
  5
7422
330
1E
100
AcDbEntity
  8
STEMPEL
  6
Continuous
100
AcDbLine
 10
426.0944485767662
 20
487.3508437376123
 30
0.0
 11
426.0944485767662
 21
471.1865534847233
 31
0.0
  0
LINE
  5
7423
330
1E
100
AcDbEntity
  8
STEMPEL
  6
Continuous
100
AcDbLine
 10
428.5944485767662
 20
487.3508437376123
 30
0.0
 11
428.5944485767662
 21
471.1865534847233
 31
0.0
  0
ARC
  5
7424
330
1E
100
AcDbEntity
  8
STEMPEL
  6
Continuous
100
AcDbCircle
 10
461.0944485767662
 20
471.1289479555461
 30
0.0
 40
35.00004740563918
100
AcDbArc
 50
179.9056985509114
 51
207.5271836205518
  0
ARC
  5
7425
330
1E
100
AcDbEntity
  8
STEMPEL
  6
Continuous
100
AcDbCircle
 10
414.0944485767662
 20
446.6339479555462
 30
0.0
 40
18.0
100
AcDbArc
 50
0.0
 51
27.52718362055185
  0
ARC
  5
7426
330
1E
100
AcDbEntity
  8
STEMPEL
  6
Continuous
100
AcDbCircle
 10
461.0944485767662
 20
471.1289479555461
 30
0.0
 40
32.50004740563918
100
AcDbArc
 50
179.9056985509114
 51
207.5271836205518
  0
ARC
  5
7427
330
1E
100
AcDbEntity
  8
STEMPEL
  6
Continuous
100
AcDbCircle
 10
461.0944485767662
 20
487.3508437376123
 30
0.0
 40
35.0
100
AcDbArc
 50
163.7686044007737
 51
180.0
  0
ARC
  5
7428
330
1E
100
AcDbEntity
  8
STEMPEL
  6
Continuous
100
AcDbCircle
 10
461.0944485767662
 20
487.3508437376123
 30
0.0
 40
32.5
100
AcDbArc
 50
162.481207654953
 51
180.0
  0
ARC
  5
7429
330
1E
100
AcDbEntity
  8
STEMPEL
  6
Continuous
100
AcDbCircle
 10
427.0944485767662
 20
415.6062000409419
 30
0.0
 40
10.0
100
AcDbArc
 50
0.0
 51
34.77194403194532
  0
ARC
  5
742A
330
1E
100
AcDbEntity
  8
STEMPEL
  6
Continuous
100
AcDbCircle
 10
427.0944485767662
 20
415.6062000409419
 30
0.0
 40
12.5
100
AcDbArc
 50
0.0
 51
34.77194403194532
  0
ARC
  5
742B
330
1E
100
AcDbEntity
  8
STEMPEL
  6
Continuous
100
AcDbCircle
 10
450.0944485767662
 20
431.5749194636132
 30
0.0
 40
18.0
100
AcDbArc
 50
180.0
 51
214.7719440319453
  0
ARC
  5
742C
330
1E
100
AcDbEntity
  8
STEMPEL
  6
Continuous
100
AcDbCircle
 10
450.0944485767662
 20
431.5749194636132
 30
0.0
 40
15.5
100
AcDbArc
 50
180.0
 51
214.7719440319453
  0
LINE
  5
742D
330
1E
100
AcDbEntity
  8
HILF
  6
Continuous
100
AcDbLine
 10
441.6219778623282
 20
419.3412894451118
 30
0.0
 11
591.5669192912044
 21
419.3412894451119
 31
0.0
  0
LINE
  5
742E
330
1E
100
AcDbEntity
  8
STEMPEL
100
AcDbLine
 10
681.5944485767662
 20
503.1339479555462
 30
0.0
 11
681.5944485767662
 21
497.1339479555463
 31
0.0
  0
LINE
  5
742F
330
1E
100
AcDbEntity
  8
STEMPEL
  6
Continuous
100
AcDbLine
 10
681.5944485767662
 20
497.1339479555463
 30
0.0
 11
351.5944485767662
 21
497.1339479555463
 31
0.0
  0
LINE
  5
7430
330
1E
100
AcDbEntity
  8
STEMPEL
100
AcDbLine
 10
593.5944485767662
 20
240.2431003128173
 30
0.0
 11
592.0975917029672
 21
223.1339479555463
 31
0.0
  0
LINE
  5
7431
330
1E
100
AcDbEntity
  8
STEMPEL
100
AcDbLine
 10
596.0944485767662
 20
240.1339479555468
 30
0.0
 11
594.6071412968257
 21
223.1339479555463
 31
0.0
  0
LINE
  5
7432
330
1E
100
AcDbEntity
  8
STEMPEL
  6
Continuous
100
AcDbLine
 10
596.0944485767662
 20
415.6062000409419
 30
0.0
 11
596.0944485767662
 21
240.1339479555471
 31
0.0
  0
LINE
  5
7433
330
1E
100
AcDbEntity
  8
STEMPEL
  6
Continuous
100
AcDbLine
 10
593.5944485767662
 20
415.6062000409419
 30
0.0
 11
593.5944485767662
 21
240.2431003128176
 31
0.0
  0
LINE
  5
7434
330
1E
100
AcDbEntity
  8
HILF
100
AcDbLine
 10
442.5944485767662
 20
240.1339479555463
 30
0.0
 11
590.5944485767662
 21
240.1339479555463
 31
0.0
  0
LINE
  5
7435
330
1E
100
AcDbEntity
  8
STEMPEL
100
AcDbLine
 10
438.581755856707
 20
223.1339479555463
 30
0.0
 11
594.6071412968257
 21
223.1339479555463
 31
0.0
  0
LINE
  5
7436
330
1E
100
AcDbEntity
  8
STEMPEL
100
AcDbLine
 10
437.0944485767664
 20
240.1339479555468
 30
0.0
 11
438.581755856707
 21
223.1339479555463
 31
0.0
  0
LINE
  5
7437
330
1E
100
AcDbEntity
  8
STEMPEL
100
AcDbLine
 10
439.5944485767664
 20
240.2431003128173
 30
0.0
 11
441.0913054505654
 21
223.1339479555463
 31
0.0
  0
LINE
  5
7438
330
1E
100
AcDbEntity
  8
STEMPEL
100
AcDbLine
 10
351.5944485767662
 20
503.1339479555466
 30
0.0
 11
351.5944485767662
 21
497.1339479555463
 31
0.0
  0
LINE
  5
7439
330
1E
100
AcDbEntity
  8
STEMPEL
  6
Continuous
100
AcDbLine
 10
439.5944485767664
 20
415.6062000409419
 30
0.0
 11
439.5944485767664
 21
240.2431003128178
 31
0.0
  0
LINE
  5
743A
330
1E
100
AcDbEntity
  8
STEMPEL
  6
Continuous
100
AcDbLine
 10
437.0944485767664
 20
415.6062000409419
 30
0.0
 11
437.0944485767664
 21
240.1339479555466
 31
0.0
  0
HATCH
  5
743B
330
1E
100
AcDbEntity
  8
SCHRAFF
100
AcDbHatch
 10
0.0
 20
0.0
 30
0.0
210
0.0
220
0.0
230
1.0
  2
_USER
 70
     0
 71
     0
 91
        2
 92
        7
 72
     1
 73
     1
 93
       20
 10
604.5944485767662
 20
471.1844580338
 42
-0.1211241773283759
 10
600.9152195540865
 20
456.1084206132173
 42
0.1206909349745714
 10
598.5944485767662
 20
446.6339479555461
 42
0.0
 10
598.5944485767662
 20
431.5749194636132
 42
-0.1528962216020251
 10
595.8265914339095
 20
422.7350926403494
 42
0.1528962216020566
 10
593.5944485767662
 20
415.6062000409419
 42
0.0
 10
593.5944485767664
 20
240.2431003128196
 42
0.0
 10
592.0975917029672
 20
223.1339479555463
 42
0.0
 10
594.6071412968255
 20
223.1339479555463
 42
0.0
 10
596.0944485767664
 20
240.1339479555424
 42
0.0
 10
596.0944485767662
 20
415.6062000409419
 42
-0.1528962216020251
 10
597.8801628624802
 20
421.3093141204669
 42
0.152896221602047
 10
601.0944485767662
 20
431.5749194636132
 42
0.0
 10
601.0944485767662
 20
446.6339479555462
 42
-0.1206909349745679
 10
603.1321987031937
 20
454.9529971183793
 42
0.1202734944243562
 10
607.0944485767662
 20
471.071342426326
 42
0.0
 10
607.0944485767662
 20
487.3508437376123
 42
0.0709414746593051
 10
605.6993719044727
 20
497.1339479555463
 42
0.0
 10
603.0870423995012
 20
497.1339479555463
 42
-0.0765893830498023
 10
604.5944485767662
 20
487.3508437376117
 42
0.0
 97
        0
 92
        7
 72
     1
 73
     1
 93
       20
 10
426.0944485767662
 20
471.0713424263961
 42
0.1202734944248635
 10
430.0566984503388
 20
454.9529971183794
 42
-0.1206909349745671
 10
432.0944485767662
 20
446.6339479555464
 42
0.0
 10
432.0944485767662
 20
431.5749194636132
 42
0.1528962216020393
 10
435.3087342910518
 20
421.3093141204673
 42
-0.1528962216020495
 10
437.0944485767664
 20
415.6062000409416
 42
0.0
 10
437.0944485767664
 20
240.1339479555467
 42
0.0
 10
438.5817558567067
 20
223.1339479555464
 42
0.0
 10
441.0913054505654
 20
223.1339479555464
 42
0.0
 10
439.5944485767664
 20
240.2431003128198
 42
0.0
 10
439.5944485767664
 20
415.6062000409419
 42
0.1528962216020351
 10
437.3623057196235
 20
422.7350926403485
 42
-0.1528962216020437
 10
434.5944485767662
 20
431.5749194636132
 42
0.0
 10
434.5944485767662
 20
446.6339479555462
 42
0.12069093497457
 10
432.2736775994459
 20
456.1084206132173
 42
-0.1211241773284163
 10
428.5944485767662
 20
471.1844580338051
 42
0.0
 10
428.5944485767662
 20
487.3508437376123
 42
-0.076589383049797
 10
430.1018547540312
 20
497.1339479555463
 42
0.0
 10
427.4895252490597
 20
497.1339479555463
 42
0.0709414746593092
 10
426.0944485767662
 20
487.3508437376118
 42
0.0
 97
        0
 75
     0
 76
     0
 52
45.0
 41
2.0
 77
     0
 78
     1
 53
45.0
 43
272.0645771816393
 44
-199.8867491893122
 45
-1.414213562373094
 46
1.414213562373095
 79
     0
 47
0.6407199638404306
 98
        2
 10
605.5030399610212
 20
478.8595497218923
 10
427.2671904703205
 20
479.5002690550825
  0
ARC
  5
743C
330
1E
100
AcDbEntity
  8
SCHRAFF
100
AcDbCircle
 10
605.6993719044729
 20
497.1339479555463
 30
0.0
 40
5.0
100
AcDbArc
 50
282.1353518410729
 51
0.0
  0
ARC
  5
743D
330
1E
100
AcDbEntity
  8
SCHRAFF
100
AcDbCircle
 10
427.4895252490595
 20
497.1339479555463
 30
0.0
 40
5.0
100
AcDbArc
 50
180.0
 51
257.8646481589272
  0
HATCH
  5
743E
330
1E
100
AcDbEntity
  8
SCHRAFF
100
AcDbHatch
 10
0.0
 20
0.0
 30
0.0
210
0.0
220
0.0
230
1.0
  2
_USER
 70
     0
 71
     0
 91
        2
 92
        7
 72
     1
 73
     1
 93
        3
 10
426.438416143501
 20
492.2456793818882
 42
-0.0357599562310597
 10
427.4895252490595
 20
497.1339479555463
 42
0.0
 10
422.4895252490595
 20
497.1339479555463
 42
0.3534540684175169
 97
        0
 92
        7
 72
     1
 73
     1
 93
        3
 10
605.6993719044727
 20
497.1339479555464
 42
-0.0357599562310596
 10
606.7504810100314
 20
492.2456793818883
 42
0.3534540684175003
 10
610.6993719044727
 20
497.1339479555463
 42
0.0
 97
        0
 75
     0
 76
     0
 52
0.0
 41
0.1
 77
     0
 78
     1
 53
0.0
 43
272.0645771816393
 44
-199.8867491893122
 45
0.0
 46
0.1
 79
     0
 47
0.3123162083749499
 98
        2
 10
424.7633635636388
 20
494.3402729625538
 10
608.2120622449373
 20
495.5895372101593
  0
HATCH
  5
743F
330
1E
100
AcDbEntity
  8
SCHRAFF
100
AcDbHatch
 10
0.0
 20
0.0
 30
0.0
210
0.0
220
0.0
230
1.0
  2
_USER
 70
     0
 71
     0
 91
        2
 92
        7
 72
     0
 73
     1
 93
        4
 10
681.5944485767662
 20
503.1339479555462
 10
602.0944485767662
 20
503.1339479555464
 10
602.0944485767662
 20
497.1339479555464
 10
681.5944485767662
 20
497.1339479555463
 97
        0
 92
        7
 72
     0
 73
     1
 93
        4
 10
431.0944485767664
 20
503.1339479555466
 10
351.5944485767662
 20
503.1339479555465
 10
351.5944485767662
 20
497.1339479555462
 10
431.0944485767664
 20
497.1339479555462
 97
        0
 75
     0
 76
     0
 52
135.0
 41
5.0
 77
     0
 78
     1
 53
135.0
 43
272.0645771816393
 44
-199.8867491893122
 45
-3.535533905932737
 46
-3.535533905932737
 79
     0
 47
0.7230679435757049
 98
        2
 10
626.1631009436754
 20
500.034543704638
 10
414.9034899766419
 20
500.034543704638
  0
LINE
  5
7440
330
1E
100
AcDbEntity
  8
STEMPEL
100
AcDbLine
 10
681.5944485767659
 20
506.1339479555469
 30
0.0
 11
681.5944485767659
 21
503.1339479555469
 31
0.0
  0
LINE
  5
7447
330
1E
100
AcDbEntity
  8
STEMPEL
100
AcDbLine
 10
650.5944485767662
 20
506.133947955547
 30
0.0
 11
650.5944485767662
 21
503.1339479555465
 31
0.0
  0
LINE
  5
7449
330
1E
100
AcDbEntity
  8
STEMPEL
100
AcDbLine
 10
648.5944485767662
 20
515.6339479555472
 30
0.0
 11
648.5944485767662
 21
503.1339479555466
 31
0.0
  0
LINE
  5
744A
330
1E
100
AcDbEntity
  8
HILF
100
AcDbLine
 10
647.594448576766
 20
515.6339479555472
 30
0.0
 11
647.5944485767662
 21
503.1339479555466
 31
0.0
  0
LINE
  5
7452
330
1E
100
AcDbEntity
  8
STEMPEL
100
AcDbLine
 10
636.5944485767662
 20
506.133947955547
 30
0.0
 11
636.5944485767662
 21
503.1339479555466
 31
0.0
  0
LINE
  5
7453
330
1E
100
AcDbEntity
  8
HILF
100
AcDbLine
 10
639.5944485767662
 20
515.6339479555472
 30
0.0
 11
639.5944485767662
 21
503.1339479555465
 31
0.0
  0
LINE
  5
7455
330
1E
100
AcDbEntity
  8
STEMPEL
100
AcDbLine
 10
638.5944485767662
 20
515.6339479555472
 30
0.0
 11
638.5944485767662
 21
503.1339479555465
 31
0.0
  0
LINE
  5
745A
330
1E
100
AcDbEntity
  8
MITTEL
100
AcDbLine
 10
643.5944485767662
 20
533.1339479555461
 30
0.0
 11
643.5944485767662
 21
503.1339479555466
 31
0.0
  0
LINE
  5
7461
330
1E
100
AcDbEntity
  8
STEMPEL
100
AcDbLine
 10
648.5944485767662
 20
506.1339479555469
 30
0.0
 11
681.5944485767659
 21
506.1339479555469
 31
0.0
  0
LINE
  5
7462
330
1E
100
AcDbEntity
  8
STEMPEL
100
AcDbLine
 10
611.594448576766
 20
506.1339479555469
 30
0.0
 11
611.594448576766
 21
503.1339479555469
 31
0.0
  0
LINE
  5
746C
330
1E
100
AcDbEntity
  8
MITTEL
100
AcDbLine
 10
580.0944485767664
 20
533.1339479555464
 30
0.0
 11
580.0944485767664
 21
503.1339479555466
 31
0.0
  0
LINE
  5
7482
330
1E
100
AcDbEntity
  8
MITTEL
100
AcDbLine
 10
516.5944485767666
 20
636.1339479555466
 30
0.0
 11
516.5944485767666
 21
620.4130776080192
 31
0.0
  0
LINE
  5
7499
330
1E
100
AcDbEntity
  8
MITTEL
100
AcDbLine
 10
453.094448576766
 20
533.1339479555468
 30
0.0
 11
453.094448576766
 21
503.1339479555466
 31
0.0
  0
LINE
  5
74A0
330
1E
100
AcDbEntity
  8
STEMPEL
100
AcDbLine
 10
421.5944485767662
 20
506.1339479555469
 30
0.0
 11
421.5944485767662
 21
503.1339479555469
 31
0.0
  0
LINE
  5
74A4
330
1E
100
AcDbEntity
  8
STEMPEL
100
AcDbLine
 10
394.5944485767662
 20
527.1339479555477
 30
0.0
 11
394.5944485767661
 21
525.6339479555464
 31
0.0
  0
LINE
  5
74A5
330
1E
100
AcDbEntity
  8
HILF
100
AcDbLine
 10
393.5944485767663
 20
528.1339479555477
 30
0.0
 11
393.5944485767665
 21
525.6339479555465
 31
0.0
  0
LINE
  5
74A6
330
1E
100
AcDbEntity
  8
STEMPEL
100
AcDbLine
 10
394.5944485767662
 20
527.1339479555477
 30
0.0
 11
393.5944485767663
 21
528.1339479555477
 31
0.0
  0
LINE
  5
74A7
330
1E
100
AcDbEntity
  8
STEMPEL
100
AcDbLine
 10
385.5944485767663
 20
528.1339479555477
 30
0.0
 11
384.5944485767662
 21
527.1339479555477
 31
0.0
  0
LINE
  5
74A8
330
1E
100
AcDbEntity
  8
STEMPEL
100
AcDbLine
 10
384.5944485767662
 20
527.1339479555477
 30
0.0
 11
384.5944485767664
 21
525.6339479555464
 31
0.0
  0
LINE
  5
74A9
330
1E
100
AcDbEntity
  8
HILF
100
AcDbLine
 10
385.5944485767663
 20
528.1339479555477
 30
0.0
 11
385.5944485767664
 21
525.6339479555464
 31
0.0
  0
LINE
  5
74AC
330
1E
100
AcDbEntity
  8
STEMPEL
100
AcDbLine
 10
384.5944485767662
 20
527.1339479555478
 30
0.0
 11
394.5944485767662
 21
527.1339479555478
 31
0.0
  0
LINE
  5
74AD
330
1E
100
AcDbEntity
  8
STEMPEL
100
AcDbLine
 10
393.5944485767663
 20
528.1339479555477
 30
0.0
 11
385.5944485767663
 21
528.1339479555477
 31
0.0
  0
LINE
  5
74AE
330
1E
100
AcDbEntity
  8
STEMPEL
100
AcDbLine
 10
396.5944485767662
 20
506.133947955547
 30
0.0
 11
396.5944485767662
 21
503.1339479555465
 31
0.0
  0
LINE
  5
74AF
330
1E
100
AcDbEntity
  8
HILF
100
AcDbLine
 10
393.5944485767663
 20
515.633947955547
 30
0.0
 11
393.5944485767663
 21
503.1339479555465
 31
0.0
  0
LINE
  5
74B0
330
1E
100
AcDbEntity
  8
STEMPEL
100
AcDbLine
 10
394.5944485767662
 20
515.633947955547
 30
0.0
 11
394.5944485767662
 21
503.1339479555465
 31
0.0
  0
LINE
  5
74B2
330
1E
100
AcDbEntity
  8
STEMPEL
100
AcDbLine
 10
382.5944485767662
 20
506.133947955547
 30
0.0
 11
382.5944485767662
 21
503.1339479555466
 31
0.0
  0
LINE
  5
74B3
330
1E
100
AcDbEntity
  8
HILF
100
AcDbLine
 10
385.5944485767663
 20
515.633947955547
 30
0.0
 11
385.5944485767663
 21
503.1339479555466
 31
0.0
  0
LINE
  5
74B4
330
1E
100
AcDbEntity
  8
STEMPEL
100
AcDbLine
 10
384.594448576766
 20
515.633947955547
 30
0.0
 11
384.5944485767662
 21
503.1339479555466
 31
0.0
  0
LINE
  5
74B7
330
1E
100
AcDbEntity
  8
MITTEL
100
AcDbLine
 10
389.5944485767662
 20
533.1339479555469
 30
0.0
 11
389.5944485767662
 21
503.1339479555466
 31
0.0
  0
LINE
  5
74C1
330
1E
100
AcDbEntity
  8
STEMPEL
100
AcDbLine
 10
351.594448576766
 20
506.1339479555469
 30
0.0
 11
351.594448576766
 21
503.1339479555469
 31
0.0
  0
LINE
  5
74C3
330
1E
100
AcDbEntity
  8
STEMPEL
100
AcDbLine
 10
351.594448576766
 20
506.133947955547
 30
0.0
 11
384.5944485767662
 21
506.133947955547
 31
0.0
  0
LINE
  5
74C5
330
1E
100
AcDbEntity
  8
STEMPEL
100
AcDbLine
 10
351.594448576766
 20
503.1339479555469
 30
0.0
 11
681.5944485767659
 21
503.1339479555462
 31
0.0
  0
LINE
  5
74C7
330
1E
100
AcDbEntity
  8
STEMPEL
100
AcDbLine
 10
394.5944485767662
 20
506.133947955547
 30
0.0
 11
638.5944485767662
 21
506.1339479555469
 31
0.0
  0
LINE
  5
74F8
330
1E
100
AcDbEntity
  8
STEMPEL
100
AcDbLine
 10
265.094448576766
 20
523.1339479555467
 30
0.0
 11
263.0944485767654
 21
523.1339479555467
 31
0.0
  0
LINE
  5
74F9
102
{ACAD_REACTORS
330
7898
102
}
330
1E
100
AcDbEntity
  8
STEMPEL
100
AcDbLine
 10
255.094448576766
 20
508.1339479555468
 30
0.0
 11
255.094448576766
 21
523.1339479555467
 31
0.0
  0
LINE
  5
74FA
102
{ACAD_REACTORS
330
7898
102
}
330
1E
100
AcDbEntity
  8
STEMPEL
100
AcDbLine
 10
265.094448576766
 20
508.1339479555468
 30
0.0
 11
265.094448576766
 21
523.1339479555467
 31
0.0
  0
LINE
  5
74FB
102
{ACAD_REACTORS
330
7898
102
}
330
1E
100
AcDbEntity
  8
HILF
100
AcDbLine
 10
257.094448576766
 20
514.1339479555467
 30
0.0
 11
257.094448576766
 21
517.233947955547
 31
0.0
  0
LINE
  5
74FC
102
{ACAD_REACTORS
330
7898
102
}
330
1E
100
AcDbEntity
  8
HILF
100
AcDbLine
 10
263.094448576766
 20
514.1339479555467
 30
0.0
 11
263.094448576766
 21
517.2339479555467
 31
0.0
  0
LINE
  5
74FD
102
{ACAD_REACTORS
330
7898
102
}
330
1E
100
AcDbEntity
  8
STEMPEL
100
AcDbLine
 10
263.094448576766
 20
514.1339479555465
 30
0.0
 11
257.094448576766
 21
514.1339479555467
 31
0.0
  0
LINE
  5
74FE
102
{ACAD_REACTORS
330
7898
102
}
330
1E
100
AcDbEntity
  8
STEMPEL
100
AcDbLine
 10
262.094448576766
 20
512.1339479555463
 30
0.0
 11
262.094448576766
 21
516.2339479555469
 31
0.0
  0
LINE
  5
74FF
102
{ACAD_REACTORS
330
7898
102
}
330
1E
100
AcDbEntity
  8
STEMPEL
100
AcDbLine
 10
258.094448576766
 20
512.1339479555465
 30
0.0
 11
258.094448576766
 21
516.2339479555469
 31
0.0
  0
LINE
  5
7500
330
1E
100
AcDbEntity
  8
STEMPEL
100
AcDbLine
 10
262.094448576766
 20
512.1339479555468
 30
0.0
 11
258.094448576766
 21
512.1339479555468
 31
0.0
  0
LINE
  5
7501
102
{ACAD_REACTORS
330
7898
102
}
330
1E
100
AcDbEntity
  8
STEMPEL
100
AcDbLine
 10
258.094448576766
 20
512.1339479555468
 30
0.0
 11
260.094448576766
 21
511.5980495706844
 31
0.0
  0
LINE
  5
7502
102
{ACAD_REACTORS
330
7898
102
}
330
1E
100
AcDbEntity
  8
STEMPEL
100
AcDbLine
 10
262.094448576766
 20
512.1339479555468
 30
0.0
 11
260.094448576766
 21
511.5980495706844
 31
0.0
  0
HATCH
  5
7503
330
1E
100
AcDbEntity
  8
SCHRAFF
100
AcDbHatch
 10
0.0
 20
0.0
 30
0.0
210
0.0
220
0.0
230
1.0
  2
_USER
 70
     0
 71
     0
 91
        6
 92
        7
 72
     0
 73
     1
 93
        4
 10
783.094448576766
 20
506.1339479555469
 10
783.0944485767662
 20
508.1339479555469
 10
644.8444485767662
 20
508.1339479555469
 10
644.844448576766
 20
506.133947955547
 97
        0
 92
        7
 72
     0
 73
     1
 93
        4
 10
652.5944485767665
 20
508.1339479555469
 10
644.8444485767658
 20
508.1339479555468
 10
644.8444485767658
 20
506.133947955547
 10
652.5944485767666
 20
506.1339479555469
 97
        0
 92
        7
 72
     0
 73
     1
 93
        4
 10
634.594448576766
 20
508.1339479555468
 10
611.5944485767662
 20
508.1339479555468
 10
611.594448576766
 20
506.133947955547
 10
634.5944485767662
 20
506.133947955547
 97
        0
 92
        7
 72
     0
 73
     1
 93
        4
 10
421.5944485767662
 20
508.1339479555468
 10
397.594448576766
 20
508.1339479555468
 10
397.594448576766
 20
506.133947955547
 10
421.5944485767662
 20
506.1339479555471
 97
        0
 92
        7
 72
     0
 73
     1
 93
        4
 10
381.5944485767662
 20
506.133947955547
 10
381.5944485767662
 20
508.1339479555468
 10
260.094448576766
 20
508.1339479555468
 10
260.0944485767662
 20
506.133947955547
 97
        0
 92
        7
 72
     0
 73
     1
 93
        4
 10
250.0944485767665
 20
508.1339479555468
 10
250.0944485767663
 20
506.133947955547
 10
260.0944485767662
 20
506.1339479555471
 10
260.0944485767665
 20
508.1339479555468
 97
        0
 75
     0
 76
     0
 52
45.0
 41
2.0
 77
     0
 78
     1
 53
45.0
 43
-40.93635180901367
 44
-714.3789954969342
 45
-1.414213562373094
 46
1.414213562373095
 79
     0
 47
0.6096248001726293
 98
        6
 10
747.8808490304885
 20
506.8998786425945
 10
632.5961270214105
 20
507.5095040668793
 10
587.4581949909774
 20
507.5095040668793
 10
439.8449552184168
 20
507.5095040668793
 10
373.9679721265851
 20
506.8998786425945
 10
255.0234202098712
 20
507.5095040668793
  0
LINE
  5
7504
330
1E
100
AcDbEntity
  8
MITTEL
100
AcDbLine
 10
643.5944485767664
 20
501.1339479555486
 30
0.0
 11
643.5944485767662
 21
514.6339479555481
 31
0.0
  0
LINE
  5
7505
330
1E
100
AcDbEntity
  8
STEMPEL
100
AcDbLine
 10
652.5944485767665
 20
506.1339479555488
 30
0.0
 11
652.5944485767662
 21
508.1339479555485
 31
0.0
  0
LINE
  5
7506
330
1E
100
AcDbEntity
  8
STEMPEL
100
AcDbLine
 10
634.5944485767664
 20
506.1339479555486
 30
0.0
 11
634.5944485767662
 21
508.1339479555484
 31
0.0
  0
LINE
  5
7507
330
1E
100
AcDbEntity
  8
STEMPEL
100
AcDbLine
 10
397.594448576766
 20
506.133947955547
 30
0.0
 11
397.5944485767663
 21
509.6339479555467
 31
0.0
  0
LINE
  5
7508
330
1E
100
AcDbEntity
  8
STEMPEL
100
AcDbLine
 10
381.5944485767662
 20
506.133947955547
 30
0.0
 11
381.5944485767662
 21
508.1339479555468
 31
0.0
  0
LINE
  5
7509
330
1E
100
AcDbEntity
  8
MITTEL
100
AcDbLine
 10
389.5944485767662
 20
501.133947955547
 30
0.0
 11
389.5944485767662
 21
514.6339479555465
 31
0.0
  0
LINE
  5
750A
330
1E
100
AcDbEntity
  8
STEMPEL
100
AcDbLine
 10
611.5944485767662
 20
508.1339479555469
 30
0.0
 11
611.594448576766
 21
506.133947955547
 31
0.0
  0
LINE
  5
750B
330
1E
100
AcDbEntity
  8
STEMPEL
100
AcDbLine
 10
421.5944485767662
 20
508.1339479555468
 30
0.0
 11
421.5944485767662
 21
506.133947955547
 31
0.0
  0
LINE
  5
750D
102
{ACAD_REACTORS
330
7898
102
}
330
1E
100
AcDbEntity
  8
MITTEL
100
AcDbLine
 10
260.094448576766
 20
501.133947955547
 30
0.0
 11
260.094448576766
 21
528.1339479555468
 31
0.0
  0
LINE
  5
750E
330
1E
100
AcDbEntity
  8
STEMPEL
100
AcDbLine
 10
783.0944485767662
 20
506.133947955547
 30
0.0
 11
783.0944485767662
 21
508.1339479555468
 31
0.0
  0
LINE
  5
750F
330
1E
100
AcDbEntity
  8
STEMPEL
100
AcDbLine
 10
250.0944485767663
 20
506.133947955547
 30
0.0
 11
250.0944485767663
 21
508.1339479555465
 31
0.0
  0
LINE
  5
7510
330
1E
100
AcDbEntity
  8
STEMPEL
100
AcDbLine
 10
783.0944485767662
 20
508.1339479555469
 30
0.0
 11
648.594448576766
 21
508.1339479555469
 31
0.0
  0
LINE
  5
7511
330
1E
100
AcDbEntity
  8
STEMPEL
100
AcDbLine
 10
783.0944485767662
 20
506.133947955547
 30
0.0
 11
648.5944485767662
 21
506.133947955547
 31
0.0
  0
LINE
  5
7514
330
1E
100
AcDbEntity
  8
STEMPEL
100
AcDbLine
 10
638.5944485767662
 20
506.133947955547
 30
0.0
 11
394.5944485767662
 21
506.133947955547
 31
0.0
  0
LINE
  5
7515
330
1E
100
AcDbEntity
  8
STEMPEL
100
AcDbLine
 10
384.594448576766
 20
506.1339479555469
 30
0.0
 11
250.0944485767663
 21
506.133947955547
 31
0.0
  0
LINE
  5
7533
330
1E
100
AcDbEntity
  8
STEMPEL
100
AcDbLine
 10
359.5944485767662
 20
515.6339479555464
 30
0.0
 11
673.5944485767662
 21
515.633947955547
 31
0.0
  0
LINE
  5
7534
330
1E
100
AcDbEntity
  8
STEMPEL
100
AcDbLine
 10
382.5944485767664
 20
515.6339479555469
 30
0.0
 11
382.5944485767664
 21
509.6339479555467
 31
0.0
  0
LINE
  5
7535
330
1E
100
AcDbEntity
  8
STEMPEL
100
AcDbLine
 10
396.5944485767665
 20
515.6339479555469
 30
0.0
 11
396.5944485767665
 21
509.6339479555466
 31
0.0
  0
LINE
  5
7536
330
1E
100
AcDbEntity
  8
MITTEL
100
AcDbLine
 10
419.8053410612343
 20
533.1339479555461
 30
0.0
 11
419.8053410612343
 21
503.1339479555466
 31
0.0
  0
ARC
  5
7537
330
1E
100
AcDbEntity
  8
STEMPEL
100
AcDbCircle
 10
673.5944485767662
 20
512.6339479555468
 30
0.0
 40
3.0
100
AcDbArc
 50
270.0
 51
90.0
  0
ARC
  5
7538
330
1E
100
AcDbEntity
  8
STEMPEL
100
AcDbCircle
 10
359.5944485767662
 20
512.6339479555468
 30
0.0
 40
3.0
100
AcDbArc
 50
90.0
 51
270.0
  0
ARC
  5
7539
330
1E
100
AcDbEntity
  8
STEMPEL
100
AcDbCircle
 10
613.5944485767662
 20
512.6339479555467
 30
0.0
 40
3.0
100
AcDbArc
 50
90.0
 51
270.0
  0
ARC
  5
753A
330
1E
100
AcDbEntity
  8
STEMPEL
100
AcDbCircle
 10
419.5944485767665
 20
512.6339479555465
 30
0.0
 40
3.0
100
AcDbArc
 50
270.0
 51
90.0
  0
LINE
  5
753B
330
1E
100
AcDbEntity
  8
STEMPEL
100
AcDbLine
 10
427.3053410612343
 20
529.6339479555462
 30
0.0
 11
412.3053410612343
 21
529.6339479555462
 31
0.0
  0
ARC
  5
753C
330
1E
100
AcDbEntity
  8
STEMPEL
100
AcDbCircle
 10
432.4631982858078
 20
520.6339479555461
 30
0.0
 40
5.0
100
AcDbArc
 50
181.0000000000017
 51
270.0
  0
LINE
  5
753D
330
1E
100
AcDbEntity
  8
STEMPEL
100
AcDbLine
 10
427.4719408738907
 20
520.0894510807731
 30
0.0
 11
427.3053410612343
 21
529.6339479555462
 31
0.0
  0
LINE
  5
753E
330
1E
100
AcDbEntity
  8
STEMPEL
100
AcDbLine
 10
412.1467223124429
 20
520.5466859233596
 30
0.0
 11
412.3053410612343
 21
529.6339479555462
 31
0.0
  0
ARC
  5
753F
330
1E
100
AcDbEntity
  8
STEMPEL
100
AcDbCircle
 10
407.1474838366608
 20
520.633947955546
 30
0.0
 40
5.0
100
AcDbArc
 50
270.0
 51
358.9999999999982
  0
ARC
  5
7540
330
1E
100
AcDbEntity
  8
STEMPEL
100
AcDbCircle
 10
616.6465913521925
 20
520.6339479555463
 30
0.0
 40
5.0
100
AcDbArc
 50
270.0
 51
358.9999999999982
  0
LINE
  5
7541
330
1E
100
AcDbEntity
  8
STEMPEL
100
AcDbLine
 10
621.6458298279746
 20
520.54668592336
 30
0.0
 11
621.804448576766
 21
529.6339479555465
 31
0.0
  0
LINE
  5
7542
330
1E
100
AcDbEntity
  8
STEMPEL
100
AcDbLine
 10
636.8742688364789
 20
525.6339479555457
 30
0.0
 11
636.8044485767661
 21
529.6339479555465
 31
0.0
  0
LINE
  5
7544
330
1E
100
AcDbEntity
  8
STEMPEL
100
AcDbLine
 10
636.8044485767661
 20
529.6339479555465
 30
0.0
 11
621.804448576766
 21
529.6339479555465
 31
0.0
  0
LINE
  5
7545
330
1E
100
AcDbEntity
  8
MITTEL
100
AcDbLine
 10
629.304448576766
 20
533.1339479555465
 30
0.0
 11
629.304448576766
 21
503.133947955547
 31
0.0
  0
LINE
  5
7546
330
1E
100
AcDbEntity
  8
STEMPEL
100
AcDbLine
 10
636.594448576766
 20
515.6339479555469
 30
0.0
 11
636.594448576766
 21
509.6339479555466
 31
0.0
  0
LINE
  5
7547
330
1E
100
AcDbEntity
  8
STEMPEL
100
AcDbLine
 10
650.594448576766
 20
515.6339479555469
 30
0.0
 11
650.594448576766
 21
509.6339479555467
 31
0.0
  0
HATCH
  5
7548
330
1E
100
AcDbEntity
  8
SCHRAFF
100
AcDbHatch
 10
0.0
 20
0.0
 30
0.0
210
0.0
220
0.0
230
1.0
  2
_USER
 70
     0
 71
     0
 91
        6
 92
        7
 72
     1
 73
     1
 93
        4
 10
650.594448576766
 20
515.6339479555469
 42
0.0
 10
650.594448576766
 20
509.6339479555471
 42
0.0
 10
673.5944485767662
 20
509.6339479555471
 42
1.0
 10
673.5944485767662
 20
515.633947955547
 42
0.0
 97
        0
 92
        7
 72
     0
 73
     1
 93
        4
 10
636.594448576766
 20
509.6339479555471
 10
636.594448576766
 20
515.633947955547
 10
629.304448576766
 20
515.6339479555469
 10
629.304448576766
 20
509.6339479555468
 97
        0
 92
        7
 72
     1
 73
     1
 93
        4
 10
629.304448576766
 20
509.6339479555471
 42
0.0
 10
629.304448576766
 20
515.6339479555469
 42
0.0
 10
613.5944485767662
 20
515.6339479555469
 42
1.0
 10
613.5944485767662
 20
509.633947955547
 42
0.0
 97
        0
 92
        7
 72
     1
 73
     1
 93
        2
 10
419.8053410612343
 20
509.6413697427014
 42
0.9320082274074453
 10
419.8053410612343
 20
515.6265261683915
 42
0.0
 97
        0
 92
        7
 72
     1
 73
     1
 93
        6
 10
396.5944485767665
 20
515.6339479555464
 42
0.0
 10
396.5944485767665
 20
509.6339479555466
 42
0.0
 10
419.5944485767665
 20
509.6339479555466
 42
0.0175906946879016
 10
419.8053410612343
 20
509.6413697427016
 42
0.0
 10
419.8053410612343
 20
515.6265261683915
 42
0.017590694687906
 10
419.5944485767665
 20
515.6339479555465
 42
0.0
 97
        0
 92
        7
 72
     1
 73
     1
 93
        4
 10
382.5944485767664
 20
509.6339479555465
 42
0.0
 10
382.5944485767664
 20
515.6339479555465
 42
0.0
 10
359.5944485767662
 20
515.6339479555464
 42
1.0
 10
359.5944485767662
 20
509.6339479555465
 42
0.0
 97
        0
 75
     0
 76
     0
 52
45.0
 41
5.0
 77
     0
 78
     1
 53
45.0
 43
291.0991662561697
 44
-11.01281100752555
 45
-3.535533905932737
 46
3.535533905932737
 79
     0
 47
0.4992078678260896
 98
        6
 10
657.8963795432688
 20
512.8638368760087
 10
633.4268952897879
 20
512.3646288536669
 10
619.9437092208833
 20
512.3646288536669
 10
421.1915619650645
 20
512.8638368760087
 10
414.2002818064885
 20
512.8638368760087
 10
372.7519695555821
 20
512.3646288536669
  0
LINE
  5
7549
102
{ACAD_REACTORS
330
7898
102
}
330
1E
100
AcDbEntity
  8
STEMPEL
100
AcDbLine
 10
384.5944485767662
 20
508.1339479555468
 30
0.0
 11
250.0944485767663
 21
508.1339479555468
 31
0.0
  0
LINE
  5
754B
330
1E
100
AcDbEntity
  8
STEMPEL
100
AcDbLine
 10
638.5944485767664
 20
508.1339479555469
 30
0.0
 11
394.5944485767662
 21
508.1339479555468
 31
0.0
  0
HATCH
  5
7573
330
1E
100
AcDbEntity
  8
SCHRAFF
100
AcDbHatch
 10
0.0
 20
0.0
 30
0.0
210
0.0
220
0.0
230
1.0
  2
_USER
 70
     0
 71
     0
 91
        4
 92
        7
 72
     1
 73
     1
 93
        8
 10
651.5944485767662
 20
508.1339479555469
 42
0.0
 10
706.0944485767662
 20
508.1339479555468
 42
0.4142135623730946
 10
710.0944485767662
 20
512.1339479555468
 42
0.0
 10
710.0944485767662
 20
568.1339479555466
 42
0.0
 10
708.5944485767662
 20
568.1339479555466
 42
0.0
 10
708.5944485767662
 20
512.1339479555468
 42
-0.4142135623730946
 10
706.0944485767662
 20
509.6339479555467
 42
0.0
 10
651.5944485767662
 20
509.633947955547
 42
0.0
 97
        0
 92
        7
 72
     0
 73
     1
 93
        4
 10
611.5944485767665
 20
508.1339479555469
 10
635.5944485767662
 20
508.1339479555468
 10
635.5944485767662
 20
509.633947955547
 10
611.5944485767665
 20
509.633947955547
 97
        0
 92
        7
 72
     0
 73
     1
 93
        4
 10
397.5944485767663
 20
508.1339479555469
 10
421.5944485767662
 20
508.1339479555469
 10
421.5944485767662
 20
509.6339479555471
 10
397.5944485767663
 20
509.6339479555471
 97
        0
 92
        7
 72
     1
 73
     1
 93
        8
 10
324.5944485767662
 20
512.1339479555469
 42
0.0
 10
324.5944485767662
 20
568.1339479555468
 42
0.0
 10
323.0944485767663
 20
568.1339479555466
 42
0.0
 10
323.0944485767663
 20
512.1339479555469
 42
0.4142135623730951
 10
327.0944485767663
 20
508.1339479555469
 42
0.0
 10
381.5944485767662
 20
508.1339479555469
 42
0.0
 10
381.5944485767662
 20
509.6339479555471
 42
0.0
 10
327.0944485767663
 20
509.633947955547
 42
-0.4142135623730951
 97
        0
 75
     0
 76
     0
 52
135.0
 41
2.0
 77
     0
 78
     1
 53
135.0
 43
-988.1160470245379
 44
0.0
 45
-1.414213562373095
 46
-1.414213562373094
 79
     0
 47
0.452799170750717
 98
        4
 10
646.3881002431634
 20
508.7683412997482
 10
590.6603357580678
 20
508.7683412997482
 10
444.7713930745579
 20
508.7683412997482
 10
326.5197970656381
 20
534.5778930325638
  0
LINE
  5
7574
330
1E
100
AcDbEntity
  8
STEMPEL
100
AcDbLine
 10
708.5944485767662
 20
512.1339479555468
 30
0.0
 11
708.5944485767662
 21
568.1339479555466
 31
0.0
  0
ARC
  5
7575
330
1E
100
AcDbEntity
  8
STEMPEL
100
AcDbCircle
 10
706.0944485767662
 20
512.1339479555468
 30
0.0
 40
2.5
100
AcDbArc
 50
270.0
 51
0.0
  0
LINE
  5
7576
330
1E
100
AcDbEntity
  8
STEMPEL
100
AcDbLine
 10
706.0944485767662
 20
509.6339479555467
 30
0.0
 11
648.594448576766
 21
509.6339479555467
 31
0.0
  0
ARC
  5
7577
330
1E
100
AcDbEntity
  8
STEMPEL
100
AcDbCircle
 10
327.0944485767663
 20
512.1339479555469
 30
0.0
 40
2.5
100
AcDbArc
 50
180.0
 51
270.0
  0
LINE
  5
7578
330
1E
100
AcDbEntity
  8
STEMPEL
100
AcDbLine
 10
324.5944485767662
 20
512.1339479555469
 30
0.0
 11
324.5944485767662
 21
568.1339479555467
 31
0.0
  0
LINE
  5
7579
330
1E
100
AcDbEntity
  8
STEMPEL
100
AcDbLine
 10
397.5944485767663
 20
508.1339479555468
 30
0.0
 11
397.5944485767663
 21
509.633947955547
 31
0.0
  0
LINE
  5
757A
330
1E
100
AcDbEntity
  8
STEMPEL
100
AcDbLine
 10
381.5944485767662
 20
508.1339479555468
 30
0.0
 11
381.5944485767662
 21
509.633947955547
 31
0.0
  0
LINE
  5
757B
330
1E
100
AcDbEntity
  8
STEMPEL
100
AcDbLine
 10
635.5944485767662
 20
508.1339479555468
 30
0.0
 11
635.5944485767662
 21
509.6339479555468
 31
0.0
  0
LINE
  5
757C
330
1E
100
AcDbEntity
  8
STEMPEL
100
AcDbLine
 10
651.5944485767662
 20
508.1339479555468
 30
0.0
 11
651.5944485767662
 21
509.6339479555468
 31
0.0
  0
LINE
  5
757D
330
1E
100
AcDbEntity
  8
STEMPEL
100
AcDbLine
 10
611.5944485767662
 20
508.1339479555468
 30
0.0
 11
611.5944485767662
 21
509.6339479555468
 31
0.0
  0
LINE
  5
757E
330
1E
100
AcDbEntity
  8
STEMPEL
100
AcDbLine
 10
421.5944485767662
 20
508.1339479555469
 30
0.0
 11
421.5944485767662
 21
509.6339479555468
 31
0.0
  0
ARC
  5
757F
330
1E
100
AcDbEntity
  8
STEMPEL
100
AcDbCircle
 10
327.0944485767663
 20
512.1339479555469
 30
0.0
 40
4.0
100
AcDbArc
 50
180.0
 51
270.0
  0
ARC
  5
7580
330
1E
100
AcDbEntity
  8
STEMPEL
100
AcDbCircle
 10
706.0944485767662
 20
512.1339479555468
 30
0.0
 40
4.0
100
AcDbArc
 50
270.0
 51
0.0
  0
LINE
  5
7581
330
1E
100
AcDbEntity
  8
STEMPEL
100
AcDbLine
 10
710.0944485767662
 20
512.1339479555468
 30
0.0
 11
710.0944485767662
 21
568.1339479555466
 31
0.0
  0
LINE
  5
7582
330
1E
100
AcDbEntity
  8
STEMPEL
100
AcDbLine
 10
323.0944485767663
 20
512.1339479555469
 30
0.0
 11
323.0944485767663
 21
568.1339479555467
 31
0.0
  0
LINE
  5
7583
330
1E
100
AcDbEntity
  8
STEMPEL
100
AcDbLine
 10
710.0944485767662
 20
568.1339479555466
 30
0.0
 11
323.0944485767663
 21
568.1339479555467
 31
0.0
  0
LINE
  5
7585
330
1E
100
AcDbEntity
  8
STEMPEL
100
AcDbLine
 10
384.594448576766
 20
509.633947955547
 30
0.0
 11
327.0944485767663
 21
509.633947955547
 31
0.0
  0
LINE
  5
7586
330
1E
100
AcDbEntity
  8
STEMPEL
100
AcDbLine
 10
638.5944485767662
 20
509.6339479555468
 30
0.0
 11
394.5944485767662
 21
509.6339479555468
 31
0.0
  0
LINE
  5
764F
330
1E
100
AcDbEntity
  8
STEMPEL
100
AcDbLine
 10
250.094448576766
 20
523.1339479555467
 30
0.0
 11
257.0944485767646
 21
523.1339479555466
 31
0.0
  0
LINE
  5
7650
330
1E
100
AcDbEntity
  8
STEMPEL
100
AcDbLine
 10
250.094448576766
 20
523.1339479555467
 30
0.0
 11
250.094448576766
 21
524.6339479555466
 31
0.0
  0
LINE
  5
7651
330
1E
100
AcDbEntity
  8
STEMPEL
100
AcDbLine
 10
360.862033938923
 20
631.1339479555466
 30
0.0
 11
672.326863214609
 21
631.1339479555469
 31
0.0
  0
LINE
  5
7652
330
1E
100
AcDbEntity
  8
STEMPEL
100
AcDbLine
 10
275.862033938923
 20
529.6339479555467
 30
0.0
 11
275.862033938923
 21
546.1339479555467
 31
0.0
  0
ARC
  5
7653
330
1E
100
AcDbEntity
  8
STEMPEL
100
AcDbCircle
 10
360.862033938923
 20
546.1339479555467
 30
0.0
 40
85.0
100
AcDbArc
 50
90.0
 51
180.0
  0
ARC
  5
7654
330
1E
100
AcDbEntity
  8
STEMPEL
100
AcDbCircle
 10
672.3268632146092
 20
546.1339479555464
 30
0.0
 40
85.0
100
AcDbArc
 50
0.0
 51
90.0
  0
LINE
  5
7655
330
1E
100
AcDbEntity
  8
STEMPEL
100
AcDbLine
 10
757.3268632146092
 20
529.6339479555468
 30
0.0
 11
757.3268632146092
 21
546.1339479555456
 31
0.0
  0
LINE
  5
7656
330
1E
100
AcDbEntity
  8
STEMPEL
100
AcDbLine
 10
783.094448576766
 20
523.1339479555464
 30
0.0
 11
783.094448576766
 21
524.6339479555468
 31
0.0
  0
LINE
  5
7657
330
1E
100
AcDbEntity
  8
STEMPEL
100
AcDbLine
 10
256.094448576766
 20
523.1339479555469
 30
0.0
 11
256.094448576766
 21
524.6339479555468
 31
0.0
  0
LINE
  5
7658
330
1E
100
AcDbEntity
  8
STEMPEL
100
AcDbLine
 10
264.094448576766
 20
523.1339479555469
 30
0.0
 11
264.094448576766
 21
524.6339479555468
 31
0.0
  0
DIMENSION
  5
7659
330
1E
100
AcDbEntity
  8
BEM
100
AcDbDimension
  2
*D2
 10
275.862033938923
 20
644.4934184547578
 30
0.0
 11
516.5944485767661
 21
652.6184184547578
 31
0.0
 70
    32
  1
%%c482
 71
     5
 42
481.4648292756863
  3
Standard
100
AcDbAlignedDimension
 13
757.3268632146092
 23
542.1339479555464
 33
0.0
 14
275.862033938923
 24
542.1339479555467
 34
0.0
100
AcDbRotatedDimension
1001
ACAD
1000
DSTYLE
1002
{
1070
    40
1040
2.5
1070
    41
1040
3.5
1070
    42
1040
1.0
1070
    43
1040
7.0
1070
    44
1040
1.0
1070
    73
1070
     0
1070
    74
1070
     0
1070
    77
1070
     1
1070
    78
1070
     8
1070
    79
1070
     2
1070
   140
1040
3.5
1070
   141
1040
1.5
1070
   146
1040
0.5142857142857144
1070
   147
1040
1.5
1070
   172
1070
     1
1070
   178
1070
     1
1070
   179
1070
     2
1070
   271
1070
     2
1070
   272
1070
     2
1070
   284
1070
     8
1070
   285
1070
     8
1070
   286
1070
     8
1002
}
  0
LINE
  5
7682
330
1E
100
AcDbEntity
  8
STEMPEL
100
AcDbLine
 10
319.1441997335186
 20
523.1339479555469
 30
0.0
 11
319.1441997335186
 21
535.6339479555467
 31
0.0
  0
ELLIPSE
  5
7683
330
1E
100
AcDbEntity
  8
STEMPEL
100
AcDbEllipse
 10
315.125498771176
 20
535.6339479555467
 30
0.0
 11
0.0
 21
7.5
 31
0.0
210
0.0
220
0.0
230
1.0
 40
0.5358267949789991
 41
4.712388980384689
 42
7.853981633974482
  0
LINE
  5
7684
330
1E
100
AcDbEntity
  8
STEMPEL
100
AcDbLine
 10
311.1067978088337
 20
523.1339479555466
 30
0.0
 11
311.1067978088337
 21
535.6339479555466
 31
0.0
  0
ELLIPSE
  5
7685
330
1E
100
AcDbEntity
  8
STEMPEL
100
AcDbEllipse
 10
313.4360159179606
 20
535.6339479555467
 30
0.0
 11
0.0
 21
7.5
 31
0.0
210
0.0
220
0.0
230
1.0
 40
0.5358267949789991
 41
4.712388980384689
 42
6.071403112986319
  0
LINE
  5
7686
330
1E
100
AcDbEntity
  8
STEMPEL
100
AcDbLine
 10
317.4547168803032
 20
523.1339479555469
 30
0.0
 11
317.4547168803032
 21
535.6339479555467
 31
0.0
  0
LINE
  5
7687
330
1E
100
AcDbEntity
  8
STEMPEL
100
AcDbLine
 10
303.8828699392767
 20
523.1339479555467
 30
0.0
 11
303.8828699392767
 21
535.6339479555467
 31
0.0
  0
LINE
  5
7688
330
1E
100
AcDbEntity
  8
STEMPEL
100
AcDbLine
 10
297.4961805658007
 20
523.1339479555466
 30
0.0
 11
297.4961805658007
 21
535.6339479555466
 31
0.0
  0
ELLIPSE
  5
7689
330
1E
100
AcDbEntity
  8
STEMPEL
100
AcDbEllipse
 10
300.6895252525388
 20
535.6339479555467
 30
0.0
 11
0.0
 21
7.5
 31
0.0
210
0.0
220
0.0
230
1.0
 40
0.4257792915650669
 41
4.712388980384689
 42
7.853981633974482
  0
ELLIPSE
  5
768A
330
1E
100
AcDbEntity
  8
STEMPEL
100
AcDbEllipse
 10
298.8789848877178
 20
535.6339479555467
 30
0.0
 11
0.0
 21
7.5
 31
0.0
210
0.0
220
0.0
230
1.0
 40
0.4257792915650669
 41
4.712388980384689
 42
5.995757469465124
  0
LINE
  5
768B
330
1E
100
AcDbEntity
  8
STEMPEL
100
AcDbLine
 10
302.0723295744559
 20
523.1339479555467
 30
0.0
 11
302.0723295744559
 21
535.6339479555467
 31
0.0
  0
LINE
  5
768C
330
1E
100
AcDbEntity
  8
STEMPEL
100
AcDbLine
 10
291.9761288078863
 20
523.1339479555467
 30
0.0
 11
291.9761288078863
 21
535.6339479555466
 31
0.0
  0
LINE
  5
768D
330
1E
100
AcDbEntity
  8
STEMPEL
100
AcDbLine
 10
287.340873892262
 20
523.1339479555466
 30
0.0
 11
287.340873892262
 21
535.6339479555467
 31
0.0
  0
ELLIPSE
  5
768E
330
1E
100
AcDbEntity
  8
STEMPEL
100
AcDbEllipse
 10
289.658501350074
 20
535.6339479555467
 30
0.0
 11
0.0
 21
7.5
 31
0.0
210
0.0
220
0.0
230
1.0
 40
0.3090169943749496
 41
4.712388980384689
 42
7.853981633974482
  0
ELLIPSE
  5
768F
330
1E
100
AcDbEntity
  8
STEMPEL
100
AcDbEllipse
 10
287.7554567767655
 20
535.6339479555467
 30
0.0
 11
0.0
 21
7.5
 31
0.0
210
0.0
220
0.0
230
1.0
 40
0.3090169943749496
 41
4.712388980384689
 42
5.860118527714176
  0
LINE
  5
7690
330
1E
100
AcDbEntity
  8
STEMPEL
100
AcDbLine
 10
290.0730842345776
 20
523.1339479555467
 30
0.0
 11
290.0730842345776
 21
535.6339479555466
 31
0.0
  0
LINE
  5
7691
330
1E
100
AcDbEntity
  8
STEMPEL
100
AcDbLine
 10
283.6117527597311
 20
523.1339479555467
 30
0.0
 11
283.6117527597311
 21
535.6339479555466
 31
0.0
  0
LINE
  5
7692
330
1E
100
AcDbEntity
  8
STEMPEL
100
AcDbLine
 10
280.8010330409453
 20
523.1339479555466
 30
0.0
 11
280.8010330409453
 21
535.6339479555466
 31
0.0
  0
ELLIPSE
  5
7693
330
1E
100
AcDbEntity
  8
STEMPEL
100
AcDbEllipse
 10
282.2063929003381
 20
535.6339479555467
 30
0.0
 11
0.0
 21
7.5
 31
0.0
210
0.0
220
0.0
230
1.0
 40
0.1873813145857222
 41
4.712388980384689
 42
7.853981633974482
  0
ELLIPSE
  5
7694
330
1E
100
AcDbEntity
  8
STEMPEL
100
AcDbEllipse
 10
280.2408562682866
 20
535.6339479555467
 30
0.0
 11
0.0
 21
7.5
 31
0.0
210
0.0
220
0.0
230
1.0
 40
0.1873813145857222
 41
4.712388980384689
 42
5.508767370765571
  0
LINE
  5
7695
330
1E
100
AcDbEntity
  8
STEMPEL
100
AcDbLine
 10
281.6462161276796
 20
523.1339479555467
 30
0.0
 11
281.6462161276796
 21
535.6339479555466
 31
0.0
  0
LINE
  5
7696
330
1E
100
AcDbEntity
  8
STEMPEL
100
AcDbLine
 10
278.9216530017269
 20
523.1339479555467
 30
0.0
 11
278.9216530017269
 21
535.6339479555467
 31
0.0
  0
LINE
  5
7697
330
1E
100
AcDbEntity
  8
STEMPEL
100
AcDbLine
 10
277.9797952087871
 20
523.1339479555467
 30
0.0
 11
277.9797952087871
 21
535.6339479555469
 31
0.0
  0
ELLIPSE
  5
7698
330
1E
100
AcDbEntity
  8
STEMPEL
100
AcDbEllipse
 10
278.4507241052571
 20
535.6339479555467
 30
0.0
 11
0.0
 21
7.5
 31
0.0
210
0.0
220
0.0
230
1.0
 40
0.06279051952932
 41
4.712388980384689
 42
7.853981633974482
  0
ELLIPSE
  5
7699
330
1E
100
AcDbEntity
  8
STEMPEL
100
AcDbEllipse
 10
754.7381730482749
 20
535.6339479555465
 30
0.0
 11
0.0000000000000075
 21
7.5
 31
0.0
210
0.0
220
0.0
230
-1.0
 40
0.06279051952932
 41
4.712388980384689
 42
7.853981633974482
  0
LINE
  5
769A
330
1E
100
AcDbEntity
  8
STEMPEL
100
AcDbLine
 10
755.2091019447449
 20
523.1339479555465
 30
0.0
 11
755.2091019447449
 21
535.6339479555466
 31
0.0
  0
LINE
  5
769B
330
1E
100
AcDbEntity
  8
STEMPEL
100
AcDbLine
 10
754.2672441518051
 20
523.1339479555465
 30
0.0
 11
754.2672441518051
 21
535.6339479555465
 31
0.0
  0
LINE
  5
769C
330
1E
100
AcDbEntity
  8
STEMPEL
100
AcDbLine
 10
751.5426810258523
 20
523.1339479555465
 30
0.0
 11
751.5426810258523
 21
535.6339479555464
 31
0.0
  0
ELLIPSE
  5
769D
330
1E
100
AcDbEntity
  8
STEMPEL
100
AcDbEllipse
 10
752.9480408852454
 20
535.6339479555465
 30
0.0
 11
0.0000000000000075
 21
7.5
 31
0.0
210
0.0
220
0.0
230
-1.0
 40
0.1873813145857222
 41
4.712388980384689
 42
5.508767370765571
  0
ELLIPSE
  5
769E
330
1E
100
AcDbEntity
  8
STEMPEL
100
AcDbEllipse
 10
750.9825042531939
 20
535.6339479555465
 30
0.0
 11
0.0000000000000075
 21
7.5
 31
0.0
210
0.0
220
0.0
230
-1.0
 40
0.1873813145857222
 41
4.712388980384689
 42
7.853981633974482
  0
LINE
  5
769F
330
1E
100
AcDbEntity
  8
STEMPEL
100
AcDbLine
 10
752.3878641125867
 20
523.1339479555464
 30
0.0
 11
752.3878641125867
 21
535.6339479555464
 31
0.0
  0
LINE
  5
76A0
330
1E
100
AcDbEntity
  8
STEMPEL
100
AcDbLine
 10
749.5771443938009
 20
523.1339479555465
 30
0.0
 11
749.5771443938012
 21
535.6339479555464
 31
0.0
  0
LINE
  5
76A1
330
1E
100
AcDbEntity
  8
STEMPEL
100
AcDbLine
 10
743.1158129189545
 20
523.1339479555465
 30
0.0
 11
743.1158129189545
 21
535.6339479555464
 31
0.0
  0
ELLIPSE
  5
76A2
330
1E
100
AcDbEntity
  8
STEMPEL
100
AcDbEllipse
 10
745.4334403767667
 20
535.6339479555465
 30
0.0
 11
0.0000000000000075
 21
7.5
 31
0.0
210
0.0
220
0.0
230
-1.0
 40
0.3090169943749496
 41
4.712388980384689
 42
5.860118527714176
  0
ELLIPSE
  5
76A3
330
1E
100
AcDbEntity
  8
STEMPEL
100
AcDbEllipse
 10
743.5303958034579
 20
535.6339479555465
 30
0.0
 11
0.0000000000000075
 21
7.5
 31
0.0
210
0.0
220
0.0
230
-1.0
 40
0.3090169943749496
 41
4.712388980384689
 42
7.853981633974482
  0
LINE
  5
76A4
330
1E
100
AcDbEntity
  8
STEMPEL
100
AcDbLine
 10
745.8480232612702
 20
523.1339479555464
 30
0.0
 11
745.8480232612702
 21
535.6339479555465
 31
0.0
  0
LINE
  5
76A5
330
1E
100
AcDbEntity
  8
STEMPEL
100
AcDbLine
 10
741.2127683456457
 20
523.1339479555465
 30
0.0
 11
741.2127683456457
 21
535.6339479555464
 31
0.0
  0
LINE
  5
76A6
330
1E
100
AcDbEntity
  8
STEMPEL
100
AcDbLine
 10
731.1165675790763
 20
523.1339479555465
 30
0.0
 11
731.1165675790763
 21
535.6339479555465
 31
0.0
  0
ELLIPSE
  5
76A7
330
1E
100
AcDbEntity
  8
STEMPEL
100
AcDbEllipse
 10
734.3099122658141
 20
535.6339479555465
 30
0.0
 11
0.0000000000000075
 21
7.5
 31
0.0
210
0.0
220
0.0
230
-1.0
 40
0.4257792915650669
 41
4.712388980384689
 42
5.995757469465124
  0
ELLIPSE
  5
76A8
330
1E
100
AcDbEntity
  8
STEMPEL
100
AcDbEllipse
 10
732.4993719009931
 20
535.6339479555465
 30
0.0
 11
0.0000000000000075
 21
7.5
 31
0.0
210
0.0
220
0.0
230
-1.0
 40
0.4257792915650669
 41
4.712388980384689
 42
7.853981633974482
  0
LINE
  5
76A9
330
1E
100
AcDbEntity
  8
STEMPEL
100
AcDbLine
 10
735.6927165877313
 20
523.1339479555464
 30
0.0
 11
735.6927165877313
 21
535.6339479555464
 31
0.0
  0
LINE
  5
76AA
330
1E
100
AcDbEntity
  8
STEMPEL
100
AcDbLine
 10
729.3060272142553
 20
523.1339479555465
 30
0.0
 11
729.3060272142553
 21
535.6339479555465
 31
0.0
  0
LINE
  5
76AB
330
1E
100
AcDbEntity
  8
STEMPEL
100
AcDbLine
 10
715.7341802732291
 20
523.1339479555466
 30
0.0
 11
715.7341802732291
 21
535.6339479555465
 31
0.0
  0
ELLIPSE
  5
76AC
330
1E
100
AcDbEntity
  8
STEMPEL
100
AcDbEllipse
 10
719.7528812355714
 20
535.6339479555465
 30
0.0
 11
0.0000000000000075
 21
7.5
 31
0.0
210
0.0
220
0.0
230
-1.0
 40
0.5358267949789991
 41
4.712388980384689
 42
6.071403112986319
  0
LINE
  5
76AD
330
1E
100
AcDbEntity
  8
STEMPEL
100
AcDbLine
 10
722.0820993446984
 20
523.1339479555464
 30
0.0
 11
722.0820993446984
 21
535.6339479555464
 31
0.0
  0
ELLIPSE
  5
76AE
330
1E
100
AcDbEntity
  8
STEMPEL
100
AcDbEllipse
 10
718.063398382356
 20
535.6339479555465
 30
0.0
 11
0.0000000000000075
 21
7.5
 31
0.0
210
0.0
220
0.0
230
-1.0
 40
0.5358267949789991
 41
4.712388980384689
 42
7.853981633974482
  0
LINE
  5
76AF
330
1E
100
AcDbEntity
  8
STEMPEL
100
AcDbLine
 10
714.0446974200134
 20
523.1339479555466
 30
0.0
 11
714.0446974200137
 21
535.6339479555465
 31
0.0
  0
DIMENSION
  5
76D5
330
1E
100
AcDbEntity
  8
BEM
100
AcDbDimension
  2
*D3
 10
239.4731548658048
 20
631.1339479555467
 30
0.0
 11
231.3481548658046
 21
577.1339479555467
 31
0.0
 70
    32
 71
     5
 42
108.0
  3
Standard
100
AcDbAlignedDimension
 13
250.094448576766
 23
523.1339479555467
 33
0.0
 14
360.862033938923
 24
631.1339479555466
 34
0.0
 50
90.0
100
AcDbRotatedDimension
1001
ACAD
1000
DSTYLE
1002
{
1070
    40
1040
2.5
1070
    41
1040
3.5
1070
    42
1040
1.0
1070
    43
1040
7.0
1070
    44
1040
1.0
1070
    73
1070
     0
1070
    74
1070
     0
1070
    77
1070
     1
1070
    78
1070
     8
1070
    79
1070
     2
1070
   140
1040
3.5
1070
   141
1040
1.5
1070
   146
1040
0.5142857142857144
1070
   147
1040
1.5
1070
   172
1070
     1
1070
   178
1070
     1
1070
   179
1070
     2
1070
   271
1070
     2
1070
   272
1070
     2
1070
   284
1070
     8
1070
   285
1070
     8
1070
   286
1070
     8
1002
}
  0
LINE
  5
76D6
330
1E
100
AcDbEntity
  8
STEMPEL
100
AcDbLine
 10
250.094448576766
 20
524.6339479555468
 30
0.0
 11
270.862033938923
 21
524.6339479555468
 31
0.0
  0
LINE
  5
76D7
330
1E
100
AcDbEntity
  8
STEMPEL
100
AcDbLine
 10
297.4961805658007
 20
524.6339479555466
 30
0.0
 11
302.0723295744559
 21
524.6339479555464
 31
0.0
  0
LINE
  5
76D8
330
1E
100
AcDbEntity
  8
STEMPEL
100
AcDbLine
 10
287.340873892262
 20
524.6339479555468
 30
0.0
 11
290.0730842345776
 21
524.6339479555468
 31
0.0
  0
LINE
  5
76D9
330
1E
100
AcDbEntity
  8
STEMPEL
100
AcDbLine
 10
280.8010330409453
 20
524.6339479555466
 30
0.0
 11
281.6462161276796
 21
524.6339479555468
 31
0.0
  0
LINE
  5
76DB
330
1E
100
AcDbEntity
  8
STEMPEL
100
AcDbLine
 10
311.1067978088337
 20
524.6339479555464
 30
0.0
 11
317.4547168803032
 21
524.6339479555465
 31
0.0
  0
LINE
  5
76EA
330
1E
100
AcDbEntity
  8
STEMPEL
100
AcDbLine
 10
762.3268632146093
 20
524.6339479555468
 30
0.0
 11
783.094448576766
 21
524.6339479555468
 31
0.0
  0
LINE
  5
76EB
330
1E
100
AcDbEntity
  8
STEMPEL
100
AcDbLine
 10
751.5426810258523
 20
524.6339479555468
 30
0.0
 11
752.3878641125867
 21
524.6339479555468
 31
0.0
  0
LINE
  5
76EC
330
1E
100
AcDbEntity
  8
STEMPEL
100
AcDbLine
 10
743.1158129189545
 20
524.6339479555468
 30
0.0
 11
745.8480232612702
 21
524.6339479555468
 31
0.0
  0
LINE
  5
76ED
330
1E
100
AcDbEntity
  8
STEMPEL
100
AcDbLine
 10
731.1165675790763
 20
524.6339479555468
 30
0.0
 11
735.6927165877313
 21
524.6339479555468
 31
0.0
  0
LINE
  5
76EE
330
1E
100
AcDbEntity
  8
STEMPEL
100
AcDbLine
 10
715.7341802732288
 20
524.6339479555468
 30
0.0
 11
722.0820993446985
 21
524.6339479555468
 31
0.0
  0
ARC
  5
76EF
330
1E
100
AcDbEntity
  8
STEMPEL
100
AcDbCircle
 10
762.3268632146093
 20
529.6339479555467
 30
0.0
 40
5.0
100
AcDbArc
 50
180.0
 51
270.0
  0
ARC
  5
76F0
330
1E
100
AcDbEntity
  8
STEMPEL
100
AcDbCircle
 10
762.3268632146093
 20
529.6339479555467
 30
0.0
 40
6.5
100
AcDbArc
 50
180.0
 51
270.0
  0
LINE
  5
76F1
330
1E
100
AcDbEntity
  8
STEMPEL
100
AcDbLine
 10
755.8268632146092
 20
529.6339479555468
 30
0.0
 11
755.8268632146092
 21
546.1339479555456
 31
0.0
  0
ARC
  5
76F2
330
1E
100
AcDbEntity
  8
STEMPEL
100
AcDbCircle
 10
672.3268632146092
 20
546.1339479555464
 30
0.0
 40
83.49999999999999
100
AcDbArc
 50
0.0
 51
90.0
  0
LINE
  5
76F3
330
1E
100
AcDbEntity
  8
STEMPEL
100
AcDbLine
 10
360.862033938923
 20
629.6339479555467
 30
0.0
 11
672.326863214609
 21
629.6339479555468
 31
0.0
  0
ARC
  5
76F4
330
1E
100
AcDbEntity
  8
STEMPEL
100
AcDbCircle
 10
360.862033938923
 20
546.1339479555467
 30
0.0
 40
83.49999999999999
100
AcDbArc
 50
90.0
 51
180.0
  0
ARC
  5
76F5
330
1E
100
AcDbEntity
  8
STEMPEL
100
AcDbCircle
 10
270.862033938923
 20
529.6339479555467
 30
0.0
 40
5.0
100
AcDbArc
 50
270.0
 51
0.0
  0
LINE
  5
76F6
330
1E
100
AcDbEntity
  8
STEMPEL
100
AcDbLine
 10
277.362033938923
 20
529.6339479555467
 30
0.0
 11
277.362033938923
 21
546.1339479555467
 31
0.0
  0
ARC
  5
76F7
330
1E
100
AcDbEntity
  8
STEMPEL
100
AcDbCircle
 10
270.862033938923
 20
529.6339479555467
 30
0.0
 40
6.5
100
AcDbArc
 50
270.0
 51
0.0
  0
HATCH
  5
76F8
330
1E
100
AcDbEntity
  8
SCHRAFF
100
AcDbHatch
 10
0.0
 20
0.0
 30
0.0
210
0.0
220
0.0
230
1.0
  2
_USER
 70
     0
 71
     0
 91
        3
 92
        7
 72
     1
 73
     1
 93
       12
 10
516.594448576766
 20
631.1339479555466
 42
0.0
 10
516.594448576766
 20
629.6339479555467
 42
0.0
 10
672.326863214609
 20
629.6339479555468
 42
-0.4142135623731004
 10
755.8268632146092
 20
546.1339479555456
 42
0.0
 10
755.8268632146092
 20
529.6339479555468
 42
0.4142135623731004
 10
762.3268632146093
 20
523.1339479555467
 42
0.0
 10
783.094448576766
 20
523.1339479555466
 42
0.0
 10
783.094448576766
 20
524.6339479555466
 42
0.0
 10
762.3268632146093
 20
524.6339479555468
 42
-0.4142135623730951
 10
757.3268632146092
 20
529.6339479555467
 42
0.0
 10
757.3268632146092
 20
546.1339479555456
 42
0.4142135623731004
 10
672.326863214609
 20
631.1339479555469
 42
0.0
 97
        0
 92
        7
 72
     1
 73
     1
 93
       12
 10
516.594448576766
 20
629.6339479555465
 42
0.0
 10
516.594448576766
 20
631.1339479555467
 42
0.0
 10
360.862033938923
 20
631.1339479555466
 42
0.4142135623730948
 10
275.862033938923
 20
546.1339479555467
 42
0.0
 10
275.862033938923
 20
529.6339479555467
 42
-0.4142135623730959
 10
270.862033938923
 20
524.6339479555468
 42
0.0
 10
264.094448576766
 20
524.6339479555468
 42
0.0
 10
264.094448576766
 20
523.1339479555467
 42
0.0
 10
270.862033938923
 20
523.1339479555467
 42
0.4142135623730951
 10
277.362033938923
 20
529.6339479555467
 42
0.0
 10
277.362033938923
 20
546.1339479555467
 42
-0.4142135623730949
 10
360.862033938923
 20
629.6339479555467
 42
0.0
 97
        0
 92
        7
 72
     0
 73
     1
 93
        4
 10
256.094448576766
 20
523.1339479555467
 10
256.094448576766
 20
524.6339479555468
 10
250.094448576766
 20
524.6339479555468
 10
250.094448576766
 20
523.1339479555466
 97
        0
 75
     0
 76
     0
 52
45.0
 41
2.0
 77
     0
 78
     1
 53
45.0
 43
207.1109334966574
 44
-271.8051386554876
 45
-1.414213562373094
 46
1.414213562373095
 79
     0
 47
0.5960970483037999
 98
        3
 10
608.1103996097687
 20
630.5383328476336
 10
486.4335330306572
 20
629.9422358793249
 10
253.2195329873317
 20
523.8369607024323
  0
LINE
  5
7723
330
1E
100
AcDbEntity
  8
STEMPEL
100
AcDbLine
 10
710.0944485767662
 20
523.1339479555467
 30
0.0
 11
783.094448576766
 21
523.1339479555467
 31
0.0
  0
DIMENSION
  5
772B
330
1E
100
AcDbEntity
  8
BEM
100
AcDbDimension
  2
*D4
 10
356.5944485767662
 20
583.8359208329284
 30
0.0
 11
516.5944485767662
 21
591.9609208329283
 31
0.0
 70
    32
  1
%%c<>
 71
     5
 42
320.0
  3
Standard
100
AcDbAlignedDimension
 13
676.5944485767662
 23
512.6339479555468
 33
0.0
 14
356.5944485767662
 24
512.6339479555468
 34
0.0
100
AcDbRotatedDimension
1001
ACAD
1000
DSTYLE
1002
{
1070
    40
1040
2.5
1070
    41
1040
3.5
1070
    42
1040
1.0
1070
    43
1040
7.0
1070
    44
1040
1.0
1070
    73
1070
     0
1070
    74
1070
     0
1070
    77
1070
     1
1070
    78
1070
     8
1070
    79
1070
     2
1070
   140
1040
3.5
1070
   141
1040
1.5
1070
   146
1040
0.5142857142857144
1070
   147
1040
1.5
1070
   172
1070
     1
1070
   178
1070
     1
1070
   179
1070
     2
1070
   271
1070
     2
1070
   272
1070
     2
1070
   284
1070
     8
1070
   285
1070
     8
1070
   286
1070
     8
1002
}
  0
DIMENSION
  5
7738
330
1E
100
AcDbEntity
  8
BEM
100
AcDbDimension
  2
*D5
 10
323.0944485767663
 20
604.0688662302336
 30
0.0
 11
516.5944485767662
 21
612.1938662302336
 31
0.0
 70
    32
  1
%%c<>
 71
     5
 42
387.0
  3
Standard
100
AcDbAlignedDimension
 13
710.0944485767662
 23
568.1339479555466
 33
0.0
 14
323.0944485767663
 24
568.1339479555467
 34
0.0
100
AcDbRotatedDimension
1001
ACAD
1000
DSTYLE
1002
{
1070
    40
1040
2.5
1070
    41
1040
3.5
1070
    42
1040
1.0
1070
    43
1040
7.0
1070
    44
1040
1.0
1070
    73
1070
     0
1070
    74
1070
     0
1070
    77
1070
     1
1070
    78
1070
     8
1070
    79
1070
     2
1070
   140
1040
3.5
1070
   141
1040
1.5
1070
   146
1040
0.5142857142857144
1070
   147
1040
1.5
1070
   172
1070
     1
1070
   178
1070
     1
1070
   179
1070
     2
1070
   271
1070
     2
1070
   272
1070
     2
1070
   284
1070
     8
1070
   285
1070
     8
1070
   286
1070
     8
1002
}
  0
DIMENSION
  5
7757
330
1E
100
AcDbEntity
  8
BEM
100
AcDbDimension
  2
*D6
 10
804.0750832346903
 20
508.1339479555469
 30
0.0
 11
795.9500832346902
 21
538.133947955547
 31
0.0
 70
    32
 71
     5
 42
59.9999999999996
  3
Standard
100
AcDbAlignedDimension
 13
710.0944485767662
 23
568.1339479555466
 33
0.0
 14
783.0944485767662
 24
508.1339479555469
 34
0.0
 50
90.0
100
AcDbRotatedDimension
1001
ACAD
1000
DSTYLE
1002
{
1070
    40
1040
2.5
1070
    41
1040
3.5
1070
    42
1040
1.0
1070
    43
1040
7.0
1070
    44
1040
1.0
1070
    73
1070
     0
1070
    74
1070
     0
1070
    77
1070
     1
1070
    78
1070
     8
1070
    79
1070
     2
1070
   140
1040
3.5
1070
   141
1040
1.5
1070
   146
1040
0.5142857142857144
1070
   147
1040
1.5
1070
   172
1070
     1
1070
   178
1070
     1
1070
   179
1070
     2
1070
   271
1070
     2
1070
   272
1070
     2
1070
   284
1070
     8
1070
   285
1070
     8
1070
   286
1070
     8
1002
}
  0
DIMENSION
  5
7764
330
1E
100
AcDbEntity
  8
BEM
100
AcDbDimension
  2
*D7
 10
351.5944485767662
 20
469.0528833962635
 30
0.0
 11
516.5944485767662
 21
477.1778833962635
 31
0.0
 70
    32
  1
%%c<>
 71
     5
 42
330.0
  3
Standard
100
AcDbAlignedDimension
 13
681.5944485767662
 23
497.1339479555463
 33
0.0
 14
351.5944485767662
 24
497.1339479555463
 34
0.0
100
AcDbRotatedDimension
1001
ACAD
1000
DSTYLE
1002
{
1070
    40
1040
2.5
1070
    41
1040
3.5
1070
    42
1040
1.0
1070
    43
1040
7.0
1070
    44
1040
1.0
1070
    73
1070
     0
1070
    74
1070
     0
1070
    77
1070
     1
1070
    78
1070
     8
1070
    79
1070
     2
1070
   140
1040
3.5
1070
   141
1040
1.5
1070
   146
1040
0.5142857142857144
1070
   147
1040
1.5
1070
   172
1070
     1
1070
   178
1070
     1
1070
   179
1070
     2
1070
   271
1070
     2
1070
   272
1070
     2
1070
   284
1070
     8
1070
   285
1070
     8
1070
   286
1070
     8
1002
}
  0
DIMENSION
  5
7783
330
1E
100
AcDbEntity
  8
BEM
100
AcDbDimension
  2
*D8
 10
783.094448576766
 20
662.6405104183854
 30
0.0
 11
516.594448576766
 21
670.7655104183855
 31
0.0
 70
    32
  1
%%c<>
 71
     5
 42
533.0
  3
Standard
100
AcDbAlignedDimension
 13
250.094448576766
 23
524.6339479555468
 33
0.0
 14
783.094448576766
 24
524.6339479555468
 34
0.0
100
AcDbRotatedDimension
1001
ACAD
1000
DSTYLE
1002
{
1070
    40
1040
2.5
1070
    41
1040
3.5
1070
    42
1040
1.0
1070
    43
1040
7.0
1070
    44
1040
1.0
1070
    73
1070
     0
1070
    74
1070
     0
1070
    77
1070
     1
1070
    78
1070
     8
1070
    79
1070
     2
1070
   140
1040
3.5
1070
   141
1040
1.5
1070
   146
1040
0.5142857142857144
1070
   147
1040
1.5
1070
   172
1070
     1
1070
   178
1070
     1
1070
   179
1070
     2
1070
   271
1070
     2
1070
   272
1070
     2
1070
   284
1070
     8
1070
   285
1070
     8
1070
   286
1070
     8
1002
}
  0
DIMENSION
  5
77A2
330
1E
100
AcDbEntity
  8
BEM
100
AcDbDimension
  2
*D9
 10
437.0944485767664
 20
198.5396572528584
 30
0.0
 11
516.5944485767663
 21
206.6646572528584
 31
0.0
 70
    32
  1
%%c<>
 71
     5
 42
158.9999999999998
  3
Standard
100
AcDbAlignedDimension
 13
596.0944485767662
 23
240.1339479555471
 33
0.0
 14
437.0944485767664
 24
240.1339479555468
 34
0.0
100
AcDbRotatedDimension
1001
ACAD
1000
DSTYLE
1002
{
1070
    40
1040
2.5
1070
    41
1040
3.5
1070
    42
1040
1.0
1070
    43
1040
7.0
1070
    44
1040
1.0
1070
    73
1070
     0
1070
    74
1070
     0
1070
    77
1070
     1
1070
    78
1070
     8
1070
    79
1070
     2
1070
   140
1040
3.5
1070
   141
1040
1.5
1070
   146
1040
0.5142857142857144
1070
   147
1040
1.5
1070
   172
1070
     1
1070
   178
1070
     1
1070
   179
1070
     2
1070
   271
1070
     2
1070
   272
1070
     2
1070
   284
1070
     8
1070
   285
1070
     8
1070
   286
1070
     8
1002
}
  0
DIMENSION
  5
77B8
330
1E
100
AcDbEntity
  8
BEM
100
AcDbDimension
  2
*D10
 10
239.4731548658045
 20
503.1339479555469
 30
0.0
 11
231.3481548658045
 21
363.1339479555467
 31
0.0
 70
    32
 71
     5
 42
280.0000000000006
  3
Standard
100
AcDbAlignedDimension
 13
438.581755856707
 23
223.1339479555463
 33
0.0
 14
351.594448576766
 24
503.1339479555469
 34
0.0
 50
90.0
100
AcDbRotatedDimension
1001
ACAD
1000
DSTYLE
1002
{
1070
    40
1040
2.5
1070
    41
1040
3.5
1070
    42
1040
1.0
1070
    43
1040
7.0
1070
    44
1040
1.0
1070
    73
1070
     0
1070
    74
1070
     0
1070
    77
1070
     1
1070
    78
1070
     8
1070
    79
1070
     2
1070
   140
1040
3.5
1070
   141
1040
1.5
1070
   146
1040
0.5142857142857144
1070
   147
1040
1.5
1070
   172
1070
     1
1070
   178
1070
     1
1070
   179
1070
     2
1070
   271
1070
     2
1070
   272
1070
     2
1070
   284
1070
     8
1070
   285
1070
     8
1070
   286
1070
     8
1002
}
  0
LINE
  5
77C6
330
1E
100
AcDbEntity
  8
MITTEL
100
AcDbLine
 10
516.5944485767664
 20
579.5694904086603
 30
0.0
 11
516.5944485767662
 21
486.6151197303416
 31
0.0
  0
LINE
  5
77C7
330
1E
100
AcDbEntity
  8
MITTEL
100
AcDbLine
 10
516.5944485767662
 20
465.4891264774883
 30
0.0
 11
516.5944485767657
 21
218.1339479555482
 31
0.0
  0
LINE
  5
77CA
330
1E
100
AcDbEntity
  8
TEXT
 62
     2
100
AcDbLine
 10
745.6786518007835
 20
238.3388439253189
 30
0.0
 11
595.3906408240587
 21
275.9313319491115
 31
0.0
  0
TEXT
  5
77CB
330
1E
100
AcDbEntity
  8
TEXT
 62
     1
100
AcDbText
 10
746.0103732228136
 20
226.075602440376
 30
0.0
 40
8.75
  1
EDV-Art.Nr. 21981.150X
 41
0.8
  7
GREEKS
100
AcDbText
  0
LINE
  5
77CC
330
1E
100
AcDbEntity
  8
TEXT
 62
     2
100
AcDbLine
 10
745.6786518007835
 20
238.3388439253189
 30
0.0
 11
879.3765450403698
 21
238.3388439253188
 31
0.0
  0
TEXT
  5
77CD
330
1E
100
AcDbEntity
  8
TEXT
 62
     1
100
AcDbText
 10
746.0103732228136
 20
242.508654276424
 30
0.0
 40
8.75
  1
Ablauftopf DN150
 41
0.8
  7
GREEKS
100
AcDbText
  0
LINE
  5
77CE
330
1E
100
AcDbEntity
  8
TEXT
 62
     2
100
AcDbLine
 10
810.3183174274112
 20
396.4786486671636
 30
0.0
 11
678.9955527316254
 21
503.972522218044
 31
0.0
  0
TEXT
  5
77CF
330
1E
100
AcDbEntity
  8
TEXT
 62
     1
100
AcDbText
 10
811.1091943149993
 20
384.2154071822207
 30
0.0
 40
8.75
  1
EDV-Art.Nr. 21810.150X
 41
0.8
  7
GREEKS
100
AcDbText
  0
LINE
  5
77D0
330
1E
100
AcDbEntity
  8
TEXT
 62
     2
100
AcDbLine
 10
810.3183174274112
 20
396.4786486671636
 30
0.0
 11
938.9380639818856
 21
396.4786486671635
 31
0.0
  0
TEXT
  5
77D1
330
1E
100
AcDbEntity
  8
TEXT
 62
     1
100
AcDbText
 10
811.1091943149993
 20
400.6484590182687
 30
0.0
 40
8.75
  1
Kompressionsdichtung
 41
0.8
  7
GREEKS
100
AcDbText
  0
LINE
  5
77D2
330
1E
100
AcDbEntity
  8
TEXT
 62
     2
100
AcDbLine
 10
810.3183174274112
 20
435.7335926384811
 30
0.0
 11
672.2835591350575
 21
514.0234477691815
 31
0.0
  0
TEXT
  5
77D3
330
1E
100
AcDbEntity
  8
TEXT
 62
     1
100
AcDbText
 10
810.6500388494414
 20
439.9034029895862
 30
0.0
 40
8.75
  1
Losflansch DN125
 41
0.8
  7
GREEKS
100
AcDbText
  0
LINE
  5
77D4
330
1E
100
AcDbEntity
  8
TEXT
 62
     2
100
AcDbLine
 10
810.3183174274112
 20
435.7335926384811
 30
0.0
 11
944.0162106669978
 21
435.733592638481
 31
0.0
  0
TEXT
  5
77D5
330
1E
100
AcDbEntity
  8
TEXT
 62
     1
100
AcDbText
 10
810.6500388494414
 20
423.4703511535382
 30
0.0
 40
8.75
  1
EDV-Art.Nr. 21905.125X
 41
0.8
  7
GREEKS
100
AcDbText
  0
TEXT
  5
77D6
330
1E
100
AcDbEntity
  8
TEXT
 62
     1
100
AcDbText
 10
810.6500388494414
 20
459.6976014468701
 30
0.0
 40
8.75
  1
EDV-Art.Nr. 60070.150X
 41
0.8
  7
GREEKS
100
AcDbText
  0
LINE
  5
77D7
330
1E
100
AcDbEntity
  8
TEXT
 62
     2
100
AcDbLine
 10
810.3183174274112
 20
471.9608429318131
 30
0.0
 11
960.9266854249955
 21
471.9608429318129
 31
0.0
  0
TEXT
  5
77D8
330
1E
100
AcDbEntity
  8
TEXT
 62
     1
100
AcDbText
 10
810.6500388494414
 20
476.1306532829181
 30
0.0
 40
8.75
  1
Halterung für Attika-Haube
 41
0.8
  7
GREEKS
100
AcDbText
  0
LINE
  5
77D9
330
1E
100
AcDbEntity
  8
TEXT
 62
     2
100
AcDbLine
 10
810.3183174274112
 20
471.9608429318131
 30
0.0
 11
746.1567107092909
 21
506.9324205643288
 31
0.0
  0
TEXT
  5
77DA
330
1E
100
AcDbEntity
  8
TEXT
 62
     1
100
AcDbText
 10
808.6757765080685
 20
590.3880225297639
 30
0.0
 40
8.75
  1
EDV-Art.Nr. 60260.000X
 41
0.8
  7
GREEKS
100
AcDbText
  0
TEXT
  5
77DB
330
1E
100
AcDbEntity
  8
TEXT
 62
     1
100
AcDbText
 10
808.6757765080685
 20
607.6675471768094
 30
0.0
 40
8.75
  1
Wehrbecken 60mm
 41
0.8
  7
GREEKS
100
AcDbText
  0
LINE
  5
77DC
330
1E
100
AcDbEntity
  8
TEXT
 62
     2
100
AcDbLine
 10
804.5162690590695
 20
603.4977368257042
 30
0.0
 11
940.5936154365992
 21
603.4977368257042
 31
0.0
  0
LINE
  5
77DD
330
1E
100
AcDbEntity
  8
TEXT
 62
     2
100
AcDbLine
 10
804.5162690590695
 20
603.4977368257042
 30
0.0
 11
709.0205628585919
 21
540.9217408491254
 31
0.0
  0
LINE
  5
77DE
330
1E
100
AcDbEntity
  8
TEXT
 62
     2
100
AcDbLine
 10
804.5162690590695
 20
647.1811837237493
 30
0.0
 11
734.6017471160368
 21
602.3685937050998
 31
0.0
  0
TEXT
  5
77DF
330
1E
100
AcDbEntity
  8
TEXT
 62
     1
100
AcDbText
 10
808.6757765080685
 20
634.071469427809
 30
0.0
 40
8.75
  1
EDV-Art.Nr. 60009.000X
 41
0.8
  7
GREEKS
100
AcDbText
  0
TEXT
  5
77E0
330
1E
100
AcDbEntity
  8
TEXT
 62
     1
100
AcDbText
 10
808.6757765080685
 20
651.3509940748544
 30
0.0
 40
8.75
  1
Saughaube
 41
0.8
  7
GREEKS
100
AcDbText
  0
LINE
  5
77E1
330
1E
100
AcDbEntity
  8
TEXT
 62
     2
100
AcDbLine
 10
804.5162690590695
 20
647.1811837237493
 30
0.0
 11
942.3136969379758
 21
647.1811837237493
 31
0.0
  0
TEXT
  5
77E2
330
1E
100
AcDbEntity
  8
TEXT
 62
     1
100
AcDbText
 10
498.882538712845
 20
339.0151494684965
 30
0.0
 40
8.75
  1
DN150
 50
90.0
 41
0.8
  7
GREEKS
100
AcDbText
  0
LINE
  5
7859
330
1E
100
AcDbEntity
  8
STEMPEL
100
AcDbLine
 10
262.8549508314141
 20
529.8280403726193
 30
0.0
 11
262.8549508314139
 21
526.2339479555468
 31
0.0
  0
LINE
  5
785A
330
1E
100
AcDbEntity
  8
STEMPEL
100
AcDbLine
 10
265.6154530860634
 20
529.8517007447436
 30
0.0
 11
265.6154530860634
 21
526.2339479555468
 31
0.0
  0
LINE
  5
785B
330
1E
100
AcDbEntity
  8
STEMPEL
100
AcDbLine
 10
266.0944485767647
 20
526.2339479555467
 30
0.0
 11
266.0944485767647
 21
524.6339479555468
 31
0.0
  0
LINE
  5
785C
330
1E
100
AcDbEntity
  8
STEMPEL
100
AcDbLine
 10
265.6154530860634
 20
529.8517007447437
 30
0.0
 11
265.408694954271
 21
529.9710726077911
 31
0.0
  0
ARC
  5
785D
330
1E
100
AcDbEntity
  8
STEMPEL
100
AcDbCircle
 10
264.2352019587387
 20
528.0537929696676
 30
0.0
 40
2.247898356545996
100
AcDbArc
 50
58.53080548383119
 51
127.8806357171815
  0
LINE
  5
785E
330
1E
100
AcDbEntity
  8
STEMPEL
100
AcDbLine
 10
264.2312427333794
 20
530.3016912899468
 30
0.0
 11
264.2347981663755
 21
530.3016912899468
 31
0.0
  0
LINE
  5
785F
330
1E
100
AcDbEntity
  8
STEMPEL
100
AcDbLine
 10
254.5734440674661
 20
529.8517007447437
 30
0.0
 11
254.5734440674661
 21
526.2339479555468
 31
0.0
  0
LINE
  5
7860
330
1E
100
AcDbEntity
  8
STEMPEL
100
AcDbLine
 10
257.3339463221154
 20
529.8280403726193
 30
0.0
 11
257.3339463221154
 21
526.2339479555468
 31
0.0
  0
LINE
  5
7861
330
1E
100
AcDbEntity
  8
STEMPEL
100
AcDbLine
 10
254.0944485767647
 20
526.2339479555468
 30
0.0
 11
254.0944485767647
 21
524.6339479555468
 31
0.0
  0
ARC
  5
7862
330
1E
100
AcDbEntity
  8
STEMPEL
100
AcDbCircle
 10
255.9536951947906
 20
528.0537929696676
 30
0.0
 40
2.247898356545996
100
AcDbArc
 50
52.11936428281847
 51
121.4691945163676
  0
LINE
  5
7863
330
1E
100
AcDbEntity
  8
STEMPEL
100
AcDbLine
 10
254.5734440674661
 20
529.8517007447437
 30
0.0
 11
254.7802021992514
 21
529.9710726077871
 31
0.0
  0
LINE
  5
7864
330
1E
100
AcDbEntity
  8
STEMPEL
100
AcDbLine
 10
266.0944485767649
 20
524.6339479555465
 30
0.0
 11
254.0944485767647
 21
524.6339479555469
 31
0.0
  0
LINE
  5
7865
330
1E
100
AcDbEntity
  8
STEMPEL
100
AcDbLine
 10
254.0944485767647
 20
526.2339479555468
 30
0.0
 11
266.0944485767647
 21
526.2339479555467
 31
0.0
  0
LINE
  5
7866
330
1E
100
AcDbEntity
  8
STEMPEL
100
AcDbLine
 10
255.9540989871388
 20
530.3016912899468
 30
0.0
 11
264.2347981658816
 21
530.3016912899468
 31
0.0
  0
ARC
  5
7867
330
1E
100
AcDbEntity
  8
STEMPEL
100
AcDbCircle
 10
260.0944485767647
 20
522.0205736963468
 30
0.0
 40
8.281117593600001
100
AcDbArc
 50
70.52782738138624
 51
109.4721726186137
  0
LINE
  5
7868
102
{ACAD_REACTORS
330
7898
102
}
330
1E
100
AcDbEntity
  8
STEMPEL
100
AcDbLine
 10
263.0944485767651
 20
524.6339479555468
 30
0.0
 11
263.0944485767669
 21
517.2339479555467
 31
0.0
  0
LINE
  5
7869
330
1E
100
AcDbEntity
  8
HILF
100
AcDbLine
 10
262.094448576766
 20
516.2339479555469
 30
0.0
 11
262.094448576766
 21
524.6339479555468
 31
0.0
  0
LINE
  5
786A
102
{ACAD_REACTORS
330
7898
102
}
330
1E
100
AcDbEntity
  8
STEMPEL
100
AcDbLine
 10
257.0944485767642
 20
524.6339479555469
 30
0.0
 11
257.0944485767661
 21
517.233947955547
 31
0.0
  0
LINE
  5
786B
330
1E
100
AcDbEntity
  8
HILF
100
AcDbLine
 10
258.094448576766
 20
516.2339479555471
 30
0.0
 11
258.094448576766
 21
524.6339479555469
 31
0.0
  0
LINE
  5
786C
102
{ACAD_REACTORS
330
7898
102
}
330
1E
100
AcDbEntity
  8
STEMPEL
100
AcDbLine
 10
262.0944485767653
 20
516.2339479555469
 30
0.0
 11
263.0944485767661
 21
517.2339479555477
 31
0.0
  0
LINE
  5
786D
102
{ACAD_REACTORS
330
7898
102
}
330
1E
100
AcDbEntity
  8
STEMPEL
100
AcDbLine
 10
257.0944485767661
 20
517.2339479555477
 30
0.0
 11
258.0944485767663
 21
516.2339479555469
 31
0.0
  0
LINE
  5
786E
330
1E
100
AcDbEntity
  8
STEMPEL
100
AcDbLine
 10
258.094448576766
 20
516.2339479555469
 30
0.0
 11
262.094448576766
 21
516.2339479555469
 31
0.0
  0
LINE
  5
786F
330
1E
100
AcDbEntity
  8
STEMPEL
100
AcDbLine
 10
257.094448576766
 20
517.233947955547
 30
0.0
 11
263.094448576766
 21
517.2339479555467
 31
0.0
  0
LINE
  5
7871
102
{ACAD_REACTORS
330
7898
102
}
330
1E
100
AcDbEntity
  8
STEMPEL
100
AcDbLine
 10
263.0944485767654
 20
523.1339479555466
 30
0.0
 11
323.0944485767665
 21
523.1339479555467
 31
0.0
  0
LINE
  5
7872
102
{ACAD_REACTORS
330
7898
102
}
330
1E
100
AcDbEntity
  8
STEMPEL
100
AcDbLine
 10
257.0944485767646
 20
523.1339479555467
 30
0.0
 11
255.094448576766
 21
523.1339479555467
 31
0.0
  0
HATCH
  5
7898
330
1E
100
AcDbEntity
  8
SCHRAFF
100
AcDbHatch
 10
0.0
 20
0.0
 30
0.0
210
0.0
220
0.0
230
1.0
  2
_USER
 70
     0
 71
     1
 91
        4
 92
        7
 72
     0
 73
     1
 93
        9
 10
265.094448576766
 20
523.1339479555466
 10
263.0944485767655
 20
523.1339479555466
 10
263.0944485767669
 20
517.2339479555467
 10
263.094448576766
 20
514.1339479555465
 10
262.094448576766
 20
514.1339479555465
 10
262.094448576766
 20
512.1339479555468
 10
260.094448576766
 20
511.5980495706843
 10
260.094448576766
 20
508.1339479555466
 10
265.094448576766
 20
508.1339479555467
 97
        9
330
7871
330
7868
330
74FC
330
74FD
330
74FE
330
7502
330
750D
330
7549
330
74FA
 92
       23
 72
     0
 73
     1
 93
        4
 10
263.094448576766
 20
517.2339479555476
 10
262.094448576766
 20
516.2339479555477
 10
262.094448576766
 20
514.1339479555466
 10
263.094448576766
 20
514.1339479555465
 97
        4
330
786C
330
74FE
330
74FD
330
74FC
 92
       23
 72
     0
 73
     1
 93
        4
 10
258.094448576766
 20
516.2339479555471
 10
257.094448576766
 20
517.2339479555479
 10
257.094448576766
 20
514.1339479555467
 10
258.094448576766
 20
514.1339479555467
 97
        4
330
786D
330
74FB
330
74FD
330
74FF
 92
        7
 72
     0
 73
     1
 93
        9
 10
257.094448576766
 20
517.233947955547
 10
257.0944485767646
 20
523.1339479555466
 10
255.094448576766
 20
523.1339479555467
 10
255.0944485767661
 20
508.1339479555467
 10
260.094448576766
 20
508.1339479555466
 10
260.094448576766
 20
511.5980495706844
 10
258.094448576766
 20
512.1339479555468
 10
258.0944485767661
 20
514.1339479555467
 10
257.094448576766
 20
514.1339479555467
 97
        9
330
786A
330
7872
330
74F9
330
7549
330
750D
330
7501
330
74FF
330
74FD
330
74FB
 75
     0
 76
     0
 52
135.0
 41
1.0
 77
     0
 78
     1
 53
135.0
 43
0.0
 44
0.0
 45
-0.7071067811865476
 46
-0.7071067811865475
 79
     0
 47
0.0621023139221786
 98
        4
 10
264.8015684128104
 20
517.7652781042199
 10
262.9999896089939
 20
515.2811858453445
 10
257.657377278992
 20
515.4053913726126
 10
256.290664600539
 20
515.5295950712318
  0
TEXT
  5
78B8
330
1E
100
AcDbEntity
  8
VOLL
100
AcDbText
 10
558.0518468066965
 20
548.1189692706465
 30
0.0
 40
1.8
  1

  7
GREEKS
100
AcDbText
  0
ARC
  5
78B9
330
1E
100
AcDbEntity
  8
STEMPEL
100
AcDbCircle
 10
399.7444485767662
 20
516.3839479555464
 30
0.0
 40
0.750000000000001
100
AcDbArc
 50
269.9999991462263
 51
69.99999999999935
  0
ARC
  5
78BA
330
1E
100
AcDbEntity
  8
STEMPEL
100
AcDbCircle
 10
379.4444485767663
 20
516.3839479555464
 30
0.0
 40
0.7500000000000013
100
AcDbArc
 50
110.0000000000006
 51
269.9999991462263
  0
LINE
  5
78BB
330
1E
100
AcDbEntity
  8
STEMPEL
100
AcDbLine
 10
380.9341945389219
 20
517.7243044717462
 30
0.0
 11
379.187933469272
 21
517.0887174211357
 31
0.0
  0
LINE
  5
78BC
330
1E
100
AcDbEntity
  8
STEMPEL
100
AcDbLine
 10
400.0009636842604
 20
517.0887174211357
 30
0.0
 11
398.2547026146106
 21
517.7243044717462
 31
0.0
  0
LINE
  5
78BD
330
1E
100
AcDbEntity
  8
STEMPEL
100
AcDbLine
 10
398.2547026146106
 20
525.323058823091
 30
0.0
 11
397.0944485767662
 21
525.6339479555464
 31
0.0
  0
LINE
  5
78BE
330
1E
100
AcDbEntity
  8
STEMPEL
100
AcDbLine
 10
382.0944485767662
 20
525.6339479555464
 30
0.0
 11
380.9341945389219
 21
525.323058823091
 31
0.0
  0
LINE
  5
78BF
330
1E
100
AcDbEntity
  8
STEMPEL
100
AcDbLine
 10
380.9341945389219
 20
517.7243044717462
 30
0.0
 11
380.9341945389219
 21
525.323058823091
 31
0.0
  0
LINE
  5
78C0
330
1E
100
AcDbEntity
  8
STEMPEL
100
AcDbLine
 10
399.7444485767662
 20
515.6339479555464
 30
0.0
 11
379.4444485767663
 21
515.6339479555464
 31
0.0
  0
LINE
  5
78C1
330
1E
100
AcDbEntity
  8
STEMPEL
100
AcDbLine
 10
400.0009636842604
 20
517.0887174211357
 30
0.0
 11
379.1879334692719
 21
517.0887174211357
 31
0.0
  0
LINE
  5
78C2
330
1E
100
AcDbEntity
  8
STEMPEL
100
AcDbLine
 10
385.264321557844
 20
517.7243044717462
 30
0.0
 11
385.264321557844
 21
525.323058823091
 31
0.0
  0
LINE
  5
78C3
330
1E
100
AcDbEntity
  8
STEMPEL
100
AcDbLine
 10
393.9245755956885
 20
517.7243044717462
 30
0.0
 11
393.9245755956885
 21
525.323058823091
 31
0.0
  0
LINE
  5
78C4
330
1E
100
AcDbEntity
  8
STEMPEL
100
AcDbLine
 10
398.2547026146106
 20
517.7243044717462
 30
0.0
 11
398.2547026146106
 21
525.323058823091
 31
0.0
  0
LINE
  5
78C5
330
1E
100
AcDbEntity
  8
STEMPEL
100
AcDbLine
 10
382.0944485767662
 20
525.6339479555464
 30
0.0
 11
397.0944485767662
 21
525.6339479555464
 31
0.0
  0
POINT
  5
78C7
330
1E
100
AcDbEntity
  8
0
100
AcDbPoint
 10
389.5944485767662
 20
515.6339479555464
 30
0.0
210
0.0000000000000001
220
1.0
230
0.0
  0
ARC
  5
78C8
330
1E
100
AcDbEntity
  8
HILF
100
AcDbCircle
 10
383.099258048383
 20
512.3854618060168
 30
0.0
 40
5.761140599691502
100
AcDbArc
 50
67.92594526326054
 51
112.0740547367394
  0
ARC
  5
78C9
330
1E
100
AcDbEntity
  8
HILF
100
AcDbCircle
 10
396.0896391051496
 20
512.3854618060168
 30
0.0
 40
5.761140599691502
100
AcDbArc
 50
67.92594526326054
 51
112.0740547367394
  0
ARC
  5
78CA
330
1E
100
AcDbEntity
  8
HILF
100
AcDbCircle
 10
389.5944485767662
 20
495.7354869078852
 30
0.0
 40
22.41111549782308
100
AcDbArc
 50
78.85962783890391
 51
101.1403721610961
  0
ARC
  5
78CB
330
1E
100
AcDbEntity
  8
STEMPEL
100
AcDbCircle
 10
396.0896391051496
 20
517.9396422477619
 30
0.0
 40
7.694305707784447
100
AcDbArc
 50
73.65710669401345
 51
106.3428933059834
  0
ARC
  5
78CC
330
1E
100
AcDbEntity
  8
STEMPEL
100
AcDbCircle
 10
383.099258048383
 20
517.9396422477619
 30
0.0
 40
7.694305707784447
100
AcDbArc
 50
73.65710669401657
 51
106.3428933059865
  0
ARC
  5
78CD
330
1E
100
AcDbEntity
  8
STEMPEL
100
AcDbCircle
 10
389.5944485767662
 20
495.3230588230915
 30
0.0
 40
30.31088913245485
100
AcDbArc
 50
81.78678929826011
 51
98.21321070173988
  0
ARC
  5
78D0
330
1E
100
AcDbEntity
  8
STEMPEL
100
AcDbCircle
 10
453.094448576766
 20
495.3230588230913
 30
0.0
 40
30.31088913245485
100
AcDbArc
 50
81.78678929826011
 51
98.21321070173988
  0
ARC
  5
78D1
330
1E
100
AcDbEntity
  8
STEMPEL
100
AcDbCircle
 10
446.5992580483827
 20
517.9396422477617
 30
0.0
 40
7.694305707784447
100
AcDbArc
 50
73.65710669401657
 51
106.3428933059865
  0
ARC
  5
78D2
330
1E
100
AcDbEntity
  8
STEMPEL
100
AcDbCircle
 10
459.5896391051493
 20
517.9396422477617
 30
0.0
 40
7.694305707784447
100
AcDbArc
 50
73.65710669401345
 51
106.3428933059834
  0
ARC
  5
78D3
330
1E
100
AcDbEntity
  8
HILF
100
AcDbCircle
 10
453.094448576766
 20
495.735486907885
 30
0.0
 40
22.41111549782308
100
AcDbArc
 50
78.85962783890391
 51
101.1403721610961
  0
ARC
  5
78D4
330
1E
100
AcDbEntity
  8
HILF
100
AcDbCircle
 10
459.5896391051493
 20
512.3854618060165
 30
0.0
 40
5.761140599691502
100
AcDbArc
 50
67.92594526326054
 51
112.0740547367394
  0
ARC
  5
78D5
330
1E
100
AcDbEntity
  8
HILF
100
AcDbCircle
 10
446.5992580483827
 20
512.3854618060165
 30
0.0
 40
5.761140599691502
100
AcDbArc
 50
67.92594526326054
 51
112.0740547367394
  0
POINT
  5
78D6
330
1E
100
AcDbEntity
  8
0
100
AcDbPoint
 10
453.094448576766
 20
515.6339479555462
 30
0.0
210
0.0000000000000001
220
1.0
230
0.0
  0
LINE
  5
78D7
330
1E
100
AcDbEntity
  8
STEMPEL
100
AcDbLine
 10
445.594448576766
 20
525.6339479555462
 30
0.0
 11
460.5944485767659
 21
525.6339479555462
 31
0.0
  0
LINE
  5
78D8
330
1E
100
AcDbEntity
  8
STEMPEL
100
AcDbLine
 10
461.7547026146104
 20
517.7243044717459
 30
0.0
 11
461.7547026146104
 21
525.3230588230908
 31
0.0
  0
LINE
  5
78D9
330
1E
100
AcDbEntity
  8
STEMPEL
100
AcDbLine
 10
457.4245755956882
 20
517.7243044717459
 30
0.0
 11
457.4245755956882
 21
525.3230588230908
 31
0.0
  0
LINE
  5
78DA
330
1E
100
AcDbEntity
  8
STEMPEL
100
AcDbLine
 10
448.7643215578438
 20
517.7243044717459
 30
0.0
 11
448.7643215578438
 21
525.3230588230908
 31
0.0
  0
LINE
  5
78DB
330
1E
100
AcDbEntity
  8
STEMPEL
100
AcDbLine
 10
463.5009636842602
 20
517.0887174211356
 30
0.0
 11
442.6879334692717
 21
517.0887174211356
 31
0.0
  0
LINE
  5
78DC
330
1E
100
AcDbEntity
  8
STEMPEL
100
AcDbLine
 10
463.244448576766
 20
515.6339479555462
 30
0.0
 11
442.944448576766
 21
515.6339479555462
 31
0.0
  0
LINE
  5
78DD
330
1E
100
AcDbEntity
  8
STEMPEL
100
AcDbLine
 10
444.4341945389216
 20
517.7243044717459
 30
0.0
 11
444.4341945389216
 21
525.3230588230908
 31
0.0
  0
LINE
  5
78DE
330
1E
100
AcDbEntity
  8
STEMPEL
100
AcDbLine
 10
445.594448576766
 20
525.6339479555462
 30
0.0
 11
444.4341945389216
 21
525.3230588230908
 31
0.0
  0
LINE
  5
78DF
330
1E
100
AcDbEntity
  8
STEMPEL
100
AcDbLine
 10
461.7547026146104
 20
525.3230588230908
 30
0.0
 11
460.5944485767659
 21
525.6339479555462
 31
0.0
  0
LINE
  5
78E0
330
1E
100
AcDbEntity
  8
STEMPEL
100
AcDbLine
 10
463.5009636842602
 20
517.0887174211356
 30
0.0
 11
461.7547026146104
 21
517.7243044717459
 31
0.0
  0
LINE
  5
78E1
330
1E
100
AcDbEntity
  8
STEMPEL
100
AcDbLine
 10
444.4341945389216
 20
517.7243044717459
 30
0.0
 11
442.6879334692718
 21
517.0887174211356
 31
0.0
  0
ARC
  5
78E2
330
1E
100
AcDbEntity
  8
STEMPEL
100
AcDbCircle
 10
442.944448576766
 20
516.3839479555462
 30
0.0
 40
0.7500000000000013
100
AcDbArc
 50
110.0000000000006
 51
269.9999991462263
  0
ARC
  5
78E3
330
1E
100
AcDbEntity
  8
STEMPEL
100
AcDbCircle
 10
463.244448576766
 20
516.3839479555462
 30
0.0
 40
0.750000000000001
100
AcDbArc
 50
269.9999991462263
 51
69.99999999999935
  0
LINE
  5
78E4
330
1E
100
AcDbEntity
  8
STEMPEL
100
AcDbLine
 10
457.094448576766
 20
528.1339479555474
 30
0.0
 11
449.094448576766
 21
528.1339479555474
 31
0.0
  0
LINE
  5
78E5
330
1E
100
AcDbEntity
  8
STEMPEL
100
AcDbLine
 10
448.0944485767659
 20
527.1339479555475
 30
0.0
 11
458.094448576766
 21
527.1339479555475
 31
0.0
  0
LINE
  5
78E6
330
1E
100
AcDbEntity
  8
HILF
100
AcDbLine
 10
449.094448576766
 20
528.1339479555474
 30
0.0
 11
449.0944485767662
 21
525.6339479555462
 31
0.0
  0
LINE
  5
78E7
330
1E
100
AcDbEntity
  8
STEMPEL
100
AcDbLine
 10
448.0944485767659
 20
527.1339479555474
 30
0.0
 11
448.0944485767661
 21
525.6339479555462
 31
0.0
  0
LINE
  5
78E8
330
1E
100
AcDbEntity
  8
STEMPEL
100
AcDbLine
 10
449.094448576766
 20
528.1339479555474
 30
0.0
 11
448.0944485767659
 21
527.1339479555474
 31
0.0
  0
LINE
  5
78E9
330
1E
100
AcDbEntity
  8
STEMPEL
100
AcDbLine
 10
458.094448576766
 20
527.1339479555474
 30
0.0
 11
457.094448576766
 21
528.1339479555474
 31
0.0
  0
LINE
  5
78EA
330
1E
100
AcDbEntity
  8
HILF
100
AcDbLine
 10
457.094448576766
 20
528.1339479555474
 30
0.0
 11
457.0944485767662
 21
525.6339479555463
 31
0.0
  0
LINE
  5
78EB
330
1E
100
AcDbEntity
  8
STEMPEL
100
AcDbLine
 10
458.094448576766
 20
527.1339479555474
 30
0.0
 11
458.0944485767658
 21
525.6339479555462
 31
0.0
  0
ARC
  5
78EC
330
1E
100
AcDbEntity
  8
STEMPEL
100
AcDbCircle
 10
580.0944485767664
 20
495.3230588230909
 30
0.0
 40
30.31088913245485
100
AcDbArc
 50
81.78678929826011
 51
98.21321070173988
  0
ARC
  5
78ED
330
1E
100
AcDbEntity
  8
STEMPEL
100
AcDbCircle
 10
573.5992580483832
 20
517.9396422477614
 30
0.0
 40
7.694305707784447
100
AcDbArc
 50
73.65710669401657
 51
106.3428933059865
  0
ARC
  5
78EE
330
1E
100
AcDbEntity
  8
STEMPEL
100
AcDbCircle
 10
586.5896391051498
 20
517.9396422477614
 30
0.0
 40
7.694305707784447
100
AcDbArc
 50
73.65710669401345
 51
106.3428933059834
  0
ARC
  5
78EF
330
1E
100
AcDbEntity
  8
HILF
100
AcDbCircle
 10
580.0944485767664
 20
495.7354869078846
 30
0.0
 40
22.41111549782308
100
AcDbArc
 50
78.85962783890391
 51
101.1403721610961
  0
ARC
  5
78F0
330
1E
100
AcDbEntity
  8
HILF
100
AcDbCircle
 10
586.5896391051498
 20
512.3854618060162
 30
0.0
 40
5.761140599691502
100
AcDbArc
 50
67.92594526326054
 51
112.0740547367394
  0
ARC
  5
78F1
330
1E
100
AcDbEntity
  8
HILF
100
AcDbCircle
 10
573.5992580483832
 20
512.3854618060162
 30
0.0
 40
5.761140599691502
100
AcDbArc
 50
67.92594526326054
 51
112.0740547367394
  0
POINT
  5
78F2
330
1E
100
AcDbEntity
  8
0
100
AcDbPoint
 10
580.0944485767664
 20
515.6339479555458
 30
0.0
210
0.0000000000000001
220
1.0
230
0.0
  0
LINE
  5
78F3
330
1E
100
AcDbEntity
  8
STEMPEL
100
AcDbLine
 10
572.5944485767664
 20
525.6339479555458
 30
0.0
 11
587.5944485767664
 21
525.6339479555458
 31
0.0
  0
LINE
  5
78F4
330
1E
100
AcDbEntity
  8
STEMPEL
100
AcDbLine
 10
588.7547026146108
 20
517.7243044717456
 30
0.0
 11
588.7547026146108
 21
525.3230588230905
 31
0.0
  0
LINE
  5
78F5
330
1E
100
AcDbEntity
  8
STEMPEL
100
AcDbLine
 10
584.4245755956887
 20
517.7243044717456
 30
0.0
 11
584.4245755956887
 21
525.3230588230905
 31
0.0
  0
LINE
  5
78F6
330
1E
100
AcDbEntity
  8
STEMPEL
100
AcDbLine
 10
575.7643215578442
 20
517.7243044717456
 30
0.0
 11
575.7643215578442
 21
525.3230588230905
 31
0.0
  0
LINE
  5
78F7
330
1E
100
AcDbEntity
  8
STEMPEL
100
AcDbLine
 10
590.5009636842607
 20
517.0887174211352
 30
0.0
 11
569.6879334692721
 21
517.0887174211352
 31
0.0
  0
LINE
  5
78F8
330
1E
100
AcDbEntity
  8
STEMPEL
100
AcDbLine
 10
590.2444485767664
 20
515.6339479555458
 30
0.0
 11
569.9444485767664
 21
515.6339479555458
 31
0.0
  0
LINE
  5
78F9
330
1E
100
AcDbEntity
  8
STEMPEL
100
AcDbLine
 10
571.4341945389221
 20
517.7243044717456
 30
0.0
 11
571.4341945389221
 21
525.3230588230905
 31
0.0
  0
LINE
  5
78FA
330
1E
100
AcDbEntity
  8
STEMPEL
100
AcDbLine
 10
572.5944485767664
 20
525.6339479555458
 30
0.0
 11
571.4341945389221
 21
525.3230588230905
 31
0.0
  0
LINE
  5
78FB
330
1E
100
AcDbEntity
  8
STEMPEL
100
AcDbLine
 10
588.7547026146108
 20
525.3230588230905
 30
0.0
 11
587.5944485767664
 21
525.6339479555458
 31
0.0
  0
LINE
  5
78FC
330
1E
100
AcDbEntity
  8
STEMPEL
100
AcDbLine
 10
590.5009636842607
 20
517.0887174211352
 30
0.0
 11
588.7547026146108
 21
517.7243044717456
 31
0.0
  0
LINE
  5
78FD
330
1E
100
AcDbEntity
  8
STEMPEL
100
AcDbLine
 10
571.4341945389221
 20
517.7243044717456
 30
0.0
 11
569.6879334692722
 21
517.0887174211352
 31
0.0
  0
ARC
  5
78FE
330
1E
100
AcDbEntity
  8
STEMPEL
100
AcDbCircle
 10
569.9444485767664
 20
516.3839479555458
 30
0.0
 40
0.7500000000000013
100
AcDbArc
 50
110.0000000000006
 51
269.9999991462263
  0
ARC
  5
78FF
330
1E
100
AcDbEntity
  8
STEMPEL
100
AcDbCircle
 10
590.2444485767664
 20
516.3839479555458
 30
0.0
 40
0.750000000000001
100
AcDbArc
 50
269.9999991462263
 51
69.99999999999935
  0
LINE
  5
7900
330
1E
100
AcDbEntity
  8
STEMPEL
100
AcDbLine
 10
584.0944485767664
 20
528.133947955547
 30
0.0
 11
576.0944485767664
 21
528.133947955547
 31
0.0
  0
LINE
  5
7901
330
1E
100
AcDbEntity
  8
STEMPEL
100
AcDbLine
 10
575.0944485767664
 20
527.1339479555471
 30
0.0
 11
585.0944485767664
 21
527.1339479555471
 31
0.0
  0
LINE
  5
7902
330
1E
100
AcDbEntity
  8
HILF
100
AcDbLine
 10
576.0944485767664
 20
528.133947955547
 30
0.0
 11
576.0944485767665
 21
525.6339479555458
 31
0.0
  0
LINE
  5
7903
330
1E
100
AcDbEntity
  8
STEMPEL
100
AcDbLine
 10
575.0944485767664
 20
527.1339479555471
 30
0.0
 11
575.0944485767665
 21
525.6339479555458
 31
0.0
  0
LINE
  5
7904
330
1E
100
AcDbEntity
  8
STEMPEL
100
AcDbLine
 10
576.0944485767664
 20
528.133947955547
 30
0.0
 11
575.0944485767664
 21
527.1339479555471
 31
0.0
  0
LINE
  5
7905
330
1E
100
AcDbEntity
  8
STEMPEL
100
AcDbLine
 10
585.0944485767664
 20
527.1339479555471
 30
0.0
 11
584.0944485767664
 21
528.133947955547
 31
0.0
  0
LINE
  5
7906
330
1E
100
AcDbEntity
  8
HILF
100
AcDbLine
 10
584.0944485767664
 20
528.133947955547
 30
0.0
 11
584.0944485767667
 21
525.6339479555459
 31
0.0
  0
LINE
  5
7907
330
1E
100
AcDbEntity
  8
STEMPEL
100
AcDbLine
 10
585.0944485767664
 20
527.1339479555471
 30
0.0
 11
585.0944485767663
 21
525.6339479555458
 31
0.0
  0
ARC
  5
7908
330
1E
100
AcDbEntity
  8
STEMPEL
100
AcDbCircle
 10
643.5944485767662
 20
495.3230588230908
 30
0.0
 40
30.31088913245485
100
AcDbArc
 50
81.78678929826011
 51
98.21321070173988
  0
ARC
  5
7909
330
1E
100
AcDbEntity
  8
STEMPEL
100
AcDbCircle
 10
637.099258048383
 20
517.9396422477611
 30
0.0
 40
7.694305707784447
100
AcDbArc
 50
73.65710669401657
 51
106.3428933059865
  0
ARC
  5
790A
330
1E
100
AcDbEntity
  8
STEMPEL
100
AcDbCircle
 10
650.0896391051496
 20
517.9396422477611
 30
0.0
 40
7.694305707784447
100
AcDbArc
 50
73.65710669401345
 51
106.3428933059834
  0
ARC
  5
790B
330
1E
100
AcDbEntity
  8
HILF
100
AcDbCircle
 10
643.5944485767662
 20
495.7354869078844
 30
0.0
 40
22.41111549782308
100
AcDbArc
 50
78.85962783890391
 51
101.1403721610961
  0
ARC
  5
790C
330
1E
100
AcDbEntity
  8
HILF
100
AcDbCircle
 10
650.0896391051496
 20
512.385461806016
 30
0.0
 40
5.761140599691502
100
AcDbArc
 50
67.92594526326054
 51
112.0740547367394
  0
ARC
  5
790D
330
1E
100
AcDbEntity
  8
HILF
100
AcDbCircle
 10
637.099258048383
 20
512.385461806016
 30
0.0
 40
5.761140599691502
100
AcDbArc
 50
67.92594526326054
 51
112.0740547367394
  0
POINT
  5
790E
330
1E
100
AcDbEntity
  8
0
100
AcDbPoint
 10
643.5944485767662
 20
515.6339479555456
 30
0.0
210
0.0000000000000001
220
1.0
230
0.0
  0
LINE
  5
790F
330
1E
100
AcDbEntity
  8
STEMPEL
100
AcDbLine
 10
636.0944485767662
 20
525.6339479555456
 30
0.0
 11
651.0944485767662
 21
525.6339479555456
 31
0.0
  0
LINE
  5
7910
330
1E
100
AcDbEntity
  8
STEMPEL
100
AcDbLine
 10
652.2547026146106
 20
517.7243044717454
 30
0.0
 11
652.2547026146106
 21
525.3230588230902
 31
0.0
  0
LINE
  5
7911
330
1E
100
AcDbEntity
  8
STEMPEL
100
AcDbLine
 10
647.9245755956884
 20
517.7243044717454
 30
0.0
 11
647.9245755956884
 21
525.3230588230902
 31
0.0
  0
LINE
  5
7912
330
1E
100
AcDbEntity
  8
STEMPEL
100
AcDbLine
 10
639.264321557844
 20
517.7243044717454
 30
0.0
 11
639.264321557844
 21
525.3230588230902
 31
0.0
  0
LINE
  5
7913
330
1E
100
AcDbEntity
  8
STEMPEL
100
AcDbLine
 10
654.0009636842605
 20
517.088717421135
 30
0.0
 11
633.1879334692719
 21
517.088717421135
 31
0.0
  0
LINE
  5
7914
330
1E
100
AcDbEntity
  8
STEMPEL
100
AcDbLine
 10
653.7444485767662
 20
515.6339479555456
 30
0.0
 11
633.4444485767662
 21
515.6339479555456
 31
0.0
  0
LINE
  5
7915
330
1E
100
AcDbEntity
  8
STEMPEL
100
AcDbLine
 10
634.9341945389219
 20
517.7243044717454
 30
0.0
 11
634.9341945389219
 21
525.3230588230902
 31
0.0
  0
LINE
  5
7916
330
1E
100
AcDbEntity
  8
STEMPEL
100
AcDbLine
 10
636.0944485767662
 20
525.6339479555456
 30
0.0
 11
634.9341945389219
 21
525.3230588230902
 31
0.0
  0
LINE
  5
7917
330
1E
100
AcDbEntity
  8
STEMPEL
100
AcDbLine
 10
652.2547026146106
 20
525.3230588230902
 30
0.0
 11
651.0944485767662
 21
525.6339479555456
 31
0.0
  0
LINE
  5
7918
330
1E
100
AcDbEntity
  8
STEMPEL
100
AcDbLine
 10
654.0009636842605
 20
517.088717421135
 30
0.0
 11
652.2547026146106
 21
517.7243044717454
 31
0.0
  0
LINE
  5
7919
330
1E
100
AcDbEntity
  8
STEMPEL
100
AcDbLine
 10
634.9341945389219
 20
517.7243044717454
 30
0.0
 11
633.187933469272
 21
517.088717421135
 31
0.0
  0
ARC
  5
791A
330
1E
100
AcDbEntity
  8
STEMPEL
100
AcDbCircle
 10
633.4444485767662
 20
516.3839479555456
 30
0.0
 40
0.7500000000000013
100
AcDbArc
 50
110.0000000000006
 51
269.9999991462263
  0
ARC
  5
791B
330
1E
100
AcDbEntity
  8
STEMPEL
100
AcDbCircle
 10
653.7444485767662
 20
516.3839479555456
 30
0.0
 40
0.750000000000001
100
AcDbArc
 50
269.9999991462263
 51
69.99999999999935
  0
LINE
  5
791C
330
1E
100
AcDbEntity
  8
STEMPEL
100
AcDbLine
 10
647.5944485767662
 20
528.1339479555469
 30
0.0
 11
639.5944485767662
 21
528.1339479555469
 31
0.0
  0
LINE
  5
791D
330
1E
100
AcDbEntity
  8
STEMPEL
100
AcDbLine
 10
638.5944485767662
 20
527.133947955547
 30
0.0
 11
648.5944485767662
 21
527.133947955547
 31
0.0
  0
LINE
  5
791E
330
1E
100
AcDbEntity
  8
HILF
100
AcDbLine
 10
639.5944485767662
 20
528.1339479555469
 30
0.0
 11
639.5944485767663
 21
525.6339479555456
 31
0.0
  0
LINE
  5
791F
330
1E
100
AcDbEntity
  8
STEMPEL
100
AcDbLine
 10
638.5944485767662
 20
527.1339479555469
 30
0.0
 11
638.5944485767663
 21
525.6339479555456
 31
0.0
  0
LINE
  5
7920
330
1E
100
AcDbEntity
  8
STEMPEL
100
AcDbLine
 10
639.5944485767662
 20
528.1339479555469
 30
0.0
 11
638.5944485767662
 21
527.1339479555469
 31
0.0
  0
LINE
  5
7921
330
1E
100
AcDbEntity
  8
STEMPEL
100
AcDbLine
 10
648.5944485767662
 20
527.1339479555469
 30
0.0
 11
647.5944485767662
 21
528.1339479555469
 31
0.0
  0
LINE
  5
7922
330
1E
100
AcDbEntity
  8
HILF
100
AcDbLine
 10
647.5944485767662
 20
528.1339479555469
 30
0.0
 11
647.5944485767664
 21
525.6339479555457
 31
0.0
  0
LINE
  5
7923
330
1E
100
AcDbEntity
  8
STEMPEL
100
AcDbLine
 10
648.5944485767662
 20
527.1339479555469
 30
0.0
 11
648.5944485767661
 21
525.6339479555456
 31
0.0
  0
ENDSEC
  0
SECTION
  2
OBJECTS
  0
DICTIONARY
  5
C
330
0
100
AcDbDictionary
281
     1
  3
ACAD_COLOR
350
11A
  3
ACAD_GROUP
350
D
  3
ACAD_LAYOUT
350
19
  3
ACAD_MATERIAL
350
119
  3
ACAD_MLINESTYLE
350
16
  3
ACAD_PLOTSETTINGS
350
18
  3
ACAD_PLOTSTYLENAME
350
E
  3
AcDbVariableDictionary
350
125
  0
DICTIONARY
  5
DB
330
1E
100
AcDbDictionary
280
     1
281
     1
  3
ACAD_LAYOUTSELFREF
360
10F
  0
DICTIONARY
  5
DD
330
1A
100
AcDbDictionary
280
     1
281
     1
  3
ACAD_LAYOUTSELFREF
360
10E
  0
DICTIONARY
  5
11A
102
{ACAD_REACTORS
330
C
102
}
330
C
100
AcDbDictionary
281
     1
  0
DICTIONARY
  5
D
102
{ACAD_REACTORS
330
C
102
}
330
C
100
AcDbDictionary
281
     1
  0
DICTIONARY
  5
19
102
{ACAD_REACTORS
330
C
102
}
330
C
100
AcDbDictionary
281
     1
  3
Layout1
350
1D
  3
Model
350
21
  0
DICTIONARY
  5
119
102
{ACAD_REACTORS
330
C
102
}
330
C
100
AcDbDictionary
281
     1
  0
DICTIONARY
  5
16
102
{ACAD_REACTORS
330
C
102
}
330
C
100
AcDbDictionary
281
     1
  3
Standard
350
17
  0
DICTIONARY
  5
18
102
{ACAD_REACTORS
330
C
102
}
330
C
100
AcDbDictionary
281
     1
  0
ACDBDICTIONARYWDFLT
  5
E
102
{ACAD_REACTORS
330
C
102
}
330
C
100
AcDbDictionary
281
     1
  3
Normal
350
F
100
AcDbDictionaryWithDefault
340
F
  0
DICTIONARY
  5
125
102
{ACAD_REACTORS
330
C
102
}
330
C
100
AcDbDictionary
281
     1
  3
DIMASSOC
350
126
  3
PROJECTNAME
350
127
  0
XRECORD
  5
10F
102
{ACAD_REACTORS
330
DB
102
}
330
DB
100
AcDbXrecord
280
     1
340
1E
  0
XRECORD
  5
10E
102
{ACAD_REACTORS
330
DD
102
}
330
DD
100
AcDbXrecord
280
     1
340
1A
  0
LAYOUT
  5
1D
102
{ACAD_REACTORS
330
19
102
}
330
19
100
AcDbPlotSettings
  1

  2
\\NT_WORK01\HP LaserJet 5000 PCL 6
  4

  6

 40
0.0
 41
0.0
 42
0.0
 43
0.0
 44
0.0
 45
0.0
 46
0.0
 47
0.0
 48
0.0
 49
0.0
140
0.0
141
0.0
142
1.0
143
1.0
 70
   688
 72
     0
 73
     0
 74
     5
  7

 75
    16
147
1.0
 76
     0
 77
     2
 78
   300
148
0.0
149
0.0
100
AcDbLayout
  1
Layout1
 70
     0
 71
     1
 10
0.0
 20
0.0
 11
12.0
 21
9.0
 12
0.0
 22
0.0
 32
0.0
 14
1.000000000000000E+20
 24
1.000000000000000E+20
 34
1.000000000000000E+20
 15
-1.000000000000000E+20
 25
-1.000000000000000E+20
 35
-1.000000000000000E+20
146
0.0
 13
0.0
 23
0.0
 33
0.0
 16
1.0
 26
0.0
 36
0.0
 17
0.0
 27
1.0
 37
0.0
 76
     0
330
1A
  0
LAYOUT
  5
21
102
{ACAD_REACTORS
330
19
102
}
330
19
100
AcDbPlotSettings
  1

  2
none_device
  4
Letter_(8.50_x_11.00_Inches)
  6

 40
6.349999904632568
 41
6.349999904632568
 42
6.350006103515625
 43
6.350006103515625
 44
215.8999938964844
 45
279.3999938964844
 46
0.0
 47
0.0
 48
0.0
 49
0.0
140
0.0
141
0.0
142
1.0
143
1.0
 70
 11952
 72
     0
 73
     1
 74
     0
  7

 75
     0
147
1.0
 76
     0
 77
     2
 78
   300
148
4623.781975991719
149
158.4927424090595
100
AcDbLayout
  1
Model
 70
     1
 71
     0
 10
0.0
 20
0.0
 11
12.0
 21
9.0
 12
0.0
 22
0.0
 32
0.0
 14
0.0
 24
0.0
 34
0.0
 15
0.0
 25
0.0
 35
0.0
146
0.0
 13
0.0
 23
0.0
 33
0.0
 16
1.0
 26
0.0
 36
0.0
 17
0.0
 27
1.0
 37
0.0
 76
     0
330
1E
  0
MLINESTYLE
  5
17
102
{ACAD_REACTORS
330
16
102
}
330
16
100
AcDbMlineStyle
  2
STANDARD
 70
     0
  3

 62
   256
 51
90.0
 52
90.0
 71
     2
 49
0.5
 62
   256
  6
BYLAYER
 49
-0.5
 62
   256
  6
BYLAYER
  0
ACDBPLACEHOLDER
  5
F
102
{ACAD_REACTORS
330
E
102
}
330
E
  0
DICTIONARYVAR
  5
126
102
{ACAD_REACTORS
330
125
102
}
330
125
100
DictionaryVariables
280
     0
  1
1
  0
DICTIONARYVAR
  5
127
102
{ACAD_REACTORS
330
125
102
}
330
125
100
DictionaryVariables
280
     0
  1

  0
ENDSEC
  0
EOF
