  0
SECTION
  2
HEADER
  9
$ACADVER
  1
AC1018
  9
$ACADMAINTVER
 70
     2
  9
$DWGCODEPAGE
  3
ANSI_1252
  9
$INSBASE
 10
0.0
 20
0.0
 30
0.0
  9
$EXTMIN
 10
0.0
 20
0.0
 30
0.0
  9
$EXTMAX
 10
1050.0
 20
742.4999999999999
 30
0.0
  9
$LIMMIN
 10
0.0
 20
0.0
  9
$LIMMAX
 10
1050.0
 20
742.4999999999999
  9
$ORTHOMODE
 70
     1
  9
$REGENMODE
 70
     1
  9
$FILLMODE
 70
     1
  9
$QTEXTMODE
 70
     0
  9
$MIRRTEXT
 70
     1
  9
$LTSCALE
 40
25.0
  9
$ATTMODE
 70
     1
  9
$TEXTSIZE
 40
3.5
  9
$TRACEWID
 40
1.0
  9
$TEXTSTYLE
  7
STANDARD
  9
$CLAYER
  8
VOLL
  9
$CELTYPE
  6
ByLayer
  9
$CECOLOR
 62
   256
  9
$CELTSCALE
 40
1.0
  9
$DISPSILH
 70
     0
  9
$DIMSCALE
 40
2.5
  9
$DIMASZ
 40
3.5
  9
$DIMEXO
 40
1.0
  9
$DIMDLI
 40
7.0
  9
$DIMRND
 40
0.0
  9
$DIMDLE
 40
0.0
  9
$DIMEXE
 40
1.0
  9
$DIMTP
 40
0.0
  9
$DIMTM
 40
0.0
  9
$DIMTXT
 40
3.5
  9
$DIMCEN
 40
1.5
  9
$DIMTSZ
 40
0.0
  9
$DIMTOL
 70
     0
  9
$DIMLIM
 70
     0
  9
$DIMTIH
 70
     0
  9
$DIMTOH
 70
     0
  9
$DIMSE1
 70
     0
  9
$DIMSE2
 70
     0
  9
$DIMTAD
 70
     1
  9
$DIMZIN
 70
     8
  9
$DIMBLK
  1

  9
$DIMASO
 70
     1
  9
$DIMSHO
 70
     0
  9
$DIMPOST
  1

  9
$DIMAPOST
  1

  9
$DIMALT
 70
     0
  9
$DIMALTD
 70
     2
  9
$DIMALTF
 40
25.4
  9
$DIMLFAC
 40
1.0
  9
$DIMTOFL
 70
     1
  9
$DIMTVP
 40
0.0
  9
$DIMTIX
 70
     0
  9
$DIMSOXD
 70
     0
  9
$DIMSAH
 70
     0
  9
$DIMBLK1
  1

  9
$DIMBLK2
  1

  9
$DIMSTYLE
  2
Standard
  9
$DIMCLRD
 70
     0
  9
$DIMCLRE
 70
     0
  9
$DIMCLRT
 70
     1
  9
$DIMTFAC
 40
0.5142857142857144
  9
$DIMGAP
 40
1.5
  9
$DIMJUST
 70
     0
  9
$DIMSD1
 70
     0
  9
$DIMSD2
 70
     0
  9
$DIMTOLJ
 70
     1
  9
$DIMTZIN
 70
     8
  9
$DIMALTZ
 70
     8
  9
$DIMALTTZ
 70
     8
  9
$DIMUPT
 70
     0
  9
$DIMDEC
 70
     2
  9
$DIMTDEC
 70
     2
  9
$DIMALTU
 70
     2
  9
$DIMALTTD
 70
     2
  9
$DIMTXSTY
  7
STANDARD
  9
$DIMAUNIT
 70
     0
  9
$DIMADEC
 70
     2
  9
$DIMALTRND
 40
0.0
  9
$DIMAZIN
 70
     2
  9
$DIMDSEP
 70
    46
  9
$DIMATFIT
 70
     3
  9
$DIMFRAC
 70
     0
  9
$DIMLDRBLK
  1

  9
$DIMLUNIT
 70
     2
  9
$DIMLWD
 70
    -2
  9
$DIMLWE
 70
    -2
  9
$DIMTMOVE
 70
     0
  9
$LUNITS
 70
     2
  9
$LUPREC
 70
     2
  9
$SKETCHINC
 40
1.0
  9
$FILLETRAD
 40
0.0
  9
$AUNITS
 70
     0
  9
$AUPREC
 70
     0
  9
$MENU
  1
ACAD
  9
$ELEVATION
 40
0.0
  9
$PELEVATION
 40
0.0
  9
$THICKNESS
 40
0.0
  9
$LIMCHECK
 70
     0
  9
$CHAMFERA
 40
0.0
  9
$CHAMFERB
 40
0.0
  9
$CHAMFERC
 40
0.0
  9
$CHAMFERD
 40
0.0
  9
$SKPOLY
 70
     0
  9
$TDCREATE
 40
2455397.867059838
  9
$TDUCREATE
 40
2455397.783726505
  9
$TDUPDATE
 40
2456055.573202696
  9
$TDUUPDATE
 40
2456055.489869364
  9
$TDINDWG
 40
0.1143736574
  9
$TDUSRTIMER
 40
0.1143736574
  9
$USRTIMER
 70
     1
  9
$ANGBASE
 50
0.0
  9
$ANGDIR
 70
     0
  9
$PDMODE
 70
     0
  9
$PDSIZE
 40
0.0
  9
$PLINEWID
 40
0.0
  9
$SPLFRAME
 70
     0
  9
$SPLINETYPE
 70
     6
  9
$SPLINESEGS
 70
     8
  9
$HANDSEED
  5
B0A
  9
$SURFTAB1
 70
     6
  9
$SURFTAB2
 70
     6
  9
$SURFTYPE
 70
     6
  9
$SURFU
 70
     6
  9
$SURFV
 70
     6
  9
$UCSBASE
  2

  9
$UCSNAME
  2

  9
$UCSORG
 10
0.0
 20
0.0
 30
0.0
  9
$UCSXDIR
 10
1.0
 20
0.0
 30
0.0
  9
$UCSYDIR
 10
0.0
 20
1.0
 30
0.0
  9
$UCSORTHOREF
  2

  9
$UCSORTHOVIEW
 70
     0
  9
$UCSORGTOP
 10
0.0
 20
0.0
 30
0.0
  9
$UCSORGBOTTOM
 10
0.0
 20
0.0
 30
0.0
  9
$UCSORGLEFT
 10
0.0
 20
0.0
 30
0.0
  9
$UCSORGRIGHT
 10
0.0
 20
0.0
 30
0.0
  9
$UCSORGFRONT
 10
0.0
 20
0.0
 30
0.0
  9
$UCSORGBACK
 10
0.0
 20
0.0
 30
0.0
  9
$PUCSBASE
  2

  9
$PUCSNAME
  2

  9
$PUCSORG
 10
0.0
 20
0.0
 30
0.0
  9
$PUCSXDIR
 10
1.0
 20
0.0
 30
0.0
  9
$PUCSYDIR
 10
0.0
 20
1.0
 30
0.0
  9
$PUCSORTHOREF
  2

  9
$PUCSORTHOVIEW
 70
     0
  9
$PUCSORGTOP
 10
0.0
 20
0.0
 30
0.0
  9
$PUCSORGBOTTOM
 10
0.0
 20
0.0
 30
0.0
  9
$PUCSORGLEFT
 10
0.0
 20
0.0
 30
0.0
  9
$PUCSORGRIGHT
 10
0.0
 20
0.0
 30
0.0
  9
$PUCSORGFRONT
 10
0.0
 20
0.0
 30
0.0
  9
$PUCSORGBACK
 10
0.0
 20
0.0
 30
0.0
  9
$USERI1
 70
     0
  9
$USERI2
 70
     0
  9
$USERI3
 70
     0
  9
$USERI4
 70
     0
  9
$USERI5
 70
     0
  9
$USERR1
 40
0.0
  9
$USERR2
 40
0.0
  9
$USERR3
 40
0.0
  9
$USERR4
 40
0.0
  9
$USERR5
 40
0.0
  9
$WORLDVIEW
 70
     1
  9
$SHADEDGE
 70
     3
  9
$SHADEDIF
 70
    70
  9
$TILEMODE
 70
     1
  9
$MAXACTVP
 70
    16
  9
$PINSBASE
 10
0.0
 20
0.0
 30
0.0
  9
$PLIMCHECK
 70
     0
  9
$PEXTMIN
 10
1.000000000000000E+20
 20
1.000000000000000E+20
 30
1.000000000000000E+20
  9
$PEXTMAX
 10
-1.000000000000000E+20
 20
-1.000000000000000E+20
 30
-1.000000000000000E+20
  9
$PLIMMIN
 10
0.0
 20
0.0
  9
$PLIMMAX
 10
12.0
 20
9.0
  9
$UNITMODE
 70
     0
  9
$VISRETAIN
 70
     0
  9
$PLINEGEN
 70
     0
  9
$PSLTSCALE
 70
     0
  9
$TREEDEPTH
 70
  3020
  9
$CMLSTYLE
  2
Standard
  9
$CMLJUST
 70
     0
  9
$CMLSCALE
 40
1.0
  9
$PROXYGRAPHICS
 70
     1
  9
$MEASUREMENT
 70
     0
  9
$CELWEIGHT
370
    -1
  9
$ENDCAPS
280
     0
  9
$JOINSTYLE
280
     0
  9
$LWDISPLAY
290
     0
  9
$INSUNITS
 70
     0
  9
$HYPERLINKBASE
  1

  9
$STYLESHEET
  1

  9
$XEDIT
290
     1
  9
$CEPSNTYPE
380
     0
  9
$PSTYLEMODE
290
     1
  9
$FINGERPRINTGUID
  2
{D68B0D0D-A558-11D7-B632-000102183313}
  9
$VERSIONGUID
  2
{D30238C3-8B92-48BF-865A-93B1BE51075D}
  9
$EXTNAMES
290
     1
  9
$PSVPSCALE
 40
0.0
  9
$OLESTARTUP
290
     0
  9
$SORTENTS
280
   127
  9
$INDEXCTL
280
     0
  9
$HIDETEXT
280
     0
  9
$XCLIPFRAME
290
     0
  9
$HALOGAP
280
     0
  9
$OBSCOLOR
 70
   257
  9
$OBSLTYPE
280
     0
  9
$INTERSECTIONDISPLAY
280
     0
  9
$INTERSECTIONCOLOR
 70
   257
  9
$DIMASSOC
280
     1
  9
$PROJECTNAME
  1

  0
ENDSEC
  0
SECTION
  2
CLASSES
  0
CLASS
  1
ACDBDICTIONARYWDFLT
  2
AcDbDictionaryWithDefault
  3
ObjectDBX Classes
 90
        0
 91
        1
280
     0
281
     0
  0
CLASS
  1
DICTIONARYVAR
  2
AcDbDictionaryVar
  3
ObjectDBX Classes
 90
        0
 91
        2
280
     0
281
     0
  0
ENDSEC
  0
SECTION
  2
TABLES
  0
TABLE
  2
VPORT
  5
8
330
0
100
AcDbSymbolTable
 70
     2
  0
VPORT
  5
B09
330
8
100
AcDbSymbolTableRecord
100
AcDbViewportTableRecord
  2
*Active
 70
     0
 10
0.0
 20
0.0
 11
1.0
 21
1.0
 12
525.0
 22
371.25
 13
0.0
 23
0.0
 14
1.0
 24
1.0
 15
10.0
 25
10.0
 16
0.0
 26
0.0
 36
1.0
 17
0.0
 27
0.0
 37
0.0
 40
764.0077821011673
 41
1.374331550802138
 42
50.0
 43
0.0
 44
0.0
 50
0.0
 51
0.0
 71
     0
 72
  1500
 73
     1
 74
     0
 75
     0
 76
     0
 77
     0
 78
     0
281
     0
 65
     1
110
0.0
120
0.0
130
0.0
111
1.0
121
0.0
131
0.0
112
0.0
122
1.0
132
0.0
 79
     0
146
0.0
  0
ENDTAB
  0
TABLE
  2
LTYPE
  5
5
330
0
100
AcDbSymbolTable
 70
     3
  0
LTYPE
  5
13
330
5
100
AcDbSymbolTableRecord
100
AcDbLinetypeTableRecord
  2
ByBlock
 70
     0
  3

 72
    65
 73
     0
 40
0.0
  0
LTYPE
  5
14
330
5
100
AcDbSymbolTableRecord
100
AcDbLinetypeTableRecord
  2
ByLayer
 70
     0
  3

 72
    65
 73
     0
 40
0.0
  0
LTYPE
  5
15
330
5
100
AcDbSymbolTableRecord
100
AcDbLinetypeTableRecord
  2
Continuous
 70
     0
  3
Solid line
 72
    65
 73
     0
 40
0.0
  0
LTYPE
  5
25
330
5
100
AcDbSymbolTableRecord
100
AcDbLinetypeTableRecord
  2
STRICHPUNKT
 70
     0
  3
__ . __ . __ . __ . __ . __ . __ . __ . __ . __
 72
    65
 73
     4
 40
1.0
 49
0.5
 74
     0
 49
-0.25
 74
     0
 49
0.0
 74
     0
 49
-0.25
 74
     0
  0
LTYPE
  5
34
330
5
100
AcDbSymbolTableRecord
100
AcDbLinetypeTableRecord
  2
AUSGEZOGEN
 70
     0
  3
Ausgezogene Linie
 72
    65
 73
     0
 40
0.0
  0
ENDTAB
  0
TABLE
  2
LAYER
  5
2
330
0
100
AcDbSymbolTable
 70
     9
  0
LAYER
  5
10
330
2
100
AcDbSymbolTableRecord
100
AcDbLayerTableRecord
  2
0
 70
     0
 62
     7
  6
Continuous
370
    -3
390
F
  0
LAYER
  5
2B
330
2
100
AcDbSymbolTableRecord
100
AcDbLayerTableRecord
  2
VOLL
 70
     0
 62
     1
  6
Continuous
370
    -3
390
F
  0
LAYER
  5
2C
330
2
100
AcDbSymbolTableRecord
100
AcDbLayerTableRecord
  2
HILF
 70
     0
 62
     2
  6
Continuous
370
    -3
390
F
  0
LAYER
  5
2D
330
2
100
AcDbSymbolTableRecord
100
AcDbLayerTableRecord
  2
MITTEL
 70
     0
 62
     2
  6
STRICHPUNKT
370
    -3
390
F
  0
LAYER
  5
2F
330
2
100
AcDbSymbolTableRecord
100
AcDbLayerTableRecord
  2
BEM
 70
     0
 62
     7
  6
Continuous
370
    -3
390
F
  0
LAYER
  5
30
330
2
100
AcDbSymbolTableRecord
100
AcDbLayerTableRecord
  2
STEMPEL
 70
     0
 62
     3
  6
Continuous
370
    -3
390
F
  0
LAYER
  5
33
330
2
100
AcDbSymbolTableRecord
100
AcDbLayerTableRecord
  2
TEXT
 70
     0
 62
     7
  6
Continuous
370
    -3
390
F
  0
LAYER
  5
18D
330
2
100
AcDbSymbolTableRecord
100
AcDbLayerTableRecord
  2
SCHRAFF
 70
     0
 62
     7
  6
AUSGEZOGEN
370
    -3
390
F
  0
LAYER
  5
24A
330
2
100
AcDbSymbolTableRecord
100
AcDbLayerTableRecord
  2
Defpoints
 70
     0
 62
     7
  6
Continuous
290
     0
370
    -3
390
F
  0
ENDTAB
  0
TABLE
  2
STYLE
  5
3
330
0
100
AcDbSymbolTable
 70
     2
  0
STYLE
  5
11
330
3
100
AcDbSymbolTableRecord
100
AcDbTextStyleTableRecord
  2
STANDARD
 70
     0
 40
0.0
 41
0.8
 50
0.0
 71
     0
 42
3.5
  3
simplex.shx
  4

  0
STYLE
  5
24
330
3
100
AcDbSymbolTableRecord
100
AcDbTextStyleTableRecord
  2
GREEKS
 70
     0
 40
0.0
 41
0.8
 50
0.0
 71
     0
 42
2.5
  3
SIMPLEX.shx
  4

  0
ENDTAB
  0
TABLE
  2
VIEW
  5
6
330
0
100
AcDbSymbolTable
 70
     0
  0
ENDTAB
  0
TABLE
  2
UCS
  5
7
330
0
100
AcDbSymbolTable
 70
     0
  0
ENDTAB
  0
TABLE
  2
APPID
  5
9
330
0
100
AcDbSymbolTable
 70
     1
  0
APPID
  5
12
330
9
100
AcDbSymbolTableRecord
100
AcDbRegAppTableRecord
  2
ACAD
 70
     0
  0
ENDTAB
  0
TABLE
  2
DIMSTYLE
  5
A
330
0
100
AcDbSymbolTable
 70
     1
100
AcDbDimStyleTable
 71
     1
340
A2
  0
DIMSTYLE
105
A2
102
{ACAD_REACTORS
330
861
330
862
330
863
330
864
330
865
330
866
330
867
330
913
330
943
102
}
330
A
100
AcDbSymbolTableRecord
100
AcDbDimStyleTableRecord
  2
Standard
 70
     0
340
11
  0
ENDTAB
  0
TABLE
  2
BLOCK_RECORD
  5
1
330
0
100
AcDbSymbolTable
 70
    11
  0
BLOCK_RECORD
  5
1E
102
{ACAD_XDICTIONARY
360
DB
102
}
330
1
100
AcDbSymbolTableRecord
100
AcDbBlockTableRecord
  2
*Model_Space
340
21
  0
BLOCK_RECORD
  5
1A
102
{ACAD_XDICTIONARY
360
DD
102
}
330
1
100
AcDbSymbolTableRecord
100
AcDbBlockTableRecord
  2
*Paper_Space
340
1D
  0
BLOCK_RECORD
  5
22
330
1
100
AcDbSymbolTableRecord
100
AcDbBlockTableRecord
  2
LOGO
340
0
102
{BLKREFS
331
56
102
}
  0
BLOCK_RECORD
  5
23
330
1
100
AcDbSymbolTableRecord
100
AcDbBlockTableRecord
  2
LORO
340
0
102
{BLKREFS
331
9B
102
}
  0
BLOCK_RECORD
  5
868
330
1
100
AcDbSymbolTableRecord
100
AcDbBlockTableRecord
  2
*D2
340
0
  0
BLOCK_RECORD
  5
874
330
1
100
AcDbSymbolTableRecord
100
AcDbBlockTableRecord
  2
*D3
340
0
  0
BLOCK_RECORD
  5
880
330
1
100
AcDbSymbolTableRecord
100
AcDbBlockTableRecord
  2
*D4
340
0
  0
BLOCK_RECORD
  5
88C
330
1
100
AcDbSymbolTableRecord
100
AcDbBlockTableRecord
  2
*D5
340
0
  0
BLOCK_RECORD
  5
89A
330
1
100
AcDbSymbolTableRecord
100
AcDbBlockTableRecord
  2
*D6
340
0
  0
BLOCK_RECORD
  5
8A6
330
1
100
AcDbSymbolTableRecord
100
AcDbBlockTableRecord
  2
*D7
340
0
  0
BLOCK_RECORD
  5
8B2
330
1
100
AcDbSymbolTableRecord
100
AcDbBlockTableRecord
  2
*D8
340
0
  0
BLOCK_RECORD
  5
914
330
1
100
AcDbSymbolTableRecord
100
AcDbBlockTableRecord
  2
*D9
340
0
  0
BLOCK_RECORD
  5
944
330
1
100
AcDbSymbolTableRecord
100
AcDbBlockTableRecord
  2
*D10
340
0
  0
ENDTAB
  0
ENDSEC
  0
SECTION
  2
BLOCKS
  0
BLOCK
  5
37
330
1E
100
AcDbEntity
  8
0
100
AcDbBlockBegin
  2
*Model_Space
 70
     0
 10
0.0
 20
0.0
 30
0.0
  3
*Model_Space
  1

  0
ENDBLK
  5
38
330
1E
100
AcDbEntity
  8
0
100
AcDbBlockEnd
  0
BLOCK
  5
35
330
1A
100
AcDbEntity
 67
     1
  8
0
100
AcDbBlockBegin
  2
*Paper_Space
 70
     0
 10
0.0
 20
0.0
 30
0.0
  3
*Paper_Space
  1

  0
ENDBLK
  5
36
330
1A
100
AcDbEntity
 67
     1
  8
0
100
AcDbBlockEnd
  0
BLOCK
  5
39
330
22
100
AcDbEntity
  8
0
100
AcDbBlockBegin
  2
LOGO
 70
     0
 10
0.0
 20
0.0
 30
0.0
  3
LOGO
  1

  0
ARC
  5
3A
330
22
100
AcDbEntity
  8
0
100
AcDbCircle
 10
11.59973089678112
 20
-9.271599258481501
 30
0.0
 40
4.5
100
AcDbArc
 50
270.0
 51
231.0575587310159
  0
LINE
  5
3B
330
22
100
AcDbEntity
  8
0
100
AcDbLine
 10
3.599730896781125
 20
-4.771599258481529
 30
0.0
 11
3.599730896781153
 21
-11.77159925848133
 31
0.0
  0
LINE
  5
3C
330
22
100
AcDbEntity
  8
0
100
AcDbLine
 10
2.599730896781125
 20
-4.771599258481529
 30
0.0
 11
2.599730896781153
 21
-11.77159925848133
 31
0.0
  0
CIRCLE
  5
3D
330
22
100
AcDbEntity
  8
0
100
AcDbCircle
 10
11.59973089678112
 20
-9.271599258481501
 30
0.0
 40
3.5
  0
ARC
  5
3E
330
22
100
AcDbEntity
  8
0
100
AcDbCircle
 10
31.59973089678115
 20
-9.271599258481472
 30
0.0
 40
4.5
100
AcDbArc
 50
270.0
 51
231.0575587310182
  0
LINE
  5
3F
330
22
100
AcDbEntity
  8
0
100
AcDbLine
 10
17.59973089678112
 20
-4.771599258481472
 30
0.0
 11
17.59973089678115
 21
-13.77159925848147
 31
0.0
  0
ARC
  5
40
330
22
100
AcDbEntity
  8
0
100
AcDbCircle
 10
22.59973089678116
 20
-7.271599258481472
 30
0.0
 40
2.5
100
AcDbArc
 50
293.1161887722295
 51
90.0
  0
CIRCLE
  5
41
330
22
100
AcDbEntity
  8
0
100
AcDbCircle
 10
31.59973089678115
 20
-9.271599258481472
 30
0.0
 40
3.5
  0
ARC
  5
42
330
22
100
AcDbEntity
  8
0
100
AcDbCircle
 10
4.599730896781153
 20
-11.77159925848133
 30
0.0
 40
1.0
100
AcDbArc
 50
180.0
 51
270.0
  0
ARC
  5
43
330
22
100
AcDbEntity
  8
0
100
AcDbCircle
 10
4.599730896781153
 20
-11.77159925848133
 30
0.0
 40
2.0
100
AcDbArc
 50
179.9999999999992
 51
270.0
  0
LINE
  5
44
330
22
100
AcDbEntity
  8
0
100
AcDbLine
 10
11.59973089678115
 20
-13.77159925848144
 30
0.0
 11
4.599730896781153
 21
-13.77159925848147
 31
0.0
  0
LINE
  5
45
330
22
100
AcDbEntity
  8
0
100
AcDbLine
 10
8.771303772034769
 20
-12.77159925848136
 30
0.0
 11
4.599730896781153
 21
-12.77159925848133
 31
0.0
  0
LINE
  5
46
330
22
100
AcDbEntity
  8
0
100
AcDbLine
 10
31.59973089678115
 20
-13.77159925848147
 30
0.0
 11
23.6715276665056
 21
-13.77159925848144
 31
0.0
  0
LINE
  5
47
330
22
100
AcDbEntity
  8
0
100
AcDbLine
 10
23.56565672307022
 20
-9.51278021337896
 30
0.0
 11
24.4388546544846
 21
-12.77159925848144
 31
0.0
  0
LINE
  5
48
330
22
100
AcDbEntity
  8
0
100
AcDbLine
 10
22.59973089678116
 20
-9.771599258481472
 30
0.0
 11
18.59973089678112
 21
-9.771599258481472
 31
0.0
  0
LINE
  5
49
330
22
100
AcDbEntity
  8
0
100
AcDbLine
 10
18.59973089678115
 20
-13.77159925848144
 30
0.0
 11
17.59973089678115
 21
-13.77159925848144
 31
0.0
  0
LINE
  5
4A
330
22
100
AcDbEntity
  8
0
100
AcDbLine
 10
18.59973089678115
 20
-9.771599258481472
 30
0.0
 11
18.59973089678115
 21
-13.77159925848144
 31
0.0
  0
LINE
  5
4B
330
22
100
AcDbEntity
  8
0
100
AcDbLine
 10
22.59973089678116
 20
-9.771599258481472
 30
0.0
 11
23.67152766650562
 21
-13.77159925848147
 31
0.0
  0
ARC
  5
4C
330
22
100
AcDbEntity
  8
0
100
AcDbCircle
 10
22.59973089678116
 20
-7.271599258481472
 30
0.0
 40
2.5
100
AcDbArc
 50
270.0
 51
270.0000000000007
  0
LINE
  5
4D
330
22
100
AcDbEntity
  8
0
100
AcDbLine
 10
28.77130377203494
 20
-12.77159925848147
 30
0.0
 11
24.43885465448463
 21
-12.77159925848144
 31
0.0
  0
LINE
  5
4E
330
22
100
AcDbEntity
  8
0
100
AcDbLine
 10
3.599730896781125
 20
-4.771599258481472
 30
0.0
 11
2.599730896781125
 21
-4.771599258481472
 31
0.0
  0
LINE
  5
4F
330
22
100
AcDbEntity
  8
0
100
AcDbLine
 10
22.59973089678116
 20
-8.771599258481472
 30
0.0
 11
18.59973089678115
 21
-8.771599258481472
 31
0.0
  0
LINE
  5
50
330
22
100
AcDbEntity
  8
0
100
AcDbLine
 10
22.59973089678116
 20
-5.771599258481472
 30
0.0
 11
18.59973089678115
 21
-5.771599258481472
 31
0.0
  0
LINE
  5
51
330
22
100
AcDbEntity
  8
0
100
AcDbLine
 10
22.59973089678116
 20
-4.771599258481472
 30
0.0
 11
17.59973089678115
 21
-4.771599258481472
 31
0.0
  0
LINE
  5
52
330
22
100
AcDbEntity
  8
0
100
AcDbLine
 10
18.59973089678115
 20
-5.771599258481472
 30
0.0
 11
18.59973089678115
 21
-8.771599258481472
 31
0.0
  0
ARC
  5
53
330
22
100
AcDbEntity
  8
0
100
AcDbCircle
 10
22.59973089678116
 20
-7.271599258481472
 30
0.0
 40
1.5
100
AcDbArc
 50
270.0
 51
90.0
  0
ENDBLK
  5
54
330
22
100
AcDbEntity
  8
0
100
AcDbBlockEnd
  0
BLOCK
  5
55
330
23
100
AcDbEntity
  8
0
100
AcDbBlockBegin
  2
LORO
 70
     0
 10
0.0
 20
0.0
 30
0.0
  3
LORO
  1

  0
INSERT
  5
56
330
23
100
AcDbEntity
  8
STEMPEL
100
AcDbBlockReference
  2
LOGO
 10
-1.748032802467321
 20
3.771489518552062
 30
0.0
  0
ENDBLK
  5
57
330
23
100
AcDbEntity
  8
0
100
AcDbBlockEnd
  0
BLOCK
  5
872
330
868
100
AcDbEntity
  8
0
100
AcDbBlockBegin
  2
*D2
 70
     1
 10
0.0
 20
0.0
 30
0.0
  3
*D2
  1

  0
LINE
  5
8BE
330
868
100
AcDbEntity
  8
BEM
 62
     0
370
    -2
100
AcDbLine
 10
801.3075842276172
 20
510.6307212052467
 30
0.0
 11
801.3075842276172
 21
657.4997144872991
 31
0.0
  0
LINE
  5
8BF
330
868
100
AcDbEntity
  8
BEM
 62
     0
370
    -2
100
AcDbLine
 10
268.3075842276172
 20
510.6307212052467
 30
0.0
 11
268.3075842276172
 21
657.4997144872991
 31
0.0
  0
LINE
  5
8C0
330
868
100
AcDbEntity
  8
BEM
 62
     0
370
    -2
100
AcDbLine
 10
792.5575842276173
 20
654.9997144872991
 30
0.0
 11
277.0575842276172
 21
654.9997144872991
 31
0.0
  0
SOLID
  5
8C1
330
868
100
AcDbEntity
  8
BEM
 62
     0
100
AcDbTrace
 10
792.5575842276173
 20
656.4580478206324
 30
0.0
 11
792.5575842276173
 21
653.5413811539657
 31
0.0
 12
801.3075842276172
 22
654.9997144872991
 32
0.0
 13
801.3075842276172
 23
654.9997144872991
 33
0.0
  0
SOLID
  5
8C2
330
868
100
AcDbEntity
  8
BEM
 62
     0
100
AcDbTrace
 10
277.0575842276172
 20
656.4580478206324
 30
0.0
 11
277.0575842276172
 21
653.5413811539657
 31
0.0
 12
268.3075842276172
 22
654.9997144872991
 32
0.0
 13
268.3075842276172
 23
654.9997144872991
 33
0.0
  0
MTEXT
  5
8C3
330
868
100
AcDbEntity
  8
BEM
 62
     1
100
AcDbMText
 10
534.8075842276172
 20
663.1247144872991
 30
0.0
 40
8.75
 41
0.0
 71
     5
 72
     1
  1
\A1;%%c533
 73
     1
 44
1.0
  0
POINT
  5
8C4
330
868
100
AcDbEntity
  8
Defpoints
 62
     0
100
AcDbPoint
 10
801.3075842276172
 20
508.1307212052467
 30
0.0
  0
POINT
  5
8C5
330
868
100
AcDbEntity
  8
Defpoints
 62
     0
100
AcDbPoint
 10
268.3075842276172
 20
508.1307212052467
 30
0.0
  0
POINT
  5
8C6
330
868
100
AcDbEntity
  8
Defpoints
 62
     0
100
AcDbPoint
 10
268.3075842276172
 20
654.9997144872991
 30
0.0
  0
ENDBLK
  5
873
330
868
100
AcDbEntity
  8
0
100
AcDbBlockEnd
  0
BLOCK
  5
87E
330
874
100
AcDbEntity
  8
0
100
AcDbBlockBegin
  2
*D3
 70
     1
 10
0.0
 20
0.0
 30
0.0
  3
*D3
  1

  0
LINE
  5
8C7
330
874
100
AcDbEntity
  8
BEM
 62
     0
370
    -2
100
AcDbLine
 10
775.5399988654605
 20
532.1307212052456
 30
0.0
 11
775.5399988654605
 21
635.9590610798232
 31
0.0
  0
LINE
  5
8C8
330
874
100
AcDbEntity
  8
BEM
 62
     0
370
    -2
100
AcDbLine
 10
294.0751695897742
 20
532.1307212052466
 30
0.0
 11
294.0751695897742
 21
635.9590610798232
 31
0.0
  0
LINE
  5
8C9
330
874
100
AcDbEntity
  8
BEM
 62
     0
370
    -2
100
AcDbLine
 10
766.7899988654604
 20
633.4590610798231
 30
0.0
 11
302.8251695897742
 21
633.4590610798231
 31
0.0
  0
SOLID
  5
8CA
330
874
100
AcDbEntity
  8
BEM
 62
     0
100
AcDbTrace
 10
766.7899988654604
 20
634.9173944131565
 30
0.0
 11
766.7899988654604
 21
632.0007277464898
 31
0.0
 12
775.5399988654605
 22
633.4590610798231
 32
0.0
 13
775.5399988654605
 23
633.4590610798231
 33
0.0
  0
SOLID
  5
8CB
330
874
100
AcDbEntity
  8
BEM
 62
     0
100
AcDbTrace
 10
302.8251695897742
 20
634.9173944131565
 30
0.0
 11
302.8251695897742
 21
632.0007277464898
 31
0.0
 12
294.0751695897742
 22
633.4590610798231
 32
0.0
 13
294.0751695897742
 23
633.4590610798231
 33
0.0
  0
MTEXT
  5
8CC
330
874
100
AcDbEntity
  8
BEM
 62
     1
100
AcDbMText
 10
534.8075842276172
 20
641.5840610798231
 30
0.0
 40
8.75
 41
0.0
 71
     5
 72
     1
  1
\A1;%%c482
 73
     1
 44
1.0
  0
POINT
  5
8CD
330
874
100
AcDbEntity
  8
Defpoints
 62
     0
100
AcDbPoint
 10
775.5399988654605
 20
529.6307212052457
 30
0.0
  0
POINT
  5
8CE
330
874
100
AcDbEntity
  8
Defpoints
 62
     0
100
AcDbPoint
 10
294.0751695897742
 20
529.6307212052465
 30
0.0
  0
POINT
  5
8CF
330
874
100
AcDbEntity
  8
Defpoints
 62
     0
100
AcDbPoint
 10
294.0751695897742
 20
633.4590610798231
 30
0.0
  0
ENDBLK
  5
87F
330
874
100
AcDbEntity
  8
0
100
AcDbBlockEnd
  0
BLOCK
  5
88A
330
880
100
AcDbEntity
  8
0
100
AcDbBlockBegin
  2
*D4
 70
     1
 10
0.0
 20
0.0
 30
0.0
  3
*D4
  1

  0
LINE
  5
934
330
880
100
AcDbEntity
  8
BEM
 62
     0
370
    -2
100
AcDbLine
 10
376.5751695897742
 20
614.6307212052465
 30
0.0
 11
232.2380501818093
 21
614.6307212052467
 31
0.0
  0
LINE
  5
935
330
880
100
AcDbEntity
  8
BEM
 62
     0
370
    -2
100
AcDbLine
 10
251.7392466107476
 20
506.6307212052467
 30
0.0
 11
232.2380501818093
 21
506.6307212052467
 31
0.0
  0
LINE
  5
936
330
880
100
AcDbEntity
  8
BEM
 62
     0
370
    -2
100
AcDbLine
 10
234.7380501818093
 20
605.8807212052466
 30
0.0
 11
234.7380501818093
 21
515.3807212052468
 31
0.0
  0
SOLID
  5
937
330
880
100
AcDbEntity
  8
BEM
 62
     0
100
AcDbTrace
 10
233.279716848476
 20
605.8807212052466
 30
0.0
 11
236.1963835151426
 21
605.8807212052466
 31
0.0
 12
234.7380501818093
 22
614.6307212052467
 32
0.0
 13
234.7380501818093
 23
614.6307212052467
 33
0.0
  0
SOLID
  5
938
330
880
100
AcDbEntity
  8
BEM
 62
     0
100
AcDbTrace
 10
233.2797168484759
 20
515.3807212052468
 30
0.0
 11
236.1963835151426
 21
515.3807212052468
 31
0.0
 12
234.7380501818093
 22
506.6307212052467
 32
0.0
 13
234.7380501818093
 23
506.6307212052467
 33
0.0
  0
MTEXT
  5
939
330
880
100
AcDbEntity
  8
BEM
 62
     1
100
AcDbMText
 10
226.6130501818092
 20
560.6307212052468
 30
0.0
 40
8.75
 41
0.0
 71
     5
 72
     1
  1
\A1;108
 11
0.0000000000000001
 21
1.0
 31
0.0
 73
     1
 44
1.0
  0
POINT
  5
93A
330
880
100
AcDbEntity
  8
Defpoints
 62
     0
100
AcDbPoint
 10
379.0751695897742
 20
614.6307212052465
 30
0.0
  0
POINT
  5
93B
330
880
100
AcDbEntity
  8
Defpoints
 62
     0
100
AcDbPoint
 10
254.2392466107476
 20
506.6307212052467
 30
0.0
  0
POINT
  5
93C
330
880
100
AcDbEntity
  8
Defpoints
 62
     0
100
AcDbPoint
 10
234.7380501818093
 20
506.6307212052467
 30
0.0
  0
ENDBLK
  5
88B
330
880
100
AcDbEntity
  8
0
100
AcDbBlockEnd
  0
BLOCK
  5
898
330
88C
100
AcDbEntity
  8
0
100
AcDbBlockBegin
  2
*D5
 70
     1
 10
0.0
 20
0.0
 30
0.0
  3
*D5
  1

  0
LINE
  5
929
330
88C
100
AcDbEntity
  8
BEM
 62
     0
370
    -2
100
AcDbLine
 10
251.7392466107476
 20
506.6307212052467
 30
0.0
 11
232.2380501818093
 21
506.6307212052467
 31
0.0
  0
LINE
  5
92A
330
88C
100
AcDbEntity
  8
BEM
 62
     0
370
    -2
100
AcDbLine
 10
265.8075842276173
 20
491.6307212052467
 30
0.0
 11
232.2380501818093
 21
491.6307212052467
 31
0.0
  0
LINE
  5
92B
330
88C
100
AcDbEntity
  8
BEM
 62
     0
370
    -2
100
AcDbLine
 10
234.7380501818093
 20
515.3807212052468
 30
0.0
 11
234.7380501818093
 21
524.1307212052467
 31
0.0
  0
LINE
  5
92C
330
88C
100
AcDbEntity
  8
BEM
 62
     0
370
    -2
100
AcDbLine
 10
234.7380501818093
 20
482.8807212052467
 30
0.0
 11
234.7380501818093
 21
456.6307212052467
 31
0.0
  0
LINE
  5
92D
330
88C
100
AcDbEntity
  8
BEM
 62
     0
370
    -2
100
AcDbLine
 10
234.7380501818093
 20
506.6307212052467
 30
0.0
 11
234.7380501818093
 21
491.6307212052467
 31
0.0
  0
SOLID
  5
92E
330
88C
100
AcDbEntity
  8
BEM
 62
     0
100
AcDbTrace
 10
233.2797168484759
 20
515.3807212052468
 30
0.0
 11
236.1963835151426
 21
515.3807212052468
 31
0.0
 12
234.7380501818093
 22
506.6307212052467
 32
0.0
 13
234.7380501818093
 23
506.6307212052467
 33
0.0
  0
SOLID
  5
92F
330
88C
100
AcDbEntity
  8
BEM
 62
     0
100
AcDbTrace
 10
233.2797168484759
 20
482.8807212052467
 30
0.0
 11
236.1963835151426
 21
482.8807212052467
 31
0.0
 12
234.7380501818093
 22
491.6307212052467
 32
0.0
 13
234.7380501818093
 23
491.6307212052467
 33
0.0
  0
MTEXT
  5
930
330
88C
100
AcDbEntity
  8
BEM
 62
     1
100
AcDbMText
 10
226.6130501818092
 20
465.3807212052468
 30
0.0
 40
8.75
 41
0.0
 71
     5
 72
     1
  1
\A1;15
 11
0.0000000000000001
 21
1.0
 31
0.0
 73
     1
 44
1.0
  0
POINT
  5
931
330
88C
100
AcDbEntity
  8
Defpoints
 62
     0
100
AcDbPoint
 10
254.2392466107476
 20
506.6307212052467
 30
0.0
  0
POINT
  5
932
330
88C
100
AcDbEntity
  8
Defpoints
 62
     0
100
AcDbPoint
 10
268.3075842276173
 20
491.6307212052467
 30
0.0
  0
POINT
  5
933
330
88C
100
AcDbEntity
  8
Defpoints
 62
     0
100
AcDbPoint
 10
234.7380501818093
 20
491.6307212052467
 30
0.0
  0
ENDBLK
  5
899
330
88C
100
AcDbEntity
  8
0
100
AcDbBlockEnd
  0
BLOCK
  5
8A4
330
89A
100
AcDbEntity
  8
0
100
AcDbBlockBegin
  2
*D6
 70
     1
 10
0.0
 20
0.0
 30
0.0
  3
*D6
  1

  0
LINE
  5
9AC
330
89A
100
AcDbEntity
  8
BEM
 62
     0
370
    -2
100
AcDbLine
 10
699.8075842276171
 20
480.252041548807
 30
0.0
 11
699.8075842276171
 21
430.978437441558
 31
0.0
  0
LINE
  5
9AD
330
89A
100
AcDbEntity
  8
BEM
 62
     0
370
    -2
100
AcDbLine
 10
369.8075842276173
 20
480.252041548807
 30
0.0
 11
369.8075842276173
 21
430.978437441558
 31
0.0
  0
LINE
  5
9AE
330
89A
100
AcDbEntity
  8
BEM
 62
     0
370
    -2
100
AcDbLine
 10
691.0575842276171
 20
433.4784374415581
 30
0.0
 11
378.5575842276173
 21
433.4784374415581
 31
0.0
  0
SOLID
  5
9AF
330
89A
100
AcDbEntity
  8
BEM
 62
     0
100
AcDbTrace
 10
691.0575842276171
 20
434.9367707748913
 30
0.0
 11
691.0575842276171
 21
432.0201041082247
 31
0.0
 12
699.8075842276171
 22
433.4784374415581
 32
0.0
 13
699.8075842276171
 23
433.4784374415581
 33
0.0
  0
SOLID
  5
9B0
330
89A
100
AcDbEntity
  8
BEM
 62
     0
100
AcDbTrace
 10
378.5575842276173
 20
434.9367707748913
 30
0.0
 11
378.5575842276173
 21
432.0201041082247
 31
0.0
 12
369.8075842276173
 22
433.4784374415581
 32
0.0
 13
369.8075842276173
 23
433.4784374415581
 33
0.0
  0
MTEXT
  5
9B1
330
89A
100
AcDbEntity
  8
BEM
 62
     1
100
AcDbMText
 10
534.8075842276172
 20
441.603437441558
 30
0.0
 40
8.75
 41
0.0
 71
     5
 72
     1
  1
\A1;%%c330
 73
     1
 44
1.0
  0
POINT
  5
9B2
330
89A
100
AcDbEntity
  8
Defpoints
 62
     0
100
AcDbPoint
 10
699.8075842276171
 20
482.752041548807
 30
0.0
  0
POINT
  5
9B3
330
89A
100
AcDbEntity
  8
Defpoints
 62
     0
100
AcDbPoint
 10
369.8075842276173
 20
482.752041548807
 30
0.0
  0
POINT
  5
9B4
330
89A
100
AcDbEntity
  8
Defpoints
 62
     0
100
AcDbPoint
 10
369.8075842276173
 20
433.4784374415581
 30
0.0
  0
ENDBLK
  5
8A5
330
89A
100
AcDbEntity
  8
0
100
AcDbBlockEnd
  0
BLOCK
  5
8B0
330
8A6
100
AcDbEntity
  8
0
100
AcDbBlockBegin
  2
*D7
 70
     1
 10
0.0
 20
0.0
 30
0.0
  3
*D7
  1

  0
LINE
  5
9A3
330
8A6
100
AcDbEntity
  8
BEM
 62
     0
370
    -2
100
AcDbLine
 10
467.294891507558
 20
206.6307212052473
 30
0.0
 11
346.8029734208881
 21
206.6307212052473
 31
0.0
  0
LINE
  5
9A4
330
8A6
100
AcDbEntity
  8
BEM
 62
     0
370
    -2
100
AcDbLine
 10
367.307584227617
 20
486.6307212052467
 30
0.0
 11
346.8029734208882
 21
486.6307212052467
 31
0.0
  0
LINE
  5
9A5
330
8A6
100
AcDbEntity
  8
BEM
 62
     0
370
    -2
100
AcDbLine
 10
349.3029734208881
 20
215.3807212052473
 30
0.0
 11
349.3029734208882
 21
477.8807212052468
 31
0.0
  0
SOLID
  5
9A6
330
8A6
100
AcDbEntity
  8
BEM
 62
     0
100
AcDbTrace
 10
347.8446400875548
 20
215.3807212052473
 30
0.0
 11
350.7613067542215
 21
215.3807212052473
 31
0.0
 12
349.3029734208881
 22
206.6307212052473
 32
0.0
 13
349.3029734208881
 23
206.6307212052473
 33
0.0
  0
SOLID
  5
9A7
330
8A6
100
AcDbEntity
  8
BEM
 62
     0
100
AcDbTrace
 10
347.8446400875549
 20
477.8807212052468
 30
0.0
 11
350.7613067542215
 21
477.8807212052468
 31
0.0
 12
349.3029734208882
 22
486.6307212052467
 32
0.0
 13
349.3029734208882
 23
486.6307212052467
 33
0.0
  0
MTEXT
  5
9A8
330
8A6
100
AcDbEntity
  8
BEM
 62
     1
100
AcDbMText
 10
341.1779734208881
 20
346.6307212052472
 30
0.0
 40
8.75
 41
0.0
 71
     5
 72
     1
  1
\A1;280
 11
0.0000000000000001
 21
1.0
 31
0.0
 73
     1
 44
1.0
  0
POINT
  5
9A9
330
8A6
100
AcDbEntity
  8
Defpoints
 62
     0
100
AcDbPoint
 10
469.794891507558
 20
206.6307212052473
 30
0.0
  0
POINT
  5
9AA
330
8A6
100
AcDbEntity
  8
Defpoints
 62
     0
100
AcDbPoint
 10
369.807584227617
 20
486.6307212052467
 30
0.0
  0
POINT
  5
9AB
330
8A6
100
AcDbEntity
  8
Defpoints
 62
     0
100
AcDbPoint
 10
349.3029734208882
 20
486.6307212052467
 30
0.0
  0
ENDBLK
  5
8B1
330
8A6
100
AcDbEntity
  8
0
100
AcDbBlockEnd
  0
BLOCK
  5
8BC
330
8B2
100
AcDbEntity
  8
0
100
AcDbBlockBegin
  2
*D8
 70
     1
 10
0.0
 20
0.0
 30
0.0
  3
*D8
  1

  0
LINE
  5
99A
330
8B2
100
AcDbEntity
  8
BEM
 62
     0
370
    -2
100
AcDbLine
 10
601.3075842276175
 20
216.1307212052596
 30
0.0
 11
601.3075842276175
 21
180.9421198261941
 31
0.0
  0
LINE
  5
99B
330
8B2
100
AcDbEntity
  8
BEM
 62
     0
370
    -2
100
AcDbLine
 10
468.3075842276176
 20
216.1307212052475
 30
0.0
 11
468.3075842276176
 21
180.9421198261941
 31
0.0
  0
LINE
  5
99C
330
8B2
100
AcDbEntity
  8
BEM
 62
     0
370
    -2
100
AcDbLine
 10
592.5575842276175
 20
183.4421198261941
 30
0.0
 11
477.0575842276176
 21
183.4421198261941
 31
0.0
  0
SOLID
  5
99D
330
8B2
100
AcDbEntity
  8
BEM
 62
     0
100
AcDbTrace
 10
592.5575842276175
 20
184.9004531595275
 30
0.0
 11
592.5575842276175
 21
181.9837864928608
 31
0.0
 12
601.3075842276175
 22
183.4421198261941
 32
0.0
 13
601.3075842276175
 23
183.4421198261941
 33
0.0
  0
SOLID
  5
99E
330
8B2
100
AcDbEntity
  8
BEM
 62
     0
100
AcDbTrace
 10
477.0575842276176
 20
184.9004531595275
 30
0.0
 11
477.0575842276176
 21
181.9837864928608
 31
0.0
 12
468.3075842276176
 22
183.4421198261941
 32
0.0
 13
468.3075842276176
 23
183.4421198261941
 33
0.0
  0
MTEXT
  5
99F
330
8B2
100
AcDbEntity
  8
BEM
 62
     1
100
AcDbMText
 10
534.8075842276175
 20
191.5671198261941
 30
0.0
 40
8.75
 41
0.0
 71
     5
 72
     1
  1
\A1;%%c133
 73
     1
 44
1.0
  0
POINT
  5
9A0
330
8B2
100
AcDbEntity
  8
Defpoints
 62
     0
100
AcDbPoint
 10
601.3075842276175
 20
218.6307212052596
 30
0.0
  0
POINT
  5
9A1
330
8B2
100
AcDbEntity
  8
Defpoints
 62
     0
100
AcDbPoint
 10
468.3075842276176
 20
218.6307212052474
 30
0.0
  0
POINT
  5
9A2
330
8B2
100
AcDbEntity
  8
Defpoints
 62
     0
100
AcDbPoint
 10
468.3075842276176
 20
183.4421198261941
 30
0.0
  0
ENDBLK
  5
8BD
330
8B2
100
AcDbEntity
  8
0
100
AcDbBlockEnd
  0
BLOCK
  5
91E
330
914
100
AcDbEntity
  8
0
100
AcDbBlockBegin
  2
*D9
 70
     1
 10
0.0
 20
0.0
 30
0.0
  3
*D9
  1

  0
LINE
  5
920
330
914
100
AcDbEntity
  8
BEM
 62
     0
370
    -2
100
AcDbLine
 10
338.8075842276173
 20
551.6307212052468
 30
0.0
 11
251.7392466107476
 21
551.6307212052469
 31
0.0
  0
LINE
  5
921
330
914
100
AcDbEntity
  8
BEM
 62
     0
370
    -2
100
AcDbLine
 10
265.8075842276173
 20
491.6307212052467
 30
0.0
 11
251.7392466107476
 21
491.6307212052467
 31
0.0
  0
LINE
  5
922
330
914
100
AcDbEntity
  8
BEM
 62
     0
370
    -2
100
AcDbLine
 10
254.2392466107476
 20
542.8807212052468
 30
0.0
 11
254.2392466107476
 21
500.3807212052467
 31
0.0
  0
SOLID
  5
923
330
914
100
AcDbEntity
  8
BEM
 62
     0
100
AcDbTrace
 10
252.7809132774143
 20
542.8807212052468
 30
0.0
 11
255.6975799440809
 21
542.8807212052468
 31
0.0
 12
254.2392466107476
 22
551.6307212052469
 32
0.0
 13
254.2392466107476
 23
551.6307212052469
 33
0.0
  0
SOLID
  5
924
330
914
100
AcDbEntity
  8
BEM
 62
     0
100
AcDbTrace
 10
252.7809132774143
 20
500.3807212052467
 30
0.0
 11
255.6975799440809
 21
500.3807212052467
 31
0.0
 12
254.2392466107476
 22
491.6307212052467
 32
0.0
 13
254.2392466107476
 23
491.6307212052467
 33
0.0
  0
MTEXT
  5
925
330
914
100
AcDbEntity
  8
BEM
 62
     1
100
AcDbMText
 10
246.1142466107475
 20
521.6307212052468
 30
0.0
 40
8.75
 41
0.0
 71
     5
 72
     1
  1
\A1;60
 11
0.0000000000000001
 21
1.0
 31
0.0
 73
     1
 44
1.0
  0
POINT
  5
926
330
914
100
AcDbEntity
  8
Defpoints
 62
     0
100
AcDbPoint
 10
341.3075842276173
 20
551.6307212052468
 30
0.0
  0
POINT
  5
927
330
914
100
AcDbEntity
  8
Defpoints
 62
     0
100
AcDbPoint
 10
268.3075842276173
 20
491.6307212052467
 30
0.0
  0
POINT
  5
928
330
914
100
AcDbEntity
  8
Defpoints
 62
     0
100
AcDbPoint
 10
254.2392466107476
 20
491.6307212052467
 30
0.0
  0
ENDBLK
  5
91F
330
914
100
AcDbEntity
  8
0
100
AcDbBlockEnd
  0
BLOCK
  5
94E
330
944
100
AcDbEntity
  8
0
100
AcDbBlockBegin
  2
*D10
 70
     1
 10
0.0
 20
0.0
 30
0.0
  3
*D10
  1

  0
LINE
  5
959
330
944
100
AcDbEntity
  8
BEM
 62
     0
370
    -2
100
AcDbLine
 10
728.3075842276173
 20
554.1307212052466
 30
0.0
 11
728.3075842276173
 21
570.416020726537
 31
0.0
  0
LINE
  5
95A
330
944
100
AcDbEntity
  8
BEM
 62
     0
370
    -2
100
AcDbLine
 10
341.3075842276173
 20
554.1307212052467
 30
0.0
 11
341.3075842276173
 21
570.416020726537
 31
0.0
  0
LINE
  5
95B
330
944
100
AcDbEntity
  8
BEM
 62
     0
370
    -2
100
AcDbLine
 10
719.5575842276173
 20
567.9160207265369
 30
0.0
 11
350.0575842276173
 21
567.9160207265369
 31
0.0
  0
SOLID
  5
95C
330
944
100
AcDbEntity
  8
BEM
 62
     0
100
AcDbTrace
 10
719.5575842276173
 20
569.3743540598704
 30
0.0
 11
719.5575842276173
 21
566.4576873932036
 31
0.0
 12
728.3075842276173
 22
567.9160207265369
 32
0.0
 13
728.3075842276173
 23
567.9160207265369
 33
0.0
  0
SOLID
  5
95D
330
944
100
AcDbEntity
  8
BEM
 62
     0
100
AcDbTrace
 10
350.0575842276173
 20
569.3743540598704
 30
0.0
 11
350.0575842276173
 21
566.4576873932036
 31
0.0
 12
341.3075842276173
 22
567.9160207265369
 32
0.0
 13
341.3075842276173
 23
567.9160207265369
 33
0.0
  0
MTEXT
  5
95E
330
944
100
AcDbEntity
  8
BEM
 62
     1
100
AcDbMText
 10
534.8075842276172
 20
576.041020726537
 30
0.0
 40
8.75
 41
0.0
 71
     5
 72
     1
  1
\A1;%%c387
 73
     1
 44
1.0
  0
POINT
  5
95F
330
944
100
AcDbEntity
  8
Defpoints
 62
     0
100
AcDbPoint
 10
728.3075842276173
 20
551.6307212052466
 30
0.0
  0
POINT
  5
960
330
944
100
AcDbEntity
  8
Defpoints
 62
     0
100
AcDbPoint
 10
341.3075842276173
 20
551.6307212052468
 30
0.0
  0
POINT
  5
961
330
944
100
AcDbEntity
  8
Defpoints
 62
     0
100
AcDbPoint
 10
341.3075842276173
 20
567.9160207265369
 30
0.0
  0
ENDBLK
  5
94F
330
944
100
AcDbEntity
  8
0
100
AcDbBlockEnd
  0
ENDSEC
  0
SECTION
  2
ENTITIES
  0
LINE
  5
58
330
1E
100
AcDbEntity
  8
STEMPEL
100
AcDbLine
 10
1037.5
 20
137.5
 30
0.0
 11
587.5000000000002
 21
137.5
 31
0.0
  0
LINE
  5
59
330
1E
100
AcDbEntity
  8
STEMPEL
100
AcDbLine
 10
587.5000000000002
 20
137.5
 30
0.0
 11
587.5
 21
12.5
 31
0.0
  0
LINE
  5
5A
330
1E
100
AcDbEntity
  8
STEMPEL
100
AcDbLine
 10
707.5000000000002
 20
137.4999999999998
 30
0.0
 11
707.5000000000001
 21
12.49999999999986
 31
0.0
  0
LINE
  5
5B
330
1E
100
AcDbEntity
  8
STEMPEL
100
AcDbLine
 10
812.5000000000001
 20
137.5
 30
0.0
 11
812.5000000000001
 21
12.5
 31
0.0
  0
LINE
  5
5C
330
1E
100
AcDbEntity
  8
STEMPEL
100
AcDbLine
 10
940.0000000000002
 20
137.4999999999996
 30
0.0
 11
940.0000000000002
 21
50.0
 31
0.0
  0
LINE
  5
5D
330
1E
100
AcDbEntity
  8
STEMPEL
100
AcDbLine
 10
707.5
 20
37.5
 30
0.0
 11
587.5
 21
37.5
 31
0.0
  0
LINE
  5
5E
330
1E
100
AcDbEntity
  8
STEMPEL
100
AcDbLine
 10
1037.5
 20
50.0
 30
0.0
 11
707.5000000000001
 21
50.0
 31
0.0
  0
LINE
  5
5F
330
1E
100
AcDbEntity
  8
STEMPEL
100
AcDbLine
 10
1037.5
 20
100.0
 30
0.0
 11
707.5000000000002
 21
100.0
 31
0.0
  0
LINE
  5
60
330
1E
100
AcDbEntity
  8
VOLL
100
AcDbLine
 10
605.0000000000002
 20
137.5
 30
0.0
 11
605.0000000000001
 21
12.49999999999998
 31
0.0
  0
LINE
  5
61
330
1E
100
AcDbEntity
  8
VOLL
100
AcDbLine
 10
655.0000000000002
 20
137.4999999999999
 30
0.0
 11
655.0000000000001
 21
12.49999999999993
 31
0.0
  0
LINE
  5
62
330
1E
100
AcDbEntity
  8
VOLL
100
AcDbLine
 10
680.0000000000002
 20
137.4999999999999
 30
0.0
 11
680.0000000000001
 21
12.49999999999989
 31
0.0
  0
LINE
  5
63
330
1E
100
AcDbEntity
  8
VOLL
100
AcDbLine
 10
730.0000000000002
 20
100.0
 30
0.0
 11
730.0000000000002
 21
50.0
 31
0.0
  0
LINE
  5
64
330
1E
100
AcDbEntity
  8
VOLL
100
AcDbLine
 10
762.5000000000002
 20
137.4999999999998
 30
0.0
 11
762.5
 21
50.0
 31
0.0
  0
LINE
  5
65
330
1E
100
AcDbEntity
  8
HILF
100
AcDbLine
 10
587.5000000000002
 20
125.0
 30
0.0
 11
707.5000000000002
 21
125.0
 31
0.0
  0
LINE
  5
66
330
1E
100
AcDbEntity
  8
HILF
100
AcDbLine
 10
587.5000000000002
 20
112.5
 30
0.0
 11
707.5000000000002
 21
112.5
 31
0.0
  0
LINE
  5
67
330
1E
100
AcDbEntity
  8
HILF
100
AcDbLine
 10
587.5000000000002
 20
100.0
 30
0.0
 11
707.5000000000002
 21
100.0
 31
0.0
  0
LINE
  5
68
330
1E
100
AcDbEntity
  8
HILF
100
AcDbLine
 10
587.5000000000002
 20
87.5
 30
0.0
 11
707.5000000000002
 21
87.5
 31
0.0
  0
LINE
  5
69
330
1E
100
AcDbEntity
  8
HILF
100
AcDbLine
 10
587.5000000000002
 20
75.0
 30
0.0
 11
707.5000000000002
 21
75.0
 31
0.0
  0
LINE
  5
6A
330
1E
100
AcDbEntity
  8
HILF
100
AcDbLine
 10
587.5000000000002
 20
62.5
 30
0.0
 11
707.5000000000002
 21
62.5
 31
0.0
  0
LINE
  5
6B
330
1E
100
AcDbEntity
  8
HILF
100
AcDbLine
 10
587.5000000000002
 20
50.0
 30
0.0
 11
707.5000000000002
 21
50.0
 31
0.0
  0
LINE
  5
6C
330
1E
100
AcDbEntity
  8
HILF
100
AcDbLine
 10
707.5000000000002
 20
87.5
 30
0.0
 11
812.5000000000001
 21
87.5
 31
0.0
  0
LINE
  5
6D
330
1E
100
AcDbEntity
  8
HILF
100
AcDbLine
 10
707.5000000000002
 20
75.0
 30
0.0
 11
812.5000000000001
 21
75.0
 31
0.0
  0
LINE
  5
6E
330
1E
100
AcDbEntity
  8
HILF
100
AcDbLine
 10
707.5000000000002
 20
62.5
 30
0.0
 11
812.5000000000001
 21
62.5
 31
0.0
  0
LINE
  5
6F
330
1E
100
AcDbEntity
  8
HILF
100
AcDbLine
 10
818.4671001371185
 20
105.0469780945517
 30
0.0
 11
933.2872303143515
 21
105.0469780945517
 31
0.0
  0
LINE
  5
70
330
1E
100
AcDbEntity
  8
HILF
100
AcDbLine
 10
818.4671001371185
 20
87.5
 30
0.0
 11
933.2872303143515
 21
87.5
 31
0.0
  0
LINE
  5
71
330
1E
100
AcDbEntity
  8
HILF
100
AcDbLine
 10
818.4671001371185
 20
75.0
 30
0.0
 11
933.2872303143515
 21
75.0
 31
0.0
  0
LINE
  5
72
330
1E
100
AcDbEntity
  8
HILF
100
AcDbLine
 10
818.4671001371185
 20
62.5
 30
0.0
 11
933.2872303143515
 21
62.5
 31
0.0
  0
LINE
  5
73
330
1E
100
AcDbEntity
  8
VOLL
100
AcDbLine
 10
940.0000000000002
 20
75.0
 30
0.0
 11
1037.5
 21
75.0
 31
0.0
  0
LINE
  5
74
330
1E
100
AcDbEntity
  8
HILF
100
AcDbLine
 10
945.9048270371244
 20
104.7247954619477
 30
0.0
 11
1031.073604915841
 21
104.7247954619477
 31
0.0
  0
LINE
  5
75
330
1E
100
AcDbEntity
  8
HILF
100
AcDbLine
 10
818.4671001371185
 20
18.61747822535381
 30
0.0
 11
1031.073604915841
 21
18.61747822535381
 31
0.0
  0
TEXT
  5
76
330
1E
100
AcDbEntity
  8
TEXT
100
AcDbText
 10
615.4997799079121
 20
23.34227368730161
 30
0.0
 40
5.0
  1
Änderung
 41
0.8
  7
GREEKS
 72
     1
 11
628.9283513364836
 21
23.34227368730161
 31
0.0
100
AcDbText
  0
TEXT
  5
78
330
1E
100
AcDbEntity
  8
TEXT
100
AcDbText
 10
716.8954465187972
 20
128.077611885886
 30
0.0
 40
6.25
  1
Maßstab
 41
0.8
  7
GREEKS
100
AcDbText
  0
TEXT
  5
79
330
1E
100
AcDbEntity
  8
TEXT
100
AcDbText
 10
818.5974254761264
 20
128.1861660014724
 30
0.0
 40
6.25
  1
Benennung
 41
0.8
  7
GREEKS
100
AcDbText
  0
TEXT
  5
7A
330
1E
100
AcDbEntity
  8
TEXT
100
AcDbText
 10
945.2234436970428
 20
127.891504317142
 30
0.0
 40
6.25
  1
Zeichnungs Nr.
 41
0.8
  7
GREEKS
100
AcDbText
  0
TEXT
  5
7B
330
1E
100
AcDbEntity
  8
TEXT
100
AcDbText
 10
818.42779798892
 20
38.55700712741319
 30
0.0
 40
6.25
  1
Bauvorhaben
 41
0.8
  7
GREEKS
100
AcDbText
  0
TEXT
  5
7C
330
1E
100
AcDbEntity
  8
TEXT
100
AcDbText
 10
945.9048270371244
 20
91.47647796374956
 30
0.0
 40
6.25
  1
Ersatz für:
 41
0.8
  7
GREEKS
100
AcDbText
  0
TEXT
  5
7D
330
1E
100
AcDbEntity
  8
TEXT
100
AcDbText
 10
597.8330138380721
 20
17.06832307533984
 30
0.0
 40
5.0
  1
Index
 50
90.0
 41
0.8
  7
GREEKS
100
AcDbText
  0
TEXT
  5
7E
330
1E
100
AcDbEntity
  8
TEXT
100
AcDbText
 10
662.3737641483725
 20
23.3394533667476
 30
0.0
 40
5.0
  1
Tag
 41
0.8
  7
GREEKS
 72
     1
 11
667.0404308150391
 21
23.3394533667476
 31
0.0
100
AcDbText
  0
TEXT
  5
7F
330
1E
100
AcDbEntity
  8
TEXT
100
AcDbText
 10
686.2244597672866
 20
23.24155271208006
 30
0.0
 40
5.0
  1
Name
 41
0.8
  7
GREEKS
 72
     1
 11
694.1292216720484
 21
23.24155271208006
 31
0.0
100
AcDbText
  0
TEXT
  5
80
330
1E
100
AcDbEntity
  8
TEXT
100
AcDbText
 10
740.4139591442064
 20
91.64850626537399
 30
0.0
 40
5.0
  1
Tag
 41
0.8
  7
GREEKS
100
AcDbText
  0
TEXT
  5
81
330
1E
100
AcDbEntity
  8
TEXT
100
AcDbText
 10
778.078323028287
 20
91.63701364894025
 30
0.0
 40
5.0
  1
Name
 41
0.8
  7
GREEKS
100
AcDbText
  0
TEXT
  5
82
330
1E
100
AcDbEntity
  8
TEXT
100
AcDbText
 10
709.479515895952
 20
79.53737962022451
 30
0.0
 40
5.0
  1
Gez.
 41
0.8
  7
GREEKS
100
AcDbText
  0
TEXT
  5
83
330
1E
100
AcDbEntity
  8
TEXT
100
AcDbText
 10
709.4393858214592
 20
67.11157864285467
 30
0.0
 40
5.0
  1
Gepr.
 41
0.8
  7
GREEKS
100
AcDbText
  0
TEXT
  5
84
330
1E
100
AcDbEntity
  8
TEXT
100
AcDbText
 10
709.5008471734131
 20
54.41182987062255
 30
0.0
 40
5.0
  1
Norm.
 41
0.8
  7
GREEKS
100
AcDbText
  0
TEXT
  5
85
330
1E
100
AcDbEntity
  8
TEXT
100
AcDbText
 10
946.5501076871261
 20
65.09270222348246
 30
0.0
 40
6.25
  1
ersetzt durch:
 41
0.8
  7
GREEKS
100
AcDbText
  0
TEXT
  5
86
330
1E
100
AcDbEntity
  8
TEXT
100
AcDbText
 10
711.0866284759154
 20
91.20853245654656
 30
0.0
 40
5.0
  1
2012
 41
0.8
  7
GREEKS
100
AcDbText
  0
LINE
  5
87
330
1E
100
AcDbEntity
  8
HILF
100
AcDbLine
 10
0.0
 20
0.0
 30
0.0
 11
1050.0
 21
0.0
 31
0.0
  0
LINE
  5
88
330
1E
100
AcDbEntity
  8
HILF
100
AcDbLine
 10
1050.0
 20
0.0
 30
0.0
 11
1050.0
 21
742.4999999999999
 31
0.0
  0
LINE
  5
89
330
1E
100
AcDbEntity
  8
HILF
100
AcDbLine
 10
1050.0
 20
742.4999999999999
 30
0.0
 11
0.0
 21
742.4999999999999
 31
0.0
  0
LINE
  5
8B
330
1E
100
AcDbEntity
  8
STEMPEL
100
AcDbLine
 10
1037.5
 20
730.0
 30
0.0
 11
50.0
 21
730.0
 31
0.0
  0
LINE
  5
8D
330
1E
100
AcDbEntity
  8
STEMPEL
100
AcDbLine
 10
50.0
 20
12.5
 30
0.0
 11
1037.5
 21
12.5
 31
0.0
  0
LINE
  5
8E
330
1E
100
AcDbEntity
  8
STEMPEL
100
AcDbLine
 10
1037.5
 20
12.5
 30
0.0
 11
1037.5
 21
730.0
 31
0.0
  0
TEXT
  5
8F
330
1E
100
AcDbEntity
  8
TEXT
 62
     1
100
AcDbText
 10
818.7988215591486
 20
109.2167884456568
 30
0.0
 40
8.75
  1
Drainjet-Kompletteinheit
 41
0.7
  7
GREEKS
100
AcDbText
  0
TEXT
  5
90
330
1E
100
AcDbEntity
  8
TEXT
 62
     1
100
AcDbText
 10
960.3285111063502
 20
109.2167884456568
 30
0.0
 40
8.75
  1
21311125W
 41
0.8
  7
GREEKS
 72
     1
 11
987.6618444396838
 21
109.2167884456568
 31
0.0
100
AcDbText
  0
TEXT
  5
91
330
1E
100
AcDbEntity
  8
TEXT
100
AcDbText
 10
773.1362783019789
 20
128.5498701422375
 30
0.0
 40
6.25
  1
Zul.Abw.
 41
0.8
  7
GREEKS
100
AcDbText
  0
TEXT
  5
93
330
1E
100
AcDbEntity
  8
TEXT
100
AcDbText
 10
737.6956546889835
 20
78.93857345150275
 30
0.0
 40
5.0
  1
07.05.
 41
0.8
  7
GREEKS
 72
     1
 11
746.4575594508882
 21
78.93857345150275
 31
0.0
100
AcDbText
  0
TEXT
  5
94
330
1E
100
AcDbEntity
  8
TEXT
100
AcDbText
 10
780.0289691533263
 20
78.67872068956835
 30
0.0
 40
5.0
  1
Koeh
 41
0.8
  7
GREEKS
 72
     1
 11
786.6003977247548
 21
78.67872068956835
 31
0.0
100
AcDbText
  0
TEXT
  5
95
330
1E
100
AcDbEntity
  8
TEXT
100
AcDbText
 10
817.9263676106241
 20
90.12526728884408
 30
0.0
 40
6.25
  1
Notablauf DN125, einteilig
 41
0.8
  7
GREEKS
100
AcDbText
  0
TEXT
  5
96
330
1E
100
AcDbEntity
  8
TEXT
100
AcDbText
 10
817.9263676106241
 20
77.93198856511295
 30
0.0
 40
6.25
  1

 41
0.8
  7
GREEKS
100
AcDbText
  0
TEXT
  5
97
330
1E
100
AcDbEntity
  8
TEXT
100
AcDbText
 10
817.9263676106241
 20
65.73871672307572
 30
0.0
 40
6.25
  1
EDV-Art.Nr. 21311.125X
 41
0.8
  7
GREEKS
100
AcDbText
  0
TEXT
  5
98
330
1E
100
AcDbEntity
  8
TEXT
100
AcDbText
 10
817.7095062636686
 20
54.13909530989386
 30
0.0
 40
5.0
  1
21311125W.DWG
 41
0.8
  7
GREEKS
100
AcDbText
  0
TEXT
  5
99
330
1E
100
AcDbEntity
  8
TEXT
 62
     1
100
AcDbText
 10
728.3793640042778
 20
109.3384636051872
 30
0.0
 40
8.75
  1
1:1
 41
0.8
  7
GREEKS
100
AcDbText
  0
TEXT
  5
9A
330
1E
100
AcDbEntity
  8
TEXT
100
AcDbText
 10
587.5551424187659
 20
142.6429481313803
 30
0.0
 40
6.25
  1
Erstellt mit AUTOCAD 2004
 41
0.8
  7
GREEKS
100
AcDbText
  0
INSERT
  5
9B
330
1E
100
AcDbEntity
  8
HILF
100
AcDbBlockReference
  2
LORO
 10
716.3281232452942
 20
46.22574125373699
 30
0.0
 41
2.5
 42
2.5
 43
2.5
  0
LINE
  5
9C
330
1E
100
AcDbEntity
  8
BEM
100
AcDbLine
 10
570.0
 20
0.0
 30
0.0
 11
570.0
 21
12.5
 31
0.0
  0
LINE
  5
13E
330
1E
100
AcDbEntity
  8
HILF
100
AcDbLine
 10
0.0
 20
0.0
 30
0.0
 11
0.0
 21
742.4999999999999
 31
0.0
  0
LINE
  5
13F
330
1E
100
AcDbEntity
  8
STEMPEL
100
AcDbLine
 10
50.0
 20
12.5
 30
0.0
 11
50.0
 21
730.0
 31
0.0
  0
LINE
  5
14A
330
1E
100
AcDbEntity
  8
HILF
100
AcDbLine
 10
0.0
 20
371.25
 30
0.0
 11
50.0
 21
371.25
 31
0.0
  0
TEXT
  5
15B
330
1E
100
AcDbEntity
  8
BEM
100
AcDbText
 10
1046.627865482146
 20
12.70987634998576
 30
0.0
 40
5.0
  1
Diese Zeichnung ist urheberrechtlich geschützt und bleibt unser Eigentum. Sie darf weder ganz noch teilweise verfielfältigt und nicht an Dritte weitergegeben werden.
 50
90.0
 41
0.8
  7
GREEKS
100
AcDbText
  0
LINE
  5
188
330
1E
100
AcDbEntity
  8
BEM
100
AcDbLine
 10
570.0
 20
742.4999999999999
 30
0.0
 11
570.0
 21
730.0
 31
0.0
  0
HATCH
  5
1ED
330
1E
100
AcDbEntity
  8
SCHRAFF
100
AcDbHatch
 10
0.0
 20
0.0
 30
0.0
210
0.0
220
0.0
230
1.0
  2
_USER
 70
     0
 71
     1
 91
        2
 92
        7
 72
     1
 73
     1
 93
        4
 10
614.0178402568176
 20
469.6214908123032
 42
0.0
 10
613.0821165734531
 20
468.1639513828568
 42
0.0
 10
611.8198504005351
 20
468.9743118635733
 42
0.0
 10
610.7736795184552
 20
467.3447332415092
 42
0.8729513670662212
 97
        4
330
214
330
212
330
1F3
330
213
 92
        7
 72
     1
 73
     1
 93
        4
 10
458.8414889367792
 20
467.3447332415092
 42
0.0
 10
457.7953180546994
 20
468.9743118635733
 42
0.0
 10
456.5330518817813
 20
468.1639513828569
 42
0.0
 10
455.5973281984168
 20
469.6214908123031
 42
0.8729513670663081
 97
        4
330
22A
330
22C
330
22B
330
1F0
 75
     0
 76
     0
 52
0.0
 41
0.1
 77
     0
 78
     1
 53
0.0
 43
301.1581171154996
 44
26.50867619239079
 45
0.0
 46
0.1
 79
     0
 47
0.2742157745736938
 98
        2
 10
612.1568001577473
 20
467.422248584855
 10
456.5921221403307
 20
467.422248584855
  0
HATCH
  5
1EE
330
1E
100
AcDbEntity
  8
SCHRAFF
100
AcDbHatch
 10
0.0
 20
0.0
 30
0.0
210
0.0
220
0.0
230
1.0
  2
_USER
 70
     0
 71
     1
 91
        2
 92
        7
 72
     1
 73
     1
 93
       10
 10
599.8075842276176
 20
218.6962126196225
 42
0.0
 10
598.7519905089905
 20
206.6307212052474
 42
0.0
 10
600.2577202653054
 20
206.6307212052474
 42
0.0
 10
601.3075842276175
 20
218.6307212052596
 42
0.0
 10
601.3075842276176
 20
451.5729865014296
 42
-0.1436568363649714
 10
601.862296490809
 20
453.4638276231014
 42
0.0
 10
611.819850400535
 20
468.9743118635731
 42
0.0
 10
610.5575842276172
 20
469.7846723442897
 42
0.0
 10
600.6000303178909
 20
454.2741881038178
 42
0.1436568363649692
 10
599.8075842276175
 20
451.5729865014296
 42
0.0
 97
       10
330
1F2
330
1F3
330
212
330
217
330
1F4
330
1F8
330
1FD
330
1F9
330
1FE
330
1F7
 92
        7
 72
     1
 73
     1
 93
       10
 10
469.8075842276174
 20
451.5729865014289
 42
0.1436568363649767
 10
469.0151381373438
 20
454.2741881038172
 42
0.0
 10
459.0575842276172
 20
469.7846723442896
 42
0.0
 10
457.7953180546993
 20
468.9743118635733
 42
0.0
 10
467.7528719644259
 20
453.4638276231008
 42
-0.1436568363649751
 10
468.3075842276174
 20
451.5729865014289
 42
0.0
 10
468.3075842276176
 20
218.6307212052475
 42
0.0
 10
469.3574481899288
 20
206.6307212052474
 42
0.0
 10
470.8631779462438
 20
206.6307212052474
 42
0.0
 10
469.8075842276177
 20
218.6962126196108
 42
0.0
 97
       10
330
1F1
330
22D
330
22A
330
1F0
330
1EF
330
1F5
330
1FB
330
1F9
330
1FC
330
1F6
 75
     0
 76
     0
 52
135.0
 41
2.0
 77
     0
 78
     1
 53
135.0
 43
301.1581171154996
 44
26.50867619239079
 45
-1.414213562373095
 46
-1.414213562373094
 79
     0
 47
0.4493232848184605
 98
        2
 10
600.3507276826073
 20
373.6970542684076
 10
469.0771640278788
 20
363.3626195243191
  0
ARC
  5
1EF
102
{ACAD_REACTORS
330
1EE
102
}
330
1E
100
AcDbEntity
  8
STEMPEL
100
AcDbCircle
 10
464.8075842276173
 20
451.5729865014289
 30
0.0
 40
3.5
100
AcDbArc
 50
0.0
 51
32.70000000000014
  0
LINE
  5
1F0
102
{ACAD_REACTORS
330
1EE
330
1ED
102
}
330
1E
100
AcDbEntity
  8
STEMPEL
100
AcDbLine
 10
457.7953180546993
 20
468.9743118635733
 30
0.0
 11
467.7528719644259
 21
453.4638276231008
 31
0.0
  0
ARC
  5
1F1
102
{ACAD_REACTORS
330
1EE
102
}
330
1E
100
AcDbEntity
  8
STEMPEL
100
AcDbCircle
 10
464.8075842276173
 20
451.5729865014289
 30
0.0
 40
5.0
100
AcDbArc
 50
0.0
 51
32.70000000000014
  0
ARC
  5
1F2
102
{ACAD_REACTORS
330
1EE
102
}
330
1E
100
AcDbEntity
  8
STEMPEL
100
AcDbCircle
 10
604.8075842276175
 20
451.5729865014296
 30
0.0
 40
3.5
100
AcDbArc
 50
147.2999999999998
 51
180.0
  0
LINE
  5
1F3
102
{ACAD_REACTORS
330
1EE
330
1ED
102
}
330
1E
100
AcDbEntity
  8
STEMPEL
100
AcDbLine
 10
611.8198504005351
 20
468.9743118635732
 30
0.0
 11
601.862296490809
 21
453.4638276231014
 31
0.0
  0
ARC
  5
1F4
102
{ACAD_REACTORS
330
1EE
102
}
330
1E
100
AcDbEntity
  8
STEMPEL
100
AcDbCircle
 10
604.8075842276175
 20
451.5729865014296
 30
0.0
 40
5.0
100
AcDbArc
 50
147.2999999999998
 51
180.0
  0
LINE
  5
1F5
102
{ACAD_REACTORS
330
1EE
102
}
330
1E
100
AcDbEntity
  8
STEMPEL
  6
Continuous
100
AcDbLine
 10
468.3075842276174
 20
451.5729865014289
 30
0.0
 11
468.3075842276176
 21
218.6307212052474
 31
0.0
  0
LINE
  5
1F6
102
{ACAD_REACTORS
330
1EE
102
}
330
1E
100
AcDbEntity
  8
STEMPEL
  6
Continuous
100
AcDbLine
 10
469.8075842276174
 20
451.5729865014289
 30
0.0
 11
469.8075842276177
 21
218.69621261961
 31
0.0
  0
LINE
  5
1F7
102
{ACAD_REACTORS
330
1EE
102
}
330
1E
100
AcDbEntity
  8
STEMPEL
  6
Continuous
100
AcDbLine
 10
601.3075842276176
 20
451.5729865014296
 30
0.0
 11
601.3075842276175
 21
218.6307212052596
 31
0.0
  0
LINE
  5
1F8
102
{ACAD_REACTORS
330
1EE
102
}
330
1E
100
AcDbEntity
  8
STEMPEL
  6
Continuous
100
AcDbLine
 10
599.8075842276175
 20
451.5729865014296
 30
0.0
 11
599.8075842276176
 21
218.6962126196221
 31
0.0
  0
LINE
  5
1F9
102
{ACAD_REACTORS
330
1EE
102
}
330
1E
100
AcDbEntity
  8
STEMPEL
100
AcDbLine
 10
469.3574481899288
 20
206.6307212052474
 30
0.0
 11
600.2577202653054
 21
206.6307212052474
 31
0.0
  0
LINE
  5
1FA
330
1E
100
AcDbEntity
  8
HILF
100
AcDbLine
 10
471.3190437402476
 20
218.6307212052474
 30
0.0
 11
598.2961247149865
 21
218.6307212052475
 31
0.0
  0
LINE
  5
1FB
102
{ACAD_REACTORS
330
1EE
102
}
330
1E
100
AcDbEntity
  8
STEMPEL
100
AcDbLine
 10
468.3075842276176
 20
218.6307212052474
 30
0.0
 11
469.3574481899288
 21
206.6307212052474
 31
0.0
  0
LINE
  5
1FC
102
{ACAD_REACTORS
330
1EE
102
}
330
1E
100
AcDbEntity
  8
STEMPEL
100
AcDbLine
 10
469.8075842276177
 20
218.69621261961
 30
0.0
 11
470.8631779462438
 21
206.6307212052474
 31
0.0
  0
LINE
  5
1FD
102
{ACAD_REACTORS
330
1EE
102
}
330
1E
100
AcDbEntity
  8
STEMPEL
100
AcDbLine
 10
599.8075842276176
 20
218.6962126196221
 30
0.0
 11
598.7519905089905
 21
206.6307212052474
 31
0.0
  0
LINE
  5
1FE
102
{ACAD_REACTORS
330
1EE
102
}
330
1E
100
AcDbEntity
  8
STEMPEL
100
AcDbLine
 10
601.3075842276175
 20
218.6307212052596
 30
0.0
 11
600.2577202653054
 21
206.6307212052474
 31
0.0
  0
LINE
  5
203
330
1E
100
AcDbEntity
  8
STEMPEL
100
AcDbLine
 10
699.8075842276171
 20
482.752041548807
 30
0.0
 11
697.6862638840575
 21
480.6307212052472
 31
0.0
  0
LINE
  5
204
330
1E
100
AcDbEntity
  8
STEMPEL
100
AcDbLine
 10
699.8075842276171
 20
482.752041548807
 30
0.0
 11
697.6862638840575
 21
484.8733618923668
 31
0.0
  0
ARC
  5
205
330
1E
100
AcDbEntity
  8
STEMPEL
100
AcDbCircle
 10
693.443623196938
 20
480.6307212052473
 30
0.0
 40
3.0
100
AcDbArc
 50
45.0
 51
90.0
  0
LINE
  5
206
330
1E
100
AcDbEntity
  8
STEMPEL
100
AcDbLine
 10
697.6862638840575
 20
480.6307212052473
 30
0.0
 11
695.5649435404975
 21
482.752041548807
 31
0.0
  0
ARC
  5
207
330
1E
100
AcDbEntity
  8
STEMPEL
100
AcDbCircle
 10
693.443623196938
 20
480.6307212052473
 30
0.0
 40
6.0
100
AcDbArc
 50
45.0
 51
90.0
  0
ARC
  5
211
330
1E
100
AcDbEntity
  8
STEMPEL
100
AcDbCircle
 10
624.6506572660216
 20
480.6307212052473
 30
0.0
 40
3.0
100
AcDbArc
 50
90.0
 51
147.2999999999998
  0
LINE
  5
212
102
{ACAD_REACTORS
330
1EE
330
1ED
102
}
330
1E
100
AcDbEntity
  8
STEMPEL
100
AcDbLine
 10
610.5575842276172
 20
469.7846723442897
 30
0.0
 11
613.0821165734531
 21
468.1639513828569
 31
0.0
  0
ARC
  5
213
102
{ACAD_REACTORS
330
1ED
102
}
330
1E
100
AcDbEntity
  8
SCHRAFF
100
AcDbCircle
 10
612.2406057915077
 20
468.7041917033345
 30
0.0
 40
2.0
100
AcDbArc
 50
222.8224878140749
 51
27.29999999999825
  0
LINE
  5
214
102
{ACAD_REACTORS
330
1ED
102
}
330
1E
100
AcDbEntity
  8
STEMPEL
100
AcDbLine
 10
622.1261249201858
 20
482.2514421666803
 30
0.0
 11
613.0821165734531
 21
468.1639513828569
 31
0.0
  0
LINE
  5
215
330
1E
100
AcDbEntity
  8
STEMPEL
100
AcDbLine
 10
619.6015925743499
 20
483.8721631281132
 30
0.0
 11
610.5575842276173
 21
469.7846723442897
 31
0.0
  0
ARC
  5
216
330
1E
100
AcDbEntity
  8
STEMPEL
100
AcDbCircle
 10
624.6506572660216
 20
480.6307212052473
 30
0.0
 40
6.0
100
AcDbArc
 50
90.0
 51
147.2999999999998
  0
LINE
  5
217
102
{ACAD_REACTORS
330
1EE
102
}
330
1E
100
AcDbEntity
  8
STEMPEL
100
AcDbLine
 10
619.6015925743498
 20
483.8721631281132
 30
0.0
 11
600.6000303178909
 21
454.2741881038178
 31
0.0
  0
LINE
  5
218
330
1E
100
AcDbEntity
  8
MITTEL
100
AcDbLine
 10
534.8075842276175
 20
619.6307212052467
 30
0.0
 11
534.8075842276175
 21
583.0826596314002
 31
0.0
  0
LINE
  5
21E
330
1E
100
AcDbEntity
  8
STEMPEL
100
AcDbLine
 10
693.443623196938
 20
483.6307212052473
 30
0.0
 11
624.6506572660216
 21
483.6307212052473
 31
0.0
  0
LINE
  5
21F
330
1E
100
AcDbEntity
  8
STEMPEL
100
AcDbLine
 10
697.6862638840578
 20
480.630721205247
 30
0.0
 11
621.2908091131493
 21
480.630721205247
 31
0.0
  0
LINE
  5
220
330
1E
100
AcDbEntity
  8
STEMPEL
100
AcDbLine
 10
621.085640555166
 20
480.6307212052468
 30
0.0
 11
697.6862638840572
 21
480.6307212052465
 31
0.0
  0
LINE
  5
221
330
1E
100
AcDbEntity
  8
MITTEL
100
AcDbLine
 10
534.8075842276172
 20
430.2586996636138
 30
0.0
 11
534.8075842276171
 21
201.6307212052474
 31
0.0
  0
LINE
  5
22A
102
{ACAD_REACTORS
330
1EE
330
1ED
102
}
330
1E
100
AcDbEntity
  8
STEMPEL
100
AcDbLine
 10
459.0575842276173
 20
469.7846723442897
 30
0.0
 11
456.5330518817813
 21
468.1639513828569
 31
0.0
  0
ARC
  5
22B
102
{ACAD_REACTORS
330
1ED
102
}
330
1E
100
AcDbEntity
  8
SCHRAFF
100
AcDbCircle
 10
457.3745626637268
 20
468.7041917033345
 30
0.0
 40
2.0
100
AcDbArc
 50
152.7000000000017
 51
317.1775121859263
  0
LINE
  5
22C
102
{ACAD_REACTORS
330
1ED
102
}
330
1E
100
AcDbEntity
  8
STEMPEL
100
AcDbLine
 10
447.4890435350487
 20
482.2514421666803
 30
0.0
 11
456.5330518817813
 21
468.1639513828569
 31
0.0
  0
LINE
  5
22D
102
{ACAD_REACTORS
330
1EE
102
}
330
1E
100
AcDbEntity
  8
STEMPEL
100
AcDbLine
 10
450.0135758808847
 20
483.8721631281132
 30
0.0
 11
469.0151381373438
 21
454.2741881038172
 31
0.0
  0
ARC
  5
22E
330
1E
100
AcDbEntity
  8
STEMPEL
100
AcDbCircle
 10
444.9645111892127
 20
480.6307212052473
 30
0.0
 40
6.0
100
AcDbArc
 50
32.70000000000014
 51
90.0
  0
ARC
  5
22F
330
1E
100
AcDbEntity
  8
STEMPEL
100
AcDbCircle
 10
444.9645111892127
 20
480.6307212052473
 30
0.0
 40
3.0
100
AcDbArc
 50
32.70000000000014
 51
90.0
  0
LINE
  5
230
330
1E
100
AcDbEntity
  8
MITTEL
100
AcDbLine
 10
407.8075842276172
 20
517.6307212052472
 30
0.0
 11
407.8075842276172
 21
486.630721205247
 31
0.0
  0
LINE
  5
23A
330
1E
100
AcDbEntity
  8
STEMPEL
100
AcDbLine
 10
371.9289045711769
 20
480.6307212052473
 30
0.0
 11
374.0502249147369
 21
482.752041548807
 31
0.0
  0
ARC
  5
23B
330
1E
100
AcDbEntity
  8
STEMPEL
100
AcDbCircle
 10
376.1715452582964
 20
480.6307212052473
 30
0.0
 40
3.0
100
AcDbArc
 50
90.0
 51
135.0
  0
LINE
  5
23C
330
1E
100
AcDbEntity
  8
STEMPEL
100
AcDbLine
 10
369.8075842276173
 20
482.752041548807
 30
0.0
 11
371.9289045711769
 21
480.6307212052472
 31
0.0
  0
LINE
  5
23D
330
1E
100
AcDbEntity
  8
STEMPEL
100
AcDbLine
 10
369.8075842276173
 20
482.752041548807
 30
0.0
 11
371.9289045711769
 21
484.8733618923668
 31
0.0
  0
ARC
  5
23E
330
1E
100
AcDbEntity
  8
STEMPEL
100
AcDbCircle
 10
376.1715452582964
 20
480.6307212052473
 30
0.0
 40
6.0
100
AcDbArc
 50
90.0
 51
135.0
  0
LINE
  5
23F
330
1E
100
AcDbEntity
  8
STEMPEL
100
AcDbLine
 10
371.9289045711767
 20
480.630721205247
 30
0.0
 11
448.5295279000685
 21
480.630721205247
 31
0.0
  0
LINE
  5
240
330
1E
100
AcDbEntity
  8
STEMPEL
100
AcDbLine
 10
371.9289045711767
 20
480.6307212052473
 30
0.0
 11
448.5295279000683
 21
480.6307212052471
 31
0.0
  0
LINE
  5
241
330
1E
100
AcDbEntity
  8
STEMPEL
100
AcDbLine
 10
376.1715452582964
 20
483.6307212052473
 30
0.0
 11
444.9645111892127
 21
483.6307212052473
 31
0.0
  0
LINE
  5
243
330
1E
100
AcDbEntity
  8
STEMPEL
100
AcDbLine
 10
469.794891507558
 20
206.6307212052474
 30
0.0
 11
599.8202769476758
 21
206.6307212052475
 31
0.0
  0
LINE
  5
244
330
1E
100
AcDbEntity
  8
STEMPEL
100
AcDbLine
 10
459.0575842276173
 20
469.7846723442897
 30
0.0
 11
610.5575842276173
 21
469.7846723442897
 31
0.0
  0
LINE
  5
245
330
1E
100
AcDbEntity
  8
HILF
100
AcDbLine
 10
472.1646160034161
 20
452.2016774107359
 30
0.0
 11
597.4505524518183
 21
452.2016774107358
 31
0.0
  0
HATCH
  5
246
330
1E
100
AcDbEntity
  8
SCHRAFF
100
AcDbHatch
 10
0.0
 20
0.0
 30
0.0
210
0.0
220
0.0
230
1.0
  2
_USER
 70
     0
 71
     0
 91
        2
 92
        7
 72
     1
 73
     1
 93
       12
 10
444.9645111892127
 20
483.6307212052473
 42
-0.2553615373329011
 10
447.4890435350487
 20
482.2514421666803
 42
0.0
 10
456.5330518817813
 20
468.1639513828569
 42
0.0
 10
459.0575842276173
 20
469.7846723442897
 42
0.0
 10
450.0135758808847
 20
483.8721631281132
 42
0.2553615373328971
 10
444.9645111892128
 20
486.6307212052472
 42
0.0
 10
376.1715452582964
 20
486.6307212052474
 42
0.198912367379666
 10
371.9289045711769
 20
484.8733618923668
 42
0.0
 10
369.8075842276174
 20
482.7520415488069
 42
0.0
 10
371.9289045711768
 20
480.6307212052473
 42
0.0
 10
374.0502249147369
 20
482.752041548807
 42
-0.1989123673796555
 10
376.1715452582965
 20
483.6307212052473
 42
0.0
 97
        0
 92
        7
 72
     1
 73
     1
 93
       12
 10
693.443623196938
 20
483.6307212052473
 42
-0.1989123673796481
 10
695.5649435404975
 20
482.752041548807
 42
0.0
 10
697.6862638840575
 20
480.6307212052473
 42
0.0
 10
699.8075842276171
 20
482.752041548807
 42
0.0
 10
697.6862638840575
 20
484.8733618923668
 42
0.1989123673796531
 10
693.443623196938
 20
486.6307212052466
 42
0.0
 10
624.6506572660216
 20
486.6307212052467
 42
0.2553615373329152
 10
619.6015925743495
 20
483.8721631281126
 42
0.0
 10
610.5575842276171
 20
469.7846723442897
 42
0.0
 10
613.0821165734531
 20
468.1639513828569
 42
0.0
 10
622.1261249201858
 20
482.2514421666803
 42
-0.2553615373328881
 10
624.6506572660216
 20
483.6307212052473
 42
0.0
 97
        0
 75
     0
 76
     0
 52
45.0
 41
2.0
 77
     0
 78
     1
 53
45.0
 43
301.1581171154996
 44
26.50867619239079
 45
-1.414213562373094
 46
1.414213562373095
 79
     0
 47
0.3980341147123784
 98
        2
 10
413.2367410908994
 20
485.1021904566023
 10
654.2282918140856
 20
485.1021904566023
  0
TEXT
  5
247
330
1E
100
AcDbEntity
  8
TEXT
 62
     1
100
AcDbText
 10
525.0949380911398
 20
313.1120936632768
 30
0.0
 40
8.75
  1
DN125
 50
90.0
 41
0.8
  7
GREEKS
100
AcDbText
  0
LINE
  5
2FA
330
1E
100
AcDbEntity
  8
MITTEL
100
AcDbLine
 10
407.8075842276172
 20
486.6307212052469
 30
0.0
 11
407.8075842276173
 21
500.1307212052468
 31
0.0
  0
LINE
  5
311
102
{ACAD_REACTORS
330
9C9
102
}
330
1E
100
AcDbEntity
  8
STEMPEL
100
AcDbLine
 10
369.8075842276173
 20
486.6307212052469
 30
0.0
 11
369.8075842276173
 21
489.6307212052469
 31
0.0
  0
LINE
  5
312
102
{ACAD_REACTORS
330
9C9
102
}
330
1E
100
AcDbEntity
  8
STEMPEL
100
AcDbLine
 10
439.8075842276173
 20
486.6307212052469
 30
0.0
 11
439.8075842276173
 21
489.6307212052469
 31
0.0
  0
LINE
  5
313
102
{ACAD_REACTORS
330
9C9
102
}
330
1E
100
AcDbEntity
  8
STEMPEL
100
AcDbLine
 10
629.8075842276173
 20
486.6307212052469
 30
0.0
 11
629.8075842276173
 21
489.6307212052469
 31
0.0
  0
LINE
  5
314
102
{ACAD_REACTORS
330
9C9
102
}
330
1E
100
AcDbEntity
  8
STEMPEL
100
AcDbLine
 10
699.8075842276173
 20
486.6307212052469
 30
0.0
 11
699.8075842276173
 21
489.6307212052469
 31
0.0
  0
LINE
  5
315
102
{ACAD_REACTORS
330
9C9
102
}
330
1E
100
AcDbEntity
  8
STEMPEL
100
AcDbLine
 10
369.8075842276173
 20
486.6307212052469
 30
0.0
 11
699.8075842276173
 21
486.6307212052469
 31
0.0
  0
LINE
  5
316
102
{ACAD_REACTORS
330
9C9
102
}
330
1E
100
AcDbEntity
  8
STEMPEL
100
AcDbLine
 10
669.8075842276173
 20
486.6307212052468
 30
0.0
 11
669.8075842276173
 21
489.6307212052469
 31
0.0
  0
LINE
  5
317
102
{ACAD_REACTORS
330
9C9
102
}
330
1E
100
AcDbEntity
  8
STEMPEL
100
AcDbLine
 10
653.8075842276173
 20
486.6307212052468
 30
0.0
 11
653.8075842276173
 21
489.6307212052469
 31
0.0
  0
LINE
  5
318
102
{ACAD_REACTORS
330
9C9
102
}
330
1E
100
AcDbEntity
  8
STEMPEL
100
AcDbLine
 10
415.8075842276173
 20
486.6307212052468
 30
0.0
 11
415.8075842276173
 21
489.6307212052469
 31
0.0
  0
LINE
  5
319
102
{ACAD_REACTORS
330
9C9
102
}
330
1E
100
AcDbEntity
  8
STEMPEL
100
AcDbLine
 10
399.8075842276173
 20
486.6307212052468
 30
0.0
 11
399.8075842276173
 21
489.6307212052469
 31
0.0
  0
LINE
  5
34E
330
1E
100
AcDbEntity
  8
STEMPEL
100
AcDbLine
 10
283.3075842276172
 20
506.6307212052467
 30
0.0
 11
281.3075842276168
 21
506.6307212052467
 31
0.0
  0
LINE
  5
34F
330
1E
100
AcDbEntity
  8
STEMPEL
100
AcDbLine
 10
273.3075842276172
 20
491.6307212052467
 30
0.0
 11
273.3075842276172
 21
506.6307212052467
 31
0.0
  0
LINE
  5
350
330
1E
100
AcDbEntity
  8
STEMPEL
100
AcDbLine
 10
283.3075842276172
 20
491.6307212052467
 30
0.0
 11
283.3075842276172
 21
506.6307212052467
 31
0.0
  0
LINE
  5
35B
102
{ACAD_REACTORS
330
383
102
}
330
1E
100
AcDbEntity
  8
STEMPEL
100
AcDbLine
 10
669.8075842276174
 20
489.6307212052471
 30
0.0
 11
669.8075842276173
 21
493.130721205247
 31
0.0
  0
LINE
  5
35C
102
{ACAD_REACTORS
330
383
102
}
330
1E
100
AcDbEntity
  8
STEMPEL
100
AcDbLine
 10
653.8075842276174
 20
489.6307212052472
 30
0.0
 11
653.8075842276173
 21
493.130721205247
 31
0.0
  0
LINE
  5
35D
102
{ACAD_REACTORS
330
383
102
}
330
1E
100
AcDbEntity
  8
STEMPEL
100
AcDbLine
 10
415.8075842276172
 20
489.6307212052469
 30
0.0
 11
415.8075842276173
 21
493.1307212052467
 31
0.0
  0
LINE
  5
35E
102
{ACAD_REACTORS
330
383
102
}
330
1E
100
AcDbEntity
  8
STEMPEL
100
AcDbLine
 10
399.8075842276173
 20
489.6307212052469
 30
0.0
 11
399.8075842276173
 21
493.1307212052467
 31
0.0
  0
LINE
  5
360
102
{ACAD_REACTORS
330
383
102
}
330
1E
100
AcDbEntity
  8
STEMPEL
100
AcDbLine
 10
629.8075842276173
 20
493.130721205247
 30
0.0
 11
629.8075842276172
 21
489.6307212052469
 31
0.0
  0
LINE
  5
361
102
{ACAD_REACTORS
330
383
102
}
330
1E
100
AcDbEntity
  8
STEMPEL
100
AcDbLine
 10
439.8075842276173
 20
493.1307212052467
 30
0.0
 11
439.8075842276173
 21
489.6307212052469
 31
0.0
  0
LINE
  5
363
102
{ACAD_REACTORS
330
383
102
}
330
1E
100
AcDbEntity
  8
MITTEL
100
AcDbLine
 10
278.3075842276172
 20
484.630721205247
 30
0.0
 11
278.3075842276172
 21
511.6307212052467
 31
0.0
  0
LINE
  5
364
102
{ACAD_REACTORS
330
383
102
}
330
1E
100
AcDbEntity
  8
STEMPEL
100
AcDbLine
 10
801.3075842276174
 20
489.6307212052469
 30
0.0
 11
801.3075842276172
 21
491.6307212052467
 31
0.0
  0
LINE
  5
365
102
{ACAD_REACTORS
330
383
102
}
330
1E
100
AcDbEntity
  8
STEMPEL
100
AcDbLine
 10
268.3075842276173
 20
489.6307212052469
 30
0.0
 11
268.3075842276173
 21
491.6307212052465
 31
0.0
  0
LINE
  5
366
102
{ACAD_REACTORS
330
383
102
}
330
1E
100
AcDbEntity
  8
STEMPEL
100
AcDbLine
 10
801.3075842276172
 20
491.6307212052469
 30
0.0
 11
666.8075842276173
 21
491.6307212052469
 31
0.0
  0
LINE
  5
367
102
{ACAD_REACTORS
330
383
330
9C9
102
}
330
1E
100
AcDbEntity
  8
STEMPEL
100
AcDbLine
 10
801.3075842276172
 20
489.6307212052469
 30
0.0
 11
666.8075842276173
 21
489.6307212052469
 31
0.0
  0
LINE
  5
36B
102
{ACAD_REACTORS
330
383
330
9C9
102
}
330
1E
100
AcDbEntity
  8
STEMPEL
100
AcDbLine
 10
656.8075842276174
 20
489.6307212052469
 30
0.0
 11
412.8075842276173
 21
489.6307212052469
 31
0.0
  0
LINE
  5
36C
102
{ACAD_REACTORS
330
383
102
}
330
1E
100
AcDbEntity
  8
STEMPEL
100
AcDbLine
 10
656.8075842276174
 20
491.630721205247
 30
0.0
 11
412.8075842276173
 21
491.6307212052467
 31
0.0
  0
LINE
  5
36D
102
{ACAD_REACTORS
330
383
330
9C9
102
}
330
1E
100
AcDbEntity
  8
STEMPEL
100
AcDbLine
 10
402.8075842276172
 20
489.630721205247
 30
0.0
 11
268.3075842276173
 21
489.6307212052469
 31
0.0
  0
LINE
  5
36E
102
{ACAD_REACTORS
330
383
102
}
330
1E
100
AcDbEntity
  8
STEMPEL
100
AcDbLine
 10
402.8075842276172
 20
491.6307212052469
 30
0.0
 11
268.3075842276173
 21
491.6307212052467
 31
0.0
  0
HATCH
  5
383
330
1E
100
AcDbEntity
  8
SCHRAFF
100
AcDbHatch
 10
0.0
 20
0.0
 30
0.0
210
0.0
220
0.0
230
1.0
  2
_USER
 70
     0
 71
     1
 91
        5
 92
        7
 72
     0
 73
     1
 93
        4
 10
669.8075842276173
 20
491.6307212052469
 10
669.8075842276175
 20
489.6307212052469
 10
801.3075842276174
 20
489.6307212052469
 10
801.3075842276174
 20
491.6307212052469
 97
        4
330
366
330
35B
330
367
330
364
 92
        7
 72
     0
 73
     1
 93
        4
 10
653.8075842276174
 20
489.630721205247
 10
653.8075842276172
 20
491.630721205247
 10
629.8075842276173
 20
491.630721205247
 10
629.8075842276171
 20
489.6307212052469
 97
        4
330
36C
330
360
330
36B
330
35C
 92
        7
 72
     0
 73
     1
 93
        4
 10
415.8075842276174
 20
491.6307212052468
 10
415.8075842276172
 20
489.6307212052469
 10
439.8075842276173
 20
489.6307212052469
 10
439.8075842276174
 20
491.6307212052467
 97
        4
330
36C
330
35D
330
36B
330
361
 92
        7
 72
     0
 73
     1
 93
        4
 10
399.8075842276173
 20
489.6307212052469
 10
399.8075842276173
 20
491.6307212052467
 10
278.3075842276172
 20
491.6307212052467
 10
278.3075842276171
 20
489.6307212052469
 97
        4
330
36E
330
363
330
36D
330
35E
 92
        7
 72
     0
 73
     1
 93
        4
 10
278.3075842276172
 20
489.6307212052469
 10
278.3075842276172
 20
491.6307212052467
 10
268.3075842276173
 20
491.6307212052467
 10
268.3075842276173
 20
489.6307212052469
 97
        4
330
36E
330
365
330
36D
330
363
 75
     0
 76
     0
 52
135.0
 41
2.0
 77
     0
 78
     1
 53
135.0
 43
0.0
 44
0.0
 45
-1.414213562373095
 46
-1.414213562373094
 79
     0
 47
0.647934204438338
 98
        5
 10
726.41499027908
 20
490.7761106988673
 10
644.7281475979789
 20
490.1281750593905
 10
431.4347289896564
 20
490.7761106988673
 10
315.38755091638
 20
490.1281750593905
 10
273.8958224285497
 20
490.1281750593905
  0
HATCH
  5
69D
330
1E
100
AcDbEntity
  8
SCHRAFF
100
AcDbHatch
 10
0.0
 20
0.0
 30
0.0
210
0.0
220
0.0
230
1.0
  2
_USER
 70
     0
 71
     0
 91
        3
 92
        7
 72
     1
 73
     1
 93
       12
 10
690.5399988654602
 20
614.6307212052468
 42
0.0
 10
534.8075842276172
 20
614.6307212052465
 42
0.0
 10
534.8075842276172
 20
613.1307212052468
 42
0.0
 10
690.5399988654602
 20
613.1307212052468
 42
-0.4142135623731006
 10
774.0399988654604
 20
529.6307212052457
 42
0.0
 10
774.0399988654603
 20
513.1307212052468
 42
0.4142135623730992
 10
780.5399988654603
 20
506.6307212052467
 42
0.0
 10
801.3075842276172
 20
506.6307212052466
 42
0.0
 10
801.3075842276172
 20
508.1307212052466
 42
0.0
 10
780.5399988654603
 20
508.1307212052467
 42
-0.4142135623730926
 10
775.5399988654603
 20
513.1307212052468
 42
0.0
 10
775.5399988654605
 20
529.6307212052457
 42
0.4142135623731005
 97
        0
 92
        7
 72
     1
 73
     1
 93
       12
 10
534.8075842276172
 20
614.6307212052468
 42
0.0
 10
379.0751695897741
 20
614.6307212052465
 42
0.4142135623730948
 10
294.0751695897742
 20
529.6307212052465
 42
0.0
 10
294.0751695897742
 20
513.1307212052468
 42
-0.4142135623730959
 10
289.0751695897742
 20
508.1307212052467
 42
0.0
 10
281.8075842276172
 20
508.1307212052467
 42
0.0
 10
281.8075842276173
 20
506.6307212052467
 42
0.0
 10
289.0751695897742
 20
506.6307212052467
 42
0.4142135623730951
 10
295.5751695897742
 20
513.1307212052468
 42
0.0
 10
295.5751695897742
 20
529.6307212052465
 42
-0.4142135623730948
 10
379.0751695897741
 20
613.1307212052465
 42
0.0
 10
534.8075842276172
 20
613.1307212052465
 42
0.0
 97
        0
 92
        7
 72
     0
 73
     1
 93
        4
 10
274.8075842276173
 20
508.1307212052467
 10
268.3075842276172
 20
508.1307212052467
 10
268.3075842276172
 20
506.6307212052466
 10
274.8075842276173
 20
506.6307212052466
 97
        0
 75
     0
 76
     0
 52
135.0
 41
2.0
 77
     0
 78
     1
 53
135.0
 43
0.0
 44
0.0
 45
-1.414213562373095
 46
-1.414213562373094
 79
     0
 47
0.5960970483037999
 98
        3
 10
626.3235352606199
 20
614.0351060973337
 10
504.6466686815084
 20
613.4390091290249
 10
271.4326686381829
 20
507.3337339521323
  0
ARC
  5
69E
330
1E
100
AcDbEntity
  8
STEMPEL
100
AcDbCircle
 10
289.0751695897742
 20
513.1307212052468
 30
0.0
 40
6.5
100
AcDbArc
 50
270.0
 51
0.0
  0
LINE
  5
69F
330
1E
100
AcDbEntity
  8
STEMPEL
100
AcDbLine
 10
295.5751695897742
 20
513.1307212052468
 30
0.0
 11
295.5751695897742
 21
529.6307212052465
 31
0.0
  0
ARC
  5
6A0
330
1E
100
AcDbEntity
  8
STEMPEL
100
AcDbCircle
 10
289.0751695897742
 20
513.1307212052468
 30
0.0
 40
5.0
100
AcDbArc
 50
270.0
 51
0.0
  0
ARC
  5
6A1
330
1E
100
AcDbEntity
  8
STEMPEL
100
AcDbCircle
 10
379.0751695897742
 20
529.6307212052465
 30
0.0
 40
83.49999999999999
100
AcDbArc
 50
90.0
 51
180.0
  0
LINE
  5
6A2
330
1E
100
AcDbEntity
  8
STEMPEL
100
AcDbLine
 10
379.0751695897741
 20
613.1307212052465
 30
0.0
 11
690.5399988654602
 21
613.1307212052468
 31
0.0
  0
ARC
  5
6A3
330
1E
100
AcDbEntity
  8
STEMPEL
100
AcDbCircle
 10
690.5399988654603
 20
529.6307212052463
 30
0.0
 40
83.49999999999999
100
AcDbArc
 50
0.0
 51
90.0
  0
LINE
  5
6A4
330
1E
100
AcDbEntity
  8
STEMPEL
100
AcDbLine
 10
774.0399988654603
 20
513.1307212052468
 30
0.0
 11
774.0399988654604
 21
529.6307212052457
 31
0.0
  0
ARC
  5
6A5
330
1E
100
AcDbEntity
  8
STEMPEL
100
AcDbCircle
 10
780.5399988654603
 20
513.1307212052468
 30
0.0
 40
6.5
100
AcDbArc
 50
180.0
 51
270.0
  0
ARC
  5
6A6
330
1E
100
AcDbEntity
  8
STEMPEL
100
AcDbCircle
 10
780.5399988654603
 20
513.1307212052468
 30
0.0
 40
5.0
100
AcDbArc
 50
180.0
 51
270.0
  0
LINE
  5
6A7
330
1E
100
AcDbEntity
  8
STEMPEL
100
AcDbLine
 10
733.94731592408
 20
508.1307212052468
 30
0.0
 11
740.2952349955498
 21
508.1307212052468
 31
0.0
  0
LINE
  5
6A8
330
1E
100
AcDbEntity
  8
STEMPEL
100
AcDbLine
 10
749.3297032299275
 20
508.1307212052468
 30
0.0
 11
753.9058522385825
 21
508.1307212052467
 31
0.0
  0
LINE
  5
6A9
330
1E
100
AcDbEntity
  8
STEMPEL
100
AcDbLine
 10
761.3289485698056
 20
508.1307212052467
 30
0.0
 11
764.0611589121212
 21
508.1307212052467
 31
0.0
  0
LINE
  5
6AA
330
1E
100
AcDbEntity
  8
STEMPEL
100
AcDbLine
 10
769.7558166767037
 20
508.1307212052468
 30
0.0
 11
770.6009997634379
 21
508.1307212052467
 31
0.0
  0
LINE
  5
6AB
330
1E
100
AcDbEntity
  8
STEMPEL
100
AcDbLine
 10
780.5399988654603
 20
508.1307212052467
 30
0.0
 11
801.3075842276172
 21
508.1307212052467
 31
0.0
  0
LINE
  5
6BA
330
1E
100
AcDbEntity
  8
STEMPEL
100
AcDbLine
 10
329.3199334596848
 20
508.1307212052464
 30
0.0
 11
335.6678525311543
 21
508.1307212052465
 31
0.0
  0
LINE
  5
6BC
330
1E
100
AcDbEntity
  8
STEMPEL
100
AcDbLine
 10
299.0141686917965
 20
508.1307212052466
 30
0.0
 11
299.8593517785307
 21
508.1307212052467
 31
0.0
  0
LINE
  5
6BD
330
1E
100
AcDbEntity
  8
STEMPEL
100
AcDbLine
 10
305.5540095431132
 20
508.1307212052468
 30
0.0
 11
308.2862198854289
 21
508.1307212052467
 31
0.0
  0
LINE
  5
6BE
330
1E
100
AcDbEntity
  8
STEMPEL
100
AcDbLine
 10
315.7093162166519
 20
508.1307212052466
 30
0.0
 11
320.2854652253071
 21
508.1307212052464
 31
0.0
  0
LINE
  5
6BF
330
1E
100
AcDbEntity
  8
STEMPEL
100
AcDbLine
 10
268.3075842276172
 20
508.1307212052467
 30
0.0
 11
289.0751695897742
 21
508.1307212052467
 31
0.0
  0
LINE
  5
6E5
330
1E
100
AcDbEntity
  8
STEMPEL
100
AcDbLine
 10
732.2578330708646
 20
506.6307212052466
 30
0.0
 11
732.2578330708648
 21
519.1307212052465
 31
0.0
  0
ELLIPSE
  5
6E6
330
1E
100
AcDbEntity
  8
STEMPEL
100
AcDbEllipse
 10
736.2765340332072
 20
519.1307212052465
 30
0.0
 11
0.0000000000000075
 21
7.5
 31
0.0
210
0.0
220
0.0
230
-1.0
 40
0.5358267949789991
 41
4.712388980384689
 42
7.853981633974482
  0
LINE
  5
6E7
330
1E
100
AcDbEntity
  8
STEMPEL
100
AcDbLine
 10
740.2952349955496
 20
506.6307212052463
 30
0.0
 11
740.2952349955496
 21
519.1307212052463
 31
0.0
  0
ELLIPSE
  5
6E8
330
1E
100
AcDbEntity
  8
STEMPEL
100
AcDbEllipse
 10
737.9660168864226
 20
519.1307212052465
 30
0.0
 11
0.0000000000000075
 21
7.5
 31
0.0
210
0.0
220
0.0
230
-1.0
 40
0.5358267949789991
 41
4.712388980384689
 42
6.071403112986319
  0
LINE
  5
6E9
330
1E
100
AcDbEntity
  8
STEMPEL
100
AcDbLine
 10
733.9473159240801
 20
506.6307212052466
 30
0.0
 11
733.9473159240801
 21
519.1307212052465
 31
0.0
  0
LINE
  5
6EA
330
1E
100
AcDbEntity
  8
STEMPEL
100
AcDbLine
 10
747.5191628651065
 20
506.6307212052465
 30
0.0
 11
747.5191628651065
 21
519.1307212052465
 31
0.0
  0
LINE
  5
6EB
330
1E
100
AcDbEntity
  8
STEMPEL
100
AcDbLine
 10
753.9058522385825
 20
506.6307212052463
 30
0.0
 11
753.9058522385825
 21
519.1307212052463
 31
0.0
  0
ELLIPSE
  5
6EC
330
1E
100
AcDbEntity
  8
STEMPEL
100
AcDbEllipse
 10
750.7125075518445
 20
519.1307212052465
 30
0.0
 11
0.0000000000000075
 21
7.5
 31
0.0
210
0.0
220
0.0
230
-1.0
 40
0.4257792915650669
 41
4.712388980384689
 42
7.853981633974482
  0
ELLIPSE
  5
6ED
330
1E
100
AcDbEntity
  8
STEMPEL
100
AcDbEllipse
 10
752.5230479166654
 20
519.1307212052465
 30
0.0
 11
0.0000000000000075
 21
7.5
 31
0.0
210
0.0
220
0.0
230
-1.0
 40
0.4257792915650669
 41
4.712388980384689
 42
5.995757469465124
  0
LINE
  5
6EE
330
1E
100
AcDbEntity
  8
STEMPEL
100
AcDbLine
 10
749.3297032299274
 20
506.6307212052465
 30
0.0
 11
749.3297032299274
 21
519.1307212052465
 31
0.0
  0
LINE
  5
6EF
330
1E
100
AcDbEntity
  8
STEMPEL
100
AcDbLine
 10
759.425903996497
 20
506.6307212052465
 30
0.0
 11
759.425903996497
 21
519.1307212052463
 31
0.0
  0
LINE
  5
6F0
330
1E
100
AcDbEntity
  8
STEMPEL
100
AcDbLine
 10
764.0611589121212
 20
506.6307212052463
 30
0.0
 11
764.0611589121212
 21
519.1307212052465
 31
0.0
  0
ELLIPSE
  5
6F1
330
1E
100
AcDbEntity
  8
STEMPEL
100
AcDbEllipse
 10
761.7435314543091
 20
519.1307212052465
 30
0.0
 11
0.0000000000000075
 21
7.5
 31
0.0
210
0.0
220
0.0
230
-1.0
 40
0.3090169943749496
 41
4.712388980384689
 42
7.853981633974482
  0
ELLIPSE
  5
6F2
330
1E
100
AcDbEntity
  8
STEMPEL
100
AcDbEllipse
 10
763.6465760276178
 20
519.1307212052465
 30
0.0
 11
0.0000000000000075
 21
7.5
 31
0.0
210
0.0
220
0.0
230
-1.0
 40
0.3090169943749496
 41
4.712388980384689
 42
5.860118527714176
  0
LINE
  5
6F3
330
1E
100
AcDbEntity
  8
STEMPEL
100
AcDbLine
 10
761.3289485698056
 20
506.6307212052465
 30
0.0
 11
761.3289485698056
 21
519.1307212052463
 31
0.0
  0
LINE
  5
6F4
330
1E
100
AcDbEntity
  8
STEMPEL
100
AcDbLine
 10
767.7902800446521
 20
506.6307212052465
 30
0.0
 11
767.7902800446522
 21
519.1307212052463
 31
0.0
  0
LINE
  5
6F5
330
1E
100
AcDbEntity
  8
STEMPEL
100
AcDbLine
 10
770.600999763438
 20
506.6307212052463
 30
0.0
 11
770.600999763438
 21
519.1307212052463
 31
0.0
  0
ELLIPSE
  5
6F6
330
1E
100
AcDbEntity
  8
STEMPEL
100
AcDbEllipse
 10
769.1956399040451
 20
519.1307212052465
 30
0.0
 11
0.0000000000000075
 21
7.5
 31
0.0
210
0.0
220
0.0
230
-1.0
 40
0.1873813145857222
 41
4.712388980384689
 42
7.853981633974482
  0
ELLIPSE
  5
6F7
330
1E
100
AcDbEntity
  8
STEMPEL
100
AcDbEllipse
 10
771.1611765360966
 20
519.1307212052465
 30
0.0
 11
0.0000000000000075
 21
7.5
 31
0.0
210
0.0
220
0.0
230
-1.0
 40
0.1873813145857222
 41
4.712388980384689
 42
5.508767370765571
  0
LINE
  5
6F8
330
1E
100
AcDbEntity
  8
STEMPEL
100
AcDbLine
 10
769.7558166767037
 20
506.6307212052465
 30
0.0
 11
769.7558166767037
 21
519.1307212052463
 31
0.0
  0
LINE
  5
6F9
330
1E
100
AcDbEntity
  8
STEMPEL
100
AcDbLine
 10
772.4803798026563
 20
506.6307212052465
 30
0.0
 11
772.4803798026563
 21
519.1307212052465
 31
0.0
  0
LINE
  5
6FA
330
1E
100
AcDbEntity
  8
STEMPEL
100
AcDbLine
 10
773.4222375955961
 20
506.6307212052465
 30
0.0
 11
773.4222375955961
 21
519.1307212052465
 31
0.0
  0
ELLIPSE
  5
6FB
330
1E
100
AcDbEntity
  8
STEMPEL
100
AcDbEllipse
 10
772.9513086991262
 20
519.1307212052465
 30
0.0
 11
0.0000000000000075
 21
7.5
 31
0.0
210
0.0
220
0.0
230
-1.0
 40
0.06279051952932
 41
4.712388980384689
 42
7.853981633974482
  0
ELLIPSE
  5
6FC
330
1E
100
AcDbEntity
  8
STEMPEL
100
AcDbEllipse
 10
296.6638597561082
 20
519.1307212052468
 30
0.0
 11
0.0
 21
7.5
 31
0.0
210
0.0
220
0.0
230
1.0
 40
0.06279051952932
 41
4.712388980384689
 42
7.853981633974482
  0
LINE
  5
6FD
330
1E
100
AcDbEntity
  8
STEMPEL
100
AcDbLine
 10
296.1929308596384
 20
506.6307212052467
 30
0.0
 11
296.1929308596384
 21
519.1307212052468
 31
0.0
  0
LINE
  5
6FE
330
1E
100
AcDbEntity
  8
STEMPEL
100
AcDbLine
 10
297.1347886525781
 20
506.6307212052467
 30
0.0
 11
297.1347886525781
 21
519.1307212052468
 31
0.0
  0
LINE
  5
6FF
330
1E
100
AcDbEntity
  8
STEMPEL
100
AcDbLine
 10
299.8593517785307
 20
506.6307212052467
 30
0.0
 11
299.8593517785307
 21
519.1307212052465
 31
0.0
  0
ELLIPSE
  5
700
330
1E
100
AcDbEntity
  8
STEMPEL
100
AcDbEllipse
 10
298.4539919191378
 20
519.1307212052468
 30
0.0
 11
0.0
 21
7.5
 31
0.0
210
0.0
220
0.0
230
1.0
 40
0.1873813145857222
 41
4.712388980384689
 42
5.508767370765571
  0
ELLIPSE
  5
701
330
1E
100
AcDbEntity
  8
STEMPEL
100
AcDbEllipse
 10
300.4195285511894
 20
519.1307212052468
 30
0.0
 11
0.0
 21
7.5
 31
0.0
210
0.0
220
0.0
230
1.0
 40
0.1873813145857222
 41
4.712388980384689
 42
7.853981633974482
  0
LINE
  5
702
330
1E
100
AcDbEntity
  8
STEMPEL
100
AcDbLine
 10
299.0141686917965
 20
506.6307212052466
 30
0.0
 11
299.0141686917965
 21
519.1307212052465
 31
0.0
  0
LINE
  5
703
330
1E
100
AcDbEntity
  8
STEMPEL
100
AcDbLine
 10
301.8248884105823
 20
506.6307212052467
 30
0.0
 11
301.8248884105823
 21
519.1307212052465
 31
0.0
  0
LINE
  5
704
330
1E
100
AcDbEntity
  8
STEMPEL
100
AcDbLine
 10
308.2862198854289
 20
506.6307212052467
 30
0.0
 11
308.2862198854289
 21
519.1307212052465
 31
0.0
  0
ELLIPSE
  5
705
330
1E
100
AcDbEntity
  8
STEMPEL
100
AcDbEllipse
 10
305.9685924276167
 20
519.1307212052468
 30
0.0
 11
0.0
 21
7.5
 31
0.0
210
0.0
220
0.0
230
1.0
 40
0.3090169943749496
 41
4.712388980384689
 42
5.860118527714176
  0
ELLIPSE
  5
706
330
1E
100
AcDbEntity
  8
STEMPEL
100
AcDbEllipse
 10
307.8716370009253
 20
519.1307212052468
 30
0.0
 11
0.0
 21
7.5
 31
0.0
210
0.0
220
0.0
230
1.0
 40
0.3090169943749496
 41
4.712388980384689
 42
7.853981633974482
  0
LINE
  5
707
330
1E
100
AcDbEntity
  8
STEMPEL
100
AcDbLine
 10
305.5540095431132
 20
506.6307212052466
 30
0.0
 11
305.5540095431132
 21
519.1307212052468
 31
0.0
  0
LINE
  5
708
330
1E
100
AcDbEntity
  8
STEMPEL
100
AcDbLine
 10
310.1892644587374
 20
506.6307212052467
 30
0.0
 11
310.1892644587374
 21
519.1307212052465
 31
0.0
  0
LINE
  5
709
330
1E
100
AcDbEntity
  8
STEMPEL
100
AcDbLine
 10
320.2854652253071
 20
506.6307212052467
 30
0.0
 11
320.2854652253071
 21
519.1307212052468
 31
0.0
  0
ELLIPSE
  5
70A
330
1E
100
AcDbEntity
  8
STEMPEL
100
AcDbEllipse
 10
317.0921205385691
 20
519.1307212052468
 30
0.0
 11
0.0
 21
7.5
 31
0.0
210
0.0
220
0.0
230
1.0
 40
0.4257792915650669
 41
4.712388980384689
 42
5.995757469465124
  0
ELLIPSE
  5
70B
330
1E
100
AcDbEntity
  8
STEMPEL
100
AcDbEllipse
 10
318.90266090339
 20
519.1307212052468
 30
0.0
 11
0.0
 21
7.5
 31
0.0
210
0.0
220
0.0
230
1.0
 40
0.4257792915650669
 41
4.712388980384689
 42
7.853981633974482
  0
LINE
  5
70C
330
1E
100
AcDbEntity
  8
STEMPEL
100
AcDbLine
 10
315.7093162166519
 20
506.6307212052466
 30
0.0
 11
315.7093162166519
 21
519.1307212052465
 31
0.0
  0
LINE
  5
70D
330
1E
100
AcDbEntity
  8
STEMPEL
100
AcDbLine
 10
322.096005590128
 20
506.6307212052467
 30
0.0
 11
322.096005590128
 21
519.1307212052468
 31
0.0
  0
LINE
  5
70E
330
1E
100
AcDbEntity
  8
STEMPEL
100
AcDbLine
 10
335.6678525311543
 20
506.6307212052469
 30
0.0
 11
335.6678525311543
 21
519.1307212052468
 31
0.0
  0
ELLIPSE
  5
70F
330
1E
100
AcDbEntity
  8
STEMPEL
100
AcDbEllipse
 10
331.6491515688118
 20
519.1307212052468
 30
0.0
 11
0.0
 21
7.5
 31
0.0
210
0.0
220
0.0
230
1.0
 40
0.5358267949789991
 41
4.712388980384689
 42
6.071403112986319
  0
LINE
  5
710
330
1E
100
AcDbEntity
  8
STEMPEL
100
AcDbLine
 10
329.3199334596848
 20
506.6307212052466
 30
0.0
 11
329.3199334596848
 21
519.1307212052465
 31
0.0
  0
ELLIPSE
  5
711
330
1E
100
AcDbEntity
  8
STEMPEL
100
AcDbEllipse
 10
333.3386344220273
 20
519.1307212052468
 30
0.0
 11
0.0
 21
7.5
 31
0.0
210
0.0
220
0.0
230
1.0
 40
0.5358267949789991
 41
4.712388980384689
 42
7.853981633974482
  0
LINE
  5
712
330
1E
100
AcDbEntity
  8
STEMPEL
100
AcDbLine
 10
337.3573353843698
 20
506.6307212052469
 30
0.0
 11
337.3573353843698
 21
519.1307212052468
 31
0.0
  0
LINE
  5
73B
330
1E
100
AcDbEntity
  8
STEMPEL
100
AcDbLine
 10
281.8075842276172
 20
506.6307212052469
 30
0.0
 11
281.8075842276172
 21
508.1307212052467
 31
0.0
  0
LINE
  5
73C
330
1E
100
AcDbEntity
  8
STEMPEL
100
AcDbLine
 10
274.8075842276173
 20
506.6307212052469
 30
0.0
 11
274.8075842276173
 21
508.1307212052467
 31
0.0
  0
LINE
  5
73E
330
1E
100
AcDbEntity
  8
STEMPEL
100
AcDbLine
 10
801.3075842276172
 20
506.6307212052463
 30
0.0
 11
801.3075842276172
 21
508.1307212052467
 31
0.0
  0
LINE
  5
73F
330
1E
100
AcDbEntity
  8
STEMPEL
100
AcDbLine
 10
775.5399988654603
 20
513.1307212052468
 30
0.0
 11
775.5399988654605
 21
529.6307212052457
 31
0.0
  0
ARC
  5
740
330
1E
100
AcDbEntity
  8
STEMPEL
100
AcDbCircle
 10
690.5399988654603
 20
529.6307212052463
 30
0.0
 40
85.0
100
AcDbArc
 50
0.0
 51
90.0
  0
ARC
  5
741
330
1E
100
AcDbEntity
  8
STEMPEL
100
AcDbCircle
 10
379.0751695897742
 20
529.6307212052465
 30
0.0
 40
85.0
100
AcDbArc
 50
90.0
 51
180.0
  0
LINE
  5
742
330
1E
100
AcDbEntity
  8
STEMPEL
100
AcDbLine
 10
294.0751695897742
 20
513.1307212052468
 30
0.0
 11
294.0751695897742
 21
529.6307212052465
 31
0.0
  0
LINE
  5
743
330
1E
100
AcDbEntity
  8
STEMPEL
100
AcDbLine
 10
379.0751695897741
 20
614.6307212052465
 30
0.0
 11
690.5399988654602
 21
614.6307212052468
 31
0.0
  0
LINE
  5
744
330
1E
100
AcDbEntity
  8
STEMPEL
100
AcDbLine
 10
268.3075842276172
 20
506.6307212052467
 30
0.0
 11
268.3075842276172
 21
508.1307212052466
 31
0.0
  0
LINE
  5
745
330
1E
100
AcDbEntity
  8
STEMPEL
100
AcDbLine
 10
268.3075842276172
 20
506.6307212052467
 30
0.0
 11
275.3075842276158
 21
506.6307212052467
 31
0.0
  0
HATCH
  5
767
330
1E
100
AcDbEntity
  8
SCHRAFF
100
AcDbHatch
 10
0.0
 20
0.0
 30
0.0
210
0.0
220
0.0
230
1.0
  2
_USER
 70
     0
 71
     0
 91
        4
 92
        7
 72
     1
 73
     1
 93
        8
 10
669.8075842276173
 20
491.630721205247
 42
0.0
 10
724.3075842276173
 20
491.6307212052467
 42
0.4142135623730946
 10
728.3075842276173
 20
495.6307212052467
 42
0.0
 10
728.3075842276173
 20
551.6307212052466
 42
0.0
 10
726.8075842276173
 20
551.6307212052466
 42
0.0
 10
726.8075842276173
 20
495.6307212052467
 42
-0.4142135623730946
 10
724.3075842276173
 20
493.1307212052468
 42
0.0
 10
669.8075842276173
 20
493.130721205247
 42
0.0
 97
        0
 92
        7
 72
     0
 73
     1
 93
        4
 10
629.8075842276175
 20
491.630721205247
 10
653.8075842276173
 20
491.6307212052469
 10
653.8075842276173
 20
493.130721205247
 10
629.8075842276174
 20
493.130721205247
 97
        0
 92
        7
 72
     0
 73
     1
 93
        4
 10
415.8075842276173
 20
491.630721205247
 10
439.8075842276173
 20
491.630721205247
 10
439.8075842276173
 20
493.1307212052471
 10
415.8075842276173
 20
493.1307212052471
 97
        0
 92
        7
 72
     1
 73
     1
 93
        8
 10
342.8075842276173
 20
495.630721205247
 42
0.0
 10
342.8075842276173
 20
551.6307212052469
 42
0.0
 10
341.3075842276173
 20
551.6307212052466
 42
0.0
 10
341.3075842276173
 20
495.630721205247
 42
0.4142135623730951
 10
345.3075842276173
 20
491.630721205247
 42
0.0
 10
399.8075842276173
 20
491.630721205247
 42
0.0
 10
399.8075842276173
 20
493.1307212052471
 42
0.0
 10
345.3075842276173
 20
493.130721205247
 42
-0.4142135623730951
 97
        0
 75
     0
 76
     0
 52
45.0
 41
2.0
 77
     0
 78
     1
 53
45.0
 43
273.6904905235949
 44
-141.7121744114142
 45
-1.414213562373094
 46
1.414213562373095
 79
     0
 47
0.452799170750717
 98
        4
 10
664.6012358940144
 20
492.2651145494483
 10
608.8734714089189
 20
492.2651145494483
 10
462.9845287254091
 20
492.2651145494483
 10
344.7329327164891
 20
518.0746662822639
  0
LINE
  5
768
330
1E
100
AcDbEntity
  8
STEMPEL
100
AcDbLine
 10
726.8075842276173
 20
495.6307212052467
 30
0.0
 11
726.8075842276173
 21
551.6307212052466
 31
0.0
  0
ARC
  5
769
330
1E
100
AcDbEntity
  8
STEMPEL
100
AcDbCircle
 10
724.3075842276173
 20
495.6307212052467
 30
0.0
 40
2.5
100
AcDbArc
 50
270.0
 51
0.0
  0
LINE
  5
76A
330
1E
100
AcDbEntity
  8
STEMPEL
100
AcDbLine
 10
724.3075842276173
 20
493.1307212052468
 30
0.0
 11
666.8075842276172
 21
493.1307212052469
 31
0.0
  0
ARC
  5
76B
330
1E
100
AcDbEntity
  8
STEMPEL
100
AcDbCircle
 10
345.3075842276173
 20
495.630721205247
 30
0.0
 40
2.5
100
AcDbArc
 50
180.0
 51
270.0
  0
LINE
  5
76C
330
1E
100
AcDbEntity
  8
STEMPEL
100
AcDbLine
 10
342.8075842276173
 20
495.630721205247
 30
0.0
 11
342.8075842276173
 21
551.6307212052468
 31
0.0
  0
LINE
  5
76D
330
1E
100
AcDbEntity
  8
STEMPEL
100
AcDbLine
 10
415.8075842276173
 20
491.6307212052469
 30
0.0
 11
415.8075842276173
 21
493.130721205247
 31
0.0
  0
LINE
  5
76E
330
1E
100
AcDbEntity
  8
STEMPEL
100
AcDbLine
 10
399.8075842276173
 20
491.6307212052469
 30
0.0
 11
399.8075842276173
 21
493.130721205247
 31
0.0
  0
LINE
  5
76F
330
1E
100
AcDbEntity
  8
STEMPEL
100
AcDbLine
 10
653.8075842276173
 20
491.6307212052469
 30
0.0
 11
653.8075842276173
 21
493.1307212052469
 31
0.0
  0
LINE
  5
770
330
1E
100
AcDbEntity
  8
STEMPEL
100
AcDbLine
 10
669.8075842276173
 20
491.6307212052469
 30
0.0
 11
669.8075842276173
 21
493.1307212052469
 31
0.0
  0
LINE
  5
773
330
1E
100
AcDbEntity
  8
STEMPEL
100
AcDbLine
 10
629.8075842276173
 20
491.6307212052469
 30
0.0
 11
629.8075842276173
 21
493.1307212052469
 31
0.0
  0
LINE
  5
774
330
1E
100
AcDbEntity
  8
STEMPEL
100
AcDbLine
 10
439.8075842276173
 20
491.630721205247
 30
0.0
 11
439.8075842276173
 21
493.1307212052469
 31
0.0
  0
ARC
  5
775
330
1E
100
AcDbEntity
  8
STEMPEL
100
AcDbCircle
 10
345.3075842276173
 20
495.630721205247
 30
0.0
 40
4.0
100
AcDbArc
 50
180.0
 51
270.0
  0
ARC
  5
776
330
1E
100
AcDbEntity
  8
STEMPEL
100
AcDbCircle
 10
724.3075842276173
 20
495.6307212052467
 30
0.0
 40
4.0
100
AcDbArc
 50
270.0
 51
0.0
  0
LINE
  5
777
330
1E
100
AcDbEntity
  8
STEMPEL
100
AcDbLine
 10
728.3075842276173
 20
495.6307212052467
 30
0.0
 11
728.3075842276173
 21
551.6307212052466
 31
0.0
  0
LINE
  5
778
330
1E
100
AcDbEntity
  8
STEMPEL
100
AcDbLine
 10
341.3075842276173
 20
495.630721205247
 30
0.0
 11
341.3075842276173
 21
551.6307212052468
 31
0.0
  0
LINE
  5
77A
330
1E
100
AcDbEntity
  8
STEMPEL
100
AcDbLine
 10
728.3075842276173
 20
551.6307212052466
 30
0.0
 11
341.3075842276173
 21
551.6307212052468
 31
0.0
  0
LINE
  5
78D
330
1E
100
AcDbEntity
  8
STEMPEL
100
AcDbLine
 10
656.8075842276174
 20
493.1307212052469
 30
0.0
 11
412.8075842276172
 21
493.130721205247
 31
0.0
  0
LINE
  5
78E
330
1E
100
AcDbEntity
  8
STEMPEL
100
AcDbLine
 10
402.8075842276173
 20
493.130721205247
 30
0.0
 11
345.3075842276173
 21
493.130721205247
 31
0.0
  0
LINE
  5
794
330
1E
100
AcDbEntity
  8
STEMPEL
100
AcDbLine
 10
728.3075842276173
 20
506.6307212052467
 30
0.0
 11
801.3075842276172
 21
506.6307212052467
 31
0.0
  0
ARC
  5
7BA
330
1E
100
AcDbEntity
  8
STEMPEL
100
AcDbCircle
 10
278.3075842276158
 20
505.5173469460468
 30
0.0
 40
8.281117593600001
100
AcDbArc
 50
70.52782738138624
 51
109.4721726186137
  0
LINE
  5
7BB
330
1E
100
AcDbEntity
  8
STEMPEL
100
AcDbLine
 10
274.16723463799
 20
513.7984645396468
 30
0.0
 11
282.4479338167328
 21
513.7984645396468
 31
0.0
  0
LINE
  5
7BC
330
1E
100
AcDbEntity
  8
STEMPEL
100
AcDbLine
 10
272.3075842276159
 20
509.7307212052468
 30
0.0
 11
284.3075842276158
 21
509.7307212052466
 31
0.0
  0
LINE
  5
7BE
330
1E
100
AcDbEntity
  8
STEMPEL
100
AcDbLine
 10
272.7865797183173
 20
513.3484739944438
 30
0.0
 11
272.9933378501026
 21
513.4678458574872
 31
0.0
  0
ARC
  5
7BF
330
1E
100
AcDbEntity
  8
STEMPEL
100
AcDbCircle
 10
274.1668308456418
 20
511.5505662193676
 30
0.0
 40
2.247898356545996
100
AcDbArc
 50
52.11936428281847
 51
121.4691945163676
  0
LINE
  5
7C0
330
1E
100
AcDbEntity
  8
STEMPEL
100
AcDbLine
 10
272.3075842276159
 20
509.7307212052468
 30
0.0
 11
272.3075842276159
 21
508.1307212052467
 31
0.0
  0
LINE
  5
7C1
330
1E
100
AcDbEntity
  8
STEMPEL
100
AcDbLine
 10
275.5470819729666
 20
513.3248136223194
 30
0.0
 11
275.5470819729666
 21
509.7307212052468
 31
0.0
  0
LINE
  5
7C2
330
1E
100
AcDbEntity
  8
STEMPEL
100
AcDbLine
 10
272.7865797183173
 20
513.3484739944438
 30
0.0
 11
272.7865797183173
 21
509.7307212052468
 31
0.0
  0
LINE
  5
7C3
330
1E
100
AcDbEntity
  8
STEMPEL
100
AcDbLine
 10
282.4443783842306
 20
513.7984645396468
 30
0.0
 11
282.4479338172267
 21
513.7984645396468
 31
0.0
  0
ARC
  5
7C4
330
1E
100
AcDbEntity
  8
STEMPEL
100
AcDbCircle
 10
282.4483376095899
 20
511.5505662193676
 30
0.0
 40
2.247898356545996
100
AcDbArc
 50
58.53080548383119
 51
127.8806357171815
  0
LINE
  5
7C5
330
1E
100
AcDbEntity
  8
STEMPEL
100
AcDbLine
 10
283.8285887369146
 20
513.3484739944438
 30
0.0
 11
283.6218306051222
 21
513.467845857491
 31
0.0
  0
LINE
  5
7C6
330
1E
100
AcDbEntity
  8
STEMPEL
100
AcDbLine
 10
284.3075842276158
 20
509.7307212052466
 30
0.0
 11
284.3075842276158
 21
508.1307212052467
 31
0.0
  0
LINE
  5
7C7
330
1E
100
AcDbEntity
  8
STEMPEL
100
AcDbLine
 10
283.8285887369146
 20
513.3484739944435
 30
0.0
 11
283.8285887369146
 21
509.7307212052468
 31
0.0
  0
LINE
  5
7C8
330
1E
100
AcDbEntity
  8
STEMPEL
100
AcDbLine
 10
281.0680864822654
 20
513.3248136223194
 30
0.0
 11
281.0680864822651
 21
509.7307212052468
 31
0.0
  0
HATCH
  5
7C9
330
1E
100
AcDbEntity
  8
SCHRAFF
100
AcDbHatch
 10
0.0
 20
0.0
 30
0.0
210
0.0
220
0.0
230
1.0
  2
_USER
 70
     0
 71
     0
 91
        4
 92
        7
 72
     0
 73
     1
 93
        9
 10
283.3075842276172
 20
506.6307212052466
 10
281.3075842276168
 20
506.6307212052467
 10
281.3075842276181
 20
500.7307212052466
 10
281.3075842276172
 20
497.6307212052464
 10
280.3075842276172
 20
497.6307212052463
 10
280.3075842276172
 20
495.6307212052467
 10
278.3075842276172
 20
495.0948228203843
 10
278.3075842276172
 20
491.6307212052467
 10
283.3075842276171
 20
491.6307212052466
 97
        0
 92
       23
 72
     0
 73
     1
 93
        4
 10
280.3075842276172
 20
497.6307212052465
 10
281.3075842276172
 20
497.6307212052465
 10
281.3075842276173
 20
500.7307212052475
 10
280.3075842276172
 20
499.7307212052476
 97
        0
 92
       23
 72
     0
 73
     1
 93
        4
 10
276.3075842276172
 20
499.730721205247
 10
275.3075842276172
 20
500.7307212052477
 10
275.3075842276172
 20
497.6307212052467
 10
276.3075842276172
 20
497.6307212052466
 97
        0
 92
        7
 72
     0
 73
     1
 93
        9
 10
275.3075842276172
 20
500.7307212052469
 10
275.3075842276158
 20
506.6307212052467
 10
273.3075842276171
 20
506.6307212052467
 10
273.3075842276172
 20
491.6307212052467
 10
278.3075842276172
 20
491.6307212052466
 10
278.3075842276172
 20
495.0948228203846
 10
276.3075842276172
 20
495.6307212052466
 10
276.3075842276172
 20
497.6307212052466
 10
275.3075842276172
 20
497.6307212052467
 97
        0
 75
     0
 76
     0
 52
45.0
 41
2.0
 77
     0
 78
     1
 53
45.0
 43
0.0
 44
0.0
 45
-1.414213562373094
 46
1.414213562373095
 79
     0
 47
0.0752764616116185
 98
        4
 10
282.7853104948527
 20
504.0382406159921
 10
280.6763529763816
 20
498.5430591311649
 10
275.8558779041073
 20
498.5430591311649
 10
274.424799122789
 20
500.1238645743208
  0
LINE
  5
7CA
330
1E
100
AcDbEntity
  8
STEMPEL
100
AcDbLine
 10
275.3075842276172
 20
500.7307212052469
 30
0.0
 11
281.3075842276173
 21
500.7307212052466
 31
0.0
  0
LINE
  5
7CB
330
1E
100
AcDbEntity
  8
STEMPEL
100
AcDbLine
 10
276.3075842276172
 20
499.7307212052469
 30
0.0
 11
280.3075842276172
 21
499.7307212052469
 31
0.0
  0
LINE
  5
7CC
330
1E
100
AcDbEntity
  8
STEMPEL
100
AcDbLine
 10
280.3075842276165
 20
499.7307212052469
 30
0.0
 11
281.3075842276173
 21
500.7307212052476
 31
0.0
  0
LINE
  5
7CD
330
1E
100
AcDbEntity
  8
HILF
100
AcDbLine
 10
280.3075842276172
 20
499.7307212052469
 30
0.0
 11
280.3075842276172
 21
508.1307212052467
 31
0.0
  0
LINE
  5
7CE
330
1E
100
AcDbEntity
  8
STEMPEL
100
AcDbLine
 10
281.3075842276163
 20
508.1307212052467
 30
0.0
 11
281.3075842276181
 21
500.7307212052466
 31
0.0
  0
LINE
  5
7CF
330
1E
100
AcDbEntity
  8
STEMPEL
100
AcDbLine
 10
280.3075842276172
 20
495.6307212052467
 30
0.0
 11
278.3075842276172
 21
495.0948228203844
 31
0.0
  0
LINE
  5
7D0
330
1E
100
AcDbEntity
  8
STEMPEL
100
AcDbLine
 10
280.3075842276172
 20
495.6307212052467
 30
0.0
 11
276.3075842276172
 21
495.6307212052467
 31
0.0
  0
LINE
  5
7D1
330
1E
100
AcDbEntity
  8
STEMPEL
100
AcDbLine
 10
280.3075842276172
 20
495.6307212052463
 30
0.0
 11
280.3075842276172
 21
499.7307212052469
 31
0.0
  0
LINE
  5
7D2
330
1E
100
AcDbEntity
  8
STEMPEL
100
AcDbLine
 10
281.3075842276172
 20
497.6307212052465
 30
0.0
 11
275.3075842276172
 21
497.6307212052467
 31
0.0
  0
LINE
  5
7D3
330
1E
100
AcDbEntity
  8
HILF
100
AcDbLine
 10
281.3075842276172
 20
497.6307212052467
 30
0.0
 11
281.3075842276173
 21
500.7307212052466
 31
0.0
  0
LINE
  5
7D4
330
1E
100
AcDbEntity
  8
STEMPEL
100
AcDbLine
 10
275.3075842276173
 20
500.7307212052476
 30
0.0
 11
276.3075842276174
 21
499.7307212052469
 31
0.0
  0
LINE
  5
7D5
330
1E
100
AcDbEntity
  8
STEMPEL
100
AcDbLine
 10
275.3075842276154
 20
508.1307212052469
 30
0.0
 11
275.3075842276173
 21
500.7307212052469
 31
0.0
  0
LINE
  5
7D6
330
1E
100
AcDbEntity
  8
HILF
100
AcDbLine
 10
276.3075842276172
 20
499.730721205247
 30
0.0
 11
276.3075842276172
 21
508.1307212052469
 31
0.0
  0
LINE
  5
7D7
330
1E
100
AcDbEntity
  8
STEMPEL
100
AcDbLine
 10
276.3075842276172
 20
495.6307212052467
 30
0.0
 11
278.3075842276172
 21
495.0948228203844
 31
0.0
  0
LINE
  5
7D8
330
1E
100
AcDbEntity
  8
STEMPEL
100
AcDbLine
 10
276.3075842276172
 20
495.6307212052465
 30
0.0
 11
276.3075842276172
 21
499.7307212052469
 31
0.0
  0
LINE
  5
7D9
330
1E
100
AcDbEntity
  8
HILF
100
AcDbLine
 10
275.3075842276172
 20
497.6307212052467
 30
0.0
 11
275.3075842276172
 21
500.7307212052469
 31
0.0
  0
LINE
  5
7DA
330
1E
100
AcDbEntity
  8
STEMPEL
100
AcDbLine
 10
281.3075842276167
 20
506.6307212052467
 30
0.0
 11
341.3075842276173
 21
506.6307212052467
 31
0.0
  0
LINE
  5
7DB
330
1E
100
AcDbEntity
  8
STEMPEL
100
AcDbLine
 10
275.3075842276158
 20
506.6307212052468
 30
0.0
 11
273.3075842276172
 21
506.6307212052467
 31
0.0
  0
TEXT
  5
850
330
1E
100
AcDbEntity
  8
TEXT
 62
     1
100
AcDbText
 10
828.8631745002927
 20
579.1315615759958
 30
0.0
 40
8.75
  1
EDV-Art.Nr. 60009.000X
 41
0.8
  7
GREEKS
100
AcDbText
  0
LINE
  5
851
330
1E
100
AcDbEntity
  8
TEXT
 62
     2
100
AcDbLine
 10
828.5314530782624
 20
591.3948030609388
 30
0.0
 11
962.2293463178491
 21
591.3948030609388
 31
0.0
  0
TEXT
  5
852
330
1E
100
AcDbEntity
  8
TEXT
 62
     1
100
AcDbText
 10
828.8631745002927
 20
595.5646134120438
 30
0.0
 40
8.75
  1
Saughaube
 41
0.8
  7
GREEKS
100
AcDbText
  0
LINE
  5
853
330
1E
100
AcDbEntity
  8
TEXT
 62
     2
100
AcDbLine
 10
828.5314530782624
 20
591.3948030609388
 30
0.0
 11
762.6806947217678
 21
573.2084131034305
 31
0.0
  0
LINE
  5
854
330
1E
100
AcDbEntity
  8
TEXT
 62
     2
100
AcDbLine
 10
828.5314530782624
 20
506.1294375577307
 30
0.0
 11
690.4966947859088
 21
496.8294798195563
 31
0.0
  0
TEXT
  5
855
330
1E
100
AcDbEntity
  8
TEXT
 62
     1
100
AcDbText
 10
828.8631745002927
 20
510.2992479088357
 30
0.0
 40
8.75
  1
Losflansch DN125
 41
0.8
  7
GREEKS
100
AcDbText
  0
LINE
  5
856
330
1E
100
AcDbEntity
  8
TEXT
 62
     2
100
AcDbLine
 10
828.5314530782624
 20
506.1294375577307
 30
0.0
 11
962.2293463178491
 21
506.1294375577305
 31
0.0
  0
TEXT
  5
857
330
1E
100
AcDbEntity
  8
TEXT
 62
     1
100
AcDbText
 10
828.8631745002927
 20
493.8661960727877
 30
0.0
 40
8.75
  1
EDV-Art.Nr. 21905.125X
 41
0.8
  7
GREEKS
100
AcDbText
  0
TEXT
  5
858
330
1E
100
AcDbEntity
  8
TEXT
 62
     1
100
AcDbText
 10
828.8631745002927
 20
420.8792766735276
 30
0.0
 40
8.75
  1
EDV-Art.Nr. 60070.150X
 41
0.8
  7
GREEKS
100
AcDbText
  0
LINE
  5
859
330
1E
100
AcDbEntity
  8
TEXT
 62
     2
100
AcDbLine
 10
828.5314530782624
 20
433.1425181584704
 30
0.0
 11
979.1398210758469
 21
433.1425181584704
 31
0.0
  0
TEXT
  5
85A
330
1E
100
AcDbEntity
  8
TEXT
 62
     1
100
AcDbText
 10
828.8631745002927
 20
437.3123285095756
 30
0.0
 40
8.75
  1
Halterung für Attika-Haube
 41
0.8
  7
GREEKS
100
AcDbText
  0
LINE
  5
85B
330
1E
100
AcDbEntity
  8
TEXT
 62
     2
100
AcDbLine
 10
828.5314530782624
 20
433.1425181584704
 30
0.0
 11
764.3698463601422
 21
490.4212852859388
 31
0.0
  0
TEXT
  5
85C
330
1E
100
AcDbEntity
  8
TEXT
 62
     1
100
AcDbText
 10
815.898066478854
 20
399.5700437769333
 30
0.0
 40
8.75
  1
Kompressionsdichtung
 41
0.8
  7
GREEKS
100
AcDbText
  0
LINE
  5
85D
330
1E
100
AcDbEntity
  8
TEXT
 62
     2
100
AcDbLine
 10
815.5663450568237
 20
395.4002334258282
 30
0.0
 11
949.2642382964104
 21
395.4002334258281
 31
0.0
  0
TEXT
  5
85E
330
1E
100
AcDbEntity
  8
TEXT
 62
     1
100
AcDbText
 10
815.898066478854
 20
383.1369919408853
 30
0.0
 40
8.75
  1
EDV-Art.Nr. 21810.150X
 41
0.8
  7
GREEKS
100
AcDbText
  0
DIMENSION
  5
861
330
1E
100
AcDbEntity
  8
BEM
100
AcDbDimension
  2
*D2
 10
268.3075842276172
 20
654.9997144872991
 30
0.0
 11
534.8075842276172
 21
663.1247144872991
 31
0.0
 70
    32
  1
%%c<>
 71
     5
 42
533.0
  3
Standard
100
AcDbAlignedDimension
 13
801.3075842276172
 23
508.1307212052467
 33
0.0
 14
268.3075842276172
 24
508.1307212052467
 34
0.0
100
AcDbRotatedDimension
1001
ACAD
1000
DSTYLE
1002
{
1070
    40
1040
2.5
1070
    41
1040
3.5
1070
    42
1040
1.0
1070
    43
1040
7.0
1070
    44
1040
1.0
1070
    73
1070
     0
1070
    74
1070
     0
1070
    77
1070
     1
1070
    78
1070
     8
1070
    79
1070
     2
1070
   140
1040
3.5
1070
   141
1040
1.5
1070
   146
1040
0.5142857142857144
1070
   147
1040
1.5
1070
   172
1070
     1
1070
   178
1070
     1
1070
   179
1070
     2
1070
   271
1070
     2
1070
   272
1070
     2
1070
   284
1070
     8
1070
   285
1070
     8
1070
   286
1070
     8
1002
}
  0
DIMENSION
  5
862
330
1E
100
AcDbEntity
  8
BEM
100
AcDbDimension
  2
*D3
 10
294.0751695897742
 20
633.4590610798231
 30
0.0
 11
534.8075842276172
 21
641.5840610798231
 31
0.0
 70
    32
  1
%%c482
 71
     5
 42
481.4648292756863
  3
Standard
100
AcDbAlignedDimension
 13
775.5399988654605
 23
529.6307212052457
 33
0.0
 14
294.0751695897742
 24
529.6307212052465
 34
0.0
100
AcDbRotatedDimension
1001
ACAD
1000
DSTYLE
1002
{
1070
    40
1040
2.5
1070
    41
1040
3.5
1070
    42
1040
1.0
1070
    43
1040
7.0
1070
    44
1040
1.0
1070
    73
1070
     0
1070
    74
1070
     0
1070
    77
1070
     1
1070
    78
1070
     8
1070
    79
1070
     2
1070
   140
1040
3.5
1070
   141
1040
1.5
1070
   146
1040
0.5142857142857144
1070
   147
1040
1.5
1070
   172
1070
     1
1070
   178
1070
     1
1070
   179
1070
     2
1070
   271
1070
     2
1070
   272
1070
     2
1070
   284
1070
     8
1070
   285
1070
     8
1070
   286
1070
     8
1002
}
  0
DIMENSION
  5
863
330
1E
100
AcDbEntity
  8
BEM
100
AcDbDimension
  2
*D4
 10
234.7380501818093
 20
506.6307212052467
 30
0.0
 11
226.6130501818092
 21
560.6307212052468
 31
0.0
 70
    32
 71
     5
 42
107.9999999999999
  3
Standard
100
AcDbAlignedDimension
 13
379.0751695897742
 23
614.6307212052465
 33
0.0
 14
254.2392466107476
 24
506.6307212052467
 34
0.0
 50
90.0
100
AcDbRotatedDimension
1001
ACAD
1000
DSTYLE
1002
{
1070
    40
1040
2.5
1070
    41
1040
3.5
1070
    42
1040
1.0
1070
    43
1040
7.0
1070
    44
1040
1.0
1070
    73
1070
     0
1070
    74
1070
     0
1070
    77
1070
     1
1070
    78
1070
     8
1070
    79
1070
     2
1070
   140
1040
3.5
1070
   141
1040
1.5
1070
   146
1040
0.5142857142857144
1070
   147
1040
1.5
1070
   172
1070
     1
1070
   178
1070
     1
1070
   179
1070
     2
1070
   271
1070
     2
1070
   272
1070
     2
1070
   284
1070
     8
1070
   285
1070
     8
1070
   286
1070
     8
1002
}
  0
DIMENSION
  5
864
330
1E
100
AcDbEntity
  8
BEM
100
AcDbDimension
  2
*D5
 10
234.7380501818093
 20
491.6307212052467
 30
0.0
 11
226.6130501818092
 21
465.3807212052468
 31
0.0
 70
    32
 71
     5
 42
15.0
  3
Standard
100
AcDbAlignedDimension
 13
254.2392466107476
 23
506.6307212052467
 33
0.0
 14
268.3075842276173
 24
491.6307212052467
 34
0.0
 50
90.0
100
AcDbRotatedDimension
1001
ACAD
1000
DSTYLE
1002
{
1070
    40
1040
2.5
1070
    41
1040
3.5
1070
    42
1040
1.0
1070
    43
1040
7.0
1070
    44
1040
1.0
1070
    73
1070
     0
1070
    74
1070
     0
1070
    77
1070
     1
1070
    78
1070
     8
1070
    79
1070
     2
1070
   140
1040
3.5
1070
   141
1040
1.5
1070
   146
1040
0.5142857142857144
1070
   147
1040
1.5
1070
   172
1070
     1
1070
   178
1070
     1
1070
   179
1070
     2
1070
   271
1070
     2
1070
   272
1070
     2
1070
   284
1070
     8
1070
   285
1070
     8
1070
   286
1070
     8
1002
}
  0
DIMENSION
  5
865
330
1E
100
AcDbEntity
  8
BEM
100
AcDbDimension
  2
*D6
 10
369.8075842276173
 20
433.4784374415581
 30
0.0
 11
534.8075842276172
 21
441.603437441558
 31
0.0
 70
    32
  1
%%c<>
 71
     5
 42
329.9999999999998
  3
Standard
100
AcDbAlignedDimension
 13
699.8075842276171
 23
482.752041548807
 33
0.0
 14
369.8075842276173
 24
482.752041548807
 34
0.0
100
AcDbRotatedDimension
1001
ACAD
1000
DSTYLE
1002
{
1070
    40
1040
2.5
1070
    41
1040
3.5
1070
    42
1040
1.0
1070
    43
1040
7.0
1070
    44
1040
1.0
1070
    73
1070
     0
1070
    74
1070
     0
1070
    77
1070
     1
1070
    78
1070
     8
1070
    79
1070
     2
1070
   140
1040
3.5
1070
   141
1040
1.5
1070
   146
1040
0.5142857142857144
1070
   147
1040
1.5
1070
   172
1070
     1
1070
   178
1070
     1
1070
   179
1070
     2
1070
   271
1070
     2
1070
   272
1070
     2
1070
   284
1070
     8
1070
   285
1070
     8
1070
   286
1070
     8
1002
}
  0
DIMENSION
  5
866
330
1E
100
AcDbEntity
  8
BEM
100
AcDbDimension
  2
*D7
 10
349.3029734208882
 20
486.6307212052467
 30
0.0
 11
341.1779734208881
 21
346.6307212052472
 31
0.0
 70
    32
 71
     5
 42
279.9999999999994
  3
Standard
100
AcDbAlignedDimension
 13
469.794891507558
 23
206.6307212052473
 33
0.0
 14
369.807584227617
 24
486.6307212052467
 34
0.0
 50
90.0
100
AcDbRotatedDimension
1001
ACAD
1000
DSTYLE
1002
{
1070
    40
1040
2.5
1070
    41
1040
3.5
1070
    42
1040
1.0
1070
    43
1040
7.0
1070
    44
1040
1.0
1070
    73
1070
     0
1070
    74
1070
     0
1070
    77
1070
     1
1070
    78
1070
     8
1070
    79
1070
     2
1070
   140
1040
3.5
1070
   141
1040
1.5
1070
   146
1040
0.5142857142857144
1070
   147
1040
1.5
1070
   172
1070
     1
1070
   178
1070
     1
1070
   179
1070
     2
1070
   271
1070
     2
1070
   272
1070
     2
1070
   284
1070
     8
1070
   285
1070
     8
1070
   286
1070
     8
1002
}
  0
DIMENSION
  5
867
330
1E
100
AcDbEntity
  8
BEM
100
AcDbDimension
  2
*D8
 10
468.3075842276176
 20
183.4421198261941
 30
0.0
 11
534.8075842276175
 21
191.5671198261941
 31
0.0
 70
    32
  1
%%c<>
 71
     5
 42
132.9999999999999
  3
Standard
100
AcDbAlignedDimension
 13
601.3075842276175
 23
218.6307212052596
 33
0.0
 14
468.3075842276176
 24
218.6307212052474
 34
0.0
100
AcDbRotatedDimension
1001
ACAD
1000
DSTYLE
1002
{
1070
    40
1040
2.5
1070
    41
1040
3.5
1070
    42
1040
1.0
1070
    43
1040
7.0
1070
    44
1040
1.0
1070
    73
1070
     0
1070
    74
1070
     0
1070
    77
1070
     1
1070
    78
1070
     8
1070
    79
1070
     2
1070
   140
1040
3.5
1070
   141
1040
1.5
1070
   146
1040
0.5142857142857144
1070
   147
1040
1.5
1070
   172
1070
     1
1070
   178
1070
     1
1070
   179
1070
     2
1070
   271
1070
     2
1070
   272
1070
     2
1070
   284
1070
     8
1070
   285
1070
     8
1070
   286
1070
     8
1002
}
  0
DIMENSION
  5
913
330
1E
100
AcDbEntity
  8
BEM
100
AcDbDimension
  2
*D9
 10
254.2392466107476
 20
491.6307212052467
 30
0.0
 11
246.1142466107475
 21
521.6307212052468
 31
0.0
 70
    32
 71
     5
 42
60.00000000000011
  3
Standard
100
AcDbAlignedDimension
 13
341.3075842276173
 23
551.6307212052468
 33
0.0
 14
268.3075842276173
 24
491.6307212052467
 34
0.0
 50
90.0
100
AcDbRotatedDimension
1001
ACAD
1000
DSTYLE
1002
{
1070
    40
1040
2.5
1070
    41
1040
3.5
1070
    42
1040
1.0
1070
    43
1040
7.0
1070
    44
1040
1.0
1070
    73
1070
     0
1070
    74
1070
     0
1070
    77
1070
     1
1070
    78
1070
     8
1070
    79
1070
     2
1070
   140
1040
3.5
1070
   141
1040
1.5
1070
   146
1040
0.5142857142857144
1070
   147
1040
1.5
1070
   172
1070
     1
1070
   178
1070
     1
1070
   179
1070
     2
1070
   271
1070
     2
1070
   272
1070
     2
1070
   284
1070
     8
1070
   285
1070
     8
1070
   286
1070
     8
1002
}
  0
LINE
  5
93E
330
1E
100
AcDbEntity
  8
BEM
100
AcDbLine
 10
266.3075842276172
 20
506.6307212052467
 30
0.0
 11
256.2392466107476
 21
506.6307212052467
 31
0.0
  0
TEXT
  5
941
330
1E
100
AcDbEntity
  8
TEXT
100
AcDbText
 10
765.3623024866597
 20
112.0263066009689
 30
0.0
 40
5.0
  1
DIN EN1124-3
 41
0.8
  7
GREEKS
 72
     1
 11
786.6003977247548
 21
112.0263066009689
 31
0.0
100
AcDbText
  0
DIMENSION
  5
943
330
1E
100
AcDbEntity
  8
BEM
100
AcDbDimension
  2
*D10
 10
341.3075842276173
 20
567.9160207265369
 30
0.0
 11
534.8075842276172
 21
576.041020726537
 31
0.0
 70
    32
  1
%%c<>
 71
     5
 42
387.0
  3
Standard
100
AcDbAlignedDimension
 13
728.3075842276173
 23
551.6307212052466
 33
0.0
 14
341.3075842276173
 24
551.6307212052468
 34
0.0
100
AcDbRotatedDimension
1001
ACAD
1000
DSTYLE
1002
{
1070
    40
1040
2.5
1070
    41
1040
3.5
1070
    42
1040
1.0
1070
    43
1040
7.0
1070
    44
1040
1.0
1070
    73
1070
     0
1070
    74
1070
     0
1070
    77
1070
     1
1070
    78
1070
     8
1070
    79
1070
     2
1070
   140
1040
3.5
1070
   141
1040
1.5
1070
   146
1040
0.5142857142857144
1070
   147
1040
1.5
1070
   172
1070
     1
1070
   178
1070
     1
1070
   179
1070
     2
1070
   271
1070
     2
1070
   272
1070
     2
1070
   284
1070
     8
1070
   285
1070
     8
1070
   286
1070
     8
1002
}
  0
LINE
  5
962
330
1E
100
AcDbEntity
  8
MITTEL
100
AcDbLine
 10
534.8075842276174
 20
566.1572083452813
 30
0.0
 11
534.8075842276172
 21
449.3094293564906
 31
0.0
  0
TEXT
  5
96C
330
1E
100
AcDbEntity
  8
TEXT
 62
     1
100
AcDbText
 10
692.7700796935319
 20
222.3964569198427
 30
0.0
 40
8.75
  1
EDV-Art.Nr. 21981.125X
 41
0.8
  7
GREEKS
100
AcDbText
  0
LINE
  5
96D
330
1E
100
AcDbEntity
  8
TEXT
 62
     2
100
AcDbLine
 10
692.4383582715018
 20
234.6596984047856
 30
0.0
 11
826.1362515110883
 21
234.6596984047855
 31
0.0
  0
TEXT
  5
96E
330
1E
100
AcDbEntity
  8
TEXT
 62
     1
100
AcDbText
 10
692.7700796935319
 20
238.8295087558907
 30
0.0
 40
8.75
  1
Ablaufkörper DN125
 41
0.8
  7
GREEKS
100
AcDbText
  0
LINE
  5
974
330
1E
100
AcDbEntity
  8
TEXT
 62
     2
100
AcDbLine
 10
828.5314530782624
 20
554.8506747024605
 30
0.0
 11
727.6511703522819
 21
536.6642847449522
 31
0.0
  0
TEXT
  5
984
330
1E
100
AcDbEntity
  8
TEXT
 62
     1
100
AcDbText
 10
832.6909605272614
 20
541.7409604065202
 30
0.0
 40
8.75
  1
EDV-Art.Nr. 60260.000X
 41
0.8
  7
GREEKS
100
AcDbText
  0
TEXT
  5
985
330
1E
100
AcDbEntity
  8
TEXT
 62
     1
100
AcDbText
 10
832.6909605272614
 20
559.0204850535656
 30
0.0
 40
8.75
  1
Wehrbecken 60mm
 41
0.8
  7
GREEKS
100
AcDbText
  0
LINE
  5
986
330
1E
100
AcDbEntity
  8
TEXT
 62
     2
100
AcDbLine
 10
828.5314530782624
 20
554.8506747024605
 30
0.0
 11
964.6087994557923
 21
554.8506747024605
 31
0.0
  0
LINE
  5
98F
330
1E
100
AcDbEntity
  8
TEXT
 62
     2
100
AcDbLine
 10
692.4383582715018
 20
234.6596984047856
 30
0.0
 11
601.3380815585239
 21
272.2521864285782
 31
0.0
  0
LINE
  5
990
330
1E
100
AcDbEntity
  8
TEXT
 62
     2
100
AcDbLine
 10
815.5663450568239
 20
395.4002334258282
 30
0.0
 11
691.9815385793139
 21
488.2791271779386
 31
0.0
  0
HATCH
  5
9C9
330
1E
100
AcDbEntity
  8
SCHRAFF
100
AcDbHatch
 10
0.0
 20
0.0
 30
0.0
210
0.0
220
0.0
230
1.0
  2
NET
 70
     0
 71
     1
 91
        4
 92
        7
 72
     0
 73
     1
 93
        4
 10
699.8075842276172
 20
486.6307212052468
 10
699.8075842276173
 20
489.6307212052469
 10
669.8075842276174
 20
489.6307212052469
 10
669.8075842276173
 20
486.6307212052469
 97
        4
330
367
330
316
330
315
330
314
 92
        7
 72
     0
 73
     1
 93
        4
 10
629.8075842276172
 20
489.6307212052469
 10
629.8075842276173
 20
486.630721205247
 10
653.8075842276173
 20
486.6307212052471
 10
653.8075842276174
 20
489.630721205247
 97
        4
330
36B
330
313
330
315
330
317
 92
        7
 72
     0
 73
     1
 93
        4
 10
439.8075842276173
 20
486.630721205247
 10
439.8075842276173
 20
489.6307212052469
 10
415.8075842276172
 20
489.6307212052469
 10
415.8075842276172
 20
486.6307212052469
 97
        4
330
36B
330
318
330
315
330
312
 92
        7
 72
     0
 73
     1
 93
        4
 10
369.8075842276173
 20
489.630721205247
 10
369.8075842276172
 20
486.6307212052468
 10
399.8075842276173
 20
486.6307212052468
 10
399.8075842276173
 20
489.630721205247
 97
        4
330
36D
330
311
330
315
330
319
 75
     0
 76
     1
 52
45.0
 41
15.0
 77
     0
 78
     2
 53
45.0
 43
0.0
 44
0.0
 45
-1.325825214724776
 46
1.325825214724776
 79
     0
 53
135.0
 43
0.0
 44
0.0
 45
-1.325825214724776
 46
-1.325825214724776
 79
     0
 47
0.3555520101633935
 98
        4
 10
676.1942446872308
 20
487.7701701280886
 10
645.6063952451022
 20
488.8368255444045
 10
430.0687677035675
 20
488.1257219335273
 10
393.0788140921873
 20
488.8368255444045
  0
LINE
  5
A62
330
1E
100
AcDbEntity
  8
STEMPEL
100
AcDbLine
 10
375.307584227617
 20
493.1307212052468
 30
0.0
 11
401.8075842276174
 21
493.1307212052468
 31
0.0
  0
LINE
  5
A63
330
1E
100
AcDbEntity
  8
STEMPEL
100
AcDbLine
 10
400.8075842276174
 20
499.1307212052469
 30
0.0
 11
400.8075842276174
 21
493.1307212052468
 31
0.0
  0
LINE
  5
A64
330
1E
100
AcDbEntity
  8
STEMPEL
100
AcDbLine
 10
414.8075842276174
 20
499.1307212052469
 30
0.0
 11
414.8075842276174
 21
493.1307212052467
 31
0.0
  0
ARC
  5
A65
330
1E
100
AcDbEntity
  8
STEMPEL
100
AcDbCircle
 10
377.8075842276173
 20
496.1307212052469
 30
0.0
 40
3.0
100
AcDbArc
 50
90.0
 51
270.0
  0
ARC
  5
A66
330
1E
100
AcDbEntity
  8
STEMPEL
100
AcDbCircle
 10
437.8075842276174
 20
496.1307212052466
 30
0.0
 40
3.0
100
AcDbArc
 50
270.0
 51
90.0
  0
HATCH
  5
A67
330
1E
100
AcDbEntity
  8
SCHRAFF
100
AcDbHatch
 10
0.0
 20
0.0
 30
0.0
210
0.0
220
0.0
230
1.0
  2
_USER
 70
     0
 71
     0
 91
        6
 92
        7
 72
     1
 73
     1
 93
        4
 10
668.8075842276171
 20
499.1307212052469
 42
0.0
 10
668.8075842276171
 20
493.1307212052471
 42
0.0
 10
691.8075842276173
 20
493.1307212052471
 42
1.0
 10
691.8075842276173
 20
499.130721205247
 42
0.0
 97
        0
 92
        7
 72
     0
 73
     1
 93
        4
 10
654.8075842276172
 20
493.1307212052471
 10
654.8075842276172
 20
499.130721205247
 10
647.5175842276172
 20
499.1307212052469
 10
647.5175842276172
 20
493.130721205247
 97
        0
 92
        7
 72
     1
 73
     1
 93
        4
 10
647.5175842276172
 20
493.1307212052471
 42
0.0
 10
647.5175842276172
 20
499.1307212052469
 42
0.0
 10
631.8075842276173
 20
499.1307212052469
 42
1.0
 10
631.8075842276173
 20
493.1307212052471
 42
0.0
 97
        0
 92
        7
 72
     1
 73
     1
 93
        2
 10
438.0184767120855
 20
493.1381429924015
 42
0.9320082274074453
 10
438.0184767120855
 20
499.1232994180917
 42
0.0
 97
        0
 92
        7
 72
     1
 73
     1
 93
        6
 10
414.8075842276174
 20
499.1307212052465
 42
0.0
 10
414.8075842276174
 20
493.1307212052467
 42
0.0
 10
437.8075842276174
 20
493.1307212052467
 42
0.0175906946879016
 10
438.0184767120855
 20
493.1381429924017
 42
0.0
 10
438.0184767120855
 20
499.1232994180917
 42
0.017590694687906
 10
437.8075842276174
 20
499.1307212052466
 42
0.0
 97
        0
 92
        7
 72
     1
 73
     1
 93
        4
 10
400.8075842276174
 20
493.1307212052466
 42
0.0
 10
400.8075842276174
 20
499.1307212052466
 42
0.0
 10
377.8075842276173
 20
499.1307212052465
 42
1.0
 10
377.8075842276173
 20
493.1307212052466
 42
0.0
 97
        0
 75
     0
 76
     0
 52
45.0
 41
5.0
 77
     0
 78
     1
 53
45.0
 43
309.3123019070207
 44
-27.51603775782547
 45
-3.535533905932737
 46
3.535533905932737
 79
     0
 47
0.4992078678260896
 98
        6
 10
676.1095151941198
 20
496.3606101257089
 10
651.6400309406389
 20
495.8614021033669
 10
638.1568448717342
 20
495.8614021033669
 10
439.4046976159155
 20
496.3606101257089
 10
432.4134174573397
 20
496.3606101257089
 10
390.9651052064333
 20
495.8614021033669
  0
POINT
  5
A68
330
1E
100
AcDbEntity
  8
0
100
AcDbPoint
 10
407.8075842276175
 20
499.1307212052465
 30
0.0
210
0.0000000000000001
220
1.0
230
0.0
  0
LINE
  5
A69
330
1E
100
AcDbEntity
  8
STEMPEL
100
AcDbLine
 10
418.2140993351117
 20
500.5854906708359
 30
0.0
 11
397.4010691201232
 21
500.5854906708359
 31
0.0
  0
LINE
  5
A6A
330
1E
100
AcDbEntity
  8
STEMPEL
100
AcDbLine
 10
417.9575842276174
 20
499.1307212052465
 30
0.0
 11
397.6575842276175
 21
499.1307212052465
 31
0.0
  0
LINE
  5
A6B
330
1E
100
AcDbEntity
  8
STEMPEL
100
AcDbLine
 10
418.2140993351117
 20
500.5854906708359
 30
0.0
 11
416.4678382654618
 21
501.2210777214463
 31
0.0
  0
LINE
  5
A6C
330
1E
100
AcDbEntity
  8
STEMPEL
100
AcDbLine
 10
399.1473301897731
 20
501.2210777214463
 30
0.0
 11
397.4010691201233
 21
500.5854906708359
 31
0.0
  0
ARC
  5
A6D
330
1E
100
AcDbEntity
  8
STEMPEL
100
AcDbCircle
 10
397.6575842276175
 20
499.8807212052465
 30
0.0
 40
0.7500000000000013
100
AcDbArc
 50
109.9999999999964
 51
269.9999991462263
  0
ARC
  5
A6E
330
1E
100
AcDbEntity
  8
STEMPEL
100
AcDbCircle
 10
417.9575842276174
 20
499.8807212052465
 30
0.0
 40
0.750000000000001
100
AcDbArc
 50
269.9999991462263
 51
70.00000000000354
  0
LINE
  5
A6F
330
1E
100
AcDbEntity
  8
STEMPEL
100
AcDbLine
 10
377.8075842276173
 20
499.1307212052465
 30
0.0
 11
691.8075842276173
 21
499.130721205247
 31
0.0
  0
LINE
  5
A70
330
1E
100
AcDbEntity
  8
HILF
100
AcDbLine
 10
403.8075842276175
 20
499.1307212052465
 30
0.0
 11
403.8075842276175
 21
486.6307212052469
 31
0.0
  0
LINE
  5
A71
330
1E
100
AcDbEntity
  8
STEMPEL
100
AcDbLine
 10
402.8075842276176
 20
499.1307212052465
 30
0.0
 11
402.8075842276176
 21
486.6307212052469
 31
0.0
  0
LINE
  5
A72
330
1E
100
AcDbEntity
  8
MITTEL
100
AcDbLine
 10
407.8075842276176
 20
516.6307212052469
 30
0.0
 11
407.8075842276175
 21
488.1307212052471
 31
0.0
  0
LINE
  5
A73
330
1E
100
AcDbEntity
  8
STEMPEL
100
AcDbLine
 10
412.8075842276175
 20
499.1307212052465
 30
0.0
 11
412.8075842276175
 21
486.6307212052469
 31
0.0
  0
LINE
  5
A74
330
1E
100
AcDbEntity
  8
HILF
100
AcDbLine
 10
411.8075842276176
 20
499.1307212052465
 30
0.0
 11
411.8075842276176
 21
486.6307212052469
 31
0.0
  0
ARC
  5
A75
330
1E
100
AcDbEntity
  8
HILF
100
AcDbCircle
 10
407.8075842276175
 20
479.2322601575853
 30
0.0
 40
22.41111549782308
100
AcDbArc
 50
78.85962783890775
 51
101.1403721610922
  0
ARC
  5
A76
330
1E
100
AcDbEntity
  8
HILF
100
AcDbCircle
 10
414.3027747560008
 20
495.8822350557168
 30
0.0
 40
5.761140599691502
100
AcDbArc
 50
67.92594526325932
 51
112.0740547367407
  0
ARC
  5
A77
330
1E
100
AcDbEntity
  8
HILF
100
AcDbCircle
 10
401.3123936992342
 20
495.8822350557168
 30
0.0
 40
5.761140599691502
100
AcDbArc
 50
67.92594526325932
 51
112.0740547367407
  0
LINE
  5
A78
330
1E
100
AcDbEntity
  8
STEMPEL
100
AcDbLine
 10
416.4678382654618
 20
501.2210777214463
 30
0.0
 11
416.4678382654618
 21
508.8198320727911
 31
0.0
  0
LINE
  5
A79
330
1E
100
AcDbEntity
  8
STEMPEL
100
AcDbLine
 10
412.1377112465396
 20
501.2210777214463
 30
0.0
 11
412.1377112465396
 21
508.8198320727911
 31
0.0
  0
LINE
  5
A7A
330
1E
100
AcDbEntity
  8
STEMPEL
100
AcDbLine
 10
403.4774572086952
 20
501.2210777214463
 30
0.0
 11
403.4774572086952
 21
508.8198320727911
 31
0.0
  0
LINE
  5
A7B
330
1E
100
AcDbEntity
  8
STEMPEL
100
AcDbLine
 10
399.1473301897731
 20
501.2210777214463
 30
0.0
 11
399.1473301897731
 21
508.8198320727911
 31
0.0
  0
ARC
  5
A7C
330
1E
100
AcDbEntity
  8
STEMPEL
100
AcDbCircle
 10
450.676333936659
 20
504.1307212052463
 30
0.0
 40
5.0
100
AcDbArc
 50
181.0000000000017
 51
270.0
  0
ARC
  5
A7D
330
1E
100
AcDbEntity
  8
STEMPEL
100
AcDbCircle
 10
425.360619487512
 20
504.130721205246
 30
0.0
 40
5.0
100
AcDbArc
 50
270.0
 51
358.9999999999982
  0
LINE
  5
A7E
330
1E
100
AcDbEntity
  8
STEMPEL
100
AcDbLine
 10
445.6850765247419
 20
503.5862243304731
 30
0.0
 11
445.5184767120855
 21
513.1307212052463
 31
0.0
  0
LINE
  5
A7F
330
1E
100
AcDbEntity
  8
MITTEL
100
AcDbLine
 10
438.0184767120855
 20
518.1307212052463
 30
0.0
 11
438.0184767120855
 21
488.1307212052467
 31
0.0
  0
LINE
  5
A80
330
1E
100
AcDbEntity
  8
STEMPEL
100
AcDbLine
 10
430.359857963294
 20
504.0434591730597
 30
0.0
 11
430.5184767120855
 21
513.1307212052463
 31
0.0
  0
LINE
  5
A81
330
1E
100
AcDbEntity
  8
STEMPEL
100
AcDbLine
 10
445.5184767120855
 20
513.1307212052463
 30
0.0
 11
430.5184767120855
 21
513.1307212052463
 31
0.0
  0
ARC
  5
A82
330
1E
100
AcDbEntity
  8
STEMPEL
100
AcDbCircle
 10
401.3123936992342
 20
501.4364154974621
 30
0.0
 40
7.694305707784447
100
AcDbArc
 50
73.65710669401345
 51
106.3428933059865
  0
ARC
  5
A83
330
1E
100
AcDbEntity
  8
STEMPEL
100
AcDbCircle
 10
414.3027747560008
 20
501.4364154974621
 30
0.0
 40
7.694305707784447
100
AcDbArc
 50
73.65710669401345
 51
106.3428933059865
  0
LINE
  5
A84
330
1E
100
AcDbEntity
  8
STEMPEL
100
AcDbLine
 10
400.3075842276174
 20
509.1307212052464
 30
0.0
 11
415.3075842276175
 21
509.1307212052464
 31
0.0
  0
LINE
  5
A85
330
1E
100
AcDbEntity
  8
STEMPEL
100
AcDbLine
 10
400.3075842276174
 20
509.1307212052464
 30
0.0
 11
399.1473301897731
 21
508.8198320727911
 31
0.0
  0
LINE
  5
A86
330
1E
100
AcDbEntity
  8
STEMPEL
100
AcDbLine
 10
416.4678382654618
 20
508.8198320727911
 30
0.0
 11
415.3075842276175
 21
509.1307212052464
 31
0.0
  0
ARC
  5
A87
330
1E
100
AcDbEntity
  8
STEMPEL
100
AcDbCircle
 10
407.8075842276175
 20
478.8198320727916
 30
0.0
 40
30.31088913245485
100
AcDbArc
 50
81.7867892982638
 51
98.21321070173619
  0
LINE
  5
A88
330
1E
100
AcDbEntity
  8
STEMPEL
100
AcDbLine
 10
411.8075842276178
 20
511.6307212052469
 30
0.0
 11
403.8075842276178
 21
511.6307212052469
 31
0.0
  0
LINE
  5
A89
330
1E
100
AcDbEntity
  8
STEMPEL
100
AcDbLine
 10
412.8075842276178
 20
510.6307212052469
 30
0.0
 11
411.8075842276178
 21
511.6307212052469
 31
0.0
  0
LINE
  5
A8A
330
1E
100
AcDbEntity
  8
STEMPEL
100
AcDbLine
 10
412.8075842276178
 20
510.6307212052469
 30
0.0
 11
402.8075842276178
 21
510.6307212052469
 31
0.0
  0
LINE
  5
A8B
330
1E
100
AcDbEntity
  8
HILF
100
AcDbLine
 10
411.8075842276178
 20
511.6307212052469
 30
0.0
 11
411.8075842276176
 21
509.1307212052464
 31
0.0
  0
LINE
  5
A8C
330
1E
100
AcDbEntity
  8
STEMPEL
100
AcDbLine
 10
412.8075842276178
 20
510.6307212052469
 30
0.0
 11
412.8075842276175
 21
509.1307212052464
 31
0.0
  0
LINE
  5
A8D
330
1E
100
AcDbEntity
  8
STEMPEL
100
AcDbLine
 10
403.8075842276178
 20
511.6307212052469
 30
0.0
 11
402.8075842276178
 21
510.6307212052469
 31
0.0
  0
LINE
  5
A8E
330
1E
100
AcDbEntity
  8
HILF
100
AcDbLine
 10
403.8075842276178
 20
511.6307212052469
 30
0.0
 11
403.8075842276175
 21
509.1307212052464
 31
0.0
  0
LINE
  5
A8F
330
1E
100
AcDbEntity
  8
STEMPEL
100
AcDbLine
 10
402.8075842276178
 20
510.6307212052469
 30
0.0
 11
402.8075842276175
 21
509.1307212052464
 31
0.0
  0
LINE
  5
A90
330
1E
100
AcDbEntity
  8
MITTEL
100
AcDbLine
 10
471.3075842276174
 20
516.6307212052469
 30
0.0
 11
471.3075842276174
 21
486.630721205247
 31
0.0
  0
LINE
  5
A91
330
1E
100
AcDbEntity
  8
STEMPEL
100
AcDbLine
 10
481.7140993351118
 20
500.5854906708361
 30
0.0
 11
460.9010691201232
 21
500.5854906708361
 31
0.0
  0
LINE
  5
A92
330
1E
100
AcDbEntity
  8
STEMPEL
100
AcDbLine
 10
481.4575842276174
 20
499.1307212052466
 30
0.0
 11
461.1575842276175
 21
499.1307212052466
 31
0.0
  0
LINE
  5
A93
330
1E
100
AcDbEntity
  8
STEMPEL
100
AcDbLine
 10
481.7140993351118
 20
500.5854906708361
 30
0.0
 11
479.9678382654618
 21
501.2210777214465
 31
0.0
  0
LINE
  5
A94
330
1E
100
AcDbEntity
  8
STEMPEL
100
AcDbLine
 10
466.3075842276175
 20
510.6307212052469
 30
0.0
 11
466.3075842276175
 21
509.1307212052466
 31
0.0
  0
LINE
  5
A95
330
1E
100
AcDbEntity
  8
HILF
100
AcDbLine
 10
467.3075842276175
 20
511.6307212052469
 30
0.0
 11
467.3075842276175
 21
509.1307212052466
 31
0.0
  0
LINE
  5
A96
330
1E
100
AcDbEntity
  8
STEMPEL
100
AcDbLine
 10
467.3075842276175
 20
511.6307212052469
 30
0.0
 11
466.3075842276175
 21
510.6307212052469
 31
0.0
  0
LINE
  5
A97
330
1E
100
AcDbEntity
  8
STEMPEL
100
AcDbLine
 10
476.3075842276175
 20
510.6307212052469
 30
0.0
 11
476.3075842276176
 21
509.1307212052466
 31
0.0
  0
LINE
  5
A98
330
1E
100
AcDbEntity
  8
HILF
100
AcDbLine
 10
475.3075842276175
 20
511.6307212052469
 30
0.0
 11
475.3075842276175
 21
509.1307212052466
 31
0.0
  0
LINE
  5
A99
330
1E
100
AcDbEntity
  8
STEMPEL
100
AcDbLine
 10
476.3075842276175
 20
510.6307212052469
 30
0.0
 11
466.3075842276175
 21
510.6307212052469
 31
0.0
  0
LINE
  5
A9A
330
1E
100
AcDbEntity
  8
STEMPEL
100
AcDbLine
 10
476.3075842276175
 20
510.6307212052469
 30
0.0
 11
475.3075842276175
 21
511.6307212052469
 31
0.0
  0
LINE
  5
A9B
330
1E
100
AcDbEntity
  8
STEMPEL
100
AcDbLine
 10
475.3075842276175
 20
511.6307212052469
 30
0.0
 11
467.3075842276175
 21
511.6307212052469
 31
0.0
  0
ARC
  5
A9C
330
1E
100
AcDbEntity
  8
STEMPEL
100
AcDbCircle
 10
471.3075842276174
 20
478.8198320727917
 30
0.0
 40
30.31088913245485
100
AcDbArc
 50
81.7867892982638
 51
98.21321070173619
  0
ARC
  5
A9D
330
1E
100
AcDbEntity
  8
STEMPEL
100
AcDbCircle
 10
464.8123936992342
 20
501.4364154974622
 30
0.0
 40
7.694305707784447
100
AcDbArc
 50
73.65710669401345
 51
106.3428933059865
  0
ARC
  5
A9E
330
1E
100
AcDbEntity
  8
STEMPEL
100
AcDbCircle
 10
477.8027747560008
 20
501.4364154974622
 30
0.0
 40
7.694305707784447
100
AcDbArc
 50
73.65710669401345
 51
106.3428933059865
  0
ARC
  5
A9F
330
1E
100
AcDbEntity
  8
HILF
100
AcDbCircle
 10
471.3075842276174
 20
479.2322601575854
 30
0.0
 40
22.41111549782308
100
AcDbArc
 50
78.85962783890775
 51
101.1403721610922
  0
ARC
  5
AA0
330
1E
100
AcDbEntity
  8
HILF
100
AcDbCircle
 10
477.8027747560008
 20
495.8822350557169
 30
0.0
 40
5.761140599691502
100
AcDbArc
 50
67.92594526325932
 51
112.0740547367407
  0
ARC
  5
AA1
330
1E
100
AcDbEntity
  8
HILF
100
AcDbCircle
 10
464.8123936992342
 20
495.8822350557169
 30
0.0
 40
5.761140599691502
100
AcDbArc
 50
67.92594526325932
 51
112.0740547367407
  0
POINT
  5
AA2
330
1E
100
AcDbEntity
  8
0
100
AcDbPoint
 10
471.3075842276174
 20
499.1307212052466
 30
0.0
210
0.0000000000000001
220
1.0
230
0.0
  0
LINE
  5
AA3
330
1E
100
AcDbEntity
  8
STEMPEL
100
AcDbLine
 10
463.8075842276174
 20
509.1307212052466
 30
0.0
 11
478.8075842276175
 21
509.1307212052466
 31
0.0
  0
LINE
  5
AA4
330
1E
100
AcDbEntity
  8
STEMPEL
100
AcDbLine
 10
479.9678382654618
 20
501.2210777214465
 30
0.0
 11
479.9678382654618
 21
508.8198320727912
 31
0.0
  0
LINE
  5
AA5
330
1E
100
AcDbEntity
  8
STEMPEL
100
AcDbLine
 10
475.6377112465397
 20
501.2210777214465
 30
0.0
 11
475.6377112465397
 21
508.8198320727912
 31
0.0
  0
LINE
  5
AA6
330
1E
100
AcDbEntity
  8
STEMPEL
100
AcDbLine
 10
466.9774572086953
 20
501.2210777214465
 30
0.0
 11
466.9774572086953
 21
508.8198320727912
 31
0.0
  0
LINE
  5
AA7
330
1E
100
AcDbEntity
  8
STEMPEL
100
AcDbLine
 10
462.6473301897731
 20
501.2210777214465
 30
0.0
 11
462.6473301897731
 21
508.8198320727912
 31
0.0
  0
LINE
  5
AA8
330
1E
100
AcDbEntity
  8
STEMPEL
100
AcDbLine
 10
463.8075842276174
 20
509.1307212052466
 30
0.0
 11
462.6473301897731
 21
508.8198320727912
 31
0.0
  0
LINE
  5
AA9
330
1E
100
AcDbEntity
  8
STEMPEL
100
AcDbLine
 10
479.9678382654618
 20
508.8198320727912
 30
0.0
 11
478.8075842276175
 21
509.1307212052466
 31
0.0
  0
LINE
  5
AAA
330
1E
100
AcDbEntity
  8
STEMPEL
100
AcDbLine
 10
462.6473301897731
 20
501.2210777214465
 30
0.0
 11
460.9010691201232
 21
500.5854906708361
 31
0.0
  0
ARC
  5
AAB
330
1E
100
AcDbEntity
  8
STEMPEL
100
AcDbCircle
 10
461.1575842276175
 20
499.8807212052466
 30
0.0
 40
0.7500000000000013
100
AcDbArc
 50
109.9999999999964
 51
269.9999991462263
  0
ARC
  5
AAC
330
1E
100
AcDbEntity
  8
STEMPEL
100
AcDbCircle
 10
481.4575842276174
 20
499.8807212052466
 30
0.0
 40
0.750000000000001
100
AcDbArc
 50
269.9999991462263
 51
70.00000000000354
  0
LINE
  5
AAD
330
1E
100
AcDbEntity
  8
STEMPEL
100
AcDbLine
 10
602.3075842276173
 20
511.6307212052469
 30
0.0
 11
594.3075842276173
 21
511.6307212052469
 31
0.0
  0
LINE
  5
AAE
330
1E
100
AcDbEntity
  8
STEMPEL
100
AcDbLine
 10
603.3075842276173
 20
510.6307212052469
 30
0.0
 11
602.3075842276173
 21
511.6307212052469
 31
0.0
  0
LINE
  5
AAF
330
1E
100
AcDbEntity
  8
STEMPEL
100
AcDbLine
 10
603.3075842276173
 20
510.6307212052469
 30
0.0
 11
593.3075842276173
 21
510.6307212052469
 31
0.0
  0
LINE
  5
AB0
330
1E
100
AcDbEntity
  8
HILF
100
AcDbLine
 10
602.3075842276173
 20
511.6307212052469
 30
0.0
 11
602.3075842276171
 21
509.1307212052469
 31
0.0
  0
LINE
  5
AB1
330
1E
100
AcDbEntity
  8
STEMPEL
100
AcDbLine
 10
603.3075842276173
 20
510.6307212052469
 30
0.0
 11
603.3075842276173
 21
509.1307212052471
 31
0.0
  0
LINE
  5
AB2
330
1E
100
AcDbEntity
  8
STEMPEL
100
AcDbLine
 10
594.3075842276173
 20
511.6307212052469
 30
0.0
 11
593.3075842276173
 21
510.6307212052469
 31
0.0
  0
LINE
  5
AB3
330
1E
100
AcDbEntity
  8
HILF
100
AcDbLine
 10
594.3075842276173
 20
511.6307212052469
 30
0.0
 11
594.3075842276173
 21
509.1307212052469
 31
0.0
  0
LINE
  5
AB4
330
1E
100
AcDbEntity
  8
STEMPEL
100
AcDbLine
 10
593.3075842276173
 20
510.6307212052469
 30
0.0
 11
593.3075842276173
 21
509.1307212052469
 31
0.0
  0
ARC
  5
AB5
330
1E
100
AcDbEntity
  8
STEMPEL
100
AcDbCircle
 10
598.3075842276171
 20
478.8198320727921
 30
0.0
 40
30.31088913245485
100
AcDbArc
 50
81.7867892982638
 51
98.21321070173619
  0
ARC
  5
AB6
330
1E
100
AcDbEntity
  8
STEMPEL
100
AcDbCircle
 10
604.8027747560005
 20
501.4364154974625
 30
0.0
 40
7.694305707784447
100
AcDbArc
 50
73.65710669401345
 51
106.3428933059865
  0
LINE
  5
AB7
330
1E
100
AcDbEntity
  8
STEMPEL
100
AcDbLine
 10
606.9678382654616
 20
508.8198320727916
 30
0.0
 11
605.8075842276172
 21
509.1307212052469
 31
0.0
  0
POINT
  5
AB8
330
1E
100
AcDbEntity
  8
0
100
AcDbPoint
 10
598.3075842276171
 20
499.1307212052469
 30
0.0
210
0.0000000000000001
220
1.0
230
0.0
  0
ARC
  5
AB9
330
1E
100
AcDbEntity
  8
STEMPEL
100
AcDbCircle
 10
608.4575842276172
 20
499.880721205247
 30
0.0
 40
0.750000000000001
100
AcDbArc
 50
269.9999991462263
 51
70.00000000000354
  0
ARC
  5
ABA
330
1E
100
AcDbEntity
  8
STEMPEL
100
AcDbCircle
 10
591.8123936992339
 20
501.4364154974625
 30
0.0
 40
7.694305707784447
100
AcDbArc
 50
73.65710669401345
 51
106.3428933059865
  0
ARC
  5
ABB
330
1E
100
AcDbEntity
  8
HILF
100
AcDbCircle
 10
598.3075842276171
 20
479.2322601575857
 30
0.0
 40
22.41111549782308
100
AcDbArc
 50
78.85962783890775
 51
101.1403721610922
  0
ARC
  5
ABC
330
1E
100
AcDbEntity
  8
HILF
100
AcDbCircle
 10
604.8027747560005
 20
495.8822350557173
 30
0.0
 40
5.761140599691502
100
AcDbArc
 50
67.92594526325932
 51
112.0740547367407
  0
ARC
  5
ABD
330
1E
100
AcDbEntity
  8
HILF
100
AcDbCircle
 10
591.8123936992339
 20
495.8822350557173
 30
0.0
 40
5.761140599691502
100
AcDbArc
 50
67.92594526325932
 51
112.0740547367407
  0
LINE
  5
ABE
330
1E
100
AcDbEntity
  8
STEMPEL
100
AcDbLine
 10
606.9678382654616
 20
501.2210777214467
 30
0.0
 11
606.9678382654616
 21
508.8198320727916
 31
0.0
  0
LINE
  5
ABF
330
1E
100
AcDbEntity
  8
STEMPEL
100
AcDbLine
 10
602.6377112465394
 20
501.2210777214467
 30
0.0
 11
602.6377112465394
 21
508.8198320727916
 31
0.0
  0
LINE
  5
AC0
330
1E
100
AcDbEntity
  8
STEMPEL
100
AcDbLine
 10
593.977457208695
 20
501.2210777214467
 30
0.0
 11
593.977457208695
 21
508.8198320727916
 31
0.0
  0
LINE
  5
AC1
330
1E
100
AcDbEntity
  8
STEMPEL
100
AcDbLine
 10
589.6473301897727
 20
501.2210777214467
 30
0.0
 11
589.6473301897727
 21
508.8198320727916
 31
0.0
  0
LINE
  5
AC2
330
1E
100
AcDbEntity
  8
STEMPEL
100
AcDbLine
 10
590.8075842276172
 20
509.1307212052469
 30
0.0
 11
589.6473301897727
 21
508.8198320727916
 31
0.0
  0
LINE
  5
AC3
330
1E
100
AcDbEntity
  8
STEMPEL
100
AcDbLine
 10
608.7140993351114
 20
500.5854906708363
 30
0.0
 11
606.9678382654616
 21
501.2210777214467
 31
0.0
  0
LINE
  5
AC4
330
1E
100
AcDbEntity
  8
STEMPEL
100
AcDbLine
 10
590.8075842276172
 20
509.1307212052469
 30
0.0
 11
605.8075842276172
 21
509.1307212052469
 31
0.0
  0
LINE
  5
AC5
330
1E
100
AcDbEntity
  8
STEMPEL
100
AcDbLine
 10
608.7140993351114
 20
500.5854906708363
 30
0.0
 11
587.9010691201229
 21
500.5854906708363
 31
0.0
  0
LINE
  5
AC6
330
1E
100
AcDbEntity
  8
STEMPEL
100
AcDbLine
 10
608.4575842276172
 20
499.1307212052469
 30
0.0
 11
588.1575842276172
 21
499.1307212052469
 31
0.0
  0
LINE
  5
AC7
330
1E
100
AcDbEntity
  8
STEMPEL
100
AcDbLine
 10
589.6473301897727
 20
501.2210777214467
 30
0.0
 11
587.9010691201229
 21
500.5854906708363
 31
0.0
  0
ARC
  5
AC8
330
1E
100
AcDbEntity
  8
STEMPEL
100
AcDbCircle
 10
588.1575842276172
 20
499.880721205247
 30
0.0
 40
0.7500000000000013
100
AcDbArc
 50
109.9999999999964
 51
269.9999991462263
  0
LINE
  5
AC9
330
1E
100
AcDbEntity
  8
MITTEL
100
AcDbLine
 10
598.3075842276171
 20
516.6307212052469
 30
0.0
 11
598.3075842276171
 21
486.6307212052469
 31
0.0
  0
LINE
  5
ACA
330
1E
100
AcDbEntity
  8
STEMPEL
100
AcDbLine
 10
666.8075842276172
 20
493.130721205247
 30
0.0
 11
694.3075842276177
 21
493.130721205247
 31
0.0
  0
ARC
  5
ACB
330
1E
100
AcDbEntity
  8
STEMPEL
100
AcDbCircle
 10
691.8075842276173
 20
496.1307212052469
 30
0.0
 40
3.0
100
AcDbArc
 50
270.0
 51
90.0
  0
ARC
  5
ACC
330
1E
100
AcDbEntity
  8
STEMPEL
100
AcDbCircle
 10
631.8075842276173
 20
496.1307212052468
 30
0.0
 40
3.0
100
AcDbArc
 50
90.0
 51
270.0
  0
LINE
  5
ACD
330
1E
100
AcDbEntity
  8
STEMPEL
100
AcDbLine
 10
654.8075842276172
 20
499.1307212052469
 30
0.0
 11
654.8075842276172
 21
493.1307212052467
 31
0.0
  0
LINE
  5
ACE
330
1E
100
AcDbEntity
  8
STEMPEL
100
AcDbLine
 10
668.8075842276171
 20
499.1307212052469
 30
0.0
 11
668.8075842276171
 21
493.1307212052468
 31
0.0
  0
POINT
  5
ACF
330
1E
100
AcDbEntity
  8
0
100
AcDbPoint
 10
661.8075842276174
 20
499.130721205247
 30
0.0
210
0.0000000000000001
220
1.0
230
0.0
  0
LINE
  5
AD0
330
1E
100
AcDbEntity
  8
STEMPEL
100
AcDbLine
 10
672.2140993351116
 20
500.5854906708365
 30
0.0
 11
651.4010691201232
 21
500.5854906708365
 31
0.0
  0
LINE
  5
AD1
330
1E
100
AcDbEntity
  8
STEMPEL
100
AcDbLine
 10
671.9575842276173
 20
499.130721205247
 30
0.0
 11
651.6575842276174
 21
499.130721205247
 31
0.0
  0
LINE
  5
AD2
330
1E
100
AcDbEntity
  8
STEMPEL
100
AcDbLine
 10
672.2140993351116
 20
500.5854906708365
 30
0.0
 11
670.4678382654618
 21
501.221077721447
 31
0.0
  0
LINE
  5
AD3
330
1E
100
AcDbEntity
  8
STEMPEL
100
AcDbLine
 10
653.147330189773
 20
501.221077721447
 30
0.0
 11
651.4010691201232
 21
500.5854906708365
 31
0.0
  0
ARC
  5
AD4
330
1E
100
AcDbEntity
  8
STEMPEL
100
AcDbCircle
 10
651.6575842276174
 20
499.880721205247
 30
0.0
 40
0.7500000000000013
100
AcDbArc
 50
109.9999999999964
 51
269.9999991462263
  0
ARC
  5
AD5
330
1E
100
AcDbEntity
  8
STEMPEL
100
AcDbCircle
 10
671.9575842276173
 20
499.880721205247
 30
0.0
 40
0.750000000000001
100
AcDbArc
 50
269.9999991462263
 51
70.00000000000354
  0
LINE
  5
AD6
330
1E
100
AcDbEntity
  8
MITTEL
100
AcDbLine
 10
661.8075842276173
 20
516.630721205247
 30
0.0
 11
661.8075842276174
 21
486.630721205247
 31
0.0
  0
LINE
  5
AD7
330
1E
100
AcDbEntity
  8
HILF
100
AcDbLine
 10
657.8075842276176
 20
499.1307212052472
 30
0.0
 11
657.8075842276174
 21
486.630721205247
 31
0.0
  0
LINE
  5
AD8
330
1E
100
AcDbEntity
  8
STEMPEL
100
AcDbLine
 10
656.8075842276175
 20
499.130721205247
 30
0.0
 11
656.8075842276174
 21
486.630721205247
 31
0.0
  0
LINE
  5
AD9
330
1E
100
AcDbEntity
  8
HILF
100
AcDbLine
 10
665.8075842276174
 20
499.1307212052472
 30
0.0
 11
665.8075842276174
 21
486.630721205247
 31
0.0
  0
LINE
  5
ADA
330
1E
100
AcDbEntity
  8
STEMPEL
100
AcDbLine
 10
666.8075842276174
 20
499.130721205247
 30
0.0
 11
666.8075842276174
 21
486.630721205247
 31
0.0
  0
LINE
  5
ADB
330
1E
100
AcDbEntity
  8
MITTEL
100
AcDbLine
 10
647.5175842276172
 20
518.1307212052465
 30
0.0
 11
647.5175842276172
 21
488.1307212052471
 31
0.0
  0
ARC
  5
ADC
330
1E
100
AcDbEntity
  8
STEMPEL
100
AcDbCircle
 10
634.8597270030437
 20
504.1307212052464
 30
0.0
 40
5.0
100
AcDbArc
 50
270.0
 51
358.9999999999982
  0
LINE
  5
ADD
330
1E
100
AcDbEntity
  8
STEMPEL
100
AcDbLine
 10
639.8589654788257
 20
504.04345917306
 30
0.0
 11
640.0175842276172
 21
513.1307212052465
 31
0.0
  0
LINE
  5
ADE
330
1E
100
AcDbEntity
  8
STEMPEL
100
AcDbLine
 10
655.0175842276172
 20
513.1307212052465
 30
0.0
 11
640.0175842276172
 21
513.1307212052465
 31
0.0
  0
LINE
  5
ADF
330
1E
100
AcDbEntity
  8
STEMPEL
100
AcDbLine
 10
655.08740448733
 20
509.1307212052471
 30
0.0
 11
655.0175842276173
 21
513.1307212052465
 31
0.0
  0
ARC
  5
AE0
330
1E
100
AcDbEntity
  8
STEMPEL
100
AcDbCircle
 10
661.8075842276174
 20
478.8198320727921
 30
0.0
 40
30.31088913245485
100
AcDbArc
 50
81.7867892982638
 51
98.21321070173619
  0
ARC
  5
AE1
330
1E
100
AcDbEntity
  8
STEMPEL
100
AcDbCircle
 10
655.3123936992341
 20
501.4364154974626
 30
0.0
 40
7.694305707784447
100
AcDbArc
 50
73.65710669401345
 51
106.3428933059865
  0
ARC
  5
AE2
330
1E
100
AcDbEntity
  8
STEMPEL
100
AcDbCircle
 10
668.3027747560007
 20
501.4364154974626
 30
0.0
 40
7.694305707784447
100
AcDbArc
 50
73.65710669401345
 51
106.3428933059865
  0
LINE
  5
AE3
330
1E
100
AcDbEntity
  8
STEMPEL
100
AcDbLine
 10
654.3075842276174
 20
509.1307212052471
 30
0.0
 11
669.3075842276174
 21
509.1307212052471
 31
0.0
  0
LINE
  5
AE4
330
1E
100
AcDbEntity
  8
STEMPEL
100
AcDbLine
 10
670.4678382654618
 20
501.221077721447
 30
0.0
 11
670.4678382654618
 21
508.8198320727917
 31
0.0
  0
LINE
  5
AE5
330
1E
100
AcDbEntity
  8
STEMPEL
100
AcDbLine
 10
653.147330189773
 20
501.221077721447
 30
0.0
 11
653.147330189773
 21
508.8198320727917
 31
0.0
  0
LINE
  5
AE6
330
1E
100
AcDbEntity
  8
STEMPEL
100
AcDbLine
 10
654.3075842276174
 20
509.1307212052471
 30
0.0
 11
653.147330189773
 21
508.8198320727917
 31
0.0
  0
LINE
  5
AE7
330
1E
100
AcDbEntity
  8
STEMPEL
100
AcDbLine
 10
670.4678382654618
 20
508.8198320727917
 30
0.0
 11
669.3075842276174
 21
509.1307212052471
 31
0.0
  0
LINE
  5
AE8
330
1E
100
AcDbEntity
  8
STEMPEL
100
AcDbLine
 10
666.1377112465396
 20
501.221077721447
 30
0.0
 11
666.1377112465396
 21
508.8198320727917
 31
0.0
  0
LINE
  5
AE9
330
1E
100
AcDbEntity
  8
STEMPEL
100
AcDbLine
 10
657.4774572086952
 20
501.221077721447
 30
0.0
 11
657.4774572086952
 21
508.8198320727917
 31
0.0
  0
ARC
  5
AEA
330
1E
100
AcDbEntity
  8
HILF
100
AcDbCircle
 10
661.8075842276174
 20
479.2322601575858
 30
0.0
 40
22.41111549782308
100
AcDbArc
 50
78.85962783890775
 51
101.1403721610922
  0
ARC
  5
AEB
330
1E
100
AcDbEntity
  8
HILF
100
AcDbCircle
 10
668.3027747560007
 20
495.8822350557174
 30
0.0
 40
5.761140599691502
100
AcDbArc
 50
67.92594526325932
 51
112.0740547367407
  0
ARC
  5
AEC
330
1E
100
AcDbEntity
  8
HILF
100
AcDbCircle
 10
655.3123936992341
 20
495.8822350557174
 30
0.0
 40
5.761140599691502
100
AcDbArc
 50
67.92594526325932
 51
112.0740547367407
  0
LINE
  5
AED
330
1E
100
AcDbEntity
  8
STEMPEL
100
AcDbLine
 10
666.8075842276174
 20
510.6307212052469
 30
0.0
 11
666.8075842276174
 21
509.1307212052471
 31
0.0
  0
LINE
  5
AEE
330
1E
100
AcDbEntity
  8
HILF
100
AcDbLine
 10
657.8075842276174
 20
511.6307212052469
 30
0.0
 11
657.8075842276174
 21
509.1307212052471
 31
0.0
  0
LINE
  5
AEF
330
1E
100
AcDbEntity
  8
STEMPEL
100
AcDbLine
 10
656.8075842276174
 20
510.6307212052469
 30
0.0
 11
656.8075842276174
 21
509.1307212052471
 31
0.0
  0
LINE
  5
AF0
330
1E
100
AcDbEntity
  8
HILF
100
AcDbLine
 10
665.8075842276174
 20
511.6307212052469
 30
0.0
 11
665.8075842276174
 21
509.1307212052471
 31
0.0
  0
LINE
  5
AF1
330
1E
100
AcDbEntity
  8
STEMPEL
100
AcDbLine
 10
666.8075842276174
 20
510.6307212052469
 30
0.0
 11
656.8075842276174
 21
510.6307212052469
 31
0.0
  0
LINE
  5
AF2
330
1E
100
AcDbEntity
  8
STEMPEL
100
AcDbLine
 10
666.8075842276174
 20
510.6307212052469
 30
0.0
 11
665.8075842276174
 21
511.6307212052469
 31
0.0
  0
LINE
  5
AF3
330
1E
100
AcDbEntity
  8
STEMPEL
100
AcDbLine
 10
665.8075842276174
 20
511.6307212052469
 30
0.0
 11
657.8075842276174
 21
511.6307212052469
 31
0.0
  0
LINE
  5
AF4
330
1E
100
AcDbEntity
  8
STEMPEL
100
AcDbLine
 10
657.8075842276174
 20
511.6307212052469
 30
0.0
 11
656.8075842276174
 21
510.6307212052469
 31
0.0
  0
ENDSEC
  0
SECTION
  2
OBJECTS
  0
DICTIONARY
  5
C
330
0
100
AcDbDictionary
281
     1
  3
ACAD_COLOR
350
11A
  3
ACAD_GROUP
350
D
  3
ACAD_LAYOUT
350
19
  3
ACAD_MATERIAL
350
119
  3
ACAD_MLINESTYLE
350
16
  3
ACAD_PLOTSETTINGS
350
18
  3
ACAD_PLOTSTYLENAME
350
E
  3
AcDbVariableDictionary
350
125
  0
DICTIONARY
  5
DB
330
1E
100
AcDbDictionary
280
     1
281
     1
  3
ACAD_LAYOUTSELFREF
360
10F
  0
DICTIONARY
  5
DD
330
1A
100
AcDbDictionary
280
     1
281
     1
  3
ACAD_LAYOUTSELFREF
360
10E
  0
DICTIONARY
  5
11A
102
{ACAD_REACTORS
330
C
102
}
330
C
100
AcDbDictionary
281
     1
  0
DICTIONARY
  5
D
102
{ACAD_REACTORS
330
C
102
}
330
C
100
AcDbDictionary
281
     1
  0
DICTIONARY
  5
19
102
{ACAD_REACTORS
330
C
102
}
330
C
100
AcDbDictionary
281
     1
  3
Layout1
350
1D
  3
Model
350
21
  0
DICTIONARY
  5
119
102
{ACAD_REACTORS
330
C
102
}
330
C
100
AcDbDictionary
281
     1
  0
DICTIONARY
  5
16
102
{ACAD_REACTORS
330
C
102
}
330
C
100
AcDbDictionary
281
     1
  3
Standard
350
17
  0
DICTIONARY
  5
18
102
{ACAD_REACTORS
330
C
102
}
330
C
100
AcDbDictionary
281
     1
  0
ACDBDICTIONARYWDFLT
  5
E
102
{ACAD_REACTORS
330
C
102
}
330
C
100
AcDbDictionary
281
     1
  3
Normal
350
F
100
AcDbDictionaryWithDefault
340
F
  0
DICTIONARY
  5
125
102
{ACAD_REACTORS
330
C
102
}
330
C
100
AcDbDictionary
281
     1
  3
DIMASSOC
350
126
  3
PROJECTNAME
350
127
  0
XRECORD
  5
10F
102
{ACAD_REACTORS
330
DB
102
}
330
DB
100
AcDbXrecord
280
     1
340
1E
  0
XRECORD
  5
10E
102
{ACAD_REACTORS
330
DD
102
}
330
DD
100
AcDbXrecord
280
     1
340
1A
  0
LAYOUT
  5
1D
102
{ACAD_REACTORS
330
19
102
}
330
19
100
AcDbPlotSettings
  1

  2
\\NT_WORK01\HP LaserJet 5000 PCL 6
  4

  6

 40
0.0
 41
0.0
 42
0.0
 43
0.0
 44
0.0
 45
0.0
 46
0.0
 47
0.0
 48
0.0
 49
0.0
140
0.0
141
0.0
142
1.0
143
1.0
 70
   688
 72
     0
 73
     0
 74
     5
  7

 75
    16
147
1.0
 76
     0
 77
     2
 78
   300
148
0.0
149
0.0
100
AcDbLayout
  1
Layout1
 70
     0
 71
     1
 10
0.0
 20
0.0
 11
12.0
 21
9.0
 12
0.0
 22
0.0
 32
0.0
 14
1.000000000000000E+20
 24
1.000000000000000E+20
 34
1.000000000000000E+20
 15
-1.000000000000000E+20
 25
-1.000000000000000E+20
 35
-1.000000000000000E+20
146
0.0
 13
0.0
 23
0.0
 33
0.0
 16
1.0
 26
0.0
 36
0.0
 17
0.0
 27
1.0
 37
0.0
 76
     0
330
1A
  0
LAYOUT
  5
21
102
{ACAD_REACTORS
330
19
102
}
330
19
100
AcDbPlotSettings
  1

  2
\\NT_WORK01\HP LaserJet 5000 PCL 6
  4

  6

 40
0.0
 41
0.0
 42
0.0
 43
0.0
 44
0.0
 45
0.0
 46
0.0
 47
0.0
 48
0.0
 49
0.0
140
0.0
141
0.0
142
1.0
143
1.0
 70
  1712
 72
     0
 73
     0
 74
     0
  7

 75
     0
147
1.0
 76
     0
 77
     2
 78
   300
148
0.0
149
0.0
100
AcDbLayout
  1
Model
 70
     1
 71
     0
 10
0.0
 20
0.0
 11
12.0
 21
9.0
 12
0.0
 22
0.0
 32
0.0
 14
0.0
 24
0.0
 34
0.0
 15
0.0
 25
0.0
 35
0.0
146
0.0
 13
0.0
 23
0.0
 33
0.0
 16
1.0
 26
0.0
 36
0.0
 17
0.0
 27
1.0
 37
0.0
 76
     0
330
1E
  0
MLINESTYLE
  5
17
102
{ACAD_REACTORS
330
16
102
}
330
16
100
AcDbMlineStyle
  2
STANDARD
 70
     0
  3

 62
   256
 51
90.0
 52
90.0
 71
     2
 49
0.5
 62
   256
  6
BYLAYER
 49
-0.5
 62
   256
  6
BYLAYER
  0
ACDBPLACEHOLDER
  5
F
102
{ACAD_REACTORS
330
E
102
}
330
E
  0
DICTIONARYVAR
  5
126
102
{ACAD_REACTORS
330
125
102
}
330
125
100
DictionaryVariables
280
     0
  1
1
  0
DICTIONARYVAR
  5
127
102
{ACAD_REACTORS
330
125
102
}
330
125
100
DictionaryVariables
280
     0
  1

  0
ENDSEC
  0
EOF
