  0
SECTION
  2
HEADER
  9
$ACADVER
  1
AC1018
  9
$ACADMAINTVER
 70
     2
  9
$DWGCODEPAGE
  3
ANSI_1252
  9
$INSBASE
 10
0.0
 20
0.0
 30
0.0
  9
$EXTMIN
 10
-0.0271839699360044
 20
-0.038441977687171
 30
-0.0000000000000058
  9
$EXTMAX
 10
594.0271950346393
 20
840.038457624743
 30
0.0000000000000104
  9
$LIMMIN
 10
0.0
 20
0.0
  9
$LIMMAX
 10
594.0
 20
840.0
  9
$ORTHOMODE
 70
     1
  9
$REGENMODE
 70
     1
  9
$FILLMODE
 70
     1
  9
$QTEXTMODE
 70
     0
  9
$MIRRTEXT
 70
     1
  9
$LTSCALE
 40
20.0
  9
$ATTMODE
 70
     1
  9
$TEXTSIZE
 40
3.5
  9
$TRACEWID
 40
1.0
  9
$TEXTSTYLE
  7
STANDARD
  9
$CLAYER
  8
SCHRAFF
  9
$CELTYPE
  6
ByLayer
  9
$CECOLOR
 62
   256
  9
$CELTSCALE
 40
1.0
  9
$DISPSILH
 70
     0
  9
$DIMSCALE
 40
2.0
  9
$DIMASZ
 40
3.5
  9
$DIMEXO
 40
1.0
  9
$DIMDLI
 40
7.0
  9
$DIMRND
 40
0.0
  9
$DIMDLE
 40
0.0
  9
$DIMEXE
 40
1.0
  9
$DIMTP
 40
0.0
  9
$DIMTM
 40
0.0
  9
$DIMTXT
 40
3.5
  9
$DIMCEN
 40
1.5
  9
$DIMTSZ
 40
0.0
  9
$DIMTOL
 70
     0
  9
$DIMLIM
 70
     0
  9
$DIMTIH
 70
     0
  9
$DIMTOH
 70
     0
  9
$DIMSE1
 70
     0
  9
$DIMSE2
 70
     0
  9
$DIMTAD
 70
     1
  9
$DIMZIN
 70
     8
  9
$DIMBLK
  1

  9
$DIMASO
 70
     1
  9
$DIMSHO
 70
     0
  9
$DIMPOST
  1

  9
$DIMAPOST
  1

  9
$DIMALT
 70
     0
  9
$DIMALTD
 70
     2
  9
$DIMALTF
 40
25.4
  9
$DIMLFAC
 40
1.0
  9
$DIMTOFL
 70
     1
  9
$DIMTVP
 40
0.0
  9
$DIMTIX
 70
     0
  9
$DIMSOXD
 70
     0
  9
$DIMSAH
 70
     0
  9
$DIMBLK1
  1

  9
$DIMBLK2
  1

  9
$DIMSTYLE
  2
Standard
  9
$DIMCLRD
 70
     0
  9
$DIMCLRE
 70
     0
  9
$DIMCLRT
 70
     1
  9
$DIMTFAC
 40
0.5142857142857144
  9
$DIMGAP
 40
1.5
  9
$DIMJUST
 70
     0
  9
$DIMSD1
 70
     0
  9
$DIMSD2
 70
     0
  9
$DIMTOLJ
 70
     1
  9
$DIMTZIN
 70
     8
  9
$DIMALTZ
 70
     8
  9
$DIMALTTZ
 70
     8
  9
$DIMUPT
 70
     0
  9
$DIMDEC
 70
     2
  9
$DIMTDEC
 70
     2
  9
$DIMALTU
 70
     2
  9
$DIMALTTD
 70
     2
  9
$DIMTXSTY
  7
STANDARD
  9
$DIMAUNIT
 70
     0
  9
$DIMADEC
 70
     2
  9
$DIMALTRND
 40
0.0
  9
$DIMAZIN
 70
     2
  9
$DIMDSEP
 70
    46
  9
$DIMATFIT
 70
     3
  9
$DIMFRAC
 70
     0
  9
$DIMLDRBLK
  1

  9
$DIMLUNIT
 70
     2
  9
$DIMLWD
 70
    -2
  9
$DIMLWE
 70
    -2
  9
$DIMTMOVE
 70
     0
  9
$LUNITS
 70
     2
  9
$LUPREC
 70
     2
  9
$SKETCHINC
 40
1.0
  9
$FILLETRAD
 40
0.0
  9
$AUNITS
 70
     0
  9
$AUPREC
 70
     0
  9
$MENU
  1
ACAD
  9
$ELEVATION
 40
0.0
  9
$PELEVATION
 40
0.0
  9
$THICKNESS
 40
0.0
  9
$LIMCHECK
 70
     0
  9
$CHAMFERA
 40
0.0
  9
$CHAMFERB
 40
0.0
  9
$CHAMFERC
 40
0.0
  9
$CHAMFERD
 40
0.0
  9
$SKPOLY
 70
     0
  9
$TDCREATE
 40
2455397.825393172
  9
$TDUCREATE
 40
2455397.783726505
  9
$TDUPDATE
 40
2455545.453035070
  9
$TDUUPDATE
 40
2455545.411368403
  9
$TDINDWG
 40
0.1137130208
  9
$TDUSRTIMER
 40
0.1137130208
  9
$USRTIMER
 70
     1
  9
$ANGBASE
 50
0.0
  9
$ANGDIR
 70
     0
  9
$PDMODE
 70
     0
  9
$PDSIZE
 40
0.0
  9
$PLINEWID
 40
0.0
  9
$SPLFRAME
 70
     0
  9
$SPLINETYPE
 70
     6
  9
$SPLINESEGS
 70
     8
  9
$HANDSEED
  5
14F2
  9
$SURFTAB1
 70
     6
  9
$SURFTAB2
 70
     6
  9
$SURFTYPE
 70
     6
  9
$SURFU
 70
     6
  9
$SURFV
 70
     6
  9
$UCSBASE
  2

  9
$UCSNAME
  2

  9
$UCSORG
 10
0.0
 20
0.0
 30
0.0
  9
$UCSXDIR
 10
1.0
 20
0.0
 30
0.0
  9
$UCSYDIR
 10
0.0
 20
1.0
 30
0.0
  9
$UCSORTHOREF
  2

  9
$UCSORTHOVIEW
 70
     0
  9
$UCSORGTOP
 10
0.0
 20
0.0
 30
0.0
  9
$UCSORGBOTTOM
 10
0.0
 20
0.0
 30
0.0
  9
$UCSORGLEFT
 10
0.0
 20
0.0
 30
0.0
  9
$UCSORGRIGHT
 10
0.0
 20
0.0
 30
0.0
  9
$UCSORGFRONT
 10
0.0
 20
0.0
 30
0.0
  9
$UCSORGBACK
 10
0.0
 20
0.0
 30
0.0
  9
$PUCSBASE
  2

  9
$PUCSNAME
  2

  9
$PUCSORG
 10
0.0
 20
0.0
 30
0.0
  9
$PUCSXDIR
 10
1.0
 20
0.0
 30
0.0
  9
$PUCSYDIR
 10
0.0
 20
1.0
 30
0.0
  9
$PUCSORTHOREF
  2

  9
$PUCSORTHOVIEW
 70
     0
  9
$PUCSORGTOP
 10
0.0
 20
0.0
 30
0.0
  9
$PUCSORGBOTTOM
 10
0.0
 20
0.0
 30
0.0
  9
$PUCSORGLEFT
 10
0.0
 20
0.0
 30
0.0
  9
$PUCSORGRIGHT
 10
0.0
 20
0.0
 30
0.0
  9
$PUCSORGFRONT
 10
0.0
 20
0.0
 30
0.0
  9
$PUCSORGBACK
 10
0.0
 20
0.0
 30
0.0
  9
$USERI1
 70
     0
  9
$USERI2
 70
     0
  9
$USERI3
 70
     0
  9
$USERI4
 70
     0
  9
$USERI5
 70
     0
  9
$USERR1
 40
0.0
  9
$USERR2
 40
0.0
  9
$USERR3
 40
0.0
  9
$USERR4
 40
0.0
  9
$USERR5
 40
0.0
  9
$WORLDVIEW
 70
     1
  9
$SHADEDGE
 70
     3
  9
$SHADEDIF
 70
    70
  9
$TILEMODE
 70
     1
  9
$MAXACTVP
 70
    16
  9
$PINSBASE
 10
0.0
 20
0.0
 30
0.0
  9
$PLIMCHECK
 70
     0
  9
$PEXTMIN
 10
1.000000000000000E+20
 20
1.000000000000000E+20
 30
1.000000000000000E+20
  9
$PEXTMAX
 10
-1.000000000000000E+20
 20
-1.000000000000000E+20
 30
-1.000000000000000E+20
  9
$PLIMMIN
 10
0.0
 20
0.0
  9
$PLIMMAX
 10
12.0
 20
9.0
  9
$UNITMODE
 70
     0
  9
$VISRETAIN
 70
     0
  9
$PLINEGEN
 70
     0
  9
$PSLTSCALE
 70
     0
  9
$TREEDEPTH
 70
  3020
  9
$CMLSTYLE
  2
Standard
  9
$CMLJUST
 70
     0
  9
$CMLSCALE
 40
1.0
  9
$PROXYGRAPHICS
 70
     1
  9
$MEASUREMENT
 70
     0
  9
$CELWEIGHT
370
    -1
  9
$ENDCAPS
280
     0
  9
$JOINSTYLE
280
     0
  9
$LWDISPLAY
290
     0
  9
$INSUNITS
 70
     0
  9
$HYPERLINKBASE
  1

  9
$STYLESHEET
  1
monochrome 1.ctb
  9
$XEDIT
290
     1
  9
$CEPSNTYPE
380
     0
  9
$PSTYLEMODE
290
     1
  9
$FINGERPRINTGUID
  2
{D68B0D0D-A558-11D7-B632-000102183313}
  9
$VERSIONGUID
  2
{09C6F0F9-CD12-44A5-9662-4412604230B9}
  9
$EXTNAMES
290
     1
  9
$PSVPSCALE
 40
0.0
  9
$OLESTARTUP
290
     0
  9
$SORTENTS
280
   127
  9
$INDEXCTL
280
     0
  9
$HIDETEXT
280
     0
  9
$XCLIPFRAME
290
     0
  9
$HALOGAP
280
     0
  9
$OBSCOLOR
 70
   257
  9
$OBSLTYPE
280
     0
  9
$INTERSECTIONDISPLAY
280
     0
  9
$INTERSECTIONCOLOR
 70
   257
  9
$DIMASSOC
280
     1
  9
$PROJECTNAME
  1

  0
ENDSEC
  0
SECTION
  2
CLASSES
  0
CLASS
  1
ACDBDICTIONARYWDFLT
  2
AcDbDictionaryWithDefault
  3
ObjectDBX Classes
 90
        0
 91
        1
280
     0
281
     0
  0
CLASS
  1
DICTIONARYVAR
  2
AcDbDictionaryVar
  3
ObjectDBX Classes
 90
        0
 91
        2
280
     0
281
     0
  0
ENDSEC
  0
SECTION
  2
TABLES
  0
TABLE
  2
VPORT
  5
8
330
0
100
AcDbSymbolTable
 70
     2
  0
VPORT
  5
14F1
330
8
100
AcDbSymbolTableRecord
100
AcDbViewportTableRecord
  2
*Active
 70
     0
 10
0.0
 20
0.0
 11
1.0
 21
1.0
 12
297.0000055323517
 22
420.0000078235279
 13
0.0
 23
0.0
 14
1.0
 24
1.0
 15
10.0
 25
10.0
 16
0.0
 26
0.0
 36
1.0
 17
0.0
 27
0.0
 37
0.0
 40
846.8608314969317
 41
1.336927223719676
 42
50.0
 43
0.0
 44
0.0
 50
0.0
 51
0.0
 71
     0
 72
  1500
 73
     1
 74
     0
 75
     0
 76
     0
 77
     0
 78
     0
281
     0
 65
     1
110
0.0
120
0.0
130
0.0
111
1.0
121
0.0
131
0.0
112
0.0
122
1.0
132
0.0
 79
     0
146
0.0
  0
ENDTAB
  0
TABLE
  2
LTYPE
  5
5
330
0
100
AcDbSymbolTable
 70
     3
  0
LTYPE
  5
13
330
5
100
AcDbSymbolTableRecord
100
AcDbLinetypeTableRecord
  2
ByBlock
 70
     0
  3

 72
    65
 73
     0
 40
0.0
  0
LTYPE
  5
14
330
5
100
AcDbSymbolTableRecord
100
AcDbLinetypeTableRecord
  2
ByLayer
 70
     0
  3

 72
    65
 73
     0
 40
0.0
  0
LTYPE
  5
15
330
5
100
AcDbSymbolTableRecord
100
AcDbLinetypeTableRecord
  2
Continuous
 70
     0
  3
Solid line
 72
    65
 73
     0
 40
0.0
  0
LTYPE
  5
25
330
5
100
AcDbSymbolTableRecord
100
AcDbLinetypeTableRecord
  2
STRICHPUNKT
 70
     0
  3
__ . __ . __ . __ . __ . __ . __ . __ . __ . __
 72
    65
 73
     4
 40
1.0
 49
0.5
 74
     0
 49
-0.25
 74
     0
 49
0.0
 74
     0
 49
-0.25
 74
     0
  0
LTYPE
  5
34
330
5
100
AcDbSymbolTableRecord
100
AcDbLinetypeTableRecord
  2
AUSGEZOGEN
 70
     0
  3
Ausgezogene Linie
 72
    65
 73
     0
 40
0.0
  0
ENDTAB
  0
TABLE
  2
LAYER
  5
2
330
0
100
AcDbSymbolTable
 70
     9
  0
LAYER
  5
10
330
2
100
AcDbSymbolTableRecord
100
AcDbLayerTableRecord
  2
0
 70
     0
 62
     7
  6
Continuous
370
    -3
390
F
  0
LAYER
  5
2B
330
2
100
AcDbSymbolTableRecord
100
AcDbLayerTableRecord
  2
VOLL
 70
     0
 62
     1
  6
Continuous
370
    -3
390
F
  0
LAYER
  5
2C
330
2
100
AcDbSymbolTableRecord
100
AcDbLayerTableRecord
  2
HILF
 70
     0
 62
     2
  6
Continuous
370
    -3
390
F
  0
LAYER
  5
2D
330
2
100
AcDbSymbolTableRecord
100
AcDbLayerTableRecord
  2
MITTEL
 70
     0
 62
     2
  6
STRICHPUNKT
370
    -3
390
F
  0
LAYER
  5
2F
330
2
100
AcDbSymbolTableRecord
100
AcDbLayerTableRecord
  2
BEM
 70
     0
 62
     7
  6
Continuous
370
    -3
390
F
  0
LAYER
  5
30
330
2
100
AcDbSymbolTableRecord
100
AcDbLayerTableRecord
  2
STEMPEL
 70
     0
 62
     3
  6
Continuous
370
    -3
390
F
  0
LAYER
  5
33
330
2
100
AcDbSymbolTableRecord
100
AcDbLayerTableRecord
  2
TEXT
 70
     0
 62
     7
  6
Continuous
370
    -3
390
F
  0
LAYER
  5
1DD
330
2
100
AcDbSymbolTableRecord
100
AcDbLayerTableRecord
  2
DEFPOINTS
 70
     0
 62
     7
  6
AUSGEZOGEN
290
     0
370
    -3
390
F
  0
LAYER
  5
1DE
330
2
100
AcDbSymbolTableRecord
100
AcDbLayerTableRecord
  2
SCHRAFF
 70
     0
 62
     7
  6
AUSGEZOGEN
370
    -3
390
F
  0
ENDTAB
  0
TABLE
  2
STYLE
  5
3
330
0
100
AcDbSymbolTable
 70
     2
  0
STYLE
  5
11
330
3
100
AcDbSymbolTableRecord
100
AcDbTextStyleTableRecord
  2
STANDARD
 70
     0
 40
0.0
 41
0.8
 50
0.0
 71
     0
 42
3.5
  3
simplex.shx
  4

  0
STYLE
  5
24
330
3
100
AcDbSymbolTableRecord
100
AcDbTextStyleTableRecord
  2
GREEKS
 70
     0
 40
0.0
 41
0.8
 50
0.0
 71
     0
 42
2.5
  3
SIMPLEX.shx
  4

  0
ENDTAB
  0
TABLE
  2
VIEW
  5
6
330
0
100
AcDbSymbolTable
 70
     0
  0
ENDTAB
  0
TABLE
  2
UCS
  5
7
330
0
100
AcDbSymbolTable
 70
     0
  0
ENDTAB
  0
TABLE
  2
APPID
  5
9
330
0
100
AcDbSymbolTable
 70
     1
  0
APPID
  5
12
330
9
100
AcDbSymbolTableRecord
100
AcDbRegAppTableRecord
  2
ACAD
 70
     0
  0
ENDTAB
  0
TABLE
  2
DIMSTYLE
  5
A
330
0
100
AcDbSymbolTable
 70
     1
100
AcDbDimStyleTable
 71
     1
340
A2
  0
DIMSTYLE
105
A2
102
{ACAD_REACTORS
330
DF9
330
DEF
330
DE5
330
DDE
330
104A
330
131C
102
}
330
A
100
AcDbSymbolTableRecord
100
AcDbDimStyleTableRecord
  2
Standard
 70
     0
340
11
  0
ENDTAB
  0
TABLE
  2
BLOCK_RECORD
  5
1
330
0
100
AcDbSymbolTable
 70
     8
  0
BLOCK_RECORD
  5
1E
102
{ACAD_XDICTIONARY
360
DB
102
}
330
1
100
AcDbSymbolTableRecord
100
AcDbBlockTableRecord
  2
*Model_Space
340
21
  0
BLOCK_RECORD
  5
1A
102
{ACAD_XDICTIONARY
360
DD
102
}
330
1
100
AcDbSymbolTableRecord
100
AcDbBlockTableRecord
  2
*Paper_Space
340
1D
  0
BLOCK_RECORD
  5
22
330
1
100
AcDbSymbolTableRecord
100
AcDbBlockTableRecord
  2
LOGO
340
0
102
{BLKREFS
331
56
102
}
  0
BLOCK_RECORD
  5
23
330
1
100
AcDbSymbolTableRecord
100
AcDbBlockTableRecord
  2
LORO
340
0
102
{BLKREFS
331
9B
102
}
  0
BLOCK_RECORD
  5
F98
330
1
100
AcDbSymbolTableRecord
100
AcDbBlockTableRecord
  2
*D2
340
0
  0
BLOCK_RECORD
  5
FA5
330
1
100
AcDbSymbolTableRecord
100
AcDbBlockTableRecord
  2
*D3
340
0
  0
BLOCK_RECORD
  5
FBF
330
1
100
AcDbSymbolTableRecord
100
AcDbBlockTableRecord
  2
*D4
340
0
  0
BLOCK_RECORD
  5
FCC
330
1
100
AcDbSymbolTableRecord
100
AcDbBlockTableRecord
  2
*D5
340
0
  0
BLOCK_RECORD
  5
104B
330
1
100
AcDbSymbolTableRecord
100
AcDbBlockTableRecord
  2
*D6
340
0
  0
BLOCK_RECORD
  5
131D
330
1
100
AcDbSymbolTableRecord
100
AcDbBlockTableRecord
  2
*D7
340
0
  0
ENDTAB
  0
ENDSEC
  0
SECTION
  2
BLOCKS
  0
BLOCK
  5
37
330
1E
100
AcDbEntity
  8
0
100
AcDbBlockBegin
  2
*Model_Space
 70
     0
 10
0.0
 20
0.0
 30
0.0
  3
*Model_Space
  1

  0
ENDBLK
  5
38
330
1E
100
AcDbEntity
  8
0
100
AcDbBlockEnd
  0
BLOCK
  5
35
330
1A
100
AcDbEntity
 67
     1
  8
0
100
AcDbBlockBegin
  2
*Paper_Space
 70
     0
 10
0.0
 20
0.0
 30
0.0
  3
*Paper_Space
  1

  0
ENDBLK
  5
36
330
1A
100
AcDbEntity
 67
     1
  8
0
100
AcDbBlockEnd
  0
BLOCK
  5
39
330
22
100
AcDbEntity
  8
0
100
AcDbBlockBegin
  2
LOGO
 70
     0
 10
0.0
 20
0.0
 30
0.0
  3
LOGO
  1

  0
ARC
  5
3A
330
22
100
AcDbEntity
  8
0
100
AcDbCircle
 10
11.59973089678112
 20
-9.271599258481501
 30
0.0
 40
4.5
100
AcDbArc
 50
270.0
 51
231.0575587310159
  0
LINE
  5
3B
330
22
100
AcDbEntity
  8
0
100
AcDbLine
 10
3.599730896781125
 20
-4.771599258481529
 30
0.0
 11
3.599730896781153
 21
-11.77159925848133
 31
0.0
  0
LINE
  5
3C
330
22
100
AcDbEntity
  8
0
100
AcDbLine
 10
2.599730896781125
 20
-4.771599258481529
 30
0.0
 11
2.599730896781153
 21
-11.77159925848133
 31
0.0
  0
CIRCLE
  5
3D
330
22
100
AcDbEntity
  8
0
100
AcDbCircle
 10
11.59973089678112
 20
-9.271599258481501
 30
0.0
 40
3.5
  0
ARC
  5
3E
330
22
100
AcDbEntity
  8
0
100
AcDbCircle
 10
31.59973089678115
 20
-9.271599258481472
 30
0.0
 40
4.5
100
AcDbArc
 50
270.0
 51
231.0575587310182
  0
LINE
  5
3F
330
22
100
AcDbEntity
  8
0
100
AcDbLine
 10
17.59973089678112
 20
-4.771599258481472
 30
0.0
 11
17.59973089678115
 21
-13.77159925848147
 31
0.0
  0
ARC
  5
40
330
22
100
AcDbEntity
  8
0
100
AcDbCircle
 10
22.59973089678116
 20
-7.271599258481472
 30
0.0
 40
2.5
100
AcDbArc
 50
293.1161887722295
 51
90.0
  0
CIRCLE
  5
41
330
22
100
AcDbEntity
  8
0
100
AcDbCircle
 10
31.59973089678115
 20
-9.271599258481472
 30
0.0
 40
3.5
  0
ARC
  5
42
330
22
100
AcDbEntity
  8
0
100
AcDbCircle
 10
4.599730896781153
 20
-11.77159925848133
 30
0.0
 40
1.0
100
AcDbArc
 50
180.0
 51
270.0
  0
ARC
  5
43
330
22
100
AcDbEntity
  8
0
100
AcDbCircle
 10
4.599730896781153
 20
-11.77159925848133
 30
0.0
 40
2.0
100
AcDbArc
 50
179.9999999999992
 51
270.0
  0
LINE
  5
44
330
22
100
AcDbEntity
  8
0
100
AcDbLine
 10
11.59973089678115
 20
-13.77159925848144
 30
0.0
 11
4.599730896781153
 21
-13.77159925848147
 31
0.0
  0
LINE
  5
45
330
22
100
AcDbEntity
  8
0
100
AcDbLine
 10
8.771303772034769
 20
-12.77159925848136
 30
0.0
 11
4.599730896781153
 21
-12.77159925848133
 31
0.0
  0
LINE
  5
46
330
22
100
AcDbEntity
  8
0
100
AcDbLine
 10
31.59973089678115
 20
-13.77159925848147
 30
0.0
 11
23.6715276665056
 21
-13.77159925848144
 31
0.0
  0
LINE
  5
47
330
22
100
AcDbEntity
  8
0
100
AcDbLine
 10
23.56565672307022
 20
-9.51278021337896
 30
0.0
 11
24.4388546544846
 21
-12.77159925848144
 31
0.0
  0
LINE
  5
48
330
22
100
AcDbEntity
  8
0
100
AcDbLine
 10
22.59973089678116
 20
-9.771599258481472
 30
0.0
 11
18.59973089678112
 21
-9.771599258481472
 31
0.0
  0
LINE
  5
49
330
22
100
AcDbEntity
  8
0
100
AcDbLine
 10
18.59973089678115
 20
-13.77159925848144
 30
0.0
 11
17.59973089678115
 21
-13.77159925848144
 31
0.0
  0
LINE
  5
4A
330
22
100
AcDbEntity
  8
0
100
AcDbLine
 10
18.59973089678115
 20
-9.771599258481472
 30
0.0
 11
18.59973089678115
 21
-13.77159925848144
 31
0.0
  0
LINE
  5
4B
330
22
100
AcDbEntity
  8
0
100
AcDbLine
 10
22.59973089678116
 20
-9.771599258481472
 30
0.0
 11
23.67152766650562
 21
-13.77159925848147
 31
0.0
  0
ARC
  5
4C
330
22
100
AcDbEntity
  8
0
100
AcDbCircle
 10
22.59973089678116
 20
-7.271599258481472
 30
0.0
 40
2.5
100
AcDbArc
 50
270.0
 51
270.0000000000007
  0
LINE
  5
4D
330
22
100
AcDbEntity
  8
0
100
AcDbLine
 10
28.77130377203494
 20
-12.77159925848147
 30
0.0
 11
24.43885465448463
 21
-12.77159925848144
 31
0.0
  0
LINE
  5
4E
330
22
100
AcDbEntity
  8
0
100
AcDbLine
 10
3.599730896781125
 20
-4.771599258481472
 30
0.0
 11
2.599730896781125
 21
-4.771599258481472
 31
0.0
  0
LINE
  5
4F
330
22
100
AcDbEntity
  8
0
100
AcDbLine
 10
22.59973089678116
 20
-8.771599258481472
 30
0.0
 11
18.59973089678115
 21
-8.771599258481472
 31
0.0
  0
LINE
  5
50
330
22
100
AcDbEntity
  8
0
100
AcDbLine
 10
22.59973089678116
 20
-5.771599258481472
 30
0.0
 11
18.59973089678115
 21
-5.771599258481472
 31
0.0
  0
LINE
  5
51
330
22
100
AcDbEntity
  8
0
100
AcDbLine
 10
22.59973089678116
 20
-4.771599258481472
 30
0.0
 11
17.59973089678115
 21
-4.771599258481472
 31
0.0
  0
LINE
  5
52
330
22
100
AcDbEntity
  8
0
100
AcDbLine
 10
18.59973089678115
 20
-5.771599258481472
 30
0.0
 11
18.59973089678115
 21
-8.771599258481472
 31
0.0
  0
ARC
  5
53
330
22
100
AcDbEntity
  8
0
100
AcDbCircle
 10
22.59973089678116
 20
-7.271599258481472
 30
0.0
 40
1.5
100
AcDbArc
 50
270.0
 51
90.0
  0
ENDBLK
  5
54
330
22
100
AcDbEntity
  8
0
100
AcDbBlockEnd
  0
BLOCK
  5
55
330
23
100
AcDbEntity
  8
0
100
AcDbBlockBegin
  2
LORO
 70
     0
 10
0.0
 20
0.0
 30
0.0
  3
LORO
  1

  0
INSERT
  5
56
330
23
100
AcDbEntity
  8
STEMPEL
100
AcDbBlockReference
  2
LOGO
 10
-1.748032802467321
 20
3.771489518552062
 30
0.0
  0
ENDBLK
  5
57
330
23
100
AcDbEntity
  8
0
100
AcDbBlockEnd
  0
BLOCK
  5
FA3
330
F98
100
AcDbEntity
  8
0
100
AcDbBlockBegin
  2
*D2
 70
     1
 10
0.0
 20
0.0
 30
0.0
  3
*D2
  1

  0
LINE
  5
143E
330
F98
100
AcDbEntity
  8
BEM
 62
     0
370
    -2
100
AcDbLine
 10
197.5694886365714
 20
215.341284020288
 30
0.0
 11
197.5694886365714
 21
185.0324934466725
 31
0.0
  0
LINE
  5
143F
330
F98
100
AcDbEntity
  8
BEM
 62
     0
370
    -2
100
AcDbLine
 10
299.1694886365715
 20
215.3412840202876
 30
0.0
 11
299.1694886365715
 21
185.0324934466725
 31
0.0
  0
LINE
  5
1440
330
F98
100
AcDbEntity
  8
BEM
 62
     0
370
    -2
100
AcDbLine
 10
204.5694886365715
 20
187.0324934466725
 30
0.0
 11
292.1694886365715
 21
187.0324934466725
 31
0.0
  0
SOLID
  5
1441
330
F98
100
AcDbEntity
  8
BEM
 62
     0
100
AcDbTrace
 10
204.5694886365715
 20
188.1991601133391
 30
0.0
 11
204.5694886365715
 21
185.8658267800058
 31
0.0
 12
197.5694886365714
 22
187.0324934466725
 32
0.0
 13
197.5694886365714
 23
187.0324934466725
 33
0.0
  0
SOLID
  5
1442
330
F98
100
AcDbEntity
  8
BEM
 62
     0
100
AcDbTrace
 10
292.1694886365715
 20
188.1991601133391
 30
0.0
 11
292.1694886365715
 21
185.8658267800058
 31
0.0
 12
299.1694886365715
 22
187.0324934466725
 32
0.0
 13
299.1694886365715
 23
187.0324934466725
 33
0.0
  0
MTEXT
  5
1443
330
F98
100
AcDbEntity
  8
BEM
 62
     1
100
AcDbMText
 10
248.3694886365715
 20
193.5324934466725
 30
0.0
 40
7.0
 41
0.0
 71
     5
 72
     1
  1
\A1;%%c101.6
 73
     1
 44
1.0
  0
POINT
  5
1444
330
F98
100
AcDbEntity
  8
DEFPOINTS
 62
     0
100
AcDbPoint
 10
197.5694886365714
 20
217.341284020288
 30
0.0
  0
POINT
  5
1445
330
F98
100
AcDbEntity
  8
DEFPOINTS
 62
     0
100
AcDbPoint
 10
299.1694886365715
 20
217.3412840202876
 30
0.0
  0
POINT
  5
1446
330
F98
100
AcDbEntity
  8
DEFPOINTS
 62
     0
100
AcDbPoint
 10
299.1694886365715
 20
187.0324934466725
 30
0.0
  0
ENDBLK
  5
FA4
330
F98
100
AcDbEntity
  8
0
100
AcDbBlockEnd
  0
BLOCK
  5
FB0
330
FA5
100
AcDbEntity
  8
0
100
AcDbBlockBegin
  2
*D3
 70
     1
 10
0.0
 20
0.0
 30
0.0
  3
*D3
  1

  0
LINE
  5
1073
330
FA5
100
AcDbEntity
  8
BEM
 62
     0
370
    -2
100
AcDbLine
 10
138.3694886365716
 20
577.3412260529714
 30
0.0
 11
138.3694886365716
 21
606.6805011670774
 31
0.0
  0
LINE
  5
1074
330
FA5
100
AcDbEntity
  8
BEM
 62
     0
370
    -2
100
AcDbLine
 10
358.3694886365719
 20
577.3412260529714
 30
0.0
 11
358.3694886365719
 21
606.6805011670774
 31
0.0
  0
LINE
  5
1075
330
FA5
100
AcDbEntity
  8
BEM
 62
     0
370
    -2
100
AcDbLine
 10
145.3694886365716
 20
604.6805011670774
 30
0.0
 11
351.3694886365719
 21
604.6805011670774
 31
0.0
  0
SOLID
  5
1076
330
FA5
100
AcDbEntity
  8
BEM
 62
     0
100
AcDbTrace
 10
145.3694886365716
 20
605.847167833744
 30
0.0
 11
145.3694886365716
 21
603.5138345004107
 31
0.0
 12
138.3694886365716
 22
604.6805011670774
 32
0.0
 13
138.3694886365716
 23
604.6805011670774
 33
0.0
  0
SOLID
  5
1077
330
FA5
100
AcDbEntity
  8
BEM
 62
     0
100
AcDbTrace
 10
351.3694886365719
 20
605.847167833744
 30
0.0
 11
351.3694886365719
 21
603.5138345004107
 31
0.0
 12
358.3694886365719
 22
604.6805011670774
 32
0.0
 13
358.3694886365719
 23
604.6805011670774
 33
0.0
  0
MTEXT
  5
1078
330
FA5
100
AcDbEntity
  8
BEM
 62
     1
100
AcDbMText
 10
248.3694886365718
 20
611.1805011670774
 30
0.0
 40
7.0
 41
0.0
 71
     5
 72
     1
  1
\A1;%%c220
 73
     1
 44
1.0
  0
POINT
  5
1079
330
FA5
100
AcDbEntity
  8
DEFPOINTS
 62
     0
100
AcDbPoint
 10
138.3694886365716
 20
575.3412260529715
 30
0.0
  0
POINT
  5
107A
330
FA5
100
AcDbEntity
  8
DEFPOINTS
 62
     0
100
AcDbPoint
 10
358.3694886365719
 20
575.3412260529715
 30
0.0
  0
POINT
  5
107B
330
FA5
100
AcDbEntity
  8
DEFPOINTS
 62
     0
100
AcDbPoint
 10
358.3694886365719
 20
604.6805011670774
 30
0.0
  0
ENDBLK
  5
FB1
330
FA5
100
AcDbEntity
  8
0
100
AcDbBlockEnd
  0
BLOCK
  5
FCA
330
FBF
100
AcDbEntity
  8
0
100
AcDbBlockBegin
  2
*D4
 70
     1
 10
0.0
 20
0.0
 30
0.0
  3
*D4
  1

  0
LINE
  5
13B1
330
FBF
100
AcDbEntity
  8
BEM
 62
     0
370
    -2
100
AcDbLine
 10
96.3694886365716
 20
479.3412840202869
 30
0.0
 11
65.49148707503099
 21
479.3412840202869
 31
0.0
  0
LINE
  5
13B2
330
FBF
100
AcDbEntity
  8
BEM
 62
     0
370
    -2
100
AcDbLine
 10
196.2693979447789
 20
209.3412840202879
 30
0.0
 11
65.49148707503094
 21
209.3412840202879
 31
0.0
  0
LINE
  5
13B3
330
FBF
100
AcDbEntity
  8
BEM
 62
     0
370
    -2
100
AcDbLine
 10
67.49148707503099
 20
472.3412840202869
 30
0.0
 11
67.49148707503093
 21
216.3412840202879
 31
0.0
  0
SOLID
  5
13B4
330
FBF
100
AcDbEntity
  8
BEM
 62
     0
100
AcDbTrace
 10
66.32482040836432
 20
472.3412840202869
 30
0.0
 11
68.65815374169766
 21
472.3412840202869
 31
0.0
 12
67.49148707503099
 22
479.3412840202869
 32
0.0
 13
67.49148707503099
 23
479.3412840202869
 33
0.0
  0
SOLID
  5
13B5
330
FBF
100
AcDbEntity
  8
BEM
 62
     0
100
AcDbTrace
 10
66.32482040836426
 20
216.3412840202879
 30
0.0
 11
68.6581537416976
 21
216.3412840202879
 31
0.0
 12
67.49148707503093
 22
209.3412840202879
 32
0.0
 13
67.49148707503093
 23
209.3412840202879
 33
0.0
  0
MTEXT
  5
13B6
330
FBF
100
AcDbEntity
  8
BEM
 62
     1
100
AcDbMText
 10
60.99148707503091
 20
344.3412840202874
 30
0.0
 40
7.0
 41
0.0
 71
     5
 72
     1
  1
\A1;270
 11
0.0000000000000001
 21
1.0
 31
0.0
 73
     1
 44
1.0
  0
POINT
  5
13B7
330
FBF
100
AcDbEntity
  8
DEFPOINTS
 62
     0
100
AcDbPoint
 10
98.36948863657159
 20
479.3412840202869
 30
0.0
  0
POINT
  5
13B8
330
FBF
100
AcDbEntity
  8
DEFPOINTS
 62
     0
100
AcDbPoint
 10
198.2693979447789
 20
209.3412840202879
 30
0.0
  0
POINT
  5
13B9
330
FBF
100
AcDbEntity
  8
DEFPOINTS
 62
     0
100
AcDbPoint
 10
67.49148707503093
 20
209.3412840202879
 30
0.0
  0
ENDBLK
  5
FCB
330
FBF
100
AcDbEntity
  8
0
100
AcDbBlockEnd
  0
BLOCK
  5
FD7
330
FCC
100
AcDbEntity
  8
0
100
AcDbBlockBegin
  2
*D5
 70
     1
 10
0.0
 20
0.0
 30
0.0
  3
*D5
  1

  0
LINE
  5
14CA
330
FCC
100
AcDbEntity
  8
BEM
 62
     0
370
    -2
100
AcDbLine
 10
104.3694886365716
 20
485.3412840202869
 30
0.0
 11
65.49148707503092
 21
485.3412840202869
 31
0.0
  0
LINE
  5
14CB
330
FCC
100
AcDbEntity
  8
BEM
 62
     0
370
    -2
100
AcDbLine
 10
166.3694886365716
 20
595.3412840202861
 30
0.0
 11
65.49148707503093
 21
595.3412840202861
 31
0.0
  0
LINE
  5
14CC
330
FCC
100
AcDbEntity
  8
BEM
 62
     0
370
    -2
100
AcDbLine
 10
67.49148707503092
 20
492.3412840202869
 30
0.0
 11
67.49148707503093
 21
588.3412840202861
 31
0.0
  0
SOLID
  5
14CD
330
FCC
100
AcDbEntity
  8
BEM
 62
     0
100
AcDbTrace
 10
66.32482040836425
 20
492.3412840202869
 30
0.0
 11
68.65815374169759
 21
492.3412840202869
 31
0.0
 12
67.49148707503092
 22
485.3412840202869
 32
0.0
 13
67.49148707503092
 23
485.3412840202869
 33
0.0
  0
SOLID
  5
14CE
330
FCC
100
AcDbEntity
  8
BEM
 62
     0
100
AcDbTrace
 10
66.32482040836426
 20
588.3412840202861
 30
0.0
 11
68.6581537416976
 21
588.3412840202861
 31
0.0
 12
67.49148707503093
 22
595.3412840202861
 32
0.0
 13
67.49148707503093
 23
595.3412840202861
 33
0.0
  0
MTEXT
  5
14CF
330
FCC
100
AcDbEntity
  8
BEM
 62
     1
100
AcDbMText
 10
60.99148707503084
 20
540.3412840202865
 30
0.0
 40
7.0
 41
0.0
 71
     5
 72
     1
  1
\A1;110
 11
0.0000000000000001
 21
1.0
 31
0.0
 73
     1
 44
1.0
  0
POINT
  5
14D0
330
FCC
100
AcDbEntity
  8
DEFPOINTS
 62
     0
100
AcDbPoint
 10
106.3694886365716
 20
485.3412840202869
 30
0.0
  0
POINT
  5
14D1
330
FCC
100
AcDbEntity
  8
DEFPOINTS
 62
     0
100
AcDbPoint
 10
168.3694886365716
 20
595.3412840202861
 30
0.0
  0
POINT
  5
14D2
330
FCC
100
AcDbEntity
  8
DEFPOINTS
 62
     0
100
AcDbPoint
 10
67.49148707503093
 20
595.3412840202861
 30
0.0
  0
ENDBLK
  5
FD8
330
FCC
100
AcDbEntity
  8
0
100
AcDbBlockEnd
  0
BLOCK
  5
1055
330
104B
100
AcDbEntity
  8
0
100
AcDbBlockBegin
  2
*D6
 70
     1
 10
0.0
 20
0.0
 30
0.0
  3
*D6
  1

  0
LINE
  5
107C
330
104B
100
AcDbEntity
  8
BEM
 62
     0
370
    -2
100
AcDbLine
 10
98.36948863657163
 20
476.4554975826611
 30
0.0
 11
98.36948863657163
 21
619.3511850199991
 31
0.0
  0
LINE
  5
107D
330
104B
100
AcDbEntity
  8
BEM
 62
     0
370
    -2
100
AcDbLine
 10
398.3694886365717
 20
476.4554975826611
 30
0.0
 11
398.3694886365717
 21
619.3511850199991
 31
0.0
  0
LINE
  5
107E
330
104B
100
AcDbEntity
  8
BEM
 62
     0
370
    -2
100
AcDbLine
 10
105.3694886365716
 20
617.351185019999
 30
0.0
 11
391.3694886365716
 21
617.351185019999
 31
0.0
  0
SOLID
  5
107F
330
104B
100
AcDbEntity
  8
BEM
 62
     0
100
AcDbTrace
 10
105.3694886365716
 20
618.5178516866657
 30
0.0
 11
105.3694886365716
 21
616.1845183533324
 31
0.0
 12
98.36948863657163
 22
617.351185019999
 32
0.0
 13
98.36948863657163
 23
617.351185019999
 33
0.0
  0
SOLID
  5
1080
330
104B
100
AcDbEntity
  8
BEM
 62
     0
100
AcDbTrace
 10
391.3694886365716
 20
618.5178516866657
 30
0.0
 11
391.3694886365716
 21
616.1845183533324
 31
0.0
 12
398.3694886365717
 22
617.351185019999
 32
0.0
 13
398.3694886365717
 23
617.351185019999
 33
0.0
  0
MTEXT
  5
1081
330
104B
100
AcDbEntity
  8
BEM
 62
     1
100
AcDbMText
 10
248.3694886365717
 20
623.8511850199991
 30
0.0
 40
7.0
 41
0.0
 71
     5
 72
     1
  1
\A1;%%c300
 73
     1
 44
1.0
  0
POINT
  5
1082
330
104B
100
AcDbEntity
  8
DEFPOINTS
 62
     0
100
AcDbPoint
 10
98.36948863657163
 20
474.455497582661
 30
0.0
  0
POINT
  5
1083
330
104B
100
AcDbEntity
  8
DEFPOINTS
 62
     0
100
AcDbPoint
 10
398.3694886365717
 20
474.455497582661
 30
0.0
  0
POINT
  5
1084
330
104B
100
AcDbEntity
  8
DEFPOINTS
 62
     0
100
AcDbPoint
 10
398.3694886365717
 20
617.351185019999
 30
0.0
  0
ENDBLK
  5
1056
330
104B
100
AcDbEntity
  8
0
100
AcDbBlockEnd
  0
BLOCK
  5
1327
330
131D
100
AcDbEntity
  8
0
100
AcDbBlockBegin
  2
*D7
 70
     1
 10
0.0
 20
0.0
 30
0.0
  3
*D7
  1

  0
LINE
  5
14C1
330
131D
100
AcDbEntity
  8
BEM
 62
     0
370
    -2
100
AcDbLine
 10
163.4316907019288
 20
540.341284020287
 30
0.0
 11
81.76057944172498
 21
540.341284020287
 31
0.0
  0
LINE
  5
14C2
330
131D
100
AcDbEntity
  8
BEM
 62
     0
370
    -2
100
AcDbLine
 10
104.3694886365714
 20
485.341284020287
 30
0.0
 11
81.76057944172498
 21
485.341284020287
 31
0.0
  0
LINE
  5
14C3
330
131D
100
AcDbEntity
  8
BEM
 62
     0
370
    -2
100
AcDbLine
 10
83.76057944172499
 20
533.341284020287
 30
0.0
 11
83.76057944172499
 21
492.3412840202869
 31
0.0
  0
SOLID
  5
14C4
330
131D
100
AcDbEntity
  8
BEM
 62
     0
100
AcDbTrace
 10
82.59391277505832
 20
533.341284020287
 30
0.0
 11
84.92724610839166
 21
533.341284020287
 31
0.0
 12
83.76057944172499
 22
540.341284020287
 32
0.0
 13
83.76057944172499
 23
540.341284020287
 33
0.0
  0
SOLID
  5
14C5
330
131D
100
AcDbEntity
  8
BEM
 62
     0
100
AcDbTrace
 10
82.59391277505832
 20
492.3412840202869
 30
0.0
 11
84.92724610839166
 21
492.3412840202869
 31
0.0
 12
83.76057944172499
 22
485.341284020287
 32
0.0
 13
83.76057944172499
 23
485.341284020287
 33
0.0
  0
MTEXT
  5
14C6
330
131D
100
AcDbEntity
  8
BEM
 62
     1
100
AcDbMText
 10
77.2605794417249
 20
512.841284020287
 30
0.0
 40
7.0
 41
0.0
 71
     5
 72
     1
  1
\A1;55
 11
0.0000000000000001
 21
1.0
 31
0.0
 73
     1
 44
1.0
  0
POINT
  5
14C7
330
131D
100
AcDbEntity
  8
DEFPOINTS
 62
     0
100
AcDbPoint
 10
165.4316907019288
 20
540.341284020287
 30
0.0
  0
POINT
  5
14C8
330
131D
100
AcDbEntity
  8
DEFPOINTS
 62
     0
100
AcDbPoint
 10
106.3694886365714
 20
485.341284020287
 30
0.0
  0
POINT
  5
14C9
330
131D
100
AcDbEntity
  8
DEFPOINTS
 62
     0
100
AcDbPoint
 10
83.76057944172499
 20
485.341284020287
 30
0.0
  0
ENDBLK
  5
1328
330
131D
100
AcDbEntity
  8
0
100
AcDbBlockEnd
  0
ENDSEC
  0
SECTION
  2
ENTITIES
  0
LINE
  5
58
330
1E
100
AcDbEntity
  8
STEMPEL
100
AcDbLine
 10
484.0
 20
830.0000000000002
 30
0.0
 11
484.0
 21
470.0000000000001
 31
0.0
  0
LINE
  5
59
330
1E
100
AcDbEntity
  8
STEMPEL
100
AcDbLine
 10
484.0
 20
470.0000000000001
 30
0.0
 11
584.0
 21
470.0000000000001
 31
0.0
  0
LINE
  5
5A
330
1E
100
AcDbEntity
  8
STEMPEL
100
AcDbLine
 10
484.0000000000001
 20
566.0000000000002
 30
0.0
 11
584.0000000000001
 21
566.0
 31
0.0
  0
LINE
  5
5B
330
1E
100
AcDbEntity
  8
STEMPEL
100
AcDbLine
 10
484.0
 20
650.0
 30
0.0
 11
584.0
 21
650.0
 31
0.0
  0
LINE
  5
5C
330
1E
100
AcDbEntity
  8
STEMPEL
100
AcDbLine
 10
484.0000000000003
 20
752.0000000000002
 30
0.0
 11
554.0
 21
752.0000000000002
 31
0.0
  0
LINE
  5
5D
330
1E
100
AcDbEntity
  8
STEMPEL
100
AcDbLine
 10
564.0
 20
566.0
 30
0.0
 11
564.0
 21
470.0000000000001
 31
0.0
  0
LINE
  5
5E
330
1E
100
AcDbEntity
  8
STEMPEL
100
AcDbLine
 10
554.0
 20
830.0000000000002
 30
0.0
 11
554.0
 21
566.0
 31
0.0
  0
LINE
  5
5F
330
1E
100
AcDbEntity
  8
STEMPEL
100
AcDbLine
 10
514.0
 20
830.0000000000002
 30
0.0
 11
514.0
 21
566.0000000000002
 31
0.0
  0
LINE
  5
60
330
1E
100
AcDbEntity
  8
VOLL
100
AcDbLine
 10
484.0
 20
484.0000000000001
 30
0.0
 11
584.0
 21
484.0
 31
0.0
  0
LINE
  5
61
330
1E
100
AcDbEntity
  8
VOLL
100
AcDbLine
 10
484.0000000000001
 20
524.0000000000001
 30
0.0
 11
584.0000000000001
 21
524.0
 31
0.0
  0
LINE
  5
62
330
1E
100
AcDbEntity
  8
VOLL
100
AcDbLine
 10
484.0000000000001
 20
544.0000000000002
 30
0.0
 11
584.0000000000001
 21
544.0
 31
0.0
  0
LINE
  5
63
330
1E
100
AcDbEntity
  8
VOLL
100
AcDbLine
 10
514.0
 20
584.0000000000002
 30
0.0
 11
554.0
 21
584.0000000000002
 31
0.0
  0
LINE
  5
64
330
1E
100
AcDbEntity
  8
VOLL
100
AcDbLine
 10
484.0000000000002
 20
610.0000000000002
 30
0.0
 11
554.0
 21
610.0
 31
0.0
  0
LINE
  5
65
330
1E
100
AcDbEntity
  8
HILF
100
AcDbLine
 10
494.0
 20
470.0000000000001
 30
0.0
 11
494.0
 21
566.0000000000002
 31
0.0
  0
LINE
  5
66
330
1E
100
AcDbEntity
  8
HILF
100
AcDbLine
 10
504.0
 20
470.0000000000001
 30
0.0
 11
504.0
 21
566.0000000000002
 31
0.0
  0
LINE
  5
67
330
1E
100
AcDbEntity
  8
HILF
100
AcDbLine
 10
514.0
 20
470.0000000000001
 30
0.0
 11
514.0
 21
566.0000000000002
 31
0.0
  0
LINE
  5
68
330
1E
100
AcDbEntity
  8
HILF
100
AcDbLine
 10
524.0
 20
470.0000000000001
 30
0.0
 11
524.0
 21
566.0000000000002
 31
0.0
  0
LINE
  5
69
330
1E
100
AcDbEntity
  8
HILF
100
AcDbLine
 10
534.0
 20
470.0000000000001
 30
0.0
 11
534.0
 21
566.0000000000002
 31
0.0
  0
LINE
  5
6A
330
1E
100
AcDbEntity
  8
HILF
100
AcDbLine
 10
544.0
 20
470.0000000000001
 30
0.0
 11
544.0
 21
566.0000000000002
 31
0.0
  0
LINE
  5
6B
330
1E
100
AcDbEntity
  8
HILF
100
AcDbLine
 10
554.0
 20
470.0000000000001
 30
0.0
 11
554.0
 21
566.0000000000002
 31
0.0
  0
LINE
  5
6C
330
1E
100
AcDbEntity
  8
HILF
100
AcDbLine
 10
524.0
 20
566.0000000000002
 30
0.0
 11
524.0
 21
650.0
 31
0.0
  0
LINE
  5
6D
330
1E
100
AcDbEntity
  8
HILF
100
AcDbLine
 10
534.0
 20
566.0000000000002
 30
0.0
 11
534.0
 21
650.0
 31
0.0
  0
LINE
  5
6E
330
1E
100
AcDbEntity
  8
HILF
100
AcDbLine
 10
544.0
 20
566.0000000000002
 30
0.0
 11
544.0
 21
650.0
 31
0.0
  0
LINE
  5
6F
330
1E
100
AcDbEntity
  8
HILF
100
AcDbLine
 10
509.9624175243587
 20
654.7736801096948
 30
0.0
 11
509.9624175243587
 21
746.6297842514811
 31
0.0
  0
LINE
  5
70
330
1E
100
AcDbEntity
  8
HILF
100
AcDbLine
 10
524.0
 20
654.7736801096948
 30
0.0
 11
524.0
 21
746.6297842514811
 31
0.0
  0
LINE
  5
71
330
1E
100
AcDbEntity
  8
HILF
100
AcDbLine
 10
534.0
 20
654.7736801096948
 30
0.0
 11
534.0
 21
746.6297842514811
 31
0.0
  0
LINE
  5
72
330
1E
100
AcDbEntity
  8
HILF
100
AcDbLine
 10
544.0
 20
654.7736801096948
 30
0.0
 11
544.0
 21
746.6297842514811
 31
0.0
  0
LINE
  5
73
330
1E
100
AcDbEntity
  8
VOLL
100
AcDbLine
 10
534.0
 20
752.0000000000002
 30
0.0
 11
534.0
 21
830.0000000000002
 31
0.0
  0
LINE
  5
74
330
1E
100
AcDbEntity
  8
HILF
100
AcDbLine
 10
510.2201636304418
 20
756.7238616296995
 30
0.0
 11
510.2201636304418
 21
824.858883932673
 31
0.0
  0
LINE
  5
75
330
1E
100
AcDbEntity
  8
HILF
100
AcDbLine
 10
579.1060174197169
 20
654.7736801096948
 30
0.0
 11
579.1060174197169
 21
824.858883932673
 31
0.0
  0
TEXT
  5
76
330
1E
100
AcDbEntity
  8
TEXT
100
AcDbText
 10
575.3261810501587
 20
492.3998239263297
 30
0.0
 40
4.0
  1
Änderung
 50
90.0
 41
0.8
  7
GREEKS
 72
     1
 11
575.3261810501587
 21
503.1426810691868
 31
0.0
100
AcDbText
  0
TEXT
  5
78
330
1E
100
AcDbEntity
  8
TEXT
100
AcDbText
 10
491.5379104912911
 20
573.5163572150376
 30
0.0
 40
5.0
  1
Maßstab
 50
90.0
 41
0.8
  7
GREEKS
100
AcDbText
  0
TEXT
  5
79
330
1E
100
AcDbEntity
  8
TEXT
100
AcDbText
 10
491.4510671988221
 20
654.8779403809009
 30
0.0
 40
5.0
  1
Benennung
 50
90.0
 41
0.8
  7
GREEKS
100
AcDbText
  0
TEXT
  5
7A
330
1E
100
AcDbEntity
  8
TEXT
100
AcDbText
 10
491.6867965462863
 20
756.1787549576343
 30
0.0
 40
5.0
  1
Zeichnungs Nr.
 50
90.0
 41
0.8
  7
GREEKS
100
AcDbText
  0
TEXT
  5
7B
330
1E
100
AcDbEntity
  8
TEXT
100
AcDbText
 10
563.1543942980694
 20
654.7422383911359
 30
0.0
 40
5.0
  1
Bauvorhaben
 50
90.0
 41
0.8
  7
GREEKS
100
AcDbText
  0
TEXT
  5
7C
330
1E
100
AcDbEntity
  8
TEXT
100
AcDbText
 10
520.8188176290003
 20
756.7238616296995
 30
0.0
 40
5.0
  1
Ersatz für:
 50
90.0
 41
0.8
  7
GREEKS
100
AcDbText
  0
TEXT
  5
7D
330
1E
100
AcDbEntity
  8
TEXT
100
AcDbText
 10
580.3453415397281
 20
478.2664110704577
 30
0.0
 40
4.0
  1
Index
 50
180.0
 41
0.8
  7
GREEKS
100
AcDbText
  0
TEXT
  5
7E
330
1E
100
AcDbEntity
  8
TEXT
100
AcDbText
 10
575.3284373066019
 20
529.8990113186978
 30
0.0
 40
4.0
  1
Tag
 50
90.0
 41
0.8
  7
GREEKS
 72
     1
 11
575.3284373066019
 21
533.6323446520311
 31
0.0
100
AcDbText
  0
TEXT
  5
7F
330
1E
100
AcDbEntity
  8
TEXT
100
AcDbText
 10
575.4067578303359
 20
548.9795678138292
 30
0.0
 40
4.0
  1
Name
 50
90.0
 41
0.8
  7
GREEKS
 72
     1
 11
575.4067578303359
 21
555.3033773376387
 31
0.0
100
AcDbText
  0
TEXT
  5
80
330
1E
100
AcDbEntity
  8
TEXT
100
AcDbText
 10
520.6811949877008
 20
592.3311673153651
 30
0.0
 40
4.0
  1
Tag
 50
90.0
 41
0.8
  7
GREEKS
100
AcDbText
  0
TEXT
  5
81
330
1E
100
AcDbEntity
  8
TEXT
100
AcDbText
 10
520.6903890808478
 20
622.4626584226296
 30
0.0
 40
4.0
  1
Name
 50
90.0
 41
0.8
  7
GREEKS
100
AcDbText
  0
TEXT
  5
82
330
1E
100
AcDbEntity
  8
TEXT
100
AcDbText
 10
530.3700963038204
 20
567.5836127167615
 30
0.0
 40
4.0
  1
Gez.
 50
90.0
 41
0.8
  7
GREEKS
100
AcDbText
  0
TEXT
  5
83
330
1E
100
AcDbEntity
  8
TEXT
100
AcDbText
 10
540.3107370857163
 20
567.5515086571672
 30
0.0
 40
4.0
  1
Gepr.
 50
90.0
 41
0.8
  7
GREEKS
100
AcDbText
  0
TEXT
  5
84
330
1E
100
AcDbEntity
  8
TEXT
100
AcDbText
 10
550.470536103502
 20
567.6006777387303
 30
0.0
 40
4.0
  1
Norm.
 50
90.0
 41
0.8
  7
GREEKS
100
AcDbText
  0
TEXT
  5
85
330
1E
100
AcDbEntity
  8
TEXT
100
AcDbText
 10
541.925838221214
 20
757.2400861497007
 30
0.0
 40
5.0
  1
ersetzt durch:
 50
90.0
 41
0.8
  7
GREEKS
100
AcDbText
  0
TEXT
  5
86
330
1E
100
AcDbEntity
  8
TEXT
100
AcDbText
 10
521.0331740347627
 20
568.8693027807324
 30
0.0
 40
4.0
  1
2010
 50
90.0
 41
0.8
  7
GREEKS
100
AcDbText
  0
LINE
  5
87
330
1E
100
AcDbEntity
  8
HILF
100
AcDbLine
 10
594.0
 20
-0.0000000000000568
 30
0.0
 11
594.0
 21
840.0
 31
0.0
  0
LINE
  5
88
330
1E
100
AcDbEntity
  8
HILF
100
AcDbLine
 10
594.0
 20
840.0
 30
0.0
 11
0.0
 21
840.0
 31
0.0
  0
LINE
  5
89
330
1E
100
AcDbEntity
  8
HILF
100
AcDbLine
 10
0.0
 20
840.0
 30
0.0
 11
0.0
 21
0.0
 31
0.0
  0
LINE
  5
8B
330
1E
100
AcDbEntity
  8
STEMPEL
100
AcDbLine
 10
10.0
 20
830.0
 30
0.0
 11
10.0
 21
39.99999999999995
 31
0.0
  0
LINE
  5
8D
330
1E
100
AcDbEntity
  8
STEMPEL
100
AcDbLine
 10
584.0
 20
39.99999999999995
 30
0.0
 11
584.0
 21
830.0
 31
0.0
  0
LINE
  5
8E
330
1E
100
AcDbEntity
  8
STEMPEL
100
AcDbLine
 10
584.0
 20
830.0
 30
0.0
 11
10.0
 21
830.0
 31
0.0
  0
TEXT
  5
8F
330
1E
100
AcDbEntity
  8
TEXT
 62
     1
100
AcDbText
 10
506.6265692434746
 20
655.0390572473189
 30
0.0
 40
7.0
  1
Drainjet Kompletteinheit 
 50
90.0
 41
0.7
  7
GREEKS
100
AcDbText
  0
TEXT
  5
90
330
1E
100
AcDbEntity
  8
TEXT
 62
     1
100
AcDbText
 10
506.6265692434746
 20
768.2628088850803
 30
0.0
 40
7.0
  1
21311100W
 50
90.0
 41
0.8
  7
GREEKS
 72
     1
 11
506.6265692434746
 21
790.1294755517469
 31
0.0
100
AcDbText
  0
TEXT
  5
91
330
1E
100
AcDbEntity
  8
TEXT
100
AcDbText
 10
491.16010388621
 20
618.5090226415829
 30
0.0
 40
5.0
  1
Zul.Abw.
 50
90.0
 41
0.8
  7
GREEKS
100
AcDbText
  0
TEXT
  5
93
330
1E
100
AcDbEntity
  8
TEXT
100
AcDbText
 10
530.8491412387978
 20
590.7660475607107
 30
0.0
 40
4.0
  1
14.12.
 50
90.0
 41
0.8
  7
GREEKS
 72
     1
 11
530.8491412387978
 21
597.1660475607107
 31
0.0
100
AcDbText
  0
TEXT
  5
94
330
1E
100
AcDbEntity
  8
TEXT
100
AcDbText
 10
531.0570234483452
 20
624.0231753226609
 30
0.0
 40
4.0
  1
Koeh
 50
90.0
 41
0.8
  7
GREEKS
 72
     1
 11
531.0570234483452
 21
629.2803181798038
 31
0.0
100
AcDbText
  0
TEXT
  5
95
330
1E
100
AcDbEntity
  8
TEXT
100
AcDbText
 10
521.8997861689246
 20
654.3410940884991
 30
0.0
 40
5.0
  1
DN100, einteilig
 50
90.0
 41
0.8
  7
GREEKS
100
AcDbText
  0
TEXT
  5
96
330
1E
100
AcDbEntity
  8
TEXT
100
AcDbText
 10
531.6544091479096
 20
654.3410940884991
 30
0.0
 40
5.0
  1

 50
90.0
 41
0.8
  7
GREEKS
100
AcDbText
  0
TEXT
  5
97
330
1E
100
AcDbEntity
  8
TEXT
100
AcDbText
 10
541.4090266215394
 20
654.3410940884991
 30
0.0
 40
5.0
  1
EDV-Art.Nr. 21311.100X
 50
90.0
 41
0.8
  7
GREEKS
100
AcDbText
  0
TEXT
  5
98
330
1E
100
AcDbEntity
  8
TEXT
100
AcDbText
 10
550.6887237520849
 20
654.1676050109347
 30
0.0
 40
4.0
  1
21311100W.DWG
 50
90.0
 41
0.8
  7
GREEKS
100
AcDbText
  0
TEXT
  5
99
330
1E
100
AcDbEntity
  8
TEXT
 62
     1
100
AcDbText
 10
506.5292291158502
 20
582.703491203422
 30
0.0
 40
7.0
  1
1:2
 50
90.0
 41
0.8
  7
GREEKS
100
AcDbText
  0
TEXT
  5
9A
330
1E
100
AcDbEntity
  8
TEXT
100
AcDbText
 10
479.8856414948956
 20
470.0441139350127
 30
0.0
 40
5.0
  1
Erstellt mit AUTOCAD 2004
 50
90.0
 41
0.8
  7
GREEKS
100
AcDbText
  0
INSERT
  5
9B
330
1E
100
AcDbEntity
  8
HILF
100
AcDbBlockReference
  2
LORO
 10
557.0194069970104
 20
573.0624985962354
 30
0.0
 41
2.0
 42
2.0
 43
2.0
 50
90.0
  0
LINE
  5
9C
330
1E
100
AcDbEntity
  8
BEM
100
AcDbLine
 10
594.0
 20
455.9999999999999
 30
0.0
 11
584.0
 21
455.9999999999999
 31
0.0
  0
LINE
  5
13E
330
1E
100
AcDbEntity
  8
HILF
100
AcDbLine
 10
594.0
 20
-0.0000000000000568
 30
0.0
 11
0.0
 21
0.0
 31
0.0
  0
LINE
  5
13F
330
1E
100
AcDbEntity
  8
STEMPEL
100
AcDbLine
 10
584.0
 20
39.99999999999995
 30
0.0
 11
10.0
 21
39.99999999999995
 31
0.0
  0
LINE
  5
14A
330
1E
100
AcDbEntity
  8
HILF
100
AcDbLine
 10
297.0
 20
-0.0000000000000568
 30
0.0
 11
297.0
 21
39.99999999999995
 31
0.0
  0
TEXT
  5
15B
330
1E
100
AcDbEntity
  8
BEM
100
AcDbText
 10
583.8320989200114
 20
837.3022923857165
 30
0.0
 40
4.0
  1
Diese Zeichnung ist urheberrechtlich geschützt und bleibt unser Eigentum. Sie darf weder ganz noch teilweise verfielfältigt und nicht an Dritte weitergegeben werden.
 50
180.0
 41
0.8
  7
GREEKS
100
AcDbText
  0
LINE
  5
19C
330
1E
100
AcDbEntity
  8
BEM
100
AcDbLine
 10
0.0
 20
455.9999999999999
 30
0.0
 11
10.0
 21
455.9999999999999
 31
0.0
  0
TEXT
  5
663
330
1E
100
AcDbEntity
  8
TEXT
100
AcDbText
 10
504.5307583482736
 20
612.2898419893275
 30
0.0
 40
4.0
  1
DIN EN1124-3
 50
90.0
 41
0.8
  7
GREEKS
 72
     1
 11
504.5307583482736
 21
629.2803181798038
 31
0.0
100
AcDbText
  0
TEXT
  5
664
330
1E
100
AcDbEntity
  8
TEXT
 62
     1
100
AcDbText
 10
531.5924625427206
 20
790.1294755517469
 30
0.0
 40
7.0
  1

 50
90.0
 41
0.8
  7
GREEKS
 72
     1
 11
531.5924625427206
 21
790.1294755517469
 31
0.0
100
AcDbText
  0
TEXT
  5
998
330
1E
100
AcDbEntity
  8
TEXT
 62
     1
100
AcDbText
 10
244.5781388179069
 20
364.9504437044627
 30
0.0
 40
7.0
  1
DN100
 50
90.0
 41
0.8
  7
GREEKS
 72
     1
 11
244.5781388179069
 21
377.3504437044627
 31
0.0
100
AcDbText
  0
TEXT
  5
B55
330
1E
100
AcDbEntity
  8
TEXT
 62
     1
100
AcDbText
 10
324.1470114951009
 20
663.4285264302333
 30
0.0
 40
7.0
  1
EDV-Art.Nr. 21009.000X
 41
0.8
  7
GREEKS
100
AcDbText
  0
LINE
  5
B56
330
1E
100
AcDbEntity
  8
TEXT
 62
     2
100
AcDbLine
 10
322.7956423469247
 20
673.9422053173373
 30
0.0
 11
431.0992470714364
 21
673.9422053173373
 31
0.0
  0
TEXT
  5
B57
330
1E
100
AcDbEntity
  8
TEXT
 62
     1
100
AcDbText
 10
324.1470114951009
 20
677.1048669479688
 30
0.0
 40
7.0
  1
Drainjethaube
 41
0.8
  7
GREEKS
100
AcDbText
  0
LINE
  5
B58
330
1E
100
AcDbEntity
  8
TEXT
 62
     2
100
AcDbLine
 10
308.4102904106762
 20
620.6000535079633
 30
0.0
 11
322.7956423469247
 21
673.9422053173373
 31
0.0
  0
LINE
  5
B59
330
1E
100
AcDbEntity
  8
TEXT
 62
     2
100
AcDbLine
 10
304.8363881934787
 20
607.3477093549337
 30
0.0
 11
307.1273760084026
 21
615.8428939259254
 31
0.0
  0
LINE
  5
B5A
330
1E
100
AcDbEntity
  8
TEXT
 62
     2
100
AcDbLine
 10
301.4961625511603
 20
594.9618585200201
 30
0.0
 11
303.4453336784849
 21
602.1895567116926
 31
0.0
  0
TEXT
  5
B6D
330
1E
100
AcDbEntity
  8
TEXT
 62
     1
100
AcDbText
 10
404.1906182803765
 20
444.6159127694366
 30
0.0
 40
7.0
  1
EDV-Art.Nr. 21906.100X
 41
0.8
100
AcDbText
  0
LINE
  5
B6E
330
1E
100
AcDbEntity
  8
TEXT
 62
     2
100
AcDbLine
 10
509.5338269767552
 20
453.9084095772358
 30
0.0
 11
403.595262401622
 21
453.9084095772358
 31
0.0
  0
TEXT
  5
B6F
330
1E
100
AcDbEntity
  8
TEXT
 62
     1
100
AcDbText
 10
404.1906182803765
 20
457.3922437381462
 30
0.0
 40
7.0
  1
Losflansch DN100
 41
0.8
100
AcDbText
  0
LINE
  5
B70
330
1E
100
AcDbEntity
  8
TEXT
 62
     2
100
AcDbLine
 10
403.595262401622
 20
453.9084095772358
 30
0.0
 11
379.8667356331965
 21
489.3788283141977
 31
0.0
  0
LINE
  5
B74
330
1E
100
AcDbEntity
  8
TEXT
 62
     2
100
AcDbLine
 10
386.7263469617805
 20
416.8487066629133
 30
0.0
 11
334.2975827462686
 21
481.1115258369714
 31
0.0
  0
TEXT
  5
B76
330
1E
100
AcDbEntity
  8
TEXT
 62
     1
100
AcDbText
 10
380.3846940300246
 20
250.4331609746731
 30
0.0
 40
7.0
  1
Ablaufkörper DN100
 41
0.8
  7
GREEKS
100
AcDbText
  0
LINE
  5
B77
330
1E
100
AcDbEntity
  8
TEXT
 62
     2
100
AcDbLine
 10
379.3040076311876
 20
246.8203927024794
 30
0.0
 11
298.6054337285565
 21
269.320099981897
 31
0.0
  0
LINE
  5
B78
330
1E
100
AcDbEntity
  8
TEXT
 62
     2
100
AcDbLine
 10
485.4279022388653
 20
246.8203927024796
 30
0.0
 11
379.3040076311876
 21
246.8203927024794
 31
0.0
  0
TEXT
  5
B79
330
1E
100
AcDbEntity
  8
TEXT
 62
     1
100
AcDbText
 10
380.2041387358725
 20
237.3853888276939
 30
0.0
 40
7.0
  1
EDV-Art.Nr. 21981.100X
 41
0.8
  7
GREEKS
100
AcDbText
  0
TEXT
  5
BB1
330
1E
100
AcDbEntity
  8
TEXT
 62
     1
100
AcDbText
 10
393.4521736621257
 20
419.8352471549664
 30
0.0
 40
7.0
  1
Kompressionsdichtung
 41
0.8
100
AcDbText
  0
TEXT
  5
BB2
330
1E
100
AcDbEntity
  8
TEXT
 62
     1
100
AcDbText
 10
393.8081326649624
 20
406.297233849918
 30
0.0
 40
7.0
  1
EDV-Art.Nr. 21810.125X
 41
0.8
100
AcDbText
  0
LINE
  5
BB3
330
1E
100
AcDbEntity
  8
TEXT
 62
     2
100
AcDbLine
 10
386.7263469617805
 20
416.8487066629133
 30
0.0
 11
498.2560882961832
 21
416.8487066629133
 31
0.0
  0
LINE
  5
DCE
330
1E
100
AcDbEntity
  8
STEMPEL
100
AcDbLine
 10
104.9121293236908
 20
479.3412840202878
 30
0.0
 11
391.8268479494535
 21
479.3412840202868
 31
0.0
  0
DIMENSION
  5
DDE
330
1E
100
AcDbEntity
  8
BEM
100
AcDbDimension
  2
*D2
 10
299.1694886365715
 20
187.0324934466725
 30
0.0
 11
248.3694886365715
 21
193.5324934466725
 31
0.0
 70
    32
  1
%%c<>
 71
     5
 42
101.6
  3
Standard
100
AcDbAlignedDimension
 13
197.5694886365714
 23
217.341284020288
 33
0.0
 14
299.1694886365715
 24
217.3412840202876
 34
0.0
100
AcDbRotatedDimension
1001
ACAD
1000
DSTYLE
1002
{
1070
    40
1040
2.0
1070
    41
1040
3.5
1070
    42
1040
1.0
1070
    43
1040
7.0
1070
    44
1040
1.0
1070
    73
1070
     0
1070
    74
1070
     0
1070
    77
1070
     1
1070
    78
1070
     8
1070
    79
1070
     2
1070
   140
1040
3.5
1070
   141
1040
1.5
1070
   146
1040
0.5142857142857144
1070
   147
1040
1.5
1070
   172
1070
     1
1070
   178
1070
     1
1070
   179
1070
     2
1070
   271
1070
     2
1070
   272
1070
     2
1070
   284
1070
     8
1070
   285
1070
     8
1070
   286
1070
     8
1002
}
  0
DIMENSION
  5
DE5
330
1E
100
AcDbEntity
  8
BEM
100
AcDbDimension
  2
*D3
 10
358.3694886365719
 20
604.6805011670774
 30
0.0
 11
248.3694886365718
 21
611.1805011670774
 31
0.0
 70
    32
  1
%%c<>
 71
     5
 42
220.0000000000002
  3
Standard
100
AcDbAlignedDimension
 13
138.3694886365716
 23
575.3412260529715
 33
0.0
 14
358.3694886365719
 24
575.3412260529715
 34
0.0
100
AcDbRotatedDimension
1001
ACAD
1000
DSTYLE
1002
{
1070
    40
1040
2.0
1070
    41
1040
3.5
1070
    42
1040
1.0
1070
    43
1040
7.0
1070
    44
1040
1.0
1070
    73
1070
     0
1070
    74
1070
     0
1070
    77
1070
     1
1070
    78
1070
     8
1070
    79
1070
     2
1070
   140
1040
3.5
1070
   141
1040
1.5
1070
   146
1040
0.5142857142857144
1070
   147
1040
1.5
1070
   172
1070
     1
1070
   178
1070
     1
1070
   179
1070
     2
1070
   271
1070
     2
1070
   272
1070
     2
1070
   284
1070
     8
1070
   285
1070
     8
1070
   286
1070
     8
1002
}
  0
DIMENSION
  5
DEF
330
1E
100
AcDbEntity
  8
BEM
100
AcDbDimension
  2
*D4
 10
67.49148707503093
 20
209.3412840202879
 30
0.0
 11
60.99148707503091
 21
344.3412840202874
 31
0.0
 70
    32
 71
     5
 42
269.999999999999
  3
Standard
100
AcDbAlignedDimension
 13
98.36948863657159
 23
479.3412840202869
 33
0.0
 14
198.2693979447789
 24
209.3412840202879
 34
0.0
 50
90.0
100
AcDbRotatedDimension
1001
ACAD
1000
DSTYLE
1002
{
1070
    40
1040
2.0
1070
    41
1040
3.5
1070
    42
1040
1.0
1070
    43
1040
7.0
1070
    44
1040
1.0
1070
    73
1070
     0
1070
    74
1070
     0
1070
    77
1070
     1
1070
    78
1070
     8
1070
    79
1070
     2
1070
   140
1040
3.5
1070
   141
1040
1.5
1070
   146
1040
0.5142857142857144
1070
   147
1040
1.5
1070
   172
1070
     1
1070
   178
1070
     1
1070
   179
1070
     2
1070
   271
1070
     2
1070
   272
1070
     2
1070
   284
1070
     8
1070
   285
1070
     8
1070
   286
1070
     8
1002
}
  0
DIMENSION
  5
DF9
330
1E
100
AcDbEntity
  8
BEM
100
AcDbDimension
  2
*D5
 10
67.49148707503093
 20
595.3412840202861
 30
0.0
 11
60.99148707503084
 21
540.3412840202865
 31
0.0
 70
    32
 71
     5
 42
109.9999999999992
  3
Standard
100
AcDbAlignedDimension
 13
106.3694886365716
 23
485.3412840202869
 33
0.0
 14
168.3694886365716
 24
595.3412840202861
 34
0.0
 50
90.0
100
AcDbRotatedDimension
1001
ACAD
1000
DSTYLE
1002
{
1070
    40
1040
2.0
1070
    41
1040
3.5
1070
    42
1040
1.0
1070
    43
1040
7.0
1070
    44
1040
1.0
1070
    73
1070
     0
1070
    74
1070
     0
1070
    77
1070
     1
1070
    78
1070
     8
1070
    79
1070
     2
1070
   140
1040
3.5
1070
   141
1040
1.5
1070
   146
1040
0.5142857142857144
1070
   147
1040
1.5
1070
   172
1070
     1
1070
   178
1070
     1
1070
   179
1070
     2
1070
   271
1070
     2
1070
   272
1070
     2
1070
   284
1070
     8
1070
   285
1070
     8
1070
   286
1070
     8
1002
}
  0
LINE
  5
E99
330
1E
100
AcDbEntity
  8
MITTEL
100
AcDbLine
 10
248.3694886365718
 20
601.8412840202866
 30
0.0
 11
248.369488636571
 21
204.3412840202878
 31
0.0
  0
DIMENSION
  5
104A
330
1E
100
AcDbEntity
  8
BEM
100
AcDbDimension
  2
*D6
 10
398.3694886365717
 20
617.351185019999
 30
0.0
 11
248.3694886365717
 21
623.8511850199991
 31
0.0
 70
    32
  1
%%c<>
 71
     5
 42
300.0
  3
Standard
100
AcDbAlignedDimension
 13
98.36948863657163
 23
474.455497582661
 33
0.0
 14
398.3694886365717
 24
474.455497582661
 34
0.0
100
AcDbRotatedDimension
1001
ACAD
1000
DSTYLE
1002
{
1070
    40
1040
2.0
1070
    41
1040
3.5
1070
    42
1040
1.0
1070
    43
1040
7.0
1070
    44
1040
1.0
1070
    73
1070
     0
1070
    74
1070
     0
1070
    77
1070
     1
1070
    78
1070
     8
1070
    79
1070
     2
1070
   140
1040
3.5
1070
   141
1040
1.5
1070
   146
1040
0.5142857142857144
1070
   147
1040
1.5
1070
   172
1070
     1
1070
   178
1070
     1
1070
   179
1070
     2
1070
   271
1070
     2
1070
   272
1070
     2
1070
   284
1070
     8
1070
   285
1070
     8
1070
   286
1070
     8
1002
}
  0
HATCH
  5
11E8
330
1E
100
AcDbEntity
  8
SCHRAFF
100
AcDbHatch
 10
0.0
 20
0.0
 30
0.0
210
0.0
220
0.0
230
1.0
  2
_USER
 70
     0
 71
     0
 91
        4
 92
        7
 72
     1
 73
     1
 93
        4
 10
106.3694886365715
 20
491.341284020287
 42
1.0
 10
106.3694886365715
 20
485.341284020287
 42
0.0
 10
129.3694886365715
 20
485.341284020287
 42
0.0
 10
129.3694886365715
 20
491.341284020287
 42
0.0
 97
        0
 92
        7
 72
     1
 73
     1
 93
        8
 10
143.3694886365715
 20
491.341284020287
 42
0.0
 10
143.3694886365714
 20
485.341284020287
 42
0.0
 10
169.3694886365715
 20
485.3412840202868
 42
0.0
 10
167.4488463145253
 20
540.341284020287
 42
0.0
 10
165.4316907019288
 20
540.341284020287
 42
0.4040262258350415
 10
164.9319952884193
 20
539.8587337686383
 42
0.0
 10
163.2714306616417
 20
492.3063845235843
 42
-0.404026225835099
 10
162.2720398346228
 20
491.341284020287
 42
0.0
 97
        0
 92
        7
 72
     1
 73
     1
 93
       19
 10
366.3694886365715
 20
485.341284020287
 42
0.0
 10
366.3694886365715
 20
488.3412840202876
 42
0.0
 10
366.8694886365715
 20
488.3412840202876
 42
0.0
 10
366.8694886365715
 20
491.3412840202874
 42
0.0
 10
366.3694886365715
 20
491.3412840202874
 42
0.0
 10
366.3694886365713
 20
499.3412840202874
 42
0.0
 10
366.8694886365715
 20
499.3412840202874
 42
0.0
 10
366.8694886365715
 20
502.3412840202874
 42
0.0
 10
366.3694886365713
 20
502.3412840202874
 42
0.0
 10
366.3694886365715
 20
505.3412840202869
 42
0.0
 10
362.8694886365715
 20
505.3412840202871
 42
0.0
 10
362.7108698877802
 20
496.2540219881009
 42
-0.4091108014277157
 10
357.7116314119983
 20
491.3412840202872
 42
0.0
 10
334.4669374385203
 20
491.3412840202872
 42
-0.4040262258351384
 10
333.4675466115013
 20
492.3063845235846
 42
0.0
 10
331.8069819847238
 20
539.8587337686383
 42
0.4040262258351858
 10
331.3072865712143
 20
540.3412840202872
 42
0.0
 10
329.2901309586178
 20
540.3412840202872
 42
0.0
 10
327.3694886365715
 20
485.341284020287
 42
0.0
 97
        0
 92
        7
 72
     1
 73
     1
 93
       15
 10
390.3694886365715
 20
485.341284020287
 42
1.0
 10
390.3694886365715
 20
491.341284020287
 42
0.0
 10
383.027345861145
 20
491.341284020287
 42
-0.40911080142771
 10
378.0281073853631
 20
496.2540219881006
 42
0.0
 10
377.8694886365715
 20
505.3412840202871
 42
0.0
 10
374.3694886365716
 20
505.3412840202869
 42
0.0
 10
374.3694886365713
 20
502.3412840202874
 42
0.0
 10
373.8694886365715
 20
502.3412840202873
 42
0.0
 10
373.8694886365715
 20
499.3412840202873
 42
0.0
 10
374.3694886365713
 20
499.3412840202873
 42
0.0
 10
374.3694886365716
 20
491.3412840202877
 42
0.0
 10
373.8694886365717
 20
491.3412840202877
 42
0.0
 10
373.8694886365715
 20
488.3412840202876
 42
0.0
 10
374.3694886365716
 20
488.3412840202876
 42
0.0
 10
374.3694886365716
 20
485.341284020287
 42
0.0
 97
        0
 75
     0
 76
     0
 52
45.0
 41
5.0
 77
     0
 78
     1
 53
45.0
 43
12.6020405142622
 44
-17.05874348617482
 45
-3.535533905932737
 46
3.535533905932737
 79
     0
 47
0.4044218533258408
 98
        4
 10
122.8214443617398
 20
488.8925483893134
 10
151.1493378248861
 20
488.8925483893134
 10
347.0164921862761
 20
487.274861789352
 10
378.9865443651806
 20
488.0837050893328
  0
LINE
  5
11E9
330
1E
100
AcDbEntity
  8
STEMPEL
100
AcDbLine
 10
165.4316907019288
 20
540.341284020287
 30
0.0
 11
331.3072865712143
 21
540.3412840202872
 31
0.0
  0
ARC
  5
11EB
330
1E
100
AcDbEntity
  8
STEMPEL
100
AcDbCircle
 10
230.5628508089205
 20
596.8412840202866
 30
0.0
 40
1.5
100
AcDbArc
 50
270.0
 51
330.0000000000039
  0
ARC
  5
11EC
330
1E
100
AcDbEntity
  8
STEMPEL
100
AcDbCircle
 10
230.5628508089205
 20
596.8412840202866
 30
0.0
 40
2.5
100
AcDbArc
 50
270.0
 51
330.0000000000039
  0
ARC
  5
11ED
330
1E
100
AcDbEntity
  8
STEMPEL
100
AcDbCircle
 10
233.1609270202742
 20
595.3412840202865
 30
0.0
 40
1.5
100
AcDbArc
 50
90.0
 51
150.0000000000039
  0
LINE
  5
11F0
102
{ACAD_REACTORS
330
12D4
102
}
330
1E
100
AcDbEntity
  8
STEMPEL
100
AcDbLine
 10
390.3694886365714
 20
485.341284020287
 30
0.0
 11
141.3694886365714
 21
485.3412840202869
 31
0.0
  0
LINE
  5
11F1
330
1E
100
AcDbEntity
  8
HILF
100
AcDbLine
 10
350.6958216941021
 20
578.3412840202897
 30
0.0
 11
145.5431555790406
 21
578.3412840202895
 31
0.0
  0
LINE
  5
11F2
330
1E
100
AcDbEntity
  8
STEMPEL
100
AcDbLine
 10
168.3694886365714
 20
594.3412840202861
 30
0.0
 11
328.3694886365716
 21
594.341284020287
 31
0.0
  0
LINE
  5
11F3
330
1E
100
AcDbEntity
  8
STEMPEL
100
AcDbLine
 10
225.7059270202743
 20
596.8412840202866
 30
0.0
 11
271.2109270202742
 21
596.8412840202866
 31
0.0
  0
HATCH
  5
11F4
330
1E
100
AcDbEntity
  8
SCHRAFF
  6
Continuous
100
AcDbHatch
 10
0.0
 20
0.0
 30
0.0
210
0.0
220
0.0
230
1.0
  2
ANSI31
 70
     0
 71
     0
 91
        4
 92
        7
 72
     1
 73
     1
 93
       44
 10
139.3694886365715
 20
575.3412260529715
 42
-0.266750395150088
 10
141.8501350684443
 20
579.6601214671677
 42
0.0
 10
165.8289889613852
 20
593.6477746333471
 42
-0.134038508411906
 10
168.3694886365713
 20
594.3412840202861
 42
0.0
 10
223.1078508089208
 20
594.3412840202865
 42
0.2679491924311371
 10
225.2729143183819
 20
595.5912840202866
 42
-0.2679491924311204
 10
225.7059270202741
 20
595.8412840202866
 42
0.0
 10
225.9059270202743
 20
595.8412840202866
 42
-0.2679491924312574
 10
226.3389397221668
 20
595.5912840202868
 42
0.2679491924311556
 10
228.5040032316281
 20
594.3412840202865
 42
0.0
 10
230.5628508089205
 20
594.3412840202865
 42
0.2679491924311518
 10
232.7279143183817
 20
595.5912840202866
 42
-0.2679491924310975
 10
233.1609270202739
 20
595.8412840202866
 42
0.0
 10
233.3609270202742
 20
595.8412840202866
 42
-0.2679491924309788
 10
233.7939397221661
 20
595.5912840202866
 42
0.2679491924311251
 10
235.9590032316272
 20
594.3412840202865
 42
0.0
 10
242.4128508089214
 20
594.3412840202865
 42
0.2679491924310973
 10
244.5779143183823
 20
595.5912840202863
 42
-0.2679491924312862
 10
245.0109270202747
 20
595.8412840202866
 42
0.0
 10
248.3694886365715
 20
595.8412840202868
 42
0.0
 10
248.3694886365715
 20
596.8412840202866
 42
0.0
 10
245.0109270202741
 20
596.8412840202866
 42
0.2679491924310756
 10
243.7118889145977
 20
596.0912840202865
 42
-0.2679491924311246
 10
242.4128508089211
 20
595.3412840202865
 42
0.0
 10
235.9590032316272
 20
595.3412840202865
 42
-0.2679491924310962
 10
234.6599651259507
 20
596.0912840202865
 42
0.2859076546238575
 10
233.260927020274
 20
596.8379469749961
 42
0.2859076546238756
 10
231.8618889145973
 20
596.0912840202865
 42
-0.2679491924311237
 10
230.5628508089207
 20
595.3412840202865
 42
0.0
 10
228.5040032316281
 20
595.3412840202865
 42
-0.2679491924311723
 10
227.2049651259512
 20
596.0912840202865
 42
0.2859076546238861
 10
225.8059270202744
 20
596.8379469749961
 42
0.2859076546239122
 10
224.4068889145975
 20
596.0912840202865
 42
-0.2679491924311319
 10
223.1078508089209
 20
595.3412840202865
 42
0.0
 10
168.3694886365713
 20
595.3412840202861
 42
0.1316524975837886
 10
165.369488636645
 20
594.5374364430356
 42
0.0
 10
141.336794014874
 20
580.5183645803365
 42
0.2662608607109036
 10
138.3694886365713
 20
575.3412260529715
 42
0.0
 10
138.3694886365713
 20
511.3412840202875
 42
-0.4142135623730909
 10
133.3694886365714
 20
506.3412840202875
 42
0.0
 10
118.3694886365712
 20
506.3412840202871
 42
0.0
 10
118.3694886365711
 20
505.3412840202871
 42
0.0
 10
133.3694886365714
 20
505.3412840202871
 42
0.4142135623730952
 10
139.3694886365715
 20
511.3412840202871
 42
0.0
 97
        0
 92
        7
 72
     1
 73
     1
 93
       31
 10
308.5118329820605
 20
595.341284020287
 42
0.0
 10
273.8090032316282
 20
595.3412840202865
 42
-0.2679491924311948
 10
272.5099651259512
 20
596.0912840202865
 42
0.2859076546239628
 10
271.110927020274
 20
596.8379469749961
 42
0.2859076546237491
 10
269.7118889145979
 20
596.0912840202865
 42
-0.2679491924311143
 10
268.4128508089213
 20
595.3412840202865
 42
0.0
 10
261.9590032316277
 20
595.3412840202865
 42
-0.2679491924311449
 10
260.659965125951
 20
596.0912840202865
 42
0.2859076546238161
 10
259.2609270202746
 20
596.8379469749963
 42
0.3607372083888945
 10
257.7085582654463
 20
595.7162840202865
 42
-0.3419987131196436
 10
257.2244353471704
 20
595.3412840202865
 42
0.0
 10
257.035686154571
 20
595.3412840202865
 42
-0.3419987131195289
 10
256.5515632362953
 20
595.7162840202865
 42
0.3419987131196487
 10
255.0991944814676
 20
596.8412840202866
 42
0.0
 10
248.3694886365714
 20
596.8412840202866
 42
0.0
 10
248.3694886365714
 20
595.8412840202866
 42
0.0
 10
255.0991944814677
 20
595.8412840202866
 42
-0.3419987131195064
 10
255.5833173997433
 20
595.4662840202866
 42
0.3596757619904947
 10
257.1300607508706
 20
594.3442558189579
 42
0.3596757619905158
 10
258.6768041019981
 20
595.4662840202866
 42
-0.3419987131196715
 10
259.160927020274
 20
595.8412840202866
 42
0.0
 10
259.3609270202742
 20
595.8412840202866
 42
-0.2679491924311643
 10
259.7939397221666
 20
595.5912840202866
 42
0.2679491924311343
 10
261.9590032316277
 20
594.3412840202865
 42
0.0
 10
268.4128508089218
 20
594.3412840202865
 42
0.2679491924310781
 10
270.5779143183826
 20
595.5912840202863
 42
-0.2679491924312612
 10
271.0109270202749
 20
595.8412840202866
 42
0.0
 10
271.2109270202741
 20
595.8412840202866
 42
-0.2679491924313018
 10
271.6439397221668
 20
595.5912840202868
 42
0.2679491924311476
 10
273.8090032316281
 20
594.3412840202865
 42
0.0
 10
309.0125363082544
 20
594.341284020287
 42
0.0
 97
        0
 92
        7
 72
     1
 73
     1
 93
       16
 10
328.3694886365716
 20
595.341284020287
 42
0.0
 10
308.5118329820606
 20
595.341284020287
 42
0.0
 10
309.0125363082544
 20
594.3412840202868
 42
0.0
 10
328.3694886365716
 20
594.341284020287
 42
-0.1340385084118612
 10
330.9099883117567
 20
593.6477746333478
 42
0.0
 10
354.8888422046987
 20
579.6601214671677
 42
-0.2667503951500871
 10
357.3694886365715
 20
575.3412260529715
 42
0.0
 10
357.3694886365715
 20
511.3412840202875
 42
0.4142135623731166
 10
363.3694886365715
 20
505.3412840202871
 42
0.0
 10
366.3694886365714
 20
505.3412840202871
 42
0.0
 10
366.3694886365714
 20
506.3412840202873
 42
0.0
 10
363.3694886365713
 20
506.3412840202875
 42
-0.4142135623730784
 10
358.3694886365716
 20
511.3412840202875
 42
0.0
 10
358.3694886365716
 20
575.3412260529715
 42
0.2662608607107455
 10
355.402183258272
 20
580.5183645803347
 42
0.0
 10
331.3694886364949
 20
594.5374364430374
 42
0.131652497583648
 97
        0
 92
        7
 72
     0
 73
     1
 93
        4
 10
378.3694886365714
 20
506.3412840202871
 10
374.3694886365714
 20
506.3412840202871
 10
374.3694886365714
 20
505.3412840202871
 10
378.3694886365714
 20
505.3412840202871
 97
        0
 75
     0
 76
     1
 52
0.0
 41
20.0
 77
     0
 78
     1
 53
45.0
 43
9.926017081896304
 44
88.51493367177345
 45
-1.767766952966368
 46
1.767766952966368
 79
     0
 47
0.4197568243763778
 98
        4
 10
139.0648956431707
 20
544.4167719002548
 10
293.2322993609948
 20
594.7875920745941
 10
325.5780475191579
 20
594.7875920745941
 10
375.566933865098
 20
505.7991437453345
  0
LINE
  5
11F8
330
1E
100
AcDbEntity
  8
STEMPEL
100
AcDbLine
 10
131.3694886365714
 20
485.3412840202869
 30
0.0
 11
106.3694886365714
 21
485.341284020287
 31
0.0
  0
LINE
  5
11FB
330
1E
100
AcDbEntity
  8
STEMPEL
100
AcDbLine
 10
138.3694886365714
 20
575.3412260529715
 30
0.0
 11
138.3694886365714
 21
511.3412840202875
 31
0.0
  0
LINE
  5
11FC
330
1E
100
AcDbEntity
  8
STEMPEL
100
AcDbLine
 10
139.3694886365715
 20
575.3412260529715
 30
0.0
 11
139.3694886365715
 21
511.3412840202875
 31
0.0
  0
LINE
  5
11FD
330
1E
100
AcDbEntity
  8
STEMPEL
100
AcDbLine
 10
118.3694886365711
 20
505.3412840202899
 30
0.0
 11
163.7266193823142
 21
505.3412840202894
 31
0.0
  0
LINE
  5
11FE
330
1E
100
AcDbEntity
  8
STEMPEL
100
AcDbLine
 10
140.3694886365714
 20
504.3412840202877
 30
0.0
 11
132.3694886365714
 21
504.3412840202877
 31
0.0
  0
LINE
  5
11FF
330
1E
100
AcDbEntity
  8
STEMPEL
100
AcDbLine
 10
131.3694886365714
 20
503.3412840202878
 30
0.0
 11
141.3694886365714
 21
503.3412840202878
 31
0.0
  0
ARC
  5
1204
330
1E
100
AcDbEntity
  8
STEMPEL
100
AcDbCircle
 10
133.3694886365715
 20
511.3412840202875
 30
0.0
 40
5.0
100
AcDbArc
 50
270.0000000000017
 51
0.0
  0
ARC
  5
1205
330
1E
100
AcDbEntity
  8
STEMPEL
100
AcDbCircle
 10
133.3694886365715
 20
511.3412840202875
 30
0.0
 40
6.0
100
AcDbArc
 50
270.0000000000017
 51
0.0
  0
LINE
  5
1206
330
1E
100
AcDbEntity
  8
STEMPEL
100
AcDbLine
 10
106.3694886365714
 20
491.341284020287
 30
0.0
 11
162.2720398346228
 21
491.341284020287
 31
0.0
  0
ARC
  5
1207
330
1E
100
AcDbEntity
  8
STEMPEL
100
AcDbCircle
 10
106.3694886365714
 20
488.3412840202869
 30
0.0
 40
3.0
100
AcDbArc
 50
90.0
 51
270.0
  0
LINE
  5
1208
330
1E
100
AcDbEntity
  8
STEMPEL
100
AcDbLine
 10
129.3694886365714
 20
491.3412840202869
 30
0.0
 11
129.3694886365714
 21
485.3412840202869
 31
0.0
  0
LINE
  5
1209
330
1E
100
AcDbEntity
  8
STEMPEL
100
AcDbLine
 10
131.3694886365714
 20
491.341284020287
 30
0.0
 11
131.3694886365714
 21
479.3412840202877
 31
0.0
  0
LINE
  5
120A
330
1E
100
AcDbEntity
  8
HILF
100
AcDbLine
 10
132.3694886365714
 20
491.3412840202869
 30
0.0
 11
132.3694886365714
 21
479.3412840202877
 31
0.0
  0
LINE
  5
120C
330
1E
100
AcDbEntity
  8
STEMPEL
100
AcDbLine
 10
118.3694886365714
 20
506.3412840202871
 30
0.0
 11
133.3694886365716
 21
506.3412840202875
 31
0.0
  0
LINE
  5
120D
330
1E
100
AcDbEntity
  8
STEMPEL
100
AcDbLine
 10
118.3694886365713
 20
506.3412840202873
 30
0.0
 11
118.3694886365711
 21
505.3412840202871
 31
0.0
  0
LINE
  5
1213
330
1E
100
AcDbEntity
  8
HILF
100
AcDbLine
 10
132.3694886365714
 20
504.3412840202877
 30
0.0
 11
132.3694886365714
 21
501.3412840202869
 31
0.0
  0
LINE
  5
1214
330
1E
100
AcDbEntity
  8
STEMPEL
100
AcDbLine
 10
131.3694886365714
 20
503.3412840202877
 30
0.0
 11
131.3694886365714
 21
501.3412840202869
 31
0.0
  0
LINE
  5
1215
330
1E
100
AcDbEntity
  8
STEMPEL
100
AcDbLine
 10
132.3694886365714
 20
504.3412840202877
 30
0.0
 11
131.3694886365714
 21
503.3412840202877
 31
0.0
  0
LINE
  5
1216
330
1E
100
AcDbEntity
  8
STEMPEL
100
AcDbLine
 10
163.2714306616417
 20
492.3063845235843
 30
0.0
 11
164.9319952884193
 21
539.8587337686383
 31
0.0
  0
LWPOLYLINE
  5
1217
330
1E
100
AcDbEntity
  8
STEMPEL
100
AcDbPolyline
 90
       10
 70
   128
 43
0.0
 10
153.1695075188941
 20
505.3412840202871
 10
153.9272571439883
 20
505.4324375022138
 10
154.6619829301639
 20
505.7031282955716
 10
155.351360606197
 20
506.1451315975803
 10
155.9744437802433
 20
506.7450173615732
 10
156.5123003853549
 20
507.4845583621679
 10
156.9485879207538
 20
508.3412840202873
 10
157.2700500104491
 20
509.2891631603332
 10
157.4669191915131
 20
510.2993949542859
 10
157.5332136934999
 20
511.3412840202875
  0
LWPOLYLINE
  5
1218
330
1E
100
AcDbEntity
  8
STEMPEL
100
AcDbPolyline
 90
       10
 70
   128
 43
0.0
 10
145.9600499832443
 20
505.3412840202871
 10
146.7962292580859
 20
505.4324375022138
 10
147.6070016487885
 20
505.7031282955716
 10
148.3677322465313
 20
506.1451315975803
 10
149.0553066370501
 20
506.7450173615732
 10
149.6488332204186
 20
507.4845583621679
 10
150.1302779917397
 20
508.3412840202873
 10
150.4850124952601
 20
509.2891631603332
 10
150.7022583025943
 20
510.2993949542859
 10
150.7754145098183
 20
511.3412840202875
  0
LWPOLYLINE
  5
1219
330
1E
100
AcDbEntity
  8
STEMPEL
100
AcDbPolyline
 90
       10
 70
   128
 43
0.0
 10
140.2197984977666
 20
505.3412840202871
 10
141.0559777726081
 20
505.4324375022138
 10
141.8667501633107
 20
505.7031282955716
 10
142.6274807610536
 20
506.1451315975803
 10
143.3150551515724
 20
506.7450173615732
 10
143.9085817349408
 20
507.4845583621679
 10
144.390026506262
 20
508.3412840202873
 10
144.7447610097824
 20
509.2891631603332
 10
144.9620068171165
 20
510.2993949542859
 10
145.0351630243405
 20
511.3412840202875
  0
LWPOLYLINE
  5
121A
330
1E
100
AcDbEntity
  8
STEMPEL
100
AcDbPolyline
 90
        7
 70
   128
 43
0.0
 10
137.9228308636985
 20
506.3412840202875
 10
138.5995327387759
 20
506.9508847481466
 10
139.1990821624098
 20
507.6784438320581
 10
139.7053708355595
 20
508.5044136937383
 10
140.1047961276051
 20
509.4066027189415
 10
140.386626542868
 20
510.3607714871353
 10
140.5432900473694
 20
511.3412840202875
  0
LWPOLYLINE
  5
121B
330
1E
100
AcDbEntity
  8
STEMPEL
100
AcDbPolyline
 90
        7
 70
   128
 43
0.0
 10
147.6957885406423
 20
506.3412840202871
 10
148.3158790637067
 20
506.9506219221278
 10
148.8476992104901
 20
507.6780521954172
 10
149.2769450102214
 20
508.5040096893608
 10
149.5920713580187
 20
509.4062792398231
 10
149.7846025349845
 20
510.3605931740663
 10
149.8493601733109
 20
511.3412840202875
  0
LINE
  5
121C
330
1E
100
AcDbEntity
  8
MITTEL
100
AcDbLine
 10
136.3694886365714
 20
509.3412840202876
 30
0.0
 11
136.3694886365714
 21
479.3412840202877
 31
0.0
  0
LWPOLYLINE
  5
121D
330
1E
100
AcDbEntity
  8
STEMPEL
100
AcDbPolyline
 90
       10
 70
   128
 43
0.0
 10
136.0310800298763
 20
505.3412840202871
 10
136.8891530261491
 20
505.4074112348597
 10
137.7419652257714
 20
505.6599649845899
 10
138.5627235326884
 20
506.0910107009075
 10
139.3256418990873
 20
506.6870060713475
 10
140.0067514545865
 20
507.4292265030678
 10
140.5846535445322
 20
508.2943533998655
 10
141.0411920189385
 20
509.2552067705815
 10
141.362023650536
 20
510.2815991522937
 10
141.5370687609071
 20
511.3412840202864
  0
LWPOLYLINE
  5
121E
330
1E
100
AcDbEntity
  8
STEMPEL
100
AcDbPolyline
 90
       10
 70
   128
 43
0.0
 10
134.0731871465759
 20
505.3412840202882
 10
134.9312601428486
 20
505.4074112348608
 10
135.7840723424709
 20
505.6599649845909
 10
136.6048306493879
 20
506.0910107009085
 10
137.3677490157868
 20
506.6870060713484
 10
138.0488585712861
 20
507.4292265030693
 10
138.6267606612318
 20
508.2943533998666
 10
139.083299135638
 20
509.2552067705827
 10
139.4041307672356
 20
510.2815991522948
 10
139.5791758776067
 20
511.3412840202875
  0
LINE
  5
121F
330
1E
100
AcDbEntity
  8
STEMPEL
100
AcDbLine
 10
143.3694886365714
 20
491.341284020287
 30
0.0
 11
143.3694886365714
 21
485.3412840202869
 31
0.0
  0
LINE
  5
1220
330
1E
100
AcDbEntity
  8
HILF
100
AcDbLine
 10
140.3694886365714
 20
491.3412840202869
 30
0.0
 11
140.3694886365714
 21
479.3412840202877
 31
0.0
  0
LINE
  5
1221
330
1E
100
AcDbEntity
  8
STEMPEL
100
AcDbLine
 10
141.3694886365714
 20
491.341284020287
 30
0.0
 11
141.3694886365714
 21
479.3412840202877
 31
0.0
  0
LINE
  5
1226
330
1E
100
AcDbEntity
  8
STEMPEL
100
AcDbLine
 10
136.9587166939361
 20
506.3412840202871
 30
0.0
 11
137.9228308636987
 21
506.3412840202871
 31
0.0
  0
LINE
  5
1227
330
1E
100
AcDbEntity
  8
HILF
100
AcDbLine
 10
140.3694886365714
 20
504.3412840202877
 30
0.0
 11
140.3694886365714
 21
501.3412840202869
 31
0.0
  0
LINE
  5
1228
330
1E
100
AcDbEntity
  8
STEMPEL
100
AcDbLine
 10
141.3694886365714
 20
503.3412840202877
 30
0.0
 11
141.3694886365714
 21
501.3412840202869
 31
0.0
  0
LINE
  5
1229
330
1E
100
AcDbEntity
  8
STEMPEL
100
AcDbLine
 10
141.3694886365714
 20
503.3412840202877
 30
0.0
 11
140.3694886365714
 21
504.3412840202877
 31
0.0
  0
LINE
  5
122C
330
1E
100
AcDbEntity
  8
STEMPEL
100
AcDbLine
 10
142.881591391672
 20
506.3412840202871
 30
0.0
 11
147.6957885406434
 21
506.3412840202871
 31
0.0
  0
LINE
  5
122D
330
1E
100
AcDbEntity
  8
STEMPEL
100
AcDbLine
 10
155.5816368649816
 20
506.3412840202871
 30
0.0
 11
163.7615401518059
 21
506.3412840202871
 31
0.0
  0
ARC
  5
122E
330
1E
100
AcDbEntity
  8
STEMPEL
100
AcDbCircle
 10
162.2720398346228
 20
492.3412840202868
 30
0.0
 40
1.0
100
AcDbArc
 50
270.0
 51
358.0000000000028
  0
LWPOLYLINE
  5
122F
330
1E
100
AcDbEntity
  8
STEMPEL
100
AcDbPolyline
 90
        3
 70
   128
 43
0.0
 10
162.300928954026
 20
505.3412840202871
 10
163.0586785791202
 20
505.4324375022138
 10
163.7385495191449
 20
505.6829184402712
  0
LWPOLYLINE
  5
1230
330
1E
100
AcDbEntity
  8
STEMPEL
100
AcDbPolyline
 90
       18
 70
   128
 43
0.0
 10
-145.0351630243405
 20
517.8412840202851
 10
-145.0840323692568
 20
519.2194054039098
 10
-145.2289762170769
 20
520.5505965166894
 10
-145.4650586789041
 20
521.7895252418661
 10
-145.7842402496508
 20
522.8940013476353
 10
-146.1756515837411
 20
523.8264132248882
 10
-146.6259636376391
 20
524.5550087054495
 10
-147.1198415744385
 20
525.0549763440829
 10
-147.6404669733435
 20
525.3092903424994
 10
-148.1701105608153
 20
525.3092903424994
 10
-148.6907359597202
 20
525.0549763440829
 10
-149.1846138965197
 20
524.5550087054495
 10
-149.6349259504176
 20
523.8264132248882
 10
-150.026337284508
 20
522.8940013476353
 10
-150.3455188552547
 20
521.7895252418661
 10
-150.5816013170819
 20
520.5505965166894
 10
-150.726545164902
 20
519.2194054039098
 10
-150.7754145098183
 20
517.8412840202851
210
0.0
220
0.0
230
-1.0
  0
LWPOLYLINE
  5
1231
330
1E
100
AcDbEntity
  8
STEMPEL
100
AcDbPolyline
 90
       18
 70
   128
 43
0.0
 10
-139.5791758776067
 20
517.8412840202851
 10
-139.5958443010834
 20
519.2194054039098
 10
-139.6452819483439
 20
520.5505965166894
 10
-139.7258052796043
 20
521.7895252418661
 10
-139.834672169396
 20
522.8940013476353
 10
-139.9681752863583
 20
523.8264132248882
 10
-140.1217683419624
 20
524.5550087054495
 10
-140.2902209089145
 20
525.0549763440829
 10
-140.4677965370834
 20
525.3092903424994
 10
-140.6484481014304
 20
525.3092903424994
 10
-140.8260237295994
 20
525.0549763440829
 10
-140.9944762965514
 20
524.5550087054495
 10
-141.1480693521555
 20
523.8264132248882
 10
-141.2815724691178
 20
522.8940013476353
 10
-141.3904393589095
 20
521.7895252418661
 10
-141.47096269017
 20
520.5505965166894
 10
-141.5204003374304
 20
519.2194054039098
 10
-141.5370687609071
 20
517.8412840202851
210
0.0
220
0.0
230
-1.0
  0
LWPOLYLINE
  5
1232
330
1E
100
AcDbEntity
  8
STEMPEL
100
AcDbPolyline
 90
        7
 70
   128
 43
0.0
 10
-140.0612329624878
 20
524.3033380761251
 10
-140.1990619720581
 20
523.5512318391863
 10
-140.3179262490243
 20
522.6285182284716
 10
-140.4142742509255
 20
521.5627669785674
 10
-140.4852271984637
 20
520.3858216417463
 10
-140.5286650904716
 20
519.1328481353446
 10
-140.5432900473692
 20
517.8412840202851
210
0.0
220
0.0
230
-1.0
  0
LINE
  5
1233
330
1E
100
AcDbEntity
  8
STEMPEL
100
AcDbLine
 10
139.5791758776067
 20
517.8412840202851
 30
0.0
 11
139.5791758776067
 21
511.3412840202875
 31
0.0
  0
LINE
  5
1234
330
1E
100
AcDbEntity
  8
STEMPEL
100
AcDbLine
 10
140.5432900473693
 20
517.8412840202851
 30
0.0
 11
140.5432900473693
 21
511.3412840202875
 31
0.0
  0
LINE
  5
1235
330
1E
100
AcDbEntity
  8
STEMPEL
100
AcDbLine
 10
141.5370687609072
 20
517.8412840202851
 30
0.0
 11
141.5370687609072
 21
511.3412840202864
 31
0.0
  0
LWPOLYLINE
  5
1236
330
1E
100
AcDbEntity
  8
STEMPEL
100
AcDbPolyline
 90
        9
 70
   128
 43
0.0
 10
-147.4422615988274
 20
525.2430422649502
 10
-147.9313221420961
 20
524.9166093671929
 10
-148.3909351099971
 20
524.3713403539357
 10
-148.8068849136213
 20
523.6241001108075
 10
-149.1663064429129
 20
522.69800038803
 10
-149.4580829778004
 20
521.6216849660598
 10
-149.6731900225385
 20
520.428443718429
 10
-149.804974428646
 20
519.1551829733533
 10
-149.8493601733109
 20
517.8412840202867
210
0.0
220
0.0
230
-1.0
  0
LINE
  5
1237
330
1E
100
AcDbEntity
  8
STEMPEL
100
AcDbLine
 10
145.0351630243405
 20
517.8412840202851
 30
0.0
 11
145.0351630243405
 21
511.3412840202887
 31
0.0
  0
LINE
  5
1238
330
1E
100
AcDbEntity
  8
STEMPEL
100
AcDbLine
 10
149.849360173311
 20
517.8412840202851
 30
0.0
 11
149.849360173311
 21
511.3412840202887
 31
0.0
  0
LWPOLYLINE
  5
1239
330
1E
100
AcDbEntity
  8
STEMPEL
100
AcDbPolyline
 90
       13
 70
   128
 43
0.0
 10
-157.5332136935001
 20
517.8412840202851
 10
-157.6109535947602
 20
519.2194054039098
 10
-157.8415259594421
 20
520.5505965166894
 10
-158.2170789222072
 20
521.7895252418661
 10
-158.7248234773349
 20
522.8940013476353
 10
-159.3474689929729
 20
523.8264132248882
 10
-160.0638120228669
 20
524.5550087054495
 10
-160.8494583642928
 20
525.0549763440829
 10
-161.6776537733722
 20
525.3092903424994
 10
-162.5201950487599
 20
525.3092903424994
 10
-163.3483904578393
 20
525.0549763440829
 10
-164.1340367992652
 20
524.5550087054495
 10
-164.3885380426499
 20
524.2961544303479
210
0.0
220
0.0
230
-1.0
  0
LINE
  5
123A
330
1E
100
AcDbEntity
  8
STEMPEL
100
AcDbLine
 10
150.7754145098183
 20
517.8412840202851
 30
0.0
 11
150.7754145098183
 21
511.3412840202887
 31
0.0
  0
LINE
  5
123B
330
1E
100
AcDbEntity
  8
STEMPEL
100
AcDbLine
 10
157.5332136935001
 20
517.8412840202851
 30
0.0
 11
157.5332136935001
 21
511.3412840202887
 31
0.0
  0
LWPOLYLINE
  5
123C
330
1E
100
AcDbEntity
  8
STEMPEL
100
AcDbPolyline
 90
        5
 70
   128
 43
0.0
 10
-161.3037035242451
 20
525.3412840202884
 10
-162.0965308701048
 20
525.2273421678799
 10
-162.8652685582505
 20
524.8889786761826
 10
-163.5865588830281
 20
524.3364745486714
 10
-164.3589229296641
 20
523.4480885538862
210
0.0
220
0.0
230
-1.0
  0
ARC
  5
123D
330
1E
100
AcDbEntity
  8
STEMPEL
100
AcDbCircle
 10
165.4316907019288
 20
539.841284020287
 30
0.0
 40
0.5
100
AcDbArc
 50
90.0
 51
178.0000000000028
  0
LINE
  5
123E
330
1E
100
AcDbEntity
  8
STEMPEL
100
AcDbLine
 10
169.3694886365715
 20
485.3412840202867
 30
0.0
 11
167.4488463145253
 21
540.341284020287
 31
0.0
  0
LINE
  5
1241
330
1E
100
AcDbEntity
  8
MITTEL
100
AcDbLine
 10
192.3694886365715
 20
491.341284020287
 30
0.0
 11
192.3694886365715
 21
479.3412840202875
 31
0.0
  0
ARC
  5
1246
330
1E
100
AcDbEntity
  8
STEMPEL
100
AcDbCircle
 10
168.3694886365714
 20
589.3412840202866
 30
0.0
 40
5.0
100
AcDbArc
 50
90.0
 51
120.5373500483005
  0
ARC
  5
1247
330
1E
100
AcDbEntity
  8
STEMPEL
100
AcDbCircle
 10
168.3694886365714
 20
589.3412840202866
 30
0.0
 40
6.0
100
AcDbArc
 50
90.0
 51
120.512874327618
  0
LINE
  5
1248
330
1E
100
AcDbEntity
  8
STEMPEL
100
AcDbLine
 10
141.3367940148635
 20
580.5183645803303
 30
0.0
 11
165.3230968903304
 21
594.5103745910189
 31
0.0
  0
LINE
  5
1249
330
1E
100
AcDbEntity
  8
STEMPEL
100
AcDbLine
 10
141.8501350684443
 20
579.6601214671677
 30
0.0
 11
165.8289889613955
 21
593.6477746333532
 31
0.0
  0
ARC
  5
124A
330
1E
100
AcDbEntity
  8
STEMPEL
100
AcDbCircle
 10
144.3694886365715
 20
575.3412260529715
 30
0.0
 40
5.0
100
AcDbArc
 50
120.2564164748158
 51
180.0
  0
ARC
  5
124B
330
1E
100
AcDbEntity
  8
STEMPEL
100
AcDbCircle
 10
144.3694886365715
 20
575.3412260529715
 30
0.0
 40
6.0
100
AcDbArc
 50
120.2564164748158
 51
180.0
  0
ARC
  5
124C
330
1E
100
AcDbEntity
  8
STEMPEL
100
AcDbCircle
 10
138.8583450322598
 20
584.8611210027488
 30
0.0
 40
5.0
100
AcDbArc
 50
300.0670458384858
 51
300.2564371635302
  0
LINE
  5
124D
330
1E
100
AcDbEntity
  8
STEMPEL
100
AcDbLine
 10
168.3694886365714
 20
595.3412840202861
 30
0.0
 11
223.1078508089208
 21
595.3412840202865
 31
0.0
  0
ARC
  5
124E
330
1E
100
AcDbEntity
  8
STEMPEL
100
AcDbCircle
 10
168.3694886365714
 20
589.3412840202866
 30
0.0
 40
6.0
100
AcDbArc
 50
90.0
 51
90.0
  0
ARC
  5
124F
330
1E
100
AcDbEntity
  8
STEMPEL
100
AcDbCircle
 10
223.1078508089208
 20
596.8412840202866
 30
0.0
 40
2.5
100
AcDbArc
 50
270.0
 51
330.0000000000003
  0
ARC
  5
1250
330
1E
100
AcDbEntity
  8
STEMPEL
100
AcDbCircle
 10
223.1078508089208
 20
596.8412840202866
 30
0.0
 40
1.5
100
AcDbArc
 50
270.0
 51
330.0000000000039
  0
ARC
  5
1251
330
1E
100
AcDbEntity
  8
STEMPEL
100
AcDbCircle
 10
228.5040032316282
 20
596.8412840202866
 30
0.0
 40
2.5
100
AcDbArc
 50
209.9999999999925
 51
270.0
  0
ARC
  5
1252
330
1E
100
AcDbEntity
  8
STEMPEL
100
AcDbCircle
 10
228.5040032316282
 20
596.8412840202866
 30
0.0
 40
1.5
100
AcDbArc
 50
209.9999999999961
 51
270.0
  0
ARC
  5
1253
330
1E
100
AcDbEntity
  8
STEMPEL
100
AcDbCircle
 10
225.7059270202743
 20
595.3412840202865
 30
0.0
 40
0.5
100
AcDbArc
 50
90.0
 51
149.9999999999994
  0
LINE
  5
1254
330
1E
100
AcDbEntity
  8
STEMPEL
100
AcDbLine
 10
225.7059270202743
 20
595.8412840202866
 30
0.0
 11
225.9059270202743
 21
595.8412840202866
 31
0.0
  0
ARC
  5
1255
330
1E
100
AcDbEntity
  8
STEMPEL
100
AcDbCircle
 10
225.9059270202743
 20
595.3412840202865
 30
0.0
 40
0.5
100
AcDbArc
 50
29.99999999999973
 51
90.0
  0
ARC
  5
1256
330
1E
100
AcDbEntity
  8
STEMPEL
100
AcDbCircle
 10
225.9059270202743
 20
595.3412840202865
 30
0.0
 40
1.5
100
AcDbArc
 50
29.99999999999246
 51
90.0
  0
ARC
  5
1257
330
1E
100
AcDbEntity
  8
STEMPEL
100
AcDbCircle
 10
225.7059270202743
 20
595.3412840202865
 30
0.0
 40
1.5
100
AcDbArc
 50
90.0
 51
150.0000000000039
  0
LINE
  5
1258
330
1E
100
AcDbEntity
  8
STEMPEL
100
AcDbLine
 10
228.5040032316282
 20
595.3412840202865
 30
0.0
 11
230.5628508089205
 21
595.3412840202865
 31
0.0
  0
LINE
  5
1259
330
1E
100
AcDbEntity
  8
STEMPEL
100
AcDbLine
 10
228.5040032316282
 20
595.3412840202865
 30
0.0
 11
230.5628508089205
 21
595.3412840202865
 31
0.0
  0
LINE
  5
125A
102
{ACAD_REACTORS
330
12D4
102
}
330
1E
100
AcDbEntity
  8
STEMPEL
100
AcDbLine
 10
333.0123578908289
 20
505.3412840202875
 30
0.0
 11
367.3694886365712
 21
505.3412840202872
 31
0.0
  0
ARC
  5
125B
330
1E
100
AcDbEntity
  8
STEMPEL
100
AcDbCircle
 10
357.7116314119982
 20
496.3412840202872
 30
0.0
 40
5.0
100
AcDbArc
 50
270.0
 51
359.0000000000015
  0
ARC
  5
125C
330
1E
100
AcDbEntity
  8
STEMPEL
100
AcDbCircle
 10
363.3694886365715
 20
511.3412840202875
 30
0.0
 40
5.0
100
AcDbArc
 50
180.0
 51
269.9999999999984
  0
ARC
  5
125D
330
1E
100
AcDbEntity
  8
STEMPEL
100
AcDbCircle
 10
363.3694886365715
 20
511.3412840202875
 30
0.0
 40
6.0
100
AcDbArc
 50
180.0
 51
269.9999999999984
  0
LINE
  5
125E
330
1E
100
AcDbEntity
  8
STEMPEL
100
AcDbLine
 10
357.3694886365715
 20
575.3412260529715
 30
0.0
 11
357.3694886365715
 21
511.3412840202875
 31
0.0
  0
LINE
  5
125F
330
1E
100
AcDbEntity
  8
STEMPEL
100
AcDbLine
 10
358.3694886365716
 20
575.3412260529715
 30
0.0
 11
358.3694886365716
 21
511.3412840202875
 31
0.0
  0
LINE
  5
1260
330
1E
100
AcDbEntity
  8
MITTEL
100
AcDbLine
 10
262.9884221652171
 20
491.341284020287
 30
0.0
 11
262.9884221652172
 21
479.3412840202875
 31
0.0
  0
LINE
  5
1265
330
1E
100
AcDbEntity
  8
STEMPEL
100
AcDbLine
 10
327.3694886365715
 20
485.3412840202867
 30
0.0
 11
329.2901309586178
 21
540.341284020287
 31
0.0
  0
LINE
  5
1268
330
1E
100
AcDbEntity
  8
STEMPEL
100
AcDbLine
 10
333.4675466115013
 20
492.3063845235843
 30
0.0
 11
331.8069819847238
 21
539.8587337686383
 31
0.0
  0
LINE
  5
1269
102
{ACAD_REACTORS
330
14E8
102
}
330
1E
100
AcDbEntity
  8
MITTEL
100
AcDbLine
 10
351.8439962778356
 20
509.3412840202876
 30
0.0
 11
351.8439962778356
 21
479.3412840202877
 31
0.0
  0
LWPOLYLINE
  5
126A
330
1E
100
AcDbEntity
  8
STEMPEL
100
AcDbPolyline
 90
       10
 70
   128
 43
0.0
 10
-343.5694697542489
 20
505.3412840202871
 10
-342.8117201291546
 20
505.4324375022138
 10
-342.0769943429791
 20
505.7031282955716
 10
-341.387616666946
 20
506.1451315975803
 10
-340.7645334928996
 20
506.7450173615732
 10
-340.2266768877881
 20
507.4845583621679
 10
-339.7903893523892
 20
508.3412840202873
 10
-339.4689272626939
 20
509.2891631603332
 10
-339.2720580816299
 20
510.2993949542859
 10
-339.2057635796431
 20
511.3412840202875
210
0.0
220
0.0
230
-1.0
  0
LWPOLYLINE
  5
126B
330
1E
100
AcDbEntity
  8
STEMPEL
100
AcDbPolyline
 90
        7
 70
   128
 43
0.0
 10
-349.0431887325006
 20
506.3412840202871
 10
-348.4230982094364
 20
506.9506219221278
 10
-347.8912780626529
 20
507.6780521954172
 10
-347.4620322629216
 20
508.5040096893608
 10
-347.1469059151243
 20
509.4062792398231
 10
-346.9543747381584
 20
510.3605931740663
 10
-346.8896170998321
 20
511.3412840202875
210
0.0
220
0.0
230
-1.0
  0
LWPOLYLINE
  5
126C
330
1E
100
AcDbEntity
  8
STEMPEL
100
AcDbPolyline
 90
       10
 70
   128
 43
0.0
 10
-350.7789272898987
 20
505.3412840202871
 10
-349.9427480150571
 20
505.4324375022138
 10
-349.1319756243545
 20
505.7031282955716
 10
-348.3712450266116
 20
506.1451315975803
 10
-347.6836706360929
 20
506.7450173615732
 10
-347.0901440527244
 20
507.4845583621679
 10
-346.6086992814032
 20
508.3412840202873
 10
-346.2539647778829
 20
509.2891631603332
 10
-346.0367189705487
 20
510.2993949542859
 10
-345.9635627633247
 20
511.3412840202875
210
0.0
220
0.0
230
-1.0
  0
LWPOLYLINE
  5
126D
330
1E
100
AcDbEntity
  8
STEMPEL
100
AcDbPolyline
 90
       10
 70
   128
 43
0.0
 10
-362.6657901265671
 20
505.3412840202882
 10
-361.8077171302943
 20
505.4074112348608
 10
-360.9549049306721
 20
505.6599649845909
 10
-360.1341466237551
 20
506.0910107009085
 10
-359.3712282573561
 20
506.6870060713484
 10
-358.6901187018569
 20
507.4292265030693
 10
-358.1122166119112
 20
508.2943533998666
 10
-357.655678137505
 20
509.2552067705827
 10
-357.3348465059074
 20
510.2815991522948
 10
-357.1598013955363
 20
511.3412840202875
210
0.0
220
0.0
230
-1.0
  0
LWPOLYLINE
  5
126E
330
1E
100
AcDbEntity
  8
STEMPEL
100
AcDbPolyline
 90
       10
 70
   128
 43
0.0
 10
-360.7078972432666
 20
505.3412840202871
 10
-359.8498242469939
 20
505.4074112348597
 10
-358.9970120473716
 20
505.6599649845899
 10
-358.1762537404546
 20
506.0910107009075
 10
-357.4133353740556
 20
506.6870060713475
 10
-356.7322258185565
 20
507.4292265030678
 10
-356.1543237286107
 20
508.2943533998655
 10
-355.6977852542045
 20
509.2552067705815
 10
-355.376953622607
 20
510.2815991522937
 10
-355.2019085122358
 20
511.3412840202864
210
0.0
220
0.0
230
-1.0
  0
LWPOLYLINE
  5
126F
330
1E
100
AcDbEntity
  8
STEMPEL
100
AcDbPolyline
 90
       10
 70
   128
 43
0.0
 10
-356.5191787753764
 20
505.3412840202871
 10
-355.6829995005348
 20
505.4324375022138
 10
-354.8722271098323
 20
505.7031282955716
 10
-354.1114965120894
 20
506.1451315975803
 10
-353.4239221215706
 20
506.7450173615732
 10
-352.8303955382022
 20
507.4845583621679
 10
-352.348950766881
 20
508.3412840202873
 10
-351.9942162633606
 20
509.2891631603332
 10
-351.7769704560265
 20
510.2993949542859
 10
-351.7038142488025
 20
511.3412840202875
210
0.0
220
0.0
230
-1.0
  0
LWPOLYLINE
  5
1270
330
1E
100
AcDbEntity
  8
STEMPEL
100
AcDbPolyline
 90
        7
 70
   128
 43
0.0
 10
-358.8161464094445
 20
506.3412840202875
 10
-358.1394445343672
 20
506.9508847481466
 10
-357.5398951107331
 20
507.6784438320581
 10
-357.0336064375835
 20
508.5044136937383
 10
-356.6341811455379
 20
509.4066027189415
 10
-356.352350730275
 20
510.3607714871353
 10
-356.1956872257736
 20
511.3412840202875
210
0.0
220
0.0
230
-1.0
  0
LINE
  5
1271
330
1E
100
AcDbEntity
  8
STEMPEL
100
AcDbLine
 10
334.4669374385203
 20
491.3412840202871
 30
0.0
 11
357.7116314119982
 21
491.3412840202872
 31
0.0
  0
LINE
  5
1276
330
1E
100
AcDbEntity
  8
STEMPEL
100
AcDbLine
 10
341.1573404081614
 20
506.3412840202871
 30
0.0
 11
332.9774371213372
 21
506.3412840202871
 31
0.0
  0
ARC
  5
1277
330
1E
100
AcDbEntity
  8
STEMPEL
100
AcDbCircle
 10
334.4669374385203
 20
492.3412840202868
 30
0.0
 40
1.0
100
AcDbArc
 50
181.9999999999971
 51
270.0
  0
LWPOLYLINE
  5
1278
330
1E
100
AcDbEntity
  8
STEMPEL
100
AcDbPolyline
 90
        3
 70
   128
 43
0.0
 10
-334.438048319117
 20
505.3412840202871
 10
-333.6802986940228
 20
505.4324375022138
 10
-333.0004277539982
 20
505.6829184402711
210
0.0
220
0.0
230
-1.0
  0
LINE
  5
127F
330
1E
100
AcDbEntity
  8
STEMPEL
100
AcDbLine
 10
356.8439962778356
 20
503.3412840202878
 30
0.0
 11
346.8439962778356
 21
503.3412840202878
 31
0.0
  0
LINE
  5
1280
330
1E
100
AcDbEntity
  8
STEMPEL
100
AcDbLine
 10
347.8439962778356
 20
504.3412840202877
 30
0.0
 11
355.8439962778356
 21
504.3412840202877
 31
0.0
  0
LINE
  5
1284
330
1E
100
AcDbEntity
  8
STEMPEL
100
AcDbLine
 10
353.857385881471
 20
506.3412840202871
 30
0.0
 11
349.0431887324996
 21
506.3412840202871
 31
0.0
  0
LINE
  5
1285
330
1E
100
AcDbEntity
  8
HILF
100
AcDbLine
 10
347.8439962778356
 20
504.3412840202877
 30
0.0
 11
347.8439962778356
 21
501.3412840202873
 31
0.0
  0
LINE
  5
1286
330
1E
100
AcDbEntity
  8
STEMPEL
100
AcDbLine
 10
346.8439962778356
 20
503.3412840202877
 30
0.0
 11
346.8439962778356
 21
501.3412840202871
 31
0.0
  0
LINE
  5
1287
330
1E
100
AcDbEntity
  8
STEMPEL
100
AcDbLine
 10
346.8439962778356
 20
503.3412840202877
 30
0.0
 11
347.8439962778356
 21
504.3412840202877
 31
0.0
  0
LINE
  5
128C
330
1E
100
AcDbEntity
  8
STEMPEL
100
AcDbLine
 10
359.7802605792069
 20
506.3412840202871
 30
0.0
 11
358.8161464094443
 21
506.3412840202871
 31
0.0
  0
LINE
  5
128D
330
1E
100
AcDbEntity
  8
STEMPEL
100
AcDbLine
 10
356.8439962778356
 20
503.3412840202877
 30
0.0
 11
356.8439962778356
 21
501.3412840202872
 31
0.0
  0
LINE
  5
128E
330
1E
100
AcDbEntity
  8
HILF
100
AcDbLine
 10
355.8439962778356
 20
504.3412840202877
 30
0.0
 11
355.8439962778356
 21
501.3412840202872
 31
0.0
  0
LINE
  5
128F
330
1E
100
AcDbEntity
  8
STEMPEL
100
AcDbLine
 10
355.8439962778356
 20
504.3412840202877
 30
0.0
 11
356.8439962778356
 21
503.3412840202877
 31
0.0
  0
LINE
  5
1290
330
1E
100
AcDbEntity
  8
STEMPEL
100
AcDbLine
 10
362.7108698877801
 20
496.2540219881009
 30
0.0
 11
362.8694886365713
 21
505.3412840202869
 31
0.0
  0
LWPOLYLINE
  5
1291
330
1E
100
AcDbEntity
  8
STEMPEL
100
AcDbPolyline
 90
       18
 70
   128
 43
0.0
 10
351.7038142488025
 20
517.8412840202851
 10
351.6549449038862
 20
519.2194054039098
 10
351.5100010560662
 20
520.5505965166894
 10
351.2739185942389
 20
521.7895252418661
 10
350.9547370234923
 20
522.8940013476353
 10
350.5633256894018
 20
523.8264132248882
 10
350.1130136355039
 20
524.5550087054495
 10
349.6191356987044
 20
525.0549763440829
 10
349.0985102997995
 20
525.3092903424994
 10
348.5688667123277
 20
525.3092903424994
 10
348.0482413134228
 20
525.0549763440829
 10
347.5543633766233
 20
524.5550087054495
 10
347.1040513227253
 20
523.8264132248882
 10
346.7126399886349
 20
522.8940013476353
 10
346.3934584178883
 20
521.7895252418661
 10
346.1573759560611
 20
520.5505965166894
 10
346.012432108241
 20
519.2194054039098
 10
345.9635627633247
 20
517.8412840202851
  0
LWPOLYLINE
  5
1292
330
1E
100
AcDbEntity
  8
STEMPEL
100
AcDbPolyline
 90
       13
 70
   128
 43
0.0
 10
339.2057635796429
 20
517.8412840202851
 10
339.1280236783828
 20
519.2194054039098
 10
338.8974513137009
 20
520.5505965166894
 10
338.5218983509358
 20
521.7895252418661
 10
338.0141537958081
 20
522.8940013476353
 10
337.3915082801701
 20
523.8264132248882
 10
336.675165250276
 20
524.5550087054495
 10
335.8895189088502
 20
525.0549763440829
 10
335.0613234997708
 20
525.3092903424994
 10
334.2187822243831
 20
525.3092903424994
 10
333.3905868153037
 20
525.0549763440829
 10
332.6049404738778
 20
524.5550087054495
 10
332.3504392304932
 20
524.2961544303482
  0
LWPOLYLINE
  5
1293
330
1E
100
AcDbEntity
  8
STEMPEL
100
AcDbPolyline
 90
        5
 70
   128
 43
0.0
 10
335.4352737488979
 20
525.3412840202884
 10
334.6424464030382
 20
525.2273421678799
 10
333.8737087148925
 20
524.8889786761826
 10
333.1524183901149
 20
524.3364745486714
 10
332.3800543434789
 20
523.4480885538864
  0
LINE
  5
1294
330
1E
100
AcDbEntity
  8
STEMPEL
100
AcDbLine
 10
339.205763579643
 20
517.8412840202851
 30
0.0
 11
339.205763579643
 21
511.3412840202887
 31
0.0
  0
LINE
  5
1295
330
1E
100
AcDbEntity
  8
STEMPEL
100
AcDbLine
 10
345.9635627633247
 20
517.8412840202851
 30
0.0
 11
345.9635627633247
 21
511.3412840202887
 31
0.0
  0
ARC
  5
1296
330
1E
100
AcDbEntity
  8
STEMPEL
100
AcDbCircle
 10
331.3072865712143
 20
539.841284020287
 30
0.0
 40
0.5
100
AcDbArc
 50
1.999999999997159
 51
90.0
  0
LWPOLYLINE
  5
1297
330
1E
100
AcDbEntity
  8
STEMPEL
100
AcDbPolyline
 90
        9
 70
   128
 43
0.0
 10
349.2967156743157
 20
525.2430422649502
 10
348.8076551310469
 20
524.9166093671929
 10
348.3480421631459
 20
524.3713403539357
 10
347.9320923595217
 20
523.6241001108075
 10
347.5726708302301
 20
522.69800038803
 10
347.2808942953426
 20
521.6216849660598
 10
347.0657872506044
 20
520.428443718429
 10
346.9340028444969
 20
519.1551829733533
 10
346.8896170998321
 20
517.8412840202867
  0
LINE
  5
1298
330
1E
100
AcDbEntity
  8
STEMPEL
100
AcDbLine
 10
346.889617099832
 20
517.8412840202851
 30
0.0
 11
346.889617099832
 21
511.3412840202887
 31
0.0
  0
LINE
  5
1299
330
1E
100
AcDbEntity
  8
STEMPEL
100
AcDbLine
 10
351.7038142488025
 20
517.8412840202851
 30
0.0
 11
351.7038142488025
 21
511.3412840202887
 31
0.0
  0
LWPOLYLINE
  5
129A
330
1E
100
AcDbEntity
  8
STEMPEL
100
AcDbPolyline
 90
       18
 70
   128
 43
0.0
 10
357.1598013955363
 20
517.8412840202851
 10
357.1431329720594
 20
519.2194054039098
 10
357.0936953247991
 20
520.5505965166894
 10
357.0131719935387
 20
521.7895252418661
 10
356.904305103747
 20
522.8940013476353
 10
356.7708019867847
 20
523.8264132248882
 10
356.6172089311806
 20
524.5550087054495
 10
356.4487563642285
 20
525.0549763440829
 10
356.2711807360596
 20
525.3092903424994
 10
356.0905291717125
 20
525.3092903424994
 10
355.9129535435436
 20
525.0549763440829
 10
355.7445009765916
 20
524.5550087054495
 10
355.5909079209874
 20
523.8264132248882
 10
355.4574048040251
 20
522.8940013476353
 10
355.3485379142335
 20
521.7895252418661
 10
355.268014582973
 20
520.5505965166894
 10
355.2185769357127
 20
519.2194054039098
 10
355.2019085122358
 20
517.8412840202851
  0
LWPOLYLINE
  5
129B
330
1E
100
AcDbEntity
  8
STEMPEL
100
AcDbPolyline
 90
        7
 70
   128
 43
0.0
 10
356.6777443106551
 20
524.3033380761251
 10
356.5399153010849
 20
523.5512318391863
 10
356.4210510241187
 20
522.6285182284716
 10
356.3247030222175
 20
521.5627669785674
 10
356.2537500746794
 20
520.3858216417463
 10
356.2103121826714
 20
519.1328481353446
 10
356.1956872257738
 20
517.8412840202851
  0
LINE
  5
129C
330
1E
100
AcDbEntity
  8
STEMPEL
100
AcDbLine
 10
357.1598013955363
 20
517.8412840202851
 30
0.0
 11
357.1598013955363
 21
511.3412840202875
 31
0.0
  0
LINE
  5
129D
330
1E
100
AcDbEntity
  8
STEMPEL
100
AcDbLine
 10
355.2019085122358
 20
517.8412840202851
 30
0.0
 11
355.2019085122358
 21
511.3412840202864
 31
0.0
  0
LINE
  5
129E
330
1E
100
AcDbEntity
  8
STEMPEL
100
AcDbLine
 10
356.1956872257737
 20
517.8412840202851
 30
0.0
 11
356.1956872257737
 21
511.3412840202875
 31
0.0
  0
LINE
  5
129F
330
1E
100
AcDbEntity
  8
STEMPEL
100
AcDbLine
 10
273.8090032316283
 20
595.3412840202865
 30
0.0
 11
328.3694886365716
 21
595.341284020287
 31
0.0
  0
LINE
  5
12A0
330
1E
100
AcDbEntity
  8
STEMPEL
100
AcDbLine
 10
261.9590032316278
 20
595.3412840202865
 30
0.0
 11
268.4128508089218
 21
595.3412840202865
 31
0.0
  0
LINE
  5
12A1
330
1E
100
AcDbEntity
  8
STEMPEL
100
AcDbLine
 10
261.9590032316278
 20
595.3412840202865
 30
0.0
 11
268.4128508089218
 21
595.3412840202865
 31
0.0
  0
LINE
  5
12A3
330
1E
100
AcDbEntity
  8
STEMPEL
100
AcDbLine
 10
245.0109270202741
 20
595.8412840202866
 30
0.0
 11
255.0991944814677
 21
595.8412840202866
 31
0.0
  0
LINE
  5
12A4
330
1E
100
AcDbEntity
  8
STEMPEL
100
AcDbLine
 10
235.9590032316272
 20
595.3412840202865
 30
0.0
 11
242.4128508089214
 21
595.3412840202865
 31
0.0
  0
LINE
  5
12A5
330
1E
100
AcDbEntity
  8
STEMPEL
100
AcDbLine
 10
235.9590032316272
 20
595.3412840202865
 30
0.0
 11
242.4128508089214
 21
595.3412840202865
 31
0.0
  0
ARC
  5
12A6
330
1E
100
AcDbEntity
  8
STEMPEL
100
AcDbCircle
 10
235.9590032316272
 20
596.8412840202866
 30
0.0
 40
2.5
100
AcDbArc
 50
210.0000000000005
 51
270.0
  0
ARC
  5
12A7
330
1E
100
AcDbEntity
  8
STEMPEL
100
AcDbCircle
 10
235.9590032316272
 20
596.8412840202866
 30
0.0
 40
1.5
100
AcDbArc
 50
210.0000000000005
 51
270.0
  0
ARC
  5
12A8
330
1E
100
AcDbEntity
  8
STEMPEL
100
AcDbCircle
 10
233.1609270202742
 20
595.3412840202865
 30
0.0
 40
0.5
100
AcDbArc
 50
90.0
 51
150.0000000000039
  0
LINE
  5
12A9
330
1E
100
AcDbEntity
  8
STEMPEL
100
AcDbLine
 10
233.1609270202742
 20
595.8412840202866
 30
0.0
 11
233.3609270202742
 21
595.8412840202866
 31
0.0
  0
ARC
  5
12AA
330
1E
100
AcDbEntity
  8
STEMPEL
100
AcDbCircle
 10
233.3609270202742
 20
595.3412840202865
 30
0.0
 40
0.5
100
AcDbArc
 50
30.00000000000337
 51
90.0
  0
ARC
  5
12AB
330
1E
100
AcDbEntity
  8
STEMPEL
100
AcDbCircle
 10
233.3609270202742
 20
595.3412840202865
 30
0.0
 40
1.5
100
AcDbArc
 50
30.00000000000337
 51
90.0
  0
ARC
  5
12AC
330
1E
100
AcDbEntity
  8
STEMPEL
100
AcDbCircle
 10
242.4128508089214
 20
596.8412840202866
 30
0.0
 40
2.5
100
AcDbArc
 50
270.0
 51
329.9999999999958
  0
ARC
  5
12AD
330
1E
100
AcDbEntity
  8
STEMPEL
100
AcDbCircle
 10
245.0109270202741
 20
595.3412840202865
 30
0.0
 40
1.5
100
AcDbArc
 50
90.0
 51
149.9999999999958
  0
ARC
  5
12AE
330
1E
100
AcDbEntity
  8
STEMPEL
100
AcDbCircle
 10
242.4128508089214
 20
596.8412840202866
 30
0.0
 40
1.5
100
AcDbArc
 50
270.0
 51
329.9999999999958
  0
ARC
  5
12AF
330
1E
100
AcDbEntity
  8
STEMPEL
100
AcDbCircle
 10
245.0109270202741
 20
595.3412840202865
 30
0.0
 40
0.5
100
AcDbArc
 50
90.0
 51
149.9999999999958
  0
ARC
  5
12B0
330
1E
100
AcDbEntity
  8
STEMPEL
100
AcDbCircle
 10
257.0356861545711
 20
595.8412840202866
 30
0.0
 40
1.5
100
AcDbArc
 50
194.4775121859299
 51
270.0
  0
ARC
  5
12B1
330
1E
100
AcDbEntity
  8
STEMPEL
100
AcDbCircle
 10
257.0356861545711
 20
595.8412840202866
 30
0.0
 40
0.5
100
AcDbArc
 50
194.4775121859299
 51
270.0
  0
ARC
  5
12B2
330
1E
100
AcDbEntity
  8
STEMPEL
100
AcDbCircle
 10
255.0991944814677
 20
595.3412840202865
 30
0.0
 40
1.5
100
AcDbArc
 50
14.47751218592986
 51
90.0
  0
ARC
  5
12B3
330
1E
100
AcDbEntity
  8
STEMPEL
100
AcDbCircle
 10
255.0991944814677
 20
595.3412840202865
 30
0.0
 40
0.5
100
AcDbArc
 50
14.47751218592986
 51
90.0
  0
ARC
  5
12B4
330
1E
100
AcDbEntity
  8
STEMPEL
100
AcDbCircle
 10
259.3609270202743
 20
595.3412840202865
 30
0.0
 40
1.5
100
AcDbArc
 50
29.99999999999609
 51
90.0
  0
ARC
  5
12B5
330
1E
100
AcDbEntity
  8
STEMPEL
100
AcDbCircle
 10
261.9590032316278
 20
596.8412840202866
 30
0.0
 40
2.5
100
AcDbArc
 50
209.9999999999961
 51
270.0
  0
ARC
  5
12B6
330
1E
100
AcDbEntity
  8
STEMPEL
100
AcDbCircle
 10
261.9590032316278
 20
596.8412840202866
 30
0.0
 40
1.5
100
AcDbArc
 50
209.9999999999961
 51
270.0
  0
ARC
  5
12B7
330
1E
100
AcDbEntity
  8
STEMPEL
100
AcDbCircle
 10
257.2244353471702
 20
595.8412840202866
 30
0.0
 40
1.5
100
AcDbArc
 50
270.0
 51
345.5224878140733
  0
ARC
  5
12B8
330
1E
100
AcDbEntity
  8
STEMPEL
100
AcDbCircle
 10
259.1609270202742
 20
595.3412840202865
 30
0.0
 40
1.5
100
AcDbArc
 50
90.0
 51
165.5224878140733
  0
ARC
  5
12B9
330
1E
100
AcDbEntity
  8
STEMPEL
100
AcDbCircle
 10
257.2244353471702
 20
595.8412840202866
 30
0.0
 40
0.5
100
AcDbArc
 50
270.0
 51
345.5224878140733
  0
LINE
  5
12BA
330
1E
100
AcDbEntity
  8
STEMPEL
100
AcDbLine
 10
257.0356861545711
 20
595.3412840202865
 30
0.0
 11
257.2244353471702
 21
595.3412840202865
 31
0.0
  0
ARC
  5
12BB
330
1E
100
AcDbEntity
  8
STEMPEL
100
AcDbCircle
 10
259.1609270202742
 20
595.3412840202865
 30
0.0
 40
0.5
100
AcDbArc
 50
90.0
 51
165.5224878140733
  0
LINE
  5
12BC
330
1E
100
AcDbEntity
  8
STEMPEL
100
AcDbLine
 10
259.1609270202742
 20
595.8412840202866
 30
0.0
 11
259.3609270202743
 21
595.8412840202866
 31
0.0
  0
ARC
  5
12BD
330
1E
100
AcDbEntity
  8
STEMPEL
100
AcDbCircle
 10
259.3609270202743
 20
595.3412840202865
 30
0.0
 40
0.5
100
AcDbArc
 50
29.99999999999609
 51
90.0
  0
ARC
  5
12BE
330
1E
100
AcDbEntity
  8
STEMPEL
100
AcDbCircle
 10
273.8090032316283
 20
596.8412840202866
 30
0.0
 40
2.5
100
AcDbArc
 50
209.9999999999925
 51
270.0
  0
ARC
  5
12BF
330
1E
100
AcDbEntity
  8
STEMPEL
100
AcDbCircle
 10
273.8090032316283
 20
596.8412840202866
 30
0.0
 40
1.5
100
AcDbArc
 50
209.9999999999925
 51
270.0
  0
ARC
  5
12C0
330
1E
100
AcDbEntity
  8
STEMPEL
100
AcDbCircle
 10
268.4128508089218
 20
596.8412840202866
 30
0.0
 40
1.5
100
AcDbArc
 50
270.0
 51
329.9999999999922
  0
ARC
  5
12C1
330
1E
100
AcDbEntity
  8
STEMPEL
100
AcDbCircle
 10
268.4128508089218
 20
596.8412840202866
 30
0.0
 40
2.5
100
AcDbArc
 50
270.0
 51
329.9999999999922
  0
ARC
  5
12C2
330
1E
100
AcDbEntity
  8
STEMPEL
100
AcDbCircle
 10
271.0109270202742
 20
595.3412840202865
 30
0.0
 40
1.5
100
AcDbArc
 50
90.0
 51
149.9999999999922
  0
ARC
  5
12C3
330
1E
100
AcDbEntity
  8
STEMPEL
100
AcDbCircle
 10
271.0109270202742
 20
595.3412840202865
 30
0.0
 40
0.5
100
AcDbArc
 50
90.0
 51
149.9999999999922
  0
LINE
  5
12C4
330
1E
100
AcDbEntity
  8
STEMPEL
100
AcDbLine
 10
271.0109270202742
 20
595.8412840202866
 30
0.0
 11
271.2109270202742
 21
595.8412840202866
 31
0.0
  0
ARC
  5
12C5
330
1E
100
AcDbEntity
  8
STEMPEL
100
AcDbCircle
 10
271.2109270202742
 20
595.3412840202865
 30
0.0
 40
0.5
100
AcDbArc
 50
29.99999999999246
 51
90.0
  0
ARC
  5
12C6
330
1E
100
AcDbEntity
  8
STEMPEL
100
AcDbCircle
 10
271.2109270202742
 20
595.3412840202865
 30
0.0
 40
1.5
100
AcDbArc
 50
29.99999999999246
 51
90.0
  0
ARC
  5
12C7
330
1E
100
AcDbEntity
  8
STEMPEL
100
AcDbCircle
 10
328.3694886365716
 20
589.3412840202866
 30
0.0
 40
5.0
100
AcDbArc
 50
59.46264995169952
 51
90.0
  0
ARC
  5
12C8
330
1E
100
AcDbEntity
  8
STEMPEL
100
AcDbCircle
 10
328.3694886365716
 20
589.3412840202866
 30
0.0
 40
6.0
100
AcDbArc
 50
59.48712567238195
 51
90.0
  0
ARC
  5
12C9
330
1E
100
AcDbEntity
  8
STEMPEL
100
AcDbCircle
 10
328.3694886365716
 20
589.3412840202866
 30
0.0
 40
6.0
100
AcDbArc
 50
90.0
 51
90.0
  0
LINE
  5
12CA
330
1E
100
AcDbEntity
  8
STEMPEL
100
AcDbLine
 10
354.8888422046987
 20
579.6601214671677
 30
0.0
 11
330.9099883117475
 21
593.6477746333532
 31
0.0
  0
LINE
  5
12CB
330
1E
100
AcDbEntity
  8
STEMPEL
100
AcDbLine
 10
355.4021832582795
 20
580.5183645803303
 30
0.0
 11
331.4158803828126
 21
594.5103745910189
 31
0.0
  0
ARC
  5
12CC
330
1E
100
AcDbEntity
  8
STEMPEL
100
AcDbCircle
 10
352.3694886365715
 20
575.3412260529715
 30
0.0
 40
5.0
100
AcDbArc
 50
0.0
 51
59.74358352518418
  0
ARC
  5
12CD
330
1E
100
AcDbEntity
  8
STEMPEL
100
AcDbCircle
 10
352.3694886365715
 20
575.3412260529715
 30
0.0
 40
6.0
100
AcDbArc
 50
0.0
 51
59.74358352518418
  0
ARC
  5
12CE
330
1E
100
AcDbEntity
  8
STEMPEL
100
AcDbCircle
 10
357.8806322408832
 20
584.8611210027488
 30
0.0
 40
5.0
100
AcDbArc
 50
239.7435628364698
 51
239.9329541615142
  0
LINE
  5
12CF
330
1E
100
AcDbEntity
  8
MITTEL
100
AcDbLine
 10
370.3694886365714
 20
482.3412840202871
 30
0.0
 11
370.3694886365714
 21
514.0090273546872
 31
0.0
  0
LINE
  5
12D0
330
1E
100
AcDbEntity
  8
MITTEL
100
AcDbLine
 10
370.3694886365714
 20
511.3412840202873
 30
0.0
 11
370.3694886365714
 21
500.341284020287
 31
0.0
  0
LINE
  5
12D1
330
1E
100
AcDbEntity
  8
STEMPEL
100
AcDbLine
 10
376.3694886365712
 20
507.9412840202872
 30
0.0
 11
376.3694886365712
 21
506.3412840202873
 31
0.0
  0
LINE
  5
12D2
330
1E
100
AcDbEntity
  8
STEMPEL
100
AcDbLine
 10
364.3694886365712
 20
507.9412840202874
 30
0.0
 11
364.3694886365712
 21
506.3412840202873
 31
0.0
  0
ARC
  5
12D3
330
1E
100
AcDbEntity
  8
STEMPEL
100
AcDbCircle
 10
383.0273458611448
 20
496.341284020287
 30
0.0
 40
4.99999999999995
100
AcDbArc
 50
181.0000000000017
 51
270.0
  0
HATCH
  5
12D4
330
1E
100
AcDbEntity
  8
SCHRAFF
100
AcDbHatch
 10
0.0
 20
0.0
 30
0.0
210
0.0
220
0.0
230
1.0
  2
_USER
 70
     0
 71
     1
 91
        4
 92
        7
 72
     0
 73
     1
 93
       13
 10
374.3694886365712
 20
499.3412840202874
 10
373.8694886365713
 20
499.3412840202875
 10
373.8694886365714
 20
502.3412840202874
 10
374.3694886365712
 20
502.3412840202875
 10
374.3694886365713
 20
505.3412840202871
 10
373.3694886365713
 20
505.3412840202872
 10
373.3694886365715
 20
497.9412840202874
 10
373.3694886365713
 20
485.341284020287
 10
374.3694886365714
 20
485.341284020287
 10
374.3694886365713
 20
488.3412840202876
 10
373.8694886365714
 20
488.3412840202876
 10
373.8694886365714
 20
491.3412840202876
 10
374.3694886365714
 20
491.3412840202877
 97
       13
330
12F2
330
12F3
330
12F1
330
12F0
330
12EF
330
12F7
330
12EA
330
11F0
330
12EC
330
12ED
330
12EE
330
12EB
330
12E8
 92
        7
 72
     0
 73
     1
 93
       13
 10
367.3694886365713
 20
497.9412840202875
 10
367.3694886365712
 20
505.3412840202872
 10
366.3694886365713
 20
505.3412840202873
 10
366.3694886365712
 20
502.3412840202876
 10
366.8694886365714
 20
502.3412840202874
 10
366.8694886365714
 20
499.3412840202875
 10
366.3694886365712
 20
499.3412840202875
 10
366.3694886365714
 20
491.3412840202875
 10
366.8694886365714
 20
491.3412840202875
 10
366.8694886365714
 20
488.3412840202876
 10
366.3694886365714
 20
488.3412840202876
 10
366.3694886365714
 20
485.341284020287
 10
367.3694886365713
 20
485.341284020287
 97
       13
330
12E6
330
125A
330
12E0
330
12E1
330
12E3
330
12E2
330
12D9
330
12DC
330
12DF
330
12DE
330
12DD
330
11F0
330
12DB
 92
        7
 72
     0
 73
     1
 93
        5
 10
368.3694886365713
 20
497.2912840202873
 10
368.0194886365712
 20
497.2912840202873
 10
367.3694886365713
 20
497.9412840202876
 10
367.3694886365714
 20
485.3412840202871
 10
368.3694886365712
 20
485.3412840202871
 97
        5
330
12D5
330
12E7
330
12DB
330
11F0
330
12DA
 92
        7
 72
     0
 73
     1
 93
        5
 10
373.3694886365713
 20
497.9412840202871
 10
372.7194886365714
 20
497.2912840202873
 10
372.3694886365712
 20
497.2912840202873
 10
372.3694886365713
 20
485.341284020287
 10
373.3694886365712
 20
485.3412840202869
 97
        5
330
12F5
330
12D5
330
12E9
330
11F0
330
12EA
 75
     0
 76
     0
 52
135.0
 41
2.0
 77
     0
 78
     1
 53
135.0
 43
21.92149821491407
 44
70.96202873958844
 45
-1.414213562373095
 46
-1.414213562373094
 79
     0
 47
0.076422445382283
 98
        4
 10
374.1571096812789
 20
496.0923896203348
 10
366.9681368932455
 20
497.3915702645487
 10
367.8094005548195
 20
495.6338536794243
 10
372.780498879379
 20
495.6338536794243
  0
LINE
  5
12D5
102
{ACAD_REACTORS
330
12D4
102
}
330
1E
100
AcDbEntity
  8
STEMPEL
100
AcDbLine
 10
368.0194886365712
 20
497.2912840202873
 30
0.0
 11
372.7194886365714
 21
497.2912840202873
 31
0.0
  0
LINE
  5
12D6
330
1E
100
AcDbEntity
  8
STEMPEL
100
AcDbLine
 10
378.3694886365712
 20
506.3412840202871
 30
0.0
 11
363.3694886365713
 21
506.3412840202875
 31
0.0
  0
LINE
  5
12D7
330
1E
100
AcDbEntity
  8
STEMPEL
100
AcDbLine
 10
367.3694886365715
 20
497.9412840202874
 30
0.0
 11
373.3694886365715
 21
497.9412840202874
 31
0.0
  0
LINE
  5
12D8
330
1E
100
AcDbEntity
  8
STEMPEL
100
AcDbLine
 10
376.3694886365714
 20
506.3412840202871
 30
0.0
 11
364.3694886365712
 21
506.3412840202875
 31
0.0
  0
LINE
  5
12D9
102
{ACAD_REACTORS
330
12D4
102
}
330
1E
100
AcDbEntity
  8
STEMPEL
100
AcDbLine
 10
366.3694886365714
 20
491.3412840202873
 30
0.0
 11
366.3694886365712
 21
499.3412840202875
 31
0.0
  0
LINE
  5
12DA
102
{ACAD_REACTORS
330
12D4
102
}
330
1E
100
AcDbEntity
  8
STEMPEL
100
AcDbLine
 10
368.3694886365713
 20
485.3412840202874
 30
0.0
 11
368.3694886365713
 21
497.2912840202873
 31
0.0
  0
LINE
  5
12DB
102
{ACAD_REACTORS
330
12D4
102
}
330
1E
100
AcDbEntity
  8
HILF
100
AcDbLine
 10
367.3694886365713
 20
485.3412840202874
 30
0.0
 11
367.3694886365713
 21
497.9412840202875
 31
0.0
  0
LINE
  5
12DC
102
{ACAD_REACTORS
330
12D4
102
}
330
1E
100
AcDbEntity
  8
STEMPEL
100
AcDbLine
 10
366.8694886365714
 20
491.3412840202875
 30
0.0
 11
366.3694886365714
 21
491.3412840202875
 31
0.0
  0
LINE
  5
12DD
102
{ACAD_REACTORS
330
12D4
102
}
330
1E
100
AcDbEntity
  8
STEMPEL
100
AcDbLine
 10
366.3694886365714
 20
485.3412840202876
 30
0.0
 11
366.3694886365714
 21
488.3412840202876
 31
0.0
  0
LINE
  5
12DE
102
{ACAD_REACTORS
330
12D4
102
}
330
1E
100
AcDbEntity
  8
STEMPEL
100
AcDbLine
 10
366.8694886365714
 20
488.3412840202876
 30
0.0
 11
366.3694886365714
 21
488.3412840202876
 31
0.0
  0
LINE
  5
12DF
102
{ACAD_REACTORS
330
12D4
102
}
330
1E
100
AcDbEntity
  8
STEMPEL
100
AcDbLine
 10
366.8694886365714
 20
488.3412840202875
 30
0.0
 11
366.8694886365714
 21
491.3412840202875
 31
0.0
  0
LINE
  5
12E0
102
{ACAD_REACTORS
330
12D4
102
}
330
1E
100
AcDbEntity
  8
STEMPEL
100
AcDbLine
 10
366.3694886365712
 20
502.3412840202873
 30
0.0
 11
366.3694886365713
 21
505.3412840202875
 31
0.0
  0
LINE
  5
12E1
102
{ACAD_REACTORS
330
12D4
102
}
330
1E
100
AcDbEntity
  8
STEMPEL
100
AcDbLine
 10
366.8694886365714
 20
502.3412840202874
 30
0.0
 11
366.3694886365713
 21
502.3412840202874
 31
0.0
  0
LINE
  5
12E2
102
{ACAD_REACTORS
330
12D4
102
}
330
1E
100
AcDbEntity
  8
STEMPEL
100
AcDbLine
 10
366.8694886365714
 20
499.3412840202875
 30
0.0
 11
366.3694886365713
 21
499.3412840202875
 31
0.0
  0
LINE
  5
12E3
102
{ACAD_REACTORS
330
12D4
102
}
330
1E
100
AcDbEntity
  8
STEMPEL
100
AcDbLine
 10
366.8694886365714
 20
499.3412840202875
 30
0.0
 11
366.8694886365714
 21
502.3412840202876
 31
0.0
  0
LINE
  5
12E4
330
1E
100
AcDbEntity
  8
STEMPEL
100
AcDbLine
 10
366.3694886365714
 20
506.3412840202875
 30
0.0
 11
366.3694886365714
 21
505.3412840202871
 31
0.0
  0
LINE
  5
12E5
330
1E
100
AcDbEntity
  8
HILF
100
AcDbLine
 10
368.0194886365707
 20
497.2912840202873
 30
0.0
 11
368.0194886365705
 21
506.3412840202873
 31
0.0
  0
LINE
  5
12E6
102
{ACAD_REACTORS
330
12D4
102
}
330
1E
100
AcDbEntity
  8
STEMPEL
100
AcDbLine
 10
367.3694886365712
 20
506.3412840202873
 30
0.0
 11
367.3694886365715
 21
497.9412840202874
 31
0.0
  0
LINE
  5
12E7
102
{ACAD_REACTORS
330
12D4
102
}
330
1E
100
AcDbEntity
  8
STEMPEL
100
AcDbLine
 10
367.3694886365715
 20
497.9412840202874
 30
0.0
 11
368.0194886365712
 21
497.2912840202873
 31
0.0
  0
LINE
  5
12E8
102
{ACAD_REACTORS
330
12D4
102
}
330
1E
100
AcDbEntity
  8
STEMPEL
100
AcDbLine
 10
374.3694886365714
 20
491.3412840202876
 30
0.0
 11
374.3694886365712
 21
499.3412840202875
 31
0.0
  0
LINE
  5
12E9
102
{ACAD_REACTORS
330
12D4
102
}
330
1E
100
AcDbEntity
  8
STEMPEL
100
AcDbLine
 10
372.3694886365713
 20
485.3412840202874
 30
0.0
 11
372.3694886365713
 21
497.2912840202873
 31
0.0
  0
LINE
  5
12EA
102
{ACAD_REACTORS
330
12D4
102
}
330
1E
100
AcDbEntity
  8
HILF
100
AcDbLine
 10
373.3694886365713
 20
485.3412840202874
 30
0.0
 11
373.3694886365713
 21
497.9412840202875
 31
0.0
  0
LINE
  5
12EB
102
{ACAD_REACTORS
330
12D4
102
}
330
1E
100
AcDbEntity
  8
STEMPEL
100
AcDbLine
 10
374.3694886365714
 20
491.3412840202877
 30
0.0
 11
373.8694886365714
 21
491.3412840202876
 31
0.0
  0
LINE
  5
12EC
102
{ACAD_REACTORS
330
12D4
102
}
330
1E
100
AcDbEntity
  8
STEMPEL
100
AcDbLine
 10
374.3694886365714
 20
485.3412840202876
 30
0.0
 11
374.3694886365714
 21
488.3412840202876
 31
0.0
  0
LINE
  5
12ED
102
{ACAD_REACTORS
330
12D4
102
}
330
1E
100
AcDbEntity
  8
STEMPEL
100
AcDbLine
 10
374.3694886365714
 20
488.3412840202876
 30
0.0
 11
373.8694886365713
 21
488.3412840202876
 31
0.0
  0
LINE
  5
12EE
102
{ACAD_REACTORS
330
12D4
102
}
330
1E
100
AcDbEntity
  8
STEMPEL
100
AcDbLine
 10
373.8694886365714
 20
488.3412840202876
 30
0.0
 11
373.8694886365714
 21
491.3412840202877
 31
0.0
  0
LINE
  5
12EF
102
{ACAD_REACTORS
330
12D4
102
}
330
1E
100
AcDbEntity
  8
STEMPEL
100
AcDbLine
 10
373.3694886365712
 20
505.3412840202871
 30
0.0
 11
378.3694886365716
 21
505.3412840202871
 31
0.0
  0
LINE
  5
12F0
102
{ACAD_REACTORS
330
12D4
102
}
330
1E
100
AcDbEntity
  8
STEMPEL
100
AcDbLine
 10
374.3694886365712
 20
502.3412840202874
 30
0.0
 11
374.3694886365713
 21
505.3412840202875
 31
0.0
  0
LINE
  5
12F1
102
{ACAD_REACTORS
330
12D4
102
}
330
1E
100
AcDbEntity
  8
STEMPEL
100
AcDbLine
 10
374.3694886365713
 20
502.3412840202874
 30
0.0
 11
373.8694886365714
 21
502.3412840202874
 31
0.0
  0
LINE
  5
12F2
102
{ACAD_REACTORS
330
12D4
102
}
330
1E
100
AcDbEntity
  8
STEMPEL
100
AcDbLine
 10
374.3694886365713
 20
499.3412840202875
 30
0.0
 11
373.8694886365714
 21
499.3412840202875
 31
0.0
  0
LINE
  5
12F3
102
{ACAD_REACTORS
330
12D4
102
}
330
1E
100
AcDbEntity
  8
STEMPEL
100
AcDbLine
 10
373.8694886365714
 20
499.3412840202875
 30
0.0
 11
373.8694886365714
 21
502.3412840202876
 31
0.0
  0
LINE
  5
12F4
330
1E
100
AcDbEntity
  8
STEMPEL
100
AcDbLine
 10
374.3694886365714
 20
506.3412840202871
 30
0.0
 11
374.3694886365714
 21
505.3412840202871
 31
0.0
  0
LINE
  5
12F5
102
{ACAD_REACTORS
330
12D4
102
}
330
1E
100
AcDbEntity
  8
STEMPEL
100
AcDbLine
 10
372.7194886365714
 20
497.2912840202873
 30
0.0
 11
373.3694886365715
 21
497.9412840202874
 31
0.0
  0
LINE
  5
12F6
330
1E
100
AcDbEntity
  8
HILF
100
AcDbLine
 10
372.719488636571
 20
497.2912840202873
 30
0.0
 11
372.7194886365706
 21
506.3412840202871
 31
0.0
  0
LINE
  5
12F7
102
{ACAD_REACTORS
330
12D4
102
}
330
1E
100
AcDbEntity
  8
STEMPEL
100
AcDbLine
 10
373.3694886365712
 20
506.3412840202872
 30
0.0
 11
373.3694886365715
 21
497.9412840202874
 31
0.0
  0
LINE
  5
12F8
330
1E
100
AcDbEntity
  8
STEMPEL
100
AcDbLine
 10
377.8694886365713
 20
505.3412840202871
 30
0.0
 11
378.0281073853629
 21
496.2540219881005
 31
0.0
  0
LINE
  5
12F9
330
1E
100
AcDbEntity
  8
STEMPEL
100
AcDbLine
 10
378.3694886365713
 20
506.3412840202873
 30
0.0
 11
378.3694886365714
 21
505.3412840202871
 31
0.0
  0
LINE
  5
12FA
330
1E
100
AcDbEntity
  8
STEMPEL
100
AcDbLine
 10
383.0273458611448
 20
491.341284020287
 30
0.0
 11
390.3694886365714
 21
491.341284020287
 31
0.0
  0
ARC
  5
12FB
330
1E
100
AcDbEntity
  8
STEMPEL
100
AcDbCircle
 10
390.3694886365714
 20
488.3412840202871
 30
0.0
 40
3.000000000000028
100
AcDbArc
 50
270.0
 51
90.0
  0
ARC
  5
12FC
330
1E
100
AcDbEntity
  8
STEMPEL
100
AcDbCircle
 10
370.3694886365712
 20
503.7279097610874
 30
0.0
 40
8.281117593600001
100
AcDbArc
 50
70.52782738138933
 51
109.4721726186137
  0
LINE
  5
12FD
330
1E
100
AcDbEntity
  8
STEMPEL
100
AcDbLine
 10
364.3694886365712
 20
507.9412840202874
 30
0.0
 11
376.3694886365712
 21
507.9412840202872
 31
0.0
  0
LINE
  5
12FE
330
1E
100
AcDbEntity
  8
STEMPEL
100
AcDbLine
 10
366.2291390469453
 20
512.0090273546873
 30
0.0
 11
374.5098382256881
 21
512.0090273546873
 31
0.0
  0
ARC
  5
12FF
330
1E
100
AcDbEntity
  8
STEMPEL
100
AcDbCircle
 10
366.2287352545972
 20
509.7611290344082
 30
0.0
 40
2.247898356545996
100
AcDbArc
 50
52.11936428281976
 51
121.4691945163663
  0
LINE
  5
1300
330
1E
100
AcDbEntity
  8
STEMPEL
100
AcDbLine
 10
364.8484841272726
 20
511.5590368094843
 30
0.0
 11
364.8484841272726
 21
507.9412840202874
 31
0.0
  0
LINE
  5
1301
330
1E
100
AcDbEntity
  8
STEMPEL
100
AcDbLine
 10
364.8484841272726
 20
511.5590368094843
 30
0.0
 11
365.055242259058
 21
511.6784086725277
 31
0.0
  0
LINE
  5
1302
330
1E
100
AcDbEntity
  8
STEMPEL
100
AcDbLine
 10
367.6089863819219
 20
511.5353764373599
 30
0.0
 11
367.6089863819219
 21
507.9412840202874
 31
0.0
  0
ARC
  5
1303
330
1E
100
AcDbEntity
  8
STEMPEL
100
AcDbCircle
 10
374.5102420185452
 20
509.7611290344082
 30
0.0
 40
2.247898356545996
100
AcDbArc
 50
58.53080548383258
 51
127.8806357171802
  0
LINE
  5
1304
330
1E
100
AcDbEntity
  8
STEMPEL
100
AcDbLine
 10
373.1299908912207
 20
511.5353764373599
 30
0.0
 11
373.1299908912205
 21
507.9412840202874
 31
0.0
  0
LINE
  5
1305
330
1E
100
AcDbEntity
  8
STEMPEL
100
AcDbLine
 10
374.506282793186
 20
512.0090273546873
 30
0.0
 11
374.5098382261821
 21
512.0090273546873
 31
0.0
  0
LINE
  5
1306
330
1E
100
AcDbEntity
  8
STEMPEL
100
AcDbLine
 10
375.89049314587
 20
511.5590368094841
 30
0.0
 11
375.89049314587
 21
507.9412840202874
 31
0.0
  0
LINE
  5
1307
330
1E
100
AcDbEntity
  8
STEMPEL
100
AcDbLine
 10
375.89049314587
 20
511.5590368094843
 30
0.0
 11
375.6837350140776
 21
511.6784086725316
 31
0.0
  0
DIMENSION
  5
131C
330
1E
100
AcDbEntity
  8
BEM
100
AcDbDimension
  2
*D7
 10
83.76057944172499
 20
485.341284020287
 30
0.0
 11
77.2605794417249
 21
512.841284020287
 31
0.0
 70
    32
 71
     5
 42
55.00000000000006
  3
Standard
100
AcDbAlignedDimension
 13
165.4316907019288
 23
540.341284020287
 33
0.0
 14
106.3694886365714
 24
485.341284020287
 34
0.0
 50
90.0
100
AcDbRotatedDimension
1001
ACAD
1000
DSTYLE
1002
{
1070
    40
1040
2.0
1070
    41
1040
3.5
1070
    42
1040
1.0
1070
    43
1040
7.0
1070
    44
1040
1.0
1070
    73
1070
     0
1070
    74
1070
     0
1070
    77
1070
     1
1070
    78
1070
     8
1070
    79
1070
     2
1070
   140
1040
3.5
1070
   141
1040
1.5
1070
   146
1040
0.5142857142857144
1070
   147
1040
1.5
1070
   172
1070
     1
1070
   178
1070
     1
1070
   179
1070
     2
1070
   271
1070
     2
1070
   272
1070
     2
1070
   284
1070
     8
1070
   285
1070
     8
1070
   286
1070
     8
1002
}
  0
HATCH
  5
1378
330
1E
100
AcDbEntity
  8
SCHRAFF
100
AcDbHatch
 10
0.0
 20
0.0
 30
0.0
210
0.0
220
0.0
230
1.0
  2
_USER
 70
     0
 71
     1
 91
        2
 92
        7
 72
     1
 73
     1
 93
       10
 10
299.1694886365715
 20
454.1513345266279
 42
-0.1989123673796685
 10
300.6339547306388
 20
457.6868684325609
 42
0.0
 10
307.5611625245013
 20
464.6140762264229
 42
0.0
 10
306.7126343870773
 20
465.4626043638467
 42
0.0
 10
299.785426593215
 20
458.5353965699848
 42
0.1989123673796644
 10
297.9694886365714
 20
454.1513345266281
 42
0.0
 10
297.9694886365716
 20
217.3936771517775
 42
0.0
 10
297.2649955233121
 20
209.3412840202874
 42
0.0
 10
298.469579328364
 20
209.3412840202874
 42
0.0
 10
299.1694886365715
 20
217.3412840202883
 42
0.0
 97
       10
330
137E
330
137D
330
139A
330
139B
330
137F
330
1386
330
1383
330
13A6
330
1387
330
1389
 92
        7
 72
     1
 73
     1
 93
       10
 10
198.7694886365715
 20
454.1513345266279
 42
0.1989123673796691
 10
196.9535506799279
 20
458.5353965699847
 42
0.0
 10
190.0263428860649
 20
465.4626043638474
 42
0.0
 10
189.177814748641
 20
464.6140762264234
 42
0.0
 10
196.105022542504
 20
457.6868684325608
 42
-0.1989123673796638
 10
197.5694886365714
 20
454.151334526628
 42
0.0
 10
197.5694886365715
 20
217.3412840202875
 42
0.0
 10
198.2693979447789
 20
209.3412840202879
 42
0.0
 10
199.4739817498308
 20
209.3412840202879
 42
0.0
 10
198.7694886365714
 20
217.3936771517789
 42
0.0
 97
       10
330
1380
330
1396
330
1397
330
1382
330
1381
330
138A
330
1388
330
13A6
330
1384
330
1385
 75
     0
 76
     0
 52
135.0
 41
2.0
 77
     0
 78
     1
 53
135.0
 43
12.2172893327666
 44
36.10167985997214
 45
-1.414213562373095
 46
-1.414213562373094
 79
     0
 47
0.4814251419694602
 98
        2
 10
298.3531294736518
 20
386.1280232698734
 10
198.1623860775444
 20
392.3865503737652
  0
HATCH
  5
1379
330
1E
100
AcDbEntity
  8
SCHRAFF
100
AcDbHatch
 10
0.0
 20
0.0
 30
0.0
210
0.0
220
0.0
230
1.0
  2
_USER
 70
     0
 71
     1
 91
        4
 92
        7
 72
     1
 73
     1
 93
        4
 10
310.5310110054848
 20
465.0383402951347
 42
0.0
 10
308.8339547306371
 20
463.3412840202871
 42
0.0
 10
306.2883703183654
 20
463.3412840202871
 42
0.0
 10
305.4398421809415
 20
462.4927558828633
 42
0.7207592200561206
 97
        4
330
139C
330
137C
330
137D
330
137B
 92
       23
 72
     0
 73
     1
 93
        3
 10
307.5611625245012
 20
464.6140762264228
 10
306.2883703183655
 20
463.3412840202871
 10
308.8339547306371
 20
463.3412840202871
 97
        3
330
137D
330
137C
330
139A
 92
       23
 72
     0
 73
     1
 93
        3
 10
189.177814748641
 20
464.6140762264233
 10
187.9050225425052
 20
463.3412840202876
 10
190.4506069547768
 20
463.3412840202876
 97
        3
330
1397
330
138B
330
1382
 92
        7
 72
     1
 73
     1
 93
        4
 10
191.2991350922013
 20
462.4927558828631
 42
0.0
 10
190.4506069547769
 20
463.3412840202876
 42
0.0
 10
187.9050225425054
 20
463.3412840202876
 42
0.0
 10
186.2079662676582
 20
465.0383402951346
 42
0.7207592200561206
 97
        4
330
1382
330
138B
330
1394
330
137A
 75
     0
 76
     0
 52
0.0
 41
0.1
 77
     0
 78
     1
 53
0.0
 43
12.2172893327666
 44
36.10167985997214
 45
0.0
 46
0.1
 79
     0
 47
0.229449449055442
 98
        4
 10
307.5634869346428
 20
462.6044240558699
 10
307.7930608781094
 20
463.5222223360367
 10
189.56249816943
 20
463.7516715562144
 10
189.1033502824971
 20
462.1455256155145
  0
ARC
  5
137A
102
{ACAD_REACTORS
330
1379
102
}
330
1E
100
AcDbEntity
  8
SCHRAFF
100
AcDbCircle
 10
189.1778147486417
 20
464.6140762264228
 30
0.0
 40
3.0
100
AcDbArc
 50
171.8698976458451
 51
315.0000000000034
  0
ARC
  5
137B
102
{ACAD_REACTORS
330
1379
102
}
330
1E
100
AcDbEntity
  8
SCHRAFF
100
AcDbCircle
 10
307.5611625245012
 20
464.6140762264228
 30
0.0
 40
3.0
100
AcDbArc
 50
224.9999999999965
 51
8.130102354154827
  0
LINE
  5
137C
102
{ACAD_REACTORS
330
1379
102
}
330
1E
100
AcDbEntity
  8
STEMPEL
100
AcDbLine
 10
306.2883703183654
 20
463.3412840202871
 30
0.0
 11
308.8339547306369
 21
463.3412840202871
 31
0.0
  0
LINE
  5
137D
102
{ACAD_REACTORS
330
1379
330
1378
102
}
330
1E
100
AcDbEntity
  8
STEMPEL
100
AcDbLine
 10
307.5611625245013
 20
464.6140762264229
 30
0.0
 11
300.6339547306388
 21
457.6868684325609
 31
0.0
  0
ARC
  5
137E
102
{ACAD_REACTORS
330
1378
102
}
330
1E
100
AcDbEntity
  8
STEMPEL
100
AcDbCircle
 10
304.1694886365715
 20
454.1513345266279
 30
0.0
 40
5.0
100
AcDbArc
 50
134.9999999999988
 51
180.0
  0
ARC
  5
137F
102
{ACAD_REACTORS
330
1378
102
}
330
1E
100
AcDbEntity
  8
STEMPEL
100
AcDbCircle
 10
304.1694886365715
 20
454.1513345266279
 30
0.0
 40
6.2
100
AcDbArc
 50
134.9999999999988
 51
180.0
  0
ARC
  5
1380
102
{ACAD_REACTORS
330
1378
102
}
330
1E
100
AcDbEntity
  8
STEMPEL
100
AcDbCircle
 10
192.5694886365714
 20
454.1513345266279
 30
0.0
 40
6.2
100
AcDbArc
 50
0.0
 51
45.00000000000115
  0
ARC
  5
1381
102
{ACAD_REACTORS
330
1378
102
}
330
1E
100
AcDbEntity
  8
STEMPEL
100
AcDbCircle
 10
192.5694886365714
 20
454.1513345266279
 30
0.0
 40
5.0
100
AcDbArc
 50
0.0
 51
45.00000000000115
  0
LINE
  5
1382
102
{ACAD_REACTORS
330
1379
330
1378
102
}
330
1E
100
AcDbEntity
  8
STEMPEL
100
AcDbLine
 10
189.1132860237892
 20
464.6786049512751
 30
0.0
 11
196.105022542504
 21
457.6868684325608
 31
0.0
  0
LINE
  5
1383
102
{ACAD_REACTORS
330
1378
102
}
330
1E
100
AcDbEntity
  8
STEMPEL
100
AcDbLine
 10
297.9694886365716
 20
217.3936771517777
 30
0.0
 11
297.2649955233121
 21
209.3412840202875
 31
0.0
  0
LINE
  5
1384
102
{ACAD_REACTORS
330
1378
102
}
330
1E
100
AcDbEntity
  8
STEMPEL
100
AcDbLine
 10
198.7694886365714
 20
217.3936771517783
 30
0.0
 11
199.4739817498308
 21
209.3412840202879
 31
0.0
  0
LINE
  5
1385
102
{ACAD_REACTORS
330
1378
102
}
330
1E
100
AcDbEntity
  8
STEMPEL
100
AcDbLine
 10
198.7694886365715
 20
454.1513345266279
 30
0.0
 11
198.7694886365714
 21
217.3936771517783
 31
0.0
  0
LINE
  5
1386
102
{ACAD_REACTORS
330
1378
102
}
330
1E
100
AcDbEntity
  8
STEMPEL
100
AcDbLine
 10
297.9694886365714
 20
454.1513345266279
 30
0.0
 11
297.9694886365716
 21
217.3936771517777
 31
0.0
  0
LINE
  5
1387
102
{ACAD_REACTORS
330
1378
102
}
330
1E
100
AcDbEntity
  8
STEMPEL
100
AcDbLine
 10
299.1694886365715
 20
217.3412840202876
 30
0.0
 11
298.469579328364
 21
209.3412840202874
 31
0.0
  0
LINE
  5
1388
102
{ACAD_REACTORS
330
1378
102
}
330
1E
100
AcDbEntity
  8
STEMPEL
100
AcDbLine
 10
197.5694886365714
 20
217.341284020288
 30
0.0
 11
198.2693979447789
 21
209.3412840202879
 31
0.0
  0
LINE
  5
1389
102
{ACAD_REACTORS
330
1378
102
}
330
1E
100
AcDbEntity
  8
STEMPEL
100
AcDbLine
 10
299.1694886365715
 20
454.1513345266279
 30
0.0
 11
299.1694886365715
 21
217.3412840202876
 31
0.0
  0
LINE
  5
138A
102
{ACAD_REACTORS
330
1378
102
}
330
1E
100
AcDbEntity
  8
STEMPEL
100
AcDbLine
 10
197.5694886365714
 20
454.1513345266279
 30
0.0
 11
197.5694886365714
 21
217.341284020288
 31
0.0
  0
LINE
  5
138B
102
{ACAD_REACTORS
330
1379
102
}
330
1E
100
AcDbEntity
  8
STEMPEL
100
AcDbLine
 10
187.9050225425053
 20
463.3412840202876
 30
0.0
 11
190.4506069547769
 21
463.3412840202876
 31
0.0
  0
LINE
  5
138C
330
1E
100
AcDbEntity
  8
STEMPEL
100
AcDbLine
 10
306.7126343870774
 20
465.4626043638468
 30
0.0
 11
190.0263428860654
 21
465.4626043638468
 31
0.0
  0
LINE
  5
138D
330
1E
100
AcDbEntity
  8
STEMPEL
100
AcDbLine
 10
100.4979157613176
 20
472.3412840202879
 30
0.0
 11
178.9050225425045
 21
472.3412840202876
 31
0.0
  0
LINE
  5
138E
330
1E
100
AcDbEntity
  8
STEMPEL
100
AcDbLine
 10
104.4979157613176
 20
476.3412840202879
 30
0.0
 11
174.0765954177583
 21
476.3412840202877
 31
0.0
  0
LINE
  5
138F
330
1E
100
AcDbEntity
  8
STEMPEL
100
AcDbLine
 10
98.37659541775799
 20
474.4626043638478
 30
0.0
 11
102.376595417758
 21
478.4626043638477
 31
0.0
  0
LINE
  5
1390
330
1E
100
AcDbEntity
  8
STEMPEL
100
AcDbLine
 10
100.4979157613176
 20
472.3412840202879
 30
0.0
 11
104.4979157613176
 21
476.341284020288
 31
0.0
  0
LINE
  5
1391
330
1E
100
AcDbEntity
  8
STEMPEL
100
AcDbLine
 10
98.3765954177581
 20
474.4626043638477
 30
0.0
 11
100.4979157613176
 21
472.3412840202879
 31
0.0
  0
ARC
  5
1392
330
1E
100
AcDbEntity
  8
STEMPEL
100
AcDbCircle
 10
104.4979157613176
 20
476.341284020288
 30
0.0
 40
3.0
100
AcDbArc
 50
90.0
 51
135.0
  0
ARC
  5
1393
330
1E
100
AcDbEntity
  8
STEMPEL
100
AcDbCircle
 10
174.0765954177583
 20
474.3412840202875
 30
0.0
 40
5.0
100
AcDbArc
 50
45.00000000000115
 51
90.0
  0
LINE
  5
1394
102
{ACAD_REACTORS
330
1379
102
}
330
1E
100
AcDbEntity
  8
STEMPEL
100
AcDbLine
 10
175.4908089801313
 20
475.7554975826606
 30
0.0
 11
187.9050225425053
 21
463.3412840202876
 31
0.0
  0
ARC
  5
1395
330
1E
100
AcDbEntity
  8
STEMPEL
100
AcDbCircle
 10
174.0765954177583
 20
474.3412840202875
 30
0.0
 40
2.0
100
AcDbArc
 50
45.00000000000115
 51
90.0
  0
LINE
  5
1396
102
{ACAD_REACTORS
330
1378
102
}
330
1E
100
AcDbEntity
  8
STEMPEL
100
AcDbLine
 10
177.6121293236909
 20
477.8768179262204
 30
0.0
 11
196.9535506799279
 21
458.5353965699847
 31
0.0
  0
LINE
  5
1397
102
{ACAD_REACTORS
330
1379
330
1378
102
}
330
1E
100
AcDbEntity
  8
STEMPEL
  6
STRICHPUNKT
100
AcDbLine
 10
190.0263428860648
 20
465.4626043638472
 30
0.0
 11
187.9050225425053
 21
463.3412840202876
 31
0.0
  0
LINE
  5
1398
330
1E
100
AcDbEntity
  8
STEMPEL
100
AcDbLine
 10
317.8339547306378
 20
472.3412840202871
 30
0.0
 11
396.2410615118264
 21
472.3412840202868
 31
0.0
  0
LINE
  5
1399
330
1E
100
AcDbEntity
  8
STEMPEL
100
AcDbLine
 10
322.6623818553846
 20
476.3412840202873
 30
0.0
 11
392.2410615118262
 21
476.3412840202868
 31
0.0
  0
LINE
  5
139A
102
{ACAD_REACTORS
330
1379
330
1378
102
}
330
1E
100
AcDbEntity
  8
STEMPEL
  6
STRICHPUNKT
100
AcDbLine
 10
306.7126343870774
 20
465.4626043638468
 30
0.0
 11
308.833954730637
 21
463.3412840202871
 31
0.0
  0
LINE
  5
139B
102
{ACAD_REACTORS
330
1378
102
}
330
1E
100
AcDbEntity
  8
STEMPEL
100
AcDbLine
 10
319.126847949452
 20
477.8768179262204
 30
0.0
 11
299.785426593215
 21
458.5353965699848
 31
0.0
  0
LINE
  5
139C
102
{ACAD_REACTORS
330
1379
102
}
330
1E
100
AcDbEntity
  8
STEMPEL
100
AcDbLine
 10
321.2481682930116
 20
475.7554975826606
 30
0.0
 11
308.833954730637
 21
463.3412840202871
 31
0.0
  0
ARC
  5
139D
330
1E
100
AcDbEntity
  8
STEMPEL
100
AcDbCircle
 10
322.6623818553846
 20
474.3412840202875
 30
0.0
 40
2.0
100
AcDbArc
 50
90.0
 51
134.9999999999988
  0
ARC
  5
139E
330
1E
100
AcDbEntity
  8
STEMPEL
100
AcDbCircle
 10
322.6623818553846
 20
474.3412840202875
 30
0.0
 40
5.0
100
AcDbArc
 50
90.0
 51
134.9999999999988
  0
LINE
  5
139F
330
1E
100
AcDbEntity
  8
STEMPEL
100
AcDbLine
 10
398.3754600616857
 20
474.4495261575469
 30
0.0
 11
394.3623818553849
 21
478.4626043638477
 31
0.0
  0
LINE
  5
13A0
330
1E
100
AcDbEntity
  8
STEMPEL
100
AcDbLine
 10
398.3754600616857
 20
474.4495261575469
 30
0.0
 11
396.2541397181262
 21
472.3282058139871
 31
0.0
  0
LINE
  5
13A1
330
1E
100
AcDbEntity
  8
STEMPEL
100
AcDbLine
 10
396.2410615118264
 20
472.3412840202868
 30
0.0
 11
392.2410615118252
 21
476.341284020288
 31
0.0
  0
ARC
  5
13A2
330
1E
100
AcDbEntity
  8
STEMPEL
100
AcDbCircle
 10
392.2410615118252
 20
476.341284020288
 30
0.0
 40
3.0
100
AcDbArc
 50
45.0
 51
90.0
  0
HATCH
  5
13A3
330
1E
100
AcDbEntity
  8
SCHRAFF
100
AcDbHatch
 10
0.0
 20
0.0
 30
0.0
210
0.0
220
0.0
230
1.0
  2
_USER
 70
     0
 71
     0
 91
        1
 92
        7
 72
     1
 73
     1
 93
       11
 10
104.4979157613176
 20
479.3412840202878
 42
0.1989123673796551
 10
102.376595417758
 20
478.4626043638477
 42
0.0
 10
98.37659541775799
 20
474.4626043638478
 42
0.0
 10
100.4979157613176
 20
472.3412840202879
 42
0.0
 10
104.4979157613175
 20
476.3412840202878
 42
0.0
 10
174.0765954177583
 20
476.3412840202877
 42
-0.1989123673796159
 10
175.4908089801311
 20
475.7554975826608
 42
0.0
 10
187.9050225425053
 20
463.3412840202876
 42
0.0
 10
190.0263428860648
 20
465.4626043638473
 42
0.0
 10
177.6121293236909
 20
477.8768179262204
 42
0.1989123673796481
 10
174.0765954177583
 20
479.3412840202877
 42
0.0
 97
        0
 75
     0
 76
     0
 52
45.0
 41
2.0
 77
     0
 78
     1
 53
45.0
 43
-0.824199596527336
 44
204.030441212304
 45
-1.414213562373094
 46
1.414213562373095
 79
     0
 47
0.4118729359136521
 98
        1
 10
163.6391615579549
 20
477.8969212402806
  0
HATCH
  5
13A4
330
1E
100
AcDbEntity
  8
SCHRAFF
100
AcDbHatch
 10
0.0
 20
0.0
 30
0.0
210
0.0
220
0.0
230
1.0
  2
_USER
 70
     0
 71
     0
 91
        1
 92
        7
 72
     1
 73
     1
 93
       11
 10
322.6623818553846
 20
479.3412840202877
 42
0.0
 10
392.2410615118253
 20
479.3412840202878
 42
-0.1989123673796547
 10
394.362381855385
 20
478.4626043638477
 42
0.0
 10
398.362381855385
 20
474.4626043638478
 42
0.0
 10
396.2410615118253
 20
472.3412840202879
 42
0.0
 10
392.2410615118254
 20
476.3412840202878
 42
0.0
 10
322.6623818553846
 20
476.3412840202877
 42
0.1989123673796182
 10
321.2481682930118
 20
475.7554975826608
 42
0.0
 10
308.8339547306377
 20
463.3412840202876
 42
0.0
 10
306.7126343870782
 20
465.4626043638473
 42
0.0
 10
319.126847949452
 20
477.8768179262204
 42
-0.1989123673796434
 97
        0
 75
     0
 76
     0
 52
45.0
 41
2.0
 77
     0
 78
     1
 53
45.0
 43
-0.824199596527336
 44
204.030441212304
 45
-1.414213562373094
 46
1.414213562373095
 79
     0
 47
0.4118729359136521
 98
        1
 10
333.099815715188
 20
477.8969212402806
  0
LINE
  5
13A5
330
1E
100
AcDbEntity
  8
HILF
100
AcDbLine
 10
199.9694886365714
 20
217.3412840202879
 30
0.0
 11
296.7694886365715
 21
217.3412840202876
 31
0.0
  0
LINE
  5
13A6
102
{ACAD_REACTORS
330
1378
102
}
330
1E
100
AcDbEntity
  8
STEMPEL
100
AcDbLine
 10
198.2693979447789
 20
209.3412840202879
 30
0.0
 11
298.469579328364
 21
209.3412840202874
 31
0.0
  0
LINE
  5
13A7
330
1E
100
AcDbEntity
  8
HILF
100
AcDbLine
 10
199.5788104535809
 20
456.5239718072915
 30
0.0
 11
297.160166819562
 21
456.5239718072915
 31
0.0
  0
ARC
  5
13F7
330
1E
100
AcDbEntity
  8
STEMPEL
100
AcDbCircle
 10
136.3694886365714
 20
471.0303948878321
 30
0.0
 40
30.31088913245485
100
AcDbArc
 50
81.78678929826221
 51
98.2132107017378
  0
ARC
  5
13F8
330
1E
100
AcDbEntity
  8
STEMPEL
100
AcDbCircle
 10
129.8742981081881
 20
493.6469783125025
 30
0.0
 40
7.694305707784447
100
AcDbArc
 50
73.65710669401501
 51
106.342893305985
  0
ARC
  5
13F9
330
1E
100
AcDbEntity
  8
STEMPEL
100
AcDbCircle
 10
142.8646791649547
 20
493.6469783125025
 30
0.0
 40
7.694305707784447
100
AcDbArc
 50
73.65710669401501
 51
106.342893305985
  0
ARC
  5
13FA
330
1E
100
AcDbEntity
  8
HILF
100
AcDbCircle
 10
136.3694886365714
 20
471.4428229726258
 30
0.0
 40
22.41111549782308
100
AcDbArc
 50
78.85962783890615
 51
101.1403721610938
  0
ARC
  5
13FB
330
1E
100
AcDbEntity
  8
HILF
100
AcDbCircle
 10
142.8646791649547
 20
488.0927978707573
 30
0.0
 40
5.761140599691502
100
AcDbArc
 50
67.92594526326206
 51
112.0740547367379
  0
ARC
  5
13FC
330
1E
100
AcDbEntity
  8
HILF
100
AcDbCircle
 10
129.8742981081881
 20
488.0927978707573
 30
0.0
 40
5.761140599691502
100
AcDbArc
 50
67.92594526326206
 51
112.0740547367379
  0
POINT
  5
13FD
330
1E
100
AcDbEntity
  8
0
100
AcDbPoint
 10
136.3694886365714
 20
491.341284020287
 30
0.0
210
0.0000000000000001
220
1.0
230
0.0
  0
LINE
  5
13FE
330
1E
100
AcDbEntity
  8
STEMPEL
100
AcDbLine
 10
128.8694886365714
 20
501.3412840202869
 30
0.0
 11
143.8694886365713
 21
501.3412840202869
 31
0.0
  0
LINE
  5
13FF
330
1E
100
AcDbEntity
  8
STEMPEL
100
AcDbLine
 10
145.0297426744158
 20
493.4316405364868
 30
0.0
 11
145.0297426744158
 21
501.0303948878315
 31
0.0
  0
LINE
  5
1400
330
1E
100
AcDbEntity
  8
STEMPEL
100
AcDbLine
 10
140.6996156554936
 20
493.4316405364868
 30
0.0
 11
140.6996156554936
 21
501.0303948878315
 31
0.0
  0
LINE
  5
1401
330
1E
100
AcDbEntity
  8
STEMPEL
100
AcDbLine
 10
132.0393616176492
 20
493.4316405364868
 30
0.0
 11
132.0393616176492
 21
501.0303948878315
 31
0.0
  0
LINE
  5
1402
330
1E
100
AcDbEntity
  8
STEMPEL
100
AcDbLine
 10
146.7760037440656
 20
492.7960534858764
 30
0.0
 11
125.9629735290771
 21
492.7960534858764
 31
0.0
  0
LINE
  5
1403
330
1E
100
AcDbEntity
  8
STEMPEL
100
AcDbLine
 10
146.5194886365714
 20
491.341284020287
 30
0.0
 11
126.2194886365714
 21
491.341284020287
 31
0.0
  0
LINE
  5
1404
330
1E
100
AcDbEntity
  8
STEMPEL
100
AcDbLine
 10
127.709234598727
 20
493.4316405364868
 30
0.0
 11
127.709234598727
 21
501.0303948878315
 31
0.0
  0
LINE
  5
1405
330
1E
100
AcDbEntity
  8
STEMPEL
100
AcDbLine
 10
128.8694886365714
 20
501.3412840202869
 30
0.0
 11
127.709234598727
 21
501.0303948878315
 31
0.0
  0
LINE
  5
1406
330
1E
100
AcDbEntity
  8
STEMPEL
100
AcDbLine
 10
145.0297426744158
 20
501.0303948878315
 30
0.0
 11
143.8694886365713
 21
501.3412840202869
 31
0.0
  0
LINE
  5
1407
330
1E
100
AcDbEntity
  8
STEMPEL
100
AcDbLine
 10
146.7760037440656
 20
492.7960534858764
 30
0.0
 11
145.0297426744158
 21
493.4316405364868
 31
0.0
  0
LINE
  5
1408
330
1E
100
AcDbEntity
  8
STEMPEL
100
AcDbLine
 10
127.709234598727
 20
493.4316405364868
 30
0.0
 11
125.9629735290771
 21
492.7960534858764
 31
0.0
  0
ARC
  5
1409
330
1E
100
AcDbEntity
  8
STEMPEL
100
AcDbCircle
 10
126.2194886365714
 20
492.091284020287
 30
0.0
 40
0.7500000000000013
100
AcDbArc
 50
109.9999999999995
 51
269.9999991462263
  0
ARC
  5
140A
330
1E
100
AcDbEntity
  8
STEMPEL
100
AcDbCircle
 10
146.5194886365714
 20
492.091284020287
 30
0.0
 40
0.750000000000001
100
AcDbArc
 50
269.9999991462263
 51
70.00000000000047
  0
ARC
  5
1424
330
1E
100
AcDbEntity
  8
STEMPEL
100
AcDbCircle
 10
351.8439962778356
 20
471.0303948878324
 30
0.0
 40
30.31088913245485
100
AcDbArc
 50
81.78678929826059
 51
98.2132107017394
  0
ARC
  5
1425
330
1E
100
AcDbEntity
  8
STEMPEL
100
AcDbCircle
 10
345.3488057494523
 20
493.6469783125027
 30
0.0
 40
7.694305707784447
100
AcDbArc
 50
73.65710669401345
 51
106.3428933059834
  0
ARC
  5
1426
330
1E
100
AcDbEntity
  8
STEMPEL
100
AcDbCircle
 10
358.3391868062189
 20
493.6469783125027
 30
0.0
 40
7.694305707784447
100
AcDbArc
 50
73.65710669401345
 51
106.3428933059834
  0
ARC
  5
1427
330
1E
100
AcDbEntity
  8
HILF
100
AcDbCircle
 10
351.8439962778356
 20
471.442822972626
 30
0.0
 40
22.41111549782308
100
AcDbArc
 50
78.85962783890455
 51
101.1403721610954
  0
ARC
  5
1428
330
1E
100
AcDbEntity
  8
HILF
100
AcDbCircle
 10
358.3391868062189
 20
488.0927978707576
 30
0.0
 40
5.761140599691502
100
AcDbArc
 50
67.92594526326054
 51
112.0740547367394
  0
ARC
  5
1429
330
1E
100
AcDbEntity
  8
HILF
100
AcDbCircle
 10
345.3488057494523
 20
488.0927978707576
 30
0.0
 40
5.761140599691502
100
AcDbArc
 50
67.92594526326054
 51
112.0740547367394
  0
POINT
  5
142A
330
1E
100
AcDbEntity
  8
0
100
AcDbPoint
 10
351.8439962778356
 20
491.3412840202872
 30
0.0
210
0.0000000000000001
220
1.0
230
0.0
  0
LINE
  5
142B
330
1E
100
AcDbEntity
  8
STEMPEL
100
AcDbLine
 10
344.3439962778356
 20
501.3412840202872
 30
0.0
 11
359.3439962778356
 21
501.3412840202872
 31
0.0
  0
LINE
  5
142C
330
1E
100
AcDbEntity
  8
STEMPEL
100
AcDbLine
 10
360.5042503156799
 20
493.431640536487
 30
0.0
 11
360.5042503156799
 21
501.0303948878318
 31
0.0
  0
LINE
  5
142D
330
1E
100
AcDbEntity
  8
STEMPEL
100
AcDbLine
 10
356.1741232967578
 20
493.431640536487
 30
0.0
 11
356.1741232967578
 21
501.0303948878318
 31
0.0
  0
LINE
  5
142E
330
1E
100
AcDbEntity
  8
STEMPEL
100
AcDbLine
 10
347.5138692589134
 20
493.431640536487
 30
0.0
 11
347.5138692589134
 21
501.0303948878318
 31
0.0
  0
LINE
  5
142F
330
1E
100
AcDbEntity
  8
STEMPEL
100
AcDbLine
 10
361.2374420220399
 20
492.7960534858766
 30
0.0
 11
341.4374811703413
 21
492.7960534858766
 31
0.0
  0
LINE
  5
1431
330
1E
100
AcDbEntity
  8
STEMPEL
100
AcDbLine
 10
343.1837422399912
 20
493.431640536487
 30
0.0
 11
343.1837422399912
 21
501.0303948878318
 31
0.0
  0
LINE
  5
1432
330
1E
100
AcDbEntity
  8
STEMPEL
100
AcDbLine
 10
344.3439962778356
 20
501.3412840202872
 30
0.0
 11
343.1837422399912
 21
501.0303948878318
 31
0.0
  0
LINE
  5
1433
330
1E
100
AcDbEntity
  8
STEMPEL
100
AcDbLine
 10
360.5042503156799
 20
501.0303948878318
 30
0.0
 11
359.3439962778356
 21
501.3412840202872
 31
0.0
  0
LINE
  5
1434
330
1E
100
AcDbEntity
  8
STEMPEL
100
AcDbLine
 10
361.4941562192443
 20
493.0713442528652
 30
0.0
 11
360.5042503156799
 21
493.431640536487
 31
0.0
  0
LINE
  5
1435
330
1E
100
AcDbEntity
  8
STEMPEL
100
AcDbLine
 10
343.1837422399912
 20
493.431640536487
 30
0.0
 11
341.4374811703413
 21
492.7960534858766
 31
0.0
  0
ARC
  5
1436
330
1E
100
AcDbEntity
  8
STEMPEL
100
AcDbCircle
 10
341.6939962778356
 20
492.0912840202872
 30
0.0
 40
0.7500000000000013
100
AcDbArc
 50
109.9999999999995
 51
269.9999991462263
  0
LINE
  5
1493
330
1E
100
AcDbEntity
  8
STEMPEL
100
AcDbLine
 10
398.3694886365717
 20
479.3412840202869
 30
0.0
 11
398.3694886365717
 21
482.3412840202873
 31
0.0
  0
LINE
  5
1494
102
{ACAD_REACTORS
330
14E8
102
}
330
1E
100
AcDbEntity
  8
STEMPEL
100
AcDbLine
 10
398.3694886365715
 20
479.3412840202874
 30
0.0
 11
398.3694886365715
 21
482.3412840202873
 31
0.0
  0
LINE
  5
1497
102
{ACAD_REACTORS
330
14E8
102
}
330
1E
100
AcDbEntity
  8
STEMPEL
100
AcDbLine
 10
141.3694886365717
 20
482.3412840202873
 30
0.0
 11
398.3694886365715
 21
482.3412840202873
 31
0.0
  0
LINE
  5
149A
330
1E
100
AcDbEntity
  8
HILF
100
AcDbLine
 10
347.8439962778358
 20
485.3412840202871
 30
0.0
 11
347.8439962778357
 21
482.3412840202874
 31
0.0
  0
LINE
  5
149B
330
1E
100
AcDbEntity
  8
STEMPEL
100
AcDbLine
 10
346.843996277836
 20
485.3412840202871
 30
0.0
 11
346.8439962778357
 21
482.3412840202874
 31
0.0
  0
LINE
  5
149C
330
1E
100
AcDbEntity
  8
HILF
100
AcDbLine
 10
355.8439962778359
 20
485.3412840202871
 30
0.0
 11
355.8439962778358
 21
482.3412840202873
 31
0.0
  0
LINE
  5
149D
330
1E
100
AcDbEntity
  8
STEMPEL
100
AcDbLine
 10
356.8439962778358
 20
485.3412840202871
 30
0.0
 11
356.8439962778358
 21
482.3412840202873
 31
0.0
  0
LINE
  5
149E
102
{ACAD_REACTORS
330
14E8
102
}
330
1E
100
AcDbEntity
  8
STEMPEL
100
AcDbLine
 10
328.3694886365716
 20
479.3412840202874
 30
0.0
 11
328.3694886365716
 21
482.3412840202873
 31
0.0
  0
LINE
  5
14A0
330
1E
100
AcDbEntity
  8
STEMPEL
100
AcDbLine
 10
257.9884221652175
 20
485.341284020287
 30
0.0
 11
257.9884221652175
 21
482.3412840202873
 31
0.0
  0
LINE
  5
14A1
330
1E
100
AcDbEntity
  8
HILF
100
AcDbLine
 10
258.9884221652174
 20
485.341284020287
 30
0.0
 11
258.9884221652174
 21
482.3412840202873
 31
0.0
  0
LINE
  5
14A2
330
1E
100
AcDbEntity
  8
STEMPEL
100
AcDbLine
 10
267.9884221652175
 20
485.341284020287
 30
0.0
 11
267.9884221652175
 21
482.3412840202873
 31
0.0
  0
LINE
  5
14A3
330
1E
100
AcDbEntity
  8
HILF
100
AcDbLine
 10
266.9884221652174
 20
485.341284020287
 30
0.0
 11
266.9884221652174
 21
482.3412840202873
 31
0.0
  0
LINE
  5
14A4
330
1E
100
AcDbEntity
  8
STEMPEL
100
AcDbLine
 10
187.3694886365717
 20
485.3412840202869
 30
0.0
 11
187.3694886365717
 21
482.3412840202874
 31
0.0
  0
LINE
  5
14A5
330
1E
100
AcDbEntity
  8
HILF
100
AcDbLine
 10
188.3694886365717
 20
485.3412840202869
 30
0.0
 11
188.3694886365718
 21
482.3412840202874
 31
0.0
  0
LINE
  5
14A6
330
1E
100
AcDbEntity
  8
HILF
100
AcDbLine
 10
196.3694886365717
 20
485.341284020287
 30
0.0
 11
196.3694886365717
 21
482.3412840202873
 31
0.0
  0
LINE
  5
14A7
330
1E
100
AcDbEntity
  8
STEMPEL
100
AcDbLine
 10
197.3694886365717
 20
485.341284020287
 30
0.0
 11
197.3694886365718
 21
482.3412840202874
 31
0.0
  0
LINE
  5
14A8
330
1E
100
AcDbEntity
  8
STEMPEL
100
AcDbLine
 10
98.36948863657159
 20
479.3412840202878
 30
0.0
 11
398.3694886365717
 21
479.3412840202869
 31
0.0
  0
LINE
  5
14A9
102
{ACAD_REACTORS
330
14E8
102
}
330
1E
100
AcDbEntity
  8
STEMPEL
100
AcDbLine
 10
98.36948863657148
 20
479.3412840202874
 30
0.0
 11
398.3694886365715
 21
479.3412840202874
 31
0.0
  0
LINE
  5
14AB
102
{ACAD_REACTORS
330
14E8
102
}
330
1E
100
AcDbEntity
  8
STEMPEL
100
AcDbLine
 10
168.3694886365715
 20
479.3412840202874
 30
0.0
 11
168.3694886365715
 21
482.3412840202873
 31
0.0
  0
LINE
  5
14AE
102
{ACAD_REACTORS
330
14E8
102
}
330
1E
100
AcDbEntity
  8
STEMPEL
100
AcDbLine
 10
144.3694886365718
 20
479.3412840202872
 30
0.0
 11
144.3694886365718
 21
482.3412840202872
 31
0.0
  0
LINE
  5
14AF
102
{ACAD_REACTORS
330
14E8
102
}
330
1E
100
AcDbEntity
  8
STEMPEL
100
AcDbLine
 10
128.3694886365714
 20
479.3412840202872
 30
0.0
 11
128.3694886365714
 21
482.3412840202872
 31
0.0
  0
LINE
  5
14B1
330
1E
100
AcDbEntity
  8
STEMPEL
100
AcDbLine
 10
98.36948863657159
 20
479.3412840202869
 30
0.0
 11
98.36948863657159
 21
481.3412840202873
 31
0.0
  0
LINE
  5
14B2
330
1E
100
AcDbEntity
  8
STEMPEL
100
AcDbLine
 10
98.36948863657148
 20
479.3412840202874
 30
0.0
 11
98.36948863657148
 21
481.3412840202873
 31
0.0
  0
LINE
  5
14B4
102
{ACAD_REACTORS
330
14E8
102
}
330
1E
100
AcDbEntity
  8
STEMPEL
100
AcDbLine
 10
98.36948863657159
 20
479.3412840202869
 30
0.0
 11
98.36948863657159
 21
482.3412840202869
 31
0.0
  0
LINE
  5
14B5
102
{ACAD_REACTORS
330
14E8
102
}
330
1E
100
AcDbEntity
  8
STEMPEL
100
AcDbLine
 10
98.36948863657148
 20
482.3412840202873
 30
0.0
 11
131.3694886365716
 21
482.3412840202873
 31
0.0
  0
HATCH
  5
14E8
330
1E
100
AcDbEntity
  8
SCHRAFF
100
AcDbHatch
 10
0.0
 20
0.0
 30
0.0
210
0.0
220
0.0
230
1.0
  2
NET
 70
     0
 71
     1
 91
        4
 92
        7
 72
     0
 73
     1
 93
        4
 10
398.3694886365715
 20
482.3412840202873
 10
351.8439962778355
 20
482.3412840202873
 10
351.8439962778357
 20
479.3412840202874
 10
398.3694886365715
 20
479.3412840202873
 97
        4
330
1497
330
1269
330
14A9
330
1494
 92
        7
 72
     0
 73
     1
 93
        4
 10
351.8439962778357
 20
482.3412840202875
 10
328.3694886365716
 20
482.3412840202875
 10
328.3694886365716
 20
479.3412840202874
 10
351.8439962778356
 20
479.3412840202874
 97
        4
330
1497
330
149E
330
14A9
330
1269
 92
        7
 72
     0
 73
     1
 93
        4
 10
168.3694886365715
 20
482.3412840202874
 10
144.3694886365718
 20
482.3412840202873
 10
144.3694886365718
 20
479.3412840202874
 10
168.3694886365715
 20
479.3412840202874
 97
        4
330
1497
330
14AE
330
14A9
330
14AB
 92
        7
 72
     0
 73
     1
 93
        4
 10
128.3694886365714
 20
482.3412840202873
 10
98.36948863657159
 20
482.3412840202874
 10
98.36948863657157
 20
479.3412840202873
 10
128.3694886365714
 20
479.3412840202873
 97
        4
330
14B5
330
14B4
330
14A9
330
14AF
 75
     0
 76
     1
 52
45.0
 41
15.0
 77
     0
 78
     2
 53
45.0
 43
0.0
 44
0.0
 45
-1.325825214724776
 46
1.325825214724776
 79
     0
 53
135.0
 43
0.0
 44
0.0
 45
-1.325825214724776
 46
-1.325825214724776
 79
     0
 47
0.3213995559881435
 98
        4
 10
378.3876149067623
 20
480.7450950922691
 10
334.9839516069656
 20
481.3878940826041
 10
151.7240432395524
 20
481.7092935777711
 10
120.2161992157826
 20
480.423695597102
  0
ENDSEC
  0
SECTION
  2
OBJECTS
  0
DICTIONARY
  5
C
330
0
100
AcDbDictionary
281
     1
  3
ACAD_COLOR
350
11A
  3
ACAD_GROUP
350
D
  3
ACAD_LAYOUT
350
19
  3
ACAD_MATERIAL
350
119
  3
ACAD_MLINESTYLE
350
16
  3
ACAD_PLOTSETTINGS
350
18
  3
ACAD_PLOTSTYLENAME
350
E
  3
AcDbVariableDictionary
350
125
  0
DICTIONARY
  5
DB
330
1E
100
AcDbDictionary
280
     1
281
     1
  3
ACAD_LAYOUTSELFREF
360
10F
  0
DICTIONARY
  5
DD
330
1A
100
AcDbDictionary
280
     1
281
     1
  3
ACAD_LAYOUTSELFREF
360
10E
  0
DICTIONARY
  5
11A
102
{ACAD_REACTORS
330
C
102
}
330
C
100
AcDbDictionary
281
     1
  0
DICTIONARY
  5
D
102
{ACAD_REACTORS
330
C
102
}
330
C
100
AcDbDictionary
281
     1
  0
DICTIONARY
  5
19
102
{ACAD_REACTORS
330
C
102
}
330
C
100
AcDbDictionary
281
     1
  3
Layout1
350
1D
  3
Model
350
21
  0
DICTIONARY
  5
119
102
{ACAD_REACTORS
330
C
102
}
330
C
100
AcDbDictionary
281
     1
  0
DICTIONARY
  5
16
102
{ACAD_REACTORS
330
C
102
}
330
C
100
AcDbDictionary
281
     1
  3
Standard
350
17
  0
DICTIONARY
  5
18
102
{ACAD_REACTORS
330
C
102
}
330
C
100
AcDbDictionary
281
     1
  0
ACDBDICTIONARYWDFLT
  5
E
102
{ACAD_REACTORS
330
C
102
}
330
C
100
AcDbDictionary
281
     1
  3
Normal
350
F
100
AcDbDictionaryWithDefault
340
F
  0
DICTIONARY
  5
125
102
{ACAD_REACTORS
330
C
102
}
330
C
100
AcDbDictionary
281
     1
  3
DIMASSOC
350
126
  3
PROJECTNAME
350
127
  0
XRECORD
  5
10F
102
{ACAD_REACTORS
330
DB
102
}
330
DB
100
AcDbXrecord
280
     1
340
1E
  0
XRECORD
  5
10E
102
{ACAD_REACTORS
330
DD
102
}
330
DD
100
AcDbXrecord
280
     1
340
1A
  0
LAYOUT
  5
1D
102
{ACAD_REACTORS
330
19
102
}
330
19
100
AcDbPlotSettings
  1

  2
\\NT_WORK01\HP LaserJet 5000 PCL 6
  4

  6

 40
0.0
 41
0.0
 42
0.0
 43
0.0
 44
0.0
 45
0.0
 46
0.0
 47
0.0
 48
0.0
 49
0.0
140
0.0
141
0.0
142
1.0
143
1.0
 70
   688
 72
     0
 73
     0
 74
     5
  7

 75
    16
147
1.0
 76
     0
 77
     2
 78
   300
148
0.0
149
0.0
100
AcDbLayout
  1
Layout1
 70
     0
 71
     1
 10
0.0
 20
0.0
 11
12.0
 21
9.0
 12
0.0
 22
0.0
 32
0.0
 14
1.000000000000000E+20
 24
1.000000000000000E+20
 34
1.000000000000000E+20
 15
-1.000000000000000E+20
 25
-1.000000000000000E+20
 35
-1.000000000000000E+20
146
0.0
 13
0.0
 23
0.0
 33
0.0
 16
1.0
 26
0.0
 36
0.0
 17
0.0
 27
1.0
 37
0.0
 76
     0
330
1A
  0
LAYOUT
  5
21
102
{ACAD_REACTORS
330
19
102
}
330
19
100
AcDbPlotSettings
  1

  2
none_device
  4
Letter_(8.50_x_11.00_Inches)
  6

 40
6.349999904632568
 41
6.349999904632568
 42
6.350006103515625
 43
6.350006103515625
 44
215.8999938964844
 45
279.3999938964844
 46
0.0
 47
0.0
 48
0.0
 49
0.0
140
0.0
141
0.0
142
1.0
143
1.0
 70
 11952
 72
     0
 73
     1
 74
     0
  7

 75
     0
147
1.0
 76
     0
 77
     2
 78
   300
148
3124.2
149
0.0
100
AcDbLayout
  1
Model
 70
     1
 71
     0
 10
0.0
 20
0.0
 11
12.0
 21
9.0
 12
0.0
 22
0.0
 32
0.0
 14
0.0
 24
0.0
 34
0.0
 15
0.0
 25
0.0
 35
0.0
146
0.0
 13
0.0
 23
0.0
 33
0.0
 16
1.0
 26
0.0
 36
0.0
 17
0.0
 27
1.0
 37
0.0
 76
     0
330
1E
  0
MLINESTYLE
  5
17
102
{ACAD_REACTORS
330
16
102
}
330
16
100
AcDbMlineStyle
  2
STANDARD
 70
     0
  3

 62
   256
 51
90.0
 52
90.0
 71
     2
 49
0.5
 62
   256
  6
BYLAYER
 49
-0.5
 62
   256
  6
BYLAYER
  0
ACDBPLACEHOLDER
  5
F
102
{ACAD_REACTORS
330
E
102
}
330
E
  0
DICTIONARYVAR
  5
126
102
{ACAD_REACTORS
330
125
102
}
330
125
100
DictionaryVariables
280
     0
  1
1
  0
DICTIONARYVAR
  5
127
102
{ACAD_REACTORS
330
125
102
}
330
125
100
DictionaryVariables
280
     0
  1

  0
ENDSEC
  0
EOF
