  0
SECTION
  2
HEADER
  9
$ACADVER
  1
AC1018
  9
$ACADMAINTVER
 70
     2
  9
$DWGCODEPAGE
  3
ANSI_1252
  9
$INSBASE
 10
0.0
 20
0.0
 30
0.0
  9
$EXTMIN
 10
-0.0311335471554912
 20
-0.0090393781104012
 30
-0.0000000000000129
  9
$EXTMAX
 10
420.0084895933213
 20
594.00907395595
 30
0.0000000000000023
  9
$LIMMIN
 10
0.0
 20
0.0
  9
$LIMMAX
 10
419.9999999999999
 20
594.0000000000002
  9
$ORTHOMODE
 70
     0
  9
$REGENMODE
 70
     1
  9
$FILLMODE
 70
     1
  9
$QTEXTMODE
 70
     0
  9
$MIRRTEXT
 70
     1
  9
$LTSCALE
 40
20.0
  9
$ATTMODE
 70
     1
  9
$TEXTSIZE
 40
3.5
  9
$TRACEWID
 40
0.5
  9
$TEXTSTYLE
  7
STANDARD
  9
$CLAYER
  8
SCHRAFF
  9
$CELTYPE
  6
ByLayer
  9
$CECOLOR
 62
   256
  9
$CELTSCALE
 40
1.0
  9
$DISPSILH
 70
     0
  9
$DIMSCALE
 40
2.0
  9
$DIMASZ
 40
3.5
  9
$DIMEXO
 40
1.0
  9
$DIMDLI
 40
7.0
  9
$DIMRND
 40
0.0
  9
$DIMDLE
 40
0.0
  9
$DIMEXE
 40
1.0
  9
$DIMTP
 40
1.199999999999999
  9
$DIMTM
 40
1.199999999999999
  9
$DIMTXT
 40
3.5
  9
$DIMCEN
 40
1.5
  9
$DIMTSZ
 40
0.0
  9
$DIMTOL
 70
     0
  9
$DIMLIM
 70
     0
  9
$DIMTIH
 70
     0
  9
$DIMTOH
 70
     0
  9
$DIMSE1
 70
     0
  9
$DIMSE2
 70
     0
  9
$DIMTAD
 70
     1
  9
$DIMZIN
 70
     8
  9
$DIMBLK
  1

  9
$DIMASO
 70
     1
  9
$DIMSHO
 70
     0
  9
$DIMPOST
  1

  9
$DIMAPOST
  1

  9
$DIMALT
 70
     0
  9
$DIMALTD
 70
     2
  9
$DIMALTF
 40
25.4
  9
$DIMLFAC
 40
1.0
  9
$DIMTOFL
 70
     1
  9
$DIMTVP
 40
0.0
  9
$DIMTIX
 70
     0
  9
$DIMSOXD
 70
     0
  9
$DIMSAH
 70
     0
  9
$DIMBLK1
  1

  9
$DIMBLK2
  1

  9
$DIMSTYLE
  2
STANDARD
  9
$DIMCLRD
 70
     0
  9
$DIMCLRE
 70
     0
  9
$DIMCLRT
 70
     1
  9
$DIMTFAC
 40
0.5142857142857144
  9
$DIMGAP
 40
1.5
  9
$DIMJUST
 70
     0
  9
$DIMSD1
 70
     0
  9
$DIMSD2
 70
     0
  9
$DIMTOLJ
 70
     1
  9
$DIMTZIN
 70
     8
  9
$DIMALTZ
 70
     8
  9
$DIMALTTZ
 70
     8
  9
$DIMUPT
 70
     0
  9
$DIMDEC
 70
     2
  9
$DIMTDEC
 70
     2
  9
$DIMALTU
 70
     2
  9
$DIMALTTD
 70
     2
  9
$DIMTXSTY
  7
STANDARD
  9
$DIMAUNIT
 70
     0
  9
$DIMADEC
 70
     2
  9
$DIMALTRND
 40
0.0
  9
$DIMAZIN
 70
     2
  9
$DIMDSEP
 70
    46
  9
$DIMATFIT
 70
     3
  9
$DIMFRAC
 70
     0
  9
$DIMLDRBLK
  1

  9
$DIMLUNIT
 70
     2
  9
$DIMLWD
 70
    -2
  9
$DIMLWE
 70
    -2
  9
$DIMTMOVE
 70
     0
  9
$LUNITS
 70
     2
  9
$LUPREC
 70
     2
  9
$SKETCHINC
 40
1.0
  9
$FILLETRAD
 40
8.0
  9
$AUNITS
 70
     0
  9
$AUPREC
 70
     0
  9
$MENU
  1
ACAD
  9
$ELEVATION
 40
0.0
  9
$PELEVATION
 40
0.0
  9
$THICKNESS
 40
0.0
  9
$LIMCHECK
 70
     0
  9
$CHAMFERA
 40
0.0
  9
$CHAMFERB
 40
0.0
  9
$CHAMFERC
 40
0.0
  9
$CHAMFERD
 40
0.0
  9
$SKPOLY
 70
     0
  9
$TDCREATE
 40
2452457.491573901
  9
$TDUCREATE
 40
2452457.408240567
  9
$TDUPDATE
 40
2455497.610418299
  9
$TDUUPDATE
 40
2455497.527084965
  9
$TDINDWG
 40
0.5571450347
  9
$TDUSRTIMER
 40
0.5571450347
  9
$USRTIMER
 70
     1
  9
$ANGBASE
 50
0.0
  9
$ANGDIR
 70
     0
  9
$PDMODE
 70
     0
  9
$PDSIZE
 40
0.0
  9
$PLINEWID
 40
0.0
  9
$SPLFRAME
 70
     0
  9
$SPLINETYPE
 70
     6
  9
$SPLINESEGS
 70
     8
  9
$HANDSEED
  5
1502
  9
$SURFTAB1
 70
     6
  9
$SURFTAB2
 70
     6
  9
$SURFTYPE
 70
     6
  9
$SURFU
 70
     6
  9
$SURFV
 70
     6
  9
$UCSBASE
  2

  9
$UCSNAME
  2

  9
$UCSORG
 10
0.0
 20
0.0
 30
0.0
  9
$UCSXDIR
 10
1.0
 20
0.0
 30
0.0
  9
$UCSYDIR
 10
0.0
 20
1.0
 30
0.0
  9
$UCSORTHOREF
  2

  9
$UCSORTHOVIEW
 70
     0
  9
$UCSORGTOP
 10
0.0
 20
0.0
 30
0.0
  9
$UCSORGBOTTOM
 10
0.0
 20
0.0
 30
0.0
  9
$UCSORGLEFT
 10
0.0
 20
0.0
 30
0.0
  9
$UCSORGRIGHT
 10
0.0
 20
0.0
 30
0.0
  9
$UCSORGFRONT
 10
0.0
 20
0.0
 30
0.0
  9
$UCSORGBACK
 10
0.0
 20
0.0
 30
0.0
  9
$PUCSBASE
  2

  9
$PUCSNAME
  2

  9
$PUCSORG
 10
0.0
 20
0.0
 30
0.0
  9
$PUCSXDIR
 10
1.0
 20
0.0
 30
0.0
  9
$PUCSYDIR
 10
0.0
 20
1.0
 30
0.0
  9
$PUCSORTHOREF
  2

  9
$PUCSORTHOVIEW
 70
     0
  9
$PUCSORGTOP
 10
0.0
 20
0.0
 30
0.0
  9
$PUCSORGBOTTOM
 10
0.0
 20
0.0
 30
0.0
  9
$PUCSORGLEFT
 10
0.0
 20
0.0
 30
0.0
  9
$PUCSORGRIGHT
 10
0.0
 20
0.0
 30
0.0
  9
$PUCSORGFRONT
 10
0.0
 20
0.0
 30
0.0
  9
$PUCSORGBACK
 10
0.0
 20
0.0
 30
0.0
  9
$USERI1
 70
     0
  9
$USERI2
 70
     0
  9
$USERI3
 70
     0
  9
$USERI4
 70
     0
  9
$USERI5
 70
     0
  9
$USERR1
 40
0.0
  9
$USERR2
 40
0.0
  9
$USERR3
 40
0.0
  9
$USERR4
 40
0.0
  9
$USERR5
 40
0.0
  9
$WORLDVIEW
 70
     1
  9
$SHADEDGE
 70
     3
  9
$SHADEDIF
 70
    70
  9
$TILEMODE
 70
     1
  9
$MAXACTVP
 70
    16
  9
$PINSBASE
 10
0.0
 20
0.0
 30
0.0
  9
$PLIMCHECK
 70
     0
  9
$PEXTMIN
 10
1.000000000000000E+20
 20
1.000000000000000E+20
 30
1.000000000000000E+20
  9
$PEXTMAX
 10
-1.000000000000000E+20
 20
-1.000000000000000E+20
 30
-1.000000000000000E+20
  9
$PLIMMIN
 10
0.0
 20
0.0
  9
$PLIMMAX
 10
12.0
 20
9.0
  9
$UNITMODE
 70
     0
  9
$VISRETAIN
 70
     0
  9
$PLINEGEN
 70
     0
  9
$PSLTSCALE
 70
     0
  9
$TREEDEPTH
 70
  3020
  9
$CMLSTYLE
  2
Standard
  9
$CMLJUST
 70
     0
  9
$CMLSCALE
 40
1.0
  9
$PROXYGRAPHICS
 70
     1
  9
$MEASUREMENT
 70
     0
  9
$CELWEIGHT
370
    -1
  9
$ENDCAPS
280
     0
  9
$JOINSTYLE
280
     0
  9
$LWDISPLAY
290
     0
  9
$INSUNITS
 70
     0
  9
$HYPERLINKBASE
  1

  9
$STYLESHEET
  1
monochrome 1.ctb
  9
$XEDIT
290
     1
  9
$CEPSNTYPE
380
     0
  9
$PSTYLEMODE
290
     1
  9
$FINGERPRINTGUID
  2
{D159E927-9358-11D8-B75B-000102183313}
  9
$VERSIONGUID
  2
{42AF9F63-4E4F-44E3-90A2-C48F9BB2FBD7}
  9
$EXTNAMES
290
     1
  9
$PSVPSCALE
 40
0.0
  9
$OLESTARTUP
290
     0
  9
$SORTENTS
280
   127
  9
$INDEXCTL
280
     0
  9
$HIDETEXT
280
     0
  9
$XCLIPFRAME
290
     0
  9
$HALOGAP
280
     0
  9
$OBSCOLOR
 70
   257
  9
$OBSLTYPE
280
     0
  9
$INTERSECTIONDISPLAY
280
     0
  9
$INTERSECTIONCOLOR
 70
   257
  9
$DIMASSOC
280
     1
  9
$PROJECTNAME
  1

  0
ENDSEC
  0
SECTION
  2
CLASSES
  0
CLASS
  1
ACDBDICTIONARYWDFLT
  2
AcDbDictionaryWithDefault
  3
ObjectDBX Classes
 90
        0
 91
        1
280
     0
281
     0
  0
CLASS
  1
DICTIONARYVAR
  2
AcDbDictionaryVar
  3
ObjectDBX Classes
 90
        0
 91
        2
280
     0
281
     0
  0
ENDSEC
  0
SECTION
  2
TABLES
  0
TABLE
  2
VPORT
  5
C94
330
0
100
AcDbSymbolTable
 70
     2
  0
VPORT
  5
1501
330
C94
100
AcDbSymbolTableRecord
100
AcDbViewportTableRecord
  2
*Active
 70
     0
 10
0.0
 20
0.0
 11
1.0
 21
1.0
 12
209.9886780230829
 22
297.0000172889198
 13
0.0
 23
0.0
 14
1.0
 24
1.0
 15
20.0
 25
20.0
 16
0.0
 26
0.0
 36
1.0
 17
0.0
 27
0.0
 37
0.0
 40
598.8150294578886
 41
1.336927223719676
 42
50.0
 43
0.0
 44
0.0
 50
0.0
 51
0.0
 71
     0
 72
  1500
 73
     1
 74
     0
 75
     0
 76
     0
 77
     0
 78
     0
281
     0
 65
     1
110
0.0
120
0.0
130
0.0
111
1.0
121
0.0
131
0.0
112
0.0
122
1.0
132
0.0
 79
     0
146
0.0
  0
ENDTAB
  0
TABLE
  2
LTYPE
  5
C91
330
0
100
AcDbSymbolTable
 70
     3
  0
LTYPE
  5
C9F
330
C91
100
AcDbSymbolTableRecord
100
AcDbLinetypeTableRecord
  2
ByBlock
 70
     0
  3

 72
    65
 73
     0
 40
0.0
  0
LTYPE
  5
CA0
330
C91
100
AcDbSymbolTableRecord
100
AcDbLinetypeTableRecord
  2
ByLayer
 70
     0
  3

 72
    65
 73
     0
 40
0.0
  0
LTYPE
  5
CA1
330
C91
100
AcDbSymbolTableRecord
100
AcDbLinetypeTableRecord
  2
AUSGEZOGEN
 70
     0
  3
Ausgezogene Linie
 72
    65
 73
     0
 40
0.0
  0
LTYPE
  5
CBE
330
C91
100
AcDbSymbolTableRecord
100
AcDbLinetypeTableRecord
  2
STRICHPUNKT
 70
     0
  3
__ . __ . __ . __ . __ . __ . __ . __ . __ . __
 72
    65
 73
     4
 40
1.0
 49
0.5
 74
     0
 49
-0.25
 74
     0
 49
0.0
 74
     0
 49
-0.25
 74
     0
  0
LTYPE
  5
CBF
330
C91
100
AcDbSymbolTableRecord
100
AcDbLinetypeTableRecord
  2
CONTINUOUS
 70
     0
  3
Solid line
 72
    65
 73
     0
 40
0.0
  0
ENDTAB
  0
TABLE
  2
LAYER
  5
C8E
330
0
100
AcDbSymbolTable
 70
     9
  0
LAYER
  5
C9C
330
C8E
100
AcDbSymbolTableRecord
100
AcDbLayerTableRecord
  2
0
 70
     0
 62
     7
  6
AUSGEZOGEN
370
    -3
390
C9B
  0
LAYER
  5
CC3
330
C8E
100
AcDbSymbolTableRecord
100
AcDbLayerTableRecord
  2
VOLL
 70
     0
 62
     1
  6
AUSGEZOGEN
370
    -3
390
C9B
  0
LAYER
  5
CC4
330
C8E
100
AcDbSymbolTableRecord
100
AcDbLayerTableRecord
  2
HILF
 70
     0
 62
     2
  6
AUSGEZOGEN
370
    -3
390
C9B
  0
LAYER
  5
CC5
330
C8E
100
AcDbSymbolTableRecord
100
AcDbLayerTableRecord
  2
MITTEL
 70
     0
 62
     2
  6
STRICHPUNKT
370
    -3
390
C9B
  0
LAYER
  5
CC6
330
C8E
100
AcDbSymbolTableRecord
100
AcDbLayerTableRecord
  2
BEM
 70
     0
 62
     7
  6
AUSGEZOGEN
370
    -3
390
C9B
  0
LAYER
  5
CC7
330
C8E
100
AcDbSymbolTableRecord
100
AcDbLayerTableRecord
  2
STEMPEL
 70
     0
 62
     3
  6
AUSGEZOGEN
370
    -3
390
C9B
  0
LAYER
  5
CC8
330
C8E
100
AcDbSymbolTableRecord
100
AcDbLayerTableRecord
  2
TEXT
 70
     0
 62
     7
  6
AUSGEZOGEN
370
    -3
390
C9B
  0
LAYER
  5
CC9
330
C8E
100
AcDbSymbolTableRecord
100
AcDbLayerTableRecord
  2
DEFPOINTS
 70
     0
 62
     7
  6
AUSGEZOGEN
290
     0
370
    -3
390
C9B
  0
LAYER
  5
EBD
330
C8E
100
AcDbSymbolTableRecord
100
AcDbLayerTableRecord
  2
SCHRAFF
 70
     0
 62
     7
  6
AUSGEZOGEN
370
    -3
390
C9B
  0
ENDTAB
  0
TABLE
  2
STYLE
  5
C8F
330
0
100
AcDbSymbolTable
 70
     2
  0
STYLE
  5
C9D
330
C8F
100
AcDbSymbolTableRecord
100
AcDbTextStyleTableRecord
  2
STANDARD
 70
     0
 40
0.0
 41
0.8
 50
0.0
 71
     0
 42
3.5
  3
simplex.shx
  4

  0
STYLE
  5
CBD
330
C8F
100
AcDbSymbolTableRecord
100
AcDbTextStyleTableRecord
  2
GREEKS
 70
     0
 40
0.0
 41
0.8
 50
0.0
 71
     0
 42
2.5
  3
SIMPLEX.shx
  4

  0
ENDTAB
  0
TABLE
  2
VIEW
  5
C92
330
0
100
AcDbSymbolTable
 70
     0
  0
ENDTAB
  0
TABLE
  2
UCS
  5
C93
330
0
100
AcDbSymbolTable
 70
     0
  0
ENDTAB
  0
TABLE
  2
APPID
  5
C95
330
0
100
AcDbSymbolTable
 70
     1
  0
APPID
  5
C9E
330
C95
100
AcDbSymbolTableRecord
100
AcDbRegAppTableRecord
  2
ACAD
 70
     0
  0
ENDTAB
  0
TABLE
  2
DIMSTYLE
  5
C96
330
0
100
AcDbSymbolTable
 70
     1
100
AcDbDimStyleTable
 71
     1
340
CC2
  0
DIMSTYLE
105
CC2
102
{ACAD_REACTORS
330
1DE
330
25F
330
ED1
330
F2E
102
}
330
C96
100
AcDbSymbolTableRecord
100
AcDbDimStyleTableRecord
  2
STANDARD
 70
     0
271
     2
272
     2
279
     2
284
     8
285
     8
286
     8
340
C9D
  0
ENDTAB
  0
TABLE
  2
BLOCK_RECORD
  5
C8D
330
0
100
AcDbSymbolTable
 70
     5
  0
BLOCK_RECORD
  5
CAA
330
C8D
100
AcDbSymbolTableRecord
100
AcDbBlockTableRecord
  2
*Model_Space
340
CAD
  0
BLOCK_RECORD
  5
CA6
330
C8D
100
AcDbSymbolTableRecord
100
AcDbBlockTableRecord
  2
*Paper_Space
340
CA9
  0
BLOCK_RECORD
  5
CAE
330
C8D
100
AcDbSymbolTableRecord
100
AcDbBlockTableRecord
  2
LOGO
340
0
102
{BLKREFS
331
216
102
}
  0
BLOCK_RECORD
  5
D9F
330
C8D
100
AcDbSymbolTableRecord
100
AcDbBlockTableRecord
  2
*D1
340
0
  0
BLOCK_RECORD
  5
DD1
330
C8D
100
AcDbSymbolTableRecord
100
AcDbBlockTableRecord
  2
*D2
340
0
  0
BLOCK_RECORD
  5
EDC
330
C8D
100
AcDbSymbolTableRecord
100
AcDbBlockTableRecord
  2
*D3
340
0
  0
BLOCK_RECORD
  5
F2F
330
C8D
100
AcDbSymbolTableRecord
100
AcDbBlockTableRecord
  2
*D4
340
0
  0
ENDTAB
  0
ENDSEC
  0
SECTION
  2
BLOCKS
  0
BLOCK
  5
CCE
330
CAA
100
AcDbEntity
  8
0
100
AcDbBlockBegin
  2
*Model_Space
 70
     0
 10
0.0
 20
0.0
 30
0.0
  3
*Model_Space
  1

  0
ENDBLK
  5
CCF
330
CAA
100
AcDbEntity
  8
0
100
AcDbBlockEnd
  0
BLOCK
  5
CCC
330
CA6
100
AcDbEntity
 67
     1
  8
0
100
AcDbBlockBegin
  2
*Paper_Space
 70
     0
 10
0.0
 20
0.0
 30
0.0
  3
*Paper_Space
  1

  0
ENDBLK
  5
CCD
330
CA6
100
AcDbEntity
 67
     1
  8
0
100
AcDbBlockEnd
  0
BLOCK
  5
4C
330
CAE
100
AcDbEntity
  8
0
100
AcDbBlockBegin
  2
LOGO
 70
     0
 10
0.0
 20
0.0
 30
0.0
  3
LOGO
  1

  0
ARC
  5
4D
330
CAE
100
AcDbEntity
  8
0
100
AcDbCircle
 10
11.59973089678112
 20
-9.271599258481501
 30
0.0
 40
4.5
100
AcDbArc
 50
270.0
 51
231.0575587310159
  0
LINE
  5
4E
330
CAE
100
AcDbEntity
  8
0
100
AcDbLine
 10
3.599730896781125
 20
-4.771599258481529
 30
0.0
 11
3.599730896781153
 21
-11.77159925848133
 31
0.0
  0
LINE
  5
4F
330
CAE
100
AcDbEntity
  8
0
100
AcDbLine
 10
2.599730896781125
 20
-4.771599258481529
 30
0.0
 11
2.599730896781153
 21
-11.77159925848133
 31
0.0
  0
CIRCLE
  5
50
330
CAE
100
AcDbEntity
  8
0
100
AcDbCircle
 10
11.59973089678112
 20
-9.271599258481501
 30
0.0
 40
3.5
  0
ARC
  5
51
330
CAE
100
AcDbEntity
  8
0
100
AcDbCircle
 10
31.59973089678115
 20
-9.271599258481472
 30
0.0
 40
4.5
100
AcDbArc
 50
270.0
 51
231.0575587310182
  0
LINE
  5
52
330
CAE
100
AcDbEntity
  8
0
100
AcDbLine
 10
17.59973089678112
 20
-4.771599258481472
 30
0.0
 11
17.59973089678115
 21
-13.77159925848147
 31
0.0
  0
ARC
  5
53
330
CAE
100
AcDbEntity
  8
0
100
AcDbCircle
 10
22.59973089678116
 20
-7.271599258481472
 30
0.0
 40
2.5
100
AcDbArc
 50
293.1161887722295
 51
90.0
  0
CIRCLE
  5
54
330
CAE
100
AcDbEntity
  8
0
100
AcDbCircle
 10
31.59973089678115
 20
-9.271599258481472
 30
0.0
 40
3.5
  0
ARC
  5
55
330
CAE
100
AcDbEntity
  8
0
100
AcDbCircle
 10
4.599730896781153
 20
-11.77159925848133
 30
0.0
 40
1.0
100
AcDbArc
 50
180.0
 51
270.0
  0
ARC
  5
56
330
CAE
100
AcDbEntity
  8
0
100
AcDbCircle
 10
4.599730896781153
 20
-11.77159925848133
 30
0.0
 40
2.0
100
AcDbArc
 50
179.9999999999992
 51
270.0
  0
LINE
  5
57
330
CAE
100
AcDbEntity
  8
0
100
AcDbLine
 10
11.59973089678115
 20
-13.77159925848144
 30
0.0
 11
4.599730896781153
 21
-13.77159925848147
 31
0.0
  0
LINE
  5
58
330
CAE
100
AcDbEntity
  8
0
100
AcDbLine
 10
8.771303772034769
 20
-12.77159925848136
 30
0.0
 11
4.599730896781153
 21
-12.77159925848133
 31
0.0
  0
LINE
  5
59
330
CAE
100
AcDbEntity
  8
0
100
AcDbLine
 10
31.59973089678115
 20
-13.77159925848147
 30
0.0
 11
23.6715276665056
 21
-13.77159925848144
 31
0.0
  0
LINE
  5
5A
330
CAE
100
AcDbEntity
  8
0
100
AcDbLine
 10
23.56565672307022
 20
-9.51278021337896
 30
0.0
 11
24.4388546544846
 21
-12.77159925848144
 31
0.0
  0
LINE
  5
5B
330
CAE
100
AcDbEntity
  8
0
100
AcDbLine
 10
22.59973089678116
 20
-9.771599258481472
 30
0.0
 11
18.59973089678112
 21
-9.771599258481472
 31
0.0
  0
LINE
  5
5C
330
CAE
100
AcDbEntity
  8
0
100
AcDbLine
 10
18.59973089678115
 20
-13.77159925848144
 30
0.0
 11
17.59973089678115
 21
-13.77159925848144
 31
0.0
  0
LINE
  5
5D
330
CAE
100
AcDbEntity
  8
0
100
AcDbLine
 10
18.59973089678115
 20
-9.771599258481472
 30
0.0
 11
18.59973089678115
 21
-13.77159925848144
 31
0.0
  0
LINE
  5
5E
330
CAE
100
AcDbEntity
  8
0
100
AcDbLine
 10
22.59973089678116
 20
-9.771599258481472
 30
0.0
 11
23.67152766650562
 21
-13.77159925848147
 31
0.0
  0
ARC
  5
5F
330
CAE
100
AcDbEntity
  8
0
100
AcDbCircle
 10
22.59973089678116
 20
-7.271599258481472
 30
0.0
 40
2.5
100
AcDbArc
 50
270.0
 51
270.0000000000007
  0
LINE
  5
60
330
CAE
100
AcDbEntity
  8
0
100
AcDbLine
 10
28.77130377203494
 20
-12.77159925848147
 30
0.0
 11
24.43885465448463
 21
-12.77159925848144
 31
0.0
  0
LINE
  5
61
330
CAE
100
AcDbEntity
  8
0
100
AcDbLine
 10
3.599730896781125
 20
-4.771599258481472
 30
0.0
 11
2.599730896781125
 21
-4.771599258481472
 31
0.0
  0
LINE
  5
62
330
CAE
100
AcDbEntity
  8
0
100
AcDbLine
 10
22.59973089678116
 20
-8.771599258481472
 30
0.0
 11
18.59973089678115
 21
-8.771599258481472
 31
0.0
  0
LINE
  5
63
330
CAE
100
AcDbEntity
  8
0
100
AcDbLine
 10
22.59973089678116
 20
-5.771599258481472
 30
0.0
 11
18.59973089678115
 21
-5.771599258481472
 31
0.0
  0
LINE
  5
64
330
CAE
100
AcDbEntity
  8
0
100
AcDbLine
 10
22.59973089678116
 20
-4.771599258481472
 30
0.0
 11
17.59973089678115
 21
-4.771599258481472
 31
0.0
  0
LINE
  5
65
330
CAE
100
AcDbEntity
  8
0
100
AcDbLine
 10
18.59973089678115
 20
-5.771599258481472
 30
0.0
 11
18.59973089678115
 21
-8.771599258481472
 31
0.0
  0
ARC
  5
66
330
CAE
100
AcDbEntity
  8
0
100
AcDbCircle
 10
22.59973089678116
 20
-7.271599258481472
 30
0.0
 40
1.5
100
AcDbArc
 50
270.0
 51
90.0
  0
ENDBLK
  5
67
330
CAE
100
AcDbEntity
  8
0
100
AcDbBlockEnd
  0
BLOCK
  5
DA9
330
D9F
100
AcDbEntity
  8
0
100
AcDbBlockBegin
  2
*D1
 70
     1
 10
0.0
 20
0.0
 30
0.0
  3
*D1
  1

  0
LINE
  5
14B5
330
D9F
100
AcDbEntity
  8
BEM
 62
     0
370
    -2
100
AcDbLine
 10
136.3723331044554
 20
408.6928693526425
 30
0.0
 11
136.3723331044554
 21
441.8662981717772
 31
0.0
  0
LINE
  5
14B6
330
D9F
100
AcDbEntity
  8
BEM
 62
     0
370
    -2
100
AcDbLine
 10
356.3723331044556
 20
408.6928693526425
 30
0.0
 11
356.3723331044556
 21
441.8662981717772
 31
0.0
  0
LINE
  5
14B7
330
D9F
100
AcDbEntity
  8
BEM
 62
     0
370
    -2
100
AcDbLine
 10
143.3723331044554
 20
439.8662981717772
 30
0.0
 11
349.3723331044556
 21
439.8662981717772
 31
0.0
  0
SOLID
  5
14B8
330
D9F
100
AcDbEntity
  8
BEM
 62
     0
100
AcDbTrace
 10
143.3723331044554
 20
441.0329648384439
 30
0.0
 11
143.3723331044554
 21
438.6996315051105
 31
0.0
 12
136.3723331044554
 22
439.8662981717772
 32
0.0
 13
136.3723331044554
 23
439.8662981717772
 33
0.0
  0
SOLID
  5
14B9
330
D9F
100
AcDbEntity
  8
BEM
 62
     0
100
AcDbTrace
 10
349.3723331044556
 20
441.0329648384439
 30
0.0
 11
349.3723331044556
 21
438.6996315051105
 31
0.0
 12
356.3723331044556
 22
439.8662981717772
 32
0.0
 13
356.3723331044556
 23
439.8662981717772
 33
0.0
  0
MTEXT
  5
14BA
330
D9F
100
AcDbEntity
  8
BEM
 62
     1
100
AcDbMText
 10
246.3723331044555
 20
446.3662981717773
 30
0.0
 40
7.0
 41
0.0
 71
     5
 72
     1
  1
\A1;%%c220
 73
     1
 44
1.0
  0
POINT
  5
14BB
330
D9F
100
AcDbEntity
  8
DEFPOINTS
 62
     0
100
AcDbPoint
 10
136.3723331044554
 20
406.6928693526426
 30
0.0
  0
POINT
  5
14BC
330
D9F
100
AcDbEntity
  8
DEFPOINTS
 62
     0
100
AcDbPoint
 10
356.3723331044556
 20
406.6928693526426
 30
0.0
  0
POINT
  5
14BD
330
D9F
100
AcDbEntity
  8
DEFPOINTS
 62
     0
100
AcDbPoint
 10
356.3723331044556
 20
439.8662981717772
 30
0.0
  0
ENDBLK
  5
DAA
330
D9F
100
AcDbEntity
  8
0
100
AcDbBlockEnd
  0
BLOCK
  5
DDB
330
DD1
100
AcDbEntity
  8
0
100
AcDbBlockBegin
  2
*D2
 70
     1
 10
0.0
 20
0.0
 30
0.0
  3
*D2
  1

  0
LINE
  5
14DB
330
DD1
100
AcDbEntity
  8
BEM
 62
     0
370
    -2
100
AcDbLine
 10
134.3723331044553
 20
366.6929273199572
 30
0.0
 11
121.449475312419
 21
366.6929273199573
 31
0.0
  0
LINE
  5
14DC
330
DD1
100
AcDbEntity
  8
BEM
 62
     0
370
    -2
100
AcDbLine
 10
164.3723331044554
 20
426.6929273199574
 30
0.0
 11
121.449475312419
 21
426.6929273199575
 31
0.0
  0
LINE
  5
14DD
330
DD1
100
AcDbEntity
  8
BEM
 62
     0
370
    -2
100
AcDbLine
 10
123.449475312419
 20
373.6929273199573
 30
0.0
 11
123.449475312419
 21
419.6929273199574
 31
0.0
  0
SOLID
  5
14DE
330
DD1
100
AcDbEntity
  8
BEM
 62
     0
100
AcDbTrace
 10
122.2828086457523
 20
373.6929273199573
 30
0.0
 11
124.6161419790857
 21
373.6929273199573
 31
0.0
 12
123.449475312419
 22
366.6929273199573
 32
0.0
 13
123.449475312419
 23
366.6929273199573
 33
0.0
  0
SOLID
  5
14DF
330
DD1
100
AcDbEntity
  8
BEM
 62
     0
100
AcDbTrace
 10
122.2828086457524
 20
419.6929273199574
 30
0.0
 11
124.6161419790857
 21
419.6929273199574
 31
0.0
 12
123.449475312419
 22
426.6929273199575
 32
0.0
 13
123.449475312419
 23
426.6929273199575
 33
0.0
  0
MTEXT
  5
14E0
330
DD1
100
AcDbEntity
  8
BEM
 62
     1
100
AcDbMText
 10
116.949475312419
 20
396.6929273199574
 30
0.0
 40
7.0
 41
0.0
 71
     5
 72
     1
  1
\A1;60
 11
0.0000000000000001
 21
1.0
 31
0.0
 73
     1
 44
1.0
  0
POINT
  5
14E1
330
DD1
100
AcDbEntity
  8
DEFPOINTS
 62
     0
100
AcDbPoint
 10
136.3723331044554
 20
366.6929273199572
 30
0.0
  0
POINT
  5
14E2
330
DD1
100
AcDbEntity
  8
DEFPOINTS
 62
     0
100
AcDbPoint
 10
166.3723331044554
 20
426.6929273199574
 30
0.0
  0
POINT
  5
14E3
330
DD1
100
AcDbEntity
  8
DEFPOINTS
 62
     0
100
AcDbPoint
 10
123.449475312419
 20
426.6929273199575
 30
0.0
  0
ENDBLK
  5
DDC
330
DD1
100
AcDbEntity
  8
0
100
AcDbBlockEnd
  0
BLOCK
  5
EE6
330
EDC
100
AcDbEntity
  8
0
100
AcDbBlockBegin
  2
*D3
 70
     1
 10
0.0
 20
0.0
 30
0.0
  3
*D3
  1

  0
LINE
  5
13B9
330
EDC
100
AcDbEntity
  8
BEM
 62
     0
370
    -2
100
AcDbLine
 10
195.572333104455
 20
272.6056054341411
 30
0.0
 11
195.572333104455
 21
245.8992818112818
 31
0.0
  0
LINE
  5
13BA
330
EDC
100
AcDbEntity
  8
BEM
 62
     0
370
    -2
100
AcDbLine
 10
297.172333104455
 20
272.6056054341411
 30
0.0
 11
297.172333104455
 21
245.8992818112818
 31
0.0
  0
LINE
  5
13BB
330
EDC
100
AcDbEntity
  8
BEM
 62
     0
370
    -2
100
AcDbLine
 10
202.572333104455
 20
247.8992818112818
 30
0.0
 11
290.172333104455
 21
247.8992818112818
 31
0.0
  0
SOLID
  5
13BC
330
EDC
100
AcDbEntity
  8
BEM
 62
     0
100
AcDbTrace
 10
202.572333104455
 20
249.0659484779484
 30
0.0
 11
202.572333104455
 21
246.7326151446151
 31
0.0
 12
195.572333104455
 22
247.8992818112818
 32
0.0
 13
195.572333104455
 23
247.8992818112818
 33
0.0
  0
SOLID
  5
13BD
330
EDC
100
AcDbEntity
  8
BEM
 62
     0
100
AcDbTrace
 10
290.172333104455
 20
249.0659484779484
 30
0.0
 11
290.172333104455
 21
246.7326151446151
 31
0.0
 12
297.172333104455
 22
247.8992818112818
 32
0.0
 13
297.172333104455
 23
247.8992818112818
 33
0.0
  0
MTEXT
  5
13BE
330
EDC
100
AcDbEntity
  8
BEM
 62
     1
100
AcDbMText
 10
246.372333104455
 20
253.3992818112817
 30
0.0
 40
7.0
 41
0.0
 71
     5
 72
     1
  1
\A1;%%c101.6
  7
GREEKS
 73
     1
 44
1.0
  0
POINT
  5
13BF
330
EDC
100
AcDbEntity
  8
DEFPOINTS
 62
     0
100
AcDbPoint
 10
195.572333104455
 20
274.6056054341411
 30
0.0
  0
POINT
  5
13C0
330
EDC
100
AcDbEntity
  8
DEFPOINTS
 62
     0
100
AcDbPoint
 10
297.172333104455
 20
274.6056054341411
 30
0.0
  0
POINT
  5
13C1
330
EDC
100
AcDbEntity
  8
DEFPOINTS
 62
     0
100
AcDbPoint
 10
297.172333104455
 20
247.8992818112818
 30
0.0
  0
ENDBLK
  5
EE7
330
EDC
100
AcDbEntity
  8
0
100
AcDbBlockEnd
  0
BLOCK
  5
F39
330
F2F
100
AcDbEntity
  8
0
100
AcDbBlockBegin
  2
*D4
 70
     1
 10
0.0
 20
0.0
 30
0.0
  3
*D4
  1

  0
LINE
  5
14D2
330
F2F
100
AcDbEntity
  8
BEM
 62
     0
370
    -2
100
AcDbLine
 10
194.2646027375758
 20
266.6929273199575
 30
0.0
 11
104.9561280023044
 21
266.6929273199576
 31
0.0
  0
LINE
  5
14D3
330
F2F
100
AcDbEntity
  8
BEM
 62
     0
370
    -2
100
AcDbLine
 10
164.3723331044554
 20
426.6929273199574
 30
0.0
 11
104.9561280023045
 21
426.6929273199575
 31
0.0
  0
LINE
  5
14D4
330
F2F
100
AcDbEntity
  8
BEM
 62
     0
370
    -2
100
AcDbLine
 10
106.9561280023044
 20
273.6929273199576
 30
0.0
 11
106.9561280023045
 21
419.6929273199574
 31
0.0
  0
SOLID
  5
14D5
330
F2F
100
AcDbEntity
  8
BEM
 62
     0
100
AcDbTrace
 10
105.7894613356378
 20
273.6929273199576
 30
0.0
 11
108.1227946689711
 21
273.6929273199576
 31
0.0
 12
106.9561280023044
 22
266.6929273199576
 32
0.0
 13
106.9561280023044
 23
266.6929273199576
 33
0.0
  0
SOLID
  5
14D6
330
F2F
100
AcDbEntity
  8
BEM
 62
     0
100
AcDbTrace
 10
105.7894613356378
 20
419.6929273199574
 30
0.0
 11
108.1227946689711
 21
419.6929273199574
 31
0.0
 12
106.9561280023045
 22
426.6929273199575
 32
0.0
 13
106.9561280023045
 23
426.6929273199575
 33
0.0
  0
MTEXT
  5
14D7
330
F2F
100
AcDbEntity
  8
BEM
 62
     1
100
AcDbMText
 10
100.4561280023044
 20
346.6929273199576
 30
0.0
 40
7.0
 41
0.0
 71
     5
 72
     1
  1
\A1;160
 11
0.0000000000000001
 21
1.0
 31
0.0
 73
     1
 44
1.0
  0
POINT
  5
14D8
330
F2F
100
AcDbEntity
  8
DEFPOINTS
 62
     0
100
AcDbPoint
 10
196.2646027375758
 20
266.6929273199575
 30
0.0
  0
POINT
  5
14D9
330
F2F
100
AcDbEntity
  8
DEFPOINTS
 62
     0
100
AcDbPoint
 10
166.3723331044554
 20
426.6929273199574
 30
0.0
  0
POINT
  5
14DA
330
F2F
100
AcDbEntity
  8
DEFPOINTS
 62
     0
100
AcDbPoint
 10
106.9561280023045
 20
426.6929273199575
 30
0.0
  0
ENDBLK
  5
F3A
330
F2F
100
AcDbEntity
  8
0
100
AcDbBlockEnd
  0
ENDSEC
  0
SECTION
  2
ENTITIES
  0
DIMENSION
  5
1DE
330
CAA
100
AcDbEntity
  8
BEM
100
AcDbDimension
  2
*D1
 10
356.3723331044556
 20
439.8662981717772
 30
0.0
 11
246.3723331044555
 21
446.3662981717773
 31
0.0
 70
    32
  1
%%c<>
 71
     5
 42
220.0000000000002
  3
STANDARD
100
AcDbAlignedDimension
 13
136.3723331044554
 23
406.6928693526426
 33
0.0
 14
356.3723331044556
 24
406.6928693526426
 34
0.0
100
AcDbRotatedDimension
1001
ACAD
1000
DSTYLE
1002
{
1070
    40
1040
2.0
1070
    41
1040
3.5
1070
    42
1040
1.0
1070
    43
1040
7.0
1070
    44
1040
1.0
1070
    47
1040
1.199999999999999
1070
    48
1040
1.199999999999999
1070
    73
1070
     0
1070
    74
1070
     0
1070
    77
1070
     1
1070
    78
1070
     8
1070
    79
1070
     2
1070
   140
1040
3.5
1070
   141
1040
1.5
1070
   146
1040
0.5142857142857144
1070
   147
1040
1.5
1070
   172
1070
     1
1070
   178
1070
     1
1070
   179
1070
     2
1070
   279
1070
     0
1002
}
  0
LINE
  5
1E1
330
CAA
100
AcDbEntity
  8
STEMPEL
100
AcDbLine
 10
166.3723331044554
 20
426.6929273199574
 30
0.0
 11
221.1106952768048
 21
426.6929273199577
 31
0.0
  0
TEXT
  5
20F
330
CAA
100
AcDbEntity
  8
TEXT
100
AcDbText
 10
197.4144497067327
 20
102.4184168434819
 30
0.0
 40
5.0
  1
Zul. Abw.
 41
0.8
  7
GREEKS
100
AcDbText
  0
TEXT
  5
210
330
CAA
100
AcDbEntity
  8
TEXT
100
AcDbText
 10
202.4626584226295
 20
73.30961091915225
 30
0.0
 40
4.0
  1
Name
 41
0.8
  7
GREEKS
100
AcDbText
  0
TEXT
  5
211
330
CAA
100
AcDbEntity
  8
TEXT
100
AcDbText
 10
192.626132208084
 20
90.76363841023022
 30
0.0
 40
4.0
  1
DIN EN1124-3
 41
0.8
  7
GREEKS
 72
     1
 11
209.6166083985602
 21
90.76363841023022
 31
0.0
100
AcDbText
  0
TEXT
  5
212
330
CAA
100
AcDbEntity
  8
TEXT
100
AcDbText
 10
204.4216048581257
 20
63.0896391972351
 30
0.0
 40
4.0
  1
Koeh
 41
0.8
  7
GREEKS
 72
     1
 11
209.6787477152686
 21
63.0896391972351
 31
0.0
100
AcDbText
  0
LINE
  5
213
330
CAA
100
AcDbEntity
  8
HILF
100
AcDbLine
 10
146.0000000000001
 20
69.99999999999994
 30
0.0
 11
230.0
 21
69.99999999999994
 31
0.0
  0
LINE
  5
214
330
CAA
100
AcDbEntity
  8
HILF
100
AcDbLine
 10
146.0000000000001
 20
59.99999999999997
 30
0.0
 11
230.0
 21
59.99999999999997
 31
0.0
  0
LINE
  5
215
330
CAA
100
AcDbEntity
  8
HILF
100
AcDbLine
 10
146.0000000000001
 20
49.99999999999997
 30
0.0
 11
230.0
 21
49.99999999999997
 31
0.0
  0
INSERT
  5
216
330
CAA
100
AcDbEntity
  8
STEMPEL
100
AcDbBlockReference
  2
LOGO
 10
150.9955485457794
 20
45.02105276448322
 30
0.0
 41
2.0
 42
2.0
 43
2.0
  0
LINE
  5
217
330
CAA
100
AcDbEntity
  8
STEMPEL
100
AcDbLine
 10
410.0
 20
110.0
 30
0.0
 11
39.99999999999997
 21
110.0
 31
0.0
  0
LINE
  5
218
330
CAA
100
AcDbEntity
  8
STEMPEL
100
AcDbLine
 10
410.0
 20
40.0
 30
0.0
 11
146.0000000000001
 21
39.99999999999997
 31
0.0
  0
LINE
  5
219
330
CAA
100
AcDbEntity
  8
STEMPEL
100
AcDbLine
 10
410.0
 20
80.0
 30
0.0
 11
146.0000000000001
 21
79.99999999999994
 31
0.0
  0
LINE
  5
21A
330
CAA
100
AcDbEntity
  8
STEMPEL
100
AcDbLine
 10
49.99999999999989
 20
10.0
 30
0.0
 11
410.0
 21
10.0
 31
0.0
  0
LINE
  5
21B
330
CAA
100
AcDbEntity
  8
STEMPEL
100
AcDbLine
 10
410.0
 20
10.0
 30
0.0
 11
39.99999999999989
 21
10.0
 31
0.0
  0
LINE
  5
21C
330
CAA
100
AcDbEntity
  8
STEMPEL
100
AcDbLine
 10
410.0
 20
584.0
 30
0.0
 11
39.99999999999989
 21
584.0
 31
0.0
  0
LINE
  5
21D
330
CAA
100
AcDbEntity
  8
HILF
100
AcDbLine
 10
419.9999999999999
 20
594.0000000000002
 30
0.0
 11
0.0
 21
594.0
 31
0.0
  0
LINE
  5
21E
330
CAA
100
AcDbEntity
  8
HILF
100
AcDbLine
 10
420.0
 20
0.0
 30
0.0
 11
0.0
 21
0.0
 31
0.0
  0
LINE
  5
221
330
CAA
100
AcDbEntity
  8
HILF
100
AcDbLine
 10
348.698666161986
 20
409.6929273199609
 30
0.0
 11
253.8723331044555
 21
409.6929273199608
 31
0.0
  0
LINE
  5
222
330
CAA
100
AcDbEntity
  8
STEMPEL
100
AcDbLine
 10
166.3723331044554
 20
425.6929273199574
 30
0.0
 11
326.3723331044556
 21
425.6929273199581
 31
0.0
  0
LINE
  5
226
330
CAA
100
AcDbEntity
  8
STEMPEL
100
AcDbLine
 10
40.0
 20
10.0
 30
0.0
 11
39.99999999999989
 21
584.0
 31
0.0
  0
LINE
  5
227
330
CAA
100
AcDbEntity
  8
HILF
100
AcDbLine
 10
0.0
 20
0.0
 30
0.0
 11
-0.0000000000001137
 21
594.0
 31
0.0
  0
TEXT
  5
22B
330
CAA
100
AcDbEntity
  8
TEXT
100
AcDbText
 10
67.54765331162367
 20
18.35099752665898
 30
0.0
 40
4.0
  1
Änderung
 41
0.8
  7
GREEKS
 72
     4
 11
78.29051045448082
 21
20.06528324094469
 31
0.0
100
AcDbText
  0
LINE
  5
22C
330
CAA
100
AcDbEntity
  8
STEMPEL
100
AcDbLine
 10
145.9999999999999
 20
29.99999999999997
 30
0.0
 11
39.99999999999997
 21
29.99999999999997
 31
0.0
  0
LINE
  5
22D
330
CAA
100
AcDbEntity
  8
HILF
100
AcDbLine
 10
40.00000000000008
 20
100.0
 30
0.0
 11
146.0000000000001
 21
100.0
 31
0.0
  0
LINE
  5
22E
330
CAA
100
AcDbEntity
  8
HILF
100
AcDbLine
 10
40.00000000000008
 20
90.00000000000005
 30
0.0
 11
146.0000000000001
 21
90.00000000000005
 31
0.0
  0
LINE
  5
22F
330
CAA
100
AcDbEntity
  8
HILF
100
AcDbLine
 10
40.00000000000008
 20
79.99999999999994
 30
0.0
 11
146.0000000000001
 21
79.99999999999994
 31
0.0
  0
LINE
  5
230
330
CAA
100
AcDbEntity
  8
HILF
100
AcDbLine
 10
40.00000000000008
 20
69.99999999999994
 30
0.0
 11
146.0000000000001
 21
69.99999999999994
 31
0.0
  0
LINE
  5
231
330
CAA
100
AcDbEntity
  8
HILF
100
AcDbLine
 10
40.00000000000008
 20
59.99999999999997
 30
0.0
 11
146.0000000000001
 21
59.99999999999997
 31
0.0
  0
LINE
  5
232
330
CAA
100
AcDbEntity
  8
HILF
100
AcDbLine
 10
40.00000000000008
 20
49.99999999999997
 30
0.0
 11
146.0000000000001
 21
49.99999999999997
 31
0.0
  0
LINE
  5
233
330
CAA
100
AcDbEntity
  8
HILF
100
AcDbLine
 10
40.00000000000008
 20
39.99999999999997
 30
0.0
 11
146.0000000000001
 21
39.99999999999997
 31
0.0
  0
LINE
  5
236
330
CAA
100
AcDbEntity
  8
VOLL
100
AcDbLine
 10
54.00000000000009
 20
110.0
 30
0.0
 11
53.99999999999997
 21
9.999999999999971
 31
0.0
  0
TEXT
  5
237
330
CAA
100
AcDbEntity
  8
TEXT
100
AcDbText
 10
48.26641107045756
 20
13.65465846027192
 30
0.0
 40
4.0
  1
Index
 50
90.0
 41
0.8
  7
GREEKS
100
AcDbText
  0
LINE
  5
238
330
CAA
100
AcDbEntity
  8
HILF
100
AcDbLine
 10
31.08767135713856
 20
297.0
 30
0.0
 11
0.0000000000001137
 21
297.0
 31
0.0
  0
LINE
  5
239
330
CAA
100
AcDbEntity
  8
VOLL
100
AcDbLine
 10
104.0000000000001
 20
109.9999999999999
 30
0.0
 11
104.0
 21
9.999999999999971
 31
0.0
  0
LINE
  5
23A
330
CAA
100
AcDbEntity
  8
VOLL
100
AcDbLine
 10
124.0000000000001
 20
109.9999999999999
 30
0.0
 11
124.0
 21
9.999999999999971
 31
0.0
  0
TEXT
  5
23B
330
CAA
100
AcDbEntity
  8
TEXT
100
AcDbText
 10
110.0904251253239
 20
18.72969365116814
 30
0.0
 40
4.0
  1
Tag
 41
0.8
  7
GREEKS
 72
     4
 11
113.8237584586572
 21
20.06302698450148
 31
0.0
100
AcDbText
  0
TEXT
  5
23C
330
CAA
100
AcDbEntity
  8
TEXT
100
AcDbText
 10
129.0326464101765
 20
17.98470646076745
 30
0.0
 40
4.0
  1
Name
 41
0.8
  7
GREEKS
 72
     4
 11
135.356455933986
 21
19.98470646076745
 31
0.0
100
AcDbText
  0
LINE
  5
23D
330
CAA
100
AcDbEntity
  8
STEMPEL
100
AcDbLine
 10
146.0000000000001
 20
109.9999999999999
 30
0.0
 11
146.0
 21
9.999999999999971
 31
0.0
  0
TEXT
  5
23E
330
CAA
100
AcDbEntity
  8
TEXT
100
AcDbText
 10
172.331167315365
 20
73.31880501229926
 30
0.0
 40
4.0
  1
Tag
 41
0.8
  7
GREEKS
100
AcDbText
  0
TEXT
  5
23F
330
CAA
100
AcDbEntity
  8
TEXT
100
AcDbText
 10
170.7037590129979
 20
63.10765040825732
 30
0.0
 40
4.0
  1
02.10.
 41
0.8
  7
GREEKS
 72
     1
 11
177.4085209177598
 21
63.10765040825732
 31
0.0
100
AcDbText
  0
LINE
  5
240
330
CAA
100
AcDbEntity
  8
VOLL
100
AcDbLine
 10
164.0000000000001
 20
79.99999999999994
 30
0.0
 11
164.0000000000001
 21
39.99999999999997
 31
0.0
  0
TEXT
  5
241
330
CAA
100
AcDbEntity
  8
TEXT
100
AcDbText
 10
147.5836127167615
 20
63.62990369617964
 30
0.0
 40
4.0
  1
Gez.
 41
0.8
  7
GREEKS
100
AcDbText
  0
TEXT
  5
242
330
CAA
100
AcDbEntity
  8
TEXT
100
AcDbText
 10
147.5515086571672
 20
53.68926291428377
 30
0.0
 40
4.0
  1
Gepr.
 41
0.8
  7
GREEKS
100
AcDbText
  0
TEXT
  5
243
330
CAA
100
AcDbEntity
  8
TEXT
100
AcDbText
 10
147.6006777387303
 20
43.52946389649807
 30
0.0
 40
4.0
  1
Norm.
 41
0.8
  7
GREEKS
100
AcDbText
  0
TEXT
  5
244
330
CAA
100
AcDbEntity
  8
TEXT
100
AcDbText
 10
153.5163572150377
 20
102.4620895087088
 30
0.0
 40
5.0
  1
Maßstab
 41
0.8
  7
GREEKS
100
AcDbText
  0
TEXT
  5
245
330
CAA
100
AcDbEntity
  8
TEXT
 62
     1
100
AcDbText
 10
160.5006306481887
 20
86.24814682511596
 30
0.0
 40
7.0
  1
1:2
 41
0.8
  7
GREEKS
100
AcDbText
  0
TEXT
  5
247
330
CAA
100
AcDbEntity
  8
TEXT
100
AcDbText
 10
148.622109822104
 20
73.14025471151666
 30
0.0
 40
4.0
  1
2007
 41
0.8
  7
GREEKS
100
AcDbText
  0
LINE
  5
248
330
CAA
100
AcDbEntity
  8
VOLL
100
AcDbLine
 10
190.0000000000001
 20
109.9999999999998
 30
0.0
 11
190.0
 21
39.99999999999997
 31
0.0
  0
DIMENSION
  5
25F
330
CAA
100
AcDbEntity
  8
BEM
100
AcDbDimension
  2
*D2
 10
123.449475312419
 20
426.6929273199575
 30
0.0
 11
116.949475312419
 21
396.6929273199574
 31
0.0
 70
    32
  1
<>
 71
     5
 42
60.00000000000023
  3
STANDARD
100
AcDbAlignedDimension
 13
136.3723331044554
 23
366.6929273199572
 33
0.0
 14
166.3723331044554
 24
426.6929273199574
 34
0.0
 50
90.0
100
AcDbRotatedDimension
1001
ACAD
1000
DSTYLE
1002
{
1070
    40
1040
2.0
1070
    41
1040
3.5
1070
    42
1040
1.0
1070
    43
1040
7.0
1070
    44
1040
1.0
1070
    47
1040
1.199999999999999
1070
    48
1040
1.199999999999999
1070
    73
1070
     0
1070
    74
1070
     0
1070
    77
1070
     1
1070
    78
1070
     8
1070
    79
1070
     2
1070
   140
1040
3.5
1070
   141
1040
1.5
1070
   146
1040
0.5142857142857144
1070
   147
1040
1.5
1070
   172
1070
     1
1070
   178
1070
     1
1070
   179
1070
     2
1070
   279
1070
     0
1002
}
  0
LINE
  5
263
330
CAA
100
AcDbEntity
  8
STEMPEL
100
AcDbLine
 10
136.3723331044554
 20
406.6928693526426
 30
0.0
 11
136.3723331044554
 21
366.6929273199572
 31
0.0
  0
LINE
  5
264
330
CAA
100
AcDbEntity
  8
STEMPEL
100
AcDbLine
 10
137.3723331044555
 20
406.6928693526426
 30
0.0
 11
137.3723331044555
 21
366.6929273199571
 31
0.0
  0
LINE
  5
4D4
330
CAA
100
AcDbEntity
  8
STEMPEL
100
AcDbLine
 10
139.3396384827475
 20
411.8700078800015
 30
0.0
 11
163.3259413582144
 21
425.86201789069
 31
0.0
  0
LINE
  5
4D5
330
CAA
100
AcDbEntity
  8
STEMPEL
100
AcDbLine
 10
139.8529795363283
 20
411.0117647668389
 30
0.0
 11
163.8318334292795
 21
424.9994179330243
 31
0.0
  0
ARC
  5
4D6
330
CAA
100
AcDbEntity
  8
STEMPEL
100
AcDbCircle
 10
142.3723331044555
 20
406.6928693526426
 30
0.0
 40
6.0
100
AcDbArc
 50
120.2564164748152
 51
180.0
  0
ARC
  5
4D7
330
CAA
100
AcDbEntity
  8
STEMPEL
100
AcDbCircle
 10
142.3723331044555
 20
406.6928693526426
 30
0.0
 40
5.0
100
AcDbArc
 50
120.2564164748152
 51
180.0
  0
ARC
  5
4D8
330
CAA
100
AcDbEntity
  8
STEMPEL
100
AcDbCircle
 10
136.8611895001438
 20
416.21276430242
 30
0.0
 40
5.0
100
AcDbArc
 50
300.0670458384848
 51
300.2564371635294
  0
ARC
  5
4D9
330
CAA
100
AcDbEntity
  8
STEMPEL
100
AcDbCircle
 10
166.3723331044554
 20
420.6929273199578
 30
0.0
 40
5.0
100
AcDbArc
 50
90.0
 51
120.5373500483013
  0
ARC
  5
4DA
330
CAA
100
AcDbEntity
  8
STEMPEL
100
AcDbCircle
 10
166.3723331044554
 20
420.6929273199578
 30
0.0
 40
6.0
100
AcDbArc
 50
90.0
 51
120.512874327619
  0
ARC
  5
4DB
330
CAA
100
AcDbEntity
  8
STEMPEL
100
AcDbCircle
 10
166.3723331044554
 20
420.6929273199578
 30
0.0
 40
6.0
100
AcDbArc
 50
90.0
 51
90.0
  0
LINE
  5
4DC
330
CAA
100
AcDbEntity
  8
STEMPEL
100
AcDbLine
 10
410.0
 20
10.0
 30
0.0
 11
410.0
 21
584.0
 31
0.0
  0
LINE
  5
4DD
330
CAA
100
AcDbEntity
  8
HILF
100
AcDbLine
 10
420.0
 20
-0.0000000000001137
 30
0.0
 11
419.9999999999999
 21
594.0
 31
0.0
  0
TEXT
  5
4E3
330
CAA
100
AcDbEntity
  8
TEXT
 62
     1
100
AcDbText
 10
275.4252403812858
 20
167.2094183961103
 30
0.0
 40
7.0
  1
Werkstoff: 1.4301 Haube
 41
0.8
  7
GREEKS
100
AcDbText
  0
LINE
  5
4E5
330
CAA
100
AcDbEntity
  8
VOLL
100
AcDbLine
 10
332.0
 20
60.0
 30
0.0
 11
410.0
 21
60.0
 31
0.0
  0
LINE
  5
4E6
330
CAA
100
AcDbEntity
  8
HILF
100
AcDbLine
 10
336.7238616296993
 20
83.77983636955827
 30
0.0
 11
404.8588839326728
 21
83.77983636955827
 31
0.0
  0
TEXT
  5
4E7
330
CAA
100
AcDbEntity
  8
TEXT
100
AcDbText
 10
336.178754957634
 20
102.3132034537136
 30
0.0
 40
5.0
  1
Zeichnungs Nr.
 41
0.8
  7
GREEKS
100
AcDbText
  0
TEXT
  5
4E8
330
CAA
100
AcDbEntity
  8
TEXT
100
AcDbText
 10
336.7238616296993
 20
73.1811823709997
 30
0.0
 40
5.0
  1
Ersatz für:
 41
0.8
  7
GREEKS
100
AcDbText
  0
TEXT
  5
4E9
330
CAA
100
AcDbEntity
  8
TEXT
100
AcDbText
 10
337.2400861497006
 20
52.07416177878602
 30
0.0
 40
5.0
  1
ersetzt durch:
 41
0.8
  7
GREEKS
100
AcDbText
  0
LINE
  5
4EA
330
CAA
100
AcDbEntity
  8
HILF
100
AcDbLine
 10
233.4909699289885
 20
14.89398258028314
 30
0.0
 11
404.8588839326728
 21
14.89398258028314
 31
0.0
  0
LINE
  5
4EB
330
CAA
100
AcDbEntity
  8
HILF
100
AcDbLine
 10
234.7736801096947
 20
84.03758247564139
 30
0.0
 11
324.8353916556311
 21
84.03758247564139
 31
0.0
  0
LINE
  5
4EC
330
CAA
100
AcDbEntity
  8
HILF
100
AcDbLine
 10
234.7736801096947
 20
69.99999999999994
 30
0.0
 11
324.835391655631
 21
69.99999999999994
 31
0.0
  0
LINE
  5
4ED
330
CAA
100
AcDbEntity
  8
HILF
100
AcDbLine
 10
234.7736801096947
 20
59.99999999999997
 30
0.0
 11
324.835391655631
 21
59.99999999999997
 31
0.0
  0
LINE
  5
4EE
330
CAA
100
AcDbEntity
  8
HILF
100
AcDbLine
 10
234.7736801096947
 20
49.99999999999997
 30
0.0
 11
324.835391655631
 21
49.99999999999997
 31
0.0
  0
LINE
  5
4EF
330
CAA
100
AcDbEntity
  8
STEMPEL
100
AcDbLine
 10
230.0
 20
110.0
 30
0.0
 11
230.0
 21
9.999999999999971
 31
0.0
  0
TEXT
  5
4F0
330
CAA
100
AcDbEntity
  8
TEXT
100
AcDbText
 10
234.877940380901
 20
102.5489328011779
 30
0.0
 40
5.0
  1
Benennung
 41
0.8
  7
GREEKS
100
AcDbText
  0
TEXT
  5
4F1
330
CAA
100
AcDbEntity
  8
TEXT
 62
     1
100
AcDbText
 10
235.1296391125315
 20
87.41748789253779
 30
0.0
 40
7.0
  1
Regenhaube DN100
 41
0.8
  7
GREEKS
100
AcDbText
  0
TEXT
  5
4F2
330
CAA
100
AcDbEntity
  8
TEXT
100
AcDbText
 10
234.742238391136
 20
30.84560570193057
 30
0.0
 40
5.0
  1
Bauvorhaben
 41
0.8
  7
GREEKS
100
AcDbText
  0
TEXT
  5
4F4
330
CAA
100
AcDbEntity
  8
TEXT
100
AcDbText
 10
234.9837501577827
 20
42.62974153022632
 30
0.0
 40
4.0
  1
21203100X.DWG
 41
0.8
  7
GREEKS
100
AcDbText
  0
TEXT
  5
4F5
330
CAA
100
AcDbEntity
  8
TEXT
100
AcDbText
 10
235.1296391125316
 20
71.5033441758529
 30
0.0
 40
5.0
  1
DRAINLET Rohrdurchführungen
 41
0.7
  7
GREEKS
100
AcDbText
  0
LINE
  5
4F6
330
CAA
100
AcDbEntity
  8
STEMPEL
100
AcDbLine
 10
332.0
 20
109.9999999999997
 30
0.0
 11
332.0
 21
40.0
 31
0.0
  0
TEXT
  5
51A
330
CAA
100
AcDbEntity
  8
TEXT
 62
     1
100
AcDbText
 10
345.1143841209337
 20
88.14901428913959
 30
0.0
 40
7.0
  1
21203100X
 41
0.8
  7
GREEKS
 72
     1
 11
367.247717454267
 21
88.14901428913959
 31
0.0
100
AcDbText
  0
LINE
  5
522
330
CAA
100
AcDbEntity
  8
STEMPEL
100
AcDbLine
 10
352.8916866725826
 20
411.0117647668389
 30
0.0
 11
328.9128327796315
 21
424.9994179330243
 31
0.0
  0
LINE
  5
523
330
CAA
100
AcDbEntity
  8
STEMPEL
100
AcDbLine
 10
353.4050277261635
 20
411.8700078800015
 30
0.0
 11
329.4187248506966
 21
425.86201789069
 31
0.0
  0
LINE
  5
53E
330
CAA
100
AcDbEntity
  8
MITTEL
100
AcDbLine
 10
246.3723331044555
 20
431.6929273199568
 30
0.0
 11
246.372333104455
 21
261.6929273199574
 31
0.0
  0
LINE
  5
7E7
330
CAA
100
AcDbEntity
  8
STEMPEL
100
AcDbLine
 10
271.8118476995122
 20
426.6929273199578
 30
0.0
 11
326.3723331044556
 21
426.6929273199581
 31
0.0
  0
LINE
  5
7E8
330
CAA
100
AcDbEntity
  8
STEMPEL
100
AcDbLine
 10
243.0137714881581
 20
427.1929273199579
 30
0.0
 11
253.1020389493517
 21
427.1929273199579
 31
0.0
  0
LINE
  5
7E9
330
CAA
100
AcDbEntity
  8
STEMPEL
100
AcDbLine
 10
223.7087714881583
 20
428.1929273199578
 30
0.0
 11
269.2137714881582
 21
428.1929273199578
 31
0.0
  0
LINE
  5
7EA
330
CAA
100
AcDbEntity
  8
STEMPEL
100
AcDbLine
 10
233.9618476995112
 20
426.6929273199577
 30
0.0
 11
240.4156952768054
 21
426.6929273199577
 31
0.0
  0
LINE
  5
7EB
330
CAA
100
AcDbEntity
  8
STEMPEL
100
AcDbLine
 10
233.9618476995112
 20
426.6929273199577
 30
0.0
 11
240.4156952768054
 21
426.6929273199577
 31
0.0
  0
ARC
  5
7EC
330
CAA
100
AcDbEntity
  8
STEMPEL
100
AcDbCircle
 10
221.1106952768048
 20
428.1929273199578
 30
0.0
 40
2.5
100
AcDbArc
 50
270.0
 51
330.0000000000015
  0
ARC
  5
7ED
330
CAA
100
AcDbEntity
  8
STEMPEL
100
AcDbCircle
 10
226.5068476995121
 20
428.1929273199578
 30
0.0
 40
2.5
100
AcDbArc
 50
209.9999999999937
 51
270.0
  0
ARC
  5
7EE
330
CAA
100
AcDbEntity
  8
STEMPEL
100
AcDbCircle
 10
228.5656952768045
 20
428.1929273199578
 30
0.0
 40
2.5
100
AcDbArc
 50
270.0
 51
330.000000000005
  0
ARC
  5
7EF
330
CAA
100
AcDbEntity
  8
STEMPEL
100
AcDbCircle
 10
233.9618476995112
 20
428.1929273199578
 30
0.0
 40
2.5
100
AcDbArc
 50
210.0000000000016
 51
270.0
  0
ARC
  5
7F0
330
CAA
100
AcDbEntity
  8
STEMPEL
100
AcDbCircle
 10
226.5068476995121
 20
428.1929273199578
 30
0.0
 40
1.5
100
AcDbArc
 50
209.9999999999947
 51
270.0
  0
ARC
  5
7F1
330
CAA
100
AcDbEntity
  8
STEMPEL
100
AcDbCircle
 10
221.1106952768048
 20
428.1929273199578
 30
0.0
 40
1.5
100
AcDbArc
 50
270.0
 51
330.0000000000029
  0
ARC
  5
7F2
330
CAA
100
AcDbEntity
  8
STEMPEL
100
AcDbCircle
 10
223.7087714881583
 20
426.6929273199577
 30
0.0
 40
0.5
100
AcDbArc
 50
89.99999999999994
 51
149.9999999999994
  0
LINE
  5
7F3
330
CAA
100
AcDbEntity
  8
STEMPEL
100
AcDbLine
 10
223.7087714881583
 20
427.1929273199577
 30
0.0
 11
223.9087714881583
 21
427.1929273199577
 31
0.0
  0
ARC
  5
7F4
330
CAA
100
AcDbEntity
  8
STEMPEL
100
AcDbCircle
 10
223.9087714881583
 20
426.6929273199577
 30
0.0
 40
0.5
100
AcDbArc
 50
29.99999999999891
 51
89.99999999999994
  0
ARC
  5
7F5
330
CAA
100
AcDbEntity
  8
STEMPEL
100
AcDbCircle
 10
223.9087714881583
 20
426.6929273199577
 30
0.0
 40
1.5
100
AcDbArc
 50
29.99999999999394
 51
89.99999999999994
  0
ARC
  5
7F6
330
CAA
100
AcDbEntity
  8
STEMPEL
100
AcDbCircle
 10
223.7087714881583
 20
426.6929273199577
 30
0.0
 40
1.5
100
AcDbArc
 50
89.99999999999994
 51
150.0000000000024
  0
ARC
  5
7F7
330
CAA
100
AcDbEntity
  8
STEMPEL
100
AcDbCircle
 10
231.1637714881582
 20
426.6929273199577
 30
0.0
 40
1.5
100
AcDbArc
 50
89.99999999999994
 51
150.0000000000048
  0
ARC
  5
7F8
330
CAA
100
AcDbEntity
  8
STEMPEL
100
AcDbCircle
 10
228.5656952768045
 20
428.1929273199578
 30
0.0
 40
1.5
100
AcDbArc
 50
270.0
 51
330.000000000005
  0
LINE
  5
7F9
330
CAA
100
AcDbEntity
  8
STEMPEL
100
AcDbLine
 10
226.5068476995121
 20
426.6929273199577
 30
0.0
 11
228.5656952768045
 21
426.6929273199577
 31
0.0
  0
LINE
  5
7FA
330
CAA
100
AcDbEntity
  8
STEMPEL
100
AcDbLine
 10
226.5068476995121
 20
426.6929273199577
 30
0.0
 11
228.5656952768045
 21
426.6929273199577
 31
0.0
  0
ARC
  5
7FB
330
CAA
100
AcDbEntity
  8
STEMPEL
100
AcDbCircle
 10
233.9618476995112
 20
428.1929273199578
 30
0.0
 40
1.5
100
AcDbArc
 50
210.0000000000016
 51
270.0
  0
ARC
  5
7FC
330
CAA
100
AcDbEntity
  8
STEMPEL
100
AcDbCircle
 10
231.1637714881582
 20
426.6929273199577
 30
0.0
 40
0.5
100
AcDbArc
 50
89.99999999999994
 51
150.0000000000048
  0
LINE
  5
7FD
330
CAA
100
AcDbEntity
  8
STEMPEL
100
AcDbLine
 10
231.1637714881582
 20
427.1929273199579
 30
0.0
 11
231.3637714881583
 21
427.1929273199579
 31
0.0
  0
ARC
  5
7FE
330
CAA
100
AcDbEntity
  8
STEMPEL
100
AcDbCircle
 10
231.3637714881583
 20
426.6929273199577
 30
0.0
 40
0.5
100
AcDbArc
 50
30.00000000000242
 51
89.99999999999994
  0
ARC
  5
7FF
330
CAA
100
AcDbEntity
  8
STEMPEL
100
AcDbCircle
 10
231.3637714881583
 20
426.6929273199577
 30
0.0
 40
1.5
100
AcDbArc
 50
30.00000000000242
 51
89.99999999999994
  0
ARC
  5
800
330
CAA
100
AcDbEntity
  8
STEMPEL
100
AcDbCircle
 10
240.4156952768054
 20
428.1929273199578
 30
0.0
 40
2.5
100
AcDbArc
 50
270.0
 51
329.9999999999958
  0
ARC
  5
801
330
CAA
100
AcDbEntity
  8
STEMPEL
100
AcDbCircle
 10
243.0137714881581
 20
426.6929273199577
 30
0.0
 40
1.5
100
AcDbArc
 50
89.99999999999998
 51
149.9999999999961
  0
ARC
  5
802
330
CAA
100
AcDbEntity
  8
STEMPEL
100
AcDbCircle
 10
240.4156952768054
 20
428.1929273199578
 30
0.0
 40
1.5
100
AcDbArc
 50
270.0
 51
329.9999999999958
  0
ARC
  5
803
330
CAA
100
AcDbEntity
  8
STEMPEL
100
AcDbCircle
 10
243.0137714881581
 20
426.6929273199577
 30
0.0
 40
0.5
100
AcDbArc
 50
89.99999999999998
 51
149.9999999999961
  0
ARC
  5
804
330
CAA
100
AcDbEntity
  8
STEMPEL
100
AcDbCircle
 10
266.4156952768057
 20
428.1929273199578
 30
0.0
 40
1.5
100
AcDbArc
 50
270.0
 51
329.9999999999922
  0
ARC
  5
805
330
CAA
100
AcDbEntity
  8
STEMPEL
100
AcDbCircle
 10
266.4156952768057
 20
428.1929273199578
 30
0.0
 40
2.5
100
AcDbArc
 50
270.0
 51
329.9999999999922
  0
ARC
  5
806
330
CAA
100
AcDbEntity
  8
STEMPEL
100
AcDbCircle
 10
255.038530622455
 20
427.1929273199577
 30
0.0
 40
1.5
100
AcDbArc
 50
194.4775121859298
 51
270.0
  0
ARC
  5
807
330
CAA
100
AcDbEntity
  8
STEMPEL
100
AcDbCircle
 10
255.2272798150542
 20
427.1929273199577
 30
0.0
 40
1.5
100
AcDbArc
 50
270.0
 51
345.5224878140727
  0
ARC
  5
808
330
CAA
100
AcDbEntity
  8
STEMPEL
100
AcDbCircle
 10
259.9618476995118
 20
428.1929273199578
 30
0.0
 40
2.5
100
AcDbArc
 50
209.9999999999974
 51
270.0
  0
ARC
  5
809
330
CAA
100
AcDbEntity
  8
STEMPEL
100
AcDbCircle
 10
259.9618476995118
 20
428.1929273199578
 30
0.0
 40
1.5
100
AcDbArc
 50
209.9999999999974
 51
270.0
  0
ARC
  5
80A
330
CAA
100
AcDbEntity
  8
STEMPEL
100
AcDbCircle
 10
255.038530622455
 20
427.1929273199577
 30
0.0
 40
0.5
100
AcDbArc
 50
194.4775121859298
 51
270.0
  0
ARC
  5
80B
330
CAA
100
AcDbEntity
  8
STEMPEL
100
AcDbCircle
 10
253.1020389493517
 20
426.6929273199577
 30
0.0
 40
0.5
100
AcDbArc
 50
14.47751218593105
 51
89.99999999999992
  0
ARC
  5
80C
330
CAA
100
AcDbEntity
  8
STEMPEL
100
AcDbCircle
 10
253.1020389493517
 20
426.6929273199577
 30
0.0
 40
1.5
100
AcDbArc
 50
14.47751218593105
 51
89.99999999999992
  0
ARC
  5
80D
330
CAA
100
AcDbEntity
  8
STEMPEL
100
AcDbCircle
 10
257.3637714881582
 20
426.6929273199577
 30
0.0
 40
1.5
100
AcDbArc
 50
29.99999999999758
 51
89.99999999999994
  0
ARC
  5
80E
330
CAA
100
AcDbEntity
  8
STEMPEL
100
AcDbCircle
 10
257.1637714881582
 20
426.6929273199577
 30
0.0
 40
1.5
100
AcDbArc
 50
89.99999999999998
 51
165.5224878140734
  0
ARC
  5
80F
330
CAA
100
AcDbEntity
  8
STEMPEL
100
AcDbCircle
 10
255.2272798150542
 20
427.1929273199577
 30
0.0
 40
0.5
100
AcDbArc
 50
270.0
 51
345.5224878140727
  0
LINE
  5
810
330
CAA
100
AcDbEntity
  8
STEMPEL
100
AcDbLine
 10
255.038530622455
 20
426.6929273199577
 30
0.0
 11
255.2272798150542
 21
426.6929273199577
 31
0.0
  0
ARC
  5
811
330
CAA
100
AcDbEntity
  8
STEMPEL
100
AcDbCircle
 10
257.1637714881582
 20
426.6929273199577
 30
0.0
 40
0.5
100
AcDbArc
 50
89.99999999999998
 51
165.5224878140734
  0
LINE
  5
812
330
CAA
100
AcDbEntity
  8
STEMPEL
100
AcDbLine
 10
257.1637714881582
 20
427.1929273199579
 30
0.0
 11
257.3637714881582
 21
427.1929273199579
 31
0.0
  0
ARC
  5
813
330
CAA
100
AcDbEntity
  8
STEMPEL
100
AcDbCircle
 10
257.3637714881582
 20
426.6929273199577
 30
0.0
 40
0.5
100
AcDbArc
 50
29.99999999999758
 51
89.99999999999994
  0
LINE
  5
814
330
CAA
100
AcDbEntity
  8
STEMPEL
100
AcDbLine
 10
259.9618476995118
 20
426.6929273199578
 30
0.0
 11
266.4156952768057
 21
426.6929273199578
 31
0.0
  0
LINE
  5
815
330
CAA
100
AcDbEntity
  8
STEMPEL
100
AcDbLine
 10
259.9618476995118
 20
426.6929273199577
 30
0.0
 11
266.4156952768057
 21
426.6929273199577
 31
0.0
  0
ARC
  5
816
330
CAA
100
AcDbEntity
  8
STEMPEL
100
AcDbCircle
 10
271.8118476995122
 20
428.1929273199578
 30
0.0
 40
2.5
100
AcDbArc
 50
209.9999999999917
 51
270.0
  0
ARC
  5
817
330
CAA
100
AcDbEntity
  8
STEMPEL
100
AcDbCircle
 10
271.8118476995122
 20
428.1929273199578
 30
0.0
 40
1.5
100
AcDbArc
 50
209.9999999999917
 51
270.0
  0
ARC
  5
818
330
CAA
100
AcDbEntity
  8
STEMPEL
100
AcDbCircle
 10
269.0137714881581
 20
426.6929273199577
 30
0.0
 40
1.5
100
AcDbArc
 50
89.99999999999998
 51
149.9999999999912
  0
ARC
  5
819
330
CAA
100
AcDbEntity
  8
STEMPEL
100
AcDbCircle
 10
269.0137714881581
 20
426.6929273199577
 30
0.0
 40
0.5
100
AcDbArc
 50
89.99999999999998
 51
149.9999999999912
  0
LINE
  5
81A
330
CAA
100
AcDbEntity
  8
STEMPEL
100
AcDbLine
 10
269.0137714881581
 20
427.1929273199577
 30
0.0
 11
269.2137714881582
 21
427.1929273199577
 31
0.0
  0
ARC
  5
81B
330
CAA
100
AcDbEntity
  8
STEMPEL
100
AcDbCircle
 10
269.2137714881582
 20
426.6929273199577
 30
0.0
 40
0.5
100
AcDbArc
 50
29.99999999999219
 51
89.99999999999992
  0
ARC
  5
81C
330
CAA
100
AcDbEntity
  8
STEMPEL
100
AcDbCircle
 10
269.2137714881582
 20
426.6929273199577
 30
0.0
 40
1.5
100
AcDbArc
 50
29.99999999999219
 51
89.99999999999992
  0
ARC
  5
81E
330
CAA
100
AcDbEntity
  8
STEMPEL
100
AcDbCircle
 10
326.3723331044556
 20
420.6929273199578
 30
0.0
 40
5.0
100
AcDbArc
 50
59.46264995169869
 51
90.0
  0
ARC
  5
81F
330
CAA
100
AcDbEntity
  8
STEMPEL
100
AcDbCircle
 10
326.3723331044556
 20
420.6929273199578
 30
0.0
 40
6.0
100
AcDbArc
 50
59.48712567238093
 51
90.0
  0
ARC
  5
820
330
CAA
100
AcDbEntity
  8
STEMPEL
100
AcDbCircle
 10
326.3723331044556
 20
420.6929273199578
 30
0.0
 40
6.0
100
AcDbArc
 50
90.0
 51
90.0
  0
LINE
  5
821
330
CAA
100
AcDbEntity
  8
STEMPEL
100
AcDbLine
 10
355.3723331044555
 20
406.6928693526426
 30
0.0
 11
355.3723331044555
 21
366.6929273199587
 31
0.0
  0
LINE
  5
822
330
CAA
100
AcDbEntity
  8
STEMPEL
100
AcDbLine
 10
356.3723331044556
 20
406.6928693526426
 30
0.0
 11
356.3723331044556
 21
366.6929273199587
 31
0.0
  0
ARC
  5
8BA
330
CAA
100
AcDbEntity
  8
STEMPEL
100
AcDbCircle
 10
350.3723331044555
 20
406.6928693526426
 30
0.0
 40
5.0
100
AcDbArc
 50
0.000000000000007
 51
59.74358352518475
  0
ARC
  5
8BB
330
CAA
100
AcDbEntity
  8
STEMPEL
100
AcDbCircle
 10
355.8834767087672
 20
416.21276430242
 30
0.0
 40
5.0
100
AcDbArc
 50
239.7435628364705
 51
239.9329541615152
  0
ARC
  5
8BC
330
CAA
100
AcDbEntity
  8
STEMPEL
100
AcDbCircle
 10
350.3723331044555
 20
406.6928693526426
 30
0.0
 40
6.0
100
AcDbArc
 50
0.000000000000007
 51
59.74358352518475
  0
LINE
  5
E61
330
CAA
100
AcDbEntity
  8
STEMPEL
100
AcDbLine
 10
136.3723331044554
 20
366.6929273199572
 30
0.0
 11
195.5723331044549
 21
366.6929273199576
 31
0.0
  0
DIMENSION
  5
ED1
330
CAA
100
AcDbEntity
  8
BEM
100
AcDbDimension
  2
*D3
 10
297.172333104455
 20
247.8992818112818
 30
0.0
 11
246.372333104455
 21
253.3992818112817
 31
0.0
 70
    32
  1
%%c<>
 71
     5
 42
101.6
  3
STANDARD
100
AcDbAlignedDimension
 13
195.572333104455
 23
274.6056054341411
 33
0.0
 14
297.172333104455
 24
274.6056054341411
 34
0.0
100
AcDbRotatedDimension
1001
ACAD
1000
DSTYLE
1002
{
1070
    40
1040
2.0
1070
    41
1040
3.5
1070
    42
1040
1.0
1070
    43
1040
7.0
1070
    44
1040
1.0
1070
    47
1040
0.7
1070
    48
1040
0.7
1070
    73
1070
     0
1070
    74
1070
     0
1070
    77
1070
     1
1070
    78
1070
     8
1070
   140
1040
3.5
1070
   141
1040
1.5
1070
   146
1040
0.5142857142857144
1070
   147
1040
1.0
1070
   172
1070
     1
1070
   178
1070
     1
1070
   271
1070
     2
1070
   272
1070
     2
1070
   279
1070
     2
1070
   284
1070
     8
1070
   285
1070
     8
1070
   286
1070
     8
1070
   340
1005
CBD
1002
}
  0
LINE
  5
F22
102
{ACAD_REACTORS
330
1410
102
}
330
CAA
100
AcDbEntity
  8
STEMPEL
100
AcDbLine
 10
195.5723331044549
 20
385.6929273199577
 30
0.0
 11
230.8723331044554
 21
385.6929273199576
 31
0.0
  0
LINE
  5
F23
330
CAA
100
AcDbEntity
  8
STEMPEL
100
AcDbLine
 10
238.8723331044555
 20
425.6929273199578
 30
0.0
 11
238.8723331044554
 21
393.6929273199576
 31
0.0
  0
LINE
  5
F27
330
CAA
100
AcDbEntity
  8
STEMPEL
100
AcDbLine
 10
253.8723331044555
 20
425.6929273199578
 30
0.0
 11
253.8723331044556
 21
393.6929273199577
 31
0.0
  0
LINE
  5
F2C
330
CAA
100
AcDbEntity
  8
STEMPEL
100
AcDbLine
 10
297.1723331044551
 20
366.6929273199583
 30
0.0
 11
356.3723331044556
 21
366.6929273199587
 31
0.0
  0
LINE
  5
F2D
330
CAA
100
AcDbEntity
  8
HILF
100
AcDbLine
 10
238.8723331044555
 20
409.6929273199608
 30
0.0
 11
143.5460000469246
 21
409.6929273199607
 31
0.0
  0
DIMENSION
  5
F2E
330
CAA
100
AcDbEntity
  8
BEM
100
AcDbDimension
  2
*D4
 10
106.9561280023045
 20
426.6929273199575
 30
0.0
 11
100.4561280023044
 21
346.6929273199576
 31
0.0
 70
    32
 71
     5
 42
159.9999999999999
  3
STANDARD
100
AcDbAlignedDimension
 13
196.2646027375758
 23
266.6929273199575
 33
0.0
 14
166.3723331044554
 24
426.6929273199574
 34
0.0
 50
90.0
100
AcDbRotatedDimension
1001
ACAD
1000
DSTYLE
1002
{
1070
    40
1040
2.0
1070
    41
1040
3.5
1070
    42
1040
1.0
1070
    43
1040
7.0
1070
    44
1040
1.0
1070
    47
1040
1.199999999999999
1070
    48
1040
1.199999999999999
1070
    73
1070
     0
1070
    74
1070
     0
1070
    77
1070
     1
1070
    78
1070
     8
1070
    79
1070
     2
1070
   140
1040
3.5
1070
   141
1040
1.5
1070
   146
1040
0.5142857142857144
1070
   147
1040
1.5
1070
   172
1070
     1
1070
   178
1070
     1
1070
   179
1070
     2
1070
   279
1070
     0
1002
}
  0
ARC
  5
100C
330
CAA
100
AcDbEntity
  8
SCHRAFF
100
AcDbCircle
 10
237.9732446327254
 20
423.6427241856072
 30
0.0
 40
2.199188372061828
100
AcDbArc
 50
315.6553004256086
 51
65.86880462275113
  0
ARC
  5
100D
330
CAA
100
AcDbEntity
  8
SCHRAFF
100
AcDbCircle
 10
240.2875822507218
 20
423.6427241856072
 30
0.0
 40
2.199188372061828
100
AcDbArc
 50
315.6553004256086
 51
68.78901385537592
  0
ARC
  5
100E
330
CAA
100
AcDbEntity
  8
SCHRAFF
100
AcDbCircle
 10
242.4476321420431
 20
423.6427241856072
 30
0.0
 40
2.199188372061828
100
AcDbArc
 50
315.6553004256086
 51
68.78901385537592
  0
ARC
  5
100F
330
CAA
100
AcDbEntity
  8
SCHRAFF
100
AcDbCircle
 10
244.5305361956749
 20
423.6427241856072
 30
0.0
 40
2.199188372061828
100
AcDbArc
 50
315.6553004256086
 51
68.78901385537592
  0
ARC
  5
1010
330
CAA
100
AcDbEntity
  8
SCHRAFF
100
AcDbCircle
 10
246.7934439133293
 20
423.6427241856072
 30
0.0
 40
2.199188372061828
100
AcDbArc
 50
315.6553004256086
 51
68.78901385537592
  0
LINE
  5
1037
330
CAA
100
AcDbEntity
  8
HILF
100
AcDbLine
 10
207.2534245321945
 20
466.9556661623243
 30
0.0
 11
107.2698634915018
 21
466.9556661623243
 31
0.0
  0
TEXT
  5
1038
330
CAA
100
AcDbEntity
  8
TEXT
 62
     1
100
AcDbText
 10
109.4456248307755
 20
470.9105439894303
 30
0.0
 40
7.0
  1
3 Stege gleichmäßig
 41
0.8
  7
GREEKS
100
AcDbText
  0
TEXT
  5
1039
330
CAA
100
AcDbEntity
  8
TEXT
 62
     1
100
AcDbText
 10
109.4456248307755
 20
457.8310070378141
 30
0.0
 40
7.0
  1
auf Umfang verteilt
 41
0.8
  7
GREEKS
100
AcDbText
  0
LINE
  5
10EB
102
{ACAD_REACTORS
330
1410
102
}
330
CAA
100
AcDbEntity
  8
STEMPEL
100
AcDbLine
 10
196.2646027375758
 20
266.6929273199575
 30
0.0
 11
296.4800634713341
 21
266.6929273199572
 31
0.0
  0
LINE
  5
10EC
330
CAA
100
AcDbEntity
  8
HILF
100
AcDbLine
 10
198.3761529419983
 20
274.6929273199577
 30
0.0
 11
294.3685132669118
 21
274.6929273199575
 31
0.0
  0
LINE
  5
10F0
102
{ACAD_REACTORS
330
1410
102
}
330
CAA
100
AcDbEntity
  8
STEMPEL
100
AcDbLine
 10
297.1723331044549
 20
274.6056054341411
 30
0.0
 11
296.4800634713341
 21
266.6929273199572
 31
0.0
  0
LINE
  5
1113
102
{ACAD_REACTORS
330
1410
102
}
330
CAA
100
AcDbEntity
  8
STEMPEL
  6
Continuous
100
AcDbLine
 10
297.1723331044552
 20
385.6929273199577
 30
0.0
 11
297.172333104455
 21
274.6056054341411
 31
0.0
  0
LINE
  5
1115
102
{ACAD_REACTORS
330
1410
102
}
330
CAA
100
AcDbEntity
  8
STEMPEL
100
AcDbLine
 10
297.1723331044552
 20
385.6929273199577
 30
0.0
 11
261.8723331044556
 21
385.6929273199577
 31
0.0
  0
TEXT
  5
11AC
330
CAA
100
AcDbEntity
  8
TEXT
100
AcDbText
 10
235.1296391125315
 20
51.50334417585292
 30
0.0
 40
5.0
  1
EDV-Art.Nr. 21203.100X
 41
0.8
  7
GREEKS
100
AcDbText
  0
TEXT
  5
11AD
330
CAA
100
AcDbEntity
  8
BEM
100
AcDbText
 10
416.5811541437437
 20
12.14804815338303
 30
0.0
 40
4.0
  1
Diese Zeichnung ist urheberrechtlich geschützt und bleibt unser Eigentum. Sie darf weder ganz noch teilweise vervielfältigt und nicht an Dritte weitergegeben werden.
 50
90.0
 41
0.8
  7
GREEKS
100
AcDbText
  0
HATCH
  5
1278
330
CAA
100
AcDbEntity
  8
SCHRAFF
100
AcDbHatch
 10
0.0
 20
0.0
 30
0.0
210
0.0
220
0.0
230
1.0
  2
_USER
 70
     0
 71
     0
 91
        3
 92
        7
 72
     1
 73
     1
 93
       34
 10
137.3723331044555
 20
406.6928693526426
 42
-0.2667503951500949
 10
139.8529795363284
 20
411.0117647668389
 42
0.0
 10
163.8318334292795
 20
424.9994179330243
 42
-0.1340385084113124
 10
166.3723331044555
 20
425.6929273199574
 42
0.0
 10
221.1106952768048
 20
425.6929273199577
 42
0.2679491924311371
 10
223.2757587862659
 20
426.9429273199578
 42
-0.2679491924310875
 10
223.7087714881581
 20
427.1929273199577
 42
0.0
 10
223.9087714881583
 20
427.1929273199577
 42
-0.2679491924311275
 10
224.3417841900505
 20
426.9429273199578
 42
0.2679491924311262
 10
226.5068476995116
 20
425.6929273199577
 42
0.0
 10
228.5656952768045
 20
425.6929273199577
 42
0.2679491924311456
 10
230.7307587862657
 20
426.9429273199579
 42
-0.2679491924310822
 10
231.1637714881578
 20
427.1929273199579
 42
0.0
 10
231.3637714881583
 20
427.1929273199579
 42
-0.2679491924311462
 10
231.7967841900505
 20
426.9429273199578
 42
0.2679491924311281
 10
233.9618476995116
 20
425.6929273199577
 42
0.0
 10
235.2828825856899
 20
425.6929273199577
 42
0.0
 10
234.8079482359666
 20
426.6929273199577
 42
0.0
 10
233.9618476995112
 20
426.6929273199577
 42
-0.267949192431115
 10
232.6628095938346
 20
427.4429273199577
 42
0.2859076546238473
 10
231.263771488158
 20
428.1895902746673
 42
0.285907654623854
 10
229.8647333824813
 20
427.4429273199578
 42
-0.2679491924311593
 10
228.5656952768045
 20
426.6929273199577
 42
0.0
 10
226.5068476995121
 20
426.6929273199577
 42
-0.2679491924311477
 10
225.2078095938355
 20
427.4429273199578
 42
0.2859076546238853
 10
223.8087714881586
 20
428.1895902746673
 42
0.2859076546239334
 10
222.4097333824815
 20
427.4429273199578
 42
-0.2679491924311405
 10
221.1106952768048
 20
426.6929273199577
 42
0.0
 10
166.3723331044554
 20
426.6929273199574
 42
0.1316524975832549
 10
163.3723331045399
 20
425.8890797427132
 42
0.0
 10
139.339638482775
 20
411.8700078800176
 42
0.2662608607117814
 10
136.3723331044554
 20
406.6928693526426
 42
0.0
 10
136.3723331044554
 20
366.6929273199573
 42
0.0
 10
137.3723331044555
 20
366.6929273199573
 42
0.0
 97
        0
 92
        7
 72
     1
 73
     1
 93
       39
 10
356.3723331044556
 20
406.6928693526426
 42
0.2662608607119175
 10
353.4050277261333
 20
411.8700078800191
 42
0.0
 10
329.3723331043751
 20
425.8890797427109
 42
0.1316524975834583
 10
326.3723331044556
 20
426.6929273199581
 42
0.0
 10
271.8118476995122
 20
426.6929273199578
 42
-0.2679491924311499
 10
270.5128095938355
 20
427.4429273199579
 42
0.2859076546238981
 10
269.1137714881585
 20
428.1895902746673
 42
0.2859076546238392
 10
267.714733382482
 20
427.4429273199578
 42
-0.2679491924310433
 10
266.4156952768057
 20
426.6929273199577
 42
0.0
 10
259.9618476995118
 20
426.6929273199577
 42
-0.2679491924311347
 10
258.6628095938351
 20
427.4429273199578
 42
0.2859076546238952
 10
257.2637714881582
 20
428.1895902746673
 42
0.3607372083888018
 10
255.7114027333303
 20
427.0679273199577
 42
-0.3419987131197461
 10
255.2272798150542
 20
426.6929273199577
 42
0.0
 10
255.038530622455
 20
426.6929273199577
 42
-0.3419987131196471
 10
254.5544077041791
 20
427.0679273199577
 42
0.3419987131196487
 10
253.1020389493513
 20
428.1929273199578
 42
0.0
 10
246.3723331044555
 20
428.1929273199578
 42
0.0
 10
246.3723331044555
 20
427.1929273199579
 42
0.0
 10
253.1020389493517
 20
427.1929273199579
 42
-0.3419987131196898
 10
253.5861618676276
 20
426.8179273199577
 42
0.3596757619904866
 10
255.1329052187549
 20
425.6958991186291
 42
0.3596757619904711
 10
256.6796485698821
 20
426.8179273199578
 42
-0.3419987131196556
 10
257.163771488158
 20
427.1929273199579
 42
0.0
 10
257.3637714881582
 20
427.1929273199579
 42
-0.2679491924311689
 10
257.7967841900504
 20
426.9429273199578
 42
0.2679491924311181
 10
259.9618476995116
 20
425.6929273199578
 42
0.0
 10
266.4156952768057
 20
425.6929273199578
 42
0.267949192431077
 10
268.5807587862666
 20
426.9429273199575
 42
-0.2679491924312787
 10
269.0137714881589
 20
427.1929273199577
 42
0.0
 10
269.2137714881582
 20
427.1929273199577
 42
-0.2679491924311589
 10
269.6467841900504
 20
426.9429273199577
 42
0.2679491924311057
 10
271.8118476995115
 20
425.6929273199578
 42
0.0
 10
326.3723331044556
 20
425.6929273199581
 42
-0.1340385084113145
 10
328.9128327796315
 20
424.9994179330243
 42
0.0
 10
352.8916866725826
 20
411.0117647668389
 42
-0.2667503951500871
 10
355.3723331044555
 20
406.6928693526427
 42
0.0
 10
355.3723331044556
 20
366.6929273199587
 42
0.0
 10
356.3723331044556
 20
366.6929273199587
 42
0.0
 97
        0
 92
        7
 72
     1
 73
     1
 93
       10
 10
242.5807587862663
 20
426.9429273199576
 42
-0.2679491924312709
 10
243.0137714881586
 20
427.1929273199579
 42
0.0
 10
246.3723331044555
 20
427.1929273199579
 42
0.0
 10
246.3723331044555
 20
428.1929273199578
 42
0.0
 10
243.0137714881581
 20
428.1929273199578
 42
0.2679491924310655
 10
241.7147333824818
 20
427.4429273199578
 42
-0.2679491924310798
 10
240.4156952768054
 20
426.6929273199577
 42
0.0
 10
234.8079482359665
 20
426.6929273199577
 42
0.0
 10
235.2828825856899
 20
425.6929273199578
 42
0.0
 10
240.4156952768054
 20
425.6929273199578
 42
0.2679491924310906
 97
        0
 75
     0
 76
     0
 52
135.0
 41
2.0
 77
     0
 78
     1
 53
135.0
 43
0.0
 44
7.518694469124056
 45
-1.414213562373095
 46
-1.414213562373094
 79
     0
 47
0.2850500429977729
 98
        3
 10
137.0889593118609
 20
395.3566580975278
 10
355.5852860442774
 20
406.188559831434
 10
238.3503107282177
 20
426.4271132917397
  0
LINE
  5
1396
102
{ACAD_REACTORS
330
1410
102
}
330
CAA
100
AcDbEntity
  8
STEMPEL
  6
Continuous
100
AcDbLine
 10
295.9723331044551
 20
385.6929273199576
 30
0.0
 11
295.9723331044551
 21
274.6579985656326
 31
0.0
  0
LINE
  5
1397
102
{ACAD_REACTORS
330
1410
102
}
330
CAA
100
AcDbEntity
  8
STEMPEL
100
AcDbLine
 10
295.9723331044551
 20
274.6579985656326
 30
0.0
 11
295.2754796662821
 21
266.6929273199573
 31
0.0
  0
LINE
  5
13A3
102
{ACAD_REACTORS
330
1410
102
}
330
CAA
100
AcDbEntity
  8
STEMPEL
  6
Continuous
100
AcDbLine
 10
196.7723331044549
 20
385.6929273199576
 30
0.0
 11
196.772333104455
 21
274.6579985656326
 31
0.0
  0
LINE
  5
13A4
102
{ACAD_REACTORS
330
1410
102
}
330
CAA
100
AcDbEntity
  8
STEMPEL
  6
Continuous
100
AcDbLine
 10
195.5723331044549
 20
385.6929273199577
 30
0.0
 11
195.572333104455
 21
274.6056054341411
 31
0.0
  0
LINE
  5
13A5
102
{ACAD_REACTORS
330
1410
102
}
330
CAA
100
AcDbEntity
  8
STEMPEL
100
AcDbLine
 10
196.772333104455
 20
274.6579985656326
 30
0.0
 11
197.4691865426279
 21
266.6929273199576
 31
0.0
  0
LINE
  5
13A6
102
{ACAD_REACTORS
330
1410
102
}
330
CAA
100
AcDbEntity
  8
STEMPEL
100
AcDbLine
 10
195.5723331044551
 20
274.6056054341411
 30
0.0
 11
196.2646027375758
 21
266.6929273199575
 31
0.0
  0
HATCH
  5
1410
330
CAA
100
AcDbEntity
  8
SCHRAFF
100
AcDbHatch
 10
0.0
 20
0.0
 30
0.0
210
0.0
220
0.0
230
1.0
  2
_USER
 70
     0
 71
     1
 91
        2
 92
        7
 72
     0
 73
     1
 93
        6
 10
195.572333104455
 20
274.605605434143
 10
196.2646027375759
 20
266.6929273199576
 10
197.4691865426279
 20
266.6929273199575
 10
196.772333104455
 20
274.6579985656329
 10
196.772333104455
 20
385.6929273199577
 10
195.5723331044549
 20
385.6929273199577
 97
        6
330
F22
330
13A4
330
13A6
330
10EB
330
13A5
330
13A3
 92
        7
 72
     0
 73
     1
 93
        6
 10
297.1723331044552
 20
385.6929273199577
 10
295.9723331044551
 20
385.6929273199577
 10
295.9723331044551
 20
274.657998565632
 10
295.2754796662822
 20
266.6929273199573
 10
296.4800634713341
 20
266.6929273199572
 10
297.172333104455
 20
274.6056054341429
 97
        6
330
1115
330
1396
330
1397
330
10EB
330
10F0
330
1113
 75
     0
 76
     0
 52
45.0
 41
2.0
 77
     0
 78
     1
 53
45.0
 43
0.0
 44
0.0
 45
-1.414213562373094
 46
1.414213562373095
 79
     0
 47
0.2719858109023475
 98
        2
 10
195.9876904335519
 20
341.6297642354984
 10
296.9709366890234
 20
333.4701900130049
  0
ARC
  5
142F
330
CAA
100
AcDbEntity
  8
STEMPEL
100
AcDbCircle
 10
261.8723331044556
 20
393.6929273199577
 30
0.0
 40
8.0
100
AcDbArc
 50
180.0000000000001
 51
270.0
  0
ARC
  5
1430
330
CAA
100
AcDbEntity
  8
STEMPEL
100
AcDbCircle
 10
230.8723331044554
 20
393.6929273199576
 30
0.0
 40
8.0
100
AcDbArc
 50
270.0
 51
359.9999999999998
  0
ARC
  5
1448
330
CAA
100
AcDbEntity
  8
SCHRAFF
100
AcDbCircle
 10
249.0563516309834
 20
423.6427241856072
 30
0.0
 40
2.199188372061828
100
AcDbArc
 50
315.6553004256086
 51
68.78901385537592
  0
ARC
  5
1449
330
CAA
100
AcDbEntity
  8
SCHRAFF
100
AcDbCircle
 10
251.3192593486375
 20
423.6427241856073
 30
0.0
 40
2.199188372061828
100
AcDbArc
 50
315.6553004256086
 51
68.78901385537592
  0
LINE
  5
147C
330
CAA
100
AcDbEntity
  8
HILF
100
AcDbLine
 10
207.2534245321945
 20
466.9556661623243
 30
0.0
 11
223.431827813896
 21
441.8883895821926
 31
0.0
  0
TEXT
  5
1485
330
CAA
100
AcDbEntity
  8
TEXT
 62
     1
100
AcDbText
 10
243.6562946911111
 20
294.6483945132787
 30
0.0
 40
7.0
  1
DN100
 50
90.0
 41
0.8
  7
GREEKS
100
AcDbText
  0
TEXT
  5
14A2
330
CAA
100
AcDbEntity
  8
TEXT
 62
     1
100
AcDbText
 10
323.3367378878162
 20
152.2880692258443
 30
0.0
 40
7.0
  1
1.4404 Rohr
 41
0.8
  7
GREEKS
100
AcDbText
  0
TEXT
  5
14D1
330
CAA
100
AcDbEntity
  8
TEXT
100
AcDbText
 10
43.34645482349265
 20
113.4538584725371
 30
0.0
 40
5.0
  1
erstellt mit AUTOCAD 2004
 41
0.8
  7
GREEKS
100
AcDbText
  0
LINE
  5
14E4
330
CAA
100
AcDbEntity
  8
HILF
100
AcDbLine
 10
225.7623672659799
 20
438.2773857019536
 30
0.0
 11
238.8723331044555
 21
417.9644330633675
 31
0.0
  0
ENDSEC
  0
SECTION
  2
OBJECTS
  0
DICTIONARY
  5
C98
330
0
100
AcDbDictionary
281
     1
  3
ACAD_COLOR
350
E43
  3
ACAD_GROUP
350
C99
  3
ACAD_LAYOUT
350
CA5
  3
ACAD_MATERIAL
350
E42
  3
ACAD_MLINESTYLE
350
CA2
  3
ACAD_PLOTSETTINGS
350
CA4
  3
ACAD_PLOTSTYLENAME
350
C9A
  3
AcDbVariableDictionary
350
134E
  0
DICTIONARY
  5
E43
102
{ACAD_REACTORS
330
C98
102
}
330
C98
100
AcDbDictionary
281
     1
  0
DICTIONARY
  5
C99
102
{ACAD_REACTORS
330
C98
102
}
330
C98
100
AcDbDictionary
281
     1
  0
DICTIONARY
  5
CA5
102
{ACAD_REACTORS
330
C98
102
}
330
C98
100
AcDbDictionary
281
     1
  3
Layout1
350
CA9
  3
Model
350
CAD
  0
DICTIONARY
  5
E42
102
{ACAD_REACTORS
330
C98
102
}
330
C98
100
AcDbDictionary
281
     1
  0
DICTIONARY
  5
CA2
102
{ACAD_REACTORS
330
C98
102
}
330
C98
100
AcDbDictionary
281
     1
  3
Standard
350
CA3
  0
DICTIONARY
  5
CA4
102
{ACAD_REACTORS
330
C98
102
}
330
C98
100
AcDbDictionary
281
     1
  0
ACDBDICTIONARYWDFLT
  5
C9A
102
{ACAD_REACTORS
330
C98
102
}
330
C98
100
AcDbDictionary
281
     1
  3
Normal
350
C9B
100
AcDbDictionaryWithDefault
340
C9B
  0
DICTIONARY
  5
134E
102
{ACAD_REACTORS
330
C98
102
}
330
C98
100
AcDbDictionary
281
     1
  3
DIMASSOC
350
134F
  3
PROJECTNAME
350
1350
  0
LAYOUT
  5
CA9
102
{ACAD_REACTORS
330
CA5
102
}
330
CA5
100
AcDbPlotSettings
  1

  2
Tektronix Phaser 740
  4

  6

 40
0.0
 41
0.0
 42
0.0
 43
0.0
 44
0.0
 45
0.0
 46
0.0
 47
0.0
 48
0.0
 49
0.0
140
0.0
141
0.0
142
1.0
143
1.0
 70
   688
 72
     0
 73
     0
 74
     5
  7
monochrome.ctb
 75
    16
147
1.0
 76
     0
 77
     2
 78
   300
148
0.0
149
0.0
100
AcDbLayout
  1
Layout1
 70
     0
 71
     1
 10
0.0
 20
0.0
 11
12.0
 21
9.0
 12
0.0
 22
0.0
 32
0.0
 14
1.000000000000000E+20
 24
1.000000000000000E+20
 34
1.000000000000000E+20
 15
-1.000000000000000E+20
 25
-1.000000000000000E+20
 35
-1.000000000000000E+20
146
0.0
 13
0.0
 23
0.0
 33
0.0
 16
1.0
 26
0.0
 36
0.0
 17
0.0
 27
1.0
 37
0.0
 76
     0
330
CA6
  0
LAYOUT
  5
CAD
102
{ACAD_REACTORS
330
CA5
102
}
330
CA5
100
AcDbPlotSettings
  1

  2
RICOH Aficio 2027 PCL 6
  4
A4
  6

 40
5.027083
 41
5.027084999999999
 42
5.027084
 43
5.027069
 44
209.973328
 45
296.925995
 46
0.0
 47
2.06
 48
1042.885493
 49
150.676778
140
1462.885493
141
744.676778
142
1.0
143
2.100849152723284
 70
 11956
 72
     1
 73
     0
 74
     2
  7
monochrome1.ctb
 75
     0
147
0.4759980023809526
 76
     1
 77
     2
 78
   300
148
0.0
149
0.0
100
AcDbLayout
  1
Model
 70
     1
 71
     0
 10
0.0
 20
0.0
 11
12.0
 21
9.0
 12
0.0
 22
0.0
 32
0.0
 14
0.0
 24
0.0
 34
0.0
 15
0.0
 25
0.0
 35
0.0
146
0.0
 13
0.0
 23
0.0
 33
0.0
 16
1.0
 26
0.0
 36
0.0
 17
0.0
 27
1.0
 37
0.0
 76
     0
330
CAA
  0
MLINESTYLE
  5
CA3
102
{ACAD_REACTORS
330
CA2
102
}
330
CA2
100
AcDbMlineStyle
  2
STANDARD
 70
     0
  3

 62
   256
 51
90.0
 52
90.0
 71
     2
 49
0.5
 62
   256
  6
BYLAYER
 49
-0.5
 62
   256
  6
BYLAYER
  0
ACDBPLACEHOLDER
  5
C9B
102
{ACAD_REACTORS
330
C9A
102
}
330
C9A
  0
DICTIONARYVAR
  5
134F
102
{ACAD_REACTORS
330
134E
102
}
330
134E
100
DictionaryVariables
280
     0
  1
1
  0
DICTIONARYVAR
  5
1350
102
{ACAD_REACTORS
330
134E
102
}
330
134E
100
DictionaryVariables
280
     0
  1

  0
ENDSEC
  0
EOF
