  0
SECTION
  2
HEADER
  9
$ACADVER
  1
AC1018
  9
$ACADMAINTVER
 70
     2
  9
$DWGCODEPAGE
  3
ANSI_1252
  9
$INSBASE
 10
0.0
 20
0.0
 30
0.0
  9
$EXTMIN
 10
0.0
 20
-0.0000000000003411
 30
0.0
  9
$EXTMAX
 10
1050.0
 20
742.4999999999999
 30
0.0
  9
$LIMMIN
 10
0.0
 20
0.0
  9
$LIMMAX
 10
1050.0
 20
742.4999999999997
  9
$ORTHOMODE
 70
     1
  9
$REGENMODE
 70
     1
  9
$FILLMODE
 70
     1
  9
$QTEXTMODE
 70
     0
  9
$MIRRTEXT
 70
     1
  9
$LTSCALE
 40
25.0
  9
$ATTMODE
 70
     1
  9
$TEXTSIZE
 40
3.5
  9
$TRACEWID
 40
1.0
  9
$TEXTSTYLE
  7
STANDARD
  9
$CLAYER
  8
SCHRAFF
  9
$CELTYPE
  6
ByLayer
  9
$CECOLOR
 62
   256
  9
$CELTSCALE
 40
1.0
  9
$DISPSILH
 70
     0
  9
$DIMSCALE
 40
2.5
  9
$DIMASZ
 40
3.5
  9
$DIMEXO
 40
1.0
  9
$DIMDLI
 40
7.0
  9
$DIMRND
 40
0.0
  9
$DIMDLE
 40
0.0
  9
$DIMEXE
 40
1.0
  9
$DIMTP
 40
0.0
  9
$DIMTM
 40
0.0
  9
$DIMTXT
 40
3.5
  9
$DIMCEN
 40
1.5
  9
$DIMTSZ
 40
0.0
  9
$DIMTOL
 70
     0
  9
$DIMLIM
 70
     0
  9
$DIMTIH
 70
     0
  9
$DIMTOH
 70
     0
  9
$DIMSE1
 70
     0
  9
$DIMSE2
 70
     0
  9
$DIMTAD
 70
     1
  9
$DIMZIN
 70
     8
  9
$DIMBLK
  1

  9
$DIMASO
 70
     1
  9
$DIMSHO
 70
     0
  9
$DIMPOST
  1

  9
$DIMAPOST
  1

  9
$DIMALT
 70
     0
  9
$DIMALTD
 70
     2
  9
$DIMALTF
 40
25.4
  9
$DIMLFAC
 40
1.0
  9
$DIMTOFL
 70
     1
  9
$DIMTVP
 40
0.0
  9
$DIMTIX
 70
     0
  9
$DIMSOXD
 70
     0
  9
$DIMSAH
 70
     0
  9
$DIMBLK1
  1

  9
$DIMBLK2
  1

  9
$DIMSTYLE
  2
Standard
  9
$DIMCLRD
 70
     0
  9
$DIMCLRE
 70
     0
  9
$DIMCLRT
 70
     1
  9
$DIMTFAC
 40
0.5142857142857144
  9
$DIMGAP
 40
1.5
  9
$DIMJUST
 70
     0
  9
$DIMSD1
 70
     0
  9
$DIMSD2
 70
     0
  9
$DIMTOLJ
 70
     1
  9
$DIMTZIN
 70
     8
  9
$DIMALTZ
 70
     8
  9
$DIMALTTZ
 70
     8
  9
$DIMUPT
 70
     0
  9
$DIMDEC
 70
     2
  9
$DIMTDEC
 70
     2
  9
$DIMALTU
 70
     2
  9
$DIMALTTD
 70
     2
  9
$DIMTXSTY
  7
STANDARD
  9
$DIMAUNIT
 70
     0
  9
$DIMADEC
 70
     2
  9
$DIMALTRND
 40
0.0
  9
$DIMAZIN
 70
     2
  9
$DIMDSEP
 70
    46
  9
$DIMATFIT
 70
     3
  9
$DIMFRAC
 70
     0
  9
$DIMLDRBLK
  1

  9
$DIMLUNIT
 70
     2
  9
$DIMLWD
 70
    -2
  9
$DIMLWE
 70
    -2
  9
$DIMTMOVE
 70
     0
  9
$LUNITS
 70
     2
  9
$LUPREC
 70
     2
  9
$SKETCHINC
 40
1.0
  9
$FILLETRAD
 40
5.0
  9
$AUNITS
 70
     0
  9
$AUPREC
 70
     0
  9
$MENU
  1
ACAD
  9
$ELEVATION
 40
0.0
  9
$PELEVATION
 40
0.0
  9
$THICKNESS
 40
0.0
  9
$LIMCHECK
 70
     0
  9
$CHAMFERA
 40
0.0
  9
$CHAMFERB
 40
0.0
  9
$CHAMFERC
 40
0.0
  9
$CHAMFERD
 40
0.0
  9
$SKPOLY
 70
     0
  9
$TDCREATE
 40
2455397.825393172
  9
$TDUCREATE
 40
2455397.783726505
  9
$TDUPDATE
 40
2455502.370255370
  9
$TDUUPDATE
 40
2455502.328588704
  9
$TDINDWG
 40
0.5938502083
  9
$TDUSRTIMER
 40
0.5938502083
  9
$USRTIMER
 70
     1
  9
$ANGBASE
 50
0.0
  9
$ANGDIR
 70
     0
  9
$PDMODE
 70
     0
  9
$PDSIZE
 40
0.0
  9
$PLINEWID
 40
0.0
  9
$SPLFRAME
 70
     0
  9
$SPLINETYPE
 70
     6
  9
$SPLINESEGS
 70
     8
  9
$HANDSEED
  5
6FD2
  9
$SURFTAB1
 70
     6
  9
$SURFTAB2
 70
     6
  9
$SURFTYPE
 70
     6
  9
$SURFU
 70
     6
  9
$SURFV
 70
     6
  9
$UCSBASE
  2

  9
$UCSNAME
  2

  9
$UCSORG
 10
0.0
 20
0.0
 30
0.0
  9
$UCSXDIR
 10
1.0
 20
0.0
 30
0.0
  9
$UCSYDIR
 10
0.0
 20
1.0
 30
0.0
  9
$UCSORTHOREF
  2

  9
$UCSORTHOVIEW
 70
     0
  9
$UCSORGTOP
 10
0.0
 20
0.0
 30
0.0
  9
$UCSORGBOTTOM
 10
0.0
 20
0.0
 30
0.0
  9
$UCSORGLEFT
 10
0.0
 20
0.0
 30
0.0
  9
$UCSORGRIGHT
 10
0.0
 20
0.0
 30
0.0
  9
$UCSORGFRONT
 10
0.0
 20
0.0
 30
0.0
  9
$UCSORGBACK
 10
0.0
 20
0.0
 30
0.0
  9
$PUCSBASE
  2

  9
$PUCSNAME
  2

  9
$PUCSORG
 10
0.0
 20
0.0
 30
0.0
  9
$PUCSXDIR
 10
1.0
 20
0.0
 30
0.0
  9
$PUCSYDIR
 10
0.0
 20
1.0
 30
0.0
  9
$PUCSORTHOREF
  2

  9
$PUCSORTHOVIEW
 70
     0
  9
$PUCSORGTOP
 10
0.0
 20
0.0
 30
0.0
  9
$PUCSORGBOTTOM
 10
0.0
 20
0.0
 30
0.0
  9
$PUCSORGLEFT
 10
0.0
 20
0.0
 30
0.0
  9
$PUCSORGRIGHT
 10
0.0
 20
0.0
 30
0.0
  9
$PUCSORGFRONT
 10
0.0
 20
0.0
 30
0.0
  9
$PUCSORGBACK
 10
0.0
 20
0.0
 30
0.0
  9
$USERI1
 70
     0
  9
$USERI2
 70
     0
  9
$USERI3
 70
     0
  9
$USERI4
 70
     0
  9
$USERI5
 70
     0
  9
$USERR1
 40
0.0
  9
$USERR2
 40
0.0
  9
$USERR3
 40
0.0
  9
$USERR4
 40
0.0
  9
$USERR5
 40
0.0
  9
$WORLDVIEW
 70
     1
  9
$SHADEDGE
 70
     3
  9
$SHADEDIF
 70
    70
  9
$TILEMODE
 70
     1
  9
$MAXACTVP
 70
    16
  9
$PINSBASE
 10
0.0
 20
0.0
 30
0.0
  9
$PLIMCHECK
 70
     0
  9
$PEXTMIN
 10
1.000000000000000E+20
 20
1.000000000000000E+20
 30
1.000000000000000E+20
  9
$PEXTMAX
 10
-1.000000000000000E+20
 20
-1.000000000000000E+20
 30
-1.000000000000000E+20
  9
$PLIMMIN
 10
0.0
 20
0.0
  9
$PLIMMAX
 10
12.0
 20
9.0
  9
$UNITMODE
 70
     0
  9
$VISRETAIN
 70
     0
  9
$PLINEGEN
 70
     0
  9
$PSLTSCALE
 70
     0
  9
$TREEDEPTH
 70
  3020
  9
$CMLSTYLE
  2
Standard
  9
$CMLJUST
 70
     0
  9
$CMLSCALE
 40
1.0
  9
$PROXYGRAPHICS
 70
     1
  9
$MEASUREMENT
 70
     0
  9
$CELWEIGHT
370
    -1
  9
$ENDCAPS
280
     0
  9
$JOINSTYLE
280
     0
  9
$LWDISPLAY
290
     0
  9
$INSUNITS
 70
     0
  9
$HYPERLINKBASE
  1

  9
$STYLESHEET
  1
monochrome 1.ctb
  9
$XEDIT
290
     1
  9
$CEPSNTYPE
380
     0
  9
$PSTYLEMODE
290
     1
  9
$FINGERPRINTGUID
  2
{D68B0D0D-A558-11D7-B632-000102183313}
  9
$VERSIONGUID
  2
{C4C062CF-5D4B-48A6-A7B5-5A01CD38C5BA}
  9
$EXTNAMES
290
     1
  9
$PSVPSCALE
 40
0.0
  9
$OLESTARTUP
290
     0
  9
$SORTENTS
280
   127
  9
$INDEXCTL
280
     0
  9
$HIDETEXT
280
     0
  9
$XCLIPFRAME
290
     0
  9
$HALOGAP
280
     0
  9
$OBSCOLOR
 70
   257
  9
$OBSLTYPE
280
     0
  9
$INTERSECTIONDISPLAY
280
     0
  9
$INTERSECTIONCOLOR
 70
   257
  9
$DIMASSOC
280
     1
  9
$PROJECTNAME
  1

  0
ENDSEC
  0
SECTION
  2
CLASSES
  0
CLASS
  1
ACDBDICTIONARYWDFLT
  2
AcDbDictionaryWithDefault
  3
ObjectDBX Classes
 90
        0
 91
        1
280
     0
281
     0
  0
CLASS
  1
DICTIONARYVAR
  2
AcDbDictionaryVar
  3
ObjectDBX Classes
 90
        0
 91
        2
280
     0
281
     0
  0
ENDSEC
  0
SECTION
  2
TABLES
  0
TABLE
  2
VPORT
  5
8
330
0
100
AcDbSymbolTable
 70
     2
  0
VPORT
  5
6FD1
330
8
100
AcDbSymbolTableRecord
100
AcDbViewportTableRecord
  2
*Active
 70
     0
 10
0.0
 20
0.0
 11
1.0
 21
1.0
 12
524.995390472204
 22
371.2527696224391
 13
0.0
 23
0.0
 14
1.0
 24
1.0
 15
10.0
 25
10.0
 16
0.0
 26
0.0
 36
1.0
 17
0.0
 27
0.0
 37
0.0
 40
790.2093072939269
 41
1.336927223719676
 42
50.0
 43
0.0
 44
0.0
 50
0.0
 51
0.0
 71
     0
 72
  1500
 73
     1
 74
     0
 75
     0
 76
     0
 77
     0
 78
     0
281
     0
 65
     1
110
0.0
120
0.0
130
0.0
111
1.0
121
0.0
131
0.0
112
0.0
122
1.0
132
0.0
 79
     0
146
0.0
  0
ENDTAB
  0
TABLE
  2
LTYPE
  5
5
330
0
100
AcDbSymbolTable
 70
     2
  0
LTYPE
  5
13
330
5
100
AcDbSymbolTableRecord
100
AcDbLinetypeTableRecord
  2
ByBlock
 70
     0
  3

 72
    65
 73
     0
 40
0.0
  0
LTYPE
  5
14
330
5
100
AcDbSymbolTableRecord
100
AcDbLinetypeTableRecord
  2
ByLayer
 70
     0
  3

 72
    65
 73
     0
 40
0.0
  0
LTYPE
  5
15
330
5
100
AcDbSymbolTableRecord
100
AcDbLinetypeTableRecord
  2
Continuous
 70
     0
  3
Solid line
 72
    65
 73
     0
 40
0.0
  0
LTYPE
  5
25
330
5
100
AcDbSymbolTableRecord
100
AcDbLinetypeTableRecord
  2
STRICHPUNKT
 70
     0
  3
__ . __ . __ . __ . __ . __ . __ . __ . __ . __
 72
    65
 73
     4
 40
1.0
 49
0.5
 74
     0
 49
-0.25
 74
     0
 49
0.0
 74
     0
 49
-0.25
 74
     0
  0
ENDTAB
  0
TABLE
  2
LAYER
  5
2
330
0
100
AcDbSymbolTable
 70
     9
  0
LAYER
  5
10
330
2
100
AcDbSymbolTableRecord
100
AcDbLayerTableRecord
  2
0
 70
     0
 62
     7
  6
Continuous
370
    -3
390
F
  0
LAYER
  5
2B
330
2
100
AcDbSymbolTableRecord
100
AcDbLayerTableRecord
  2
VOLL
 70
     0
 62
     1
  6
Continuous
370
    -3
390
F
  0
LAYER
  5
2C
330
2
100
AcDbSymbolTableRecord
100
AcDbLayerTableRecord
  2
HILF
 70
     0
 62
     2
  6
Continuous
370
    -3
390
F
  0
LAYER
  5
2D
330
2
100
AcDbSymbolTableRecord
100
AcDbLayerTableRecord
  2
MITTEL
 70
     0
 62
     2
  6
STRICHPUNKT
370
    -3
390
F
  0
LAYER
  5
2F
330
2
100
AcDbSymbolTableRecord
100
AcDbLayerTableRecord
  2
BEM
 70
     0
 62
     7
  6
Continuous
370
    -3
390
F
  0
LAYER
  5
30
330
2
100
AcDbSymbolTableRecord
100
AcDbLayerTableRecord
  2
STEMPEL
 70
     0
 62
     3
  6
Continuous
370
    -3
390
F
  0
LAYER
  5
33
330
2
100
AcDbSymbolTableRecord
100
AcDbLayerTableRecord
  2
TEXT
 70
     0
 62
     7
  6
Continuous
370
    -3
390
F
  0
LAYER
  5
5C9D
330
2
100
AcDbSymbolTableRecord
100
AcDbLayerTableRecord
  2
Defpoints
 70
     0
 62
     7
  6
Continuous
290
     0
370
    -3
390
F
  0
LAYER
  5
5D7A
330
2
100
AcDbSymbolTableRecord
100
AcDbLayerTableRecord
  2
SCHRAFF
 70
     0
 62
     7
  6
Continuous
370
    -3
390
F
  0
ENDTAB
  0
TABLE
  2
STYLE
  5
3
330
0
100
AcDbSymbolTable
 70
     2
  0
STYLE
  5
11
330
3
100
AcDbSymbolTableRecord
100
AcDbTextStyleTableRecord
  2
STANDARD
 70
     0
 40
0.0
 41
0.8
 50
0.0
 71
     0
 42
3.5
  3
simplex.shx
  4

  0
STYLE
  5
24
330
3
100
AcDbSymbolTableRecord
100
AcDbTextStyleTableRecord
  2
GREEKS
 70
     0
 40
0.0
 41
0.8
 50
0.0
 71
     0
 42
2.5
  3
SIMPLEX.shx
  4

  0
ENDTAB
  0
TABLE
  2
VIEW
  5
6
330
0
100
AcDbSymbolTable
 70
     0
  0
ENDTAB
  0
TABLE
  2
UCS
  5
7
330
0
100
AcDbSymbolTable
 70
     0
  0
ENDTAB
  0
TABLE
  2
APPID
  5
9
330
0
100
AcDbSymbolTable
 70
     1
  0
APPID
  5
12
330
9
100
AcDbSymbolTableRecord
100
AcDbRegAppTableRecord
  2
ACAD
 70
     0
  0
ENDTAB
  0
TABLE
  2
DIMSTYLE
  5
A
330
0
100
AcDbSymbolTable
 70
     1
100
AcDbDimStyleTable
 71
     1
340
A2
  0
DIMSTYLE
105
A2
102
{ACAD_REACTORS
330
5CB3
330
637B
330
65C7
330
6DC7
330
6E12
330
6E3C
330
6E49
102
}
330
A
100
AcDbSymbolTableRecord
100
AcDbDimStyleTableRecord
  2
Standard
 70
     0
340
11
  0
ENDTAB
  0
TABLE
  2
BLOCK_RECORD
  5
1
330
0
100
AcDbSymbolTable
 70
     9
  0
BLOCK_RECORD
  5
1E
102
{ACAD_XDICTIONARY
360
DB
102
}
330
1
100
AcDbSymbolTableRecord
100
AcDbBlockTableRecord
  2
*Model_Space
340
21
  0
BLOCK_RECORD
  5
1A
102
{ACAD_XDICTIONARY
360
DD
102
}
330
1
100
AcDbSymbolTableRecord
100
AcDbBlockTableRecord
  2
*Paper_Space
340
1D
  0
BLOCK_RECORD
  5
22
330
1
100
AcDbSymbolTableRecord
100
AcDbBlockTableRecord
  2
LOGO
340
0
102
{BLKREFS
331
56
102
}
  0
BLOCK_RECORD
  5
23
330
1
100
AcDbSymbolTableRecord
100
AcDbBlockTableRecord
  2
LORO
340
0
102
{BLKREFS
331
9B
102
}
  0
BLOCK_RECORD
  5
5CB4
330
1
100
AcDbSymbolTableRecord
100
AcDbBlockTableRecord
  2
*D2
340
0
  0
BLOCK_RECORD
  5
637C
330
1
100
AcDbSymbolTableRecord
100
AcDbBlockTableRecord
  2
*D3
340
0
  0
BLOCK_RECORD
  5
65C8
330
1
100
AcDbSymbolTableRecord
100
AcDbBlockTableRecord
  2
*D4
340
0
  0
BLOCK_RECORD
  5
6DC8
330
1
100
AcDbSymbolTableRecord
100
AcDbBlockTableRecord
  2
*D5
340
0
  0
BLOCK_RECORD
  5
6E13
330
1
100
AcDbSymbolTableRecord
100
AcDbBlockTableRecord
  2
*D6
340
0
  0
BLOCK_RECORD
  5
6E3D
330
1
100
AcDbSymbolTableRecord
100
AcDbBlockTableRecord
  2
*D7
340
0
  0
BLOCK_RECORD
  5
6E4A
330
1
100
AcDbSymbolTableRecord
100
AcDbBlockTableRecord
  2
*D8
340
0
  0
ENDTAB
  0
ENDSEC
  0
SECTION
  2
BLOCKS
  0
BLOCK
  5
37
330
1E
100
AcDbEntity
  8
0
100
AcDbBlockBegin
  2
*Model_Space
 70
     0
 10
0.0
 20
0.0
 30
0.0
  3
*Model_Space
  1

  0
ENDBLK
  5
38
330
1E
100
AcDbEntity
  8
0
100
AcDbBlockEnd
  0
BLOCK
  5
35
330
1A
100
AcDbEntity
 67
     1
  8
0
100
AcDbBlockBegin
  2
*Paper_Space
 70
     0
 10
0.0
 20
0.0
 30
0.0
  3
*Paper_Space
  1

  0
ENDBLK
  5
36
330
1A
100
AcDbEntity
 67
     1
  8
0
100
AcDbBlockEnd
  0
BLOCK
  5
39
330
22
100
AcDbEntity
  8
0
100
AcDbBlockBegin
  2
LOGO
 70
     0
 10
0.0
 20
0.0
 30
0.0
  3
LOGO
  1

  0
ARC
  5
3A
330
22
100
AcDbEntity
  8
0
100
AcDbCircle
 10
11.59973089678112
 20
-9.271599258481501
 30
0.0
 40
4.5
100
AcDbArc
 50
270.0
 51
231.0575587310159
  0
LINE
  5
3B
330
22
100
AcDbEntity
  8
0
100
AcDbLine
 10
3.599730896781125
 20
-4.771599258481529
 30
0.0
 11
3.599730896781153
 21
-11.77159925848133
 31
0.0
  0
LINE
  5
3C
330
22
100
AcDbEntity
  8
0
100
AcDbLine
 10
2.599730896781125
 20
-4.771599258481529
 30
0.0
 11
2.599730896781153
 21
-11.77159925848133
 31
0.0
  0
CIRCLE
  5
3D
330
22
100
AcDbEntity
  8
0
100
AcDbCircle
 10
11.59973089678112
 20
-9.271599258481501
 30
0.0
 40
3.5
  0
ARC
  5
3E
330
22
100
AcDbEntity
  8
0
100
AcDbCircle
 10
31.59973089678115
 20
-9.271599258481472
 30
0.0
 40
4.5
100
AcDbArc
 50
270.0
 51
231.0575587310182
  0
LINE
  5
3F
330
22
100
AcDbEntity
  8
0
100
AcDbLine
 10
17.59973089678112
 20
-4.771599258481472
 30
0.0
 11
17.59973089678115
 21
-13.77159925848147
 31
0.0
  0
ARC
  5
40
330
22
100
AcDbEntity
  8
0
100
AcDbCircle
 10
22.59973089678116
 20
-7.271599258481472
 30
0.0
 40
2.5
100
AcDbArc
 50
293.1161887722295
 51
90.0
  0
CIRCLE
  5
41
330
22
100
AcDbEntity
  8
0
100
AcDbCircle
 10
31.59973089678115
 20
-9.271599258481472
 30
0.0
 40
3.5
  0
ARC
  5
42
330
22
100
AcDbEntity
  8
0
100
AcDbCircle
 10
4.599730896781153
 20
-11.77159925848133
 30
0.0
 40
1.0
100
AcDbArc
 50
180.0
 51
270.0
  0
ARC
  5
43
330
22
100
AcDbEntity
  8
0
100
AcDbCircle
 10
4.599730896781153
 20
-11.77159925848133
 30
0.0
 40
2.0
100
AcDbArc
 50
179.9999999999992
 51
270.0
  0
LINE
  5
44
330
22
100
AcDbEntity
  8
0
100
AcDbLine
 10
11.59973089678115
 20
-13.77159925848144
 30
0.0
 11
4.599730896781153
 21
-13.77159925848147
 31
0.0
  0
LINE
  5
45
330
22
100
AcDbEntity
  8
0
100
AcDbLine
 10
8.771303772034769
 20
-12.77159925848136
 30
0.0
 11
4.599730896781153
 21
-12.77159925848133
 31
0.0
  0
LINE
  5
46
330
22
100
AcDbEntity
  8
0
100
AcDbLine
 10
31.59973089678115
 20
-13.77159925848147
 30
0.0
 11
23.6715276665056
 21
-13.77159925848144
 31
0.0
  0
LINE
  5
47
330
22
100
AcDbEntity
  8
0
100
AcDbLine
 10
23.56565672307022
 20
-9.51278021337896
 30
0.0
 11
24.4388546544846
 21
-12.77159925848144
 31
0.0
  0
LINE
  5
48
330
22
100
AcDbEntity
  8
0
100
AcDbLine
 10
22.59973089678116
 20
-9.771599258481472
 30
0.0
 11
18.59973089678112
 21
-9.771599258481472
 31
0.0
  0
LINE
  5
49
330
22
100
AcDbEntity
  8
0
100
AcDbLine
 10
18.59973089678115
 20
-13.77159925848144
 30
0.0
 11
17.59973089678115
 21
-13.77159925848144
 31
0.0
  0
LINE
  5
4A
330
22
100
AcDbEntity
  8
0
100
AcDbLine
 10
18.59973089678115
 20
-9.771599258481472
 30
0.0
 11
18.59973089678115
 21
-13.77159925848144
 31
0.0
  0
LINE
  5
4B
330
22
100
AcDbEntity
  8
0
100
AcDbLine
 10
22.59973089678116
 20
-9.771599258481472
 30
0.0
 11
23.67152766650562
 21
-13.77159925848147
 31
0.0
  0
ARC
  5
4C
330
22
100
AcDbEntity
  8
0
100
AcDbCircle
 10
22.59973089678116
 20
-7.271599258481472
 30
0.0
 40
2.5
100
AcDbArc
 50
270.0
 51
270.0000000000007
  0
LINE
  5
4D
330
22
100
AcDbEntity
  8
0
100
AcDbLine
 10
28.77130377203494
 20
-12.77159925848147
 30
0.0
 11
24.43885465448463
 21
-12.77159925848144
 31
0.0
  0
LINE
  5
4E
330
22
100
AcDbEntity
  8
0
100
AcDbLine
 10
3.599730896781125
 20
-4.771599258481472
 30
0.0
 11
2.599730896781125
 21
-4.771599258481472
 31
0.0
  0
LINE
  5
4F
330
22
100
AcDbEntity
  8
0
100
AcDbLine
 10
22.59973089678116
 20
-8.771599258481472
 30
0.0
 11
18.59973089678115
 21
-8.771599258481472
 31
0.0
  0
LINE
  5
50
330
22
100
AcDbEntity
  8
0
100
AcDbLine
 10
22.59973089678116
 20
-5.771599258481472
 30
0.0
 11
18.59973089678115
 21
-5.771599258481472
 31
0.0
  0
LINE
  5
51
330
22
100
AcDbEntity
  8
0
100
AcDbLine
 10
22.59973089678116
 20
-4.771599258481472
 30
0.0
 11
17.59973089678115
 21
-4.771599258481472
 31
0.0
  0
LINE
  5
52
330
22
100
AcDbEntity
  8
0
100
AcDbLine
 10
18.59973089678115
 20
-5.771599258481472
 30
0.0
 11
18.59973089678115
 21
-8.771599258481472
 31
0.0
  0
ARC
  5
53
330
22
100
AcDbEntity
  8
0
100
AcDbCircle
 10
22.59973089678116
 20
-7.271599258481472
 30
0.0
 40
1.5
100
AcDbArc
 50
270.0
 51
90.0
  0
ENDBLK
  5
54
330
22
100
AcDbEntity
  8
0
100
AcDbBlockEnd
  0
BLOCK
  5
55
330
23
100
AcDbEntity
  8
0
100
AcDbBlockBegin
  2
LORO
 70
     0
 10
0.0
 20
0.0
 30
0.0
  3
LORO
  1

  0
INSERT
  5
56
330
23
100
AcDbEntity
  8
STEMPEL
100
AcDbBlockReference
  2
LOGO
 10
-1.748032802467321
 20
3.771489518552062
 30
0.0
  0
ENDBLK
  5
57
330
23
100
AcDbEntity
  8
0
100
AcDbBlockEnd
  0
BLOCK
  5
5CBE
330
5CB4
100
AcDbEntity
  8
0
100
AcDbBlockBegin
  2
*D2
 70
     1
 10
0.0
 20
0.0
 30
0.0
  3
*D2
  1

  0
LINE
  5
6E09
330
5CB4
100
AcDbEntity
  8
BEM
 62
     0
370
    -2
100
AcDbLine
 10
777.3101114380834
 20
557.1622052529816
 30
0.0
 11
777.3101114380834
 21
659.521675752193
 31
0.0
  0
LINE
  5
6E0A
330
5CB4
100
AcDbEntity
  8
BEM
 62
     0
370
    -2
100
AcDbLine
 10
295.8452821623971
 20
557.1622052529818
 30
0.0
 11
295.8452821623971
 21
659.521675752193
 31
0.0
  0
LINE
  5
6E0B
330
5CB4
100
AcDbEntity
  8
BEM
 62
     0
370
    -2
100
AcDbLine
 10
768.5601114380833
 20
657.0216757521929
 30
0.0
 11
304.5952821623972
 21
657.0216757521929
 31
0.0
  0
SOLID
  5
6E0C
330
5CB4
100
AcDbEntity
  8
BEM
 62
     0
100
AcDbTrace
 10
768.5601114380833
 20
658.4800090855264
 30
0.0
 11
768.5601114380833
 21
655.5633424188596
 31
0.0
 12
777.3101114380834
 22
657.0216757521929
 32
0.0
 13
777.3101114380834
 23
657.0216757521929
 33
0.0
  0
SOLID
  5
6E0D
330
5CB4
100
AcDbEntity
  8
BEM
 62
     0
100
AcDbTrace
 10
304.5952821623972
 20
658.4800090855264
 30
0.0
 11
304.5952821623972
 21
655.5633424188596
 31
0.0
 12
295.8452821623971
 22
657.0216757521929
 32
0.0
 13
295.8452821623971
 23
657.0216757521929
 33
0.0
  0
MTEXT
  5
6E0E
330
5CB4
100
AcDbEntity
  8
BEM
 62
     1
100
AcDbMText
 10
536.5776968002402
 20
665.146675752193
 30
0.0
 40
8.75
 41
0.0
 71
     5
 72
     1
  1
\A1;%%c482
 73
     1
 44
1.0
  0
POINT
  5
6E0F
330
5CB4
100
AcDbEntity
  8
Defpoints
 62
     0
100
AcDbPoint
 10
777.3101114380834
 20
554.6622052529816
 30
0.0
  0
POINT
  5
6E10
330
5CB4
100
AcDbEntity
  8
Defpoints
 62
     0
100
AcDbPoint
 10
295.8452821623971
 20
554.6622052529818
 30
0.0
  0
POINT
  5
6E11
330
5CB4
100
AcDbEntity
  8
Defpoints
 62
     0
100
AcDbPoint
 10
295.8452821623971
 20
657.0216757521929
 30
0.0
  0
ENDBLK
  5
5CBF
330
5CB4
100
AcDbEntity
  8
0
100
AcDbBlockEnd
  0
BLOCK
  5
6386
330
637C
100
AcDbEntity
  8
0
100
AcDbBlockBegin
  2
*D3
 70
     1
 10
0.0
 20
0.0
 30
0.0
  3
*D3
  1

  0
LINE
  5
6DF5
330
637C
100
AcDbEntity
  8
BEM
 62
     0
370
    -2
100
AcDbLine
 10
267.5776968002402
 20
535.6622052529819
 30
0.0
 11
256.9564030892788
 21
535.6622052529819
 31
0.0
  0
LINE
  5
6DF6
330
637C
100
AcDbEntity
  8
BEM
 62
     0
370
    -2
100
AcDbLine
 10
378.3452821623972
 20
643.6622052529818
 30
0.0
 11
256.9564030892789
 21
643.6622052529818
 31
0.0
  0
LINE
  5
6DF7
330
637C
100
AcDbEntity
  8
BEM
 62
     0
370
    -2
100
AcDbLine
 10
259.4564030892789
 20
544.4122052529819
 30
0.0
 11
259.4564030892789
 21
634.9122052529818
 31
0.0
  0
SOLID
  5
6DF8
330
637C
100
AcDbEntity
  8
BEM
 62
     0
100
AcDbTrace
 10
257.9980697559455
 20
544.4122052529819
 30
0.0
 11
260.9147364226122
 21
544.4122052529819
 31
0.0
 12
259.4564030892789
 22
535.6622052529819
 32
0.0
 13
259.4564030892789
 23
535.6622052529819
 33
0.0
  0
SOLID
  5
6DF9
330
637C
100
AcDbEntity
  8
BEM
 62
     0
100
AcDbTrace
 10
257.9980697559455
 20
634.9122052529818
 30
0.0
 11
260.9147364226122
 21
634.9122052529818
 31
0.0
 12
259.4564030892789
 22
643.6622052529818
 32
0.0
 13
259.4564030892789
 23
643.6622052529818
 33
0.0
  0
MTEXT
  5
6DFA
330
637C
100
AcDbEntity
  8
BEM
 62
     1
100
AcDbMText
 10
251.3314030892788
 20
589.6622052529819
 30
0.0
 40
8.75
 41
0.0
 71
     5
 72
     1
  1
\A1;108
 11
0.0000000000000001
 21
1.0
 31
0.0
 73
     1
 44
1.0
  0
POINT
  5
6DFB
330
637C
100
AcDbEntity
  8
Defpoints
 62
     0
100
AcDbPoint
 10
270.0776968002402
 20
535.6622052529819
 30
0.0
  0
POINT
  5
6DFC
330
637C
100
AcDbEntity
  8
Defpoints
 62
     0
100
AcDbPoint
 10
380.8452821623971
 20
643.6622052529818
 30
0.0
  0
POINT
  5
6DFD
330
637C
100
AcDbEntity
  8
Defpoints
 62
     0
100
AcDbPoint
 10
259.4564030892789
 20
643.6622052529818
 30
0.0
  0
ENDBLK
  5
6387
330
637C
100
AcDbEntity
  8
0
100
AcDbBlockEnd
  0
BLOCK
  5
65D2
330
65C8
100
AcDbEntity
  8
0
100
AcDbBlockBegin
  2
*D4
 70
     1
 10
0.0
 20
0.0
 30
0.0
  3
*D4
  1

  0
LINE
  5
6DEC
330
65C8
100
AcDbEntity
  8
BEM
 62
     0
370
    -2
100
AcDbLine
 10
270.0776968002402
 20
539.6622052529819
 30
0.0
 11
270.0776968002402
 21
679.947832939687
 31
0.0
  0
LINE
  5
6DED
330
65C8
100
AcDbEntity
  8
BEM
 62
     0
370
    -2
100
AcDbLine
 10
803.0776968002403
 20
539.6622052529819
 30
0.0
 11
803.0776968002403
 21
679.947832939687
 31
0.0
  0
LINE
  5
6DEE
330
65C8
100
AcDbEntity
  8
BEM
 62
     0
370
    -2
100
AcDbLine
 10
278.8276968002402
 20
677.447832939687
 30
0.0
 11
794.3276968002403
 21
677.447832939687
 31
0.0
  0
SOLID
  5
6DEF
330
65C8
100
AcDbEntity
  8
BEM
 62
     0
100
AcDbTrace
 10
278.8276968002402
 20
678.9061662730204
 30
0.0
 11
278.8276968002402
 21
675.9894996063536
 31
0.0
 12
270.0776968002402
 22
677.447832939687
 32
0.0
 13
270.0776968002402
 23
677.447832939687
 33
0.0
  0
SOLID
  5
6DF0
330
65C8
100
AcDbEntity
  8
BEM
 62
     0
100
AcDbTrace
 10
794.3276968002403
 20
678.9061662730204
 30
0.0
 11
794.3276968002403
 21
675.9894996063536
 31
0.0
 12
803.0776968002403
 22
677.447832939687
 32
0.0
 13
803.0776968002403
 23
677.447832939687
 33
0.0
  0
MTEXT
  5
6DF1
330
65C8
100
AcDbEntity
  8
BEM
 62
     1
100
AcDbMText
 10
536.5776968002402
 20
685.572832939687
 30
0.0
 40
8.75
 41
0.0
 71
     5
 72
     1
  1
\A1;%%c533
 73
     1
 44
1.0
  0
POINT
  5
6DF2
330
65C8
100
AcDbEntity
  8
Defpoints
 62
     0
100
AcDbPoint
 10
270.0776968002402
 20
537.1622052529819
 30
0.0
  0
POINT
  5
6DF3
330
65C8
100
AcDbEntity
  8
Defpoints
 62
     0
100
AcDbPoint
 10
803.0776968002403
 20
537.1622052529819
 30
0.0
  0
POINT
  5
6DF4
330
65C8
100
AcDbEntity
  8
Defpoints
 62
     0
100
AcDbPoint
 10
803.0776968002403
 20
677.447832939687
 30
0.0
  0
ENDBLK
  5
65D3
330
65C8
100
AcDbEntity
  8
0
100
AcDbBlockEnd
  0
BLOCK
  5
6DD4
330
6DC8
100
AcDbEntity
  8
0
100
AcDbBlockBegin
  2
*D5
 70
     1
 10
0.0
 20
0.0
 30
0.0
  3
*D5
  1

  0
LINE
  5
6DE1
330
6DC8
100
AcDbEntity
  8
BEM
 62
     0
370
    -2
100
AcDbLine
 10
267.5776968002402
 20
535.6622052529819
 30
0.0
 11
256.9564030892789
 21
535.6622052529819
 31
0.0
  0
LINE
  5
6DE2
330
6DC8
100
AcDbEntity
  8
BEM
 62
     0
370
    -2
100
AcDbLine
 10
267.5776968002403
 20
520.6622052529819
 30
0.0
 11
256.9564030892789
 21
520.6622052529819
 31
0.0
  0
LINE
  5
6DE3
330
6DC8
100
AcDbEntity
  8
BEM
 62
     0
370
    -2
100
AcDbLine
 10
259.4564030892789
 20
544.4122052529819
 30
0.0
 11
259.4564030892789
 21
553.1622052529819
 31
0.0
  0
LINE
  5
6DE4
330
6DC8
100
AcDbEntity
  8
BEM
 62
     0
370
    -2
100
AcDbLine
 10
259.4564030892789
 20
511.912205252982
 30
0.0
 11
259.4564030892789
 21
485.662205252982
 31
0.0
  0
LINE
  5
6DE5
330
6DC8
100
AcDbEntity
  8
BEM
 62
     0
370
    -2
100
AcDbLine
 10
259.4564030892789
 20
535.6622052529819
 30
0.0
 11
259.4564030892789
 21
520.6622052529819
 31
0.0
  0
SOLID
  5
6DE6
330
6DC8
100
AcDbEntity
  8
BEM
 62
     0
100
AcDbTrace
 10
257.9980697559456
 20
544.4122052529819
 30
0.0
 11
260.9147364226122
 21
544.4122052529819
 31
0.0
 12
259.4564030892789
 22
535.6622052529819
 32
0.0
 13
259.4564030892789
 23
535.6622052529819
 33
0.0
  0
SOLID
  5
6DE7
330
6DC8
100
AcDbEntity
  8
BEM
 62
     0
100
AcDbTrace
 10
257.9980697559456
 20
511.912205252982
 30
0.0
 11
260.9147364226122
 21
511.912205252982
 31
0.0
 12
259.4564030892789
 22
520.6622052529819
 32
0.0
 13
259.4564030892789
 23
520.6622052529819
 33
0.0
  0
MTEXT
  5
6DE8
330
6DC8
100
AcDbEntity
  8
BEM
 62
     1
100
AcDbMText
 10
251.3314030892789
 20
494.412205252982
 30
0.0
 40
8.75
 41
0.0
 71
     5
 72
     1
  1
\A1;15
 11
0.0000000000000001
 21
1.0
 31
0.0
 73
     1
 44
1.0
  0
POINT
  5
6DE9
330
6DC8
100
AcDbEntity
  8
Defpoints
 62
     0
100
AcDbPoint
 10
270.0776968002402
 20
535.6622052529819
 30
0.0
  0
POINT
  5
6DEA
330
6DC8
100
AcDbEntity
  8
Defpoints
 62
     0
100
AcDbPoint
 10
270.0776968002403
 20
520.6622052529819
 30
0.0
  0
POINT
  5
6DEB
330
6DC8
100
AcDbEntity
  8
Defpoints
 62
     0
100
AcDbPoint
 10
259.4564030892789
 20
520.6622052529819
 30
0.0
  0
ENDBLK
  5
6DD5
330
6DC8
100
AcDbEntity
  8
0
100
AcDbBlockEnd
  0
BLOCK
  5
6E1D
330
6E13
100
AcDbEntity
  8
0
100
AcDbBlockBegin
  2
*D6
 70
     1
 10
0.0
 20
0.0
 30
0.0
  3
*D6
  1

  0
LINE
  5
6E1F
330
6E13
100
AcDbEntity
  8
BEM
 62
     0
370
    -2
100
AcDbLine
 10
457.0776968002403
 20
251.1622052529822
 30
0.0
 11
457.0776968002403
 21
210.7857817942208
 31
0.0
  0
LINE
  5
6E20
330
6E13
100
AcDbEntity
  8
BEM
 62
     0
370
    -2
100
AcDbLine
 10
616.0776968002403
 20
251.1622052529826
 30
0.0
 11
616.0776968002403
 21
210.7857817942208
 31
0.0
  0
LINE
  5
6E21
330
6E13
100
AcDbEntity
  8
BEM
 62
     0
370
    -2
100
AcDbLine
 10
465.8276968002404
 20
213.2857817942209
 30
0.0
 11
607.3276968002403
 21
213.2857817942209
 31
0.0
  0
SOLID
  5
6E22
330
6E13
100
AcDbEntity
  8
BEM
 62
     0
100
AcDbTrace
 10
465.8276968002404
 20
214.7441151275542
 30
0.0
 11
465.8276968002404
 21
211.8274484608875
 31
0.0
 12
457.0776968002403
 22
213.2857817942209
 32
0.0
 13
457.0776968002403
 23
213.2857817942209
 33
0.0
  0
SOLID
  5
6E23
330
6E13
100
AcDbEntity
  8
BEM
 62
     0
100
AcDbTrace
 10
607.3276968002403
 20
214.7441151275542
 30
0.0
 11
607.3276968002403
 21
211.8274484608875
 31
0.0
 12
616.0776968002403
 22
213.2857817942209
 32
0.0
 13
616.0776968002403
 23
213.2857817942209
 33
0.0
  0
MTEXT
  5
6E24
330
6E13
100
AcDbEntity
  8
BEM
 62
     1
100
AcDbMText
 10
536.5776968002403
 20
221.4107817942208
 30
0.0
 40
8.75
 41
0.0
 71
     5
 72
     1
  1
\A1;%%c159
 73
     1
 44
1.0
  0
POINT
  5
6E25
330
6E13
100
AcDbEntity
  8
Defpoints
 62
     0
100
AcDbPoint
 10
457.0776968002403
 20
253.6622052529822
 30
0.0
  0
POINT
  5
6E26
330
6E13
100
AcDbEntity
  8
Defpoints
 62
     0
100
AcDbPoint
 10
616.0776968002403
 20
253.6622052529826
 30
0.0
  0
POINT
  5
6E27
330
6E13
100
AcDbEntity
  8
Defpoints
 62
     0
100
AcDbPoint
 10
616.0776968002403
 20
213.2857817942209
 30
0.0
  0
ENDBLK
  5
6E1E
330
6E13
100
AcDbEntity
  8
0
100
AcDbBlockEnd
  0
BLOCK
  5
6E47
330
6E3D
100
AcDbEntity
  8
0
100
AcDbBlockBegin
  2
*D7
 70
     1
 10
0.0
 20
0.0
 30
0.0
  3
*D7
  1

  0
LINE
  5
6E3E
330
6E3D
100
AcDbEntity
  8
BEM
 62
     0
370
    -2
100
AcDbLine
 10
617.0903895202997
 20
236.662205252982
 30
0.0
 11
737.3495025268756
 21
236.6622052529819
 31
0.0
  0
LINE
  5
6E3F
330
6E3D
100
AcDbEntity
  8
BEM
 62
     0
370
    -2
100
AcDbLine
 10
704.0776968002401
 20
516.6622052529821
 30
0.0
 11
737.3495025268757
 21
516.6622052529821
 31
0.0
  0
LINE
  5
6E40
330
6E3D
100
AcDbEntity
  8
BEM
 62
     0
370
    -2
100
AcDbLine
 10
734.8495025268756
 20
245.4122052529819
 30
0.0
 11
734.8495025268757
 21
507.9122052529821
 31
0.0
  0
SOLID
  5
6E41
330
6E3D
100
AcDbEntity
  8
BEM
 62
     0
100
AcDbTrace
 10
733.3911691935423
 20
245.4122052529819
 30
0.0
 11
736.307835860209
 21
245.4122052529819
 31
0.0
 12
734.8495025268756
 22
236.6622052529819
 32
0.0
 13
734.8495025268756
 23
236.6622052529819
 33
0.0
  0
SOLID
  5
6E42
330
6E3D
100
AcDbEntity
  8
BEM
 62
     0
100
AcDbTrace
 10
733.3911691935424
 20
507.9122052529821
 30
0.0
 11
736.3078358602091
 21
507.9122052529821
 31
0.0
 12
734.8495025268757
 22
516.6622052529821
 32
0.0
 13
734.8495025268757
 23
516.6622052529821
 33
0.0
  0
MTEXT
  5
6E43
330
6E3D
100
AcDbEntity
  8
BEM
 62
     1
100
AcDbMText
 10
726.7245025268756
 20
376.6622052529821
 30
0.0
 40
8.75
 41
0.0
 71
     5
 72
     1
  1
\A1;280
 11
0.0000000000000001
 21
1.0
 31
0.0
 73
     1
 44
1.0
  0
POINT
  5
6E44
330
6E3D
100
AcDbEntity
  8
Defpoints
 62
     0
100
AcDbPoint
 10
614.5903895202998
 20
236.662205252982
 30
0.0
  0
POINT
  5
6E45
330
6E3D
100
AcDbEntity
  8
Defpoints
 62
     0
100
AcDbPoint
 10
701.5776968002401
 20
516.6622052529821
 30
0.0
  0
POINT
  5
6E46
330
6E3D
100
AcDbEntity
  8
Defpoints
 62
     0
100
AcDbPoint
 10
734.8495025268757
 20
516.6622052529821
 30
0.0
  0
ENDBLK
  5
6E48
330
6E3D
100
AcDbEntity
  8
0
100
AcDbBlockEnd
  0
BLOCK
  5
6E56
330
6E4A
100
AcDbEntity
  8
0
100
AcDbBlockBegin
  2
*D8
 70
     1
 10
0.0
 20
0.0
 30
0.0
  3
*D8
  1

  0
LINE
  5
6E4B
330
6E4A
100
AcDbEntity
  8
BEM
 62
     0
370
    -2
100
AcDbLine
 10
704.0776968002401
 20
516.6622052529821
 30
0.0
 11
721.8204950758836
 21
516.6622052529821
 31
0.0
  0
LINE
  5
6E4C
330
6E4A
100
AcDbEntity
  8
BEM
 62
     0
370
    -2
100
AcDbLine
 10
704.0776968002403
 20
510.6622052529819
 30
0.0
 11
721.8204950758836
 21
510.6622052529819
 31
0.0
  0
LINE
  5
6E4D
330
6E4A
100
AcDbEntity
  8
BEM
 62
     0
370
    -2
100
AcDbLine
 10
719.3204950758836
 20
525.4122052529822
 30
0.0
 11
719.3204950758836
 21
534.1622052529821
 31
0.0
  0
LINE
  5
6E4E
330
6E4A
100
AcDbEntity
  8
BEM
 62
     0
370
    -2
100
AcDbLine
 10
719.3204950758836
 20
501.9122052529819
 30
0.0
 11
719.3204950758836
 21
481.3288719196486
 31
0.0
  0
LINE
  5
6E4F
330
6E4A
100
AcDbEntity
  8
BEM
 62
     0
370
    -2
100
AcDbLine
 10
719.3204950758836
 20
516.6622052529821
 30
0.0
 11
719.3204950758836
 21
510.6622052529819
 31
0.0
  0
SOLID
  5
6E50
330
6E4A
100
AcDbEntity
  8
BEM
 62
     0
100
AcDbTrace
 10
717.8621617425502
 20
525.4122052529822
 30
0.0
 11
720.778828409217
 21
525.4122052529822
 31
0.0
 12
719.3204950758836
 22
516.6622052529821
 32
0.0
 13
719.3204950758836
 23
516.6622052529821
 33
0.0
  0
SOLID
  5
6E51
330
6E4A
100
AcDbEntity
  8
BEM
 62
     0
100
AcDbTrace
 10
717.8621617425502
 20
501.9122052529819
 30
0.0
 11
720.778828409217
 21
501.9122052529819
 31
0.0
 12
719.3204950758836
 22
510.6622052529819
 32
0.0
 13
719.3204950758836
 23
510.6622052529819
 33
0.0
  0
MTEXT
  5
6E52
330
6E4A
100
AcDbEntity
  8
BEM
 62
     1
100
AcDbMText
 10
711.1954950758835
 20
487.2455385863154
 30
0.0
 40
8.75
 41
0.0
 71
     5
 72
     1
  1
\A1;6
 11
0.0000000000000001
 21
1.0
 31
0.0
 73
     1
 44
1.0
  0
POINT
  5
6E53
330
6E4A
100
AcDbEntity
  8
Defpoints
 62
     0
100
AcDbPoint
 10
701.5776968002401
 20
516.6622052529821
 30
0.0
  0
POINT
  5
6E54
330
6E4A
100
AcDbEntity
  8
Defpoints
 62
     0
100
AcDbPoint
 10
701.5776968002403
 20
510.6622052529819
 30
0.0
  0
POINT
  5
6E55
330
6E4A
100
AcDbEntity
  8
Defpoints
 62
     0
100
AcDbPoint
 10
719.3204950758836
 20
510.6622052529819
 30
0.0
  0
ENDBLK
  5
6E57
330
6E4A
100
AcDbEntity
  8
0
100
AcDbBlockEnd
  0
ENDSEC
  0
SECTION
  2
ENTITIES
  0
LINE
  5
58
330
1E
100
AcDbEntity
  8
STEMPEL
100
AcDbLine
 10
1037.5
 20
137.4999999999998
 30
0.0
 11
587.5000000000002
 21
137.4999999999999
 31
0.0
  0
LINE
  5
59
330
1E
100
AcDbEntity
  8
STEMPEL
100
AcDbLine
 10
587.5000000000002
 20
137.4999999999999
 30
0.0
 11
587.5000000000002
 21
12.49999999999988
 31
0.0
  0
LINE
  5
5A
330
1E
100
AcDbEntity
  8
STEMPEL
100
AcDbLine
 10
707.5000000000002
 20
137.4999999999996
 30
0.0
 11
707.5000000000002
 21
12.49999999999966
 31
0.0
  0
LINE
  5
5B
330
1E
100
AcDbEntity
  8
STEMPEL
100
AcDbLine
 10
812.5
 20
137.4999999999999
 30
0.0
 11
812.5
 21
12.49999999999988
 31
0.0
  0
LINE
  5
5C
330
1E
100
AcDbEntity
  8
STEMPEL
100
AcDbLine
 10
940.0000000000002
 20
137.4999999999993
 30
0.0
 11
940.0000000000002
 21
49.99999999999977
 31
0.0
  0
LINE
  5
5D
330
1E
100
AcDbEntity
  8
STEMPEL
100
AcDbLine
 10
707.5
 20
37.49999999999989
 30
0.0
 11
587.5000000000002
 21
37.49999999999989
 31
0.0
  0
LINE
  5
5E
330
1E
100
AcDbEntity
  8
STEMPEL
100
AcDbLine
 10
1037.5
 20
49.99999999999966
 30
0.0
 11
707.5000000000002
 21
49.99999999999989
 31
0.0
  0
LINE
  5
5F
330
1E
100
AcDbEntity
  8
STEMPEL
100
AcDbLine
 10
1037.5
 20
99.99999999999978
 30
0.0
 11
707.5000000000002
 21
99.99999999999989
 31
0.0
  0
LINE
  5
60
330
1E
100
AcDbEntity
  8
VOLL
100
AcDbLine
 10
605.0000000000002
 20
137.4999999999999
 30
0.0
 11
605.0000000000002
 21
12.49999999999988
 31
0.0
  0
LINE
  5
61
330
1E
100
AcDbEntity
  8
VOLL
100
AcDbLine
 10
655.0000000000002
 20
137.4999999999998
 30
0.0
 11
655.0000000000002
 21
12.49999999999977
 31
0.0
  0
LINE
  5
62
330
1E
100
AcDbEntity
  8
VOLL
100
AcDbLine
 10
680.0000000000002
 20
137.4999999999998
 30
0.0
 11
680.0000000000002
 21
12.49999999999977
 31
0.0
  0
LINE
  5
63
330
1E
100
AcDbEntity
  8
VOLL
100
AcDbLine
 10
730.0000000000002
 20
99.99999999999989
 30
0.0
 11
730.0000000000002
 21
49.99999999999989
 31
0.0
  0
LINE
  5
64
330
1E
100
AcDbEntity
  8
VOLL
100
AcDbLine
 10
762.5000000000002
 20
137.4999999999996
 30
0.0
 11
762.5000000000002
 21
49.99999999999989
 31
0.0
  0
LINE
  5
65
330
1E
100
AcDbEntity
  8
HILF
100
AcDbLine
 10
587.5000000000002
 20
124.9999999999999
 30
0.0
 11
707.5000000000002
 21
124.9999999999999
 31
0.0
  0
LINE
  5
66
330
1E
100
AcDbEntity
  8
HILF
100
AcDbLine
 10
587.5000000000002
 20
112.4999999999999
 30
0.0
 11
707.5000000000002
 21
112.4999999999999
 31
0.0
  0
LINE
  5
67
330
1E
100
AcDbEntity
  8
HILF
100
AcDbLine
 10
587.5000000000002
 20
99.99999999999989
 30
0.0
 11
707.5000000000002
 21
99.99999999999989
 31
0.0
  0
LINE
  5
68
330
1E
100
AcDbEntity
  8
HILF
100
AcDbLine
 10
587.5000000000002
 20
87.49999999999989
 30
0.0
 11
707.5000000000002
 21
87.49999999999989
 31
0.0
  0
LINE
  5
69
330
1E
100
AcDbEntity
  8
HILF
100
AcDbLine
 10
587.5000000000002
 20
74.99999999999989
 30
0.0
 11
707.5000000000002
 21
74.99999999999989
 31
0.0
  0
LINE
  5
6A
330
1E
100
AcDbEntity
  8
HILF
100
AcDbLine
 10
587.5000000000002
 20
62.49999999999989
 30
0.0
 11
707.5000000000002
 21
62.49999999999989
 31
0.0
  0
LINE
  5
6B
330
1E
100
AcDbEntity
  8
HILF
100
AcDbLine
 10
587.5000000000002
 20
49.99999999999989
 30
0.0
 11
707.5000000000002
 21
49.99999999999989
 31
0.0
  0
LINE
  5
6C
330
1E
100
AcDbEntity
  8
HILF
100
AcDbLine
 10
707.5000000000002
 20
87.49999999999989
 30
0.0
 11
812.5
 21
87.49999999999989
 31
0.0
  0
LINE
  5
6D
330
1E
100
AcDbEntity
  8
HILF
100
AcDbLine
 10
707.5000000000002
 20
74.99999999999989
 30
0.0
 11
812.5
 21
74.99999999999989
 31
0.0
  0
LINE
  5
6E
330
1E
100
AcDbEntity
  8
HILF
100
AcDbLine
 10
707.5000000000002
 20
62.49999999999989
 30
0.0
 11
812.5
 21
62.49999999999989
 31
0.0
  0
LINE
  5
6F
330
1E
100
AcDbEntity
  8
HILF
100
AcDbLine
 10
818.4671001371183
 20
105.0469780945515
 30
0.0
 11
933.2872303143515
 21
105.0469780945513
 31
0.0
  0
LINE
  5
70
330
1E
100
AcDbEntity
  8
HILF
100
AcDbLine
 10
818.4671001371183
 20
87.49999999999989
 30
0.0
 11
933.2872303143515
 21
87.49999999999976
 31
0.0
  0
LINE
  5
71
330
1E
100
AcDbEntity
  8
HILF
100
AcDbLine
 10
818.4671001371183
 20
74.99999999999989
 30
0.0
 11
933.2872303143515
 21
74.99999999999977
 31
0.0
  0
LINE
  5
72
330
1E
100
AcDbEntity
  8
HILF
100
AcDbLine
 10
818.4671001371183
 20
62.49999999999989
 30
0.0
 11
933.2872303143515
 21
62.49999999999977
 31
0.0
  0
LINE
  5
73
330
1E
100
AcDbEntity
  8
VOLL
100
AcDbLine
 10
940.0000000000002
 20
74.99999999999977
 30
0.0
 11
1037.5
 21
74.99999999999977
 31
0.0
  0
LINE
  5
74
330
1E
100
AcDbEntity
  8
HILF
100
AcDbLine
 10
945.9048270371242
 20
104.7247954619474
 30
0.0
 11
1031.073604915841
 21
104.7247954619474
 31
0.0
  0
LINE
  5
75
330
1E
100
AcDbEntity
  8
HILF
100
AcDbLine
 10
818.4671001371183
 20
18.61747822535369
 30
0.0
 11
1031.073604915841
 21
18.61747822535358
 31
0.0
  0
TEXT
  5
76
330
1E
100
AcDbEntity
  8
TEXT
100
AcDbText
 10
615.4997799079122
 20
23.34227368730143
 30
0.0
 40
5.0
  1
Änderung
 41
0.8
  7
GREEKS
 72
     1
 11
628.9283513364837
 21
23.34227368730143
 31
0.0
100
AcDbText
  0
TEXT
  5
78
330
1E
100
AcDbEntity
  8
TEXT
100
AcDbText
 10
716.8954465187973
 20
128.0776118858858
 30
0.0
 40
6.25
  1
Maßstab
 41
0.8
  7
GREEKS
100
AcDbText
  0
TEXT
  5
79
330
1E
100
AcDbEntity
  8
TEXT
100
AcDbText
 10
818.5974254761262
 20
128.1861660014722
 30
0.0
 40
6.25
  1
Benennung
 41
0.8
  7
GREEKS
100
AcDbText
  0
TEXT
  5
7A
330
1E
100
AcDbEntity
  8
TEXT
100
AcDbText
 10
945.2234436970426
 20
127.8915043171418
 30
0.0
 40
6.25
  1
Zeichnungs Nr.
 41
0.8
  7
GREEKS
100
AcDbText
  0
TEXT
  5
7B
330
1E
100
AcDbEntity
  8
TEXT
100
AcDbText
 10
818.42779798892
 20
38.55700712741299
 30
0.0
 40
6.25
  1
Bauvorhaben
 41
0.8
  7
GREEKS
100
AcDbText
  0
TEXT
  5
7C
330
1E
100
AcDbEntity
  8
TEXT
100
AcDbText
 10
945.9048270371242
 20
91.47647796374929
 30
0.0
 40
6.25
  1
Ersatz für:
 41
0.8
  7
GREEKS
100
AcDbText
  0
TEXT
  5
7D
330
1E
100
AcDbEntity
  8
TEXT
100
AcDbText
 10
597.8330138380722
 20
17.06832307533972
 30
0.0
 40
5.0
  1
Index
 50
89.99999999999998
 41
0.8
  7
GREEKS
100
AcDbText
  0
TEXT
  5
7E
330
1E
100
AcDbEntity
  8
TEXT
100
AcDbText
 10
662.3737641483725
 20
23.33945336674748
 30
0.0
 40
5.0
  1
Tag
 41
0.8
  7
GREEKS
 72
     1
 11
667.0404308150391
 21
23.33945336674748
 31
0.0
100
AcDbText
  0
TEXT
  5
7F
330
1E
100
AcDbEntity
  8
TEXT
100
AcDbText
 10
686.2244597672866
 20
23.24155271207991
 30
0.0
 40
5.0
  1
Name
 41
0.8
  7
GREEKS
 72
     1
 11
694.1292216720484
 21
23.24155271207991
 31
0.0
100
AcDbText
  0
TEXT
  5
80
330
1E
100
AcDbEntity
  8
TEXT
100
AcDbText
 10
740.4139591442067
 20
91.64850626537377
 30
0.0
 40
5.0
  1
Tag
 41
0.8
  7
GREEKS
100
AcDbText
  0
TEXT
  5
81
330
1E
100
AcDbEntity
  8
TEXT
100
AcDbText
 10
778.0783230282873
 20
91.63701364894013
 30
0.0
 40
5.0
  1
Name
 41
0.8
  7
GREEKS
100
AcDbText
  0
TEXT
  5
82
330
1E
100
AcDbEntity
  8
TEXT
100
AcDbText
 10
709.4795158959523
 20
79.53737962022438
 30
0.0
 40
5.0
  1
Gez.
 41
0.8
  7
GREEKS
100
AcDbText
  0
TEXT
  5
83
330
1E
100
AcDbEntity
  8
TEXT
100
AcDbText
 10
709.4393858214593
 20
67.11157864285445
 30
0.0
 40
5.0
  1
Gepr.
 41
0.8
  7
GREEKS
100
AcDbText
  0
TEXT
  5
84
330
1E
100
AcDbEntity
  8
TEXT
100
AcDbText
 10
709.5008471734133
 20
54.4118298706224
 30
0.0
 40
5.0
  1
Norm.
 41
0.8
  7
GREEKS
100
AcDbText
  0
TEXT
  5
85
330
1E
100
AcDbEntity
  8
TEXT
100
AcDbText
 10
946.5501076871261
 20
65.0927022234822
 30
0.0
 40
6.25
  1
ersetzt durch:
 41
0.8
  7
GREEKS
100
AcDbText
  0
TEXT
  5
86
330
1E
100
AcDbEntity
  8
TEXT
100
AcDbText
 10
711.0866284759156
 20
91.20853245654638
 30
0.0
 40
5.0
  1
2010
 41
0.8
  7
GREEKS
100
AcDbText
  0
LINE
  5
87
330
1E
100
AcDbEntity
  8
HILF
100
AcDbLine
 10
0.0
 20
0.0
 30
0.0
 11
1050.0
 21
-0.0000000000003411
 31
0.0
  0
LINE
  5
88
330
1E
100
AcDbEntity
  8
HILF
100
AcDbLine
 10
1050.0
 20
-0.0000000000003411
 30
0.0
 11
1050.0
 21
742.4999999999997
 31
0.0
  0
LINE
  5
89
330
1E
100
AcDbEntity
  8
HILF
100
AcDbLine
 10
1050.0
 20
742.4999999999997
 30
0.0
 11
0.0000000000001421
 21
742.4999999999999
 31
0.0
  0
LINE
  5
8B
330
1E
100
AcDbEntity
  8
STEMPEL
100
AcDbLine
 10
1037.5
 20
729.9999999999997
 30
0.0
 11
50.00000000000017
 21
730.0
 31
0.0
  0
LINE
  5
8D
330
1E
100
AcDbEntity
  8
STEMPEL
100
AcDbLine
 10
50.0
 20
12.5
 30
0.0
 11
1037.5
 21
12.49999999999966
 31
0.0
  0
LINE
  5
8E
330
1E
100
AcDbEntity
  8
STEMPEL
100
AcDbLine
 10
1037.5
 20
12.49999999999966
 30
0.0
 11
1037.5
 21
729.9999999999997
 31
0.0
  0
TEXT
  5
8F
330
1E
100
AcDbEntity
  8
TEXT
 62
     1
100
AcDbText
 10
818.7988215591484
 20
109.2167884456566
 30
0.0
 40
8.75
  1
Drainjet Kompletteinheit
 41
0.7
  7
GREEKS
100
AcDbText
  0
TEXT
  5
90
330
1E
100
AcDbEntity
  8
TEXT
 62
     1
100
AcDbText
 10
963.1312325595644
 20
109.2167884456565
 30
0.0
 40
8.75
  1
21111150W
 41
0.8
  7
GREEKS
 72
     1
 11
989.7978992262309
 21
109.2167884456565
 31
0.0
100
AcDbText
  0
TEXT
  5
91
330
1E
100
AcDbEntity
  8
TEXT
100
AcDbText
 10
773.136278301979
 20
128.5498701422373
 30
0.0
 40
6.25
  1
Zul.Abw.
 41
0.8
  7
GREEKS
100
AcDbText
  0
TEXT
  5
93
330
1E
100
AcDbEntity
  8
TEXT
100
AcDbText
 10
738.0766070699361
 20
78.93857345150258
 30
0.0
 40
5.0
  1
29.10.
 41
0.8
  7
GREEKS
 72
     1
 11
746.4575594508885
 21
78.93857345150258
 31
0.0
100
AcDbText
  0
TEXT
  5
94
330
1E
100
AcDbEntity
  8
TEXT
100
AcDbText
 10
780.0289691533265
 20
78.67872068956813
 30
0.0
 40
5.0
  1
Koeh
 41
0.8
  7
GREEKS
 72
     1
 11
786.6003977247551
 21
78.67872068956813
 31
0.0
100
AcDbText
  0
TEXT
  5
95
330
1E
100
AcDbEntity
  8
TEXT
100
AcDbText
 10
817.9263676106241
 20
90.12526728884386
 30
0.0
 40
6.25
  1
DN150, einteilig
 41
0.8
  7
GREEKS
100
AcDbText
  0
TEXT
  5
98
330
1E
100
AcDbEntity
  8
TEXT
100
AcDbText
 10
817.7095062636686
 20
54.13909530989366
 30
0.0
 40
5.0
  1
21111150W.DWG
 41
0.8
  7
GREEKS
100
AcDbText
  0
TEXT
  5
99
330
1E
100
AcDbEntity
  8
TEXT
 62
     1
100
AcDbText
 10
728.3793640042779
 20
109.3384636051871
 30
0.0
 40
8.75
  1
1:2.5
 41
0.8
  7
GREEKS
100
AcDbText
  0
TEXT
  5
9A
330
1E
100
AcDbEntity
  8
TEXT
100
AcDbText
 10
587.555142418766
 20
142.6429481313801
 30
0.0
 40
6.25
  1
Erstellt mit AUTOCAD 2004
 41
0.8
  7
GREEKS
100
AcDbText
  0
INSERT
  5
9B
330
1E
100
AcDbEntity
  8
HILF
100
AcDbBlockReference
  2
LORO
 10
716.3281232452941
 20
46.22574125373676
 30
0.0
 41
2.5
 42
2.5
 43
2.5
  0
LINE
  5
9C
330
1E
100
AcDbEntity
  8
BEM
100
AcDbLine
 10
570.0
 20
-0.0000000000001137
 30
0.0
 11
570.0
 21
12.49999999999988
 31
0.0
  0
LINE
  5
13E
330
1E
100
AcDbEntity
  8
HILF
100
AcDbLine
 10
0.0
 20
0.0
 30
0.0
 11
0.0000000000001421
 21
742.4999999999999
 31
0.0
  0
LINE
  5
13F
330
1E
100
AcDbEntity
  8
STEMPEL
100
AcDbLine
 10
50.0
 20
12.5
 30
0.0
 11
50.00000000000017
 21
730.0
 31
0.0
  0
LINE
  5
14A
330
1E
100
AcDbEntity
  8
HILF
100
AcDbLine
 10
0.0000000000000853
 20
371.25
 30
0.0
 11
50.00000000000006
 21
371.25
 31
0.0
  0
TEXT
  5
15B
330
1E
100
AcDbEntity
  8
BEM
100
AcDbText
 10
1046.627865482146
 20
12.7098763499855
 30
0.0
 40
5.0
  1
Diese Zeichnung ist urheberrechtlich geschützt und bleibt unser Eigentum. Sie darf weder ganz noch teilweise verfielfältigt und nicht an Dritte weitergegeben werden.
 50
89.99999999999998
 41
0.8
  7
GREEKS
100
AcDbText
  0
LINE
  5
17A
102
{ACAD_REACTORS
330
6FC7
102
}
330
1E
100
AcDbEntity
  8
MITTEL
100
AcDbLine
 10
536.5776968002402
 20
648.6622052529821
 30
0.0
 11
536.5776968002401
 21
231.6622052529821
 31
0.0
  0
LINE
  5
17E
102
{ACAD_REACTORS
330
6FC7
102
}
330
1E
100
AcDbEntity
  8
STEMPEL
100
AcDbLine
 10
270.0776968002402
 20
535.6622052529819
 30
0.0
 11
277.0776968002388
 21
535.6622052529818
 31
0.0
  0
LINE
  5
17F
102
{ACAD_REACTORS
330
6FC7
102
}
330
1E
100
AcDbEntity
  8
STEMPEL
100
AcDbLine
 10
270.0776968002402
 20
535.6622052529819
 30
0.0
 11
270.0776968002402
 21
537.1622052529818
 31
0.0
  0
LINE
  5
181
102
{ACAD_REACTORS
330
6FC7
102
}
330
1E
100
AcDbEntity
  8
STEMPEL
100
AcDbLine
 10
380.8452821623971
 20
643.6622052529818
 30
0.0
 11
692.3101114380831
 21
643.662205252982
 31
0.0
  0
LINE
  5
1A2
102
{ACAD_REACTORS
330
6FC7
102
}
330
1E
100
AcDbEntity
  8
STEMPEL
100
AcDbLine
 10
295.8452821623971
 20
542.1622052529819
 30
0.0
 11
295.8452821623971
 21
558.6622052529818
 31
0.0
  0
ARC
  5
1C0
102
{ACAD_REACTORS
330
6FC7
102
}
330
1E
100
AcDbEntity
  8
STEMPEL
100
AcDbCircle
 10
380.8452821623971
 20
558.6622052529818
 30
0.0
 40
85.0
100
AcDbArc
 50
90.00000000000003
 51
180.0
  0
ARC
  5
5C86
102
{ACAD_REACTORS
330
6FC7
102
}
330
1E
100
AcDbEntity
  8
STEMPEL
100
AcDbCircle
 10
692.3101114380833
 20
558.6622052529816
 30
0.0
 40
85.0
100
AcDbArc
 50
359.9999999999994
 51
89.99999999999992
  0
LINE
  5
5C8C
102
{ACAD_REACTORS
330
6FC7
102
}
330
1E
100
AcDbEntity
  8
STEMPEL
100
AcDbLine
 10
777.3101114380834
 20
542.162205252982
 30
0.0
 11
777.3101114380834
 21
558.6622052529808
 31
0.0
  0
LINE
  5
5C8E
102
{ACAD_REACTORS
330
6FC7
102
}
330
1E
100
AcDbEntity
  8
STEMPEL
100
AcDbLine
 10
803.0776968002403
 20
535.6622052529815
 30
0.0
 11
803.0776968002403
 21
537.1622052529819
 31
0.0
  0
LINE
  5
5C9A
102
{ACAD_REACTORS
330
6FC7
102
}
330
1E
100
AcDbEntity
  8
STEMPEL
100
AcDbLine
 10
276.5776968002402
 20
535.6622052529821
 30
0.0
 11
276.5776968002402
 21
537.1622052529819
 31
0.0
  0
LINE
  5
5C9B
102
{ACAD_REACTORS
330
6FC7
102
}
330
1E
100
AcDbEntity
  8
STEMPEL
100
AcDbLine
 10
283.5776968002402
 20
535.6622052529821
 30
0.0
 11
283.5776968002402
 21
537.1622052529819
 31
0.0
  0
DIMENSION
  5
5CB3
330
1E
100
AcDbEntity
  8
BEM
100
AcDbDimension
  2
*D2
 10
295.8452821623971
 20
657.0216757521929
 30
0.0
 11
536.5776968002402
 21
665.146675752193
 31
0.0
 70
    32
  1
%%c482
 71
     5
 42
481.4648292756862
  3
Standard
100
AcDbAlignedDimension
 13
777.3101114380834
 23
554.6622052529816
 33
0.0
 14
295.8452821623971
 24
554.6622052529818
 34
0.0
100
AcDbRotatedDimension
1001
ACAD
1000
DSTYLE
1002
{
1070
    40
1040
2.5
1070
    41
1040
3.5
1070
    42
1040
1.0
1070
    43
1040
7.0
1070
    44
1040
1.0
1070
    73
1070
     0
1070
    74
1070
     0
1070
    77
1070
     1
1070
    78
1070
     8
1070
    79
1070
     2
1070
   140
1040
3.5
1070
   141
1040
1.5
1070
   146
1040
0.5142857142857144
1070
   147
1040
1.5
1070
   172
1070
     1
1070
   178
1070
     1
1070
   179
1070
     2
1070
   271
1070
     2
1070
   272
1070
     2
1070
   284
1070
     8
1070
   285
1070
     8
1070
   286
1070
     8
1002
}
  0
LINE
  5
6116
330
1E
100
AcDbEntity
  8
STEMPEL
100
AcDbLine
 10
544.0752295206973
 20
535.6622052529819
 30
0.0
 11
544.0752295206973
 21
548.1622052529819
 31
0.0
  0
LINE
  5
6117
330
1E
100
AcDbEntity
  8
STEMPEL
100
AcDbLine
 10
529.0801640797815
 20
535.6622052529818
 30
0.0
 11
529.0801640797815
 21
548.1622052529819
 31
0.0
  0
ELLIPSE
  5
6118
330
1E
100
AcDbEntity
  8
STEMPEL
100
AcDbEllipse
 10
536.5776968002394
 20
548.1622052529819
 30
0.0
 11
0.0
 21
-7.5
 31
0.0
210
0.0
220
0.0
230
1.0
 40
0.9996710293943806
 41
1.570796326794896
 42
4.712388980384689
  0
LINE
  5
6119
330
1E
100
AcDbEntity
  8
STEMPEL
100
AcDbLine
 10
514.1097631533575
 20
535.6622052529819
 30
0.0
 11
514.1097631533575
 21
548.1622052529818
 31
0.0
  0
LINE
  5
611A
330
1E
100
AcDbEntity
  8
STEMPEL
100
AcDbLine
 10
499.2329382822525
 20
535.6622052529819
 30
0.0
 11
499.2329382822525
 21
548.1622052529819
 31
0.0
  0
ELLIPSE
  5
611E
330
1E
100
AcDbEntity
  8
STEMPEL
100
AcDbEllipse
 10
506.671350717805
 20
548.1622052529819
 30
0.0
 11
0.0
 21
7.5
 31
0.0
210
0.0
220
0.0
230
1.0
 40
0.9917883247403398
 41
4.712388980384689
 42
6.283185307179586
  0
ELLIPSE
  5
611F
330
1E
100
AcDbEntity
  8
STEMPEL
100
AcDbEllipse
 10
506.671350717805
 20
548.1622052529819
 30
0.0
 11
0.0
 21
7.5
 31
0.0
210
0.0
220
0.0
230
1.0
 40
0.9917883247403398
 41
0.0
 42
1.570796326794896
  0
LINE
  5
6199
330
1E
100
AcDbEntity
  8
STEMPEL
100
AcDbLine
 10
513.8614314671667
 20
535.6622052529819
 30
0.0
 11
513.8614314671667
 21
548.1622052529819
 31
0.0
  0
ELLIPSE
  5
619C
330
1E
100
AcDbEntity
  8
STEMPEL
100
AcDbEllipse
 10
506.4205712073081
 20
548.1622052529819
 30
0.0
 11
0.0
 21
7.499999999999886
 31
0.0
210
0.0
220
0.0
230
1.0
 40
0.992114701314502
 41
4.712388980384689
 42
6.266330223589886
  0
LINE
  5
619E
330
1E
100
AcDbEntity
  8
STEMPEL
100
AcDbLine
 10
484.5010385695045
 20
535.6622052529819
 30
0.0
 11
484.5010385695045
 21
548.1622052529819
 31
0.0
  0
LINE
  5
619F
330
1E
100
AcDbEntity
  8
STEMPEL
100
AcDbLine
 10
469.972291152575
 20
540.6622052529818
 30
0.0
 11
469.9722911525751
 21
548.1622052529818
 31
0.0
  0
ELLIPSE
  5
61A1
330
1E
100
AcDbEntity
  8
STEMPEL
100
AcDbEllipse
 10
477.2366648610397
 20
548.1622052529819
 30
0.0
 11
0.0
 21
7.5
 31
0.0
210
0.0
220
0.0
230
1.0
 40
0.9685831611286403
 41
4.712388980384689
 42
6.283185307179586
  0
ELLIPSE
  5
61A2
330
1E
100
AcDbEntity
  8
STEMPEL
100
AcDbEllipse
 10
477.2366648610397
 20
548.1622052529819
 30
0.0
 11
0.0
 21
7.5
 31
0.0
210
0.0
220
0.0
230
1.0
 40
0.9685831611286252
 41
0.0
 42
1.570796326794896
  0
LINE
  5
61A3
330
1E
100
AcDbEntity
  8
STEMPEL
100
AcDbLine
 10
484.0034152084349
 20
535.6622052529819
 30
0.0
 11
484.0034152084349
 21
548.1622052529818
 31
0.0
  0
ELLIPSE
  5
61A4
330
1E
100
AcDbEntity
  8
STEMPEL
100
AcDbEllipse
 10
476.7390414999702
 20
548.1622052529819
 30
0.0
 11
0.0
 21
7.500000000000113
 31
0.0
210
0.0
220
0.0
230
1.0
 40
0.9685831611286255
 41
4.712388980384689
 42
6.248927659625682
  0
LINE
  5
61A7
330
1E
100
AcDbEntity
  8
STEMPEL
100
AcDbLine
 10
455.71113645272
 20
535.6622052529819
 30
0.0
 11
455.7111364527199
 21
548.1622052529821
 31
0.0
  0
LINE
  5
61A9
330
1E
100
AcDbEntity
  8
STEMPEL
100
AcDbLine
 10
441.7644891643961
 20
543.6622052529822
 30
0.0
 11
441.7644891643961
 21
548.1622052529818
 31
0.0
  0
ELLIPSE
  5
61AA
330
1E
100
AcDbEntity
  8
STEMPEL
100
AcDbEllipse
 10
448.737812808558
 20
548.1622052529819
 30
0.0
 11
0.0
 21
7.5
 31
0.0
210
0.0
220
0.0
230
1.0
 40
0.9297764858882487
 41
4.712388980384689
 42
7.853981633974482
  0
LINE
  5
61B0
330
1E
100
AcDbEntity
  8
STEMPEL
100
AcDbLine
 10
454.9745267767595
 20
535.6622052529819
 30
0.0
 11
454.9745267767595
 21
548.1622052529819
 31
0.0
  0
ELLIPSE
  5
61B4
330
1E
100
AcDbEntity
  8
STEMPEL
100
AcDbEllipse
 10
448.0012031325975
 20
548.1622052529819
 30
0.0
 11
0.0
 21
7.5
 31
0.0
210
0.0
220
0.0
230
1.0
 40
0.9297764858882564
 41
4.712388980384689
 42
6.230344465905976
  0
LINE
  5
61B7
330
1E
100
AcDbEntity
  8
STEMPEL
100
AcDbLine
 10
428.1965482999574
 20
535.6622052529818
 30
0.0
 11
428.1965482999574
 21
548.1622052529819
 31
0.0
  0
LINE
  5
61B8
330
1E
100
AcDbEntity
  8
STEMPEL
100
AcDbLine
 10
415.0519480992993
 20
546.1879539539232
 30
0.0
 11
415.0519480992993
 21
548.1622052529818
 31
0.0
  0
ELLIPSE
  5
61BA
330
1E
100
AcDbEntity
  8
STEMPEL
100
AcDbEllipse
 10
421.6242481996284
 20
548.1622052529819
 30
0.0
 11
0.0
 21
7.5
 31
0.0
210
0.0
220
0.0
230
1.0
 40
0.876306680043865
 41
4.712388980384689
 42
7.853981633974482
  0
LINE
  5
61CA
330
1E
100
AcDbEntity
  8
STEMPEL
100
AcDbLine
 10
427.2325690837251
 20
535.6622052529819
 30
0.0
 11
427.2325690837251
 21
548.1622052529818
 31
0.0
  0
ELLIPSE
  5
61CC
330
1E
100
AcDbEntity
  8
STEMPEL
100
AcDbEllipse
 10
420.6602689833962
 20
548.1622052529819
 30
0.0
 11
0.0
 21
7.5
 31
0.0
210
0.0
220
0.0
230
1.0
 40
0.876306680043865
 41
4.712388980384689
 42
6.209782892077458
  0
LINE
  5
61CE
330
1E
100
AcDbEntity
  8
STEMPEL
100
AcDbLine
 10
402.3911956028043
 20
540.6005055802643
 30
0.0
 11
402.3911956028043
 21
548.1622052529819
 31
0.0
  0
LINE
  5
61D0
330
1E
100
AcDbEntity
  8
STEMPEL
100
AcDbLine
 10
390.25594068718
 20
535.6622052529818
 30
0.0
 11
390.25594068718
 21
548.1622052529819
 31
0.0
  0
ELLIPSE
  5
61D1
330
1E
100
AcDbEntity
  8
STEMPEL
100
AcDbEllipse
 10
396.3235681449922
 20
548.1622052529819
 30
0.0
 11
0.0
 21
7.5
 31
0.0
210
0.0
220
0.0
230
1.0
 40
0.8090169943749629
 41
4.712388980384689
 42
7.853981633974482
  0
ELLIPSE
  5
61D3
330
1E
100
AcDbEntity
  8
STEMPEL
100
AcDbEllipse
 10
395.1474219165813
 20
548.1622052529819
 30
0.0
 11
0.0
 21
7.5
 31
0.0
210
0.0
220
0.0
230
1.0
 40
0.8090169943749629
 41
4.712388980384689
 42
6.186113147778332
  0
LINE
  5
61D4
330
1E
100
AcDbEntity
  8
STEMPEL
100
AcDbLine
 10
401.2150493743935
 20
540.6384890405117
 30
0.0
 11
401.2150493743935
 21
548.1622052529819
 31
0.0
  0
LINE
  5
61D6
330
1E
100
AcDbEntity
  8
STEMPEL
100
AcDbLine
 10
378.7020441886651
 20
535.6622052529819
 30
0.0
 11
378.7020441886651
 21
548.1622052529818
 31
0.0
  0
LINE
  5
61D8
330
1E
100
AcDbEntity
  8
STEMPEL
100
AcDbLine
 10
367.7675147773438
 20
535.6622052529819
 30
0.0
 11
367.7675147773438
 21
548.1622052529819
 31
0.0
  0
ELLIPSE
  5
61D9
330
1E
100
AcDbEntity
  8
STEMPEL
100
AcDbEllipse
 10
373.2347794830044
 20
548.1622052529819
 30
0.0
 11
0.0
 21
7.5
 31
0.0
210
0.0
220
0.0
230
1.0
 40
0.7289686274214167
 41
4.712388980384689
 42
7.853981633974482
  0
LINE
  5
61DA
330
1E
100
AcDbEntity
  8
STEMPEL
100
AcDbLine
 10
377.3322794766935
 20
535.6622052529818
 30
0.0
 11
377.3322794766935
 21
548.1622052529817
 31
0.0
  0
ELLIPSE
  5
61DB
330
1E
100
AcDbEntity
  8
STEMPEL
100
AcDbEllipse
 10
371.8650147710329
 20
548.1622052529818
 30
0.0
 11
0.0
 21
7.5
 31
0.0
210
0.0
220
0.0
230
1.0
 40
0.7289686274214167
 41
4.712388980384689
 42
6.15758568604169
  0
LINE
  5
61E6
330
1E
100
AcDbEntity
  8
STEMPEL
100
AcDbLine
 10
357.5026861265539
 20
535.6622052529819
 30
0.0
 11
357.5026861265539
 21
548.1622052529818
 31
0.0
  0
LINE
  5
61E8
330
1E
100
AcDbEntity
  8
STEMPEL
100
AcDbLine
 10
347.9413262803235
 20
535.6622052529819
 30
0.0
 11
347.9413262803235
 21
548.1622052529819
 31
0.0
  0
ELLIPSE
  5
61E9
330
1E
100
AcDbEntity
  8
STEMPEL
100
AcDbEllipse
 10
352.7220062034386
 20
548.1622052529819
 30
0.0
 11
0.0
 21
7.5
 31
0.0
210
0.0
220
0.0
230
1.0
 40
0.637423989748703
 41
4.712388980384689
 42
7.853981633974482
  0
ELLIPSE
  5
61EA
330
1E
100
AcDbEntity
  8
STEMPEL
100
AcDbEllipse
 10
351.180225015672
 20
547.7614698649715
 30
0.0
 11
0.0
 21
7.5
 31
0.0
210
0.0
220
0.0
230
1.0
 40
0.637423989748703
 41
4.712388980384689
 42
6.283185307179586
  0
LINE
  5
61EC
330
1E
100
AcDbEntity
  8
STEMPEL
100
AcDbLine
 10
355.9609049387872
 20
535.6622052529819
 30
0.0
 11
355.9609049387872
 21
547.7614698649714
 31
0.0
  0
LINE
  5
61F0
330
1E
100
AcDbEntity
  8
STEMPEL
100
AcDbLine
 10
339.1274479569927
 20
535.6622052529821
 30
0.0
 11
339.1274479569927
 21
548.1622052529819
 31
0.0
  0
ELLIPSE
  5
61F3
330
1E
100
AcDbEntity
  8
STEMPEL
100
AcDbEllipse
 10
335.1087469946503
 20
548.1622052529819
 30
0.0
 11
0.0
 21
7.5
 31
0.0
210
0.0
220
0.0
230
1.0
 40
0.5358267949789991
 41
4.712388980384689
 42
7.853981633974482
  0
LINE
  5
6207
330
1E
100
AcDbEntity
  8
STEMPEL
100
AcDbLine
 10
331.0900460323078
 20
535.6622052529818
 30
0.0
 11
331.0900460323078
 21
548.1622052529818
 31
0.0
  0
ELLIPSE
  5
620A
330
1E
100
AcDbEntity
  8
STEMPEL
100
AcDbEllipse
 10
333.4192641414348
 20
548.1622052529819
 30
0.0
 11
0.0
 21
7.5
 31
0.0
210
0.0
220
0.0
230
1.0
 40
0.5358267949789991
 41
4.712388980384689
 42
6.071403112986319
  0
LINE
  5
620B
330
1E
100
AcDbEntity
  8
STEMPEL
100
AcDbLine
 10
337.4379651037774
 20
535.6622052529821
 30
0.0
 11
337.4379651037774
 21
548.1622052529819
 31
0.0
  0
LINE
  5
620D
330
1E
100
AcDbEntity
  8
STEMPEL
100
AcDbLine
 10
323.866118162751
 20
535.6622052529819
 30
0.0
 11
323.866118162751
 21
548.1622052529819
 31
0.0
  0
LINE
  5
620F
330
1E
100
AcDbEntity
  8
STEMPEL
100
AcDbLine
 10
317.4794287892749
 20
535.6622052529818
 30
0.0
 11
317.4794287892749
 21
548.1622052529818
 31
0.0
  0
ELLIPSE
  5
6211
330
1E
100
AcDbEntity
  8
STEMPEL
100
AcDbEllipse
 10
320.672773476013
 20
548.1622052529819
 30
0.0
 11
0.0
 21
7.5
 31
0.0
210
0.0
220
0.0
230
1.0
 40
0.4257792915650669
 41
4.712388980384689
 42
7.853981633974482
  0
ELLIPSE
  5
6212
330
1E
100
AcDbEntity
  8
STEMPEL
100
AcDbEllipse
 10
318.8622331111921
 20
548.1622052529819
 30
0.0
 11
0.0
 21
7.5
 31
0.0
210
0.0
220
0.0
230
1.0
 40
0.4257792915650669
 41
4.712388980384689
 42
5.995757469465124
  0
LINE
  5
6214
330
1E
100
AcDbEntity
  8
STEMPEL
100
AcDbLine
 10
322.0555777979301
 20
535.6622052529819
 30
0.0
 11
322.0555777979301
 21
548.1622052529819
 31
0.0
  0
LINE
  5
6216
330
1E
100
AcDbEntity
  8
STEMPEL
100
AcDbLine
 10
311.9593770313605
 20
535.6622052529819
 30
0.0
 11
311.9593770313605
 21
548.1622052529818
 31
0.0
  0
LINE
  5
6217
330
1E
100
AcDbEntity
  8
STEMPEL
100
AcDbLine
 10
307.3241221157362
 20
535.6622052529818
 30
0.0
 11
307.3241221157362
 21
548.1622052529819
 31
0.0
  0
ELLIPSE
  5
6219
330
1E
100
AcDbEntity
  8
STEMPEL
100
AcDbEllipse
 10
309.6417495735482
 20
548.1622052529819
 30
0.0
 11
0.0
 21
7.5
 31
0.0
210
0.0
220
0.0
230
1.0
 40
0.3090169943749496
 41
4.712388980384689
 42
7.853981633974482
  0
ELLIPSE
  5
621A
330
1E
100
AcDbEntity
  8
STEMPEL
100
AcDbEllipse
 10
307.7387050002397
 20
548.1622052529819
 30
0.0
 11
0.0
 21
7.5
 31
0.0
210
0.0
220
0.0
230
1.0
 40
0.3090169943749496
 41
4.712388980384689
 42
5.860118527714176
  0
LINE
  5
621C
330
1E
100
AcDbEntity
  8
STEMPEL
100
AcDbLine
 10
310.0563324580518
 20
535.6622052529819
 30
0.0
 11
310.0563324580518
 21
548.1622052529818
 31
0.0
  0
LINE
  5
6220
330
1E
100
AcDbEntity
  8
STEMPEL
100
AcDbLine
 10
303.5950009832053
 20
535.6622052529819
 30
0.0
 11
303.5950009832053
 21
548.1622052529818
 31
0.0
  0
LINE
  5
6221
330
1E
100
AcDbEntity
  8
STEMPEL
100
AcDbLine
 10
300.7842812644195
 20
535.6622052529818
 30
0.0
 11
300.7842812644195
 21
548.1622052529818
 31
0.0
  0
ELLIPSE
  5
6223
330
1E
100
AcDbEntity
  8
STEMPEL
100
AcDbEllipse
 10
302.1896411238123
 20
548.1622052529819
 30
0.0
 11
0.0
 21
7.5
 31
0.0
210
0.0
220
0.0
230
1.0
 40
0.1873813145857222
 41
4.712388980384689
 42
7.853981633974482
  0
ELLIPSE
  5
6225
330
1E
100
AcDbEntity
  8
STEMPEL
100
AcDbEllipse
 10
300.2241044917608
 20
548.1622052529819
 30
0.0
 11
0.0
 21
7.5
 31
0.0
210
0.0
220
0.0
230
1.0
 40
0.1873813145857222
 41
4.712388980384689
 42
5.508767370765571
  0
LINE
  5
6227
330
1E
100
AcDbEntity
  8
STEMPEL
100
AcDbLine
 10
301.6294643511538
 20
535.6622052529819
 30
0.0
 11
301.6294643511538
 21
548.1622052529818
 31
0.0
  0
LINE
  5
6228
330
1E
100
AcDbEntity
  8
STEMPEL
100
AcDbLine
 10
298.904901225201
 20
535.6622052529819
 30
0.0
 11
298.904901225201
 21
548.1622052529819
 31
0.0
  0
LINE
  5
6229
330
1E
100
AcDbEntity
  8
STEMPEL
100
AcDbLine
 10
297.9630434322614
 20
535.6622052529819
 30
0.0
 11
297.9630434322614
 21
548.1622052529821
 31
0.0
  0
ELLIPSE
  5
622C
330
1E
100
AcDbEntity
  8
STEMPEL
100
AcDbEllipse
 10
298.4339723287313
 20
548.1622052529819
 30
0.0
 11
0.0
 21
7.5
 31
0.0
210
0.0
220
0.0
230
1.0
 40
0.06279051952932
 41
4.712388980384689
 42
7.853981633974482
  0
ELLIPSE
  5
6238
330
1E
100
AcDbEntity
  8
STEMPEL
100
AcDbEllipse
 10
774.7214212717492
 20
548.1622052529817
 30
0.0
 11
0.0000000000000075
 21
7.5
 31
0.0
210
0.0
220
0.0
230
-1.0
 40
0.06279051952932
 41
4.712388980384689
 42
7.853981633974482
  0
LINE
  5
6239
330
1E
100
AcDbEntity
  8
STEMPEL
100
AcDbLine
 10
775.192350168219
 20
535.6622052529817
 30
0.0
 11
775.192350168219
 21
548.1622052529818
 31
0.0
  0
LINE
  5
623A
330
1E
100
AcDbEntity
  8
STEMPEL
100
AcDbLine
 10
774.2504923752792
 20
535.6622052529817
 30
0.0
 11
774.2504923752792
 21
548.1622052529817
 31
0.0
  0
LINE
  5
623B
330
1E
100
AcDbEntity
  8
STEMPEL
100
AcDbLine
 10
771.5259292493267
 20
535.6622052529817
 30
0.0
 11
771.5259292493267
 21
548.1622052529815
 31
0.0
  0
ELLIPSE
  5
623C
330
1E
100
AcDbEntity
  8
STEMPEL
100
AcDbEllipse
 10
772.9312891087195
 20
548.1622052529817
 30
0.0
 11
0.0000000000000075
 21
7.5
 31
0.0
210
0.0
220
0.0
230
-1.0
 40
0.1873813145857222
 41
4.712388980384689
 42
5.508767370765571
  0
ELLIPSE
  5
623D
330
1E
100
AcDbEntity
  8
STEMPEL
100
AcDbEllipse
 10
770.965752476668
 20
548.1622052529817
 30
0.0
 11
0.0000000000000075
 21
7.5
 31
0.0
210
0.0
220
0.0
230
-1.0
 40
0.1873813145857222
 41
4.712388980384689
 42
7.853981633974482
  0
LINE
  5
623E
330
1E
100
AcDbEntity
  8
STEMPEL
100
AcDbLine
 10
772.371112336061
 20
535.6622052529815
 30
0.0
 11
772.371112336061
 21
548.1622052529815
 31
0.0
  0
LINE
  5
623F
330
1E
100
AcDbEntity
  8
STEMPEL
100
AcDbLine
 10
769.5603926172751
 20
535.6622052529817
 30
0.0
 11
769.5603926172752
 21
548.1622052529815
 31
0.0
  0
LINE
  5
6240
330
1E
100
AcDbEntity
  8
STEMPEL
100
AcDbLine
 10
763.0990611424286
 20
535.6622052529817
 30
0.0
 11
763.0990611424286
 21
548.1622052529815
 31
0.0
  0
ELLIPSE
  5
6241
330
1E
100
AcDbEntity
  8
STEMPEL
100
AcDbEllipse
 10
765.4166886002408
 20
548.1622052529817
 30
0.0
 11
0.0000000000000075
 21
7.5
 31
0.0
210
0.0
220
0.0
230
-1.0
 40
0.3090169943749496
 41
4.712388980384689
 42
5.860118527714176
  0
ELLIPSE
  5
6242
330
1E
100
AcDbEntity
  8
STEMPEL
100
AcDbEllipse
 10
763.513644026932
 20
548.1622052529817
 30
0.0
 11
0.0000000000000075
 21
7.5
 31
0.0
210
0.0
220
0.0
230
-1.0
 40
0.3090169943749496
 41
4.712388980384689
 42
7.853981633974482
  0
LINE
  5
6243
330
1E
100
AcDbEntity
  8
STEMPEL
100
AcDbLine
 10
765.8312714847443
 20
535.6622052529815
 30
0.0
 11
765.8312714847443
 21
548.1622052529817
 31
0.0
  0
LINE
  5
6244
330
1E
100
AcDbEntity
  8
STEMPEL
100
AcDbLine
 10
761.1960165691201
 20
535.6622052529817
 30
0.0
 11
761.1960165691201
 21
548.1622052529815
 31
0.0
  0
LINE
  5
6245
330
1E
100
AcDbEntity
  8
STEMPEL
100
AcDbLine
 10
751.0998158025504
 20
535.6622052529817
 30
0.0
 11
751.0998158025504
 21
548.1622052529817
 31
0.0
  0
ELLIPSE
  5
6246
330
1E
100
AcDbEntity
  8
STEMPEL
100
AcDbEllipse
 10
754.2931604892883
 20
548.1622052529817
 30
0.0
 11
0.0000000000000075
 21
7.5
 31
0.0
210
0.0
220
0.0
230
-1.0
 40
0.4257792915650669
 41
4.712388980384689
 42
5.995757469465124
  0
ELLIPSE
  5
6247
330
1E
100
AcDbEntity
  8
STEMPEL
100
AcDbEllipse
 10
752.4826201244675
 20
548.1622052529817
 30
0.0
 11
0.0000000000000075
 21
7.5
 31
0.0
210
0.0
220
0.0
230
-1.0
 40
0.4257792915650669
 41
4.712388980384689
 42
7.853981633974482
  0
LINE
  5
6248
330
1E
100
AcDbEntity
  8
STEMPEL
100
AcDbLine
 10
755.6759648112054
 20
535.6622052529815
 30
0.0
 11
755.6759648112054
 21
548.1622052529815
 31
0.0
  0
LINE
  5
6249
330
1E
100
AcDbEntity
  8
STEMPEL
100
AcDbLine
 10
749.2892754377294
 20
535.6622052529817
 30
0.0
 11
749.2892754377294
 21
548.1622052529817
 31
0.0
  0
LINE
  5
624A
330
1E
100
AcDbEntity
  8
STEMPEL
100
AcDbLine
 10
735.7174284967031
 20
535.6622052529818
 30
0.0
 11
735.7174284967031
 21
548.1622052529817
 31
0.0
  0
ELLIPSE
  5
624B
330
1E
100
AcDbEntity
  8
STEMPEL
100
AcDbEllipse
 10
739.7361294590457
 20
548.1622052529817
 30
0.0
 11
0.0000000000000075
 21
7.5
 31
0.0
210
0.0
220
0.0
230
-1.0
 40
0.5358267949789991
 41
4.712388980384689
 42
6.071403112986319
  0
LINE
  5
624C
330
1E
100
AcDbEntity
  8
STEMPEL
100
AcDbLine
 10
742.0653475681726
 20
535.6622052529815
 30
0.0
 11
742.0653475681726
 21
548.1622052529815
 31
0.0
  0
ELLIPSE
  5
624D
330
1E
100
AcDbEntity
  8
STEMPEL
100
AcDbEllipse
 10
738.0466466058301
 20
548.1622052529817
 30
0.0
 11
0.0000000000000075
 21
7.5
 31
0.0
210
0.0
220
0.0
230
-1.0
 40
0.5358267949789991
 41
4.712388980384689
 42
7.853981633974482
  0
LINE
  5
624E
330
1E
100
AcDbEntity
  8
STEMPEL
100
AcDbLine
 10
734.0279456434875
 20
535.6622052529818
 30
0.0
 11
734.0279456434878
 21
548.1622052529817
 31
0.0
  0
LINE
  5
624F
330
1E
100
AcDbEntity
  8
STEMPEL
100
AcDbLine
 10
717.1944886616931
 20
535.6622052529819
 30
0.0
 11
717.1944886616931
 21
547.7614698649712
 31
0.0
  0
ELLIPSE
  5
6250
330
1E
100
AcDbEntity
  8
STEMPEL
100
AcDbEllipse
 10
721.9751685848084
 20
547.7614698649713
 30
0.0
 11
0.0000000000000075
 21
7.5
 31
0.0
210
0.0
220
0.0
230
-1.0
 40
0.637423989748703
 41
4.712388980384689
 42
6.283185307179586
  0
ELLIPSE
  5
6251
330
1E
100
AcDbEntity
  8
STEMPEL
100
AcDbEllipse
 10
720.4333873970417
 20
548.1622052529817
 30
0.0
 11
0.0000000000000075
 21
7.5
 31
0.0
210
0.0
220
0.0
230
-1.0
 40
0.637423989748703
 41
4.712388980384689
 42
7.853981633974482
  0
LINE
  5
6252
330
1E
100
AcDbEntity
  8
STEMPEL
100
AcDbLine
 10
725.214067320157
 20
535.6622052529817
 30
0.0
 11
725.214067320157
 21
548.1622052529817
 31
0.0
  0
LINE
  5
6253
330
1E
100
AcDbEntity
  8
STEMPEL
100
AcDbLine
 10
715.6527074739265
 20
535.6622052529817
 30
0.0
 11
715.6527074739265
 21
548.1622052529815
 31
0.0
  0
ELLIPSE
  5
6254
330
1E
100
AcDbEntity
  8
STEMPEL
100
AcDbEllipse
 10
701.2903788294474
 20
548.1622052529815
 30
0.0
 11
0.0000000000000075
 21
7.5
 31
0.0
210
0.0
220
0.0
230
-1.0
 40
0.7289686274214167
 41
4.712388980384689
 42
6.15758568604169
  0
LINE
  5
6255
330
1E
100
AcDbEntity
  8
STEMPEL
100
AcDbLine
 10
695.8231141237868
 20
535.6622052529815
 30
0.0
 11
695.8231141237868
 21
548.1622052529814
 31
0.0
  0
ELLIPSE
  5
6256
330
1E
100
AcDbEntity
  8
STEMPEL
100
AcDbEllipse
 10
699.9206141174759
 20
548.1622052529817
 30
0.0
 11
0.0000000000000075
 21
7.5
 31
0.0
210
0.0
220
0.0
230
-1.0
 40
0.7289686274214167
 41
4.712388980384689
 42
7.853981633974482
  0
LINE
  5
6257
330
1E
100
AcDbEntity
  8
STEMPEL
100
AcDbLine
 10
705.3878788231365
 20
535.6622052529817
 30
0.0
 11
705.3878788231365
 21
548.1622052529817
 31
0.0
  0
LINE
  5
6258
330
1E
100
AcDbEntity
  8
STEMPEL
100
AcDbLine
 10
694.4533494118152
 20
535.6622052529817
 30
0.0
 11
694.4533494118154
 21
548.1622052529815
 31
0.0
  0
LINE
  5
6259
330
1E
100
AcDbEntity
  8
STEMPEL
100
AcDbLine
 10
671.9403442260868
 20
540.6384890405122
 30
0.0
 11
671.9403442260868
 21
548.1622052529818
 31
0.0
  0
ELLIPSE
  5
625A
330
1E
100
AcDbEntity
  8
STEMPEL
100
AcDbEllipse
 10
678.007971683899
 20
548.1622052529817
 30
0.0
 11
0.0000000000000075
 21
7.5
 31
0.0
210
0.0
220
0.0
230
-1.0
 40
0.8090169943749629
 41
4.712388980384689
 42
6.186113147778332
  0
ELLIPSE
  5
625B
330
1E
100
AcDbEntity
  8
STEMPEL
100
AcDbEllipse
 10
676.8318254554883
 20
548.1622052529817
 30
0.0
 11
0.0000000000000075
 21
7.5
 31
0.0
210
0.0
220
0.0
230
-1.0
 40
0.8090169943749629
 41
4.712388980384689
 42
7.853981633974482
  0
LINE
  5
625C
330
1E
100
AcDbEntity
  8
STEMPEL
100
AcDbLine
 10
682.8994529133003
 20
535.6622052529815
 30
0.0
 11
682.8994529133003
 21
548.1622052529817
 31
0.0
  0
LINE
  5
625D
330
1E
100
AcDbEntity
  8
STEMPEL
100
AcDbLine
 10
670.764197997676
 20
540.662205252982
 30
0.0
 11
670.764197997676
 21
548.1622052529818
 31
0.0
  0
ELLIPSE
  5
625E
330
1E
100
AcDbEntity
  8
STEMPEL
100
AcDbEllipse
 10
652.4951246170842
 20
548.1622052529818
 30
0.0
 11
0.0000000000000075
 21
7.5
 31
0.0
210
0.0
220
0.0
230
-1.0
 40
0.876306680043865
 41
4.712388980384689
 42
6.209782892077458
  0
LINE
  5
625F
330
1E
100
AcDbEntity
  8
STEMPEL
100
AcDbLine
 10
645.9228245167551
 20
535.6622052529818
 30
0.0
 11
645.9228245167551
 21
548.1622052529817
 31
0.0
  0
ELLIPSE
  5
6260
330
1E
100
AcDbEntity
  8
STEMPEL
100
AcDbEllipse
 10
651.531145400852
 20
548.1622052529818
 30
0.0
 11
0.0000000000000075
 21
7.5
 31
0.0
210
0.0
220
0.0
230
-1.0
 40
0.876306680043865
 41
4.712388980384689
 42
7.853981633974482
  0
LINE
  5
6261
330
1E
100
AcDbEntity
  8
STEMPEL
100
AcDbLine
 10
658.1034455011811
 20
546.1879539539226
 30
0.0
 11
658.1034455011809
 21
548.1622052529817
 31
0.0
  0
LINE
  5
6262
330
1E
100
AcDbEntity
  8
STEMPEL
100
AcDbLine
 10
644.958845300523
 20
535.6622052529817
 30
0.0
 11
644.958845300523
 21
548.1622052529818
 31
0.0
  0
ELLIPSE
  5
6263
330
1E
100
AcDbEntity
  8
STEMPEL
100
AcDbEllipse
 10
625.1541904678827
 20
548.1622052529818
 30
0.0
 11
0.0000000000000075
 21
7.5
 31
0.0
210
0.0
220
0.0
230
-1.0
 40
0.9297764858882564
 41
4.712388980384689
 42
6.230344465905976
  0
LINE
  5
6264
330
1E
100
AcDbEntity
  8
STEMPEL
100
AcDbLine
 10
618.1808668237208
 20
535.6622052529818
 30
0.0
 11
618.1808668237208
 21
548.1622052529818
 31
0.0
  0
ELLIPSE
  5
6265
330
1E
100
AcDbEntity
  8
STEMPEL
100
AcDbEllipse
 10
624.4175807919223
 20
548.1622052529818
 30
0.0
 11
0.0000000000000075
 21
7.5
 31
0.0
210
0.0
220
0.0
230
-1.0
 40
0.9297764858882487
 41
4.712388980384689
 42
7.853981633974482
  0
LINE
  5
6266
330
1E
100
AcDbEntity
  8
STEMPEL
100
AcDbLine
 10
631.3909044360841
 20
543.6622052529822
 30
0.0
 11
631.3909044360841
 21
548.1622052529817
 31
0.0
  0
LINE
  5
6267
330
1E
100
AcDbEntity
  8
STEMPEL
100
AcDbLine
 10
617.4442571477604
 20
535.6622052529818
 30
0.0
 11
617.4442571477604
 21
548.1622052529819
 31
0.0
  0
ELLIPSE
  5
6268
330
1E
100
AcDbEntity
  8
STEMPEL
100
AcDbEllipse
 10
596.4163521005103
 20
548.1622052529818
 30
0.0
 11
0.0000000000000075
 21
7.500000000000113
 31
0.0
210
0.0
220
0.0
230
-1.0
 40
0.9685831611286255
 41
4.712388980384689
 42
6.248927659625682
  0
LINE
  5
6269
330
1E
100
AcDbEntity
  8
STEMPEL
100
AcDbLine
 10
589.1519783920452
 20
535.6622052529818
 30
0.0
 11
589.1519783920452
 21
548.1622052529817
 31
0.0
  0
ELLIPSE
  5
626A
330
1E
100
AcDbEntity
  8
STEMPEL
100
AcDbEllipse
 10
595.9187287394406
 20
548.1622052529818
 30
0.0
 11
0.0000000000000075
 21
7.5
 31
0.0
210
0.0
220
0.0
230
-1.0
 40
0.9685831611286252
 41
0.0
 42
1.570796326794896
  0
ELLIPSE
  5
626B
330
1E
100
AcDbEntity
  8
STEMPEL
100
AcDbEllipse
 10
595.9187287394406
 20
548.1622052529818
 30
0.0
 11
0.0000000000000075
 21
7.5
 31
0.0
210
0.0
220
0.0
230
-1.0
 40
0.9685831611286403
 41
4.712388980384689
 42
6.283185307179586
  0
LINE
  5
626C
330
1E
100
AcDbEntity
  8
STEMPEL
100
AcDbLine
 10
603.1831024479052
 20
546.6622052529823
 30
0.0
 11
603.1831024479053
 21
548.1622052529817
 31
0.0
  0
LINE
  5
626D
330
1E
100
AcDbEntity
  8
STEMPEL
100
AcDbLine
 10
588.6543550309759
 20
535.6622052529818
 30
0.0
 11
588.6543550309759
 21
548.1622052529818
 31
0.0
  0
ELLIPSE
  5
626E
330
1E
100
AcDbEntity
  8
STEMPEL
100
AcDbEllipse
 10
566.7348223931724
 20
548.1622052529818
 30
0.0
 11
0.0000000000000075
 21
7.499999999999886
 31
0.0
210
0.0
220
0.0
230
-1.0
 40
0.992114701314502
 41
4.712388980384689
 42
6.266330223589886
  0
LINE
  5
626F
330
1E
100
AcDbEntity
  8
STEMPEL
100
AcDbLine
 10
559.2939621333137
 20
535.6622052529819
 30
0.0
 11
559.2939621333137
 21
548.1622052529819
 31
0.0
  0
ELLIPSE
  5
6270
330
1E
100
AcDbEntity
  8
STEMPEL
100
AcDbEllipse
 10
566.4840428826753
 20
548.1622052529818
 30
0.0
 11
0.0000000000000075
 21
7.5
 31
0.0
210
0.0
220
0.0
230
-1.0
 40
0.9917883247403398
 41
0.0
 42
1.570796326794896
  0
ELLIPSE
  5
6271
330
1E
100
AcDbEntity
  8
STEMPEL
100
AcDbEllipse
 10
566.4840428826753
 20
548.1622052529818
 30
0.0
 11
0.0000000000000075
 21
7.5
 31
0.0
210
0.0
220
0.0
230
-1.0
 40
0.9917883247403398
 41
4.712388980384689
 42
6.283185307179586
  0
LINE
  5
6272
330
1E
100
AcDbEntity
  8
STEMPEL
100
AcDbLine
 10
573.9224553182277
 20
535.6622052529818
 30
0.0
 11
573.9224553182277
 21
548.1622052529818
 31
0.0
  0
LINE
  5
6273
330
1E
100
AcDbEntity
  8
STEMPEL
100
AcDbLine
 10
559.0456304471226
 20
535.6622052529819
 30
0.0
 11
559.0456304471226
 21
548.1622052529818
 31
0.0
  0
DIMENSION
  5
637B
330
1E
100
AcDbEntity
  8
BEM
100
AcDbDimension
  2
*D3
 10
259.4564030892789
 20
643.6622052529818
 30
0.0
 11
251.3314030892788
 21
589.6622052529819
 31
0.0
 70
    32
 71
     5
 42
107.9999999999999
  3
Standard
100
AcDbAlignedDimension
 13
270.0776968002402
 23
535.6622052529819
 33
0.0
 14
380.8452821623971
 24
643.6622052529818
 34
0.0
 50
90.0
100
AcDbRotatedDimension
1001
ACAD
1000
DSTYLE
1002
{
1070
    40
1040
2.5
1070
    41
1040
3.5
1070
    42
1040
1.0
1070
    43
1040
7.0
1070
    44
1040
1.0
1070
    73
1070
     0
1070
    74
1070
     0
1070
    77
1070
     1
1070
    78
1070
     8
1070
    79
1070
     2
1070
   140
1040
3.5
1070
   141
1040
1.5
1070
   146
1040
0.5142857142857144
1070
   147
1040
1.5
1070
   172
1070
     1
1070
   178
1070
     1
1070
   179
1070
     2
1070
   271
1070
     2
1070
   272
1070
     2
1070
   284
1070
     8
1070
   285
1070
     8
1070
   286
1070
     8
1002
}
  0
TEXT
  5
63F9
330
1E
100
AcDbEntity
  8
TEXT
100
AcDbText
 10
817.9263676106241
 20
65.12526728884387
 30
0.0
 40
6.25
  1
EDV-Art.Nr. 21111.150X
 41
0.8
  7
GREEKS
100
AcDbText
  0
TEXT
  5
64CF
330
1E
100
AcDbEntity
  8
TEXT
100
AcDbText
 10
765.3623024866599
 20
110.0567385425341
 30
0.0
 40
5.0
  1
DIN EN1124-3
 41
0.8
  7
GREEKS
 72
     1
 11
786.6003977247551
 21
110.0567385425341
 31
0.0
100
AcDbText
  0
LINE
  5
64F7
102
{ACAD_REACTORS
330
6FC7
102
}
330
1E
100
AcDbEntity
  8
STEMPEL
100
AcDbLine
 10
270.0776968002402
 20
537.1622052529819
 30
0.0
 11
290.8452821623972
 21
537.1622052529819
 31
0.0
  0
LINE
  5
64F8
330
1E
100
AcDbEntity
  8
STEMPEL
100
AcDbLine
 10
317.4794287892749
 20
537.1622052529818
 30
0.0
 11
322.0555777979301
 21
537.1622052529816
 31
0.0
  0
LINE
  5
64F9
330
1E
100
AcDbEntity
  8
STEMPEL
100
AcDbLine
 10
307.3241221157362
 20
537.162205252982
 30
0.0
 11
310.0563324580518
 21
537.1622052529819
 31
0.0
  0
LINE
  5
64FA
330
1E
100
AcDbEntity
  8
STEMPEL
100
AcDbLine
 10
300.7842812644195
 20
537.1622052529818
 30
0.0
 11
301.6294643511538
 21
537.1622052529819
 31
0.0
  0
LINE
  5
64FB
330
1E
100
AcDbEntity
  8
STEMPEL
100
AcDbLine
 10
347.9413262803235
 20
537.1622052529817
 30
0.0
 11
355.9609049387872
 21
537.1622052529816
 31
0.0
  0
LINE
  5
64FC
330
1E
100
AcDbEntity
  8
STEMPEL
100
AcDbLine
 10
331.0900460323078
 20
537.1622052529816
 30
0.0
 11
337.4379651037774
 21
537.1622052529817
 31
0.0
  0
LINE
  5
64FD
330
1E
100
AcDbEntity
  8
STEMPEL
100
AcDbLine
 10
390.25594068718
 20
537.1622052529817
 30
0.0
 11
399.0284883998642
 21
537.1622052529816
 31
0.0
  0
LINE
  5
64FE
330
1E
100
AcDbEntity
  8
STEMPEL
100
AcDbLine
 10
367.7675147773438
 20
537.1622052529817
 30
0.0
 11
377.3322794766935
 21
537.1622052529816
 31
0.0
  0
LINE
  5
64FF
330
1E
100
AcDbEntity
  8
STEMPEL
100
AcDbLine
 10
420.1269052006169
 20
537.1622052529816
 30
0.0
 11
427.2325690837251
 21
537.1622052529816
 31
0.0
  0
LINE
  5
6500
330
1E
100
AcDbEntity
  8
STEMPEL
100
AcDbLine
 10
483.6269052006169
 20
537.1622052529814
 30
0.0
 11
484.0034152084349
 21
537.1622052529814
 31
0.0
  0
LINE
  5
6501
330
1E
100
AcDbEntity
  8
STEMPEL
100
AcDbLine
 10
445.3095937940125
 20
537.1622052529816
 30
0.0
 11
454.9745267767594
 21
537.1622052529816
 31
0.0
  0
LINE
  5
6502
330
1E
100
AcDbEntity
  8
STEMPEL
100
AcDbLine
 10
499.2329382822525
 20
537.1622052529812
 30
0.0
 11
513.8614314671665
 21
537.1622052529812
 31
0.0
  0
LINE
  5
6503
330
1E
100
AcDbEntity
  8
STEMPEL
100
AcDbLine
 10
529.0801640797817
 20
537.1622052529813
 30
0.0
 11
544.0752295206973
 21
537.1622052529814
 31
0.0
  0
LINE
  5
6504
330
1E
100
AcDbEntity
  8
STEMPEL
100
AcDbLine
 10
559.2939621333137
 20
537.1622052529814
 30
0.0
 11
573.9224553182277
 21
537.1622052529814
 31
0.0
  0
LINE
  5
6505
330
1E
100
AcDbEntity
  8
STEMPEL
100
AcDbLine
 10
589.1519783920452
 20
537.1622052529816
 30
0.0
 11
589.5284883998638
 21
537.1622052529814
 31
0.0
  0
LINE
  5
6506
330
1E
100
AcDbEntity
  8
STEMPEL
100
AcDbLine
 10
618.1808668237208
 20
537.1622052529816
 30
0.0
 11
627.8457998064677
 21
537.1622052529817
 31
0.0
  0
LINE
  5
6507
330
1E
100
AcDbEntity
  8
STEMPEL
100
AcDbLine
 10
645.9228245167553
 20
537.1622052529818
 30
0.0
 11
653.028488399864
 21
537.1622052529817
 31
0.0
  0
LINE
  5
6508
330
1E
100
AcDbEntity
  8
STEMPEL
100
AcDbLine
 10
717.1944886616931
 20
537.1622052529819
 30
0.0
 11
725.214067320157
 21
537.162205252982
 31
0.0
  0
LINE
  5
6509
330
1E
100
AcDbEntity
  8
STEMPEL
100
AcDbLine
 10
695.8231141237868
 20
537.1622052529817
 30
0.0
 11
705.3878788231365
 21
537.1622052529819
 31
0.0
  0
LINE
  5
650A
330
1E
100
AcDbEntity
  8
STEMPEL
100
AcDbLine
 10
674.1269052006169
 20
537.1622052529818
 30
0.0
 11
682.8994529133003
 21
537.1622052529818
 31
0.0
  0
LINE
  5
650B
102
{ACAD_REACTORS
330
6FC7
102
}
330
1E
100
AcDbEntity
  8
STEMPEL
100
AcDbLine
 10
782.3101114380833
 20
537.1622052529819
 30
0.0
 11
803.0776968002403
 21
537.1622052529819
 31
0.0
  0
LINE
  5
650C
330
1E
100
AcDbEntity
  8
STEMPEL
100
AcDbLine
 10
771.5259292493267
 20
537.162205252982
 30
0.0
 11
772.3711123360608
 21
537.1622052529819
 31
0.0
  0
LINE
  5
650D
330
1E
100
AcDbEntity
  8
STEMPEL
100
AcDbLine
 10
763.0990611424286
 20
537.1622052529819
 30
0.0
 11
765.8312714847443
 21
537.1622052529819
 31
0.0
  0
LINE
  5
650E
330
1E
100
AcDbEntity
  8
STEMPEL
100
AcDbLine
 10
751.0998158025504
 20
537.162205252982
 30
0.0
 11
755.6759648112054
 21
537.1622052529819
 31
0.0
  0
LINE
  5
650F
330
1E
100
AcDbEntity
  8
STEMPEL
100
AcDbLine
 10
735.717428496703
 20
537.162205252982
 30
0.0
 11
742.0653475681726
 21
537.162205252982
 31
0.0
  0
ARC
  5
6510
102
{ACAD_REACTORS
330
6FC7
102
}
330
1E
100
AcDbEntity
  8
STEMPEL
100
AcDbCircle
 10
782.3101114380833
 20
542.1622052529819
 30
0.0
 40
5.0
100
AcDbArc
 50
179.9999999999992
 51
270.0
  0
ARC
  5
651C
102
{ACAD_REACTORS
330
6FC7
102
}
330
1E
100
AcDbEntity
  8
STEMPEL
100
AcDbCircle
 10
782.3101114380833
 20
542.1622052529819
 30
0.0
 40
6.5
100
AcDbArc
 50
179.9999999999992
 51
270.0
  0
LINE
  5
651D
102
{ACAD_REACTORS
330
6FC7
102
}
330
1E
100
AcDbEntity
  8
STEMPEL
100
AcDbLine
 10
775.8101114380833
 20
542.162205252982
 30
0.0
 11
775.8101114380833
 21
558.6622052529808
 31
0.0
  0
ARC
  5
651E
102
{ACAD_REACTORS
330
6FC7
102
}
330
1E
100
AcDbEntity
  8
STEMPEL
100
AcDbCircle
 10
692.3101114380833
 20
558.6622052529816
 30
0.0
 40
83.49999999999999
100
AcDbArc
 50
359.9999999999994
 51
89.99999999999992
  0
LINE
  5
651F
102
{ACAD_REACTORS
330
6FC7
102
}
330
1E
100
AcDbEntity
  8
STEMPEL
100
AcDbLine
 10
380.8452821623971
 20
642.1622052529818
 30
0.0
 11
692.3101114380831
 21
642.162205252982
 31
0.0
  0
ARC
  5
6520
102
{ACAD_REACTORS
330
6FC7
102
}
330
1E
100
AcDbEntity
  8
STEMPEL
100
AcDbCircle
 10
380.8452821623971
 20
558.6622052529818
 30
0.0
 40
83.49999999999999
100
AcDbArc
 50
90.00000000000003
 51
180.0
  0
ARC
  5
6521
102
{ACAD_REACTORS
330
6FC7
102
}
330
1E
100
AcDbEntity
  8
STEMPEL
100
AcDbCircle
 10
290.8452821623972
 20
542.1622052529819
 30
0.0
 40
5.0
100
AcDbArc
 50
269.9999999999998
 51
0.0
  0
LINE
  5
6522
102
{ACAD_REACTORS
330
6FC7
102
}
330
1E
100
AcDbEntity
  8
STEMPEL
100
AcDbLine
 10
297.3452821623972
 20
542.1622052529819
 30
0.0
 11
297.3452821623972
 21
558.6622052529818
 31
0.0
  0
ARC
  5
6523
102
{ACAD_REACTORS
330
6FC7
102
}
330
1E
100
AcDbEntity
  8
STEMPEL
100
AcDbCircle
 10
290.8452821623972
 20
542.1622052529819
 30
0.0
 40
6.5
100
AcDbArc
 50
269.9999999999998
 51
0.0
  0
DIMENSION
  5
65C7
330
1E
100
AcDbEntity
  8
BEM
100
AcDbDimension
  2
*D4
 10
803.0776968002403
 20
677.447832939687
 30
0.0
 11
536.5776968002402
 21
685.572832939687
 31
0.0
 70
    32
  1
%%c<>
 71
     5
 42
533.0000000000002
  3
Standard
100
AcDbAlignedDimension
 13
270.0776968002402
 23
537.1622052529819
 33
0.0
 14
803.0776968002403
 24
537.1622052529819
 34
0.0
100
AcDbRotatedDimension
1001
ACAD
1000
DSTYLE
1002
{
1070
    40
1040
2.5
1070
    41
1040
3.5
1070
    42
1040
1.0
1070
    43
1040
7.0
1070
    44
1040
1.0
1070
    73
1070
     0
1070
    74
1070
     0
1070
    77
1070
     1
1070
    78
1070
     8
1070
    79
1070
     2
1070
   140
1040
3.5
1070
   141
1040
1.5
1070
   146
1040
0.5142857142857144
1070
   147
1040
1.5
1070
   172
1070
     1
1070
   178
1070
     1
1070
   179
1070
     2
1070
   271
1070
     2
1070
   272
1070
     2
1070
   284
1070
     8
1070
   285
1070
     8
1070
   286
1070
     8
1002
}
  0
LINE
  5
662E
330
1E
100
AcDbEntity
  8
STEMPEL
100
AcDbLine
 10
286.5776968002402
 20
524.6622052529819
 30
0.0
 11
285.0776968002402
 21
524.6622052529819
 31
0.0
  0
LINE
  5
662F
330
1E
100
AcDbEntity
  8
STEMPEL
100
AcDbLine
 10
273.5776968002402
 20
520.6622052529819
 30
0.0
 11
273.5776968002402
 21
524.6622052529819
 31
0.0
  0
LINE
  5
6630
330
1E
100
AcDbEntity
  8
STEMPEL
100
AcDbLine
 10
286.5776968002402
 20
520.6622052529819
 30
0.0
 11
286.5776968002402
 21
524.6622052529819
 31
0.0
  0
LINE
  5
6631
330
1E
100
AcDbEntity
  8
STEMPEL
100
AcDbLine
 10
285.0776968002402
 20
535.6622052529819
 30
0.0
 11
283.0776968002396
 21
535.6622052529819
 31
0.0
  0
LINE
  5
6632
330
1E
100
AcDbEntity
  8
STEMPEL
100
AcDbLine
 10
275.0776968002402
 20
524.6622052529819
 30
0.0
 11
275.0776968002402
 21
535.6622052529819
 31
0.0
  0
LINE
  5
6633
330
1E
100
AcDbEntity
  8
STEMPEL
100
AcDbLine
 10
285.0776968002402
 20
524.6622052529819
 30
0.0
 11
285.0776968002402
 21
535.6622052529819
 31
0.0
  0
LINE
  5
6634
330
1E
100
AcDbEntity
  8
HILF
100
AcDbLine
 10
277.0776968002402
 20
526.6622052529819
 30
0.0
 11
277.0776968002402
 21
529.7622052529821
 31
0.0
  0
LINE
  5
6635
330
1E
100
AcDbEntity
  8
HILF
100
AcDbLine
 10
283.0776968002402
 20
526.6622052529819
 30
0.0
 11
283.0776968002402
 21
529.7622052529818
 31
0.0
  0
LINE
  5
6636
330
1E
100
AcDbEntity
  8
STEMPEL
100
AcDbLine
 10
283.0776968002402
 20
526.6622052529817
 30
0.0
 11
277.0776968002402
 21
526.6622052529819
 31
0.0
  0
LINE
  5
6637
330
1E
100
AcDbEntity
  8
STEMPEL
100
AcDbLine
 10
275.0776968002402
 20
524.6622052529819
 30
0.0
 11
273.5776968002402
 21
524.6622052529819
 31
0.0
  0
LINE
  5
6638
330
1E
100
AcDbEntity
  8
STEMPEL
100
AcDbLine
 10
282.0776968002402
 20
524.6622052529814
 30
0.0
 11
282.0776968002402
 21
528.7622052529821
 31
0.0
  0
LINE
  5
6639
330
1E
100
AcDbEntity
  8
STEMPEL
100
AcDbLine
 10
278.0776968002402
 20
524.6622052529817
 30
0.0
 11
278.0776968002402
 21
528.7622052529822
 31
0.0
  0
LINE
  5
663A
330
1E
100
AcDbEntity
  8
STEMPEL
100
AcDbLine
 10
282.0776968002402
 20
524.6622052529819
 30
0.0
 11
278.0776968002402
 21
524.6622052529819
 31
0.0
  0
LINE
  5
663B
330
1E
100
AcDbEntity
  8
STEMPEL
100
AcDbLine
 10
278.0776968002402
 20
524.6622052529819
 30
0.0
 11
280.0776968002402
 21
524.1263068681196
 31
0.0
  0
LINE
  5
663C
330
1E
100
AcDbEntity
  8
STEMPEL
100
AcDbLine
 10
282.0776968002402
 20
524.6622052529819
 30
0.0
 11
280.0776968002402
 21
524.1263068681196
 31
0.0
  0
LINE
  5
6648
330
1E
100
AcDbEntity
  8
MITTEL
100
AcDbLine
 10
280.0776968002402
 20
513.6622052529822
 30
0.0
 11
280.0776968002402
 21
547.829948587382
 31
0.0
  0
LINE
  5
6649
330
1E
100
AcDbEntity
  8
STEMPEL
100
AcDbLine
 10
803.0776968002403
 20
518.6622052529822
 30
0.0
 11
803.0776968002403
 21
520.6622052529819
 31
0.0
  0
LINE
  5
664A
330
1E
100
AcDbEntity
  8
STEMPEL
100
AcDbLine
 10
270.0776968002403
 20
518.6622052529822
 30
0.0
 11
270.0776968002403
 21
520.6622052529817
 31
0.0
  0
LINE
  5
664B
330
1E
100
AcDbEntity
  8
STEMPEL
100
AcDbLine
 10
803.0776968002403
 20
520.6622052529821
 30
0.0
 11
669.5776968002401
 21
520.6622052529822
 31
0.0
  0
LINE
  5
664C
330
1E
100
AcDbEntity
  8
STEMPEL
100
AcDbLine
 10
803.0776968002403
 20
518.6622052529822
 30
0.0
 11
669.5776968002401
 21
518.662205252982
 31
0.0
  0
LINE
  5
666C
330
1E
100
AcDbEntity
  8
STEMPEL
100
AcDbLine
 10
277.0776968002402
 20
529.7622052529821
 30
0.0
 11
283.0776968002402
 21
529.7622052529818
 31
0.0
  0
LINE
  5
666D
330
1E
100
AcDbEntity
  8
STEMPEL
100
AcDbLine
 10
278.0776968002402
 20
528.7622052529821
 30
0.0
 11
282.0776968002402
 21
528.7622052529821
 31
0.0
  0
LINE
  5
666E
330
1E
100
AcDbEntity
  8
STEMPEL
100
AcDbLine
 10
277.0776968002403
 20
529.7622052529828
 30
0.0
 11
278.0776968002404
 21
528.7622052529821
 31
0.0
  0
LINE
  5
666F
330
1E
100
AcDbEntity
  8
STEMPEL
100
AcDbLine
 10
282.0776968002395
 20
528.7622052529821
 30
0.0
 11
283.0776968002403
 21
529.7622052529828
 31
0.0
  0
LINE
  5
6670
330
1E
100
AcDbEntity
  8
HILF
100
AcDbLine
 10
282.0776968002402
 20
528.7622052529821
 30
0.0
 11
282.0776968002402
 21
537.1622052529819
 31
0.0
  0
LINE
  5
6671
330
1E
100
AcDbEntity
  8
STEMPEL
100
AcDbLine
 10
283.0776968002393
 20
537.1622052529819
 30
0.0
 11
283.0776968002411
 21
529.7622052529818
 31
0.0
  0
LINE
  5
6672
330
1E
100
AcDbEntity
  8
HILF
100
AcDbLine
 10
278.0776968002402
 20
528.7622052529822
 30
0.0
 11
278.0776968002402
 21
537.1622052529821
 31
0.0
  0
LINE
  5
6673
330
1E
100
AcDbEntity
  8
STEMPEL
100
AcDbLine
 10
277.0776968002384
 20
537.1622052529821
 30
0.0
 11
277.0776968002403
 21
529.7622052529821
 31
0.0
  0
ARC
  5
6674
330
1E
100
AcDbEntity
  8
STEMPEL
100
AcDbCircle
 10
280.0776968002388
 20
534.548830993782
 30
0.0
 40
8.281117593600001
100
AcDbArc
 50
70.52782738138624
 51
109.4721726186137
  0
LINE
  5
6675
330
1E
100
AcDbEntity
  8
STEMPEL
100
AcDbLine
 10
275.9373472106129
 20
542.829948587382
 30
0.0
 11
284.2180463893557
 21
542.829948587382
 31
0.0
  0
LINE
  5
6676
330
1E
100
AcDbEntity
  8
STEMPEL
100
AcDbLine
 10
274.0776968002388
 20
538.762205252982
 30
0.0
 11
286.0776968002388
 21
538.7622052529819
 31
0.0
  0
LINE
  5
6677
102
{ACAD_REACTORS
330
6FC7
102
}
330
1E
100
AcDbEntity
  8
STEMPEL
100
AcDbLine
 10
286.077696800239
 20
537.1622052529817
 30
0.0
 11
274.0776968002388
 21
537.1622052529821
 31
0.0
  0
LINE
  5
6678
330
1E
100
AcDbEntity
  8
STEMPEL
100
AcDbLine
 10
274.5566922909402
 20
542.3799580421789
 30
0.0
 11
274.7634504227256
 21
542.4993299052223
 31
0.0
  0
ARC
  5
6679
330
1E
100
AcDbEntity
  8
STEMPEL
100
AcDbCircle
 10
275.9369434182648
 20
540.5820502671028
 30
0.0
 40
2.247898356545996
100
AcDbArc
 50
52.11936428281878
 51
121.4691945163669
  0
LINE
  5
667A
330
1E
100
AcDbEntity
  8
STEMPEL
100
AcDbLine
 10
274.0776968002388
 20
538.762205252982
 30
0.0
 11
274.0776968002388
 21
537.1622052529819
 31
0.0
  0
LINE
  5
667B
330
1E
100
AcDbEntity
  8
STEMPEL
100
AcDbLine
 10
277.3171945455895
 20
542.3562976700545
 30
0.0
 11
277.3171945455895
 21
538.762205252982
 31
0.0
  0
LINE
  5
667C
330
1E
100
AcDbEntity
  8
STEMPEL
100
AcDbLine
 10
274.5566922909402
 20
542.3799580421789
 30
0.0
 11
274.5566922909402
 21
538.762205252982
 31
0.0
  0
LINE
  5
667D
330
1E
100
AcDbEntity
  8
STEMPEL
100
AcDbLine
 10
284.2144909568536
 20
542.829948587382
 30
0.0
 11
284.2180463898497
 21
542.829948587382
 31
0.0
  0
ARC
  5
667E
330
1E
100
AcDbEntity
  8
STEMPEL
100
AcDbCircle
 10
284.2184501822128
 20
540.5820502671028
 30
0.0
 40
2.247898356545996
100
AcDbArc
 50
58.53080548383188
 51
127.8806357171812
  0
LINE
  5
667F
330
1E
100
AcDbEntity
  8
STEMPEL
100
AcDbLine
 10
285.5987013095376
 20
542.3799580421789
 30
0.0
 11
285.3919431777452
 21
542.4993299052263
 31
0.0
  0
LINE
  5
6680
330
1E
100
AcDbEntity
  8
STEMPEL
100
AcDbLine
 10
286.0776968002388
 20
538.7622052529819
 30
0.0
 11
286.0776968002388
 21
537.1622052529819
 31
0.0
  0
LINE
  5
6681
330
1E
100
AcDbEntity
  8
STEMPEL
100
AcDbLine
 10
285.5987013095376
 20
542.3799580421788
 30
0.0
 11
285.5987013095376
 21
538.762205252982
 31
0.0
  0
LINE
  5
6682
330
1E
100
AcDbEntity
  8
STEMPEL
100
AcDbLine
 10
282.8381990548883
 20
542.3562976700545
 30
0.0
 11
282.8381990548881
 21
538.762205252982
 31
0.0
  0
LINE
  5
6683
330
1E
100
AcDbEntity
  8
STEMPEL
100
AcDbLine
 10
277.0776968002388
 20
535.6622052529819
 30
0.0
 11
275.0776968002402
 21
535.6622052529819
 31
0.0
  0
LINE
  5
6684
102
{ACAD_REACTORS
330
6FC7
102
}
330
1E
100
AcDbEntity
  8
STEMPEL
100
AcDbLine
 10
283.0776968002396
 20
535.6622052529821
 30
0.0
 11
399.0284883998642
 21
535.6622052529821
 31
0.0
  0
HATCH
  5
66A5
330
1E
100
AcDbEntity
  8
SCHRAFF
100
AcDbHatch
 10
0.0
 20
0.0
 30
0.0
210
0.0
220
0.0
230
1.0
  2
_USER
 70
     0
 71
     0
 91
        4
 92
        7
 72
     0
 73
     1
 93
       11
 10
285.0776968002402
 20
535.6622052529821
 10
283.0776968002396
 20
535.6622052529821
 10
283.0776968002411
 20
529.7622052529818
 10
283.0776968002402
 20
526.6622052529815
 10
282.0776968002402
 20
526.6622052529817
 10
282.0776968002402
 20
524.662205252982
 10
280.0776968002402
 20
524.1263068681196
 10
280.0776968002402
 20
520.6622052529819
 10
286.5776968002402
 20
520.6622052529819
 10
286.5776968002402
 20
524.6622052529819
 10
285.0776968002402
 20
524.6622052529819
 97
        0
 92
       23
 72
     0
 73
     1
 93
        4
 10
282.0776968002402
 20
526.6622052529818
 10
283.0776968002402
 20
526.6622052529818
 10
283.0776968002402
 20
529.7622052529826
 10
282.0776968002402
 20
528.7622052529827
 97
        0
 92
       22
 72
     0
 73
     1
 93
        4
 10
277.0776968002402
 20
526.6622052529818
 10
278.0776968002402
 20
526.6622052529817
 10
278.0776968002402
 20
528.7622052529822
 10
277.0776968002402
 20
529.7622052529828
 97
        0
 92
        7
 72
     0
 73
     1
 93
       11
 10
277.0776968002402
 20
529.7622052529821
 10
277.0776968002387
 20
535.6622052529819
 10
275.0776968002402
 20
535.6622052529818
 10
275.0776968002402
 20
524.6622052529819
 10
273.5776968002402
 20
524.6622052529818
 10
273.5776968002402
 20
520.6622052529818
 10
280.0776968002402
 20
520.6622052529818
 10
280.0776968002402
 20
524.1263068681197
 10
278.0776968002402
 20
524.662205252982
 10
278.0776968002402
 20
526.6622052529817
 10
277.0776968002402
 20
526.6622052529819
 97
        0
 75
     0
 76
     0
 52
135.0
 41
2.0
 77
     0
 78
     1
 53
135.0
 43
227.0941817201315
 44
-259.2768813580524
 45
-1.414213562373095
 46
-1.414213562373094
 79
     0
 47
0.0384009759226946
 98
        4
 10
284.4448650153768
 20
532.9516896447453
 10
282.5237794628498
 20
528.2667689488225
 10
277.3368516788628
 20
528.151567559943
 10
276.2610399200454
 20
527.3835459517422
  0
HATCH
  5
66BB
330
1E
100
AcDbEntity
  8
SCHRAFF
100
AcDbHatch
 10
0.0
 20
0.0
 30
0.0
210
0.0
220
0.0
230
1.0
  2
NET
 70
     0
 71
     0
 91
        4
 92
        7
 72
     0
 73
     1
 93
        4
 10
671.5776968002401
 20
518.662205252982
 10
671.5776968002401
 20
516.6622052529821
 10
701.5776968002401
 20
516.6622052529821
 10
701.5776968002401
 20
518.6622052529822
 97
        0
 92
        7
 72
     0
 73
     1
 93
        4
 10
631.5776968002401
 20
518.6622052529823
 10
631.5776968002401
 20
516.6622052529823
 10
655.5776968002401
 20
516.6622052529821
 10
655.5776968002401
 20
518.6622052529822
 97
        0
 92
        7
 72
     0
 73
     1
 93
        4
 10
418.4905007796379
 20
518.6622052529822
 10
418.4905007796379
 20
516.6622052529823
 10
441.5776968002401
 20
516.6622052529823
 10
441.5776968002401
 20
518.6622052529822
 97
        0
 92
        7
 72
     0
 73
     1
 93
        4
 10
371.5776968002402
 20
518.6622052529823
 10
371.5776968002402
 20
516.6622052529823
 10
400.5776968002401
 20
516.6622052529823
 10
400.5776968002401
 20
518.6622052529822
 97
        0
 75
     0
 76
     1
 52
45.0
 41
10.0
 77
     0
 78
     2
 53
45.0
 43
304.2080485944303
 44
-25.99474159620888
 45
-0.8838834764831842
 46
0.8838834764831844
 79
     0
 53
135.0
 43
304.2080485944303
 44
-25.99474159620888
 45
-0.8838834764831844
 46
-0.8838834764831842
 79
     0
 47
0.4560678863809227
 98
        4
 10
675.8982623310717
 20
518.1812193532692
 10
642.1245178175249
 20
517.7251507906895
 10
431.7232237218082
 20
518.1812193532692
 10
393.3854620354496
 20
517.7251507906895
  0
LINE
  5
66BC
330
1E
100
AcDbEntity
  8
STEMPEL
100
AcDbLine
 10
400.5776968002401
 20
516.662205252982
 30
0.0
 11
400.5776968002401
 21
518.662205252982
 31
0.0
  0
LINE
  5
66BD
330
1E
100
AcDbEntity
  8
STEMPEL
100
AcDbLine
 10
418.4905007796379
 20
516.662205252982
 30
0.0
 11
418.4905007796379
 21
518.662205252982
 31
0.0
  0
LINE
  5
66BE
330
1E
100
AcDbEntity
  8
STEMPEL
100
AcDbLine
 10
655.5776968002401
 20
516.662205252982
 30
0.0
 11
655.5776968002401
 21
518.662205252982
 31
0.0
  0
LINE
  5
66BF
330
1E
100
AcDbEntity
  8
STEMPEL
100
AcDbLine
 10
671.5776968002401
 20
516.662205252982
 30
0.0
 11
671.5776968002401
 21
518.662205252982
 31
0.0
  0
LINE
  5
66C0
330
1E
100
AcDbEntity
  8
STEMPEL
100
AcDbLine
 10
371.5776968002402
 20
516.6622052529821
 30
0.0
 11
701.5776968002401
 21
516.6622052529821
 31
0.0
  0
LINE
  5
66C1
330
1E
100
AcDbEntity
  8
STEMPEL
100
AcDbLine
 10
701.5776968002401
 20
516.6622052529821
 30
0.0
 11
701.5776968002401
 21
518.6622052529822
 31
0.0
  0
LINE
  5
66C3
330
1E
100
AcDbEntity
  8
STEMPEL
100
AcDbLine
 10
631.5776968002401
 20
516.6622052529821
 30
0.0
 11
631.5776968002401
 21
518.6622052529822
 31
0.0
  0
LINE
  5
66C4
330
1E
100
AcDbEntity
  8
STEMPEL
100
AcDbLine
 10
441.5776968002401
 20
516.6622052529821
 30
0.0
 11
441.5776968002401
 21
518.6622052529822
 31
0.0
  0
LINE
  5
66C6
330
1E
100
AcDbEntity
  8
STEMPEL
100
AcDbLine
 10
371.5776968002402
 20
516.6622052529821
 30
0.0
 11
371.5776968002402
 21
518.6622052529822
 31
0.0
  0
HATCH
  5
66D7
330
1E
100
AcDbEntity
  8
SCHRAFF
100
AcDbHatch
 10
0.0
 20
0.0
 30
0.0
210
0.0
220
0.0
230
1.0
  2
_USER
 70
     0
 71
     0
 91
        6
 92
        7
 72
     0
 73
     1
 93
        4
 10
803.0776968002399
 20
518.6622052529818
 10
803.0776968002401
 20
520.662205252982
 10
664.8276968002399
 20
520.6622052529816
 10
664.8276968002399
 20
518.6622052529818
 97
        0
 92
        7
 72
     0
 73
     1
 93
        4
 10
672.5776968002403
 20
520.6622052529818
 10
664.8276968002399
 20
520.6622052529816
 10
664.8276968002399
 20
518.6622052529818
 10
672.5776968002403
 20
518.6622052529818
 97
        0
 92
        7
 72
     0
 73
     1
 93
        4
 10
654.5776968002403
 20
520.6622052529818
 10
631.5776968002401
 20
520.6622052529818
 10
631.5776968002398
 20
518.662205252982
 10
654.5776968002403
 20
518.662205252982
 97
        0
 92
        7
 72
     0
 73
     1
 93
        4
 10
441.5776968002401
 20
520.6622052529818
 10
417.57769680024
 20
520.6622052529818
 10
417.5776968002401
 20
518.662205252982
 10
441.5776968002401
 20
518.662205252982
 97
        0
 92
        7
 72
     0
 73
     1
 93
        4
 10
401.5776968002401
 20
518.662205252982
 10
401.5776968002401
 20
520.6622052529818
 10
280.0776968002399
 20
520.6622052529818
 10
280.0776968002399
 20
518.6622052529818
 97
        0
 92
        7
 72
     0
 73
     1
 93
        4
 10
270.0776968002402
 20
520.6622052529818
 10
270.0776968002402
 20
518.662205252982
 10
280.0776968002399
 20
518.662205252982
 10
280.0776968002399
 20
520.6622052529816
 97
        0
 75
     0
 76
     0
 52
45.0
 41
2.0
 77
     0
 78
     1
 53
45.0
 43
-20.95310358553974
 44
-701.8507381994992
 45
-1.414213562373094
 46
1.414213562373095
 79
     0
 47
0.6096248001726293
 98
        6
 10
767.8640972539624
 20
519.4281359400296
 10
652.5793752448844
 20
520.0377613643143
 10
607.4414432144513
 20
520.0377613643143
 10
459.8282034418907
 20
520.0377613643143
 10
393.951220350059
 20
519.4281359400296
 10
275.0066684333452
 20
520.0377613643143
  0
LINE
  5
66D9
330
1E
100
AcDbEntity
  8
STEMPEL
100
AcDbLine
 10
672.5776968002403
 20
518.6622052529838
 30
0.0
 11
672.5776968002403
 21
520.6622052529836
 31
0.0
  0
LINE
  5
66DA
330
1E
100
AcDbEntity
  8
STEMPEL
100
AcDbLine
 10
654.5776968002403
 20
518.6622052529836
 30
0.0
 11
654.5776968002403
 21
520.6622052529834
 31
0.0
  0
LINE
  5
66DB
330
1E
100
AcDbEntity
  8
STEMPEL
100
AcDbLine
 10
631.5776968002401
 20
520.662205252982
 30
0.0
 11
631.5776968002398
 21
518.662205252982
 31
0.0
  0
LINE
  5
66DC
330
1E
100
AcDbEntity
  8
STEMPEL
100
AcDbLine
 10
417.57769680024
 20
518.662205252982
 30
0.0
 11
417.5776968002401
 21
520.6622052529818
 31
0.0
  0
LINE
  5
66DD
330
1E
100
AcDbEntity
  8
STEMPEL
100
AcDbLine
 10
401.5776968002401
 20
518.662205252982
 30
0.0
 11
401.5776968002401
 21
520.6622052529818
 31
0.0
  0
LINE
  5
66DF
330
1E
100
AcDbEntity
  8
STEMPEL
100
AcDbLine
 10
441.5776968002401
 20
520.6622052529818
 30
0.0
 11
441.5776968002401
 21
518.662205252982
 31
0.0
  0
LINE
  5
66EA
330
1E
100
AcDbEntity
  8
STEMPEL
100
AcDbLine
 10
371.5776968002402
 20
522.662205252982
 30
0.0
 11
403.5776968002403
 21
522.662205252982
 31
0.0
  0
LINE
  5
66EB
330
1E
100
AcDbEntity
  8
STEMPEL
100
AcDbLine
 10
371.5776968002402
 20
520.662205252982
 30
0.0
 11
371.5776968002402
 21
522.662205252982
 31
0.0
  0
LINE
  5
66EC
330
1E
100
AcDbEntity
  8
STEMPEL
100
AcDbLine
 10
441.5776968002401
 20
520.662205252982
 30
0.0
 11
441.5776968002401
 21
522.662205252982
 31
0.0
  0
LINE
  5
66ED
330
1E
100
AcDbEntity
  8
STEMPEL
100
AcDbLine
 10
631.5776968002401
 20
520.662205252982
 30
0.0
 11
631.5776968002401
 21
522.662205252982
 31
0.0
  0
LINE
  5
66EE
330
1E
100
AcDbEntity
  8
STEMPEL
100
AcDbLine
 10
701.5776968002401
 20
520.662205252982
 30
0.0
 11
701.5776968002401
 21
522.662205252982
 31
0.0
  0
LINE
  5
66EF
330
1E
100
AcDbEntity
  8
STEMPEL
100
AcDbLine
 10
671.5776968002401
 20
520.6622052529819
 30
0.0
 11
671.5776968002401
 21
522.6622052529819
 31
0.0
  0
LINE
  5
66F0
330
1E
100
AcDbEntity
  8
STEMPEL
100
AcDbLine
 10
655.5776968002401
 20
520.6622052529819
 30
0.0
 11
655.5776968002401
 21
522.6622052529819
 31
0.0
  0
LINE
  5
66F1
330
1E
100
AcDbEntity
  8
STEMPEL
100
AcDbLine
 10
418.4905007796379
 20
520.6622052529819
 30
0.0
 11
418.4905007796379
 21
522.6622052529819
 31
0.0
  0
LINE
  5
66F2
330
1E
100
AcDbEntity
  8
STEMPEL
100
AcDbLine
 10
400.5776968002401
 20
520.6622052529819
 30
0.0
 11
400.5776968002401
 21
522.6622052529819
 31
0.0
  0
HATCH
  5
66F3
330
1E
100
AcDbEntity
  8
SCHRAFF
100
AcDbHatch
 10
0.0
 20
0.0
 30
0.0
210
0.0
220
0.0
230
1.0
  2
NET
 70
     0
 71
     0
 91
        4
 92
        7
 72
     0
 73
     1
 93
        4
 10
671.5776968002401
 20
522.6622052529819
 10
671.5776968002401
 20
520.662205252982
 10
701.5776968002401
 20
520.662205252982
 10
701.5776968002401
 20
522.662205252982
 97
        0
 92
        7
 72
     0
 73
     1
 93
        4
 10
631.5776968002401
 20
522.6622052529822
 10
631.5776968002401
 20
520.6622052529821
 10
655.5776968002401
 20
520.662205252982
 10
655.5776968002401
 20
522.662205252982
 97
        0
 92
        7
 72
     0
 73
     1
 93
        4
 10
418.4905007796379
 20
522.662205252982
 10
418.4905007796379
 20
520.6622052529821
 10
441.5776968002401
 20
520.6622052529821
 10
441.5776968002401
 20
522.662205252982
 97
        0
 92
        7
 72
     0
 73
     1
 93
        4
 10
371.5776968002402
 20
522.6622052529822
 10
371.5776968002402
 20
520.6622052529821
 10
400.5776968002401
 20
520.6622052529821
 10
400.5776968002401
 20
522.662205252982
 97
        0
 75
     0
 76
     1
 52
45.0
 41
10.0
 77
     0
 78
     2
 53
45.0
 43
304.2080485944303
 44
-21.99474159620899
 45
-0.8838834764831842
 46
0.8838834764831844
 79
     0
 53
135.0
 43
304.2080485944303
 44
-21.99474159620899
 45
-0.8838834764831844
 46
-0.8838834764831842
 79
     0
 47
0.4560678863809227
 98
        4
 10
675.8982623310717
 20
522.1812193532691
 10
642.1245178175249
 20
521.7251507906894
 10
431.7232237218082
 20
522.1812193532691
 10
393.3854620354496
 20
521.7251507906894
  0
HATCH
  5
6755
330
1E
100
AcDbEntity
  8
SCHRAFF
100
AcDbHatch
 10
0.0
 20
0.0
 30
0.0
210
0.0
220
0.0
230
1.0
  2
_USER
 70
     0
 71
     0
 91
        2
 92
        7
 72
     1
 73
     1
 93
        3
 10
446.421664366975
 20
505.773936679324
 42
-0.0357599562310586
 10
447.4727734725335
 20
510.6622052529819
 42
0.0
 10
442.4727734725336
 20
510.6622052529819
 42
0.3534540684175102
 97
        0
 92
        7
 72
     1
 73
     1
 93
        3
 10
625.6826201279468
 20
510.6622052529819
 42
-0.0357599562310594
 10
626.7337292335055
 20
505.7739366793239
 42
0.3534540684175102
 10
630.6826201279468
 20
510.6622052529819
 42
0.0
 97
        0
 75
     0
 76
     0
 52
0.0
 41
0.1
 77
     0
 78
     1
 53
0.0
 43
292.0478254051133
 44
-186.3584918918766
 45
0.0
 46
0.1
 79
     0
 47
0.3123162083749499
 98
        2
 10
444.7466117871128
 20
507.8685302599894
 10
628.1953104684114
 20
509.1177945075949
  0
ARC
  5
6756
330
1E
100
AcDbEntity
  8
SCHRAFF
100
AcDbCircle
 10
447.4727734725337
 20
510.6622052529819
 30
0.0
 40
5.0
100
AcDbArc
 50
180.0
 51
257.8646481589243
  0
ARC
  5
6757
330
1E
100
AcDbEntity
  8
SCHRAFF
100
AcDbCircle
 10
625.6826201279468
 20
510.6622052529819
 30
0.0
 40
5.0
100
AcDbArc
 50
282.1353518410742
 51
0.0
  0
HATCH
  5
6758
330
1E
100
AcDbEntity
  8
SCHRAFF
100
AcDbHatch
 10
0.0
 20
0.0
 30
0.0
210
0.0
220
0.0
230
1.0
  2
_USER
 70
     0
 71
     1
 91
        2
 92
        7
 72
     0
 73
     1
 93
        5
 10
701.5776968002403
 20
510.6622052529819
 10
701.5776968002403
 20
514.6622052529818
 10
699.5776968002403
 20
516.6622052529819
 10
622.0776968002404
 20
516.662205252982
 10
622.0776968002403
 20
510.6622052529819
 97
        5
330
6773
330
676F
330
6792
330
6770
330
6772
 92
        7
 72
     0
 73
     1
 93
        5
 10
451.0776968002404
 20
510.6622052529819
 10
451.0776968002404
 20
516.6622052529823
 10
373.5776968002406
 20
516.6622052529824
 10
371.5776968002403
 20
514.6622052529818
 10
371.5776968002402
 20
510.6622052529819
 97
        5
330
676F
330
676A
330
6764
330
6770
330
6791
 75
     0
 76
     0
 52
135.0
 41
5.0
 77
     0
 78
     1
 53
135.0
 43
292.0478254051133
 44
-186.3584918918766
 45
-3.535533905932737
 46
-3.535533905932737
 79
     0
 47
0.6407199638404306
 98
        2
 10
639.5912814388164
 20
513.5315656022828
 10
435.0688531924635
 20
512.8908442103254
  0
HATCH
  5
6759
330
1E
100
AcDbEntity
  8
SCHRAFF
100
AcDbHatch
 10
0.0
 20
0.0
 30
0.0
210
0.0
220
0.0
230
1.0
  2
_USER
 70
     0
 71
     0
 91
        2
 92
        7
 72
     1
 73
     1
 93
       20
 10
624.5776968002403
 20
484.7127153313269
 42
-0.1211241773290851
 10
620.8984677775606
 20
469.6366779106533
 42
0.1206909349745739
 10
618.5776968002403
 20
460.1622052529818
 42
0.0
 10
618.5776968002403
 20
445.1031767610488
 42
-0.1528962216020376
 10
615.8098396573832
 20
436.2633499377844
 42
0.1528962216020434
 10
613.5776968002403
 20
429.1344573383774
 42
0.0
 10
613.5776968002403
 20
253.7713576102524
 42
0.0
 10
612.0808399264412
 20
236.662205252982
 42
0.0
 10
614.5903895202998
 20
236.662205252982
 42
0.0
 10
616.0776968002403
 20
253.6622052529826
 42
0.0
 10
616.0776968002403
 20
429.1344573383776
 42
-0.1528962216020377
 10
617.8634110859546
 20
434.837571417903
 42
0.1528962216020408
 10
621.0776968002403
 20
445.1031767610488
 42
0.0
 10
621.0776968002403
 20
460.1622052529818
 42
-0.1206909349745652
 10
623.1154469266676
 20
468.4812544158147
 42
0.1202734944244136
 10
627.0776968002403
 20
484.5995997237694
 42
0.0
 10
627.0776968002403
 20
500.879101035048
 42
0.070941474659305
 10
625.6826201279468
 20
510.6622052529819
 42
0.0
 10
623.0702906229753
 20
510.6622052529819
 42
-0.0765893830497979
 10
624.5776968002403
 20
500.8791010350479
 42
0.0
 97
        0
 92
        7
 72
     1
 73
     1
 93
       20
 10
446.0776968002402
 20
484.599599723823
 42
0.1202734944247996
 10
450.0399466738127
 20
468.4812544158149
 42
-0.1206909349745687
 10
452.0776968002403
 20
460.1622052529818
 42
0.0
 10
452.0776968002403
 20
445.1031767610488
 42
0.1528962216020398
 10
455.2919825145259
 20
434.837571417903
 42
-0.1528962216020404
 10
457.0776968002403
 20
429.1344573383776
 42
0.0
 10
457.0776968002403
 20
253.6622052529814
 42
0.0
 10
458.5650040801811
 20
236.662205252982
 42
0.0
 10
461.0745536740394
 20
236.662205252982
 42
0.0
 10
459.5776968002404
 20
253.7713576102529
 42
0.0
 10
459.5776968002404
 20
429.1344573383776
 42
0.1528962216020383
 10
457.3455539430975
 20
436.2633499377843
 42
-0.1528962216020404
 10
454.5776968002402
 20
445.1031767610488
 42
0.0
 10
454.5776968002402
 20
460.1622052529818
 42
0.1206909349745692
 10
452.2569258229201
 20
469.6366779106529
 42
-0.1211241773289304
 10
448.5776968002403
 20
484.7127153313066
 42
0.0
 10
448.5776968002403
 20
500.879101035048
 42
-0.076589383049797
 10
450.0851029775051
 20
510.6622052529819
 42
0.0
 10
447.4727734725335
 20
510.6622052529819
 42
0.0709414746593034
 10
446.0776968002402
 20
500.8791010350482
 42
0.0
 97
        0
 75
     0
 76
     0
 52
45.0
 41
2.0
 77
     0
 78
     1
 53
45.0
 43
292.0478254051133
 44
-186.3584918918766
 45
-1.414213562373094
 46
1.414213562373095
 79
     0
 47
0.6407199638404306
 98
        2
 10
625.4862881844953
 20
492.3878070193279
 10
447.2504386937946
 20
493.0285263525181
  0
LINE
  5
675A
330
1E
100
AcDbEntity
  8
STEMPEL
100
AcDbLine
 10
415.5776968002403
 20
545.6622052529822
 30
0.0
 11
415.5776968002403
 21
540.6622052529817
 31
0.0
  0
LINE
  5
675B
330
1E
100
AcDbEntity
  8
HILF
100
AcDbLine
 10
414.5776968002404
 20
546.6622052529823
 30
0.0
 11
414.5776968002404
 21
540.6622052529817
 31
0.0
  0
LINE
  5
675C
330
1E
100
AcDbEntity
  8
STEMPEL
100
AcDbLine
 10
403.5776968002403
 20
545.6622052529822
 30
0.0
 11
403.5776968002403
 21
540.6622052529817
 31
0.0
  0
LINE
  5
675D
330
1E
100
AcDbEntity
  8
HILF
100
AcDbLine
 10
404.5776968002404
 20
546.6622052529823
 30
0.0
 11
404.5776968002404
 21
540.6622052529817
 31
0.0
  0
LINE
  5
675E
330
1E
100
AcDbEntity
  8
STEMPEL
100
AcDbLine
 10
414.5776968002404
 20
546.6622052529823
 30
0.0
 11
404.5776968002404
 21
546.6622052529823
 31
0.0
  0
LINE
  5
675F
330
1E
100
AcDbEntity
  8
STEMPEL
100
AcDbLine
 10
415.5776968002403
 20
545.6622052529822
 30
0.0
 11
403.5776968002403
 21
545.6622052529822
 31
0.0
  0
LINE
  5
6760
330
1E
100
AcDbEntity
  8
STEMPEL
100
AcDbLine
 10
404.5776968002404
 20
546.6622052529823
 30
0.0
 11
403.5776968002403
 21
545.6622052529822
 31
0.0
  0
LINE
  5
6761
330
1E
100
AcDbEntity
  8
STEMPEL
100
AcDbLine
 10
415.5776968002403
 20
545.6622052529822
 30
0.0
 11
414.5776968002404
 21
546.6622052529823
 31
0.0
  0
LINE
  5
6762
330
1E
100
AcDbEntity
  8
STEMPEL
  6
Continuous
100
AcDbLine
 10
457.0776968002403
 20
429.1344573383776
 30
0.0
 11
457.0776968002403
 21
253.6622052529822
 31
0.0
  0
LINE
  5
6763
330
1E
100
AcDbEntity
  8
STEMPEL
  6
Continuous
100
AcDbLine
 10
459.5776968002404
 20
429.1344573383776
 30
0.0
 11
459.5776968002404
 21
253.7713576102534
 31
0.0
  0
LINE
  5
6764
102
{ACAD_REACTORS
330
6758
102
}
330
1E
100
AcDbEntity
  8
STEMPEL
100
AcDbLine
 10
371.5776968002403
 20
514.6622052529818
 30
0.0
 11
371.5776968002403
 21
510.6622052529819
 31
0.0
  0
LINE
  5
6765
330
1E
100
AcDbEntity
  8
STEMPEL
100
AcDbLine
 10
459.5776968002404
 20
253.7713576102529
 30
0.0
 11
461.0745536740394
 21
236.662205252982
 31
0.0
  0
LINE
  5
6766
330
1E
100
AcDbEntity
  8
STEMPEL
100
AcDbLine
 10
457.0776968002403
 20
253.6622052529824
 30
0.0
 11
458.5650040801811
 21
236.662205252982
 31
0.0
  0
LINE
  5
6767
330
1E
100
AcDbEntity
  8
STEMPEL
100
AcDbLine
 10
458.5650040801811
 20
236.662205252982
 30
0.0
 11
614.5903895202998
 21
236.662205252982
 31
0.0
  0
LINE
  5
6768
330
1E
100
AcDbEntity
  8
HILF
100
AcDbLine
 10
462.5776968002402
 20
253.6622052529819
 30
0.0
 11
610.5776968002403
 21
253.6622052529819
 31
0.0
  0
LINE
  5
6769
330
1E
100
AcDbEntity
  8
MITTEL
100
AcDbLine
 10
409.5776968002404
 20
551.4341165679122
 30
0.0
 11
409.5776968002404
 21
516.6622052529823
 31
0.0
  0
LINE
  5
676A
102
{ACAD_REACTORS
330
6758
102
}
330
1E
100
AcDbEntity
  8
STEMPEL
100
AcDbLine
 10
373.5776968002402
 20
516.6622052529819
 30
0.0
 11
371.5776968002403
 21
514.6622052529818
 31
0.0
  0
LINE
  5
676B
330
1E
100
AcDbEntity
  8
STEMPEL
  6
Continuous
100
AcDbLine
 10
613.5776968002403
 20
429.1344573383776
 30
0.0
 11
613.5776968002403
 21
253.7713576102533
 31
0.0
  0
LINE
  5
676C
330
1E
100
AcDbEntity
  8
STEMPEL
  6
Continuous
100
AcDbLine
 10
616.0776968002403
 20
429.1344573383776
 30
0.0
 11
616.0776968002403
 21
253.6622052529826
 31
0.0
  0
LINE
  5
676D
330
1E
100
AcDbEntity
  8
STEMPEL
100
AcDbLine
 10
616.0776968002403
 20
253.6622052529824
 30
0.0
 11
614.5903895202998
 21
236.662205252982
 31
0.0
  0
LINE
  5
676E
330
1E
100
AcDbEntity
  8
STEMPEL
100
AcDbLine
 10
613.5776968002403
 20
253.7713576102529
 30
0.0
 11
612.0808399264412
 21
236.662205252982
 31
0.0
  0
LINE
  5
676F
102
{ACAD_REACTORS
330
6758
102
}
330
1E
100
AcDbEntity
  8
STEMPEL
  6
Continuous
100
AcDbLine
 10
699.5776968002403
 20
516.6622052529819
 30
0.0
 11
373.5776968002406
 21
516.6622052529824
 31
0.0
  0
LINE
  5
6770
102
{ACAD_REACTORS
330
6758
102
}
330
1E
100
AcDbEntity
  8
STEMPEL
  6
Continuous
100
AcDbLine
 10
701.5776968002403
 20
510.6622052529819
 30
0.0
 11
371.5776968002403
 21
510.6622052529819
 31
0.0
  0
LINE
  5
6771
330
1E
100
AcDbEntity
  8
MITTEL
100
AcDbLine
 10
663.5776968002403
 20
551.4341165679122
 30
0.0
 11
663.5776968002403
 21
516.662205252982
 31
0.0
  0
LINE
  5
6772
102
{ACAD_REACTORS
330
6758
102
}
330
1E
100
AcDbEntity
  8
STEMPEL
100
AcDbLine
 10
701.5776968002403
 20
514.6622052529818
 30
0.0
 11
701.5776968002403
 21
510.6622052529819
 31
0.0
  0
LINE
  5
6773
102
{ACAD_REACTORS
330
6758
102
}
330
1E
100
AcDbEntity
  8
STEMPEL
100
AcDbLine
 10
699.5776968002403
 20
516.6622052529819
 30
0.0
 11
701.5776968002403
 21
514.6622052529818
 31
0.0
  0
LINE
  5
6774
330
1E
100
AcDbEntity
  8
HILF
  6
Continuous
100
AcDbLine
 10
461.6052260858023
 20
432.8695467425474
 30
0.0
 11
611.5501675146786
 21
432.8695467425476
 31
0.0
  0
ARC
  5
6775
330
1E
100
AcDbEntity
  8
STEMPEL
  6
Continuous
100
AcDbCircle
 10
470.0776968002402
 20
445.1031767610488
 30
0.0
 40
15.5
100
AcDbArc
 50
180.0
 51
214.7719440319481
  0
ARC
  5
6776
330
1E
100
AcDbEntity
  8
STEMPEL
  6
Continuous
100
AcDbCircle
 10
470.0776968002402
 20
445.1031767610488
 30
0.0
 40
18.0
100
AcDbArc
 50
180.0
 51
214.7719440319481
  0
ARC
  5
6777
330
1E
100
AcDbEntity
  8
STEMPEL
  6
Continuous
100
AcDbCircle
 10
447.0776968002403
 20
429.1344573383776
 30
0.0
 40
12.5
100
AcDbArc
 50
0.0
 51
34.7719440319481
  0
ARC
  5
6778
330
1E
100
AcDbEntity
  8
STEMPEL
  6
Continuous
100
AcDbCircle
 10
447.0776968002403
 20
429.1344573383776
 30
0.0
 40
10.0
100
AcDbArc
 50
0.0
 51
34.7719440319481
  0
ARC
  5
6779
330
1E
100
AcDbEntity
  8
STEMPEL
  6
Continuous
100
AcDbCircle
 10
481.0776968002403
 20
500.879101035048
 30
0.0
 40
32.5
100
AcDbArc
 50
162.481207654954
 51
180.0
  0
ARC
  5
677A
330
1E
100
AcDbEntity
  8
STEMPEL
  6
Continuous
100
AcDbCircle
 10
481.0776968002403
 20
500.879101035048
 30
0.0
 40
35.0
100
AcDbArc
 50
163.768604400772
 51
180.0
  0
ARC
  5
677B
330
1E
100
AcDbEntity
  8
STEMPEL
  6
Continuous
100
AcDbCircle
 10
481.0776968002403
 20
484.6572052529818
 30
0.0
 40
32.50004740563918
100
AcDbArc
 50
179.9056985509081
 51
207.5271836205513
  0
ARC
  5
677C
330
1E
100
AcDbEntity
  8
STEMPEL
  6
Continuous
100
AcDbCircle
 10
434.0776968002402
 20
460.1622052529818
 30
0.0
 40
18.0
100
AcDbArc
 50
0.0
 51
27.52718362055122
  0
ARC
  5
677D
330
1E
100
AcDbEntity
  8
STEMPEL
  6
Continuous
100
AcDbCircle
 10
481.0776968002403
 20
484.6572052529818
 30
0.0
 40
35.00004740563918
100
AcDbArc
 50
179.9056985509081
 51
207.5271836205513
  0
LINE
  5
677E
330
1E
100
AcDbEntity
  8
STEMPEL
  6
Continuous
100
AcDbLine
 10
448.5776968002403
 20
500.879101035048
 30
0.0
 11
448.5776968002403
 21
484.714810782159
 31
0.0
  0
LINE
  5
677F
330
1E
100
AcDbEntity
  8
STEMPEL
  6
Continuous
100
AcDbLine
 10
446.0776968002402
 20
500.879101035048
 30
0.0
 11
446.0776968002402
 21
484.714810782159
 31
0.0
  0
LINE
  5
6780
330
1E
100
AcDbEntity
  8
STEMPEL
  6
Continuous
100
AcDbLine
 10
454.5776968002402
 20
460.1622052529818
 30
0.0
 11
454.5776968002402
 21
445.1031767610488
 31
0.0
  0
LINE
  5
6781
330
1E
100
AcDbEntity
  8
STEMPEL
  6
Continuous
100
AcDbLine
 10
452.0776968002403
 20
460.1622052529818
 30
0.0
 11
452.0776968002403
 21
445.1031767610488
 31
0.0
  0
ARC
  5
6782
330
1E
100
AcDbEntity
  8
STEMPEL
  6
Continuous
100
AcDbCircle
 10
434.0776968002402
 20
460.1622052529818
 30
0.0
 40
20.5
100
AcDbArc
 50
0.0
 51
27.52718362055122
  0
ARC
  5
6783
330
1E
100
AcDbEntity
  8
STEMPEL
  6
Continuous
100
AcDbCircle
 10
603.0776968002403
 20
445.1031767610488
 30
0.0
 40
15.5
100
AcDbArc
 50
325.2280559680519
 51
0.0
  0
ARC
  5
6784
330
1E
100
AcDbEntity
  8
STEMPEL
  6
Continuous
100
AcDbCircle
 10
603.0776968002403
 20
445.1031767610488
 30
0.0
 40
18.0
100
AcDbArc
 50
325.2280559680519
 51
0.0
  0
ARC
  5
6785
330
1E
100
AcDbEntity
  8
STEMPEL
  6
Continuous
100
AcDbCircle
 10
626.0776968002403
 20
429.1344573383776
 30
0.0
 40
12.5
100
AcDbArc
 50
145.2280559680519
 51
180.0
  0
ARC
  5
6786
330
1E
100
AcDbEntity
  8
STEMPEL
  6
Continuous
100
AcDbCircle
 10
626.0776968002403
 20
429.1344573383776
 30
0.0
 40
10.0
100
AcDbArc
 50
145.2280559680519
 51
180.0
  0
ARC
  5
6787
330
1E
100
AcDbEntity
  8
STEMPEL
  6
Continuous
100
AcDbCircle
 10
592.0776968002403
 20
500.879101035048
 30
0.0
 40
32.5
100
AcDbArc
 50
0.0
 51
17.51879234504597
  0
ARC
  5
6788
330
1E
100
AcDbEntity
  8
STEMPEL
  6
Continuous
100
AcDbCircle
 10
592.0776968002403
 20
500.879101035048
 30
0.0
 40
35.0
100
AcDbArc
 50
0.0
 51
16.231395599228
  0
ARC
  5
6789
330
1E
100
AcDbEntity
  8
STEMPEL
  6
Continuous
100
AcDbCircle
 10
592.0776968002403
 20
484.6572052529818
 30
0.0
 40
32.50004740563918
100
AcDbArc
 50
332.4728163794488
 51
0.0943014490918224
  0
ARC
  5
678A
330
1E
100
AcDbEntity
  8
STEMPEL
  6
Continuous
100
AcDbCircle
 10
592.0776968002403
 20
484.6572052529818
 30
0.0
 40
35.00004740563918
100
AcDbArc
 50
332.4728163794488
 51
0.0943014490918224
  0
ARC
  5
678B
330
1E
100
AcDbEntity
  8
STEMPEL
  6
Continuous
100
AcDbCircle
 10
639.0776968002403
 20
460.1622052529818
 30
0.0
 40
20.5
100
AcDbArc
 50
152.4728163794488
 51
180.0
  0
LINE
  5
678C
330
1E
100
AcDbEntity
  8
STEMPEL
  6
Continuous
100
AcDbLine
 10
618.5776968002403
 20
460.1622052529818
 30
0.0
 11
618.5776968002403
 21
445.1031767610488
 31
0.0
  0
LINE
  5
678D
330
1E
100
AcDbEntity
  8
STEMPEL
  6
Continuous
100
AcDbLine
 10
621.0776968002403
 20
460.1622052529818
 30
0.0
 11
621.0776968002403
 21
445.1031767610488
 31
0.0
  0
ARC
  5
678E
330
1E
100
AcDbEntity
  8
STEMPEL
  6
Continuous
100
AcDbCircle
 10
639.0776968002403
 20
460.1622052529818
 30
0.0
 40
18.0
100
AcDbArc
 50
152.4728163794488
 51
180.0
  0
LINE
  5
678F
330
1E
100
AcDbEntity
  8
STEMPEL
  6
Continuous
100
AcDbLine
 10
624.5776968002403
 20
500.879101035048
 30
0.0
 11
624.5776968002403
 21
484.714810782159
 31
0.0
  0
LINE
  5
6790
330
1E
100
AcDbEntity
  8
STEMPEL
  6
Continuous
100
AcDbLine
 10
627.0776968002403
 20
500.879101035048
 30
0.0
 11
627.0776968002403
 21
484.714810782159
 31
0.0
  0
LINE
  5
6791
102
{ACAD_REACTORS
330
6758
102
}
330
1E
100
AcDbEntity
  8
STEMPEL
100
AcDbLine
 10
451.0776968002404
 20
516.6622052529819
 30
0.0
 11
451.0776968002404
 21
510.6622052529819
 31
0.0
  0
LINE
  5
6792
102
{ACAD_REACTORS
330
6758
102
}
330
1E
100
AcDbEntity
  8
STEMPEL
100
AcDbLine
 10
622.0776968002403
 20
516.662205252982
 30
0.0
 11
622.0776968002403
 21
510.6622052529819
 31
0.0
  0
LINE
  5
6794
330
1E
100
AcDbEntity
  8
HILF
  6
Continuous
100
AcDbLine
 10
457.9307174579154
 20
440.4716658998788
 30
0.0
 11
615.2246761425649
 21
440.4716658998788
 31
0.0
  0
LINE
  5
6795
330
1E
100
AcDbEntity
  8
HILF
  6
Continuous
100
AcDbLine
 10
456.5410706546581
 20
465.1015204966829
 30
0.0
 11
616.6143229458225
 21
465.1015204966829
 31
0.0
  0
LINE
  5
6796
330
1E
100
AcDbEntity
  8
STEMPEL
100
AcDbLine
 10
669.5776968002403
 20
545.6622052529818
 30
0.0
 11
669.5776968002403
 21
540.6622052529819
 31
0.0
  0
LINE
  5
6797
330
1E
100
AcDbEntity
  8
HILF
100
AcDbLine
 10
658.5776968002403
 20
546.6622052529818
 30
0.0
 11
658.5776968002403
 21
540.662205252982
 31
0.0
  0
LINE
  5
6798
330
1E
100
AcDbEntity
  8
STEMPEL
100
AcDbLine
 10
657.5776968002403
 20
545.6622052529818
 30
0.0
 11
657.5776968002403
 21
540.6622052529819
 31
0.0
  0
LINE
  5
6799
330
1E
100
AcDbEntity
  8
HILF
100
AcDbLine
 10
668.5776968002403
 20
546.6622052529818
 30
0.0
 11
668.5776968002403
 21
540.662205252982
 31
0.0
  0
LINE
  5
679A
330
1E
100
AcDbEntity
  8
STEMPEL
100
AcDbLine
 10
669.5776968002403
 20
545.6622052529818
 30
0.0
 11
657.5776968002403
 21
545.6622052529818
 31
0.0
  0
LINE
  5
679B
330
1E
100
AcDbEntity
  8
STEMPEL
100
AcDbLine
 10
669.5776968002403
 20
545.6622052529818
 30
0.0
 11
668.5776968002403
 21
546.6622052529818
 31
0.0
  0
LINE
  5
679C
330
1E
100
AcDbEntity
  8
STEMPEL
100
AcDbLine
 10
668.5776968002403
 20
546.6622052529818
 30
0.0
 11
658.5776968002403
 21
546.6622052529818
 31
0.0
  0
LINE
  5
679D
330
1E
100
AcDbEntity
  8
STEMPEL
100
AcDbLine
 10
658.5776968002403
 20
546.6622052529818
 30
0.0
 11
657.5776968002403
 21
545.6622052529818
 31
0.0
  0
LINE
  5
679E
330
1E
100
AcDbEntity
  8
MITTEL
100
AcDbLine
 10
473.0776968002404
 20
551.4341165679122
 30
0.0
 11
473.0776968002404
 21
516.6622052529823
 31
0.0
  0
LINE
  5
679F
330
1E
100
AcDbEntity
  8
HILF
100
AcDbLine
 10
468.0776968002404
 20
546.6622052529823
 30
0.0
 11
468.0776968002404
 21
540.6622052529818
 31
0.0
  0
LINE
  5
67A0
330
1E
100
AcDbEntity
  8
STEMPEL
100
AcDbLine
 10
467.0776968002404
 20
545.6622052529822
 30
0.0
 11
467.0776968002404
 21
540.6622052529817
 31
0.0
  0
LINE
  5
67A1
330
1E
100
AcDbEntity
  8
HILF
100
AcDbLine
 10
478.0776968002403
 20
546.6622052529823
 30
0.0
 11
478.0776968002403
 21
540.6622052529817
 31
0.0
  0
LINE
  5
67A2
330
1E
100
AcDbEntity
  8
STEMPEL
100
AcDbLine
 10
479.0776968002403
 20
545.6622052529822
 30
0.0
 11
479.0776968002402
 21
540.6622052529817
 31
0.0
  0
LINE
  5
67A3
330
1E
100
AcDbEntity
  8
STEMPEL
100
AcDbLine
 10
479.0776968002403
 20
545.6622052529822
 30
0.0
 11
478.0776968002403
 21
546.6622052529823
 31
0.0
  0
LINE
  5
67A4
330
1E
100
AcDbEntity
  8
STEMPEL
100
AcDbLine
 10
479.0776968002403
 20
545.6622052529822
 30
0.0
 11
467.0776968002404
 21
545.6622052529822
 31
0.0
  0
LINE
  5
67A5
330
1E
100
AcDbEntity
  8
STEMPEL
100
AcDbLine
 10
478.0776968002403
 20
546.6622052529823
 30
0.0
 11
468.0776968002404
 21
546.6622052529823
 31
0.0
  0
LINE
  5
67A6
330
1E
100
AcDbEntity
  8
STEMPEL
100
AcDbLine
 10
468.0776968002404
 20
546.6622052529823
 30
0.0
 11
467.0776968002404
 21
545.6622052529822
 31
0.0
  0
LINE
  5
67A7
330
1E
100
AcDbEntity
  8
STEMPEL
100
AcDbLine
 10
594.0776968002401
 20
545.6622052529822
 30
0.0
 11
606.0776968002401
 21
545.6622052529822
 31
0.0
  0
LINE
  5
67A8
330
1E
100
AcDbEntity
  8
STEMPEL
100
AcDbLine
 10
595.0776968002401
 20
546.6622052529823
 30
0.0
 11
605.0776968002401
 21
546.6622052529823
 31
0.0
  0
LINE
  5
67A9
330
1E
100
AcDbEntity
  8
HILF
100
AcDbLine
 10
605.0776968002401
 20
546.6622052529823
 30
0.0
 11
605.0776968002401
 21
540.6622052529819
 31
0.0
  0
LINE
  5
67AA
330
1E
100
AcDbEntity
  8
STEMPEL
100
AcDbLine
 10
606.0776968002401
 20
545.6622052529822
 30
0.0
 11
606.0776968002401
 21
540.6622052529818
 31
0.0
  0
LINE
  5
67AB
330
1E
100
AcDbEntity
  8
STEMPEL
100
AcDbLine
 10
605.0776968002401
 20
546.6622052529823
 30
0.0
 11
606.0776968002401
 21
545.6622052529822
 31
0.0
  0
LINE
  5
67AC
330
1E
100
AcDbEntity
  8
MITTEL
100
AcDbLine
 10
600.0776968002401
 20
551.4341165679122
 30
0.0
 11
600.0776968002401
 21
516.6622052529823
 31
0.0
  0
LINE
  5
67AD
330
1E
100
AcDbEntity
  8
HILF
100
AcDbLine
 10
595.0776968002401
 20
546.6622052529823
 30
0.0
 11
595.0776968002401
 21
540.6622052529818
 31
0.0
  0
LINE
  5
67AE
330
1E
100
AcDbEntity
  8
STEMPEL
100
AcDbLine
 10
594.0776968002401
 20
545.6622052529822
 30
0.0
 11
594.0776968002398
 21
540.6622052529818
 31
0.0
  0
LINE
  5
67AF
330
1E
100
AcDbEntity
  8
STEMPEL
100
AcDbLine
 10
594.0776968002401
 20
545.6622052529822
 30
0.0
 11
595.0776968002401
 21
546.6622052529823
 31
0.0
  0
LINE
  5
67B1
330
1E
100
AcDbEntity
  8
STEMPEL
100
AcDbLine
 10
657.5776968002403
 20
520.6622052529822
 30
0.0
 11
415.5776968002403
 21
520.662205252982
 31
0.0
  0
LINE
  5
67B2
330
1E
100
AcDbEntity
  8
STEMPEL
100
AcDbLine
 10
657.5776968002403
 20
518.662205252982
 30
0.0
 11
415.5776968002403
 21
518.6622052529823
 31
0.0
  0
LINE
  5
67B3
330
1E
100
AcDbEntity
  8
STEMPEL
100
AcDbLine
 10
403.5776968002403
 20
518.6622052529823
 30
0.0
 11
270.0776968002403
 21
518.6622052529822
 31
0.0
  0
LINE
  5
67B4
330
1E
100
AcDbEntity
  8
STEMPEL
100
AcDbLine
 10
403.5776968002403
 20
520.662205252982
 30
0.0
 11
270.0776968002403
 21
520.6622052529819
 31
0.0
  0
LINE
  5
67F8
330
1E
100
AcDbEntity
  8
BEM
100
AcDbLine
 10
570.0000000000001
 20
742.4999999999998
 30
0.0
 11
570.0000000000001
 21
729.9999999999998
 31
0.0
  0
TEXT
  5
6972
330
1E
100
AcDbEntity
  8
VOLL
100
AcDbText
 10
939.8544841768066
 20
386.0803680901689
 30
0.0
 40
1.8
  1

  7
GREEKS
100
AcDbText
  0
LINE
  5
6B9D
330
1E
100
AcDbEntity
  8
STEMPEL
100
AcDbLine
 10
445.3095937940125
 20
543.2122147077791
 30
0.0
 11
445.1028356624872
 21
543.3315865706724
 31
0.0
  0
LINE
  5
6B9E
330
1E
100
AcDbEntity
  8
STEMPEL
100
AcDbLine
 10
445.3095937940125
 20
543.1166537872394
 30
0.0
 11
445.3095937940125
 21
543.1885543356549
 31
0.0
  0
LINE
  5
6B9F
330
1E
100
AcDbEntity
  8
STEMPEL
100
AcDbLine
 10
445.3095937940125
 20
542.9154088395158
 30
0.0
 11
445.3095937940125
 21
543.1166537872394
 31
0.0
  0
LINE
  5
6BA0
330
1E
100
AcDbEntity
  8
STEMPEL
100
AcDbLine
 10
445.3095937940125
 20
543.1885543356549
 30
0.0
 11
445.3095937940125
 21
543.2122147077791
 31
0.0
  0
LINE
  5
6BA1
330
1E
100
AcDbEntity
  8
STEMPEL
100
AcDbLine
 10
443.9253834413287
 20
543.6622052529823
 30
0.0
 11
443.9289388743246
 21
543.6622052529823
 31
0.0
  0
LINE
  5
6BA2
330
1E
100
AcDbEntity
  8
STEMPEL
100
AcDbLine
 10
442.5490915393632
 20
542.9154088395158
 30
0.0
 11
442.5490915393632
 21
543.1885543356549
 31
0.0
  0
ARC
  5
6BA3
330
1E
100
AcDbEntity
  8
STEMPEL
100
AcDbCircle
 10
443.9293426666879
 20
541.4143069327031
 30
0.0
 40
2.247898356545996
100
AcDbArc
 50
58.53080547591956
 51
127.8806357171815
  0
LINE
  5
6BA4
330
1E
100
AcDbEntity
  8
STEMPEL
100
AcDbLine
 10
437.0280870300646
 20
542.9154088395158
 30
0.0
 11
437.0280870300646
 21
543.1885543356549
 31
0.0
  0
LINE
  5
6BA5
330
1E
100
AcDbEntity
  8
STEMPEL
100
AcDbLine
 10
434.2675847754152
 20
543.2122147077791
 30
0.0
 11
434.474342906937
 21
543.3315865706702
 31
0.0
  0
LINE
  5
6BA6
330
1E
100
AcDbEntity
  8
STEMPEL
100
AcDbLine
 10
434.2675847754152
 20
542.9154088395158
 30
0.0
 11
434.2675847754152
 21
543.2122147077791
 31
0.0
  0
ARC
  5
6BA7
330
1E
100
AcDbEntity
  8
STEMPEL
100
AcDbCircle
 10
435.6478359027398
 20
541.4143069327031
 30
0.0
 40
2.247898356545996
100
AcDbArc
 50
52.11936428281847
 51
121.4691945240804
  0
ARC
  5
6BA8
330
1E
100
AcDbEntity
  8
STEMPEL
100
AcDbCircle
 10
439.7885892847139
 20
535.3810876593822
 30
0.0
 40
8.281117593600001
100
AcDbArc
 50
70.52782738138624
 51
109.4721726186137
  0
LINE
  5
6BA9
330
1E
100
AcDbEntity
  8
STEMPEL
100
AcDbLine
 10
435.648239695088
 20
543.6622052529823
 30
0.0
 11
443.9289388743326
 21
543.6622052529823
 31
0.0
  0
LINE
  5
6BAA
330
1E
100
AcDbEntity
  8
STEMPEL
100
AcDbLine
 10
445.3095937940125
 20
529.1121957981854
 30
0.0
 11
445.0030090414264
 21
528.9351890087503
 31
0.0
  0
LINE
  5
6BAB
330
1E
100
AcDbEntity
  8
STEMPEL
100
AcDbLine
 10
442.5776968002401
 20
528.1622052529817
 30
0.0
 11
442.5776968002401
 21
523.1622052529819
 31
0.0
  0
LINE
  5
6BAC
330
1E
100
AcDbEntity
  8
STEMPEL
100
AcDbLine
 10
442.0776968002401
 20
528.6622052529817
 30
0.0
 11
442.5776968002401
 21
528.1622052529817
 31
0.0
  0
LINE
  5
6BAD
330
1E
100
AcDbEntity
  8
STEMPEL
100
AcDbLine
 10
442.5776968002401
 20
523.1622052529819
 30
0.0
 11
442.0776968002401
 21
522.6622052529819
 31
0.0
  0
ARC
  5
6BAE
330
1E
100
AcDbEntity
  8
STEMPEL
100
AcDbCircle
 10
443.9293426666879
 20
530.9101035732614
 30
0.0
 40
2.247898356545996
100
AcDbArc
 50
232.1193642828185
 51
298.5308054758686
  0
LINE
  5
6BAF
330
1E
100
AcDbEntity
  8
STEMPEL
100
AcDbLine
 10
434.2675847754152
 20
529.1121957981853
 30
0.0
 11
434.4743429069374
 21
528.9928239352938
 31
0.0
  0
ARC
  5
6BB0
330
1E
100
AcDbEntity
  8
STEMPEL
100
AcDbCircle
 10
435.6478359027398
 20
530.9101035732614
 30
0.0
 40
2.247898356545996
100
AcDbArc
 50
238.5308054759196
 51
307.8806357171815
  0
LINE
  5
6BB1
330
1E
100
AcDbEntity
  8
STEMPEL
100
AcDbLine
 10
435.648239695088
 20
528.6622052529822
 30
0.0
 11
443.9289388743326
 21
528.6622052529822
 31
0.0
  0
ARC
  5
6BB2
330
1E
100
AcDbEntity
  8
STEMPEL
100
AcDbCircle
 10
439.7885892847139
 20
536.9433228465822
 30
0.0
 40
8.281117593600001
100
AcDbArc
 50
250.5278273813862
 51
289.4721726186137
  0
LINE
  5
6BB3
330
1E
100
AcDbEntity
  8
MITTEL
100
AcDbLine
 10
439.7885892847082
 20
548.6622052529823
 30
0.0
 11
439.7885892847082
 21
517.6622052529819
 31
0.0
  0
LINE
  5
6BB4
330
1E
100
AcDbEntity
  8
STEMPEL
100
AcDbLine
 10
434.2675847754152
 20
542.9154088395158
 30
0.0
 11
434.2675847754152
 21
529.1121957981853
 31
0.0
  0
LINE
  5
6BB5
330
1E
100
AcDbEntity
  8
STEMPEL
100
AcDbLine
 10
437.0280870300646
 20
542.9154088395158
 30
0.0
 11
437.0280870300646
 21
529.1358561703096
 31
0.0
  0
LINE
  5
6BB6
330
1E
100
AcDbEntity
  8
STEMPEL
100
AcDbLine
 10
445.3095937940125
 20
542.9154088395158
 30
0.0
 11
445.3095937940125
 21
529.1121957981854
 31
0.0
  0
LINE
  5
6BB7
330
1E
100
AcDbEntity
  8
STEMPEL
100
AcDbLine
 10
442.5490915393632
 20
542.9154088395158
 30
0.0
 11
442.5490915393632
 21
529.1358561703096
 31
0.0
  0
LINE
  5
6BB8
330
1E
100
AcDbEntity
  8
STEMPEL
100
AcDbLine
 10
416.5776968002401
 20
528.6622052529821
 30
0.0
 11
416.5776968002401
 21
522.6622052529819
 31
0.0
  0
LINE
  5
6BB9
330
1E
100
AcDbEntity
  8
STEMPEL
100
AcDbLine
 10
402.5776968002402
 20
528.6622052529821
 30
0.0
 11
402.5776968002402
 21
522.662205252982
 31
0.0
  0
LINE
  5
6BBB
330
1E
100
AcDbEntity
  8
STEMPEL
100
AcDbLine
 10
376.5776968002402
 20
528.1622052529816
 30
0.0
 11
376.5776968002402
 21
523.1622052529818
 31
0.0
  0
LINE
  5
6BBC
330
1E
100
AcDbEntity
  8
STEMPEL
100
AcDbLine
 10
377.0776968002402
 20
528.6622052529816
 30
0.0
 11
376.5776968002402
 21
528.1622052529816
 31
0.0
  0
LINE
  5
6BBD
330
1E
100
AcDbEntity
  8
STEMPEL
100
AcDbLine
 10
376.5776968002402
 20
523.1622052529818
 30
0.0
 11
377.0776968002402
 21
522.6622052529818
 31
0.0
  0
LINE
  5
6BBE
330
1E
100
AcDbEntity
  8
STEMPEL
100
AcDbLine
 10
377.0776968002402
 20
528.6622052529816
 30
0.0
 11
696.07769680024
 21
528.6622052529821
 31
0.0
  0
LINE
  5
6BC2
330
1E
100
AcDbEntity
  8
STEMPEL
100
AcDbLine
 10
696.5776968002403
 20
523.1622052529818
 30
0.0
 11
696.0776968002403
 21
522.6622052529818
 31
0.0
  0
LINE
  5
6BC3
330
1E
100
AcDbEntity
  8
STEMPEL
100
AcDbLine
 10
696.0776968002403
 20
528.6622052529816
 30
0.0
 11
696.5776968002403
 21
528.1622052529816
 31
0.0
  0
LINE
  5
6BC4
330
1E
100
AcDbEntity
  8
STEMPEL
100
AcDbLine
 10
696.5776968002403
 20
528.1622052529816
 30
0.0
 11
696.5776968002403
 21
523.1622052529818
 31
0.0
  0
LINE
  5
6BC6
330
1E
100
AcDbEntity
  8
STEMPEL
100
AcDbLine
 10
670.5776968002401
 20
528.6622052529821
 30
0.0
 11
670.5776968002401
 21
522.662205252982
 31
0.0
  0
LINE
  5
6BC7
330
1E
100
AcDbEntity
  8
STEMPEL
100
AcDbLine
 10
656.5776968002401
 20
528.6622052529821
 30
0.0
 11
656.5776968002401
 21
522.6622052529819
 31
0.0
  0
LINE
  5
6BC8
330
1E
100
AcDbEntity
  8
STEMPEL
100
AcDbLine
 10
630.606302061117
 20
542.9154088395158
 30
0.0
 11
630.606302061117
 21
529.1358561703096
 31
0.0
  0
LINE
  5
6BC9
330
1E
100
AcDbEntity
  8
STEMPEL
100
AcDbLine
 10
627.8457998064677
 20
542.9154088395158
 30
0.0
 11
627.8457998064677
 21
529.1121957981854
 31
0.0
  0
LINE
  5
6BCA
330
1E
100
AcDbEntity
  8
STEMPEL
100
AcDbLine
 10
636.1273065704158
 20
542.9154088395158
 30
0.0
 11
636.1273065704158
 21
529.1358561703096
 31
0.0
  0
LINE
  5
6BCB
330
1E
100
AcDbEntity
  8
STEMPEL
100
AcDbLine
 10
638.8878088250651
 20
542.9154088395158
 30
0.0
 11
638.8878088250651
 21
529.1121957981853
 31
0.0
  0
LINE
  5
6BCC
330
1E
100
AcDbEntity
  8
MITTEL
100
AcDbLine
 10
633.366804315772
 20
548.6622052529823
 30
0.0
 11
633.366804315772
 21
517.6622052529819
 31
0.0
  0
ARC
  5
6BCD
330
1E
100
AcDbEntity
  8
STEMPEL
100
AcDbCircle
 10
633.3668043157665
 20
536.9433228465822
 30
0.0
 40
8.281117593600001
100
AcDbArc
 50
250.5278273813862
 51
289.4721726186137
  0
LINE
  5
6BCE
330
1E
100
AcDbEntity
  8
STEMPEL
100
AcDbLine
 10
637.5071539053922
 20
528.6622052529822
 30
0.0
 11
629.2264547261477
 21
528.6622052529822
 31
0.0
  0
ARC
  5
6BCF
330
1E
100
AcDbEntity
  8
STEMPEL
100
AcDbCircle
 10
637.5075576977403
 20
530.9101035732614
 30
0.0
 40
2.247898356545996
100
AcDbArc
 50
232.1193642828185
 51
301.4691945240804
  0
LINE
  5
6BD0
330
1E
100
AcDbEntity
  8
STEMPEL
100
AcDbLine
 10
638.8878088250651
 20
529.1121957981853
 30
0.0
 11
638.6810506935428
 21
528.9928239352938
 31
0.0
  0
ARC
  5
6BD1
330
1E
100
AcDbEntity
  8
STEMPEL
100
AcDbCircle
 10
629.2260509337925
 20
530.9101035732614
 30
0.0
 40
2.247898356545996
100
AcDbArc
 50
241.4691945241314
 51
307.8806357171815
  0
LINE
  5
6BD2
330
1E
100
AcDbEntity
  8
STEMPEL
100
AcDbLine
 10
630.5776968002401
 20
523.1622052529819
 30
0.0
 11
631.0776968002401
 21
522.6622052529819
 31
0.0
  0
LINE
  5
6BD3
330
1E
100
AcDbEntity
  8
STEMPEL
100
AcDbLine
 10
631.0776968002401
 20
528.6622052529817
 30
0.0
 11
630.5776968002401
 21
528.1622052529817
 31
0.0
  0
LINE
  5
6BD4
330
1E
100
AcDbEntity
  8
STEMPEL
100
AcDbLine
 10
630.5776968002401
 20
528.1622052529817
 30
0.0
 11
630.5776968002401
 21
523.1622052529819
 31
0.0
  0
LINE
  5
6BD5
330
1E
100
AcDbEntity
  8
STEMPEL
100
AcDbLine
 10
627.8457998064677
 20
529.1121957981854
 30
0.0
 11
628.1523845590541
 21
528.9351890087503
 31
0.0
  0
LINE
  5
6BD6
330
1E
100
AcDbEntity
  8
STEMPEL
100
AcDbLine
 10
637.5071539053922
 20
543.6622052529823
 30
0.0
 11
629.2264547261477
 21
543.6622052529823
 31
0.0
  0
ARC
  5
6BD7
330
1E
100
AcDbEntity
  8
STEMPEL
100
AcDbCircle
 10
633.3668043157665
 20
535.3810876593822
 30
0.0
 40
8.281117593600001
100
AcDbArc
 50
70.52782738138624
 51
109.4721726186137
  0
ARC
  5
6BD8
330
1E
100
AcDbEntity
  8
STEMPEL
100
AcDbCircle
 10
637.5075576977403
 20
541.4143069327031
 30
0.0
 40
2.247898356545996
100
AcDbArc
 50
58.53080547591956
 51
127.8806357171815
  0
LINE
  5
6BD9
330
1E
100
AcDbEntity
  8
STEMPEL
100
AcDbLine
 10
638.8878088250651
 20
542.9154088395158
 30
0.0
 11
638.8878088250651
 21
543.2122147077791
 31
0.0
  0
LINE
  5
6BDA
330
1E
100
AcDbEntity
  8
STEMPEL
100
AcDbLine
 10
638.8878088250651
 20
543.2122147077791
 30
0.0
 11
638.6810506935435
 21
543.3315865706702
 31
0.0
  0
LINE
  5
6BDB
330
1E
100
AcDbEntity
  8
STEMPEL
100
AcDbLine
 10
636.1273065704158
 20
542.9154088395158
 30
0.0
 11
636.1273065704158
 21
543.1885543356549
 31
0.0
  0
ARC
  5
6BDC
330
1E
100
AcDbEntity
  8
STEMPEL
100
AcDbCircle
 10
629.2260509337925
 20
541.4143069327031
 30
0.0
 40
2.247898356545996
100
AcDbArc
 50
52.11936428281848
 51
121.4691945240804
  0
LINE
  5
6BDD
330
1E
100
AcDbEntity
  8
STEMPEL
100
AcDbLine
 10
630.606302061117
 20
542.9154088395158
 30
0.0
 11
630.606302061117
 21
543.1885543356549
 31
0.0
  0
LINE
  5
6BDE
330
1E
100
AcDbEntity
  8
STEMPEL
100
AcDbLine
 10
629.2300101591515
 20
543.6622052529823
 30
0.0
 11
629.2264547261557
 21
543.6622052529823
 31
0.0
  0
LINE
  5
6BDF
330
1E
100
AcDbEntity
  8
STEMPEL
100
AcDbLine
 10
627.8457998064677
 20
543.1885543356549
 30
0.0
 11
627.8457998064677
 21
543.2122147077791
 31
0.0
  0
LINE
  5
6BE0
330
1E
100
AcDbEntity
  8
STEMPEL
100
AcDbLine
 10
627.8457998064677
 20
542.9154088395158
 30
0.0
 11
627.8457998064677
 21
543.1166537872394
 31
0.0
  0
LINE
  5
6BE1
330
1E
100
AcDbEntity
  8
STEMPEL
100
AcDbLine
 10
627.8457998064677
 20
543.1166537872394
 30
0.0
 11
627.8457998064677
 21
543.1885543356549
 31
0.0
  0
LINE
  5
6BE2
330
1E
100
AcDbEntity
  8
STEMPEL
100
AcDbLine
 10
627.8457998064677
 20
543.2122147077791
 30
0.0
 11
628.052557937993
 21
543.3315865706724
 31
0.0
  0
HATCH
  5
6C65
330
1E
100
AcDbEntity
  8
SCHRAFF
100
AcDbHatch
 10
0.0
 20
0.0
 30
0.0
210
0.0
220
0.0
230
1.0
  2
_USER
 70
     0
 71
     0
 91
        6
 92
        7
 72
     0
 73
     1
 93
        6
 10
633.366804315772
 20
528.6622052529821
 10
631.0776968002407
 20
528.6622052529822
 10
630.5776968002401
 20
528.1622052529817
 10
630.5776968002401
 20
523.1622052529819
 10
631.0776968002398
 20
522.6622052529823
 10
633.3668043157722
 20
522.6622052529823
 97
        0
 92
        7
 72
     1
 73
     1
 93
        6
 10
656.5776968002401
 20
528.6622052529821
 42
0.0
 10
637.5079614895967
 20
528.6622052529821
 42
-0.0000898154418884
 10
637.5071539056664
 20
528.6622052529822
 42
0.0
 10
633.366804315772
 20
528.6622052529822
 42
0.0
 10
633.366804315772
 20
522.6622052529823
 42
0.0
 10
656.5776968002401
 20
522.6622052529822
 42
0.0
 97
        0
 92
        7
 72
     0
 73
     1
 93
        6
 10
696.5776968002403
 20
528.1622052529816
 10
696.0776968002399
 20
528.6622052529821
 10
670.5776968002401
 20
528.6622052529822
 10
670.5776968002401
 20
522.6622052529823
 10
696.0776968002408
 20
522.6622052529823
 10
696.5776968002403
 20
523.1622052529817
 97
        0
 92
        7
 72
     0
 73
     1
 93
        6
 10
442.5776968002401
 20
528.1622052529816
 10
442.0776968002402
 20
528.6622052529817
 10
439.7885892847082
 20
528.6622052529818
 10
439.7885892847082
 20
522.662205252982
 10
442.0776968002404
 20
522.6622052529822
 10
442.5776968002401
 20
523.1622052529819
 97
        0
 92
        7
 72
     1
 73
     1
 93
        6
 10
439.7885892847082
 20
528.6622052529817
 42
0.0
 10
435.6482396923702
 20
528.6622052529817
 42
-0.0000898149211931
 10
435.6474321131218
 20
528.6622052529817
 42
0.0
 10
416.5776968002402
 20
528.6622052529817
 42
0.0
 10
416.5776968002401
 20
522.662205252982
 42
0.0
 10
439.7885892847082
 20
522.662205252982
 42
0.0
 97
        0
 92
        7
 72
     0
 73
     1
 93
        6
 10
402.5776968002403
 20
528.6622052529817
 10
377.0776968002402
 20
528.6622052529817
 10
376.5776968002402
 20
528.1622052529816
 10
376.5776968002402
 20
523.1622052529818
 10
377.0776968002402
 20
522.6622052529819
 10
402.5776968002402
 20
522.6622052529819
 97
        0
 75
     0
 76
     0
 52
45.0
 41
5.0
 77
     0
 78
     1
 53
45.0
 43
226.6177132483754
 44
-196.3943526526532
 45
-3.535533905932737
 46
3.535533905932737
 79
     0
 47
0.4024211312294676
 98
        6
 10
631.1337296026676
 20
526.024466194488
 10
639.1864962913332
 20
526.024466194488
 10
675.4239509729504
 20
526.8293075931319
 10
441.8936986711578
 20
526.024466194488
 10
431.4251019758922
 20
526.024466194488
 10
397.2008389664407
 20
525.6220442602657
  0
LINE
  5
6C67
330
1E
100
AcDbEntity
  8
STEMPEL
100
AcDbLine
 10
669.5776968002401
 20
522.6622052529822
 30
0.0
 11
701.5776968002401
 21
522.662205252982
 31
0.0
  0
LINE
  5
6C68
330
1E
100
AcDbEntity
  8
STEMPEL
100
AcDbLine
 10
415.5776968002403
 20
522.662205252982
 30
0.0
 11
657.5776968002403
 21
522.6622052529822
 31
0.0
  0
LINE
  5
6C6B
330
1E
100
AcDbEntity
  8
STEMPEL
100
AcDbLine
 10
397.5776968002404
 20
528.6622052529817
 30
0.0
 11
397.5776968002404
 21
530.6622052529816
 31
0.0
  0
LINE
  5
6C6C
330
1E
100
AcDbEntity
  8
STEMPEL
100
AcDbLine
 10
397.5776968002404
 20
530.6622052529816
 30
0.0
 11
421.5776968002404
 21
530.6622052529816
 31
0.0
  0
LINE
  5
6C6E
330
1E
100
AcDbEntity
  8
STEMPEL
100
AcDbLine
 10
421.5776968002404
 20
528.6622052529817
 30
0.0
 11
421.5776968002404
 21
530.6622052529816
 31
0.0
  0
ARC
  5
6C91
330
1E
100
AcDbEntity
  8
STEMPEL
100
AcDbCircle
 10
409.5776968002405
 20
524.8391362560671
 30
0.0
 40
15.82306899691459
100
AcDbArc
 50
70.52782738138472
 51
109.4721726186152
  0
LINE
  5
6C92
330
1E
100
AcDbEntity
  8
STEMPEL
100
AcDbLine
 10
401.6665620424599
 20
540.6622052529817
 30
0.0
 11
417.4888315580073
 21
540.6622052529817
 31
0.0
  0
ARC
  5
6C94
330
1E
100
AcDbEntity
  8
STEMPEL
100
AcDbCircle
 10
409.5776968002405
 20
546.4852742498961
 30
0.0
 40
15.82306899691459
100
AcDbArc
 50
250.5278273813848
 51
289.4721726186153
  0
ARC
  5
6C95
330
1E
100
AcDbEntity
  8
STEMPEL
100
AcDbCircle
 10
401.6657904999581
 20
536.3670542884168
 30
0.0
 40
4.29515103386132
100
AcDbArc
 50
52.11936428282104
 51
121.469194524079
  0
ARC
  5
6C96
330
1E
100
AcDbEntity
  8
STEMPEL
100
AcDbCircle
 10
401.6657904999581
 20
534.9573562175464
 30
0.0
 40
4.29515103386132
100
AcDbArc
 50
238.530805475921
 51
307.880635717179
  0
LINE
  5
6C97
330
1E
100
AcDbEntity
  8
STEMPEL
100
AcDbLine
 10
399.0284883998641
 20
539.8023899727095
 30
0.0
 11
399.0284883998642
 21
531.5220205332536
 31
0.0
  0
LINE
  5
6C98
330
1E
100
AcDbEntity
  8
STEMPEL
100
AcDbLine
 10
399.0284883998641
 20
531.5220205332537
 30
0.0
 11
399.6142923857083
 21
531.1838064443342
 31
0.0
  0
LINE
  5
6C9B
330
1E
100
AcDbEntity
  8
STEMPEL
100
AcDbLine
 10
399.0284883998641
 20
539.8023899727095
 30
0.0
 11
399.6142923857083
 21
540.1406040616288
 31
0.0
  0
LINE
  5
6C9C
330
1E
100
AcDbEntity
  8
STEMPEL
100
AcDbLine
 10
404.3030926000522
 20
539.7571811350879
 30
0.0
 11
404.3030926000524
 21
531.5672293708754
 31
0.0
  0
ARC
  5
6C9F
330
1E
100
AcDbEntity
  8
STEMPEL
100
AcDbCircle
 10
417.4896031005228
 20
536.3670542884168
 30
0.0
 40
4.29515103386132
100
AcDbArc
 50
58.53080547592095
 51
127.8806357171789
  0
ARC
  5
6CA0
330
1E
100
AcDbEntity
  8
STEMPEL
100
AcDbCircle
 10
417.4896031005228
 20
534.9573562175464
 30
0.0
 40
4.29515103386132
100
AcDbArc
 50
232.1193642828211
 51
301.469194524079
  0
LINE
  5
6CA1
330
1E
100
AcDbEntity
  8
STEMPEL
100
AcDbLine
 10
414.8523010004288
 20
539.7571811350879
 30
0.0
 11
414.8523010004288
 21
531.5672293708754
 31
0.0
  0
LINE
  5
6CA3
330
1E
100
AcDbEntity
  8
STEMPEL
100
AcDbLine
 10
417.4820380472162
 20
530.6622052529816
 30
0.0
 11
417.4888315579922
 21
530.6622052529816
 31
0.0
  0
LINE
  5
6CA5
330
1E
100
AcDbEntity
  8
STEMPEL
100
AcDbLine
 10
417.4820380472162
 20
540.6622052529817
 30
0.0
 11
417.4888315579922
 21
540.6622052529817
 31
0.0
  0
LINE
  5
6CA6
330
1E
100
AcDbEntity
  8
STEMPEL
100
AcDbLine
 10
420.1269052006169
 20
539.8023899727095
 30
0.0
 11
420.1269052006169
 21
531.5220205332536
 31
0.0
  0
LINE
  5
6CA9
330
1E
100
AcDbEntity
  8
STEMPEL
100
AcDbLine
 10
420.1269052006169
 20
531.5220205332537
 30
0.0
 11
419.5411012147727
 21
531.1838064443342
 31
0.0
  0
LINE
  5
6CAB
330
1E
100
AcDbEntity
  8
STEMPEL
100
AcDbLine
 10
420.1269052006169
 20
539.8023899727095
 30
0.0
 11
419.5411012147727
 21
540.1406040616288
 31
0.0
  0
LINE
  5
6CAF
330
1E
100
AcDbEntity
  8
STEMPEL
100
AcDbLine
 10
483.6269052006169
 20
539.8023899727096
 30
0.0
 11
483.0411012147727
 21
540.140604061629
 31
0.0
  0
LINE
  5
6CB0
330
1E
100
AcDbEntity
  8
STEMPEL
100
AcDbLine
 10
483.6269052006169
 20
531.5220205332539
 30
0.0
 11
483.0411012147727
 21
531.1838064443344
 31
0.0
  0
LINE
  5
6CB1
330
1E
100
AcDbEntity
  8
STEMPEL
100
AcDbLine
 10
483.6269052006169
 20
539.8023899727096
 30
0.0
 11
483.6269052006169
 21
531.5220205332537
 31
0.0
  0
LINE
  5
6CB2
330
1E
100
AcDbEntity
  8
STEMPEL
100
AcDbLine
 10
480.9820380472162
 20
540.6622052529818
 30
0.0
 11
480.9888315579922
 21
540.6622052529818
 31
0.0
  0
LINE
  5
6CB3
330
1E
100
AcDbEntity
  8
STEMPEL
100
AcDbLine
 10
480.9820380472162
 20
530.6622052529816
 30
0.0
 11
480.9888315579922
 21
530.6622052529816
 31
0.0
  0
LINE
  5
6CB4
330
1E
100
AcDbEntity
  8
STEMPEL
100
AcDbLine
 10
478.3523010004287
 20
539.7571811350879
 30
0.0
 11
478.3523010004287
 21
531.5672293708756
 31
0.0
  0
ARC
  5
6CB5
330
1E
100
AcDbEntity
  8
STEMPEL
100
AcDbCircle
 10
480.9896031005228
 20
534.9573562175465
 30
0.0
 40
4.29515103386132
100
AcDbArc
 50
232.1193642828211
 51
301.469194524079
  0
ARC
  5
6CB6
330
1E
100
AcDbEntity
  8
STEMPEL
100
AcDbCircle
 10
480.9896031005228
 20
536.3670542884169
 30
0.0
 40
4.29515103386132
100
AcDbArc
 50
58.53080547592095
 51
127.8806357171789
  0
LINE
  5
6CB7
330
1E
100
AcDbEntity
  8
STEMPEL
100
AcDbLine
 10
467.8030926000523
 20
539.7571811350879
 30
0.0
 11
467.8030926000523
 21
531.5672293708756
 31
0.0
  0
LINE
  5
6CB8
330
1E
100
AcDbEntity
  8
STEMPEL
100
AcDbLine
 10
462.5284883998641
 20
539.8023899727096
 30
0.0
 11
463.1142923857082
 21
540.140604061629
 31
0.0
  0
LINE
  5
6CB9
330
1E
100
AcDbEntity
  8
STEMPEL
100
AcDbLine
 10
462.5284883998641
 20
531.5220205332539
 30
0.0
 11
463.1142923857082
 21
531.1838064443344
 31
0.0
  0
LINE
  5
6CBA
330
1E
100
AcDbEntity
  8
STEMPEL
100
AcDbLine
 10
462.5284883998641
 20
539.8023899727096
 30
0.0
 11
462.5284883998642
 21
531.5220205332537
 31
0.0
  0
ARC
  5
6CBB
330
1E
100
AcDbEntity
  8
STEMPEL
100
AcDbCircle
 10
465.1657904999582
 20
534.9573562175465
 30
0.0
 40
4.29515103386132
100
AcDbArc
 50
238.530805475921
 51
307.880635717179
  0
ARC
  5
6CBC
330
1E
100
AcDbEntity
  8
STEMPEL
100
AcDbCircle
 10
465.1657904999582
 20
536.3670542884169
 30
0.0
 40
4.29515103386132
100
AcDbArc
 50
52.11936428282104
 51
121.469194524079
  0
ARC
  5
6CBD
330
1E
100
AcDbEntity
  8
STEMPEL
100
AcDbCircle
 10
473.0776968002404
 20
546.4852742498963
 30
0.0
 40
15.82306899691459
100
AcDbArc
 50
250.5278273813848
 51
289.4721726186153
  0
LINE
  5
6CBE
330
1E
100
AcDbEntity
  8
STEMPEL
100
AcDbLine
 10
465.1665620424599
 20
540.6622052529818
 30
0.0
 11
480.9888315580074
 21
540.6622052529818
 31
0.0
  0
ARC
  5
6CBF
330
1E
100
AcDbEntity
  8
STEMPEL
100
AcDbCircle
 10
473.0776968002404
 20
524.8391362560672
 30
0.0
 40
15.82306899691459
100
AcDbArc
 50
70.52782738138472
 51
109.4721726186152
  0
LINE
  5
6CC0
330
1E
100
AcDbEntity
  8
STEMPEL
100
AcDbLine
 10
485.0776968002404
 20
528.6622052529818
 30
0.0
 11
485.0776968002404
 21
530.6622052529818
 31
0.0
  0
LINE
  5
6CC1
330
1E
100
AcDbEntity
  8
STEMPEL
100
AcDbLine
 10
461.0776968002403
 20
530.6622052529818
 30
0.0
 11
485.0776968002404
 21
530.6622052529818
 31
0.0
  0
LINE
  5
6CC2
330
1E
100
AcDbEntity
  8
STEMPEL
100
AcDbLine
 10
461.0776968002403
 20
528.6622052529818
 30
0.0
 11
461.0776968002403
 21
530.6622052529818
 31
0.0
  0
LINE
  5
6CD7
330
1E
100
AcDbEntity
  8
STEMPEL
100
AcDbLine
 10
610.6269052006166
 20
539.8023899727097
 30
0.0
 11
610.0411012147723
 21
540.1406040616291
 31
0.0
  0
LINE
  5
6CD8
330
1E
100
AcDbEntity
  8
STEMPEL
100
AcDbLine
 10
610.6269052006166
 20
531.522020533254
 30
0.0
 11
610.0411012147723
 21
531.1838064443345
 31
0.0
  0
LINE
  5
6CD9
330
1E
100
AcDbEntity
  8
STEMPEL
100
AcDbLine
 10
610.6269052006166
 20
539.8023899727097
 30
0.0
 11
610.6269052006166
 21
531.5220205332539
 31
0.0
  0
LINE
  5
6CDA
330
1E
100
AcDbEntity
  8
STEMPEL
100
AcDbLine
 10
607.9820380472158
 20
540.6622052529819
 30
0.0
 11
607.9888315579917
 21
540.6622052529819
 31
0.0
  0
LINE
  5
6CDB
330
1E
100
AcDbEntity
  8
STEMPEL
100
AcDbLine
 10
607.9820380472158
 20
530.6622052529818
 30
0.0
 11
607.9888315579917
 21
530.6622052529818
 31
0.0
  0
LINE
  5
6CDC
330
1E
100
AcDbEntity
  8
STEMPEL
100
AcDbLine
 10
605.3523010004282
 20
539.757181135088
 30
0.0
 11
605.3523010004282
 21
531.5672293708757
 31
0.0
  0
ARC
  5
6CDD
330
1E
100
AcDbEntity
  8
STEMPEL
100
AcDbCircle
 10
607.9896031005225
 20
534.9573562175467
 30
0.0
 40
4.29515103386132
100
AcDbArc
 50
232.1193642828211
 51
301.469194524079
  0
ARC
  5
6CDE
330
1E
100
AcDbEntity
  8
STEMPEL
100
AcDbCircle
 10
607.9896031005225
 20
536.3670542884171
 30
0.0
 40
4.29515103386132
100
AcDbArc
 50
58.53080547592095
 51
127.8806357171789
  0
LINE
  5
6CDF
330
1E
100
AcDbEntity
  8
STEMPEL
100
AcDbLine
 10
594.8030926000519
 20
539.757181135088
 30
0.0
 11
594.8030926000519
 21
531.5672293708757
 31
0.0
  0
LINE
  5
6CE0
330
1E
100
AcDbEntity
  8
STEMPEL
100
AcDbLine
 10
589.5284883998638
 20
539.8023899727097
 30
0.0
 11
590.114292385708
 21
540.1406040616291
 31
0.0
  0
LINE
  5
6CE1
330
1E
100
AcDbEntity
  8
STEMPEL
100
AcDbLine
 10
589.5284883998638
 20
531.522020533254
 30
0.0
 11
590.114292385708
 21
531.1838064443345
 31
0.0
  0
LINE
  5
6CE2
330
1E
100
AcDbEntity
  8
STEMPEL
100
AcDbLine
 10
589.5284883998638
 20
539.8023899727097
 30
0.0
 11
589.5284883998638
 21
531.5220205332539
 31
0.0
  0
ARC
  5
6CE3
330
1E
100
AcDbEntity
  8
STEMPEL
100
AcDbCircle
 10
592.1657904999579
 20
534.9573562175467
 30
0.0
 40
4.29515103386132
100
AcDbArc
 50
238.530805475921
 51
307.880635717179
  0
ARC
  5
6CE4
330
1E
100
AcDbEntity
  8
STEMPEL
100
AcDbCircle
 10
592.1657904999579
 20
536.3670542884171
 30
0.0
 40
4.29515103386132
100
AcDbArc
 50
52.11936428282104
 51
121.469194524079
  0
ARC
  5
6CE5
330
1E
100
AcDbEntity
  8
STEMPEL
100
AcDbCircle
 10
600.0776968002401
 20
546.4852742498964
 30
0.0
 40
15.82306899691459
100
AcDbArc
 50
250.5278273813848
 51
289.4721726186153
  0
LINE
  5
6CE6
330
1E
100
AcDbEntity
  8
STEMPEL
100
AcDbLine
 10
592.1665620424596
 20
540.6622052529819
 30
0.0
 11
607.988831558007
 21
540.6622052529819
 31
0.0
  0
ARC
  5
6CE7
330
1E
100
AcDbEntity
  8
STEMPEL
100
AcDbCircle
 10
600.0776968002401
 20
524.8391362560673
 30
0.0
 40
15.82306899691459
100
AcDbArc
 50
70.52782738138472
 51
90.0
  0
LINE
  5
6CE8
330
1E
100
AcDbEntity
  8
STEMPEL
100
AcDbLine
 10
612.0776968002401
 20
528.6622052529819
 30
0.0
 11
612.0776968002401
 21
530.6622052529819
 31
0.0
  0
LINE
  5
6CE9
330
1E
100
AcDbEntity
  8
STEMPEL
100
AcDbLine
 10
588.07769680024
 20
530.6622052529819
 30
0.0
 11
612.0776968002401
 21
530.6622052529819
 31
0.0
  0
LINE
  5
6CEA
330
1E
100
AcDbEntity
  8
STEMPEL
100
AcDbLine
 10
588.07769680024
 20
528.6622052529819
 30
0.0
 11
588.07769680024
 21
530.6622052529819
 31
0.0
  0
LINE
  5
6CEB
330
1E
100
AcDbEntity
  8
STEMPEL
100
AcDbLine
 10
674.1269052006169
 20
539.8023899727099
 30
0.0
 11
673.5411012147726
 21
540.1406040616292
 31
0.0
  0
LINE
  5
6CEC
330
1E
100
AcDbEntity
  8
STEMPEL
100
AcDbLine
 10
674.1269052006169
 20
531.5220205332541
 30
0.0
 11
673.5411012147726
 21
531.1838064443346
 31
0.0
  0
LINE
  5
6CED
330
1E
100
AcDbEntity
  8
STEMPEL
100
AcDbLine
 10
674.1269052006169
 20
539.8023899727099
 30
0.0
 11
674.1269052006169
 21
531.522020533254
 31
0.0
  0
LINE
  5
6CEE
330
1E
100
AcDbEntity
  8
STEMPEL
100
AcDbLine
 10
671.482038047216
 20
540.662205252982
 30
0.0
 11
671.4888315579921
 21
540.662205252982
 31
0.0
  0
LINE
  5
6CEF
330
1E
100
AcDbEntity
  8
STEMPEL
100
AcDbLine
 10
671.482038047216
 20
530.6622052529819
 30
0.0
 11
671.4888315579921
 21
530.6622052529819
 31
0.0
  0
LINE
  5
6CF0
330
1E
100
AcDbEntity
  8
STEMPEL
100
AcDbLine
 10
668.8523010004287
 20
539.7571811350882
 30
0.0
 11
668.8523010004287
 21
531.5672293708757
 31
0.0
  0
ARC
  5
6CF1
330
1E
100
AcDbEntity
  8
STEMPEL
100
AcDbCircle
 10
671.4896031005228
 20
534.9573562175468
 30
0.0
 40
4.29515103386132
100
AcDbArc
 50
232.1193642828211
 51
301.469194524079
  0
ARC
  5
6CF2
330
1E
100
AcDbEntity
  8
STEMPEL
100
AcDbCircle
 10
671.4896031005228
 20
536.3670542884172
 30
0.0
 40
4.29515103386132
100
AcDbArc
 50
58.53080547592095
 51
127.8806357171789
  0
LINE
  5
6CF3
330
1E
100
AcDbEntity
  8
STEMPEL
100
AcDbLine
 10
658.3030926000522
 20
539.7571811350882
 30
0.0
 11
658.3030926000522
 21
531.5672293708757
 31
0.0
  0
LINE
  5
6CF4
330
1E
100
AcDbEntity
  8
STEMPEL
100
AcDbLine
 10
653.028488399864
 20
539.8023899727099
 30
0.0
 11
653.6142923857083
 21
540.1406040616292
 31
0.0
  0
LINE
  5
6CF5
330
1E
100
AcDbEntity
  8
STEMPEL
100
AcDbLine
 10
653.028488399864
 20
531.5220205332541
 30
0.0
 11
653.6142923857083
 21
531.1838064443346
 31
0.0
  0
LINE
  5
6CF6
330
1E
100
AcDbEntity
  8
STEMPEL
100
AcDbLine
 10
653.028488399864
 20
539.8023899727099
 30
0.0
 11
653.028488399864
 21
531.522020533254
 31
0.0
  0
ARC
  5
6CF7
330
1E
100
AcDbEntity
  8
STEMPEL
100
AcDbCircle
 10
655.6657904999581
 20
534.9573562175468
 30
0.0
 40
4.29515103386132
100
AcDbArc
 50
238.530805475921
 51
307.880635717179
  0
ARC
  5
6CF8
330
1E
100
AcDbEntity
  8
STEMPEL
100
AcDbCircle
 10
655.6657904999581
 20
536.3670542884172
 30
0.0
 40
4.29515103386132
100
AcDbArc
 50
52.11936428282104
 51
121.469194524079
  0
ARC
  5
6CF9
330
1E
100
AcDbEntity
  8
STEMPEL
100
AcDbCircle
 10
663.5776968002403
 20
546.4852742498965
 30
0.0
 40
15.82306899691459
100
AcDbArc
 50
250.5278273813848
 51
289.4721726186153
  0
LINE
  5
6CFA
330
1E
100
AcDbEntity
  8
STEMPEL
100
AcDbLine
 10
655.6665620424598
 20
540.662205252982
 30
0.0
 11
671.4888315580071
 21
540.662205252982
 31
0.0
  0
ARC
  5
6CFB
330
1E
100
AcDbEntity
  8
STEMPEL
100
AcDbCircle
 10
663.5776968002403
 20
524.8391362560674
 30
0.0
 40
15.82306899691459
100
AcDbArc
 50
70.52782738138472
 51
109.4721726186152
  0
LINE
  5
6CFC
330
1E
100
AcDbEntity
  8
STEMPEL
100
AcDbLine
 10
675.5776968002403
 20
528.662205252982
 30
0.0
 11
675.5776968002403
 21
530.662205252982
 31
0.0
  0
LINE
  5
6CFD
330
1E
100
AcDbEntity
  8
STEMPEL
100
AcDbLine
 10
651.5776968002403
 20
530.662205252982
 30
0.0
 11
675.5776968002403
 21
530.662205252982
 31
0.0
  0
LINE
  5
6CFE
330
1E
100
AcDbEntity
  8
STEMPEL
100
AcDbLine
 10
651.5776968002403
 20
528.662205252982
 30
0.0
 11
651.5776968002403
 21
530.662205252982
 31
0.0
  0
LINE
  5
6D00
330
1E
100
AcDbEntity
  8
STEMPEL
100
AcDbLine
 10
420.1269052006169
 20
535.6622052529821
 30
0.0
 11
434.2675847754152
 21
535.6622052529821
 31
0.0
  0
LINE
  5
6D01
330
1E
100
AcDbEntity
  8
STEMPEL
100
AcDbLine
 10
415.5776968002403
 20
528.6622052529816
 30
0.0
 11
415.5776968002403
 21
516.6622052529823
 31
0.0
  0
LINE
  5
6D02
330
1E
100
AcDbEntity
  8
HILF
100
AcDbLine
 10
414.5776968002403
 20
528.6622052529816
 30
0.0
 11
414.5776968002403
 21
516.6622052529823
 31
0.0
  0
LINE
  5
6D03
330
1E
100
AcDbEntity
  8
HILF
100
AcDbLine
 10
404.5776968002404
 20
528.6622052529816
 30
0.0
 11
404.5776968002404
 21
516.6622052529823
 31
0.0
  0
LINE
  5
6D06
330
1E
100
AcDbEntity
  8
STEMPEL
100
AcDbLine
 10
445.3095937940125
 20
535.6622052529821
 30
0.0
 11
462.5284883998641
 21
535.6622052529821
 31
0.0
  0
LINE
  5
6D07
330
1E
100
AcDbEntity
  8
STEMPEL
100
AcDbLine
 10
483.6269052006169
 20
535.6622052529821
 30
0.0
 11
589.5284883998638
 21
535.6622052529821
 31
0.0
  0
LINE
  5
6D08
330
1E
100
AcDbEntity
  8
STEMPEL
100
AcDbLine
 10
610.6269052006166
 20
535.6622052529821
 30
0.0
 11
627.8457998064677
 21
535.6622052529821
 31
0.0
  0
LINE
  5
6D09
330
1E
100
AcDbEntity
  8
STEMPEL
100
AcDbLine
 10
638.8878088250653
 20
535.6622052529821
 30
0.0
 11
653.0284883998643
 21
535.6622052529821
 31
0.0
  0
LINE
  5
6D0B
102
{ACAD_REACTORS
330
6FC7
102
}
330
1E
100
AcDbEntity
  8
STEMPEL
100
AcDbLine
 10
674.1269052006169
 20
535.6622052529819
 30
0.0
 11
803.0776968002403
 21
535.6622052529819
 31
0.0
  0
LINE
  5
6D0C
330
1E
100
AcDbEntity
  8
STEMPEL
100
AcDbLine
 10
669.5776968002401
 20
528.662205252982
 30
0.0
 11
669.5776968002401
 21
516.6622052529818
 31
0.0
  0
LINE
  5
6D0D
330
1E
100
AcDbEntity
  8
HILF
100
AcDbLine
 10
668.5776968002403
 20
528.662205252982
 30
0.0
 11
668.5776968002401
 21
516.6622052529819
 31
0.0
  0
LINE
  5
6D0E
330
1E
100
AcDbEntity
  8
HILF
100
AcDbLine
 10
658.5776968002403
 20
528.662205252982
 30
0.0
 11
658.5776968002403
 21
516.6622052529818
 31
0.0
  0
LINE
  5
6D0F
330
1E
100
AcDbEntity
  8
STEMPEL
100
AcDbLine
 10
657.5776968002403
 20
528.662205252982
 30
0.0
 11
657.5776968002403
 21
516.6622052529818
 31
0.0
  0
DIMENSION
  5
6DC7
330
1E
100
AcDbEntity
  8
BEM
100
AcDbDimension
  2
*D5
 10
259.4564030892789
 20
520.6622052529819
 30
0.0
 11
251.3314030892789
 21
494.412205252982
 31
0.0
 70
    32
 71
     5
 42
15.0
  3
Standard
100
AcDbAlignedDimension
 13
270.0776968002402
 23
535.6622052529819
 33
0.0
 14
270.0776968002403
 24
520.6622052529819
 34
0.0
 50
90.0
100
AcDbRotatedDimension
1001
ACAD
1000
DSTYLE
1002
{
1070
    40
1040
2.5
1070
    41
1040
3.5
1070
    42
1040
1.0
1070
    43
1040
7.0
1070
    44
1040
1.0
1070
    73
1070
     0
1070
    74
1070
     0
1070
    77
1070
     1
1070
    78
1070
     8
1070
    79
1070
     2
1070
   140
1040
3.5
1070
   141
1040
1.5
1070
   146
1040
0.5142857142857144
1070
   147
1040
1.5
1070
   172
1070
     1
1070
   178
1070
     1
1070
   179
1070
     2
1070
   271
1070
     2
1070
   272
1070
     2
1070
   284
1070
     8
1070
   285
1070
     8
1070
   286
1070
     8
1002
}
  0
DIMENSION
  5
6E12
330
1E
100
AcDbEntity
  8
BEM
100
AcDbDimension
  2
*D6
 10
616.0776968002403
 20
213.2857817942209
 30
0.0
 11
536.5776968002403
 21
221.4107817942208
 31
0.0
 70
    32
  1
%%c<>
 71
     5
 42
158.9999999999999
  3
Standard
100
AcDbAlignedDimension
 13
457.0776968002403
 23
253.6622052529822
 33
0.0
 14
616.0776968002403
 24
253.6622052529826
 34
0.0
100
AcDbRotatedDimension
1001
ACAD
1000
DSTYLE
1002
{
1070
    40
1040
2.5
1070
    41
1040
3.5
1070
    42
1040
1.0
1070
    43
1040
7.0
1070
    44
1040
1.0
1070
    73
1070
     0
1070
    74
1070
     0
1070
    77
1070
     1
1070
    78
1070
     8
1070
    79
1070
     2
1070
   140
1040
3.5
1070
   141
1040
1.5
1070
   146
1040
0.5142857142857144
1070
   147
1040
1.5
1070
   172
1070
     1
1070
   178
1070
     1
1070
   179
1070
     2
1070
   271
1070
     2
1070
   272
1070
     2
1070
   284
1070
     8
1070
   285
1070
     8
1070
   286
1070
     8
1002
}
  0
DIMENSION
  5
6E3C
330
1E
100
AcDbEntity
  8
BEM
100
AcDbDimension
  2
*D7
 10
734.8495025268757
 20
516.6622052529821
 30
0.0
 11
726.7245025268756
 21
376.6622052529821
 31
0.0
 70
    32
 71
     5
 42
280.0000000000002
  3
Standard
100
AcDbAlignedDimension
 13
614.5903895202998
 23
236.662205252982
 33
0.0
 14
701.5776968002401
 24
516.6622052529821
 34
0.0
 50
90.0
100
AcDbRotatedDimension
1001
ACAD
1000
DSTYLE
1002
{
1070
    40
1040
2.5
1070
    41
1040
3.5
1070
    42
1040
1.0
1070
    43
1040
7.0
1070
    44
1040
1.0
1070
    73
1070
     0
1070
    74
1070
     0
1070
    77
1070
     1
1070
    78
1070
     8
1070
    79
1070
     2
1070
   140
1040
3.5
1070
   141
1040
1.5
1070
   146
1040
0.5142857142857144
1070
   147
1040
1.5
1070
   172
1070
     1
1070
   178
1070
     1
1070
   179
1070
     2
1070
   271
1070
     2
1070
   272
1070
     2
1070
   284
1070
     8
1070
   285
1070
     8
1070
   286
1070
     8
1002
}
  0
DIMENSION
  5
6E49
330
1E
100
AcDbEntity
  8
BEM
100
AcDbDimension
  2
*D8
 10
719.3204950758836
 20
510.6622052529819
 30
0.0
 11
711.1954950758835
 21
487.2455385863154
 31
0.0
 70
    32
 71
     5
 42
6.00000000000017
  3
Standard
100
AcDbAlignedDimension
 13
701.5776968002401
 23
516.6622052529821
 33
0.0
 14
701.5776968002403
 24
510.6622052529819
 34
0.0
 50
90.0
100
AcDbRotatedDimension
1001
ACAD
1000
DSTYLE
1002
{
1070
    40
1040
2.5
1070
    41
1040
3.5
1070
    42
1040
1.0
1070
    43
1040
7.0
1070
    44
1040
1.0
1070
    73
1070
     0
1070
    74
1070
     0
1070
    77
1070
     1
1070
    78
1070
     8
1070
    79
1070
     2
1070
   140
1040
3.5
1070
   141
1040
1.5
1070
   146
1040
0.5142857142857144
1070
   147
1040
1.5
1070
   172
1070
     1
1070
   178
1070
     1
1070
   179
1070
     2
1070
   271
1070
     2
1070
   272
1070
     2
1070
   284
1070
     8
1070
   285
1070
     8
1070
   286
1070
     8
1002
}
  0
TEXT
  5
6E58
330
1E
100
AcDbEntity
  8
TEXT
 62
     1
100
AcDbText
 10
523.036873434447
 20
391.5769497896558
 30
0.0
 40
7.0
  1
DN150
 50
90.0
 41
0.8
  7
GREEKS
100
AcDbText
  0
TEXT
  5
6E59
330
1E
100
AcDbEntity
  8
TEXT
 62
     1
100
AcDbText
 10
176.3962191559812
 20
455.3542468237241
 30
0.0
 40
8.75
  1
Kompressionsdichtung
 41
0.8
  7
GREEKS
100
AcDbText
  0
LINE
  5
6E5A
330
1E
100
AcDbEntity
  8
TEXT
 62
     2
100
AcDbLine
 10
176.0644977339511
 20
451.184436472619
 30
0.0
 11
309.7623909735378
 21
451.1844364726189
 31
0.0
  0
TEXT
  5
6E5B
330
1E
100
AcDbEntity
  8
TEXT
 62
     1
100
AcDbText
 10
176.3962191559812
 20
438.9211949876761
 30
0.0
 40
8.75
  1
EDV-Art.Nr. 19976.150X
 41
0.8
  7
GREEKS
100
AcDbText
  0
TEXT
  5
6E5C
330
1E
100
AcDbEntity
  8
TEXT
 62
     1
100
AcDbText
 10
830.6332870729157
 20
608.1630456237311
 30
0.0
 40
8.75
  1
EDV-Art.Nr. 60000.000X
 41
0.8
  7
GREEKS
100
AcDbText
  0
LINE
  5
6E5D
330
1E
100
AcDbEntity
  8
TEXT
 62
     2
100
AcDbLine
 10
830.3015656508856
 20
620.426287108674
 30
0.0
 11
963.9994588904722
 21
620.4262871086739
 31
0.0
  0
TEXT
  5
6E5E
330
1E
100
AcDbEntity
  8
TEXT
 62
     1
100
AcDbText
 10
830.6332870729157
 20
624.5960974597791
 30
0.0
 40
8.75
  1
Saughaube
 41
0.8
  7
GREEKS
100
AcDbText
  0
LINE
  5
6E5F
330
1E
100
AcDbEntity
  8
TEXT
 62
     2
100
AcDbLine
 10
830.3015656508856
 20
620.426287108674
 30
0.0
 11
764.4508072943908
 21
602.2398971511656
 31
0.0
  0
LINE
  5
6E60
330
1E
100
AcDbEntity
  8
TEXT
 62
     2
100
AcDbLine
 10
830.3015656508856
 20
535.1609216054659
 30
0.0
 11
692.2668073585318
 21
525.8609638672915
 31
0.0
  0
TEXT
  5
6E61
330
1E
100
AcDbEntity
  8
TEXT
 62
     1
100
AcDbText
 10
830.6332870729157
 20
539.3307319565709
 30
0.0
 40
8.75
  1
Losflansch DN125
 41
0.8
  7
GREEKS
100
AcDbText
  0
LINE
  5
6E62
330
1E
100
AcDbEntity
  8
TEXT
 62
     2
100
AcDbLine
 10
830.3015656508856
 20
535.1609216054659
 30
0.0
 11
963.9994588904722
 21
535.1609216054657
 31
0.0
  0
TEXT
  5
6E63
330
1E
100
AcDbEntity
  8
TEXT
 62
     1
100
AcDbText
 10
830.6332870729157
 20
522.8976801205229
 30
0.0
 40
8.75
  1
EDV-Art.Nr. 21905.125X
 41
0.8
  7
GREEKS
100
AcDbText
  0
LINE
  5
6E64
330
1E
100
AcDbEntity
  8
TEXT
 62
     2
100
AcDbLine
 10
373.5898068263605
 20
521.7742931418415
 30
0.0
 11
309.7623909735378
 21
451.1844364726189
 31
0.0
  0
LINE
  5
6E65
330
1E
100
AcDbEntity
  8
TEXT
 62
     2
100
AcDbLine
 10
309.7623909735378
 20
451.1844364726189
 30
0.0
 11
378.3701139773939
 21
517.5007795154797
 31
0.0
  0
TEXT
  5
6E66
330
1E
100
AcDbEntity
  8
TEXT
 62
     1
100
AcDbText
 10
174.1273217586658
 20
315.7109682098347
 30
0.0
 40
8.75
  1
EDV-Art.Nr. 21981.150X
 41
0.8
  7
GREEKS
100
AcDbText
  0
LINE
  5
6E67
330
1E
100
AcDbEntity
  8
TEXT
 62
     2
100
AcDbLine
 10
173.7956003366357
 20
327.9742096947777
 30
0.0
 11
307.4934935762223
 21
327.9742096947775
 31
0.0
  0
TEXT
  5
6E68
330
1E
100
AcDbEntity
  8
TEXT
 62
     1
100
AcDbText
 10
174.1273217586658
 20
332.1440200458827
 30
0.0
 40
8.75
  1
Ablauftopf DN150
 41
0.8
  7
GREEKS
100
AcDbText
  0
LINE
  5
6E69
330
1E
100
AcDbEntity
  8
TEXT
 62
     2
100
AcDbLine
 10
307.4934935762223
 20
327.9742096947775
 30
0.0
 11
457.7815045529469
 21
365.5666977185701
 31
0.0
  0
TEXT
  5
6F4F
330
1E
100
AcDbEntity
  8
TEXT
 62
     1
100
AcDbText
 10
830.6332870729157
 20
449.9107607212628
 30
0.0
 40
8.75
  1
EDV-Art.Nr. 60070.150X
 41
0.8
  7
GREEKS
100
AcDbText
  0
LINE
  5
6F50
330
1E
100
AcDbEntity
  8
TEXT
 62
     2
100
AcDbLine
 10
830.3015656508856
 20
462.1740022062057
 30
0.0
 11
980.9099336484699
 21
462.1740022062056
 31
0.0
  0
TEXT
  5
6F51
330
1E
100
AcDbEntity
  8
TEXT
 62
     1
100
AcDbText
 10
830.6332870729157
 20
466.3438125573107
 30
0.0
 40
8.75
  1
Halterung für Attika-Haube
 41
0.8
  7
GREEKS
100
AcDbText
  0
LINE
  5
6F52
330
1E
100
AcDbEntity
  8
TEXT
 62
     2
100
AcDbLine
 10
830.3015656508856
 20
462.1740022062057
 30
0.0
 11
766.1399589327652
 21
519.452769333674
 31
0.0
  0
HATCH
  5
6FC7
330
1E
100
AcDbEntity
  8
SCHRAFF
100
AcDbHatch
 10
0.0
 20
0.0
 30
0.0
210
0.0
220
0.0
230
1.0
  2
_USER
 70
     0
 71
     1
 91
        3
 92
        7
 72
     1
 73
     1
 93
       12
 10
692.3101114380831
 20
643.662205252982
 42
0.0
 10
536.5776968002402
 20
643.6622052529818
 42
0.0
 10
536.5776968002402
 20
642.1622052529818
 42
0.0
 10
692.3101114380831
 20
642.162205252982
 42
-0.4142135623731006
 10
775.8101114380833
 20
558.6622052529808
 42
0.0
 10
775.8101114380833
 20
542.162205252982
 42
0.4142135623730992
 10
782.3101114380833
 20
535.6622052529819
 42
0.0
 10
803.0776968002403
 20
535.6622052529819
 42
0.0
 10
803.0776968002403
 20
537.1622052529818
 42
0.0
 10
782.3101114380833
 20
537.1622052529819
 42
-0.4142135623730926
 10
777.3101114380834
 20
542.1622052529819
 42
0.0
 10
777.3101114380834
 20
558.6622052529808
 42
0.4142135623731005
 97
       12
330
181
330
17A
330
651F
330
651E
330
651D
330
651C
330
6D0B
330
5C8E
330
650B
330
6510
330
5C8C
330
5C86
 92
        7
 72
     1
 73
     1
 93
       12
 10
536.5776968002402
 20
643.662205252982
 42
0.0
 10
380.8452821623971
 20
643.6622052529818
 42
0.4142135623730951
 10
295.8452821623971
 20
558.6622052529818
 42
0.0
 10
295.8452821623971
 20
542.1622052529819
 42
-0.414213562373096
 10
290.8452821623972
 20
537.1622052529819
 42
0.0
 10
283.5776968002402
 20
537.1622052529819
 42
0.0
 10
283.5776968002402
 20
535.6622052529821
 42
0.0
 10
290.8452821623972
 20
535.6622052529821
 42
0.4142135623730959
 10
297.3452821623972
 20
542.162205252982
 42
0.0
 10
297.3452821623972
 20
558.6622052529818
 42
-0.4142135623730949
 10
380.8452821623971
 20
642.1622052529818
 42
0.0
 10
536.5776968002403
 20
642.162205252982
 42
0.0
 97
       12
330
181
330
1C0
330
1A2
330
6521
330
64F7
330
5C9B
330
6684
330
6523
330
6522
330
6520
330
651F
330
17A
 92
        7
 72
     0
 73
     1
 93
        5
 10
276.5776968002401
 20
537.1622052529819
 10
274.0776968002388
 20
537.1622052529821
 10
270.0776968002401
 20
537.162205252982
 10
270.0776968002402
 20
535.6622052529819
 10
276.5776968002401
 20
535.6622052529818
 97
        5
330
6677
330
64F7
330
17F
330
17E
330
5C9A
 75
     0
 76
     0
 52
45.0
 41
2.0
 77
     0
 78
     1
 53
45.0
 43
0.0
 44
0.0
 45
-1.414213562373094
 46
1.414213562373095
 79
     0
 47
0.6418934262689717
 98
        3
 10
631.3003450803925
 20
642.6388604532942
 10
520.1886729384596
 20
642.6388604532942
 10
272.9170345373223
 20
536.7264454187229
  0
ENDSEC
  0
SECTION
  2
OBJECTS
  0
DICTIONARY
  5
C
330
0
100
AcDbDictionary
281
     1
  3
ACAD_COLOR
350
11A
  3
ACAD_GROUP
350
D
  3
ACAD_LAYOUT
350
19
  3
ACAD_MATERIAL
350
119
  3
ACAD_MLINESTYLE
350
16
  3
ACAD_PLOTSETTINGS
350
18
  3
ACAD_PLOTSTYLENAME
350
E
  3
AcDbVariableDictionary
350
125
  0
DICTIONARY
  5
DB
330
1E
100
AcDbDictionary
280
     1
281
     1
  3
ACAD_LAYOUTSELFREF
360
10F
  0
DICTIONARY
  5
DD
330
1A
100
AcDbDictionary
280
     1
281
     1
  3
ACAD_LAYOUTSELFREF
360
10E
  0
DICTIONARY
  5
11A
102
{ACAD_REACTORS
330
C
102
}
330
C
100
AcDbDictionary
281
     1
  0
DICTIONARY
  5
D
102
{ACAD_REACTORS
330
C
102
}
330
C
100
AcDbDictionary
281
     1
  0
DICTIONARY
  5
19
102
{ACAD_REACTORS
330
C
102
}
330
C
100
AcDbDictionary
281
     1
  3
Layout1
350
1D
  3
Model
350
21
  0
DICTIONARY
  5
119
102
{ACAD_REACTORS
330
C
102
}
330
C
100
AcDbDictionary
281
     1
  0
DICTIONARY
  5
16
102
{ACAD_REACTORS
330
C
102
}
330
C
100
AcDbDictionary
281
     1
  3
Standard
350
17
  0
DICTIONARY
  5
18
102
{ACAD_REACTORS
330
C
102
}
330
C
100
AcDbDictionary
281
     1
  0
ACDBDICTIONARYWDFLT
  5
E
102
{ACAD_REACTORS
330
C
102
}
330
C
100
AcDbDictionary
281
     1
  3
Normal
350
F
100
AcDbDictionaryWithDefault
340
F
  0
DICTIONARY
  5
125
102
{ACAD_REACTORS
330
C
102
}
330
C
100
AcDbDictionary
281
     1
  3
DIMASSOC
350
126
  3
PROJECTNAME
350
127
  0
XRECORD
  5
10F
102
{ACAD_REACTORS
330
DB
102
}
330
DB
100
AcDbXrecord
280
     1
340
1E
  0
XRECORD
  5
10E
102
{ACAD_REACTORS
330
DD
102
}
330
DD
100
AcDbXrecord
280
     1
340
1A
  0
LAYOUT
  5
1D
102
{ACAD_REACTORS
330
19
102
}
330
19
100
AcDbPlotSettings
  1

  2
\\NT_WORK01\HP LaserJet 5000 PCL 6
  4

  6

 40
0.0
 41
0.0
 42
0.0
 43
0.0
 44
0.0
 45
0.0
 46
0.0
 47
0.0
 48
0.0
 49
0.0
140
0.0
141
0.0
142
1.0
143
1.0
 70
   688
 72
     0
 73
     0
 74
     5
  7
monochrome1.ctb
 75
    16
147
1.0
 76
     0
 77
     2
 78
   300
148
0.0
149
0.0
100
AcDbLayout
  1
Layout1
 70
     0
 71
     1
 10
0.0
 20
0.0
 11
12.0
 21
9.0
 12
0.0
 22
0.0
 32
0.0
 14
1.000000000000000E+20
 24
1.000000000000000E+20
 34
1.000000000000000E+20
 15
-1.000000000000000E+20
 25
-1.000000000000000E+20
 35
-1.000000000000000E+20
146
0.0
 13
0.0
 23
0.0
 33
0.0
 16
1.0
 26
0.0
 36
0.0
 17
0.0
 27
1.0
 37
0.0
 76
     0
330
1A
  0
LAYOUT
  5
21
102
{ACAD_REACTORS
330
19
102
}
330
19
100
AcDbPlotSettings
  1

  2
none_device
  4
Letter_(8.50_x_11.00_Inches)
  6

 40
6.349999904632568
 41
6.349999904632568
 42
6.350006103515625
 43
6.350006103515625
 44
215.8999938964844
 45
279.3999938964844
 46
0.0
 47
0.0
 48
0.0
 49
0.0
140
0.0
141
0.0
142
1.0
143
1.0
 70
 11952
 72
     0
 73
     1
 74
     0
  7

 75
     0
147
1.0
 76
     0
 77
     2
 78
   300
148
4623.781975991719
149
158.4927424090595
100
AcDbLayout
  1
Model
 70
     1
 71
     0
 10
0.0
 20
0.0
 11
12.0
 21
9.0
 12
0.0
 22
0.0
 32
0.0
 14
0.0
 24
0.0
 34
0.0
 15
0.0
 25
0.0
 35
0.0
146
0.0
 13
0.0
 23
0.0
 33
0.0
 16
1.0
 26
0.0
 36
0.0
 17
0.0
 27
1.0
 37
0.0
 76
     0
330
1E
  0
MLINESTYLE
  5
17
102
{ACAD_REACTORS
330
16
102
}
330
16
100
AcDbMlineStyle
  2
STANDARD
 70
     0
  3

 62
   256
 51
90.0
 52
90.0
 71
     2
 49
0.5
 62
   256
  6
BYLAYER
 49
-0.5
 62
   256
  6
BYLAYER
  0
ACDBPLACEHOLDER
  5
F
102
{ACAD_REACTORS
330
E
102
}
330
E
  0
DICTIONARYVAR
  5
126
102
{ACAD_REACTORS
330
125
102
}
330
125
100
DictionaryVariables
280
     0
  1
1
  0
DICTIONARYVAR
  5
127
102
{ACAD_REACTORS
330
125
102
}
330
125
100
DictionaryVariables
280
     0
  1

  0
ENDSEC
  0
EOF
