  0
SECTION
  2
HEADER
  9
$ACADVER
  1
AC1018
  9
$ACADMAINTVER
 70
     2
  9
$DWGCODEPAGE
  3
ANSI_1252
  9
$INSBASE
 10
0.0
 20
0.0
 30
0.0
  9
$EXTMIN
 10
-0.0128164049386896
 20
-0.0090630292066862
 30
-0.0015258207003583
  9
$EXTMAX
 10
420.0128183607161
 20
297.0090644122207
 30
0.0000000349246037
  9
$LIMMIN
 10
0.0
 20
0.0
  9
$LIMMAX
 10
420.0
 20
297.0
  9
$ORTHOMODE
 70
     1
  9
$REGENMODE
 70
     1
  9
$FILLMODE
 70
     1
  9
$QTEXTMODE
 70
     0
  9
$MIRRTEXT
 70
     1
  9
$LTSCALE
 40
10.0
  9
$ATTMODE
 70
     1
  9
$TEXTSIZE
 40
3.5
  9
$TRACEWID
 40
1.0
  9
$TEXTSTYLE
  7
STANDARD
  9
$CLAYER
  8
BEM
  9
$CELTYPE
  6
ByLayer
  9
$CECOLOR
 62
   256
  9
$CELTSCALE
 40
1.0
  9
$DISPSILH
 70
     0
  9
$DIMSCALE
 40
1.0
  9
$DIMASZ
 40
3.5
  9
$DIMEXO
 40
1.0
  9
$DIMDLI
 40
7.0
  9
$DIMRND
 40
0.0
  9
$DIMDLE
 40
0.0
  9
$DIMEXE
 40
1.0
  9
$DIMTP
 40
0.0
  9
$DIMTM
 40
0.0
  9
$DIMTXT
 40
3.5
  9
$DIMCEN
 40
1.5
  9
$DIMTSZ
 40
0.0
  9
$DIMTOL
 70
     0
  9
$DIMLIM
 70
     0
  9
$DIMTIH
 70
     0
  9
$DIMTOH
 70
     0
  9
$DIMSE1
 70
     0
  9
$DIMSE2
 70
     0
  9
$DIMTAD
 70
     1
  9
$DIMZIN
 70
     8
  9
$DIMBLK
  1

  9
$DIMASO
 70
     1
  9
$DIMSHO
 70
     0
  9
$DIMPOST
  1

  9
$DIMAPOST
  1

  9
$DIMALT
 70
     0
  9
$DIMALTD
 70
     2
  9
$DIMALTF
 40
25.4
  9
$DIMLFAC
 40
1.0
  9
$DIMTOFL
 70
     1
  9
$DIMTVP
 40
0.0
  9
$DIMTIX
 70
     0
  9
$DIMSOXD
 70
     0
  9
$DIMSAH
 70
     0
  9
$DIMBLK1
  1

  9
$DIMBLK2
  1

  9
$DIMSTYLE
  2
Standard
  9
$DIMCLRD
 70
     0
  9
$DIMCLRE
 70
     0
  9
$DIMCLRT
 70
     1
  9
$DIMTFAC
 40
0.5142857142857144
  9
$DIMGAP
 40
1.5
  9
$DIMJUST
 70
     0
  9
$DIMSD1
 70
     0
  9
$DIMSD2
 70
     0
  9
$DIMTOLJ
 70
     1
  9
$DIMTZIN
 70
     8
  9
$DIMALTZ
 70
     8
  9
$DIMALTTZ
 70
     8
  9
$DIMUPT
 70
     0
  9
$DIMDEC
 70
     2
  9
$DIMTDEC
 70
     2
  9
$DIMALTU
 70
     2
  9
$DIMALTTD
 70
     2
  9
$DIMTXSTY
  7
STANDARD
  9
$DIMAUNIT
 70
     0
  9
$DIMADEC
 70
     2
  9
$DIMALTRND
 40
0.0
  9
$DIMAZIN
 70
     2
  9
$DIMDSEP
 70
    46
  9
$DIMATFIT
 70
     3
  9
$DIMFRAC
 70
     0
  9
$DIMLDRBLK
  1

  9
$DIMLUNIT
 70
     2
  9
$DIMLWD
 70
    -2
  9
$DIMLWE
 70
    -2
  9
$DIMTMOVE
 70
     0
  9
$LUNITS
 70
     2
  9
$LUPREC
 70
     2
  9
$SKETCHINC
 40
1.0
  9
$FILLETRAD
 40
0.0
  9
$AUNITS
 70
     0
  9
$AUPREC
 70
     0
  9
$MENU
  1
ACAD
  9
$ELEVATION
 40
0.0
  9
$PELEVATION
 40
0.0
  9
$THICKNESS
 40
0.0
  9
$LIMCHECK
 70
     0
  9
$CHAMFERA
 40
0.0
  9
$CHAMFERB
 40
0.0
  9
$CHAMFERC
 40
0.0
  9
$CHAMFERD
 40
0.0
  9
$SKPOLY
 70
     0
  9
$TDCREATE
 40
2455397.867059838
  9
$TDUCREATE
 40
2455397.783726505
  9
$TDUPDATE
 40
2455497.488142917
  9
$TDUUPDATE
 40
2455497.404809583
  9
$TDINDWG
 40
0.0313894907
  9
$TDUSRTIMER
 40
0.0313894907
  9
$USRTIMER
 70
     1
  9
$ANGBASE
 50
0.0
  9
$ANGDIR
 70
     0
  9
$PDMODE
 70
     0
  9
$PDSIZE
 40
0.0
  9
$PLINEWID
 40
0.0
  9
$SPLFRAME
 70
     0
  9
$SPLINETYPE
 70
     6
  9
$SPLINESEGS
 70
     8
  9
$HANDSEED
  5
6AC
  9
$SURFTAB1
 70
     6
  9
$SURFTAB2
 70
     6
  9
$SURFTYPE
 70
     6
  9
$SURFU
 70
     6
  9
$SURFV
 70
     6
  9
$UCSBASE
  2

  9
$UCSNAME
  2

  9
$UCSORG
 10
0.0
 20
0.0
 30
0.0
  9
$UCSXDIR
 10
1.0
 20
0.0
 30
0.0
  9
$UCSYDIR
 10
0.0
 20
1.0
 30
0.0
  9
$UCSORTHOREF
  2

  9
$UCSORTHOVIEW
 70
     0
  9
$UCSORGTOP
 10
0.0
 20
0.0
 30
0.0
  9
$UCSORGBOTTOM
 10
0.0
 20
0.0
 30
0.0
  9
$UCSORGLEFT
 10
0.0
 20
0.0
 30
0.0
  9
$UCSORGRIGHT
 10
0.0
 20
0.0
 30
0.0
  9
$UCSORGFRONT
 10
0.0
 20
0.0
 30
0.0
  9
$UCSORGBACK
 10
0.0
 20
0.0
 30
0.0
  9
$PUCSBASE
  2

  9
$PUCSNAME
  2

  9
$PUCSORG
 10
0.0
 20
0.0
 30
0.0
  9
$PUCSXDIR
 10
1.0
 20
0.0
 30
0.0
  9
$PUCSYDIR
 10
0.0
 20
1.0
 30
0.0
  9
$PUCSORTHOREF
  2

  9
$PUCSORTHOVIEW
 70
     0
  9
$PUCSORGTOP
 10
0.0
 20
0.0
 30
0.0
  9
$PUCSORGBOTTOM
 10
0.0
 20
0.0
 30
0.0
  9
$PUCSORGLEFT
 10
0.0
 20
0.0
 30
0.0
  9
$PUCSORGRIGHT
 10
0.0
 20
0.0
 30
0.0
  9
$PUCSORGFRONT
 10
0.0
 20
0.0
 30
0.0
  9
$PUCSORGBACK
 10
0.0
 20
0.0
 30
0.0
  9
$USERI1
 70
     0
  9
$USERI2
 70
     0
  9
$USERI3
 70
     0
  9
$USERI4
 70
     0
  9
$USERI5
 70
     0
  9
$USERR1
 40
0.0
  9
$USERR2
 40
0.0
  9
$USERR3
 40
0.0
  9
$USERR4
 40
0.0
  9
$USERR5
 40
0.0
  9
$WORLDVIEW
 70
     1
  9
$SHADEDGE
 70
     3
  9
$SHADEDIF
 70
    70
  9
$TILEMODE
 70
     1
  9
$MAXACTVP
 70
    16
  9
$PINSBASE
 10
0.0
 20
0.0
 30
0.0
  9
$PLIMCHECK
 70
     0
  9
$PEXTMIN
 10
1.000000000000000E+20
 20
1.000000000000000E+20
 30
1.000000000000000E+20
  9
$PEXTMAX
 10
-1.000000000000000E+20
 20
-1.000000000000000E+20
 30
-1.000000000000000E+20
  9
$PLIMMIN
 10
0.0
 20
0.0
  9
$PLIMMAX
 10
12.0
 20
9.0
  9
$UNITMODE
 70
     0
  9
$VISRETAIN
 70
     0
  9
$PLINEGEN
 70
     0
  9
$PSLTSCALE
 70
     0
  9
$TREEDEPTH
 70
  3020
  9
$CMLSTYLE
  2
Standard
  9
$CMLJUST
 70
     0
  9
$CMLSCALE
 40
1.0
  9
$PROXYGRAPHICS
 70
     1
  9
$MEASUREMENT
 70
     0
  9
$CELWEIGHT
370
    -1
  9
$ENDCAPS
280
     0
  9
$JOINSTYLE
280
     0
  9
$LWDISPLAY
290
     0
  9
$INSUNITS
 70
     0
  9
$HYPERLINKBASE
  1

  9
$STYLESHEET
  1
monochrome 1.ctb
  9
$XEDIT
290
     1
  9
$CEPSNTYPE
380
     0
  9
$PSTYLEMODE
290
     1
  9
$FINGERPRINTGUID
  2
{D68B0D0D-A558-11D7-B632-000102183313}
  9
$VERSIONGUID
  2
{70BEF0E2-CCF2-49F6-90F6-9210C527FD83}
  9
$EXTNAMES
290
     1
  9
$PSVPSCALE
 40
0.0
  9
$OLESTARTUP
290
     0
  9
$SORTENTS
280
   127
  9
$INDEXCTL
280
     0
  9
$HIDETEXT
280
     0
  9
$XCLIPFRAME
290
     0
  9
$HALOGAP
280
     0
  9
$OBSCOLOR
 70
   257
  9
$OBSLTYPE
280
     0
  9
$INTERSECTIONDISPLAY
280
     0
  9
$INTERSECTIONCOLOR
 70
   257
  9
$DIMASSOC
280
     1
  9
$PROJECTNAME
  1

  0
ENDSEC
  0
SECTION
  2
CLASSES
  0
CLASS
  1
ACDBDICTIONARYWDFLT
  2
AcDbDictionaryWithDefault
  3
ObjectDBX Classes
 90
        0
 91
        1
280
     0
281
     0
  0
CLASS
  1
DICTIONARYVAR
  2
AcDbDictionaryVar
  3
ObjectDBX Classes
 90
        0
 91
        2
280
     0
281
     0
  0
CLASS
  1
DIMASSOC
  2
AcDbDimAssoc
  3
"AcDbDimAssoc|Product Desc:     AcDim ARX App For Dimension|Company:          Autodesk, Inc.|WEB Address:      www.autodesk.com"
 90
        0
 91
        2
280
     0
281
     0
  0
ENDSEC
  0
SECTION
  2
TABLES
  0
TABLE
  2
VPORT
  5
8
330
0
100
AcDbSymbolTable
 70
     2
  0
VPORT
  5
6AB
330
8
100
AcDbSymbolTableRecord
100
AcDbViewportTableRecord
  2
*Active
 70
     0
 10
0.0
 20
0.0
 11
1.0
 21
1.0
 12
210.0
 22
148.5
 13
0.0
 23
0.0
 14
1.0
 24
1.0
 15
10.0
 25
10.0
 16
0.0
 26
0.0
 36
1.0
 17
0.0
 27
0.0
 37
0.0
 40
314.1532258064516
 41
1.336927223719676
 42
50.0
 43
0.0
 44
0.0
 50
0.0
 51
0.0
 71
     0
 72
  1500
 73
     1
 74
     0
 75
     0
 76
     0
 77
     0
 78
     0
281
     0
 65
     1
110
0.0
120
0.0
130
0.0
111
1.0
121
0.0
131
0.0
112
0.0
122
1.0
132
0.0
 79
     0
146
0.0
  0
ENDTAB
  0
TABLE
  2
LTYPE
  5
5
330
0
100
AcDbSymbolTable
 70
     3
  0
LTYPE
  5
13
330
5
100
AcDbSymbolTableRecord
100
AcDbLinetypeTableRecord
  2
ByBlock
 70
     0
  3

 72
    65
 73
     0
 40
0.0
  0
LTYPE
  5
14
330
5
100
AcDbSymbolTableRecord
100
AcDbLinetypeTableRecord
  2
ByLayer
 70
     0
  3

 72
    65
 73
     0
 40
0.0
  0
LTYPE
  5
15
330
5
100
AcDbSymbolTableRecord
100
AcDbLinetypeTableRecord
  2
Continuous
 70
     0
  3
Solid line
 72
    65
 73
     0
 40
0.0
  0
LTYPE
  5
25
330
5
100
AcDbSymbolTableRecord
100
AcDbLinetypeTableRecord
  2
STRICHPUNKT
 70
     0
  3
__ . __ . __ . __ . __ . __ . __ . __ . __ . __
 72
    65
 73
     4
 40
1.0
 49
0.5
 74
     0
 49
-0.25
 74
     0
 49
0.0
 74
     0
 49
-0.25
 74
     0
  0
LTYPE
  5
203
330
5
100
AcDbSymbolTableRecord
100
AcDbLinetypeTableRecord
  2
VERDECKT
 70
     0
  3
Verdeckt __ __ __ __ __ __ __ __ __ __ __ __ __
 72
    65
 73
     2
 40
0.375
 49
0.25
 74
     0
 49
-0.125
 74
     0
  0
ENDTAB
  0
TABLE
  2
LAYER
  5
2
330
0
100
AcDbSymbolTable
 70
    10
  0
LAYER
  5
10
330
2
100
AcDbSymbolTableRecord
100
AcDbLayerTableRecord
  2
0
 70
     0
 62
     7
  6
Continuous
370
    -3
390
F
  0
LAYER
  5
2B
330
2
100
AcDbSymbolTableRecord
100
AcDbLayerTableRecord
  2
VOLL
 70
     0
 62
     1
  6
Continuous
370
    -3
390
F
  0
LAYER
  5
2C
330
2
100
AcDbSymbolTableRecord
100
AcDbLayerTableRecord
  2
HILF
 70
     0
 62
     2
  6
Continuous
370
    -3
390
F
  0
LAYER
  5
2D
330
2
100
AcDbSymbolTableRecord
100
AcDbLayerTableRecord
  2
MITTEL
 70
     0
 62
     2
  6
STRICHPUNKT
370
    -3
390
F
  0
LAYER
  5
2F
330
2
100
AcDbSymbolTableRecord
100
AcDbLayerTableRecord
  2
BEM
 70
     0
 62
     7
  6
Continuous
370
    -3
390
F
  0
LAYER
  5
30
330
2
100
AcDbSymbolTableRecord
100
AcDbLayerTableRecord
  2
STEMPEL
 70
     0
 62
     3
  6
Continuous
370
    -3
390
F
  0
LAYER
  5
33
330
2
100
AcDbSymbolTableRecord
100
AcDbLayerTableRecord
  2
TEXT
 70
     0
 62
     7
  6
Continuous
370
    -3
390
F
  0
LAYER
  5
204
330
2
100
AcDbSymbolTableRecord
100
AcDbLayerTableRecord
  2
SCHRAFF
 70
     0
 62
     7
  6
Continuous
370
    -3
390
F
  0
LAYER
  5
205
330
2
100
AcDbSymbolTableRecord
100
AcDbLayerTableRecord
  2
DEFPOINTS
 70
     0
 62
     7
  6
Continuous
290
     0
370
    -3
390
F
  0
LAYER
  5
206
330
2
100
AcDbSymbolTableRecord
100
AcDbLayerTableRecord
  2
VERDECKT
 70
     0
 62
     6
  6
VERDECKT
370
    -3
390
F
  0
ENDTAB
  0
TABLE
  2
STYLE
  5
3
330
0
100
AcDbSymbolTable
 70
     2
  0
STYLE
  5
11
330
3
100
AcDbSymbolTableRecord
100
AcDbTextStyleTableRecord
  2
STANDARD
 70
     0
 40
0.0
 41
0.8
 50
0.0
 71
     0
 42
3.5
  3
simplex.shx
  4

  0
STYLE
  5
24
330
3
100
AcDbSymbolTableRecord
100
AcDbTextStyleTableRecord
  2
GREEKS
 70
     0
 40
0.0
 41
0.8
 50
0.0
 71
     0
 42
2.5
  3
SIMPLEX.shx
  4

  0
ENDTAB
  0
TABLE
  2
VIEW
  5
6
330
0
100
AcDbSymbolTable
 70
     0
  0
ENDTAB
  0
TABLE
  2
UCS
  5
7
330
0
100
AcDbSymbolTable
 70
     0
  0
ENDTAB
  0
TABLE
  2
APPID
  5
9
330
0
100
AcDbSymbolTable
 70
     1
  0
APPID
  5
12
330
9
100
AcDbSymbolTableRecord
100
AcDbRegAppTableRecord
  2
ACAD
 70
     0
  0
ENDTAB
  0
TABLE
  2
DIMSTYLE
  5
A
330
0
100
AcDbSymbolTable
 70
     1
100
AcDbDimStyleTable
 71
     1
340
A2
  0
DIMSTYLE
105
A2
102
{ACAD_REACTORS
330
548
330
55A
330
55D
330
560
330
559
102
}
330
A
100
AcDbSymbolTableRecord
100
AcDbDimStyleTableRecord
  2
Standard
 70
     0
340
11
  0
ENDTAB
  0
TABLE
  2
BLOCK_RECORD
  5
1
330
0
100
AcDbSymbolTable
 70
     8
  0
BLOCK_RECORD
  5
1E
102
{ACAD_XDICTIONARY
360
DB
102
}
330
1
100
AcDbSymbolTableRecord
100
AcDbBlockTableRecord
  2
*Model_Space
340
21
  0
BLOCK_RECORD
  5
1A
102
{ACAD_XDICTIONARY
360
DD
102
}
330
1
100
AcDbSymbolTableRecord
100
AcDbBlockTableRecord
  2
*Paper_Space
340
1D
  0
BLOCK_RECORD
  5
22
330
1
100
AcDbSymbolTableRecord
100
AcDbBlockTableRecord
  2
LOGO
340
0
102
{BLKREFS
331
56
102
}
  0
BLOCK_RECORD
  5
23
330
1
100
AcDbSymbolTableRecord
100
AcDbBlockTableRecord
  2
LORO
340
0
102
{BLKREFS
331
30A
102
}
  0
BLOCK_RECORD
  5
450
330
1
100
AcDbSymbolTableRecord
100
AcDbBlockTableRecord
  2
*X2
340
0
102
{BLKREFS
331
588
102
}
  0
BLOCK_RECORD
  5
5B3
330
1
100
AcDbSymbolTableRecord
100
AcDbBlockTableRecord
  2
*D3
340
0
  0
BLOCK_RECORD
  5
5C1
330
1
100
AcDbSymbolTableRecord
100
AcDbBlockTableRecord
  2
*D4
340
0
  0
BLOCK_RECORD
  5
5CD
330
1
100
AcDbSymbolTableRecord
100
AcDbBlockTableRecord
  2
*D5
340
0
  0
BLOCK_RECORD
  5
620
330
1
100
AcDbSymbolTableRecord
100
AcDbBlockTableRecord
  2
*D6
340
0
  0
BLOCK_RECORD
  5
62C
330
1
100
AcDbSymbolTableRecord
100
AcDbBlockTableRecord
  2
*D7
340
0
  0
ENDTAB
  0
ENDSEC
  0
SECTION
  2
BLOCKS
  0
BLOCK
  5
37
330
1E
100
AcDbEntity
  8
0
100
AcDbBlockBegin
  2
*Model_Space
 70
     0
 10
0.0
 20
0.0
 30
0.0
  3
*Model_Space
  1

  0
ENDBLK
  5
38
330
1E
100
AcDbEntity
  8
0
100
AcDbBlockEnd
  0
BLOCK
  5
35
330
1A
100
AcDbEntity
 67
     1
  8
0
100
AcDbBlockBegin
  2
*Paper_Space
 70
     0
 10
0.0
 20
0.0
 30
0.0
  3
*Paper_Space
  1

  0
ENDBLK
  5
36
330
1A
100
AcDbEntity
 67
     1
  8
0
100
AcDbBlockEnd
  0
BLOCK
  5
39
330
22
100
AcDbEntity
  8
0
100
AcDbBlockBegin
  2
LOGO
 70
     0
 10
0.0
 20
0.0
 30
0.0
  3
LOGO
  1

  0
ARC
  5
3A
330
22
100
AcDbEntity
  8
0
100
AcDbCircle
 10
11.59973089678112
 20
-9.271599258481501
 30
0.0
 40
4.5
100
AcDbArc
 50
270.0
 51
231.0575587310159
  0
LINE
  5
3B
330
22
100
AcDbEntity
  8
0
100
AcDbLine
 10
3.599730896781125
 20
-4.771599258481529
 30
0.0
 11
3.599730896781153
 21
-11.77159925848133
 31
0.0
  0
LINE
  5
3C
330
22
100
AcDbEntity
  8
0
100
AcDbLine
 10
2.599730896781125
 20
-4.771599258481529
 30
0.0
 11
2.599730896781153
 21
-11.77159925848133
 31
0.0
  0
CIRCLE
  5
3D
330
22
100
AcDbEntity
  8
0
100
AcDbCircle
 10
11.59973089678112
 20
-9.271599258481501
 30
0.0
 40
3.5
  0
ARC
  5
3E
330
22
100
AcDbEntity
  8
0
100
AcDbCircle
 10
31.59973089678115
 20
-9.271599258481472
 30
0.0
 40
4.5
100
AcDbArc
 50
270.0
 51
231.0575587310182
  0
LINE
  5
3F
330
22
100
AcDbEntity
  8
0
100
AcDbLine
 10
17.59973089678112
 20
-4.771599258481472
 30
0.0
 11
17.59973089678115
 21
-13.77159925848147
 31
0.0
  0
ARC
  5
40
330
22
100
AcDbEntity
  8
0
100
AcDbCircle
 10
22.59973089678116
 20
-7.271599258481472
 30
0.0
 40
2.5
100
AcDbArc
 50
293.1161887722295
 51
90.0
  0
CIRCLE
  5
41
330
22
100
AcDbEntity
  8
0
100
AcDbCircle
 10
31.59973089678115
 20
-9.271599258481472
 30
0.0
 40
3.5
  0
ARC
  5
42
330
22
100
AcDbEntity
  8
0
100
AcDbCircle
 10
4.599730896781153
 20
-11.77159925848133
 30
0.0
 40
1.0
100
AcDbArc
 50
180.0
 51
270.0
  0
ARC
  5
43
330
22
100
AcDbEntity
  8
0
100
AcDbCircle
 10
4.599730896781153
 20
-11.77159925848133
 30
0.0
 40
2.0
100
AcDbArc
 50
179.9999999999992
 51
270.0
  0
LINE
  5
44
330
22
100
AcDbEntity
  8
0
100
AcDbLine
 10
11.59973089678115
 20
-13.77159925848144
 30
0.0
 11
4.599730896781153
 21
-13.77159925848147
 31
0.0
  0
LINE
  5
45
330
22
100
AcDbEntity
  8
0
100
AcDbLine
 10
8.771303772034769
 20
-12.77159925848136
 30
0.0
 11
4.599730896781153
 21
-12.77159925848133
 31
0.0
  0
LINE
  5
46
330
22
100
AcDbEntity
  8
0
100
AcDbLine
 10
31.59973089678115
 20
-13.77159925848147
 30
0.0
 11
23.6715276665056
 21
-13.77159925848144
 31
0.0
  0
LINE
  5
47
330
22
100
AcDbEntity
  8
0
100
AcDbLine
 10
23.56565672307022
 20
-9.51278021337896
 30
0.0
 11
24.4388546544846
 21
-12.77159925848144
 31
0.0
  0
LINE
  5
48
330
22
100
AcDbEntity
  8
0
100
AcDbLine
 10
22.59973089678116
 20
-9.771599258481472
 30
0.0
 11
18.59973089678112
 21
-9.771599258481472
 31
0.0
  0
LINE
  5
49
330
22
100
AcDbEntity
  8
0
100
AcDbLine
 10
18.59973089678115
 20
-13.77159925848144
 30
0.0
 11
17.59973089678115
 21
-13.77159925848144
 31
0.0
  0
LINE
  5
4A
330
22
100
AcDbEntity
  8
0
100
AcDbLine
 10
18.59973089678115
 20
-9.771599258481472
 30
0.0
 11
18.59973089678115
 21
-13.77159925848144
 31
0.0
  0
LINE
  5
4B
330
22
100
AcDbEntity
  8
0
100
AcDbLine
 10
22.59973089678116
 20
-9.771599258481472
 30
0.0
 11
23.67152766650562
 21
-13.77159925848147
 31
0.0
  0
ARC
  5
4C
330
22
100
AcDbEntity
  8
0
100
AcDbCircle
 10
22.59973089678116
 20
-7.271599258481472
 30
0.0
 40
2.5
100
AcDbArc
 50
270.0
 51
270.0000000000007
  0
LINE
  5
4D
330
22
100
AcDbEntity
  8
0
100
AcDbLine
 10
28.77130377203494
 20
-12.77159925848147
 30
0.0
 11
24.43885465448463
 21
-12.77159925848144
 31
0.0
  0
LINE
  5
4E
330
22
100
AcDbEntity
  8
0
100
AcDbLine
 10
3.599730896781125
 20
-4.771599258481472
 30
0.0
 11
2.599730896781125
 21
-4.771599258481472
 31
0.0
  0
LINE
  5
4F
330
22
100
AcDbEntity
  8
0
100
AcDbLine
 10
22.59973089678116
 20
-8.771599258481472
 30
0.0
 11
18.59973089678115
 21
-8.771599258481472
 31
0.0
  0
LINE
  5
50
330
22
100
AcDbEntity
  8
0
100
AcDbLine
 10
22.59973089678116
 20
-5.771599258481472
 30
0.0
 11
18.59973089678115
 21
-5.771599258481472
 31
0.0
  0
LINE
  5
51
330
22
100
AcDbEntity
  8
0
100
AcDbLine
 10
22.59973089678116
 20
-4.771599258481472
 30
0.0
 11
17.59973089678115
 21
-4.771599258481472
 31
0.0
  0
LINE
  5
52
330
22
100
AcDbEntity
  8
0
100
AcDbLine
 10
18.59973089678115
 20
-5.771599258481472
 30
0.0
 11
18.59973089678115
 21
-8.771599258481472
 31
0.0
  0
ARC
  5
53
330
22
100
AcDbEntity
  8
0
100
AcDbCircle
 10
22.59973089678116
 20
-7.271599258481472
 30
0.0
 40
1.5
100
AcDbArc
 50
270.0
 51
90.0
  0
ENDBLK
  5
54
330
22
100
AcDbEntity
  8
0
100
AcDbBlockEnd
  0
BLOCK
  5
55
330
23
100
AcDbEntity
  8
0
100
AcDbBlockBegin
  2
LORO
 70
     0
 10
0.0
 20
0.0
 30
0.0
  3
LORO
  1

  0
INSERT
  5
56
330
23
100
AcDbEntity
  8
STEMPEL
100
AcDbBlockReference
  2
LOGO
 10
-1.748032802467321
 20
3.771489518552062
 30
0.0
  0
ENDBLK
  5
57
330
23
100
AcDbEntity
  8
0
100
AcDbBlockEnd
  0
BLOCK
  5
451
330
450
100
AcDbEntity
  8
0
100
AcDbBlockBegin
  2
*X2
 70
     1
 10
0.0
 20
0.0
 30
0.0
  3
*X2
  1

  0
LINE
  5
452
330
450
100
AcDbEntity
  8
SCHRAFF
 62
     0
100
AcDbLine
 10
79.74882017829045
 20
260.5745787841309
 30
0.0
 11
79.53227178867038
 21
260.791127173751
 31
0.0
  0
LINE
  5
453
330
450
100
AcDbEntity
  8
SCHRAFF
 62
     0
100
AcDbLine
 10
79.74882017829045
 20
257.0390448781981
 30
0.0
 11
75.99673788273765
 21
260.791127173751
 31
0.0
  0
LINE
  5
454
330
450
100
AcDbEntity
  8
SCHRAFF
 62
     0
100
AcDbLine
 10
79.21120397680486
 20
254.041127173751
 30
0.0
 11
72.46120397680485
 21
260.791127173751
 31
0.0
  0
LINE
  5
455
330
450
100
AcDbEntity
  8
SCHRAFF
 62
     0
100
AcDbLine
 10
73.94882017829033
 20
255.7679770663328
 30
0.0
 11
69.74882017829045
 21
259.9679770663327
 31
0.0
  0
LINE
  5
456
330
450
100
AcDbEntity
  8
SCHRAFF
 62
     0
100
AcDbLine
 10
75.67567007087212
 20
254.041127173751
 30
0.0
 11
75.54882017829038
 21
254.1679770663327
 31
0.0
  0
LINE
  5
457
330
450
100
AcDbEntity
  8
SCHRAFF
 62
     0
100
AcDbLine
 10
72.1401361649394
 20
254.041127173751
 30
0.0
 11
69.7488201782904
 21
256.4324431603999
 31
0.0
  0
LINE
  5
458
330
450
100
AcDbEntity
  8
SCHRAFF
 62
     0
100
AcDbLine
 10
76.28867043526179
 20
254.041127173751
 30
0.0
 11
79.74882017829043
 21
257.5012769167796
 31
0.0
  0
LINE
  5
459
330
450
100
AcDbEntity
  8
SCHRAFF
 62
     0
100
AcDbLine
 10
75.54882017829044
 20
256.8368108227123
 30
0.0
 11
79.50313652932902
 21
260.7911271737509
 31
0.0
  0
LINE
  5
45A
330
450
100
AcDbEntity
  8
SCHRAFF
 62
     0
100
AcDbLine
 10
72.75313652932902
 20
254.0411271737509
 30
0.0
 11
73.94882017829036
 21
255.2368108227122
 31
0.0
  0
LINE
  5
45B
330
450
100
AcDbEntity
  8
SCHRAFF
 62
     0
100
AcDbLine
 10
69.74882017829045
 20
254.5723447286451
 30
0.0
 11
75.96760262339635
 21
260.791127173751
 31
0.0
  0
LINE
  5
45C
330
450
100
AcDbEntity
  8
SCHRAFF
 62
     0
100
AcDbLine
 10
69.74882017829045
 20
258.1078786345778
 30
0.0
 11
72.43206871746358
 21
260.791127173751
 31
0.0
  0
ENDBLK
  5
45D
330
450
100
AcDbEntity
  8
0
100
AcDbBlockEnd
  0
BLOCK
  5
5BF
330
5B3
100
AcDbEntity
  8
0
100
AcDbBlockBegin
  2
*D3
 70
     1
 10
0.0
 20
0.0
 30
0.0
  3
*D3
  1

  0
LINE
  5
660
330
5B3
100
AcDbEntity
  8
BEM
 62
     0
370
    -2
100
AcDbLine
 10
313.7457354509684
 20
272.4493814744627
 30
0.0
 11
313.7457354509684
 21
282.7696642538279
 31
0.0
  0
LINE
  5
661
330
5B3
100
AcDbEntity
  8
BEM
 62
     0
370
    -2
100
AcDbLine
 10
323.7457354509684
 20
272.4493814744627
 30
0.0
 11
323.7457354509684
 21
282.7696642538279
 31
0.0
  0
LINE
  5
662
330
5B3
100
AcDbEntity
  8
BEM
 62
     0
370
    -2
100
AcDbLine
 10
310.2457354509684
 20
281.7696642538278
 30
0.0
 11
306.7457354509684
 21
281.7696642538278
 31
0.0
  0
LINE
  5
663
330
5B3
100
AcDbEntity
  8
BEM
 62
     0
370
    -2
100
AcDbLine
 10
327.2457354509684
 20
281.7696642538278
 30
0.0
 11
330.7457354509684
 21
281.7696642538278
 31
0.0
  0
LINE
  5
664
330
5B3
100
AcDbEntity
  8
BEM
 62
     0
370
    -2
100
AcDbLine
 10
313.7457354509684
 20
281.7696642538278
 30
0.0
 11
323.7457354509684
 21
281.7696642538278
 31
0.0
  0
SOLID
  5
665
330
5B3
100
AcDbEntity
  8
BEM
 62
     0
100
AcDbTrace
 10
310.2457354509684
 20
282.3529975871612
 30
0.0
 11
310.2457354509684
 21
281.1863309204945
 31
0.0
 12
313.7457354509684
 22
281.7696642538278
 32
0.0
 13
313.7457354509684
 23
281.7696642538278
 33
0.0
  0
SOLID
  5
666
330
5B3
100
AcDbEntity
  8
BEM
 62
     0
100
AcDbTrace
 10
327.2457354509684
 20
282.3529975871612
 30
0.0
 11
327.2457354509684
 21
281.1863309204945
 31
0.0
 12
323.7457354509684
 22
281.7696642538278
 32
0.0
 13
323.7457354509684
 23
281.7696642538278
 33
0.0
  0
MTEXT
  5
667
330
5B3
100
AcDbEntity
  8
BEM
 62
     1
100
AcDbMText
 10
318.7457354509684
 20
285.0196642538278
 30
0.0
 40
3.5
 41
0.0
 71
     5
 72
     1
  1
\A1;12
 73
     1
 44
1.0
  0
POINT
  5
668
330
5B3
100
AcDbEntity
  8
DEFPOINTS
 62
     0
100
AcDbPoint
 10
313.7457354509684
 20
271.4493814744626
 30
0.0
  0
POINT
  5
669
330
5B3
100
AcDbEntity
  8
DEFPOINTS
 62
     0
100
AcDbPoint
 10
323.7457354509684
 20
271.4493814744626
 30
0.0
  0
POINT
  5
66A
330
5B3
100
AcDbEntity
  8
DEFPOINTS
 62
     0
100
AcDbPoint
 10
323.7457354509684
 20
281.7696642538278
 30
0.0
  0
ENDBLK
  5
5C0
330
5B3
100
AcDbEntity
  8
0
100
AcDbBlockEnd
  0
BLOCK
  5
5CB
330
5C1
100
AcDbEntity
  8
0
100
AcDbBlockBegin
  2
*D4
 70
     1
 10
0.0
 20
0.0
 30
0.0
  3
*D4
  1

  0
LINE
  5
674
330
5C1
100
AcDbEntity
  8
BEM
 62
     0
370
    -2
100
AcDbLine
 10
84.24451652506332
 20
210.0098557409079
 30
0.0
 11
84.24451652506332
 21
237.828534459563
 31
0.0
  0
LINE
  5
675
330
5C1
100
AcDbEntity
  8
BEM
 62
     0
370
    -2
100
AcDbLine
 10
186.2445165250633
 20
221.5098557409083
 30
0.0
 11
186.2445165250633
 21
237.828534459563
 31
0.0
  0
LINE
  5
676
330
5C1
100
AcDbEntity
  8
BEM
 62
     0
370
    -2
100
AcDbLine
 10
87.74451652506332
 20
236.828534459563
 30
0.0
 11
182.7445165250633
 21
236.828534459563
 31
0.0
  0
SOLID
  5
677
330
5C1
100
AcDbEntity
  8
BEM
 62
     0
100
AcDbTrace
 10
87.74451652506332
 20
237.4118677928963
 30
0.0
 11
87.74451652506332
 21
236.2452011262297
 31
0.0
 12
84.24451652506332
 22
236.828534459563
 32
0.0
 13
84.24451652506332
 23
236.828534459563
 33
0.0
  0
SOLID
  5
678
330
5C1
100
AcDbEntity
  8
BEM
 62
     0
100
AcDbTrace
 10
182.7445165250633
 20
237.4118677928963
 30
0.0
 11
182.7445165250633
 21
236.2452011262297
 31
0.0
 12
186.2445165250633
 22
236.828534459563
 32
0.0
 13
186.2445165250633
 23
236.828534459563
 33
0.0
  0
MTEXT
  5
679
330
5C1
100
AcDbEntity
  8
BEM
 62
     1
100
AcDbMText
 10
135.2445165250633
 20
240.078534459563
 30
0.0
 40
3.5
 41
0.0
 71
     5
 72
     1
  1
\A1;%%c102
 73
     1
 44
1.0
  0
POINT
  5
67A
330
5C1
100
AcDbEntity
  8
DEFPOINTS
 62
     0
100
AcDbPoint
 10
84.24451652506332
 20
209.009855740908
 30
0.0
  0
POINT
  5
67B
330
5C1
100
AcDbEntity
  8
DEFPOINTS
 62
     0
100
AcDbPoint
 10
186.2445165250633
 20
220.5098557409083
 30
0.0
  0
POINT
  5
67C
330
5C1
100
AcDbEntity
  8
DEFPOINTS
 62
     0
100
AcDbPoint
 10
186.2445165250633
 20
236.828534459563
 30
0.0
  0
ENDBLK
  5
5CC
330
5C1
100
AcDbEntity
  8
0
100
AcDbBlockEnd
  0
BLOCK
  5
5D9
330
5CD
100
AcDbEntity
  8
0
100
AcDbBlockBegin
  2
*D5
 70
     1
 10
0.0
 20
0.0
 30
0.0
  3
*D5
  1

  0
LINE
  5
638
330
5CD
100
AcDbEntity
  8
BEM
 62
     0
370
    -2
100
AcDbLine
 10
199.2445165250633
 20
227.5098557409084
 30
0.0
 11
199.2445165250633
 21
237.4805264354253
 31
0.0
  0
LINE
  5
639
330
5CD
100
AcDbEntity
  8
BEM
 62
     0
370
    -2
100
AcDbLine
 10
201.7445165250633
 20
227.5098557409085
 30
0.0
 11
201.7445165250633
 21
237.4805264354253
 31
0.0
  0
LINE
  5
63A
330
5CD
100
AcDbEntity
  8
BEM
 62
     0
370
    -2
100
AcDbLine
 10
195.7445165250632
 20
236.4805264354253
 30
0.0
 11
192.2445165250633
 21
236.4805264354253
 31
0.0
  0
LINE
  5
63B
330
5CD
100
AcDbEntity
  8
BEM
 62
     0
370
    -2
100
AcDbLine
 10
205.2445165250634
 20
236.4805264354253
 30
0.0
 11
217.61118319173
 21
236.4805264354253
 31
0.0
  0
LINE
  5
63C
330
5CD
100
AcDbEntity
  8
BEM
 62
     0
370
    -2
100
AcDbLine
 10
199.2445165250633
 20
236.4805264354253
 30
0.0
 11
201.7445165250633
 21
236.4805264354253
 31
0.0
  0
SOLID
  5
63D
330
5CD
100
AcDbEntity
  8
BEM
 62
     0
100
AcDbTrace
 10
195.7445165250632
 20
237.0638597687587
 30
0.0
 11
195.7445165250632
 21
235.897193102092
 31
0.0
 12
199.2445165250633
 22
236.4805264354253
 32
0.0
 13
199.2445165250633
 23
236.4805264354253
 33
0.0
  0
SOLID
  5
63E
330
5CD
100
AcDbEntity
  8
BEM
 62
     0
100
AcDbTrace
 10
205.2445165250634
 20
237.0638597687587
 30
0.0
 11
205.2445165250634
 21
235.897193102092
 31
0.0
 12
201.7445165250633
 22
236.4805264354253
 32
0.0
 13
201.7445165250633
 23
236.4805264354253
 33
0.0
  0
MTEXT
  5
63F
330
5CD
100
AcDbEntity
  8
BEM
 62
     1
100
AcDbMText
 10
213.1778498583967
 20
239.7305264354253
 30
0.0
 40
3.5
 41
0.0
 71
     5
 72
     1
  1
\A1;2.5
 73
     1
 44
1.0
  0
POINT
  5
640
330
5CD
100
AcDbEntity
  8
DEFPOINTS
 62
     0
100
AcDbPoint
 10
199.2445165250633
 20
226.5098557409085
 30
0.0
  0
POINT
  5
641
330
5CD
100
AcDbEntity
  8
DEFPOINTS
 62
     0
100
AcDbPoint
 10
201.7445165250633
 20
226.5098557409085
 30
0.0
  0
POINT
  5
642
330
5CD
100
AcDbEntity
  8
DEFPOINTS
 62
     0
100
AcDbPoint
 10
201.7445165250633
 20
236.4805264354253
 30
0.0
  0
ENDBLK
  5
5DA
330
5CD
100
AcDbEntity
  8
0
100
AcDbBlockEnd
  0
BLOCK
  5
62A
330
620
100
AcDbEntity
  8
0
100
AcDbBlockBegin
  2
*D6
 70
     1
 10
0.0
 20
0.0
 30
0.0
  3
*D6
  1

  0
LINE
  5
698
330
620
100
AcDbEntity
  8
BEM
 62
     0
370
    -2
100
AcDbLine
 10
202.7445165250633
 20
176.5098557409085
 30
0.0
 11
214.5862149591785
 21
176.5098557409085
 31
0.0
  0
LINE
  5
699
330
620
100
AcDbEntity
  8
BEM
 62
     0
370
    -2
100
AcDbLine
 10
202.7445165250633
 20
226.5098557409085
 30
0.0
 11
214.5862149591785
 21
226.5098557409085
 31
0.0
  0
LINE
  5
69A
330
620
100
AcDbEntity
  8
BEM
 62
     0
370
    -2
100
AcDbLine
 10
213.5862149591785
 20
180.0098557409085
 30
0.0
 11
213.5862149591785
 21
223.0098557409085
 31
0.0
  0
SOLID
  5
69B
330
620
100
AcDbEntity
  8
BEM
 62
     0
100
AcDbTrace
 10
213.0028816258452
 20
180.0098557409085
 30
0.0
 11
214.1695482925118
 21
180.0098557409085
 31
0.0
 12
213.5862149591785
 22
176.5098557409085
 32
0.0
 13
213.5862149591785
 23
176.5098557409085
 33
0.0
  0
SOLID
  5
69C
330
620
100
AcDbEntity
  8
BEM
 62
     0
100
AcDbTrace
 10
213.0028816258452
 20
223.0098557409085
 30
0.0
 11
214.1695482925119
 21
223.0098557409085
 31
0.0
 12
213.5862149591785
 22
226.5098557409085
 32
0.0
 13
213.5862149591785
 23
226.5098557409085
 33
0.0
  0
MTEXT
  5
69D
330
620
100
AcDbEntity
  8
BEM
 62
     1
100
AcDbMText
 10
210.3362149591785
 20
201.5098557409086
 30
0.0
 40
3.5
 41
0.0
 71
     5
 72
     1
  1
\A1;50
 11
0.0000000000000001
 21
1.0
 31
0.0
 73
     1
 44
1.0
  0
POINT
  5
69E
330
620
100
AcDbEntity
  8
DEFPOINTS
 62
     0
100
AcDbPoint
 10
201.7445165250633
 20
176.5098557409085
 30
0.0
  0
POINT
  5
69F
330
620
100
AcDbEntity
  8
DEFPOINTS
 62
     0
100
AcDbPoint
 10
201.7445165250633
 20
226.5098557409085
 30
0.0
  0
POINT
  5
6A0
330
620
100
AcDbEntity
  8
DEFPOINTS
 62
     0
100
AcDbPoint
 10
213.5862149591785
 20
226.5098557409085
 30
0.0
  0
ENDBLK
  5
62B
330
620
100
AcDbEntity
  8
0
100
AcDbBlockEnd
  0
BLOCK
  5
636
330
62C
100
AcDbEntity
  8
0
100
AcDbBlockBegin
  2
*D7
 70
     1
 10
0.0
 20
0.0
 30
0.0
  3
*D7
  1

  0
LINE
  5
62D
330
62C
100
AcDbEntity
  8
BEM
 62
     0
370
    -2
100
AcDbLine
 10
201.7445165250633
 20
173.5098557409085
 30
0.0
 11
201.7445165250633
 21
160.1521500225885
 31
0.0
  0
LINE
  5
62E
330
62C
100
AcDbEntity
  8
BEM
 62
     0
370
    -2
100
AcDbLine
 10
68.74451652506332
 20
173.5098557409085
 30
0.0
 11
68.74451652506332
 21
160.1521500225885
 31
0.0
  0
LINE
  5
62F
330
62C
100
AcDbEntity
  8
BEM
 62
     0
370
    -2
100
AcDbLine
 10
198.2445165250633
 20
161.1521500225885
 30
0.0
 11
72.24451652506331
 21
161.1521500225885
 31
0.0
  0
SOLID
  5
630
330
62C
100
AcDbEntity
  8
BEM
 62
     0
100
AcDbTrace
 10
198.2445165250633
 20
161.7354833559218
 30
0.0
 11
198.2445165250633
 21
160.5688166892551
 31
0.0
 12
201.7445165250633
 22
161.1521500225885
 32
0.0
 13
201.7445165250633
 23
161.1521500225885
 33
0.0
  0
SOLID
  5
631
330
62C
100
AcDbEntity
  8
BEM
 62
     0
100
AcDbTrace
 10
72.24451652506331
 20
161.7354833559218
 30
0.0
 11
72.24451652506331
 21
160.5688166892551
 31
0.0
 12
68.74451652506332
 22
161.1521500225885
 32
0.0
 13
68.74451652506332
 23
161.1521500225885
 33
0.0
  0
MTEXT
  5
632
330
62C
100
AcDbEntity
  8
BEM
 62
     1
100
AcDbMText
 10
135.2445165250633
 20
164.4021500225885
 30
0.0
 40
3.5
 41
0.0
 71
     5
 72
     1
  1
\A1;%%c133
 73
     1
 44
1.0
  0
POINT
  5
633
330
62C
100
AcDbEntity
  8
DEFPOINTS
 62
     0
100
AcDbPoint
 10
201.7445165250633
 20
174.5098557409085
 30
0.0
  0
POINT
  5
634
330
62C
100
AcDbEntity
  8
DEFPOINTS
 62
     0
100
AcDbPoint
 10
68.74451652506332
 20
174.5098557409085
 30
0.0
  0
POINT
  5
635
330
62C
100
AcDbEntity
  8
DEFPOINTS
 62
     0
100
AcDbPoint
 10
68.74451652506332
 20
161.1521500225885
 30
0.0
  0
ENDBLK
  5
637
330
62C
100
AcDbEntity
  8
0
100
AcDbBlockEnd
  0
ENDSEC
  0
SECTION
  2
ENTITIES
  0
TEXT
  5
2D0
330
1E
100
AcDbEntity
  8
TEXT
100
AcDbText
 10
327.874988149148
 20
25.6816046595321
 30
0.0
 40
2.5
  1
EDV-Art.Nr. 19974.100X
 41
0.8
  7
GREEKS
100
AcDbText
  0
TEXT
  5
2D1
330
1E
100
AcDbEntity
  8
TEXT
100
AcDbText
 10
327.4389701904506
 20
31.13696910956719
 30
0.0
 40
2.5
  1
mit Wärmedämmung und Heizung
 41
0.7
100
AcDbText
  0
TEXT
  5
2D2
330
1E
100
AcDbEntity
  8
TEXT
 62
     1
100
AcDbText
 10
291.6000000000003
 20
44.1804324308926
 30
0.0
 40
3.5
  1
1:1
 41
0.8
 72
     1
 11
294.0000000000002
 21
44.1804324308926
 31
0.0
100
AcDbText
  0
LINE
  5
2D3
330
1E
100
AcDbEntity
  8
HILF
100
AcDbLine
 10
327.3868400548474
 20
7.446991290141511
 30
0.0
 11
412.4294419663365
 21
7.446991290141511
 31
0.0
  0
TEXT
  5
2D4
330
1E
100
AcDbEntity
  8
TEXT
100
AcDbText
 10
378.0893774788172
 20
36.00000000000012
 30
0.0
 40
2.5
  1
Ersatz für:
 41
0.8
100
AcDbText
  0
TEXT
  5
2D5
330
1E
100
AcDbEntity
  8
TEXT
100
AcDbText
 10
378.0893774788172
 20
26.0
 30
0.0
 40
2.5
  1
ersetzt durch:
 41
0.8
100
AcDbText
  0
TEXT
  5
2D6
330
1E
100
AcDbEntity
  8
TEXT
100
AcDbText
 10
327.4389701904506
 20
21.0
 30
0.0
 40
2.0
  1
19974100W.DWG
 41
0.8
100
AcDbText
  0
TEXT
  5
2D7
330
1E
100
AcDbEntity
  8
TEXT
100
AcDbText
 10
327.4389701904506
 20
15.4228028509653
 30
0.0
 40
2.5
  1
Bauvorhaben
 41
0.8
100
AcDbText
  0
TEXT
  5
2D8
330
1E
100
AcDbEntity
  8
TEXT
100
AcDbText
 10
327.4389701904506
 20
36.13696910956719
 30
0.0
 40
2.5
  1
für LORO-Drainjet-Dachablauf
 41
0.8
100
AcDbText
  0
TEXT
  5
2D9
330
1E
100
AcDbEntity
  8
TEXT
100
AcDbText
 10
311.8380952380954
 20
36.5
 30
0.0
 40
2.0
  1
Name
 41
0.8
 72
     4
 11
315.0000000000001
 21
37.5
 31
0.0
100
AcDbText
  0
TEXT
  5
2DA
330
1E
100
AcDbEntity
  8
TEXT
100
AcDbText
 10
312.3714285714287
 20
31.35837445098832
 30
0.0
 40
2.0
  1
Koeh
 41
0.8
 72
     4
 11
315.0000000000001
 21
32.35837445098832
 31
0.0
100
AcDbText
  0
LINE
  5
2DB
330
1E
100
AcDbEntity
  8
HILF
100
AcDbLine
 10
327.3868400548474
 20
35.0
 30
0.0
 11
373.3148921257407
 21
35.0
 31
0.0
  0
LINE
  5
2DC
330
1E
100
AcDbEntity
  8
HILF
100
AcDbLine
 10
327.3868400548474
 20
30.0
 30
0.0
 11
373.3148921257407
 21
30.0
 31
0.0
  0
LINE
  5
2DD
330
1E
100
AcDbEntity
  8
HILF
100
AcDbLine
 10
327.3868400548474
 20
25.0
 30
0.0
 11
373.3148921257407
 21
25.0
 31
0.0
  0
TEXT
  5
2DE
330
1E
100
AcDbEntity
  8
TEXT
 62
     1
100
AcDbText
 10
384.0333333333333
 20
43.01879123782066
 30
0.0
 40
3.5
  1
19974100W
 41
0.8
 72
     1
 11
395.5
 21
43.01879123782066
 31
0.0
100
AcDbText
  0
TEXT
  5
2DF
330
1E
100
AcDbEntity
  8
TEXT
100
AcDbText
 10
378.0893774788172
 20
51.0
 30
0.0
 40
2.5
  1
Zeichnungs Nr.
 41
0.8
100
AcDbText
  0
TEXT
  5
2E0
330
1E
100
AcDbEntity
  8
TEXT
 62
     1
100
AcDbText
 10
327.4389701904506
 20
43.01879123782066
 30
0.0
 40
3.5
  1
Verbund-Isolierstück DN100
 41
0.65
100
AcDbText
  0
TEXT
  5
2E1
330
1E
100
AcDbEntity
  8
TEXT
100
AcDbText
 10
306.504761904762
 20
44.60053367635516
 30
0.0
 40
2.0
  1
DIN EN1123-2
 41
0.8
 72
     1
 11
315.0000000000001
 21
44.60053367635516
 31
0.0
100
AcDbText
  0
TEXT
  5
2E2
330
1E
100
AcDbEntity
  8
TEXT
100
AcDbText
 10
327.4389701904506
 20
51.27446640058895
 30
0.0
 40
2.5
  1
Benennung
 41
0.8
100
AcDbText
  0
LINE
  5
2E3
330
1E
100
AcDbEntity
  8
HILF
100
AcDbLine
 10
327.3868400548474
 20
42.01879123782066
 30
0.0
 11
373.3148921257407
 21
42.01879123782066
 31
0.0
  0
LINE
  5
2E4
330
1E
100
AcDbEntity
  8
STEMPEL
100
AcDbLine
 10
376.0000000000002
 20
54.99999999999983
 30
0.0
 11
376.0000000000002
 21
20.0
 31
0.0
  0
LINE
  5
2E5
330
1E
100
AcDbEntity
  8
VOLL
100
AcDbLine
 10
376.0000000000002
 20
30.0
 30
0.0
 11
415.0000000000002
 21
30.0
 31
0.0
  0
LINE
  5
2E6
330
1E
100
AcDbEntity
  8
HILF
100
AcDbLine
 10
378.3619308148498
 20
41.8899181847791
 30
0.0
 11
412.4294419663365
 21
41.8899181847791
 31
0.0
  0
LINE
  5
2E7
330
1E
100
AcDbEntity
  8
STEMPEL
100
AcDbLine
 10
325.0000000000001
 20
55.0
 30
0.0
 11
325.0000000000001
 21
5.0
 31
0.0
  0
TEXT
  5
2E8
330
1E
100
AcDbEntity
  8
TEXT
100
AcDbText
 10
265.1333333333334
 20
9.333333333333333
 30
0.0
 40
2.0
  1
Tag
 41
0.8
 72
     4
 11
267.0000000000001
 21
10.0
 31
0.0
100
AcDbText
  0
TEXT
  5
2E9
330
1E
100
AcDbEntity
  8
TEXT
100
AcDbText
 10
274.3380952380954
 20
9.0
 30
0.0
 40
2.0
  1
Name
 41
0.8
 72
     4
 11
277.5000000000001
 21
10.0
 31
0.0
100
AcDbText
  0
TEXT
  5
2EA
330
1E
100
AcDbEntity
  8
TEXT
100
AcDbText
 10
283.7886053849071
 20
21.00000000000012
 30
0.0
 40
2.0
  1
Norm.
 41
0.8
100
AcDbText
  0
TEXT
  5
2EB
330
1E
100
AcDbEntity
  8
TEXT
100
AcDbText
 10
296.6333333333336
 20
36.83333333333334
 30
0.0
 40
2.0
  1
Tag
 41
0.8
 72
     4
 11
298.5000000000002
 21
37.5
 31
0.0
100
AcDbText
  0
TEXT
  5
2EC
330
1E
100
AcDbEntity
  8
TEXT
100
AcDbText
 10
295.1476190476193
 20
31.35837445098838
 30
0.0
 40
2.0
  1
13.06.
 41
0.8
 72
     4
 11
298.5000000000002
 21
32.35837445098838
 31
0.0
100
AcDbText
  0
TEXT
  5
2ED
330
1E
100
AcDbEntity
  8
TEXT
100
AcDbText
 10
283.7886053849071
 20
31.0
 30
0.0
 40
2.0
  1
Gez.
 41
0.8
100
AcDbText
  0
TEXT
  5
2EE
330
1E
100
AcDbEntity
  8
TEXT
100
AcDbText
 10
283.7886053849071
 20
26.0
 30
0.0
 40
2.0
  1
Gepr.
 41
0.8
100
AcDbText
  0
TEXT
  5
2EF
330
1E
100
AcDbEntity
  8
TEXT
100
AcDbText
 10
284.6809523809526
 20
36.5
 30
0.0
 40
2.0
  1
2008
 41
0.8
 72
     4
 11
287.5000000000002
 21
37.5
 31
0.0
100
AcDbText
  0
LINE
  5
2F0
330
1E
100
AcDbEntity
  8
VOLL
100
AcDbLine
 10
292.0000000000002
 20
40.0
 30
0.0
 11
292.0000000000002
 21
20.0
 31
0.0
  0
TEXT
  5
2F1
330
1E
100
AcDbEntity
  8
TEXT
100
AcDbText
 10
246.6285714285715
 20
9.142857142857142
 30
0.0
 40
2.0
  1
Änderung
 41
0.8
 72
     4
 11
252.0000000000001
 21
10.0
 31
0.0
100
AcDbText
  0
LINE
  5
2F2
330
1E
100
AcDbEntity
  8
STEMPEL
100
AcDbLine
 10
283.0
 20
15.0
 30
0.0
 11
235.0000000000001
 21
15.0
 31
0.0
  0
LINE
  5
2F3
330
1E
100
AcDbEntity
  8
HILF
100
AcDbLine
 10
235.0000000000002
 20
40.0
 30
0.0
 11
283.0000000000002
 21
40.0
 31
0.0
  0
LINE
  5
2F4
330
1E
100
AcDbEntity
  8
HILF
100
AcDbLine
 10
235.0000000000002
 20
35.0
 30
0.0
 11
283.0000000000002
 21
35.0
 31
0.0
  0
LINE
  5
2F5
330
1E
100
AcDbEntity
  8
HILF
100
AcDbLine
 10
235.0000000000002
 20
30.0
 30
0.0
 11
283.0000000000002
 21
30.0
 31
0.0
  0
LINE
  5
2F6
330
1E
100
AcDbEntity
  8
HILF
100
AcDbLine
 10
235.0000000000002
 20
25.0
 30
0.0
 11
283.0000000000002
 21
25.0
 31
0.0
  0
LINE
  5
2F7
330
1E
100
AcDbEntity
  8
HILF
100
AcDbLine
 10
235.0000000000002
 20
20.0
 30
0.0
 11
283.0000000000002
 21
20.0
 31
0.0
  0
TEXT
  5
2F8
330
1E
100
AcDbEntity
  8
TEXT
100
AcDbText
 10
288.0952380952383
 20
51.42579333024355
 30
0.0
 40
2.5
  1
Maßstab
 41
0.8
 72
     1
 11
294.0000000000002
 21
51.42579333024355
 31
0.0
100
AcDbText
  0
LINE
  5
2F9
330
1E
100
AcDbEntity
  8
HILF
100
AcDbLine
 10
235.0000000000002
 20
50.0
 30
0.0
 11
283.0000000000002
 21
50.0
 31
0.0
  0
LINE
  5
2FA
330
1E
100
AcDbEntity
  8
HILF
100
AcDbLine
 10
235.0000000000002
 20
45.0
 30
0.0
 11
283.0000000000002
 21
45.0
 31
0.0
  0
TEXT
  5
2FB
330
1E
100
AcDbEntity
  8
TEXT
100
AcDbText
 10
235.0000000000002
 20
57.05717925255214
 30
0.0
 40
2.5
  1
Erstellt mit AUTOCAD 2004
 41
0.8
100
AcDbText
  0
LINE
  5
2FC
330
1E
100
AcDbEntity
  8
VOLL
100
AcDbLine
 10
305.0000000000002
 20
54.99999999999994
 30
0.0
 11
305.0000000000001
 21
20.0
 31
0.0
  0
LINE
  5
2FD
330
1E
100
AcDbEntity
  8
STEMPEL
100
AcDbLine
 10
235.0000000000002
 20
55.0
 30
0.0
 11
235.0000000000001
 21
5.0
 31
0.0
  0
LINE
  5
2FE
330
1E
100
AcDbEntity
  8
STEMPEL
100
AcDbLine
 10
283.0000000000002
 20
54.99999999999994
 30
0.0
 11
283.0000000000001
 21
4.999999999999943
 31
0.0
  0
LINE
  5
2FF
330
1E
100
AcDbEntity
  8
VOLL
100
AcDbLine
 10
242.0000000000002
 20
55.0
 30
0.0
 11
242.0000000000001
 21
5.0
 31
0.0
  0
LINE
  5
300
330
1E
100
AcDbEntity
  8
VOLL
100
AcDbLine
 10
262.0000000000002
 20
55.0
 30
0.0
 11
262.0000000000001
 21
5.0
 31
0.0
  0
LINE
  5
301
330
1E
100
AcDbEntity
  8
VOLL
100
AcDbLine
 10
272.0000000000002
 20
54.99999999999994
 30
0.0
 11
272.0000000000001
 21
4.999999999999943
 31
0.0
  0
TEXT
  5
302
330
1E
100
AcDbEntity
  8
TEXT
100
AcDbText
 10
239.5000000000001
 20
7.142857142857142
 30
0.0
 40
2.0
  1
Index
 50
90.0
 41
0.8
 72
     4
 11
238.5000000000001
 21
10.0
 31
0.0
100
AcDbText
  0
LINE
  5
303
330
1E
100
AcDbEntity
  8
STEMPEL
100
AcDbLine
 10
415.0000000000002
 20
55.0
 30
0.0
 11
235.0000000000002
 21
55.0
 31
0.0
  0
LINE
  5
304
330
1E
100
AcDbEntity
  8
STEMPEL
100
AcDbLine
 10
415.0000000000002
 20
20.0
 30
0.0
 11
283.0000000000001
 21
20.0
 31
0.0
  0
LINE
  5
305
330
1E
100
AcDbEntity
  8
STEMPEL
100
AcDbLine
 10
415.0000000000002
 20
40.0
 30
0.0
 11
283.0000000000002
 21
40.0
 31
0.0
  0
LINE
  5
306
330
1E
100
AcDbEntity
  8
HILF
100
AcDbLine
 10
283.0000000000002
 20
35.0
 30
0.0
 11
325.0000000000001
 21
35.0
 31
0.0
  0
LINE
  5
307
330
1E
100
AcDbEntity
  8
HILF
100
AcDbLine
 10
283.0000000000002
 20
30.0
 30
0.0
 11
325.0000000000001
 21
30.0
 31
0.0
  0
LINE
  5
308
330
1E
100
AcDbEntity
  8
HILF
100
AcDbLine
 10
283.0000000000002
 20
25.0
 30
0.0
 11
325.0000000000001
 21
25.0
 31
0.0
  0
TEXT
  5
309
330
1E
100
AcDbEntity
  8
TEXT
100
AcDbText
 10
308.2857142857145
 20
51.42579333024355
 30
0.0
 40
2.5
  1
Zul. Abw.
 41
0.8
 72
     1
 11
315.0000000000002
 21
51.42579333024355
 31
0.0
100
AcDbText
  0
INSERT
  5
30A
330
1E
100
AcDbEntity
  8
HILF
100
AcDbBlockReference
  2
LORO
 10
286.5312492981177
 20
18.49029650149481
 30
0.0
  0
LINE
  5
30B
330
1E
100
AcDbEntity
  8
HILF
100
AcDbLine
 10
230.0
 20
292.0
 30
0.0
 11
230.0
 21
297.0
 31
0.0
  0
LINE
  5
30C
330
1E
100
AcDbEntity
  8
HILF
100
AcDbLine
 10
230.0
 20
0.0
 30
0.0
 11
230.0
 21
5.0
 31
0.0
  0
TEXT
  5
30D
330
1E
100
AcDbEntity
  8
TEXT
100
AcDbText
 10
418.2066027689031
 20
5.276890308839199
 30
0.0
 40
2.0
  1
Diese Zeichnung ist urheberrechtlich geschuetzt und bleibt unser Eigentum. Sie darf weder ganz noch teilweise vervielfaeltigt und nicht an Dritte weitergegeben werden.
 50
90.0
 41
0.8
100
AcDbText
  0
LINE
  5
30E
330
1E
100
AcDbEntity
  8
STEMPEL
100
AcDbLine
 10
20.0
 20
292.0
 30
0.0
 11
20.0
 21
5.0
 31
0.0
  0
LINE
  5
30F
330
1E
100
AcDbEntity
  8
STEMPEL
100
AcDbLine
 10
415.0
 20
5.0
 30
0.0
 11
415.0
 21
292.0
 31
0.0
  0
LINE
  5
310
330
1E
100
AcDbEntity
  8
STEMPEL
100
AcDbLine
 10
20.0
 20
5.0
 30
0.0
 11
415.0
 21
5.0
 31
0.0
  0
LINE
  5
311
330
1E
100
AcDbEntity
  8
STEMPEL
100
AcDbLine
 10
415.0
 20
292.0
 30
0.0
 11
20.0
 21
292.0
 31
0.0
  0
LINE
  5
312
330
1E
100
AcDbEntity
  8
HILF
100
AcDbLine
 10
0.0
 20
297.0
 30
0.0
 11
0.0
 21
0.0
 31
0.0
  0
LINE
  5
313
330
1E
100
AcDbEntity
  8
HILF
100
AcDbLine
 10
420.0
 20
297.0
 30
0.0
 11
0.0
 21
297.0
 31
0.0
  0
LINE
  5
314
330
1E
100
AcDbEntity
  8
HILF
100
AcDbLine
 10
420.0
 20
0.0
 30
0.0
 11
420.0
 21
297.0
 31
0.0
  0
LINE
  5
315
330
1E
100
AcDbEntity
  8
HILF
100
AcDbLine
 10
0.0
 20
0.0
 30
0.0
 11
420.0
 21
0.0
 31
0.0
  0
TEXT
  5
36E
330
1E
100
AcDbEntity
  8
TEXT
 62
     1
100
AcDbText
 10
325.1669058328078
 20
74.98333943506338
 30
0.0
 40
3.5
  1
Werkstoff: E195 EN10305 feuerverzinkt
 41
0.8
  7
GREEKS
100
AcDbText
  0
TEXT
  5
370
330
1E
100
AcDbEntity
  8
TEXT
 62
     1
100
AcDbText
 10
325.3819539190641
 20
69.46665711926517
 30
0.0
 40
3.5
  1
Dämmung: 2 K PU-Schaum
 41
0.8
  7
GREEKS
100
AcDbText
  0
HATCH
  5
543
330
1E
100
AcDbEntity
  8
SCHRAFF
100
AcDbHatch
 10
0.0
 20
0.0
 30
0.0
210
0.0
220
0.0
230
1.0
  2
HONEY
 70
     0
 71
     0
 91
        2
 92
        7
 72
     1
 73
     1
 93
       11
 10
84.24451652506331
 20
226.5098557409084
 42
0.0
 10
75.44451652506336
 20
226.5098557409084
 42
0.0
 10
75.44451652506336
 20
202.2141720919472
 42
0.0
 10
71.24451652506332
 20
202.2141720919472
 42
0.0
 10
71.24451652506332
 20
192.5098557409085
 42
0.0
 10
72.74451652506343
 20
194.0098557409086
 42
0.0
 10
74.74451652506331
 20
194.0098557409086
 42
0.0
 10
74.74451652506331
 20
188.5098557409085
 42
1.0
 10
80.74451652506331
 20
188.5098557409085
 42
0.0
 10
80.74451652506331
 20
192.5098557409085
 42
0.0
 10
84.24451652506332
 20
192.5098557409085
 42
0.0
 97
        0
 92
        7
 72
     1
 73
     1
 93
        9
 10
199.2445165250631
 20
226.5098557409085
 42
0.0
 10
186.2445165250633
 20
226.5098557409085
 42
0.0
 10
186.2445165250633
 20
192.5098557409085
 42
0.0
 10
189.7445165250633
 20
192.5098557409085
 42
0.0
 10
189.7445165250633
 20
188.5098557409085
 42
1.0
 10
195.7445165250633
 20
188.5098557409086
 42
0.0
 10
195.7445165250632
 20
194.0098557409086
 42
0.0
 10
197.7445165250632
 20
194.0098557409086
 42
0.0
 10
199.2445165250633
 20
192.5098557409086
 42
0.0
 97
        0
 75
     0
 76
     1
 52
0.0
 41
15.0
 77
     0
 78
     3
 53
0.0
 43
0.0
 44
0.0
 45
2.8125
 46
1.623797624999999
 79
     2
 49
1.875
 49
-3.75
 53
120.0
 43
0.0
 44
0.0
 45
-2.812499993854837
 46
1.623797635643733
 79
     2
 49
1.874999999999999
 49
-3.749999999999999
 53
60.0
 43
0.0
 44
0.0
 45
0.0000000061451631
 46
3.247595260643734
 79
     2
 49
-3.75
 49
1.875
 47
0.2832503625580869
 98
        2
 10
78.88973452811502
 20
212.24041190052
 10
193.130965138808
 20
214.2231643521721
  0
LINE
  5
544
330
1E
100
AcDbEntity
  8
STEMPEL
100
AcDbLine
 10
71.24451652506332
 20
202.2141720919472
 30
0.0
 11
71.24451652506332
 21
205.2141720919473
 31
0.0
  0
DIMENSION
  5
548
330
1E
100
AcDbEntity
  8
BEM
100
AcDbDimension
  2
*D3
 10
323.7457354509684
 20
281.7696642538278
 30
0.0
 11
318.7457354509684
 21
285.0196642538278
 31
0.0
 70
    32
  1
12
 71
     5
 42
10.0
  3
Standard
100
AcDbAlignedDimension
 13
313.7457354509684
 23
271.4493814744626
 33
0.0
 14
323.7457354509684
 24
271.4493814744626
 34
0.0
100
AcDbRotatedDimension
1001
ACAD
1000
DSTYLE
1002
{
1070
    41
1040
3.5
1070
    42
1040
1.0
1070
    43
1040
7.0
1070
    44
1040
1.0
1070
    47
1040
0.5
1070
    48
1040
0.5
1070
    73
1070
     0
1070
    74
1070
     0
1070
    77
1070
     1
1070
    78
1070
     8
1070
    79
1070
     2
1070
   140
1040
3.5
1070
   141
1040
1.5
1070
   146
1040
0.5
1070
   147
1040
1.5
1070
   172
1070
     1
1070
   178
1070
     1
1070
   179
1070
     2
1070
   271
1070
     2
1070
   272
1070
     2
1070
   284
1070
     8
1070
   285
1070
     8
1070
   286
1070
     8
1002
}
  0
HATCH
  5
549
330
1E
100
AcDbEntity
  8
SCHRAFF
100
AcDbHatch
 10
0.0
 20
0.0
 30
0.0
210
0.0
220
0.0
230
1.0
  2
ANSI37
 70
     0
 71
     1
 91
        2
 92
        7
 72
     1
 73
     1
 93
       13
 10
71.24451652506332
 20
176.5098557409085
 42
0.0
 10
68.74451652506332
 20
176.5098557409085
 42
0.0
 10
68.74451652506332
 20
174.5098557409085
 42
0.0
 10
74.62571437154633
 20
174.5098557409085
 42
0.0
 10
79.24451652506331
 20
182.5098557409085
 42
0.0
 10
84.24451652506332
 20
182.5098557409085
 42
0.0
 10
84.24451652506332
 20
192.5098557409085
 42
0.0
 10
80.74451652506331
 20
192.5098557409085
 42
0.0
 10
80.74451652506331
 20
188.5098557409085
 42
-1.0
 10
74.74451652506331
 20
188.5098557409085
 42
0.0
 10
74.74451652506331
 20
194.0098557409086
 42
0.0
 10
72.74451652506344
 20
194.0098557409086
 42
0.0
 10
71.24451652506332
 20
192.5098557409085
 42
0.0
 97
       13
330
5AE
330
5B0
330
5AD
330
5A9
330
5AA
330
5A8
330
54C
330
5AB
330
57D
330
54D
330
584
330
54F
330
5A7
 92
        7
 72
     1
 73
     1
 93
       13
 10
189.7445165250633
 20
188.5098557409086
 42
0.0
 10
189.7445165250633
 20
192.5098557409085
 42
0.0
 10
186.2445165250633
 20
192.5098557409085
 42
0.0
 10
186.2445165250633
 20
182.5098557409097
 42
0.0
 10
191.2445165250626
 20
182.5098557409097
 42
0.0
 10
195.8633186785803
 20
174.5098557409085
 42
0.0
 10
201.7445165250633
 20
174.5098557409085
 42
0.0
 10
201.7445165250633
 20
176.5098557409085
 42
0.0
 10
199.2445165250633
 20
176.5098557409085
 42
0.0
 10
199.2445165250633
 20
192.5098557409086
 42
0.0
 10
197.7445165250633
 20
194.0098557409086
 42
0.0
 10
195.7445165250633
 20
194.0098557409086
 42
0.0
 10
195.7445165250633
 20
188.5098557409085
 42
-1.0
 97
       13
330
5A4
330
5AC
330
5A2
330
5A5
330
5A3
330
5AD
330
5AF
330
5AE
330
5A6
330
54F
330
578
330
585
330
579
 75
     0
 76
     1
 52
0.0
 41
10.0
 77
     0
 78
     2
 53
45.0
 43
0.0
 44
-9.230029017697575
 45
-0.8838834764831842
 46
0.8838834764831844
 79
     0
 53
135.0
 43
0.0
 44
-9.230029017697575
 45
-0.8838834764831844
 46
-0.8838834764831842
 79
     0
 47
0.2079804866372541
 98
        2
 10
74.02501117062502
 20
181.0569291821659
 10
194.2970782491902
 20
183.7606758802917
  0
HATCH
  5
54A
330
1E
100
AcDbEntity
  8
SCHRAFF
100
AcDbHatch
 10
0.0
 20
0.0
 30
0.0
210
0.0
220
0.0
230
1.0
  2
ANSI31
 70
     0
 71
     0
 91
        3
 92
        7
 72
     0
 73
     1
 93
        4
 10
71.24451652506332
 20
190.485967377845
 10
68.74451652506332
 20
194.9848433084909
 10
68.74451652506332
 20
176.5098557409085
 10
71.24451652506332
 20
176.5098557409085
 97
        0
 92
        7
 72
     0
 73
     1
 93
        4
 10
68.74451652506332
 20
194.9848433084908
 10
71.24451652506332
 20
190.4859673778449
 10
71.24451652506332
 20
205.0098557409085
 10
68.74451652506332
 20
205.0098557409085
 97
        0
 92
        7
 72
     0
 73
     1
 93
        4
 10
201.7445165250634
 20
226.5098557409085
 10
199.2445165250632
 20
226.5098557409084
 10
199.2445165250633
 20
176.5098557409085
 10
201.7445165250633
 20
176.5098557409085
 97
        0
 75
     0
 76
     1
 52
0.0
 41
15.0
 77
     0
 78
     1
 53
45.0
 43
0.0
 44
-9.230029017697575
 45
-1.325825214724776
 46
1.325825214724776
 79
     0
 47
0.2079804866372541
 98
        3
 10
70.071431028108
 20
185.8404805947648
 10
69.86334838411517
 20
198.111329169237
 10
200.5395740800641
 20
198.111329169237
  0
LINE
  5
54B
330
1E
100
AcDbEntity
  8
STEMPEL
100
AcDbLine
 10
186.2445165250633
 20
194.0098557409086
 30
0.0
 11
84.24451652506332
 21
194.0098557409086
 31
0.0
  0
LINE
  5
54C
102
{ACAD_REACTORS
330
549
102
}
330
1E
100
AcDbEntity
  8
STEMPEL
100
AcDbLine
 10
74.74451652506331
 20
194.0098557409086
 30
0.0
 11
72.74451652506343
 21
194.0098557409086
 31
0.0
  0
LINE
  5
54D
102
{ACAD_REACTORS
330
549
102
}
330
1E
100
AcDbEntity
  8
STEMPEL
100
AcDbLine
 10
71.24451652506332
 20
176.5098557409085
 30
0.0
 11
68.74451652506332
 21
176.5098557409085
 31
0.0
  0
LINE
  5
54E
330
1E
100
AcDbEntity
  8
STEMPEL
100
AcDbLine
 10
385.2457354509684
 20
174.5098557409085
 30
0.0
 11
252.2457354509684
 21
174.5098557409085
 31
0.0
  0
LINE
  5
54F
102
{ACAD_REACTORS
330
55C
330
549
102
}
330
1E
100
AcDbEntity
  8
STEMPEL
100
AcDbLine
 10
201.7445165250633
 20
174.5098557409085
 30
0.0
 11
68.74451652506332
 21
174.5098557409085
 31
0.0
  0
DIMENSION
  5
559
330
1E
100
AcDbEntity
  8
BEM
100
AcDbDimension
  2
*D4
 10
186.2445165250633
 20
236.828534459563
 30
0.0
 11
135.2445165250633
 21
240.078534459563
 31
0.0
 70
    32
  1
%%c<>
 71
     5
 42
102.0
  3
Standard
100
AcDbAlignedDimension
 13
84.24451652506332
 23
209.009855740908
 33
0.0
 14
186.2445165250633
 24
220.5098557409083
 34
0.0
100
AcDbRotatedDimension
1001
ACAD
1000
DSTYLE
1002
{
1070
    41
1040
3.5
1070
    42
1040
1.0
1070
    43
1040
7.0
1070
    44
1040
1.0
1070
    73
1070
     0
1070
    74
1070
     0
1070
    77
1070
     1
1070
    78
1070
     8
1070
    79
1070
     2
1070
   140
1040
3.5
1070
   141
1040
1.5
1070
   146
1040
0.5142857142857144
1070
   147
1040
1.5
1070
   172
1070
     1
1070
   178
1070
     1
1070
   179
1070
     2
1070
   271
1070
     2
1070
   272
1070
     2
1070
   284
1070
     8
1070
   285
1070
     8
1070
   286
1070
     8
1002
}
  0
DIMENSION
  5
55A
102
{ACAD_XDICTIONARY
360
55B
102
}
102
{ACAD_REACTORS
330
55C
102
}
330
1E
100
AcDbEntity
  8
BEM
100
AcDbDimension
  2
*D6
 10
213.5862149591785
 20
226.5098557409085
 30
0.0
 11
210.3362149591785
 21
201.5098557409086
 31
0.0
 70
    32
 71
     5
 42
50.0
  3
Standard
100
AcDbAlignedDimension
 13
201.7445165250633
 23
176.5098557409085
 33
0.0
 14
201.7445165250633
 24
226.5098557409085
 34
0.0
 50
270.0
100
AcDbRotatedDimension
1001
ACAD
1000
DSTYLE
1002
{
1070
    41
1040
3.5
1070
    42
1040
1.0
1070
    43
1040
7.0
1070
    44
1040
1.0
1070
    47
1040
0.5
1070
    48
1040
0.5
1070
    73
1070
     0
1070
    74
1070
     0
1070
    77
1070
     1
1070
    78
1070
     8
1070
    79
1070
     2
1070
   140
1040
3.5
1070
   141
1040
1.5
1070
   146
1040
0.5
1070
   147
1040
1.5
1070
   172
1070
     1
1070
   178
1070
     1
1070
   179
1070
     2
1070
   271
1070
     2
1070
   272
1070
     2
1070
   284
1070
     8
1070
   285
1070
     8
1070
   286
1070
     8
1002
}
  0
DIMENSION
  5
55D
102
{ACAD_XDICTIONARY
360
55E
102
}
102
{ACAD_REACTORS
330
55F
102
}
330
1E
100
AcDbEntity
  8
BEM
100
AcDbDimension
  2
*D7
 10
68.74451652506332
 20
161.1521500225885
 30
0.0
 11
135.2445165250633
 21
164.4021500225885
 31
0.0
 70
    32
  1
%%c<>
 71
     5
 42
133.0
  3
Standard
100
AcDbAlignedDimension
 13
201.7445165250633
 23
174.5098557409085
 33
0.0
 14
68.74451652506332
 24
174.5098557409085
 34
0.0
100
AcDbRotatedDimension
1001
ACAD
1000
DSTYLE
1002
{
1070
    41
1040
3.5
1070
    42
1040
1.0
1070
    43
1040
7.0
1070
    44
1040
1.0
1070
    47
1040
0.5
1070
    48
1040
0.5
1070
    73
1070
     0
1070
    74
1070
     0
1070
    77
1070
     1
1070
    78
1070
     8
1070
    79
1070
     2
1070
   140
1040
3.5
1070
   141
1040
1.5
1070
   146
1040
0.5
1070
   147
1040
1.5
1070
   172
1070
     1
1070
   178
1070
     1
1070
   179
1070
     2
1070
   271
1070
     2
1070
   272
1070
     2
1070
   284
1070
     8
1070
   285
1070
     8
1070
   286
1070
     8
1002
}
  0
DIMENSION
  5
560
330
1E
100
AcDbEntity
  8
BEM
100
AcDbDimension
  2
*D5
 10
201.7445165250633
 20
236.4805264354253
 30
0.0
 11
213.1778498583967
 21
239.7305264354253
 31
0.0
 70
    32
 71
     5
 42
2.500000000000056
  3
Standard
100
AcDbAlignedDimension
 13
199.2445165250633
 23
226.5098557409085
 33
0.0
 14
201.7445165250633
 24
226.5098557409085
 34
0.0
100
AcDbRotatedDimension
1001
ACAD
1000
DSTYLE
1002
{
1070
    41
1040
3.5
1070
    42
1040
1.0
1070
    43
1040
7.0
1070
    44
1040
1.0
1070
    47
1040
0.5
1070
    48
1040
0.5
1070
    73
1070
     0
1070
    74
1070
     0
1070
    77
1070
     1
1070
    78
1070
     8
1070
    79
1070
     2
1070
   140
1040
3.5
1070
   141
1040
1.5
1070
   146
1040
0.5
1070
   147
1040
1.5
1070
   172
1070
     1
1070
   178
1070
     1
1070
   179
1070
     2
1070
   271
1070
     2
1070
   272
1070
     2
1070
   284
1070
     8
1070
   285
1070
     8
1070
   286
1070
     8
1002
}
  0
LINE
  5
561
330
1E
100
AcDbEntity
  8
STEMPEL
100
AcDbLine
 10
68.74451652506332
 20
205.0098557409085
 30
0.0
 11
71.24451652506332
 21
205.0098557409085
 31
0.0
  0
LINE
  5
562
330
1E
100
AcDbEntity
  8
VERDECKT
100
AcDbLine
 10
254.7457354509684
 20
226.5098557409086
 30
0.0
 11
254.7457354509684
 21
176.5098557409084
 31
0.0
  0
LINE
  5
563
330
1E
100
AcDbEntity
  8
VERDECKT
100
AcDbLine
 10
258.2457354509684
 20
188.5098557409085
 30
0.0
 11
258.2457354509684
 21
194.0098557409086
 31
0.0
  0
LINE
  5
564
330
1E
100
AcDbEntity
  8
VERDECKT
100
AcDbLine
 10
264.2457354509684
 20
188.5098557409085
 30
0.0
 11
264.2457354509684
 21
192.5098557409086
 31
0.0
  0
LINE
  5
565
330
1E
100
AcDbEntity
  8
VERDECKT
100
AcDbLine
 10
254.7457354509684
 20
192.5098557409086
 30
0.0
 11
256.2457354509684
 21
194.0098557409086
 31
0.0
  0
ARC
  5
566
330
1E
100
AcDbEntity
  8
VERDECKT
100
AcDbCircle
 10
261.2457354509684
 20
188.5098557409086
 30
0.0
 40
3.0
100
AcDbArc
 50
180.0
 51
0.0
  0
LINE
  5
567
330
1E
100
AcDbEntity
  8
VERDECKT
100
AcDbLine
 10
262.7457354509683
 20
182.5098557409086
 30
0.0
 11
258.1269332974513
 21
174.5098557409085
 31
0.0
  0
LINE
  5
568
330
1E
100
AcDbEntity
  8
VERDECKT
100
AcDbLine
 10
267.7457354509683
 20
226.5098557409084
 30
0.0
 11
267.7457354509684
 21
182.5098557409097
 31
0.0
  0
LINE
  5
569
330
1E
100
AcDbEntity
  8
VERDECKT
100
AcDbLine
 10
381.2457354509684
 20
194.0098557409086
 30
0.0
 11
256.2457354509685
 21
194.0098557409086
 31
0.0
  0
LINE
  5
56A
330
1E
100
AcDbEntity
  8
VERDECKT
100
AcDbLine
 10
373.2457354509684
 20
192.5098557409085
 30
0.0
 11
264.2457354509684
 21
192.5098557409085
 31
0.0
  0
LINE
  5
56B
330
1E
100
AcDbEntity
  8
VERDECKT
100
AcDbLine
 10
374.7457354509677
 20
182.5098557409097
 30
0.0
 11
262.7457354509683
 21
182.5098557409085
 31
0.0
  0
LINE
  5
56C
330
1E
100
AcDbEntity
  8
VERDECKT
100
AcDbLine
 10
369.7457354509684
 20
226.5098557409085
 30
0.0
 11
369.7457354509684
 21
182.5098557409097
 31
0.0
  0
LINE
  5
56D
330
1E
100
AcDbEntity
  8
VERDECKT
100
AcDbLine
 10
374.7457354509684
 20
182.5098557409086
 30
0.0
 11
379.3645376044854
 21
174.5098557409085
 31
0.0
  0
ARC
  5
56E
330
1E
100
AcDbEntity
  8
VERDECKT
100
AcDbCircle
 10
376.2457354509684
 20
188.5098557409086
 30
0.0
 40
3.0
100
AcDbArc
 50
180.0
 51
0.0
  0
LINE
  5
56F
330
1E
100
AcDbEntity
  8
VERDECKT
100
AcDbLine
 10
382.7457354509684
 20
192.5098557409086
 30
0.0
 11
381.2457354509684
 21
194.0098557409086
 31
0.0
  0
LINE
  5
570
330
1E
100
AcDbEntity
  8
VERDECKT
100
AcDbLine
 10
373.2457354509684
 20
188.5098557409085
 30
0.0
 11
373.2457354509684
 21
192.5098557409086
 31
0.0
  0
LINE
  5
571
330
1E
100
AcDbEntity
  8
VERDECKT
100
AcDbLine
 10
379.2457354509684
 20
188.5098557409085
 30
0.0
 11
379.2457354509684
 21
194.0098557409086
 31
0.0
  0
LINE
  5
572
330
1E
100
AcDbEntity
  8
VERDECKT
100
AcDbLine
 10
382.7457354509684
 20
226.5098557409086
 30
0.0
 11
382.7457354509684
 21
176.5098557409084
 31
0.0
  0
LINE
  5
574
330
1E
100
AcDbEntity
  8
MITTEL
100
AcDbLine
 10
304.2457354509684
 20
214.5098557409085
 30
0.0
 11
333.2457354509684
 21
214.5098557409085
 31
0.0
  0
ARC
  5
575
330
1E
100
AcDbEntity
  8
STEMPEL
100
AcDbCircle
 10
318.7457354509684
 20
214.5098557409085
 30
0.0
 40
9.5
100
AcDbArc
 50
129.1667107161198
 51
50.8332892838802
  0
LINE
  5
576
330
1E
100
AcDbEntity
  8
STEMPEL
100
AcDbLine
 10
324.7457354509684
 20
221.8753156722367
 30
0.0
 11
324.7457354509684
 21
226.5098557409085
 31
0.0
  0
LINE
  5
577
330
1E
100
AcDbEntity
  8
STEMPEL
100
AcDbLine
 10
312.7457354509683
 20
221.8753156722367
 30
0.0
 11
312.7457354509683
 21
226.5098557409085
 31
0.0
  0
LINE
  5
578
102
{ACAD_REACTORS
330
55F
330
549
102
}
330
1E
100
AcDbEntity
  8
STEMPEL
100
AcDbLine
 10
201.7445165250634
 20
226.5098557409086
 30
0.0
 11
201.7445165250633
 21
174.5098557409085
 31
0.0
  0
LINE
  5
579
102
{ACAD_REACTORS
330
549
102
}
330
1E
100
AcDbEntity
  8
STEMPEL
100
AcDbLine
 10
199.2445165250632
 20
226.5098557409085
 30
0.0
 11
199.2445165250633
 21
176.5098557409084
 31
0.0
  0
CIRCLE
  5
57A
330
1E
100
AcDbEntity
  8
STEMPEL
100
AcDbCircle
 10
135.2445165250633
 20
78.57466970742089
 30
0.0
 40
64.00000000000009
  0
CIRCLE
  5
57B
330
1E
100
AcDbEntity
  8
STEMPEL
100
AcDbCircle
 10
135.2445165250633
 20
78.57466970742089
 30
0.0
 40
66.49999999999995
  0
LINE
  5
57C
330
1E
100
AcDbEntity
  8
MITTEL
100
AcDbLine
 10
135.2445165250633
 20
150.4779855302559
 30
0.0
 11
135.2445165250633
 21
9.015712763357782
 31
0.0
  0
LINE
  5
57D
102
{ACAD_REACTORS
330
549
102
}
330
1E
100
AcDbEntity
  8
STEMPEL
100
AcDbLine
 10
71.24451652506332
 20
226.5098557409085
 30
0.0
 11
71.24451652506332
 21
176.5098557409085
 31
0.0
  0
LINE
  5
57E
330
1E
100
AcDbEntity
  8
STEMPEL
100
AcDbLine
 10
385.2457354509684
 20
226.5098557409085
 30
0.0
 11
252.2457354509684
 21
226.5098557409085
 31
0.0
  0
LINE
  5
57F
330
1E
100
AcDbEntity
  8
STEMPEL
100
AcDbLine
 10
385.2457354509684
 20
176.5098557409085
 30
0.0
 11
252.2457354509684
 21
176.5098557409085
 31
0.0
  0
LINE
  5
580
330
1E
100
AcDbEntity
  8
STEMPEL
100
AcDbLine
 10
252.2457354509684
 20
226.5098557409085
 30
0.0
 11
252.2457354509684
 21
174.5098557409084
 31
0.0
  0
LINE
  5
581
330
1E
100
AcDbEntity
  8
STEMPEL
100
AcDbLine
 10
385.2457354509684
 20
226.5098557409085
 30
0.0
 11
385.2457354509683
 21
174.5098557409085
 31
0.0
  0
LINE
  5
582
330
1E
100
AcDbEntity
  8
MITTEL
100
AcDbLine
 10
318.7457354509684
 20
231.5098557409085
 30
0.0
 11
318.7457354509683
 21
169.5098557409085
 31
0.0
  0
LINE
  5
583
330
1E
100
AcDbEntity
  8
MITTEL
100
AcDbLine
 10
135.2445165250633
 20
231.5098557409084
 30
0.0
 11
135.2445165250633
 21
169.5098557409085
 31
0.0
  0
LINE
  5
584
102
{ACAD_REACTORS
330
55F
330
549
102
}
330
1E
100
AcDbEntity
  8
STEMPEL
100
AcDbLine
 10
68.74451652506332
 20
226.5098557409085
 30
0.0
 11
68.74451652506332
 21
174.5098557409085
 31
0.0
  0
LINE
  5
585
102
{ACAD_REACTORS
330
55C
330
549
102
}
330
1E
100
AcDbEntity
  8
STEMPEL
100
AcDbLine
 10
201.7445165250633
 20
176.5098557409085
 30
0.0
 11
199.2445165250633
 21
176.5098557409085
 31
0.0
  0
LINE
  5
586
102
{ACAD_REACTORS
330
55C
102
}
330
1E
100
AcDbEntity
  8
STEMPEL
100
AcDbLine
 10
201.7445165250633
 20
226.5098557409085
 30
0.0
 11
68.74451652506332
 21
226.5098557409085
 31
0.0
  0
ARC
  5
587
330
1E
100
AcDbEntity
  8
VERDECKT
100
AcDbCircle
 10
318.7457354509684
 20
259.7206773687228
 30
0.0
 40
9.75
100
AcDbArc
 50
120.8518859860656
 51
59.14811401393434
  0
INSERT
  5
588
330
1E
100
AcDbEntity
  8
SCHRAFF
  6
Continuous
100
AcDbBlockReference
  2
*X2
 10
-5.204303653227043
 20
-7.070449805028147
 30
0.0
1001
ACAD
1000
HATCH
1002
{
1070
    19
1000
ANSI37
1040
20.0
1040
0.0
1000
R14_HATCH_DATA
1000
8D9
1011
-4.204303653227043
1021
-7.070449805028147
1031
0.0
1011
-5.204303653227043
1021
-6.070449805028147
1031
0.0
1011
-5.204303653227043
1021
-7.070449805028147
1031
1.0
1040
0.0
1010
0.0
1020
0.0
1030
1.0
1000
ANSI37
1070
     0
1070
     1
1071
        1
1071
        7
1070
     0
1070
     1
1071
        8
1040
79.74882017829042
1040
260.791127173751
1040
69.74882017829043
1040
260.791127173751
1040
69.74882017829043
1040
254.041127173751
1040
73.94882017829036
1040
254.041127173751
1040
73.94882017829036
1040
257.041127173751
1040
75.54882017829037
1040
257.0411271737511
1040
75.54882017829038
1040
254.041127173751
1040
79.74882017829043
1040
254.041127173751
1071
        8
1005
58F
1005
59B
1005
595
1005
591
1005
592
1005
593
1005
594
1005
59A
1070
     0
1070
     1
1040
0.0
1040
20.0
1070
     0
1070
     2
1040
0.7853981633974483
1040
-24.78054606601609
1040
-235.936818980128
1040
-1.767766952966368
1040
1.767766952966368
1070
     0
1040
2.356194490192344
1040
-24.78054606601609
1040
-235.936818980128
1040
-1.767766952966368
1040
-1.767766952966368
1070
     0
1040
0.4929280656550787
1071
        1
1040
77.53060360483733
1040
258.2092458787624
1040
0.0
1002
}
  0
ARC
  5
589
330
1E
100
AcDbEntity
  8
STEMPEL
100
AcDbCircle
 10
318.7457354509684
 20
259.7206773687228
 30
0.0
 40
12.74999999999994
100
AcDbArc
 50
113.0887724370089
 51
66.91122756299105
  0
LINE
  5
58A
330
1E
100
AcDbEntity
  8
STEMPEL
100
AcDbLine
 10
323.7457354509684
 20
271.4493814744626
 30
0.0
 11
323.7457354509684
 21
263.0373021590781
 31
0.0
  0
LINE
  5
58B
330
1E
100
AcDbEntity
  8
STEMPEL
100
AcDbLine
 10
313.7457354509684
 20
271.4493814744626
 30
0.0
 11
313.7457354509684
 21
263.0373021590781
 31
0.0
  0
LINE
  5
58C
330
1E
100
AcDbEntity
  8
MITTEL
100
AcDbLine
 10
318.7457354509684
 20
277.4706773687228
 30
0.0
 11
318.7457354509684
 21
241.9706773687229
 31
0.0
  0
LINE
  5
58D
330
1E
100
AcDbEntity
  8
MITTEL
100
AcDbLine
 10
300.9957354509684
 20
259.7206773687228
 30
0.0
 11
336.4957354509682
 21
259.7206773687228
 31
0.0
  0
ARC
  5
58E
330
1E
100
AcDbEntity
  8
STEMPEL
100
AcDbCircle
 10
318.7457354509684
 20
259.7206773687228
 30
0.0
 40
6.0
100
AcDbArc
 50
146.4426902380772
 51
33.55730976192294
  0
LINE
  5
58F
330
1E
100
AcDbEntity
  8
STEMPEL
100
AcDbLine
 10
64.54451652506339
 20
253.7206773687228
 30
0.0
 11
74.54451652506339
 21
253.7206773687228
 31
0.0
  0
LINE
  5
590
330
1E
100
AcDbEntity
  8
STEMPEL
100
AcDbLine
 10
64.54451652506339
 20
264.6993814744627
 30
0.0
 11
74.54451652506339
 21
264.6993814744627
 31
0.0
  0
LINE
  5
591
330
1E
100
AcDbEntity
  8
STEMPEL
100
AcDbLine
 10
68.74451652506332
 20
246.9706773687228
 30
0.0
 11
68.74451652506332
 21
249.9706773687228
 31
0.0
  0
LINE
  5
592
330
1E
100
AcDbEntity
  8
STEMPEL
100
AcDbLine
 10
68.74451652506332
 20
249.9706773687228
 30
0.0
 11
70.34451652506334
 21
249.9706773687229
 31
0.0
  0
LINE
  5
593
330
1E
100
AcDbEntity
  8
STEMPEL
100
AcDbLine
 10
70.34451652506334
 20
246.9706773687228
 30
0.0
 11
70.34451652506334
 21
249.9706773687229
 31
0.0
  0
LINE
  5
594
330
1E
100
AcDbEntity
  8
STEMPEL
100
AcDbLine
 10
70.34451652506334
 20
246.9706773687228
 30
0.0
 11
74.54451652506339
 21
246.9706773687228
 31
0.0
  0
LINE
  5
595
330
1E
100
AcDbEntity
  8
STEMPEL
100
AcDbLine
 10
64.54451652506339
 20
246.9706773687228
 30
0.0
 11
68.74451652506332
 21
246.9706773687228
 31
0.0
  0
LINE
  5
596
330
1E
100
AcDbEntity
  8
STEMPEL
100
AcDbLine
 10
70.34451652506334
 20
271.4493814744627
 30
0.0
 11
74.54451652506339
 21
271.4493814744627
 31
0.0
  0
LINE
  5
597
330
1E
100
AcDbEntity
  8
STEMPEL
100
AcDbLine
 10
68.74451652506343
 20
268.1993814744627
 30
0.0
 11
70.34451652506334
 21
268.1993814744626
 31
0.0
  0
LINE
  5
598
330
1E
100
AcDbEntity
  8
STEMPEL
100
AcDbLine
 10
70.34451652506334
 20
271.4493814744627
 30
0.0
 11
70.34451652506334
 21
268.1993814744626
 31
0.0
  0
LINE
  5
599
330
1E
100
AcDbEntity
  8
STEMPEL
100
AcDbLine
 10
68.74451652506343
 20
271.4493814744627
 30
0.0
 11
68.74451652506343
 21
268.1993814744627
 31
0.0
  0
LINE
  5
59A
330
1E
100
AcDbEntity
  8
STEMPEL
100
AcDbLine
 10
74.54451652506339
 20
246.9706773687228
 30
0.0
 11
74.54451652506339
 21
271.4493814744627
 31
0.0
  0
LINE
  5
59B
330
1E
100
AcDbEntity
  8
STEMPEL
100
AcDbLine
 10
64.54451652506339
 20
246.9706773687228
 30
0.0
 11
64.54451652506339
 21
271.4493814744627
 31
0.0
  0
LINE
  5
59C
330
1E
100
AcDbEntity
  8
STEMPEL
100
AcDbLine
 10
64.54451652506339
 20
271.4493814744627
 30
0.0
 11
68.74451652506343
 21
271.4493814744627
 31
0.0
  0
LINE
  5
59D
330
1E
100
AcDbEntity
  8
MITTEL
100
AcDbLine
 10
59.54451652506339
 20
259.7206773687228
 30
0.0
 11
79.54451652506339
 21
259.7206773687228
 31
0.0
  0
LINE
  5
59E
330
1E
100
AcDbEntity
  8
TEXT
 62
     2
100
AcDbLine
 10
342.4664612536385
 20
267.8960762464296
 30
0.0
 11
328.779147955501
 21
266.662927523585
 31
0.0
  0
LINE
  5
59F
330
1E
100
AcDbEntity
  8
TEXT
 62
     2
100
AcDbLine
 10
342.4664612536385
 20
267.8960762464296
 30
0.0
 11
381.9524018587647
 21
267.8960762464296
 31
0.0
  0
TEXT
  5
5A0
330
1E
100
AcDbEntity
  8
TEXT
 62
     1
100
AcDbText
 10
342.5935081204297
 20
270.6325905389121
 30
0.0
 40
3.5
  1
Durchführungstülle
 41
0.8
  7
GREEKS
100
AcDbText
  0
TEXT
  5
5A1
330
1E
100
AcDbEntity
  8
TEXT
 62
     1
100
AcDbText
 10
342.5935081204297
 20
262.167763590421
 30
0.0
 40
3.5
  1
HV 1101
 41
0.8
  7
GREEKS
100
AcDbText
  0
LINE
  5
5A2
102
{ACAD_REACTORS
330
549
102
}
330
1E
100
AcDbEntity
  8
STEMPEL
100
AcDbLine
 10
195.7445165250633
 20
188.5098557409085
 30
0.0
 11
195.7445165250633
 21
194.0098557409086
 31
0.0
  0
LINE
  5
5A3
102
{ACAD_REACTORS
330
549
102
}
330
1E
100
AcDbEntity
  8
STEMPEL
100
AcDbLine
 10
189.7445165250633
 20
188.5098557409085
 30
0.0
 11
189.7445165250633
 21
192.5098557409086
 31
0.0
  0
LINE
  5
5A4
102
{ACAD_REACTORS
330
549
102
}
330
1E
100
AcDbEntity
  8
STEMPEL
100
AcDbLine
 10
199.2445165250633
 20
192.5098557409086
 30
0.0
 11
197.7445165250633
 21
194.0098557409086
 31
0.0
  0
ARC
  5
5A5
102
{ACAD_REACTORS
330
549
102
}
330
1E
100
AcDbEntity
  8
STEMPEL
100
AcDbCircle
 10
192.7445165250633
 20
188.5098557409086
 30
0.0
 40
3.0
100
AcDbArc
 50
180.0
 51
0.0
  0
LINE
  5
5A6
102
{ACAD_REACTORS
330
549
102
}
330
1E
100
AcDbEntity
  8
STEMPEL
100
AcDbLine
 10
191.2445165250633
 20
182.5098557409086
 30
0.0
 11
195.8633186785803
 21
174.5098557409085
 31
0.0
  0
LINE
  5
5A7
102
{ACAD_REACTORS
330
549
102
}
330
1E
100
AcDbEntity
  8
STEMPEL
100
AcDbLine
 10
79.24451652506331
 20
182.5098557409085
 30
0.0
 11
74.62571437154636
 21
174.5098557409085
 31
0.0
  0
LINE
  5
5A8
102
{ACAD_REACTORS
330
549
102
}
330
1E
100
AcDbEntity
  8
STEMPEL
100
AcDbLine
 10
74.74451652506331
 20
188.5098557409085
 30
0.0
 11
74.74451652506331
 21
194.0098557409086
 31
0.0
  0
LINE
  5
5A9
102
{ACAD_REACTORS
330
549
102
}
330
1E
100
AcDbEntity
  8
STEMPEL
100
AcDbLine
 10
80.74451652506331
 20
188.5098557409085
 30
0.0
 11
80.74451652506331
 21
192.5098557409085
 31
0.0
  0
ARC
  5
5AA
102
{ACAD_REACTORS
330
549
102
}
330
1E
100
AcDbEntity
  8
STEMPEL
100
AcDbCircle
 10
77.74451652506332
 20
188.5098557409086
 30
0.0
 40
3.0
100
AcDbArc
 50
180.0
 51
0.0
  0
LINE
  5
5AB
102
{ACAD_REACTORS
330
549
102
}
330
1E
100
AcDbEntity
  8
STEMPEL
100
AcDbLine
 10
71.24451652506332
 20
192.5098557409085
 30
0.0
 11
72.74451652506343
 21
194.0098557409086
 31
0.0
  0
LINE
  5
5AC
102
{ACAD_REACTORS
330
549
102
}
330
1E
100
AcDbEntity
  8
STEMPEL
100
AcDbLine
 10
197.7445165250633
 20
194.0098557409086
 30
0.0
 11
195.7445165250633
 21
194.0098557409086
 31
0.0
  0
LINE
  5
5AD
102
{ACAD_REACTORS
330
549
102
}
330
1E
100
AcDbEntity
  8
STEMPEL
100
AcDbLine
 10
189.7445165250633
 20
192.5098557409085
 30
0.0
 11
80.74451652506331
 21
192.5098557409085
 31
0.0
  0
LINE
  5
5AE
102
{ACAD_REACTORS
330
549
102
}
330
1E
100
AcDbEntity
  8
STEMPEL
100
AcDbLine
 10
191.2445165250626
 20
182.5098557409097
 30
0.0
 11
79.24451652506331
 21
182.5098557409085
 31
0.0
  0
LINE
  5
5AF
102
{ACAD_REACTORS
330
549
102
}
330
1E
100
AcDbEntity
  8
STEMPEL
100
AcDbLine
 10
186.2445165250633
 20
226.5098557409086
 30
0.0
 11
186.2445165250633
 21
182.5098557409097
 31
0.0
  0
LINE
  5
5B0
102
{ACAD_REACTORS
330
549
102
}
330
1E
100
AcDbEntity
  8
STEMPEL
100
AcDbLine
 10
84.24451652506332
 20
226.5098557409085
 30
0.0
 11
84.24451652506332
 21
182.5098557409085
 31
0.0
  0
CIRCLE
  5
5B1
330
1E
100
AcDbEntity
  8
STEMPEL
100
AcDbCircle
 10
135.2445165250633
 20
78.57466970742089
 30
0.0
 40
51.0
  0
LINE
  5
5B2
330
1E
100
AcDbEntity
  8
MITTEL
100
AcDbLine
 10
64.57349501771105
 20
78.57466970742087
 30
0.0
 11
207.373495017711
 21
78.57466970742092
 31
0.0
  0
ENDSEC
  0
SECTION
  2
OBJECTS
  0
DICTIONARY
  5
C
330
0
100
AcDbDictionary
281
     1
  3
ACAD_COLOR
350
11A
  3
ACAD_GROUP
350
D
  3
ACAD_LAYOUT
350
19
  3
ACAD_MATERIAL
350
119
  3
ACAD_MLINESTYLE
350
16
  3
ACAD_PLOTSETTINGS
350
18
  3
ACAD_PLOTSTYLENAME
350
E
  3
AcDbVariableDictionary
350
125
  0
DICTIONARY
  5
DB
330
1E
100
AcDbDictionary
280
     1
281
     1
  3
ACAD_LAYOUTSELFREF
360
10F
  0
DICTIONARY
  5
DD
330
1A
100
AcDbDictionary
280
     1
281
     1
  3
ACAD_LAYOUTSELFREF
360
10E
  0
DICTIONARY
  5
55B
330
55A
100
AcDbDictionary
280
     1
281
     1
  3
ACAD_DIMASSOC
360
55C
  0
DICTIONARY
  5
55E
330
55D
100
AcDbDictionary
280
     1
281
     1
  3
ACAD_DIMASSOC
360
55F
  0
DICTIONARY
  5
11A
102
{ACAD_REACTORS
330
C
102
}
330
C
100
AcDbDictionary
281
     1
  0
DICTIONARY
  5
D
102
{ACAD_REACTORS
330
C
102
}
330
C
100
AcDbDictionary
281
     1
  0
DICTIONARY
  5
19
102
{ACAD_REACTORS
330
C
102
}
330
C
100
AcDbDictionary
281
     1
  3
Layout1
350
1D
  3
Model
350
21
  0
DICTIONARY
  5
119
102
{ACAD_REACTORS
330
C
102
}
330
C
100
AcDbDictionary
281
     1
  0
DICTIONARY
  5
16
102
{ACAD_REACTORS
330
C
102
}
330
C
100
AcDbDictionary
281
     1
  3
Standard
350
17
  0
DICTIONARY
  5
18
102
{ACAD_REACTORS
330
C
102
}
330
C
100
AcDbDictionary
281
     1
  0
ACDBDICTIONARYWDFLT
  5
E
102
{ACAD_REACTORS
330
C
102
}
330
C
100
AcDbDictionary
281
     1
  3
Normal
350
F
100
AcDbDictionaryWithDefault
340
F
  0
DICTIONARY
  5
125
102
{ACAD_REACTORS
330
C
102
}
330
C
100
AcDbDictionary
281
     1
  3
DIMASSOC
350
126
  3
PROJECTNAME
350
127
  0
XRECORD
  5
10F
102
{ACAD_REACTORS
330
DB
102
}
330
DB
100
AcDbXrecord
280
     1
340
1E
  0
XRECORD
  5
10E
102
{ACAD_REACTORS
330
DD
102
}
330
DD
100
AcDbXrecord
280
     1
340
1A
  0
DIMASSOC
  5
55C
102
{ACAD_REACTORS
330
55B
102
}
330
55B
100
AcDbDimAssoc
330
55A
 90
        3
 70
     0
 71
     0
  1
AcDbOsnapPointRef
 72
    13
331
585
 73
     2
 91
        0
 40
0.0
 10
0.0
 20
0.0
 30
2.000000000000000E+50
 75
     0
  1
AcDbOsnapPointRef
 72
    13
331
586
 73
     2
 91
        0
 40
0.0
 10
0.0
 20
0.0
 30
2.000000000000000E+50
 75
     0
  0
DIMASSOC
  5
55F
102
{ACAD_REACTORS
330
55E
102
}
330
55E
100
AcDbDimAssoc
330
55D
 90
        3
 70
     0
 71
     0
  1
AcDbOsnapPointRef
 72
     1
331
578
 73
     2
 91
        0
 40
1.0
 10
0.0
 20
0.0
 30
2.000000000000000E+50
 75
     0
  1
AcDbOsnapPointRef
 72
     1
331
584
 73
     2
 91
        0
 40
1.0
 10
0.0
 20
0.0
 30
2.000000000000000E+50
 75
     0
  0
LAYOUT
  5
1D
102
{ACAD_REACTORS
330
19
102
}
330
19
100
AcDbPlotSettings
  1

  2
\\NT_WORK01\HP LaserJet 5000 PCL 6
  4

  6

 40
0.0
 41
0.0
 42
0.0
 43
0.0
 44
0.0
 45
0.0
 46
0.0
 47
0.0
 48
0.0
 49
0.0
140
0.0
141
0.0
142
1.0
143
1.0
 70
   688
 72
     0
 73
     0
 74
     5
  7

 75
    16
147
1.0
 76
     0
 77
     2
 78
   300
148
0.0
149
0.0
100
AcDbLayout
  1
Layout1
 70
     0
 71
     1
 10
0.0
 20
0.0
 11
12.0
 21
9.0
 12
0.0
 22
0.0
 32
0.0
 14
1.000000000000000E+20
 24
1.000000000000000E+20
 34
1.000000000000000E+20
 15
-1.000000000000000E+20
 25
-1.000000000000000E+20
 35
-1.000000000000000E+20
146
0.0
 13
0.0
 23
0.0
 33
0.0
 16
1.0
 26
0.0
 36
0.0
 17
0.0
 27
1.0
 37
0.0
 76
     0
330
1A
  0
LAYOUT
  5
21
102
{ACAD_REACTORS
330
19
102
}
330
19
100
AcDbPlotSettings
  1

  2
none_device
  4
Letter_(8.50_x_11.00_Inches)
  6

 40
6.349999904632568
 41
6.349999904632568
 42
6.350006103515625
 43
6.350006103515625
 44
215.8999938964844
 45
279.3999938964844
 46
0.0
 47
0.0
 48
0.0
 49
0.0
140
0.0
141
0.0
142
1.0
143
1.0
 70
 11952
 72
     0
 73
     1
 74
     0
  7

 75
     0
147
1.0
 76
     0
 77
     2
 78
   300
148
-1344.254032258064
149
217.8459677419351
100
AcDbLayout
  1
Model
 70
     1
 71
     0
 10
0.0
 20
0.0
 11
12.0
 21
9.0
 12
0.0
 22
0.0
 32
0.0
 14
0.0
 24
0.0
 34
0.0
 15
0.0
 25
0.0
 35
0.0
146
0.0
 13
0.0
 23
0.0
 33
0.0
 16
1.0
 26
0.0
 36
0.0
 17
0.0
 27
1.0
 37
0.0
 76
     0
330
1E
  0
MLINESTYLE
  5
17
102
{ACAD_REACTORS
330
16
102
}
330
16
100
AcDbMlineStyle
  2
STANDARD
 70
     0
  3

 62
   256
 51
90.0
 52
90.0
 71
     2
 49
0.5
 62
   256
  6
BYLAYER
 49
-0.5
 62
   256
  6
BYLAYER
  0
ACDBPLACEHOLDER
  5
F
102
{ACAD_REACTORS
330
E
102
}
330
E
  0
DICTIONARYVAR
  5
126
102
{ACAD_REACTORS
330
125
102
}
330
125
100
DictionaryVariables
280
     0
  1
1
  0
DICTIONARYVAR
  5
127
102
{ACAD_REACTORS
330
125
102
}
330
125
100
DictionaryVariables
280
     0
  1

  0
ENDSEC
  0
EOF
