  0
SECTION
  2
HEADER
  9
$ACADVER
  1
AC1018
  9
$ACADMAINTVER
 70
     2
  9
$DWGCODEPAGE
  3
ANSI_1252
  9
$INSBASE
 10
0.0
 20
0.0
 30
0.0
  9
$EXTMIN
 10
-0.0000000000001137
 20
-0.0000000000001137
 30
0.0
  9
$EXTMAX
 10
420.0
 20
594.0000000000002
 30
0.0
  9
$LIMMIN
 10
0.0
 20
0.0
  9
$LIMMAX
 10
419.9999999999999
 20
594.0
  9
$ORTHOMODE
 70
     1
  9
$REGENMODE
 70
     1
  9
$FILLMODE
 70
     1
  9
$QTEXTMODE
 70
     0
  9
$MIRRTEXT
 70
     1
  9
$LTSCALE
 40
20.0
  9
$ATTMODE
 70
     1
  9
$TEXTSIZE
 40
3.5
  9
$TRACEWID
 40
0.5
  9
$TEXTSTYLE
  7
STANDARD
  9
$CLAYER
  8
BEM
  9
$CELTYPE
  6
ByLayer
  9
$CECOLOR
 62
   256
  9
$CELTSCALE
 40
1.0
  9
$DISPSILH
 70
     0
  9
$DIMSCALE
 40
2.0
  9
$DIMASZ
 40
3.5
  9
$DIMEXO
 40
1.0
  9
$DIMDLI
 40
7.0
  9
$DIMRND
 40
0.0
  9
$DIMDLE
 40
0.0
  9
$DIMEXE
 40
1.0
  9
$DIMTP
 40
0.0
  9
$DIMTM
 40
0.0
  9
$DIMTXT
 40
3.5
  9
$DIMCEN
 40
1.5
  9
$DIMTSZ
 40
0.0
  9
$DIMTOL
 70
     0
  9
$DIMLIM
 70
     0
  9
$DIMTIH
 70
     0
  9
$DIMTOH
 70
     0
  9
$DIMSE1
 70
     0
  9
$DIMSE2
 70
     0
  9
$DIMTAD
 70
     1
  9
$DIMZIN
 70
     8
  9
$DIMBLK
  1

  9
$DIMASO
 70
     1
  9
$DIMSHO
 70
     0
  9
$DIMPOST
  1

  9
$DIMAPOST
  1

  9
$DIMALT
 70
     0
  9
$DIMALTD
 70
     2
  9
$DIMALTF
 40
25.4
  9
$DIMLFAC
 40
1.0
  9
$DIMTOFL
 70
     1
  9
$DIMTVP
 40
0.0
  9
$DIMTIX
 70
     0
  9
$DIMSOXD
 70
     0
  9
$DIMSAH
 70
     0
  9
$DIMBLK1
  1

  9
$DIMBLK2
  1

  9
$DIMSTYLE
  2
Standard
  9
$DIMCLRD
 70
     0
  9
$DIMCLRE
 70
     0
  9
$DIMCLRT
 70
     1
  9
$DIMTFAC
 40
0.5
  9
$DIMGAP
 40
1.5
  9
$DIMJUST
 70
     0
  9
$DIMSD1
 70
     0
  9
$DIMSD2
 70
     0
  9
$DIMTOLJ
 70
     1
  9
$DIMTZIN
 70
     8
  9
$DIMALTZ
 70
     8
  9
$DIMALTTZ
 70
     8
  9
$DIMUPT
 70
     0
  9
$DIMDEC
 70
     2
  9
$DIMTDEC
 70
     2
  9
$DIMALTU
 70
     2
  9
$DIMALTTD
 70
     2
  9
$DIMTXSTY
  7
STANDARD
  9
$DIMAUNIT
 70
     0
  9
$DIMADEC
 70
     2
  9
$DIMALTRND
 40
0.0
  9
$DIMAZIN
 70
     2
  9
$DIMDSEP
 70
    46
  9
$DIMATFIT
 70
     3
  9
$DIMFRAC
 70
     0
  9
$DIMLDRBLK
  1

  9
$DIMLUNIT
 70
     2
  9
$DIMLWD
 70
    -2
  9
$DIMLWE
 70
    -2
  9
$DIMTMOVE
 70
     0
  9
$LUNITS
 70
     2
  9
$LUPREC
 70
     2
  9
$SKETCHINC
 40
1.0
  9
$FILLETRAD
 40
0.0
  9
$AUNITS
 70
     0
  9
$AUPREC
 70
     0
  9
$MENU
  1
ACAD
  9
$ELEVATION
 40
0.0
  9
$PELEVATION
 40
0.0
  9
$THICKNESS
 40
0.0
  9
$LIMCHECK
 70
     0
  9
$CHAMFERA
 40
0.0
  9
$CHAMFERB
 40
0.0
  9
$CHAMFERC
 40
0.0
  9
$CHAMFERD
 40
0.0
  9
$SKPOLY
 70
     0
  9
$TDCREATE
 40
2455397.864709028
  9
$TDUCREATE
 40
2455397.781375695
  9
$TDUPDATE
 40
2455812.605875683
  9
$TDUUPDATE
 40
2455812.522542350
  9
$TDINDWG
 40
0.1768261806
  9
$TDUSRTIMER
 40
0.1768261806
  9
$USRTIMER
 70
     1
  9
$ANGBASE
 50
0.0
  9
$ANGDIR
 70
     0
  9
$PDMODE
 70
     0
  9
$PDSIZE
 40
0.0
  9
$PLINEWID
 40
0.0
  9
$SPLFRAME
 70
     0
  9
$SPLINETYPE
 70
     6
  9
$SPLINESEGS
 70
     8
  9
$HANDSEED
  5
1354
  9
$SURFTAB1
 70
     6
  9
$SURFTAB2
 70
     6
  9
$SURFTYPE
 70
     6
  9
$SURFU
 70
     6
  9
$SURFV
 70
     6
  9
$UCSBASE
  2

  9
$UCSNAME
  2

  9
$UCSORG
 10
0.0
 20
0.0
 30
0.0
  9
$UCSXDIR
 10
1.0
 20
0.0
 30
0.0
  9
$UCSYDIR
 10
0.0
 20
1.0
 30
0.0
  9
$UCSORTHOREF
  2

  9
$UCSORTHOVIEW
 70
     0
  9
$UCSORGTOP
 10
0.0
 20
0.0
 30
0.0
  9
$UCSORGBOTTOM
 10
0.0
 20
0.0
 30
0.0
  9
$UCSORGLEFT
 10
0.0
 20
0.0
 30
0.0
  9
$UCSORGRIGHT
 10
0.0
 20
0.0
 30
0.0
  9
$UCSORGFRONT
 10
0.0
 20
0.0
 30
0.0
  9
$UCSORGBACK
 10
0.0
 20
0.0
 30
0.0
  9
$PUCSBASE
  2

  9
$PUCSNAME
  2

  9
$PUCSORG
 10
0.0
 20
0.0
 30
0.0
  9
$PUCSXDIR
 10
1.0
 20
0.0
 30
0.0
  9
$PUCSYDIR
 10
0.0
 20
1.0
 30
0.0
  9
$PUCSORTHOREF
  2

  9
$PUCSORTHOVIEW
 70
     0
  9
$PUCSORGTOP
 10
0.0
 20
0.0
 30
0.0
  9
$PUCSORGBOTTOM
 10
0.0
 20
0.0
 30
0.0
  9
$PUCSORGLEFT
 10
0.0
 20
0.0
 30
0.0
  9
$PUCSORGRIGHT
 10
0.0
 20
0.0
 30
0.0
  9
$PUCSORGFRONT
 10
0.0
 20
0.0
 30
0.0
  9
$PUCSORGBACK
 10
0.0
 20
0.0
 30
0.0
  9
$USERI1
 70
     0
  9
$USERI2
 70
     0
  9
$USERI3
 70
     0
  9
$USERI4
 70
     0
  9
$USERI5
 70
     0
  9
$USERR1
 40
0.0
  9
$USERR2
 40
0.0
  9
$USERR3
 40
0.0
  9
$USERR4
 40
0.0
  9
$USERR5
 40
0.0
  9
$WORLDVIEW
 70
     1
  9
$SHADEDGE
 70
     3
  9
$SHADEDIF
 70
    70
  9
$TILEMODE
 70
     1
  9
$MAXACTVP
 70
    16
  9
$PINSBASE
 10
0.0
 20
0.0
 30
0.0
  9
$PLIMCHECK
 70
     0
  9
$PEXTMIN
 10
1.000000000000000E+20
 20
1.000000000000000E+20
 30
1.000000000000000E+20
  9
$PEXTMAX
 10
-1.000000000000000E+20
 20
-1.000000000000000E+20
 30
-1.000000000000000E+20
  9
$PLIMMIN
 10
0.0
 20
0.0
  9
$PLIMMAX
 10
12.0
 20
9.0
  9
$UNITMODE
 70
     0
  9
$VISRETAIN
 70
     0
  9
$PLINEGEN
 70
     0
  9
$PSLTSCALE
 70
     0
  9
$TREEDEPTH
 70
  3020
  9
$CMLSTYLE
  2
Standard
  9
$CMLJUST
 70
     0
  9
$CMLSCALE
 40
1.0
  9
$PROXYGRAPHICS
 70
     1
  9
$MEASUREMENT
 70
     0
  9
$CELWEIGHT
370
    -1
  9
$ENDCAPS
280
     0
  9
$JOINSTYLE
280
     0
  9
$LWDISPLAY
290
     0
  9
$INSUNITS
 70
     0
  9
$HYPERLINKBASE
  1

  9
$STYLESHEET
  1

  9
$XEDIT
290
     1
  9
$CEPSNTYPE
380
     0
  9
$PSTYLEMODE
290
     1
  9
$FINGERPRINTGUID
  2
{D68B0D02-A558-11D7-B632-000102183313}
  9
$VERSIONGUID
  2
{19D8B369-15BA-4713-AFD1-E465EB6C9D25}
  9
$EXTNAMES
290
     1
  9
$PSVPSCALE
 40
0.0
  9
$OLESTARTUP
290
     0
  9
$SORTENTS
280
   127
  9
$INDEXCTL
280
     0
  9
$HIDETEXT
280
     0
  9
$XCLIPFRAME
290
     0
  9
$HALOGAP
280
     0
  9
$OBSCOLOR
 70
   257
  9
$OBSLTYPE
280
     0
  9
$INTERSECTIONDISPLAY
280
     0
  9
$INTERSECTIONCOLOR
 70
   257
  9
$DIMASSOC
280
     1
  9
$PROJECTNAME
  1

  0
ENDSEC
  0
SECTION
  2
CLASSES
  0
CLASS
  1
ACDBDICTIONARYWDFLT
  2
AcDbDictionaryWithDefault
  3
ObjectDBX Classes
 90
        0
 91
        1
280
     0
281
     0
  0
CLASS
  1
DICTIONARYVAR
  2
AcDbDictionaryVar
  3
ObjectDBX Classes
 90
        0
 91
        2
280
     0
281
     0
  0
ENDSEC
  0
SECTION
  2
TABLES
  0
TABLE
  2
VPORT
  5
8
330
0
100
AcDbSymbolTable
 70
     2
  0
VPORT
  5
1353
330
8
100
AcDbSymbolTableRecord
100
AcDbViewportTableRecord
  2
*Active
 70
     0
 10
0.0
 20
0.0
 11
1.0
 21
1.0
 12
210.0
 22
297.0
 13
0.0
 23
0.0
 14
1.0
 24
1.0
 15
10.0
 25
10.0
 16
0.0
 26
0.0
 36
1.0
 17
0.0
 27
0.0
 37
0.0
 40
594.5894988280035
 41
1.339622641509433
 42
50.0
 43
0.0
 44
0.0
 50
0.0
 51
0.0
 71
     0
 72
  1500
 73
     1
 74
     0
 75
     0
 76
     0
 77
     0
 78
     0
281
     0
 65
     1
110
0.0
120
0.0
130
0.0
111
1.0
121
0.0
131
0.0
112
0.0
122
1.0
132
0.0
 79
     0
146
0.0
  0
ENDTAB
  0
TABLE
  2
LTYPE
  5
5
330
0
100
AcDbSymbolTable
 70
     2
  0
LTYPE
  5
13
330
5
100
AcDbSymbolTableRecord
100
AcDbLinetypeTableRecord
  2
ByBlock
 70
     0
  3

 72
    65
 73
     0
 40
0.0
  0
LTYPE
  5
14
330
5
100
AcDbSymbolTableRecord
100
AcDbLinetypeTableRecord
  2
ByLayer
 70
     0
  3

 72
    65
 73
     0
 40
0.0
  0
LTYPE
  5
15
330
5
100
AcDbSymbolTableRecord
100
AcDbLinetypeTableRecord
  2
Continuous
 70
     0
  3
Solid line
 72
    65
 73
     0
 40
0.0
  0
LTYPE
  5
25
330
5
100
AcDbSymbolTableRecord
100
AcDbLinetypeTableRecord
  2
STRICHPUNKT
 70
     0
  3
__ . __ . __ . __ . __ . __ . __ . __ . __ . __
 72
    65
 73
     4
 40
1.0
 49
0.5
 74
     0
 49
-0.25
 74
     0
 49
0.0
 74
     0
 49
-0.25
 74
     0
  0
ENDTAB
  0
TABLE
  2
LAYER
  5
2
330
0
100
AcDbSymbolTable
 70
     9
  0
LAYER
  5
10
330
2
100
AcDbSymbolTableRecord
100
AcDbLayerTableRecord
  2
0
 70
     0
 62
     7
  6
Continuous
370
    -3
390
F
  0
LAYER
  5
2A
330
2
100
AcDbSymbolTableRecord
100
AcDbLayerTableRecord
  2
VOLL
 70
     0
 62
     1
  6
Continuous
370
    -3
390
F
  0
LAYER
  5
2B
330
2
100
AcDbSymbolTableRecord
100
AcDbLayerTableRecord
  2
HILF
 70
     0
 62
     2
  6
Continuous
370
    -3
390
F
  0
LAYER
  5
2C
330
2
100
AcDbSymbolTableRecord
100
AcDbLayerTableRecord
  2
MITTEL
 70
     0
 62
     2
  6
STRICHPUNKT
370
    -3
390
F
  0
LAYER
  5
2F
330
2
100
AcDbSymbolTableRecord
100
AcDbLayerTableRecord
  2
BEM
 70
     0
 62
     7
  6
Continuous
370
    -3
390
F
  0
LAYER
  5
30
330
2
100
AcDbSymbolTableRecord
100
AcDbLayerTableRecord
  2
STEMPEL
 70
     0
 62
     3
  6
Continuous
370
    -3
390
F
  0
LAYER
  5
31
330
2
100
AcDbSymbolTableRecord
100
AcDbLayerTableRecord
  2
TEXT
 70
     0
 62
     7
  6
Continuous
370
    -3
390
F
  0
LAYER
  5
1E5
330
2
100
AcDbSymbolTableRecord
100
AcDbLayerTableRecord
  2
Defpoints
 70
     0
 62
     7
  6
Continuous
290
     0
370
    -3
390
F
  0
LAYER
  5
242
330
2
100
AcDbSymbolTableRecord
100
AcDbLayerTableRecord
  2
SCHRAFF
 70
     0
 62
     7
  6
Continuous
370
    -3
390
F
  0
ENDTAB
  0
TABLE
  2
STYLE
  5
3
330
0
100
AcDbSymbolTable
 70
     2
  0
STYLE
  5
11
330
3
100
AcDbSymbolTableRecord
100
AcDbTextStyleTableRecord
  2
STANDARD
 70
     0
 40
0.0
 41
0.8
 50
0.0
 71
     0
 42
3.5
  3
simplex.shx
  4

  0
STYLE
  5
24
330
3
100
AcDbSymbolTableRecord
100
AcDbTextStyleTableRecord
  2
GREEKS
 70
     0
 40
0.0
 41
0.8
 50
0.0
 71
     0
 42
2.5
  3
SIMPLEX.shx
  4

  0
ENDTAB
  0
TABLE
  2
VIEW
  5
6
330
0
100
AcDbSymbolTable
 70
     0
  0
ENDTAB
  0
TABLE
  2
UCS
  5
7
330
0
100
AcDbSymbolTable
 70
     0
  0
ENDTAB
  0
TABLE
  2
APPID
  5
9
330
0
100
AcDbSymbolTable
 70
     1
  0
APPID
  5
12
330
9
100
AcDbSymbolTableRecord
100
AcDbRegAppTableRecord
  2
ACAD
 70
     0
  0
ENDTAB
  0
TABLE
  2
DIMSTYLE
  5
A
330
0
100
AcDbSymbolTable
 70
     1
100
AcDbDimStyleTable
 71
     1
340
9D
  0
DIMSTYLE
105
9D
102
{ACAD_REACTORS
330
1275
330
12BF
330
12F9
330
1342
102
}
330
A
100
AcDbSymbolTableRecord
100
AcDbDimStyleTableRecord
  2
Standard
 70
     0
340
11
  0
ENDTAB
  0
TABLE
  2
BLOCK_RECORD
  5
1
330
0
100
AcDbSymbolTable
 70
     5
  0
BLOCK_RECORD
  5
1E
102
{ACAD_XDICTIONARY
360
A0
102
}
330
1
100
AcDbSymbolTableRecord
100
AcDbBlockTableRecord
  2
*Model_Space
340
21
  0
BLOCK_RECORD
  5
1A
102
{ACAD_XDICTIONARY
360
A2
102
}
330
1
100
AcDbSymbolTableRecord
100
AcDbBlockTableRecord
  2
*Paper_Space
340
1D
  0
BLOCK_RECORD
  5
22
330
1
100
AcDbSymbolTableRecord
100
AcDbBlockTableRecord
  2
LOGO
340
0
102
{BLKREFS
331
9B
102
}
  0
BLOCK_RECORD
  5
1276
330
1
100
AcDbSymbolTableRecord
100
AcDbBlockTableRecord
  2
*D1
340
0
  0
BLOCK_RECORD
  5
12C0
330
1
100
AcDbSymbolTableRecord
100
AcDbBlockTableRecord
  2
*D2
340
0
  0
BLOCK_RECORD
  5
12FA
330
1
100
AcDbSymbolTableRecord
100
AcDbBlockTableRecord
  2
*D3
340
0
  0
BLOCK_RECORD
  5
1343
330
1
100
AcDbSymbolTableRecord
100
AcDbBlockTableRecord
  2
*D4
340
0
  0
ENDTAB
  0
ENDSEC
  0
SECTION
  2
BLOCKS
  0
BLOCK
  5
35
330
1E
100
AcDbEntity
  8
0
100
AcDbBlockBegin
  2
*Model_Space
 70
     0
 10
0.0
 20
0.0
 30
0.0
  3
*Model_Space
  1

  0
ENDBLK
  5
36
330
1E
100
AcDbEntity
  8
0
100
AcDbBlockEnd
  0
BLOCK
  5
33
330
1A
100
AcDbEntity
 67
     1
  8
0
100
AcDbBlockBegin
  2
*Paper_Space
 70
     0
 10
0.0
 20
0.0
 30
0.0
  3
*Paper_Space
  1

  0
ENDBLK
  5
34
330
1A
100
AcDbEntity
 67
     1
  8
0
100
AcDbBlockEnd
  0
BLOCK
  5
37
330
22
100
AcDbEntity
  8
0
100
AcDbBlockBegin
  2
LOGO
 70
     0
 10
0.0
 20
0.0
 30
0.0
  3
LOGO
  1

  0
ARC
  5
38
330
22
100
AcDbEntity
  8
0
100
AcDbCircle
 10
11.59973089678112
 20
-9.271599258481501
 30
0.0
 40
4.5
100
AcDbArc
 50
270.0
 51
231.0575587310159
  0
LINE
  5
39
330
22
100
AcDbEntity
  8
0
100
AcDbLine
 10
3.599730896781125
 20
-4.771599258481529
 30
0.0
 11
3.599730896781153
 21
-11.77159925848133
 31
0.0
  0
LINE
  5
3A
330
22
100
AcDbEntity
  8
0
100
AcDbLine
 10
2.599730896781125
 20
-4.771599258481529
 30
0.0
 11
2.599730896781153
 21
-11.77159925848133
 31
0.0
  0
CIRCLE
  5
3B
330
22
100
AcDbEntity
  8
0
100
AcDbCircle
 10
11.59973089678112
 20
-9.271599258481501
 30
0.0
 40
3.5
  0
ARC
  5
3C
330
22
100
AcDbEntity
  8
0
100
AcDbCircle
 10
31.59973089678115
 20
-9.271599258481472
 30
0.0
 40
4.5
100
AcDbArc
 50
270.0
 51
231.0575587310182
  0
LINE
  5
3D
330
22
100
AcDbEntity
  8
0
100
AcDbLine
 10
17.59973089678112
 20
-4.771599258481472
 30
0.0
 11
17.59973089678115
 21
-13.77159925848147
 31
0.0
  0
ARC
  5
3E
330
22
100
AcDbEntity
  8
0
100
AcDbCircle
 10
22.59973089678116
 20
-7.271599258481472
 30
0.0
 40
2.5
100
AcDbArc
 50
293.1161887722295
 51
90.0
  0
CIRCLE
  5
3F
330
22
100
AcDbEntity
  8
0
100
AcDbCircle
 10
31.59973089678115
 20
-9.271599258481472
 30
0.0
 40
3.5
  0
ARC
  5
40
330
22
100
AcDbEntity
  8
0
100
AcDbCircle
 10
4.599730896781153
 20
-11.77159925848133
 30
0.0
 40
1.0
100
AcDbArc
 50
180.0
 51
270.0
  0
ARC
  5
41
330
22
100
AcDbEntity
  8
0
100
AcDbCircle
 10
4.599730896781153
 20
-11.77159925848133
 30
0.0
 40
2.0
100
AcDbArc
 50
179.9999999999992
 51
270.0
  0
LINE
  5
42
330
22
100
AcDbEntity
  8
0
100
AcDbLine
 10
11.59973089678115
 20
-13.77159925848144
 30
0.0
 11
4.599730896781153
 21
-13.77159925848147
 31
0.0
  0
LINE
  5
43
330
22
100
AcDbEntity
  8
0
100
AcDbLine
 10
8.771303772034769
 20
-12.77159925848136
 30
0.0
 11
4.599730896781153
 21
-12.77159925848133
 31
0.0
  0
LINE
  5
44
330
22
100
AcDbEntity
  8
0
100
AcDbLine
 10
31.59973089678115
 20
-13.77159925848147
 30
0.0
 11
23.6715276665056
 21
-13.77159925848144
 31
0.0
  0
LINE
  5
45
330
22
100
AcDbEntity
  8
0
100
AcDbLine
 10
23.56565672307022
 20
-9.51278021337896
 30
0.0
 11
24.4388546544846
 21
-12.77159925848144
 31
0.0
  0
LINE
  5
46
330
22
100
AcDbEntity
  8
0
100
AcDbLine
 10
22.59973089678116
 20
-9.771599258481472
 30
0.0
 11
18.59973089678112
 21
-9.771599258481472
 31
0.0
  0
LINE
  5
47
330
22
100
AcDbEntity
  8
0
100
AcDbLine
 10
18.59973089678115
 20
-13.77159925848144
 30
0.0
 11
17.59973089678115
 21
-13.77159925848144
 31
0.0
  0
LINE
  5
48
330
22
100
AcDbEntity
  8
0
100
AcDbLine
 10
18.59973089678115
 20
-9.771599258481472
 30
0.0
 11
18.59973089678115
 21
-13.77159925848144
 31
0.0
  0
LINE
  5
49
330
22
100
AcDbEntity
  8
0
100
AcDbLine
 10
22.59973089678116
 20
-9.771599258481472
 30
0.0
 11
23.67152766650562
 21
-13.77159925848147
 31
0.0
  0
ARC
  5
4A
330
22
100
AcDbEntity
  8
0
100
AcDbCircle
 10
22.59973089678116
 20
-7.271599258481472
 30
0.0
 40
2.5
100
AcDbArc
 50
270.0
 51
270.0000000000007
  0
LINE
  5
4B
330
22
100
AcDbEntity
  8
0
100
AcDbLine
 10
28.77130377203494
 20
-12.77159925848147
 30
0.0
 11
24.43885465448463
 21
-12.77159925848144
 31
0.0
  0
LINE
  5
4C
330
22
100
AcDbEntity
  8
0
100
AcDbLine
 10
3.599730896781125
 20
-4.771599258481472
 30
0.0
 11
2.599730896781125
 21
-4.771599258481472
 31
0.0
  0
LINE
  5
4D
330
22
100
AcDbEntity
  8
0
100
AcDbLine
 10
22.59973089678116
 20
-8.771599258481472
 30
0.0
 11
18.59973089678115
 21
-8.771599258481472
 31
0.0
  0
LINE
  5
4E
330
22
100
AcDbEntity
  8
0
100
AcDbLine
 10
22.59973089678116
 20
-5.771599258481472
 30
0.0
 11
18.59973089678115
 21
-5.771599258481472
 31
0.0
  0
LINE
  5
4F
330
22
100
AcDbEntity
  8
0
100
AcDbLine
 10
22.59973089678116
 20
-4.771599258481472
 30
0.0
 11
17.59973089678115
 21
-4.771599258481472
 31
0.0
  0
LINE
  5
50
330
22
100
AcDbEntity
  8
0
100
AcDbLine
 10
18.59973089678115
 20
-5.771599258481472
 30
0.0
 11
18.59973089678115
 21
-8.771599258481472
 31
0.0
  0
ARC
  5
51
330
22
100
AcDbEntity
  8
0
100
AcDbCircle
 10
22.59973089678116
 20
-7.271599258481472
 30
0.0
 40
1.5
100
AcDbArc
 50
270.0
 51
90.0
  0
ENDBLK
  5
52
330
22
100
AcDbEntity
  8
0
100
AcDbBlockEnd
  0
BLOCK
  5
1280
330
1276
100
AcDbEntity
  8
0
100
AcDbBlockBegin
  2
*D1
 70
     1
 10
0.0
 20
0.0
 30
0.0
  3
*D1
  1

  0
LINE
  5
12B6
330
1276
100
AcDbEntity
  8
BEM
 62
     0
370
    -2
100
AcDbLine
 10
171.7753696574001
 20
354.3414593335159
 30
0.0
 11
144.3547625149972
 21
354.3414593335159
 31
0.0
  0
LINE
  5
12B7
330
1276
100
AcDbEntity
  8
BEM
 62
     0
370
    -2
100
AcDbLine
 10
173.0422242872243
 20
234.3414593335158
 30
0.0
 11
144.3547625149972
 21
234.3414593335158
 31
0.0
  0
LINE
  5
12B8
330
1276
100
AcDbEntity
  8
BEM
 62
     0
370
    -2
100
AcDbLine
 10
146.3547625149972
 20
347.3414593335158
 30
0.0
 11
146.3547625149972
 21
241.3414593335158
 31
0.0
  0
SOLID
  5
12B9
330
1276
100
AcDbEntity
  8
BEM
 62
     0
100
AcDbTrace
 10
145.1880958483306
 20
347.3414593335158
 30
0.0
 11
147.5214291816639
 21
347.3414593335158
 31
0.0
 12
146.3547625149972
 22
354.3414593335159
 32
0.0
 13
146.3547625149972
 23
354.3414593335159
 33
0.0
  0
SOLID
  5
12BA
330
1276
100
AcDbEntity
  8
BEM
 62
     0
100
AcDbTrace
 10
145.1880958483305
 20
241.3414593335158
 30
0.0
 11
147.5214291816639
 21
241.3414593335158
 31
0.0
 12
146.3547625149972
 22
234.3414593335158
 32
0.0
 13
146.3547625149972
 23
234.3414593335158
 33
0.0
  0
MTEXT
  5
12BB
330
1276
100
AcDbEntity
  8
BEM
 62
     1
100
AcDbMText
 10
139.8547625149972
 20
294.3414593335159
 30
0.0
 40
7.0
 41
0.0
 71
     5
 72
     1
  1
\A1;120
 11
0.0000000000000001
 21
1.0
 31
0.0
 73
     1
 44
1.0
  0
POINT
  5
12BC
330
1276
100
AcDbEntity
  8
Defpoints
 62
     0
100
AcDbPoint
 10
173.7753696574001
 20
354.3414593335159
 30
0.0
  0
POINT
  5
12BD
330
1276
100
AcDbEntity
  8
Defpoints
 62
     0
100
AcDbPoint
 10
175.0422242872243
 20
234.3414593335158
 30
0.0
  0
POINT
  5
12BE
330
1276
100
AcDbEntity
  8
Defpoints
 62
     0
100
AcDbPoint
 10
146.3547625149972
 20
234.3414593335158
 30
0.0
  0
ENDBLK
  5
1281
330
1276
100
AcDbEntity
  8
0
100
AcDbBlockEnd
  0
BLOCK
  5
12CA
330
12C0
100
AcDbEntity
  8
0
100
AcDbBlockBegin
  2
*D2
 70
     1
 10
0.0
 20
0.0
 30
0.0
  3
*D2
  1

  0
LINE
  5
12CC
330
12C0
100
AcDbEntity
  8
BEM
 62
     0
370
    -2
100
AcDbLine
 10
173.9999999999999
 20
244.254137447699
 30
0.0
 11
173.9999999999999
 21
212.3650389828981
 31
0.0
  0
LINE
  5
12CD
330
12C0
100
AcDbEntity
  8
BEM
 62
     0
370
    -2
100
AcDbLine
 10
275.9999999999998
 20
244.2541374476984
 30
0.0
 11
275.9999999999998
 21
212.3650389828981
 31
0.0
  0
LINE
  5
12CE
330
12C0
100
AcDbEntity
  8
BEM
 62
     0
370
    -2
100
AcDbLine
 10
180.9999999999999
 20
214.3650389828981
 30
0.0
 11
268.9999999999998
 21
214.3650389828981
 31
0.0
  0
SOLID
  5
12CF
330
12C0
100
AcDbEntity
  8
BEM
 62
     0
100
AcDbTrace
 10
180.9999999999999
 20
215.5317056495648
 30
0.0
 11
180.9999999999999
 21
213.1983723162314
 31
0.0
 12
173.9999999999999
 22
214.3650389828981
 32
0.0
 13
173.9999999999999
 23
214.3650389828981
 33
0.0
  0
SOLID
  5
12D0
330
12C0
100
AcDbEntity
  8
BEM
 62
     0
100
AcDbTrace
 10
268.9999999999998
 20
215.5317056495648
 30
0.0
 11
268.9999999999998
 21
213.1983723162314
 31
0.0
 12
275.9999999999998
 22
214.3650389828981
 32
0.0
 13
275.9999999999998
 23
214.3650389828981
 33
0.0
  0
MTEXT
  5
12D1
330
12C0
100
AcDbEntity
  8
BEM
 62
     1
100
AcDbMText
 10
224.9999999999999
 20
220.8650389828981
 30
0.0
 40
7.0
 41
0.0
 71
     5
 72
     1
  1
\A1;%%c102
 73
     1
 44
1.0
  0
POINT
  5
12D2
330
12C0
100
AcDbEntity
  8
Defpoints
 62
     0
100
AcDbPoint
 10
173.9999999999999
 20
246.254137447699
 30
0.0
  0
POINT
  5
12D3
330
12C0
100
AcDbEntity
  8
Defpoints
 62
     0
100
AcDbPoint
 10
275.9999999999998
 20
246.2541374476984
 30
0.0
  0
POINT
  5
12D4
330
12C0
100
AcDbEntity
  8
Defpoints
 62
     0
100
AcDbPoint
 10
275.9999999999998
 20
214.3650389828981
 30
0.0
  0
ENDBLK
  5
12CB
330
12C0
100
AcDbEntity
  8
0
100
AcDbBlockEnd
  0
BLOCK
  5
1304
330
12FA
100
AcDbEntity
  8
0
100
AcDbBlockBegin
  2
*D3
 70
     1
 10
0.0
 20
0.0
 30
0.0
  3
*D3
  1

  0
LINE
  5
1306
330
12FA
100
AcDbEntity
  8
BEM
 62
     0
370
    -2
100
AcDbLine
 10
158.4999999999999
 20
391.7087169172618
 30
0.0
 11
158.4999999999999
 21
335.2200054481186
 31
0.0
  0
LINE
  5
1307
330
12FA
100
AcDbEntity
  8
BEM
 62
     0
370
    -2
100
AcDbLine
 10
291.4999999999999
 20
391.7087169172616
 30
0.0
 11
291.4999999999999
 21
335.2200054481186
 31
0.0
  0
LINE
  5
1308
330
12FA
100
AcDbEntity
  8
BEM
 62
     0
370
    -2
100
AcDbLine
 10
165.4999999999999
 20
337.2200054481186
 30
0.0
 11
284.4999999999999
 21
337.2200054481186
 31
0.0
  0
SOLID
  5
1309
330
12FA
100
AcDbEntity
  8
BEM
 62
     0
100
AcDbTrace
 10
165.4999999999999
 20
338.3866721147853
 30
0.0
 11
165.4999999999999
 21
336.0533387814519
 31
0.0
 12
158.4999999999999
 22
337.2200054481186
 32
0.0
 13
158.4999999999999
 23
337.2200054481186
 33
0.0
  0
SOLID
  5
130A
330
12FA
100
AcDbEntity
  8
BEM
 62
     0
100
AcDbTrace
 10
284.4999999999999
 20
338.3866721147853
 30
0.0
 11
284.4999999999999
 21
336.0533387814519
 31
0.0
 12
291.4999999999999
 22
337.2200054481186
 32
0.0
 13
291.4999999999999
 23
337.2200054481186
 33
0.0
  0
MTEXT
  5
130B
330
12FA
100
AcDbEntity
  8
BEM
 62
     1
100
AcDbMText
 10
224.9999999999999
 20
343.7200054481186
 30
0.0
 40
7.0
 41
0.0
 71
     5
 72
     1
  1
\A1;%%c133
 73
     1
 44
1.0
  0
POINT
  5
130C
330
12FA
100
AcDbEntity
  8
Defpoints
 62
     0
100
AcDbPoint
 10
158.4999999999999
 20
393.7087169172618
 30
0.0
  0
POINT
  5
130D
330
12FA
100
AcDbEntity
  8
Defpoints
 62
     0
100
AcDbPoint
 10
291.4999999999999
 20
393.7087169172616
 30
0.0
  0
POINT
  5
130E
330
12FA
100
AcDbEntity
  8
Defpoints
 62
     0
100
AcDbPoint
 10
291.4999999999999
 20
337.2200054481186
 30
0.0
  0
ENDBLK
  5
1305
330
12FA
100
AcDbEntity
  8
0
100
AcDbBlockEnd
  0
BLOCK
  5
134D
330
1343
100
AcDbEntity
  8
0
100
AcDbBlockBegin
  2
*D4
 70
     1
 10
0.0
 20
0.0
 30
0.0
  3
*D4
  1

  0
LINE
  5
1344
330
1343
100
AcDbEntity
  8
BEM
 62
     0
370
    -2
100
AcDbLine
 10
150.2415552025937
 20
494.3414593335159
 30
0.0
 11
125.1638761310126
 21
494.3414593335159
 31
0.0
  0
LINE
  5
1345
330
1343
100
AcDbEntity
  8
BEM
 62
     0
370
    -2
100
AcDbLine
 10
173.0422242872243
 20
234.3414593335158
 30
0.0
 11
125.1638761310125
 21
234.3414593335158
 31
0.0
  0
LINE
  5
1346
330
1343
100
AcDbEntity
  8
BEM
 62
     0
370
    -2
100
AcDbLine
 10
127.1638761310126
 20
487.341459333516
 30
0.0
 11
127.1638761310125
 21
241.3414593335158
 31
0.0
  0
SOLID
  5
1347
330
1343
100
AcDbEntity
  8
BEM
 62
     0
100
AcDbTrace
 10
125.9972094643459
 20
487.341459333516
 30
0.0
 11
128.3305427976793
 21
487.3414593335159
 31
0.0
 12
127.1638761310126
 22
494.3414593335159
 32
0.0
 13
127.1638761310126
 23
494.3414593335159
 33
0.0
  0
SOLID
  5
1348
330
1343
100
AcDbEntity
  8
BEM
 62
     0
100
AcDbTrace
 10
125.9972094643459
 20
241.3414593335158
 30
0.0
 11
128.3305427976792
 21
241.3414593335158
 31
0.0
 12
127.1638761310125
 22
234.3414593335158
 32
0.0
 13
127.1638761310125
 23
234.3414593335158
 33
0.0
  0
MTEXT
  5
1349
330
1343
100
AcDbEntity
  8
BEM
 62
     1
100
AcDbMText
 10
120.6638761310125
 20
364.3414593335159
 30
0.0
 40
7.0
 41
0.0
 71
     5
 72
     1
  1
\A1;260
 11
0.0000000000000001
 21
1.0
 31
0.0
 73
     1
 44
1.0
  0
POINT
  5
134A
330
1343
100
AcDbEntity
  8
Defpoints
 62
     0
100
AcDbPoint
 10
152.2415552025937
 20
494.3414593335159
 30
0.0
  0
POINT
  5
134B
330
1343
100
AcDbEntity
  8
Defpoints
 62
     0
100
AcDbPoint
 10
175.0422242872243
 20
234.3414593335158
 30
0.0
  0
POINT
  5
134C
330
1343
100
AcDbEntity
  8
Defpoints
 62
     0
100
AcDbPoint
 10
127.1638761310125
 20
234.3414593335158
 30
0.0
  0
ENDBLK
  5
134E
330
1343
100
AcDbEntity
  8
0
100
AcDbBlockEnd
  0
ENDSEC
  0
SECTION
  2
ENTITIES
  0
LINE
  5
57
330
1E
100
AcDbEntity
  8
STEMPEL
100
AcDbLine
 10
410.0
 20
110.0
 30
0.0
 11
39.99999999999997
 21
110.0
 31
0.0
  0
LINE
  5
58
330
1E
100
AcDbEntity
  8
STEMPEL
100
AcDbLine
 10
136.0000000000001
 20
109.9999999999999
 30
0.0
 11
136.0
 21
9.999999999999971
 31
0.0
  0
LINE
  5
59
330
1E
100
AcDbEntity
  8
STEMPEL
100
AcDbLine
 10
220.0
 20
110.0
 30
0.0
 11
220.0
 21
9.999999999999971
 31
0.0
  0
LINE
  5
5A
330
1E
100
AcDbEntity
  8
STEMPEL
100
AcDbLine
 10
332.0
 20
109.9999999999997
 30
0.0
 11
332.0
 21
40.0
 31
0.0
  0
LINE
  5
5B
330
1E
100
AcDbEntity
  8
STEMPEL
100
AcDbLine
 10
135.9999999999999
 20
29.99999999999997
 30
0.0
 11
39.99999999999997
 21
29.99999999999997
 31
0.0
  0
LINE
  5
5C
330
1E
100
AcDbEntity
  8
STEMPEL
100
AcDbLine
 10
410.0
 20
40.0
 30
0.0
 11
136.0000000000001
 21
39.99999999999997
 31
0.0
  0
LINE
  5
5D
330
1E
100
AcDbEntity
  8
STEMPEL
100
AcDbLine
 10
410.0
 20
80.0
 30
0.0
 11
136.0000000000001
 21
79.99999999999994
 31
0.0
  0
LINE
  5
5E
330
1E
100
AcDbEntity
  8
VOLL
100
AcDbLine
 10
54.00000000000009
 20
110.0
 30
0.0
 11
53.99999999999997
 21
9.999999999999971
 31
0.0
  0
LINE
  5
5F
330
1E
100
AcDbEntity
  8
VOLL
100
AcDbLine
 10
94.00000000000011
 20
109.9999999999999
 30
0.0
 11
94.0
 21
9.999999999999971
 31
0.0
  0
LINE
  5
60
330
1E
100
AcDbEntity
  8
VOLL
100
AcDbLine
 10
114.0000000000001
 20
109.9999999999999
 30
0.0
 11
114.0
 21
9.999999999999971
 31
0.0
  0
LINE
  5
61
330
1E
100
AcDbEntity
  8
VOLL
100
AcDbLine
 10
154.0000000000001
 20
79.99999999999994
 30
0.0
 11
154.0000000000001
 21
39.99999999999997
 31
0.0
  0
LINE
  5
62
330
1E
100
AcDbEntity
  8
VOLL
100
AcDbLine
 10
180.0000000000001
 20
109.9999999999998
 30
0.0
 11
180.0
 21
39.99999999999997
 31
0.0
  0
LINE
  5
63
330
1E
100
AcDbEntity
  8
HILF
100
AcDbLine
 10
40.00000000000008
 20
100.0
 30
0.0
 11
136.0000000000001
 21
100.0
 31
0.0
  0
LINE
  5
64
330
1E
100
AcDbEntity
  8
HILF
100
AcDbLine
 10
40.00000000000008
 20
90.00000000000005
 30
0.0
 11
136.0000000000001
 21
90.00000000000005
 31
0.0
  0
LINE
  5
65
330
1E
100
AcDbEntity
  8
HILF
100
AcDbLine
 10
40.00000000000008
 20
79.99999999999994
 30
0.0
 11
136.0000000000001
 21
79.99999999999994
 31
0.0
  0
LINE
  5
66
330
1E
100
AcDbEntity
  8
HILF
100
AcDbLine
 10
40.00000000000008
 20
69.99999999999994
 30
0.0
 11
136.0000000000001
 21
69.99999999999994
 31
0.0
  0
LINE
  5
67
330
1E
100
AcDbEntity
  8
HILF
100
AcDbLine
 10
40.00000000000008
 20
59.99999999999997
 30
0.0
 11
136.0000000000001
 21
59.99999999999997
 31
0.0
  0
LINE
  5
68
330
1E
100
AcDbEntity
  8
HILF
100
AcDbLine
 10
40.00000000000008
 20
49.99999999999997
 30
0.0
 11
136.0000000000001
 21
49.99999999999997
 31
0.0
  0
LINE
  5
69
330
1E
100
AcDbEntity
  8
HILF
100
AcDbLine
 10
40.00000000000008
 20
39.99999999999997
 30
0.0
 11
136.0000000000001
 21
39.99999999999997
 31
0.0
  0
LINE
  5
6A
330
1E
100
AcDbEntity
  8
HILF
100
AcDbLine
 10
136.0000000000001
 20
69.99999999999994
 30
0.0
 11
220.0
 21
69.99999999999994
 31
0.0
  0
LINE
  5
6B
330
1E
100
AcDbEntity
  8
HILF
100
AcDbLine
 10
136.0000000000001
 20
59.99999999999997
 30
0.0
 11
220.0
 21
59.99999999999997
 31
0.0
  0
LINE
  5
6C
330
1E
100
AcDbEntity
  8
HILF
100
AcDbLine
 10
136.0000000000001
 20
49.99999999999997
 30
0.0
 11
220.0
 21
49.99999999999997
 31
0.0
  0
LINE
  5
6D
330
1E
100
AcDbEntity
  8
HILF
100
AcDbLine
 10
224.7736801096948
 20
84.03758247564139
 30
0.0
 11
324.8353916556311
 21
84.03758247564139
 31
0.0
  0
LINE
  5
6E
330
1E
100
AcDbEntity
  8
HILF
100
AcDbLine
 10
224.7736801096948
 20
69.99999999999994
 30
0.0
 11
324.835391655631
 21
69.99999999999994
 31
0.0
  0
LINE
  5
6F
330
1E
100
AcDbEntity
  8
HILF
100
AcDbLine
 10
224.7736801096948
 20
59.99999999999997
 30
0.0
 11
324.835391655631
 21
59.99999999999997
 31
0.0
  0
LINE
  5
70
330
1E
100
AcDbEntity
  8
HILF
100
AcDbLine
 10
224.7736801096948
 20
49.99999999999997
 30
0.0
 11
324.835391655631
 21
49.99999999999997
 31
0.0
  0
LINE
  5
71
330
1E
100
AcDbEntity
  8
VOLL
100
AcDbLine
 10
332.0
 20
60.0
 30
0.0
 11
410.0
 21
60.0
 31
0.0
  0
LINE
  5
72
330
1E
100
AcDbEntity
  8
HILF
100
AcDbLine
 10
336.7238616296993
 20
83.77983636955827
 30
0.0
 11
404.8588839326728
 21
83.77983636955827
 31
0.0
  0
LINE
  5
73
330
1E
100
AcDbEntity
  8
HILF
100
AcDbLine
 10
223.4909699289885
 20
14.89398258028314
 30
0.0
 11
404.8588839326728
 21
14.89398258028314
 31
0.0
  0
TEXT
  5
74
330
1E
100
AcDbEntity
  8
TEXT
100
AcDbText
 10
63.86165979631819
 20
18.67381894984132
 30
0.0
 40
4.0
  1
Änderung
 41
0.8
  7
GREEKS
 72
     1
 11
74.60451693917534
 21
18.67381894984132
 31
0.0
100
AcDbText
  0
TEXT
  5
75
330
1E
100
AcDbEntity
  8
TEXT
100
AcDbText
 10
143.5163572150377
 20
102.4620895087088
 30
0.0
 40
5.0
  1
Maßstab
 41
0.8
  7
GREEKS
100
AcDbText
  0
TEXT
  5
76
330
1E
100
AcDbEntity
  8
TEXT
100
AcDbText
 10
184.2858954734051
 20
102.4184168434819
 30
0.0
 40
5.0
  1
Zul. Abw.
 41
0.8
  7
GREEKS
100
AcDbText
  0
TEXT
  5
77
330
1E
100
AcDbEntity
  8
TEXT
100
AcDbText
 10
224.877940380901
 20
102.5489328011779
 30
0.0
 40
5.0
  1
Benennung
 41
0.8
  7
GREEKS
100
AcDbText
  0
TEXT
  5
78
330
1E
100
AcDbEntity
  8
TEXT
100
AcDbText
 10
336.178754957634
 20
102.3132034537136
 30
0.0
 40
5.0
  1
Zeichnungs Nr.
 41
0.8
  7
GREEKS
100
AcDbText
  0
TEXT
  5
79
330
1E
100
AcDbEntity
  8
TEXT
100
AcDbText
 10
224.742238391136
 20
30.84560570193057
 30
0.0
 40
5.0
  1
Bauvorhaben
 41
0.8
  7
GREEKS
100
AcDbText
  0
TEXT
  5
7A
330
1E
100
AcDbEntity
  8
TEXT
100
AcDbText
 10
336.7238616296993
 20
73.1811823709997
 30
0.0
 40
5.0
  1
Ersatz für:
 41
0.8
  7
GREEKS
100
AcDbText
  0
TEXT
  5
7B
330
1E
100
AcDbEntity
  8
TEXT
100
AcDbText
 10
48.26641107045756
 20
13.65465846027192
 30
0.0
 40
4.0
  1
Index
 50
90.0
 41
0.8
  7
GREEKS
100
AcDbText
  0
TEXT
  5
7C
330
1E
100
AcDbEntity
  8
TEXT
100
AcDbText
 10
100.0934676075481
 20
18.6715626933981
 30
0.0
 40
4.0
  1
Tag
 41
0.8
  7
GREEKS
 72
     1
 11
103.8268009408814
 21
18.6715626933981
 31
0.0
100
AcDbText
  0
TEXT
  5
7D
330
1E
100
AcDbEntity
  8
TEXT
100
AcDbText
 10
119.0122744386592
 20
18.59324216966408
 30
0.0
 40
4.0
  1
Name
 41
0.8
  7
GREEKS
 72
     1
 11
125.3360839624688
 21
18.59324216966408
 31
0.0
100
AcDbText
  0
TEXT
  5
7E
330
1E
100
AcDbEntity
  8
TEXT
100
AcDbText
 10
162.3311673153651
 20
73.31880501229926
 30
0.0
 40
4.0
  1
Tag
 41
0.8
  7
GREEKS
100
AcDbText
  0
TEXT
  5
7F
330
1E
100
AcDbEntity
  8
TEXT
100
AcDbText
 10
192.4626584226295
 20
73.30961091915225
 30
0.0
 40
4.0
  1
Name
 41
0.8
  7
GREEKS
100
AcDbText
  0
TEXT
  5
80
330
1E
100
AcDbEntity
  8
TEXT
100
AcDbText
 10
137.5836127167615
 20
63.62990369617964
 30
0.0
 40
4.0
  1
Gez.
 41
0.8
  7
GREEKS
100
AcDbText
  0
TEXT
  5
81
330
1E
100
AcDbEntity
  8
TEXT
100
AcDbText
 10
137.5515086571672
 20
53.68926291428377
 30
0.0
 40
4.0
  1
Gepr.
 41
0.8
  7
GREEKS
100
AcDbText
  0
TEXT
  5
82
330
1E
100
AcDbEntity
  8
TEXT
100
AcDbText
 10
137.6006777387304
 20
43.52946389649807
 30
0.0
 40
4.0
  1
Norm.
 41
0.8
  7
GREEKS
100
AcDbText
  0
LINE
  5
83
330
1E
100
AcDbEntity
  8
STEMPEL
100
AcDbLine
 10
49.99999999999989
 20
10.0
 30
0.0
 11
410.0
 21
10.0
 31
0.0
  0
TEXT
  5
84
330
1E
100
AcDbEntity
  8
TEXT
100
AcDbText
 10
337.2400861497006
 20
52.07416177878602
 30
0.0
 40
5.0
  1
ersetzt durch:
 41
0.8
  7
GREEKS
100
AcDbText
  0
LINE
  5
85
330
1E
100
AcDbEntity
  8
STEMPEL
100
AcDbLine
 10
410.0
 20
10.0
 30
0.0
 11
39.99999999999989
 21
10.0
 31
0.0
  0
LINE
  5
86
330
1E
100
AcDbEntity
  8
STEMPEL
100
AcDbLine
 10
410.0
 20
10.0
 30
0.0
 11
410.0
 21
584.0
 31
0.0
  0
LINE
  5
87
330
1E
100
AcDbEntity
  8
STEMPEL
100
AcDbLine
 10
40.0
 20
10.0
 30
0.0
 11
39.99999999999989
 21
584.0
 31
0.0
  0
LINE
  5
88
330
1E
100
AcDbEntity
  8
STEMPEL
100
AcDbLine
 10
410.0
 20
584.0
 30
0.0
 11
39.99999999999989
 21
584.0
 31
0.0
  0
LINE
  5
89
330
1E
100
AcDbEntity
  8
HILF
100
AcDbLine
 10
0.0
 20
0.0
 30
0.0
 11
-0.0000000000001137
 21
594.0
 31
0.0
  0
LINE
  5
8A
330
1E
100
AcDbEntity
  8
HILF
100
AcDbLine
 10
419.9999999999999
 20
594.0000000000002
 30
0.0
 11
0.0
 21
594.0
 31
0.0
  0
LINE
  5
8B
330
1E
100
AcDbEntity
  8
HILF
100
AcDbLine
 10
420.0
 20
0.0
 30
0.0
 11
0.0
 21
0.0
 31
0.0
  0
LINE
  5
8C
330
1E
100
AcDbEntity
  8
HILF
100
AcDbLine
 10
31.08767135713856
 20
297.0
 30
0.0
 11
0.0000000000001137
 21
297.0
 31
0.0
  0
TEXT
  5
8D
330
1E
100
AcDbEntity
  8
TEXT
100
AcDbText
 10
138.622109822104
 20
73.14025471151666
 30
0.0
 40
4.0
  1
2011
 41
0.8
  7
GREEKS
100
AcDbText
  0
LINE
  5
8E
330
1E
100
AcDbEntity
  8
HILF
100
AcDbLine
 10
420.0
 20
-0.0000000000001137
 30
0.0
 11
419.9999999999999
 21
594.0
 31
0.0
  0
TEXT
  5
8F
330
1E
100
AcDbEntity
  8
VOLL
100
AcDbText
 10
78.07675471698113
 20
31.02594776470585
 30
0.0
 40
1.8
  1

  7
GREEKS
100
AcDbText
  0
TEXT
  5
90
330
1E
100
AcDbEntity
  8
TEXT
100
AcDbText
 10
41.85509950977674
 20
111.6719999999999
 30
0.0
 40
5.0
  1
Erstellt mit AUTOCAD 2004
 41
0.8
  7
GREEKS
100
AcDbText
  0
TEXT
  5
91
330
1E
100
AcDbEntity
  8
TEXT
100
AcDbText
 10
194.4216048581257
 20
63.0896391972351
 30
0.0
 40
4.0
  1
Koeh
 41
0.8
  7
GREEKS
 72
     1
 11
199.6787477152685
 21
63.0896391972351
 31
0.0
100
AcDbText
  0
TEXT
  5
92
330
1E
100
AcDbEntity
  8
TEXT
 62
     1
100
AcDbText
 10
348.1207709029965
 20
88.14901428913959
 30
0.0
 40
7.0
  1
19602ED0W
 41
0.8
  7
GREEKS
 72
     1
 11
371.5874375696632
 21
88.14901428913959
 31
0.0
100
AcDbText
  0
TEXT
  5
93
330
1E
100
AcDbEntity
  8
TEXT
 62
     1
100
AcDbText
 10
150.5006306481887
 20
88.14901428913959
 30
0.0
 40
7.0
  1
1:2
 41
0.8
  7
GREEKS
100
AcDbText
  0
TEXT
  5
94
330
1E
100
AcDbEntity
  8
TEXT
100
AcDbText
 10
160.398997108236
 20
63.10765040825732
 30
0.0
 40
4.0
  1
07.09.
 41
0.8
  7
GREEKS
 72
     1
 11
167.4085209177598
 21
63.10765040825732
 31
0.0
100
AcDbText
  0
TEXT
  5
95
330
1E
100
AcDbEntity
  8
TEXT
 62
     1
100
AcDbText
 10
226.8935731057402
 20
87.41748789253779
 30
0.0
 40
7.0
  1
Abgleichstück DN125/100
 41
0.7
  7
GREEKS
100
AcDbText
  0
TEXT
  5
96
330
1E
100
AcDbEntity
  8
TEXT
100
AcDbText
 10
112.5648195562657
 20
35.75167208792644
 30
0.0
 40
2.5
  1

 41
0.8
  7
GREEKS
100
AcDbText
  0
TEXT
  5
97
330
1E
100
AcDbEntity
  8
TEXT
100
AcDbText
 10
112.5648195562657
 20
31.05790353387428
 30
0.0
 40
2.5
  1

 41
0.8
  7
GREEKS
100
AcDbText
  0
TEXT
  5
98
330
1E
100
AcDbEntity
  8
TEXT
100
AcDbText
 10
225.1296391125315
 20
51.64011943042158
 30
0.0
 40
5.0
  1
EDV-Art.Nr. 19602.ED0X
 41
0.8
  7
GREEKS
100
AcDbText
  0
TEXT
  5
99
330
1E
100
AcDbEntity
  8
TEXT
100
AcDbText
 10
224.9837501577827
 20
42.62974153022632
 30
0.0
 40
4.0
  1
19602ED0W.DWG
 41
0.8
  7
GREEKS
100
AcDbText
  0
TEXT
  5
9A
330
1E
100
AcDbEntity
  8
TEXT
100
AcDbText
 10
182.626132208084
 20
90.76363841023022
 30
0.0
 40
4.0
  1
DIN EN1123-2
 41
0.8
  7
GREEKS
 72
     1
 11
199.6166083985602
 21
90.76363841023022
 31
0.0
100
AcDbText
  0
INSERT
  5
9B
330
1E
100
AcDbEntity
  8
STEMPEL
100
AcDbBlockReference
  2
LOGO
 10
140.9955485457794
 20
45.02105276448322
 30
0.0
 41
2.0
 42
2.0
 43
2.0
  0
TEXT
  5
118
330
1E
100
AcDbEntity
  8
BEM
100
AcDbText
 10
417.3022923857165
 20
10.16790107998849
 30
0.0
 40
4.0
  1
Diese Zeichnung ist urheberrechtlich geschützt und bleibt unser Eigentum. Sie darf weder ganz noch teilweise verfielfältigt und nicht an Dritte weitergegeben werden.
 50
90.0
 41
0.8
  7
GREEKS
100
AcDbText
  0
TEXT
  5
196
330
1E
100
AcDbEntity
  8
TEXT
 62
     1
100
AcDbText
 10
218.8423319433724
 20
457.4772741060221
 30
0.0
 40
7.0
  1
DN125
 50
90.0
 41
0.8
  7
GREEKS
 72
     1
 11
218.8423319433724
 21
469.8772741060221
 31
0.0
100
AcDbText
  0
TEXT
  5
197
330
1E
100
AcDbEntity
  8
TEXT
 62
     1
100
AcDbText
 10
218.8423319433724
 20
278.7846157305113
 30
0.0
 40
7.0
  1
DN100
 50
90.0
 41
0.8
  7
GREEKS
 72
     1
 11
218.8423319433724
 21
291.1846157305113
 31
0.0
100
AcDbText
  0
TEXT
  5
380
330
1E
100
AcDbEntity
  8
TEXT
 62
     1
100
AcDbText
 10
59.91418850028257
 20
158.9207908425064
 30
0.0
 40
7.0
  1
Rohrende leicht eingezogen
 41
0.8
  7
GREEKS
100
AcDbText
  0
TEXT
  5
388
330
1E
100
AcDbEntity
  8
TEXT
 62
     1
100
AcDbText
 10
234.6057658946468
 20
129.0783465745483
 30
0.0
 40
7.0
  1
und innen beschichtet
 41
0.8
  7
GREEKS
100
AcDbText
  0
TEXT
  5
389
330
1E
100
AcDbEntity
  8
TEXT
 62
     1
100
AcDbText
 10
186.6560484572489
 20
139.8004583895517
 30
0.0
 40
7.0
  1
Werkstoff: E195 EN10305 feuerverzinkt
 41
0.8
  7
GREEKS
100
AcDbText
  0
TEXT
  5
38A
330
1E
100
AcDbEntity
  8
TEXT
 62
     1
100
AcDbText
 10
371.5874375696632
 20
62.18660941382927
 30
0.0
 40
7.0
  1

 41
0.8
  7
GREEKS
 72
     1
 11
371.5874375696632
 21
62.18660941382927
 31
0.0
100
AcDbText
  0
LINE
  5
B0B
330
1E
100
AcDbEntity
  8
MITTEL
100
AcDbLine
 10
225.0
 20
499.3414593335157
 30
0.0
 11
225.0
 21
351.9294258524444
 31
0.0
  0
ARC
  5
11C1
102
{ACAD_REACTORS
330
1273
102
}
330
1E
100
AcDbEntity
  8
STEMPEL
100
AcDbCircle
 10
176.9999999999999
 20
393.7087169172618
 30
0.0
 40
18.5
100
AcDbArc
 50
180.0
 51
206.5650511770802
  0
ARC
  5
11C2
102
{ACAD_REACTORS
330
1273
102
}
330
1E
100
AcDbEntity
  8
STEMPEL
100
AcDbCircle
 10
272.9999999999999
 20
393.7087169172616
 30
0.0
 40
18.5
100
AcDbArc
 50
333.4349488229198
 51
0.0
  0
ARC
  5
11C3
102
{ACAD_REACTORS
330
1273
102
}
330
1E
100
AcDbEntity
  8
STEMPEL
100
AcDbCircle
 10
176.9999999999999
 20
393.7087169172618
 30
0.0
 40
16.0
100
AcDbArc
 50
180.0
 51
206.5650511770802
  0
ARC
  5
11C4
102
{ACAD_REACTORS
330
1273
102
}
330
1E
100
AcDbEntity
  8
STEMPEL
100
AcDbCircle
 10
272.9999999999999
 20
393.7087169172616
 30
0.0
 40
16.0
100
AcDbArc
 50
333.4349488229198
 51
0.0
  0
LINE
  5
11C5
102
{ACAD_REACTORS
330
1273
102
}
330
1E
100
AcDbEntity
  8
STEMPEL
100
AcDbLine
 10
162.6891649440012
 20
386.5532993892624
 30
0.0
 11
168.7950849718747
 21
374.3414593335157
 31
0.0
  0
LINE
  5
11C6
102
{ACAD_REACTORS
330
1273
102
}
330
1E
100
AcDbEntity
  8
STEMPEL
100
AcDbLine
 10
287.3108350559985
 20
386.5532993892622
 30
0.0
 11
281.2049150281251
 21
374.3414593335157
 31
0.0
  0
LINE
  5
11C7
102
{ACAD_REACTORS
330
122B
330
1273
102
}
330
1E
100
AcDbEntity
  8
STEMPEL
100
AcDbLine
 10
289.5469030334982
 20
385.4352654005123
 30
0.0
 11
283.9999999999999
 21
374.3414593335157
 31
0.0
  0
LINE
  5
11C8
102
{ACAD_REACTORS
330
122B
330
1273
102
}
330
1E
100
AcDbEntity
  8
STEMPEL
100
AcDbLine
 10
160.4530969665015
 20
385.4352654005125
 30
0.0
 11
165.9999999999999
 21
374.3414593335157
 31
0.0
  0
ARC
  5
11CD
102
{ACAD_REACTORS
330
1240
102
}
330
1E
100
AcDbEntity
  8
STEMPEL
100
AcDbCircle
 10
287.9999999999998
 20
352.0304704907086
 30
0.0
 40
14.0
100
AcDbArc
 50
158.1985905136512
 51
180.0
  0
ARC
  5
11CE
102
{ACAD_REACTORS
330
1240
102
}
330
1E
100
AcDbEntity
  8
STEMPEL
100
AcDbCircle
 10
161.9999999999999
 20
352.0304704907088
 30
0.0
 40
14.0
100
AcDbArc
 50
0.0
 51
21.80140948634879
  0
ARC
  5
11CF
102
{ACAD_REACTORS
330
1240
102
}
330
1E
100
AcDbEntity
  8
STEMPEL
100
AcDbCircle
 10
161.9999999999999
 20
352.0304704907088
 30
0.0
 40
12.0
100
AcDbArc
 50
0.0
 51
21.80140948634879
  0
ARC
  5
11D0
102
{ACAD_REACTORS
330
1240
102
}
330
1E
100
AcDbEntity
  8
STEMPEL
100
AcDbCircle
 10
287.9999999999998
 20
352.0304704907086
 30
0.0
 40
12.0
100
AcDbArc
 50
158.1985905136512
 51
180.0
  0
LINE
  5
11D1
102
{ACAD_REACTORS
330
1240
102
}
330
1E
100
AcDbEntity
  8
STEMPEL
100
AcDbLine
 10
168.1540659228537
 20
374.3414593335157
 30
0.0
 11
174.9986736723935
 21
357.2299399596662
 31
0.0
  0
LINE
  5
11D2
102
{ACAD_REACTORS
330
1240
102
}
330
1E
100
AcDbEntity
  8
STEMPEL
100
AcDbLine
 10
281.845934077146
 20
374.3414593335157
 30
0.0
 11
275.0013263276062
 21
357.2299399596661
 31
0.0
  0
LINE
  5
11D3
102
{ACAD_REACTORS
330
122B
330
1240
102
}
330
1E
100
AcDbEntity
  8
STEMPEL
100
AcDbLine
 10
165.9999999999999
 20
374.3414593335157
 30
0.0
 11
173.141720290623
 21
356.487158606958
 31
0.0
  0
LINE
  5
11D4
102
{ACAD_REACTORS
330
122B
330
1240
102
}
330
1E
100
AcDbEntity
  8
STEMPEL
100
AcDbLine
 10
283.9999999999999
 20
374.3414593335157
 30
0.0
 11
276.8582797093767
 21
356.4871586069579
 31
0.0
  0
LINE
  5
11D5
102
{ACAD_REACTORS
330
1240
102
}
330
1E
100
AcDbEntity
  8
STEMPEL
100
AcDbLine
 10
273.9999999999998
 20
246.341459333515
 30
0.0
 11
272.9501360376887
 21
234.3414593335158
 31
0.0
  0
LINE
  5
11D6
102
{ACAD_REACTORS
330
1240
102
}
330
1E
100
AcDbEntity
  8
STEMPEL
100
AcDbLine
 10
275.9999999999998
 20
246.2541374476984
 30
0.0
 11
274.9577757127753
 21
234.3414593335158
 31
0.0
  0
LINE
  5
11D7
102
{ACAD_REACTORS
330
1240
102
}
330
1E
100
AcDbEntity
  8
STEMPEL
100
AcDbLine
 10
173.9999999999999
 20
246.254137447699
 30
0.0
 11
175.0422242872243
 21
234.3414593335158
 31
0.0
  0
LINE
  5
11D8
102
{ACAD_REACTORS
330
1240
102
}
330
1E
100
AcDbEntity
  8
STEMPEL
100
AcDbLine
 10
175.9999999999999
 20
246.3414593335159
 30
0.0
 11
177.049863962311
 21
234.3414593335158
 31
0.0
  0
LINE
  5
11D9
330
1E
100
AcDbEntity
  8
HILF
100
AcDbLine
 10
271.9999999999998
 20
246.3414593335157
 30
0.0
 11
177.9999999999999
 21
246.3414593335158
 31
0.0
  0
LINE
  5
11DA
102
{ACAD_REACTORS
330
1240
102
}
330
1E
100
AcDbEntity
  8
STEMPEL
100
AcDbLine
 10
175.9999999999999
 20
352.0304704907088
 30
0.0
 11
175.9999999999999
 21
246.3414593335159
 31
0.0
  0
LINE
  5
11DC
102
{ACAD_REACTORS
330
1240
102
}
330
1E
100
AcDbEntity
  8
STEMPEL
100
AcDbLine
 10
273.9999999999998
 20
352.0304704907086
 30
0.0
 11
273.9999999999998
 21
246.341459333515
 31
0.0
  0
LINE
  5
11DD
102
{ACAD_REACTORS
330
1240
102
}
330
1E
100
AcDbEntity
  8
STEMPEL
100
AcDbLine
 10
275.9999999999998
 20
352.0304704907086
 30
0.0
 11
275.9999999999998
 21
246.2541374476984
 31
0.0
  0
LINE
  5
11DE
102
{ACAD_REACTORS
330
1240
102
}
330
1E
100
AcDbEntity
  8
STEMPEL
100
AcDbLine
 10
173.9999999999999
 20
352.0304704907088
 30
0.0
 11
173.9999999999999
 21
246.254137447699
 31
0.0
  0
LINE
  5
11DF
102
{ACAD_REACTORS
330
1240
102
}
330
1E
100
AcDbEntity
  8
STEMPEL
100
AcDbLine
 10
274.9577757127753
 20
234.3414593335158
 30
0.0
 11
175.0422242872243
 21
234.3414593335158
 31
0.0
  0
LINE
  5
11E0
102
{ACAD_REACTORS
330
1273
102
}
330
1E
100
AcDbEntity
  8
STEMPEL
100
AcDbLine
 10
294.9999999999999
 20
494.3414593335159
 30
0.0
 11
295.9234641435076
 21
492.3610840869213
 31
0.0
  0
LINE
  5
11E1
102
{ACAD_REACTORS
330
1273
102
}
330
1E
100
AcDbEntity
  8
STEMPEL
100
AcDbLine
 10
297.7584447974061
 20
494.3414593335159
 30
0.0
 11
298.1892336110989
 21
493.4176297412737
 31
0.0
  0
ARC
  5
11E2
102
{ACAD_REACTORS
330
1273
102
}
330
1E
100
AcDbEntity
  8
STEMPEL
100
AcDbCircle
 10
270.9999999999999
 20
480.7390818890515
 30
0.0
 40
27.5
100
AcDbArc
 50
0.0
 51
24.99999999999276
  0
ARC
  5
11E3
102
{ACAD_REACTORS
330
1273
102
}
330
1E
100
AcDbEntity
  8
STEMPEL
100
AcDbCircle
 10
270.9999999999999
 20
480.7390818890515
 30
0.0
 40
30.0
100
AcDbArc
 50
0.0
 51
24.99999999999276
  0
LINE
  5
11E4
102
{ACAD_REACTORS
330
1273
102
}
330
1E
100
AcDbEntity
  8
STEMPEL
100
AcDbLine
 10
300.999736259692
 20
461.6324593335157
 30
0.0
 11
300.9999999999999
 21
461.6324593335157
 31
0.0
  0
ARC
  5
11E5
102
{ACAD_REACTORS
330
1273
102
}
330
1E
100
AcDbEntity
  8
STEMPEL
100
AcDbCircle
 10
270.9999999999999
 20
461.6324593335157
 30
0.0
 40
27.5
100
AcDbArc
 50
335.1568310699672
 51
0.0
  0
LINE
  5
11E6
102
{ACAD_REACTORS
330
1273
102
}
330
1E
100
AcDbEntity
  8
STEMPEL
100
AcDbLine
 10
300.9999999999999
 20
480.7390818890515
 30
0.0
 11
300.9999999999999
 21
461.6324593335157
 31
0.0
  0
LINE
  5
11E7
102
{ACAD_REACTORS
330
1273
102
}
330
1E
100
AcDbEntity
  8
STEMPEL
100
AcDbLine
 10
298.4999999999999
 20
480.7390818890515
 30
0.0
 11
298.4999999999999
 21
461.6324593335157
 31
0.0
  0
ARC
  5
11E8
102
{ACAD_REACTORS
330
1273
102
}
330
1E
100
AcDbEntity
  8
STEMPEL
100
AcDbCircle
 10
314.4999999999999
 20
441.3414593335157
 30
0.0
 40
18.0
100
AcDbArc
 50
154.9928416634569
 51
180.0
  0
LINE
  5
11E9
102
{ACAD_REACTORS
330
1273
102
}
330
1E
100
AcDbEntity
  8
STEMPEL
100
AcDbLine
 10
296.4999999999999
 20
441.3414593335156
 30
0.0
 11
296.5
 21
427.8101787561869
 31
0.0
  0
LINE
  5
11EA
102
{ACAD_REACTORS
330
1273
102
}
330
1E
100
AcDbEntity
  8
STEMPEL
100
AcDbLine
 10
293.9999999999999
 20
441.3414593335157
 30
0.0
 11
293.9999999999999
 21
427.8101787561869
 31
0.0
  0
ARC
  5
11EB
102
{ACAD_REACTORS
330
1273
102
}
330
1E
100
AcDbEntity
  8
STEMPEL
100
AcDbCircle
 10
301.5
 20
411.8414593335157
 30
0.0
 40
10.0
100
AcDbArc
 50
145.2280559680519
 51
180.0
  0
ARC
  5
11EC
102
{ACAD_REACTORS
330
1273
102
}
330
1E
100
AcDbEntity
  8
STEMPEL
100
AcDbCircle
 10
278.4999999999999
 20
427.8101787561868
 30
0.0
 40
18.0
100
AcDbArc
 50
325.2280559680519
 51
0.0
  0
ARC
  5
11ED
102
{ACAD_REACTORS
330
1273
102
}
330
1E
100
AcDbEntity
  8
STEMPEL
100
AcDbCircle
 10
278.4999999999999
 20
427.8101787561869
 30
0.0
 40
15.5
100
AcDbArc
 50
325.2280559680519
 51
0.0
  0
ARC
  5
11EE
102
{ACAD_REACTORS
330
1273
102
}
330
1E
100
AcDbEntity
  8
STEMPEL
100
AcDbCircle
 10
301.5
 20
411.8414593335157
 30
0.0
 40
12.5
100
AcDbArc
 50
145.2280559680519
 51
180.0
  0
ARC
  5
11EF
102
{ACAD_REACTORS
330
1273
102
}
330
1E
100
AcDbEntity
  8
STEMPEL
100
AcDbCircle
 10
314.4999999999999
 20
441.3414593335157
 30
0.0
 40
20.5
100
AcDbArc
 50
154.7728556340985
 51
180.0
  0
ARC
  5
11F0
102
{ACAD_REACTORS
330
1273
102
}
330
1E
100
AcDbEntity
  8
STEMPEL
100
AcDbCircle
 10
270.9999999999999
 20
461.6324593335157
 30
0.0
 40
29.99973625969209
100
AcDbArc
 50
334.992841663457
 51
0.0
  0
LINE
  5
11F1
102
{ACAD_REACTORS
330
1273
102
}
330
1E
100
AcDbEntity
  8
STEMPEL
100
AcDbLine
 10
288.9999999999999
 20
411.8414593335157
 30
0.0
 11
288.9999999999999
 21
393.7087169172616
 31
0.0
  0
LINE
  5
11F2
102
{ACAD_REACTORS
330
1273
102
}
330
1E
100
AcDbEntity
  8
STEMPEL
100
AcDbLine
 10
291.5
 20
411.8414593335157
 30
0.0
 11
291.5
 21
393.7087169172616
 31
0.0
  0
LINE
  5
11F3
102
{ACAD_REACTORS
330
1240
330
1273
102
}
330
1E
100
AcDbEntity
  8
STEMPEL
100
AcDbLine
 10
283.9999999999999
 20
374.3414593335157
 30
0.0
 11
165.9999999999999
 21
374.3414593335157
 31
0.0
  0
LINE
  5
11F4
102
{ACAD_REACTORS
330
1273
102
}
330
1E
100
AcDbEntity
  8
STEMPEL
100
AcDbLine
 10
152.2415552025937
 20
494.3414593335159
 30
0.0
 11
151.810766388901
 21
493.4176297412737
 31
0.0
  0
LINE
  5
11F5
102
{ACAD_REACTORS
330
1273
102
}
330
1E
100
AcDbEntity
  8
STEMPEL
100
AcDbLine
 10
155.0
 20
494.3414593335159
 30
0.0
 11
154.0765358564923
 21
492.3610840869213
 31
0.0
  0
ARC
  5
11F6
102
{ACAD_REACTORS
330
1273
102
}
330
1E
100
AcDbEntity
  8
STEMPEL
100
AcDbCircle
 10
178.9999999999999
 20
480.7390818890515
 30
0.0
 40
30.0
100
AcDbArc
 50
155.0000000000006
 51
180.0
  0
ARC
  5
11F7
102
{ACAD_REACTORS
330
1273
102
}
330
1E
100
AcDbEntity
  8
STEMPEL
100
AcDbCircle
 10
178.9999999999999
 20
480.7390818890515
 30
0.0
 40
27.5
100
AcDbArc
 50
155.0000000000072
 51
180.0
  0
LINE
  5
11F8
102
{ACAD_REACTORS
330
1273
102
}
330
1E
100
AcDbEntity
  8
STEMPEL
100
AcDbLine
 10
149.0002637403078
 20
461.6324593335157
 30
0.0
 11
149.0
 21
461.6324593335157
 31
0.0
  0
LINE
  5
11F9
102
{ACAD_REACTORS
330
1273
102
}
330
1E
100
AcDbEntity
  8
STEMPEL
100
AcDbLine
 10
149.0
 20
480.7390818890515
 30
0.0
 11
149.0
 21
461.6324593335157
 31
0.0
  0
LINE
  5
11FA
102
{ACAD_REACTORS
330
1273
102
}
330
1E
100
AcDbEntity
  8
STEMPEL
100
AcDbLine
 10
151.5
 20
480.7390818890515
 30
0.0
 11
151.5
 21
461.6324593335157
 31
0.0
  0
ARC
  5
11FB
102
{ACAD_REACTORS
330
1273
102
}
330
1E
100
AcDbEntity
  8
STEMPEL
100
AcDbCircle
 10
135.4999999999999
 20
441.3414593335157
 30
0.0
 40
18.0
100
AcDbArc
 50
0.0
 51
25.00715833654302
  0
ARC
  5
11FC
102
{ACAD_REACTORS
330
1273
102
}
330
1E
100
AcDbEntity
  8
STEMPEL
100
AcDbCircle
 10
135.4999999999999
 20
441.3414593335157
 30
0.0
 40
20.5
100
AcDbArc
 50
0.0
 51
25.22714436590881
  0
ARC
  5
11FD
102
{ACAD_REACTORS
330
1273
102
}
330
1E
100
AcDbEntity
  8
STEMPEL
100
AcDbCircle
 10
171.4999999999999
 20
427.8101787561868
 30
0.0
 40
18.0
100
AcDbArc
 50
180.0
 51
214.7719440319481
  0
LINE
  5
11FE
102
{ACAD_REACTORS
330
1273
102
}
330
1E
100
AcDbEntity
  8
STEMPEL
100
AcDbLine
 10
153.4999999999999
 20
441.3414593335156
 30
0.0
 11
153.4999999999999
 21
427.8101787561869
 31
0.0
  0
LINE
  5
11FF
102
{ACAD_REACTORS
330
1273
102
}
330
1E
100
AcDbEntity
  8
STEMPEL
100
AcDbLine
 10
155.9999999999999
 20
441.3414593335157
 30
0.0
 11
155.9999999999999
 21
427.8101787561869
 31
0.0
  0
ARC
  5
1200
102
{ACAD_REACTORS
330
1273
102
}
330
1E
100
AcDbEntity
  8
STEMPEL
100
AcDbCircle
 10
148.4999999999999
 20
411.8414593335157
 30
0.0
 40
10.0
100
AcDbArc
 50
0.0
 51
34.7719440319481
  0
ARC
  5
1201
102
{ACAD_REACTORS
330
1273
102
}
330
1E
100
AcDbEntity
  8
STEMPEL
100
AcDbCircle
 10
171.4999999999999
 20
427.8101787561869
 30
0.0
 40
15.5
100
AcDbArc
 50
180.0
 51
214.7719440319481
  0
ARC
  5
1202
102
{ACAD_REACTORS
330
1273
102
}
330
1E
100
AcDbEntity
  8
STEMPEL
100
AcDbCircle
 10
148.4999999999999
 20
411.8414593335157
 30
0.0
 40
12.5
100
AcDbArc
 50
0.0
 51
34.7719440319481
  0
ARC
  5
1203
102
{ACAD_REACTORS
330
1273
102
}
330
1E
100
AcDbEntity
  8
STEMPEL
100
AcDbCircle
 10
178.9999999999999
 20
461.6324593335157
 30
0.0
 40
29.99973625969209
100
AcDbArc
 50
180.0
 51
205.0071583365431
  0
ARC
  5
1204
102
{ACAD_REACTORS
330
1273
102
}
330
1E
100
AcDbEntity
  8
STEMPEL
100
AcDbCircle
 10
178.9999999999999
 20
461.6324593335157
 30
0.0
 40
27.5
100
AcDbArc
 50
180.0
 51
204.8431689300329
  0
LINE
  5
1205
102
{ACAD_REACTORS
330
1273
102
}
330
1E
100
AcDbEntity
  8
STEMPEL
100
AcDbLine
 10
297.7584447974061
 20
494.3414593335156
 30
0.0
 11
152.2415552025937
 21
494.3414593335159
 31
0.0
  0
LINE
  5
1206
102
{ACAD_REACTORS
330
1273
102
}
330
1E
100
AcDbEntity
  8
STEMPEL
100
AcDbLine
 10
158.4999999999999
 20
411.8414593335157
 30
0.0
 11
158.4999999999999
 21
393.7087169172618
 31
0.0
  0
LINE
  5
1207
102
{ACAD_REACTORS
330
1273
102
}
330
1E
100
AcDbEntity
  8
STEMPEL
100
AcDbLine
 10
160.9999999999999
 20
411.8414593335157
 30
0.0
 11
160.9999999999999
 21
393.7087169172618
 31
0.0
  0
LINE
  5
120A
330
1E
100
AcDbEntity
  8
HILF
100
AcDbLine
 10
291.9398719558769
 20
445.8181347330479
 30
0.0
 11
158.0601280441229
 21
445.8181347330479
 31
0.0
  0
LINE
  5
120B
330
1E
100
AcDbEntity
  8
HILF
100
AcDbLine
 10
290.6469793423243
 20
423.1786678950162
 30
0.0
 11
159.3530206576754
 21
423.1786678950162
 31
0.0
  0
LINE
  5
120C
330
1E
100
AcDbEntity
  8
HILF
100
AcDbLine
 10
286.9724707144381
 20
415.5765487376856
 30
0.0
 11
163.0275292855617
 21
415.5765487376856
 31
0.0
  0
LINE
  5
120D
330
1E
100
AcDbEntity
  8
HILF
100
AcDbLine
 10
285.9898683768537
 20
390.0326701885035
 30
0.0
 11
164.0101316231461
 21
390.0326701885035
 31
0.0
  0
LINE
  5
120E
330
1E
100
AcDbEntity
  8
HILF
100
AcDbLine
 10
272.2205603487714
 20
354.6779757868776
 30
0.0
 11
177.7794396512283
 21
354.6779757868776
 31
0.0
  0
ARC
  5
1223
102
{ACAD_REACTORS
330
122B
102
}
330
1E
100
AcDbEntity
  8
SCHRAFF
100
AcDbCircle
 10
168.0528634451857
 20
375.3327478838493
 30
0.0
 40
4.081391962083235
100
AcDbArc
 50
150.5171297302393
 51
257.9383609056689
  0
ARC
  5
1224
102
{ACAD_REACTORS
330
122B
102
}
330
1E
100
AcDbEntity
  8
SCHRAFF
100
AcDbCircle
 10
281.9471365548142
 20
375.3327478838493
 30
0.0
 40
4.081391962083235
100
AcDbArc
 50
282.061639094331
 51
29.48287026976071
  0
HATCH
  5
122B
330
1E
100
AcDbEntity
  8
SCHRAFF
100
AcDbHatch
 10
0.0
 20
0.0
 30
0.0
210
0.0
220
0.0
230
1.0
  2
_USER
 70
     0
 71
     1
 91
        2
 92
        7
 72
     1
 73
     1
 93
        3
 10
285.4999999999999
 20
377.3414593335157
 42
0.0
 10
284.0000000000001
 20
374.3414593335164
 42
0.0
 10
282.7999999999999
 20
371.3414593335157
 42
0.506348552028948
 97
        3
330
11C7
330
11D4
330
1224
 92
        7
 72
     1
 73
     1
 93
        3
 10
164.5
 20
377.3414593335156
 42
0.5063485520289381
 10
167.1999999999999
 20
371.3414593335157
 42
0.0
 10
166.0000000000002
 20
374.3414593335157
 42
0.0
 97
        3
330
1223
330
11D3
330
11C8
 75
     0
 76
     0
 52
0.0
 41
0.1
 77
     0
 78
     1
 53
0.0
 43
0.0
 44
0.0
 45
0.0
 46
0.1
 79
     0
 47
0.237498677642432
 98
        2
 10
285.4466661798674
 20
374.6430637803203
 10
165.199779194766
 20
374.405564211467
  0
HATCH
  5
1240
330
1E
100
AcDbEntity
  8
SCHRAFF
100
AcDbHatch
 10
0.0
 20
0.0
 30
0.0
210
0.0
220
0.0
230
1.0
  2
_USER
 70
     0
 71
     1
 91
        2
 92
        7
 72
     1
 73
     1
 93
       10
 10
273.9999999999998
 20
246.341459333515
 42
0.0
 10
272.9501360376887
 20
234.3414593335158
 42
0.0
 10
274.9577757127753
 20
234.3414593335158
 42
0.0
 10
275.9999999999998
 20
246.2541374476986
 42
0.0
 10
275.9999999999998
 20
352.0304704907086
 42
-0.0954145723997606
 10
276.8582797093767
 20
356.4871586069579
 42
0.0
 10
283.9999999999998
 20
374.3414593335156
 42
0.0
 10
281.8459340771459
 20
374.3414593335156
 42
0.0
 10
275.0013263276062
 20
357.2299399596661
 42
0.0954145723997618
 10
273.9999999999998
 20
352.0304704907086
 42
0.0
 97
       10
330
11D0
330
11D4
330
11F3
330
11D2
330
11CD
330
11DC
330
11D5
330
11DF
330
11D6
330
11DD
 92
        7
 72
     1
 73
     1
 93
       10
 10
173.9999999999999
 20
246.254137447699
 42
0.0
 10
175.0422242872244
 20
234.3414593335158
 42
0.0
 10
177.049863962311
 20
234.3414593335158
 42
0.0
 10
175.9999999999999
 20
246.3414593335156
 42
0.0
 10
175.9999999999999
 20
352.0304704907088
 42
0.0954145723997595
 10
174.9986736723935
 20
357.2299399596662
 42
0.0
 10
168.1540659228537
 20
374.3414593335157
 42
0.0
 10
165.9999999999999
 20
374.3414593335157
 42
0.0
 10
173.141720290623
 20
356.487158606958
 42
-0.0954145723997592
 10
173.9999999999999
 20
352.0304704907088
 42
0.0
 97
       10
330
11CE
330
11D1
330
11F3
330
11D3
330
11CF
330
11DE
330
11D7
330
11DF
330
11D8
330
11DA
 75
     0
 76
     0
 52
45.0
 41
2.0
 77
     0
 78
     1
 53
45.0
 43
0.0
 44
0.0
 45
-1.414213562373094
 46
1.414213562373095
 79
     0
 47
0.4930829439620838
 98
        2
 10
274.9884867271589
 20
321.9172527786559
 10
174.8322172444059
 20
321.9172527786559
  0
HATCH
  5
1273
330
1E
100
AcDbEntity
  8
SCHRAFF
100
AcDbHatch
 10
0.0
 20
0.0
 30
0.0
210
0.0
220
0.0
230
1.0
  2
_USER
 70
     0
 71
     1
 91
        2
 92
        7
 72
     1
 73
     1
 93
       25
 10
296.4999999999999
 20
441.3414593335156
 42
-0.109549420553726
 10
298.1874103690109
 20
448.950626142763
 42
0.1095494205537914
 10
300.999736259692
 20
461.6324593335157
 42
0.0
 10
300.9999999999998
 20
461.6324593335156
 42
0.0
 10
300.9999999999999
 20
480.7390818890515
 42
0.1095178116832537
 10
298.1892336110989
 20
493.4176297412737
 42
0.0
 10
297.758444797406
 20
494.3414593335155
 42
0.0
 10
295.0
 20
494.3414593335155
 42
0.0
 10
295.9234641435076
 20
492.3610840869213
 42
-0.1095178116832464
 10
298.4999999999999
 20
480.7390818890516
 42
0.0
 10
298.4999999999999
 20
461.6324593335157
 42
-0.1102736034490537
 10
295.8886370173024
 20
449.9360604252638
 42
0.1085781327854606
 10
293.9999999999999
 20
441.3414593335156
 42
0.0
 10
293.9999999999999
 20
427.8101787561869
 42
-0.1528962216020376
 10
291.2321428571429
 20
418.9703519329225
 42
0.1528962216020399
 10
288.9999999999999
 20
411.8414593335157
 42
0.0
 10
288.9999999999999
 20
393.7087169172616
 42
-0.1164338214658559
 10
287.3108350559985
 20
386.5532993892621
 42
0.0
 10
281.2049150281251
 20
374.3414593335157
 42
0.0
 10
283.9999999999999
 20
374.3414593335156
 42
0.0
 10
289.5469030334982
 20
385.4352654005123
 42
0.1164338214658557
 10
291.5
 20
393.7087169172616
 42
0.0
 10
291.5
 20
411.8414593335157
 42
-0.1528962216020377
 10
293.2857142857142
 20
417.5445734130411
 42
0.1528962216020392
 10
296.5
 20
427.8101787561869
 42
0.0
 97
       25
330
11E8
330
11F0
330
11E4
330
11E6
330
11E3
330
11E1
330
1205
330
11E0
330
11E2
330
11E7
330
11E5
330
11EF
330
11EA
330
11ED
330
11EE
330
11F1
330
11C4
330
11C6
330
11F3
330
11C7
330
11C2
330
11F2
330
11EB
330
11EC
330
11E9
 92
        7
 72
     1
 73
     1
 93
       25
 10
155.9999999999999
 20
441.3414593335157
 42
0.1085781327853219
 10
154.1113629827021
 20
449.9360604252537
 42
-0.110273603449157
 10
151.5
 20
461.6324593335157
 42
0.0
 10
151.5
 20
480.7390818890515
 42
-0.1095178116832474
 10
154.0765358564923
 20
492.3610840869213
 42
0.0
 10
155.0
 20
494.3414593335158
 42
0.0
 10
152.2415552025938
 20
494.3414593335159
 42
0.0
 10
151.810766388901
 20
493.4176297412737
 42
0.1095178116832528
 10
149.0
 20
480.7390818890516
 42
0.0
 10
149.0
 20
461.6324593335157
 42
0.0
 10
149.0002637403078
 20
461.6324593335157
 42
0.1095494205537661
 10
151.8125896309877
 20
448.9506261427656
 42
-0.1095494205537674
 10
153.4999999999999
 20
441.3414593335157
 42
0.0
 10
153.4999999999999
 20
427.8101787561869
 42
0.1528962216020396
 10
156.7142857142856
 20
417.5445734130411
 42
-0.1528962216020392
 10
158.4999999999999
 20
411.8414593335156
 42
0.0
 10
158.4999999999999
 20
393.7087169172618
 42
0.1164338214658544
 10
160.4530969665015
 20
385.4352654005125
 42
0.0
 10
165.9999999999999
 20
374.3414593335156
 42
0.0
 10
168.7950849718747
 20
374.3414593335156
 42
0.0
 10
162.6891649440012
 20
386.5532993892624
 42
-0.116433821465855
 10
160.9999999999999
 20
393.7087169172618
 42
0.0
 10
160.9999999999999
 20
411.8414593335157
 42
0.152896221602038
 10
158.7678571428571
 20
418.9703519329224
 42
-0.152896221602039
 10
155.9999999999999
 20
427.8101787561869
 42
0.0
 97
       25
330
11FC
330
1204
330
11FA
330
11F7
330
11F5
330
1205
330
11F4
330
11F6
330
11F9
330
11F8
330
1203
330
11FB
330
11FE
330
11FD
330
1200
330
1206
330
11C1
330
11C8
330
11F3
330
11C5
330
11C3
330
1207
330
1202
330
1201
330
11FF
 75
     0
 76
     0
 52
135.0
 41
2.0
 77
     0
 78
     1
 53
135.0
 43
0.0
 44
0.0
 45
-1.414213562373095
 46
-1.414213562373094
 79
     0
 47
0.4930829439620838
 98
        2
 10
295.7104752388555
 20
430.3955018355918
 10
155.096991848226
 20
433.3539994355375
  0
DIMENSION
  5
1275
330
1E
100
AcDbEntity
  8
BEM
100
AcDbDimension
  2
*D1
 10
146.3547625149972
 20
234.3414593335158
 30
0.0
 11
139.8547625149972
 21
294.3414593335159
 31
0.0
 70
    32
 71
     5
 42
120.0000000000001
  3
Standard
100
AcDbAlignedDimension
 13
173.7753696574001
 23
354.3414593335159
 33
0.0
 14
175.0422242872243
 24
234.3414593335158
 34
0.0
 50
90.0
100
AcDbRotatedDimension
1001
ACAD
1000
DSTYLE
1002
{
1070
    40
1040
2.0
1070
    41
1040
3.5
1070
    42
1040
1.0
1070
    43
1040
7.0
1070
    44
1040
1.0
1070
    73
1070
     0
1070
    74
1070
     0
1070
    77
1070
     1
1070
    78
1070
     8
1070
    79
1070
     2
1070
   140
1040
3.5
1070
   141
1040
1.5
1070
   146
1040
0.5
1070
   147
1040
1.5
1070
   172
1070
     1
1070
   178
1070
     1
1070
   179
1070
     2
1070
   271
1070
     2
1070
   272
1070
     2
1070
   284
1070
     8
1070
   285
1070
     8
1070
   286
1070
     8
1002
}
  0
DIMENSION
  5
12BF
330
1E
100
AcDbEntity
  8
BEM
100
AcDbDimension
  2
*D2
 10
275.9999999999998
 20
214.3650389828981
 30
0.0
 11
224.9999999999999
 21
220.8650389828981
 31
0.0
 70
    32
  1
%%c<>
 71
     5
 42
101.9999999999998
  3
Standard
100
AcDbAlignedDimension
 13
173.9999999999999
 23
246.254137447699
 33
0.0
 14
275.9999999999998
 24
246.2541374476984
 34
0.0
100
AcDbRotatedDimension
1001
ACAD
1000
DSTYLE
1002
{
1070
    40
1040
2.0
1070
    41
1040
3.5
1070
    42
1040
1.0
1070
    43
1040
7.0
1070
    44
1040
1.0
1070
    73
1070
     0
1070
    74
1070
     0
1070
    77
1070
     1
1070
    78
1070
     8
1070
    79
1070
     2
1070
   140
1040
3.5
1070
   141
1040
1.5
1070
   146
1040
0.5
1070
   147
1040
1.5
1070
   172
1070
     1
1070
   178
1070
     1
1070
   179
1070
     2
1070
   271
1070
     2
1070
   272
1070
     2
1070
   284
1070
     8
1070
   285
1070
     8
1070
   286
1070
     8
1002
}
  0
DIMENSION
  5
12F9
330
1E
100
AcDbEntity
  8
BEM
100
AcDbDimension
  2
*D3
 10
291.4999999999999
 20
337.2200054481186
 30
0.0
 11
224.9999999999999
 21
343.7200054481186
 31
0.0
 70
    32
  1
%%c<>
 71
     5
 42
133.0
  3
Standard
100
AcDbAlignedDimension
 13
158.4999999999999
 23
393.7087169172618
 33
0.0
 14
291.4999999999999
 24
393.7087169172616
 34
0.0
100
AcDbRotatedDimension
1001
ACAD
1000
DSTYLE
1002
{
1070
    40
1040
2.0
1070
    41
1040
3.5
1070
    42
1040
1.0
1070
    43
1040
7.0
1070
    44
1040
1.0
1070
    73
1070
     0
1070
    74
1070
     0
1070
    77
1070
     1
1070
    78
1070
     8
1070
    79
1070
     2
1070
   140
1040
3.5
1070
   141
1040
1.5
1070
   146
1040
0.5
1070
   147
1040
1.5
1070
   172
1070
     1
1070
   178
1070
     1
1070
   179
1070
     2
1070
   271
1070
     2
1070
   272
1070
     2
1070
   284
1070
     8
1070
   285
1070
     8
1070
   286
1070
     8
1002
}
  0
LINE
  5
131D
330
1E
100
AcDbEntity
  8
MITTEL
100
AcDbLine
 10
225.0
 20
334.7571966009577
 30
0.0
 11
225.0
 21
229.3414593335157
 31
0.0
  0
DIMENSION
  5
1342
330
1E
100
AcDbEntity
  8
BEM
100
AcDbDimension
  2
*D4
 10
127.1638761310125
 20
234.3414593335158
 30
0.0
 11
120.6638761310125
 21
364.3414593335159
 31
0.0
 70
    32
 71
     5
 42
260.0000000000001
  3
Standard
100
AcDbAlignedDimension
 13
152.2415552025937
 23
494.3414593335159
 33
0.0
 14
175.0422242872243
 24
234.3414593335158
 34
0.0
 50
90.0
100
AcDbRotatedDimension
1001
ACAD
1000
DSTYLE
1002
{
1070
    40
1040
2.0
1070
    41
1040
3.5
1070
    42
1040
1.0
1070
    43
1040
7.0
1070
    44
1040
1.0
1070
    73
1070
     0
1070
    74
1070
     0
1070
    77
1070
     1
1070
    78
1070
     8
1070
    79
1070
     2
1070
   140
1040
3.5
1070
   141
1040
1.5
1070
   146
1040
0.5
1070
   147
1040
1.5
1070
   172
1070
     1
1070
   178
1070
     1
1070
   179
1070
     2
1070
   271
1070
     2
1070
   272
1070
     2
1070
   284
1070
     8
1070
   285
1070
     8
1070
   286
1070
     8
1002
}
  0
ENDSEC
  0
SECTION
  2
OBJECTS
  0
DICTIONARY
  5
C
330
0
100
AcDbDictionary
281
     1
  3
ACAD_COLOR
350
DF
  3
ACAD_GROUP
350
D
  3
ACAD_LAYOUT
350
19
  3
ACAD_MATERIAL
350
DE
  3
ACAD_MLINESTYLE
350
16
  3
ACAD_PLOTSETTINGS
350
18
  3
ACAD_PLOTSTYLENAME
350
E
  3
AcDbVariableDictionary
350
EA
  0
DICTIONARY
  5
A0
330
1E
100
AcDbDictionary
280
     1
281
     1
  3
ACAD_LAYOUTSELFREF
360
D4
  0
DICTIONARY
  5
A2
330
1A
100
AcDbDictionary
280
     1
281
     1
  3
ACAD_LAYOUTSELFREF
360
D3
  0
DICTIONARY
  5
DF
102
{ACAD_REACTORS
330
C
102
}
330
C
100
AcDbDictionary
281
     1
  0
DICTIONARY
  5
D
102
{ACAD_REACTORS
330
C
102
}
330
C
100
AcDbDictionary
281
     1
  0
DICTIONARY
  5
19
102
{ACAD_REACTORS
330
C
102
}
330
C
100
AcDbDictionary
281
     1
  3
Layout1
350
1D
  3
Model
350
21
  0
DICTIONARY
  5
DE
102
{ACAD_REACTORS
330
C
102
}
330
C
100
AcDbDictionary
281
     1
  0
DICTIONARY
  5
16
102
{ACAD_REACTORS
330
C
102
}
330
C
100
AcDbDictionary
281
     1
  3
Standard
350
17
  0
DICTIONARY
  5
18
102
{ACAD_REACTORS
330
C
102
}
330
C
100
AcDbDictionary
281
     1
  0
ACDBDICTIONARYWDFLT
  5
E
102
{ACAD_REACTORS
330
C
102
}
330
C
100
AcDbDictionary
281
     1
  3
Normal
350
F
100
AcDbDictionaryWithDefault
340
F
  0
DICTIONARY
  5
EA
102
{ACAD_REACTORS
330
C
102
}
330
C
100
AcDbDictionary
281
     1
  3
DIMASSOC
350
EB
  3
PROJECTNAME
350
EC
  0
XRECORD
  5
D4
102
{ACAD_REACTORS
330
A0
102
}
330
A0
100
AcDbXrecord
280
     1
340
1E
  0
XRECORD
  5
D3
102
{ACAD_REACTORS
330
A2
102
}
330
A2
100
AcDbXrecord
280
     1
340
1A
  0
LAYOUT
  5
1D
102
{ACAD_REACTORS
330
19
102
}
330
19
100
AcDbPlotSettings
  1

  2
\\NT_WORK01\HP LaserJet 5000 PCL 6
  4

  6

 40
0.0
 41
0.0
 42
0.0
 43
0.0
 44
0.0
 45
0.0
 46
0.0
 47
0.0
 48
0.0
 49
0.0
140
0.0
141
0.0
142
1.0
143
1.0
 70
   688
 72
     0
 73
     0
 74
     5
  7

 75
    16
147
1.0
 76
     0
 77
     2
 78
   300
148
0.0
149
0.0
100
AcDbLayout
  1
Layout1
 70
     0
 71
     1
 10
0.0
 20
0.0
 11
12.0
 21
9.0
 12
0.0
 22
0.0
 32
0.0
 14
1.000000000000000E+20
 24
1.000000000000000E+20
 34
1.000000000000000E+20
 15
-1.000000000000000E+20
 25
-1.000000000000000E+20
 35
-1.000000000000000E+20
146
0.0
 13
0.0
 23
0.0
 33
0.0
 16
1.0
 26
0.0
 36
0.0
 17
0.0
 27
1.0
 37
0.0
 76
     0
330
1A
  0
LAYOUT
  5
21
102
{ACAD_REACTORS
330
19
102
}
330
19
100
AcDbPlotSettings
  1

  2
\\NT_WORK01\HP LaserJet 5000 PCL 6
  4

  6

 40
0.0
 41
0.0
 42
0.0
 43
0.0
 44
0.0
 45
0.0
 46
0.0
 47
0.0
 48
0.0
 49
0.0
140
0.0
141
0.0
142
1.0
143
1.0
 70
  1712
 72
     0
 73
     0
 74
     0
  7

 75
     0
147
1.0
 76
     0
 77
     2
 78
   300
148
0.0
149
0.0
100
AcDbLayout
  1
Model
 70
     1
 71
     0
 10
0.0
 20
0.0
 11
12.0
 21
9.0
 12
0.0
 22
0.0
 32
0.0
 14
0.0
 24
0.0
 34
0.0
 15
0.0
 25
0.0
 35
0.0
146
0.0
 13
0.0
 23
0.0
 33
0.0
 16
1.0
 26
0.0
 36
0.0
 17
0.0
 27
1.0
 37
0.0
 76
     0
330
1E
  0
MLINESTYLE
  5
17
102
{ACAD_REACTORS
330
16
102
}
330
16
100
AcDbMlineStyle
  2
STANDARD
 70
     0
  3

 62
   256
 51
90.0
 52
90.0
 71
     2
 49
0.5
 62
   256
  6
BYLAYER
 49
-0.5
 62
   256
  6
BYLAYER
  0
ACDBPLACEHOLDER
  5
F
102
{ACAD_REACTORS
330
E
102
}
330
E
  0
DICTIONARYVAR
  5
EB
102
{ACAD_REACTORS
330
EA
102
}
330
EA
100
DictionaryVariables
280
     0
  1
1
  0
DICTIONARYVAR
  5
EC
102
{ACAD_REACTORS
330
EA
102
}
330
EA
100
DictionaryVariables
280
     0
  1

  0
ENDSEC
  0
EOF
