  0
SECTION
  2
HEADER
  9
$ACADVER
  1
AC1018
  9
$ACADMAINTVER
 70
     2
  9
$DWGCODEPAGE
  3
ANSI_1252
  9
$INSBASE
 10
0.0
 20
0.0
 30
0.0
  9
$EXTMIN
 10
0.0
 20
-0.0000000000000568
 30
0.0
  9
$EXTMAX
 10
594.0
 20
840.0
 30
0.0
  9
$LIMMIN
 10
0.0
 20
0.0
  9
$LIMMAX
 10
594.0
 20
840.0
  9
$ORTHOMODE
 70
     1
  9
$REGENMODE
 70
     1
  9
$FILLMODE
 70
     1
  9
$QTEXTMODE
 70
     0
  9
$MIRRTEXT
 70
     1
  9
$LTSCALE
 40
20.0
  9
$ATTMODE
 70
     1
  9
$TEXTSIZE
 40
3.5
  9
$TRACEWID
 40
1.0
  9
$TEXTSTYLE
  7
STANDARD
  9
$CLAYER
  8
SCHRAFF
  9
$CELTYPE
  6
ByLayer
  9
$CECOLOR
 62
   256
  9
$CELTSCALE
 40
1.0
  9
$DISPSILH
 70
     0
  9
$DIMSCALE
 40
2.0
  9
$DIMASZ
 40
3.5
  9
$DIMEXO
 40
1.0
  9
$DIMDLI
 40
7.0
  9
$DIMRND
 40
0.0
  9
$DIMDLE
 40
0.0
  9
$DIMEXE
 40
1.0
  9
$DIMTP
 40
0.0
  9
$DIMTM
 40
0.0
  9
$DIMTXT
 40
3.5
  9
$DIMCEN
 40
1.5
  9
$DIMTSZ
 40
0.0
  9
$DIMTOL
 70
     0
  9
$DIMLIM
 70
     0
  9
$DIMTIH
 70
     0
  9
$DIMTOH
 70
     0
  9
$DIMSE1
 70
     0
  9
$DIMSE2
 70
     0
  9
$DIMTAD
 70
     1
  9
$DIMZIN
 70
     8
  9
$DIMBLK
  1

  9
$DIMASO
 70
     1
  9
$DIMSHO
 70
     0
  9
$DIMPOST
  1

  9
$DIMAPOST
  1

  9
$DIMALT
 70
     0
  9
$DIMALTD
 70
     2
  9
$DIMALTF
 40
25.4
  9
$DIMLFAC
 40
1.0
  9
$DIMTOFL
 70
     1
  9
$DIMTVP
 40
0.0
  9
$DIMTIX
 70
     0
  9
$DIMSOXD
 70
     0
  9
$DIMSAH
 70
     0
  9
$DIMBLK1
  1

  9
$DIMBLK2
  1

  9
$DIMSTYLE
  2
Standard
  9
$DIMCLRD
 70
     0
  9
$DIMCLRE
 70
     0
  9
$DIMCLRT
 70
     1
  9
$DIMTFAC
 40
0.5142857142857144
  9
$DIMGAP
 40
1.5
  9
$DIMJUST
 70
     0
  9
$DIMSD1
 70
     0
  9
$DIMSD2
 70
     0
  9
$DIMTOLJ
 70
     1
  9
$DIMTZIN
 70
     8
  9
$DIMALTZ
 70
     8
  9
$DIMALTTZ
 70
     8
  9
$DIMUPT
 70
     0
  9
$DIMDEC
 70
     2
  9
$DIMTDEC
 70
     2
  9
$DIMALTU
 70
     2
  9
$DIMALTTD
 70
     2
  9
$DIMTXSTY
  7
STANDARD
  9
$DIMAUNIT
 70
     0
  9
$DIMADEC
 70
     2
  9
$DIMALTRND
 40
0.0
  9
$DIMAZIN
 70
     2
  9
$DIMDSEP
 70
    46
  9
$DIMATFIT
 70
     3
  9
$DIMFRAC
 70
     0
  9
$DIMLDRBLK
  1

  9
$DIMLUNIT
 70
     2
  9
$DIMLWD
 70
    -2
  9
$DIMLWE
 70
    -2
  9
$DIMTMOVE
 70
     0
  9
$LUNITS
 70
     2
  9
$LUPREC
 70
     2
  9
$SKETCHINC
 40
1.0
  9
$FILLETRAD
 40
0.0
  9
$AUNITS
 70
     0
  9
$AUPREC
 70
     0
  9
$MENU
  1
ACAD
  9
$ELEVATION
 40
0.0
  9
$PELEVATION
 40
0.0
  9
$THICKNESS
 40
0.0
  9
$LIMCHECK
 70
     0
  9
$CHAMFERA
 40
0.0
  9
$CHAMFERB
 40
0.0
  9
$CHAMFERC
 40
0.0
  9
$CHAMFERD
 40
0.0
  9
$SKPOLY
 70
     0
  9
$TDCREATE
 40
2455397.825393172
  9
$TDUCREATE
 40
2455397.783726505
  9
$TDUPDATE
 40
2455587.340683183
  9
$TDUUPDATE
 40
2455587.299016516
  9
$TDINDWG
 40
0.0659346875
  9
$TDUSRTIMER
 40
0.0659346875
  9
$USRTIMER
 70
     1
  9
$ANGBASE
 50
0.0
  9
$ANGDIR
 70
     0
  9
$PDMODE
 70
     0
  9
$PDSIZE
 40
0.0
  9
$PLINEWID
 40
0.0
  9
$SPLFRAME
 70
     0
  9
$SPLINETYPE
 70
     6
  9
$SPLINESEGS
 70
     8
  9
$HANDSEED
  5
F11
  9
$SURFTAB1
 70
     6
  9
$SURFTAB2
 70
     6
  9
$SURFTYPE
 70
     6
  9
$SURFU
 70
     6
  9
$SURFV
 70
     6
  9
$UCSBASE
  2

  9
$UCSNAME
  2

  9
$UCSORG
 10
0.0
 20
0.0
 30
0.0
  9
$UCSXDIR
 10
1.0
 20
0.0
 30
0.0
  9
$UCSYDIR
 10
0.0
 20
1.0
 30
0.0
  9
$UCSORTHOREF
  2

  9
$UCSORTHOVIEW
 70
     0
  9
$UCSORGTOP
 10
0.0
 20
0.0
 30
0.0
  9
$UCSORGBOTTOM
 10
0.0
 20
0.0
 30
0.0
  9
$UCSORGLEFT
 10
0.0
 20
0.0
 30
0.0
  9
$UCSORGRIGHT
 10
0.0
 20
0.0
 30
0.0
  9
$UCSORGFRONT
 10
0.0
 20
0.0
 30
0.0
  9
$UCSORGBACK
 10
0.0
 20
0.0
 30
0.0
  9
$PUCSBASE
  2

  9
$PUCSNAME
  2

  9
$PUCSORG
 10
0.0
 20
0.0
 30
0.0
  9
$PUCSXDIR
 10
1.0
 20
0.0
 30
0.0
  9
$PUCSYDIR
 10
0.0
 20
1.0
 30
0.0
  9
$PUCSORTHOREF
  2

  9
$PUCSORTHOVIEW
 70
     0
  9
$PUCSORGTOP
 10
0.0
 20
0.0
 30
0.0
  9
$PUCSORGBOTTOM
 10
0.0
 20
0.0
 30
0.0
  9
$PUCSORGLEFT
 10
0.0
 20
0.0
 30
0.0
  9
$PUCSORGRIGHT
 10
0.0
 20
0.0
 30
0.0
  9
$PUCSORGFRONT
 10
0.0
 20
0.0
 30
0.0
  9
$PUCSORGBACK
 10
0.0
 20
0.0
 30
0.0
  9
$USERI1
 70
     0
  9
$USERI2
 70
     0
  9
$USERI3
 70
     0
  9
$USERI4
 70
     0
  9
$USERI5
 70
     0
  9
$USERR1
 40
0.0
  9
$USERR2
 40
0.0
  9
$USERR3
 40
0.0
  9
$USERR4
 40
0.0
  9
$USERR5
 40
0.0
  9
$WORLDVIEW
 70
     1
  9
$SHADEDGE
 70
     3
  9
$SHADEDIF
 70
    70
  9
$TILEMODE
 70
     1
  9
$MAXACTVP
 70
    16
  9
$PINSBASE
 10
0.0
 20
0.0
 30
0.0
  9
$PLIMCHECK
 70
     0
  9
$PEXTMIN
 10
1.000000000000000E+20
 20
1.000000000000000E+20
 30
1.000000000000000E+20
  9
$PEXTMAX
 10
-1.000000000000000E+20
 20
-1.000000000000000E+20
 30
-1.000000000000000E+20
  9
$PLIMMIN
 10
0.0
 20
0.0
  9
$PLIMMAX
 10
12.0
 20
9.0
  9
$UNITMODE
 70
     0
  9
$VISRETAIN
 70
     0
  9
$PLINEGEN
 70
     0
  9
$PSLTSCALE
 70
     0
  9
$TREEDEPTH
 70
  3020
  9
$CMLSTYLE
  2
Standard
  9
$CMLJUST
 70
     0
  9
$CMLSCALE
 40
1.0
  9
$PROXYGRAPHICS
 70
     1
  9
$MEASUREMENT
 70
     0
  9
$CELWEIGHT
370
    -1
  9
$ENDCAPS
280
     0
  9
$JOINSTYLE
280
     0
  9
$LWDISPLAY
290
     0
  9
$INSUNITS
 70
     0
  9
$HYPERLINKBASE
  1

  9
$STYLESHEET
  1

  9
$XEDIT
290
     1
  9
$CEPSNTYPE
380
     0
  9
$PSTYLEMODE
290
     1
  9
$FINGERPRINTGUID
  2
{D68B0D0D-A558-11D7-B632-000102183313}
  9
$VERSIONGUID
  2
{F1A039C8-1CFC-4FAC-9AB1-F9A7D89D8F06}
  9
$EXTNAMES
290
     1
  9
$PSVPSCALE
 40
0.0
  9
$OLESTARTUP
290
     0
  9
$SORTENTS
280
   127
  9
$INDEXCTL
280
     0
  9
$HIDETEXT
280
     0
  9
$XCLIPFRAME
290
     0
  9
$HALOGAP
280
     0
  9
$OBSCOLOR
 70
   257
  9
$OBSLTYPE
280
     0
  9
$INTERSECTIONDISPLAY
280
     0
  9
$INTERSECTIONCOLOR
 70
   257
  9
$DIMASSOC
280
     1
  9
$PROJECTNAME
  1

  0
ENDSEC
  0
SECTION
  2
CLASSES
  0
CLASS
  1
ACDBDICTIONARYWDFLT
  2
AcDbDictionaryWithDefault
  3
ObjectDBX Classes
 90
        0
 91
        1
280
     0
281
     0
  0
CLASS
  1
DICTIONARYVAR
  2
AcDbDictionaryVar
  3
ObjectDBX Classes
 90
        0
 91
        2
280
     0
281
     0
  0
ENDSEC
  0
SECTION
  2
TABLES
  0
TABLE
  2
VPORT
  5
8
330
0
100
AcDbSymbolTable
 70
     2
  0
VPORT
  5
F10
330
8
100
AcDbSymbolTableRecord
100
AcDbViewportTableRecord
  2
*Active
 70
     0
 10
0.0
 20
0.0
 11
1.0
 21
1.0
 12
296.9999999999999
 22
420.0
 13
0.0
 23
0.0
 14
1.0
 24
1.0
 15
10.0
 25
10.0
 16
0.0
 26
0.0
 36
1.0
 17
0.0
 27
0.0
 37
0.0
 40
840.2039941677626
 41
1.336927223719676
 42
50.0
 43
0.0
 44
0.0
 50
0.0
 51
0.0
 71
     0
 72
  1500
 73
     1
 74
     0
 75
     0
 76
     0
 77
     0
 78
     0
281
     0
 65
     1
110
0.0
120
0.0
130
0.0
111
1.0
121
0.0
131
0.0
112
0.0
122
1.0
132
0.0
 79
     0
146
0.0
  0
ENDTAB
  0
TABLE
  2
LTYPE
  5
5
330
0
100
AcDbSymbolTable
 70
     3
  0
LTYPE
  5
13
330
5
100
AcDbSymbolTableRecord
100
AcDbLinetypeTableRecord
  2
ByBlock
 70
     0
  3

 72
    65
 73
     0
 40
0.0
  0
LTYPE
  5
14
330
5
100
AcDbSymbolTableRecord
100
AcDbLinetypeTableRecord
  2
ByLayer
 70
     0
  3

 72
    65
 73
     0
 40
0.0
  0
LTYPE
  5
15
330
5
100
AcDbSymbolTableRecord
100
AcDbLinetypeTableRecord
  2
Continuous
 70
     0
  3
Solid line
 72
    65
 73
     0
 40
0.0
  0
LTYPE
  5
25
330
5
100
AcDbSymbolTableRecord
100
AcDbLinetypeTableRecord
  2
STRICHPUNKT
 70
     0
  3
__ . __ . __ . __ . __ . __ . __ . __ . __ . __
 72
    65
 73
     4
 40
1.0
 49
0.5
 74
     0
 49
-0.25
 74
     0
 49
0.0
 74
     0
 49
-0.25
 74
     0
  0
LTYPE
  5
E59
330
5
100
AcDbSymbolTableRecord
100
AcDbLinetypeTableRecord
  2
VERDECKT
 70
     0
  3
_ _ _ _ _ _ _ _ _ _ _ _ _ _ _ _ _ _ _ _ _ _ _
 72
    65
 73
     2
 40
0.375
 49
0.25
 74
     0
 49
-0.125
 74
     0
  0
ENDTAB
  0
TABLE
  2
LAYER
  5
2
330
0
100
AcDbSymbolTable
 70
    10
  0
LAYER
  5
10
330
2
100
AcDbSymbolTableRecord
100
AcDbLayerTableRecord
  2
0
 70
     0
 62
     7
  6
Continuous
370
    -3
390
F
  0
LAYER
  5
2B
330
2
100
AcDbSymbolTableRecord
100
AcDbLayerTableRecord
  2
VOLL
 70
     0
 62
     1
  6
Continuous
370
    -3
390
F
  0
LAYER
  5
2C
330
2
100
AcDbSymbolTableRecord
100
AcDbLayerTableRecord
  2
HILF
 70
     0
 62
     2
  6
Continuous
370
    -3
390
F
  0
LAYER
  5
2D
330
2
100
AcDbSymbolTableRecord
100
AcDbLayerTableRecord
  2
MITTEL
 70
     0
 62
     2
  6
STRICHPUNKT
370
    -3
390
F
  0
LAYER
  5
2F
330
2
100
AcDbSymbolTableRecord
100
AcDbLayerTableRecord
  2
BEM
 70
     0
 62
     7
  6
Continuous
370
    -3
390
F
  0
LAYER
  5
30
330
2
100
AcDbSymbolTableRecord
100
AcDbLayerTableRecord
  2
STEMPEL
 70
     0
 62
     3
  6
Continuous
370
    -3
390
F
  0
LAYER
  5
33
330
2
100
AcDbSymbolTableRecord
100
AcDbLayerTableRecord
  2
TEXT
 70
     0
 62
     7
  6
Continuous
370
    -3
390
F
  0
LAYER
  5
570
330
2
100
AcDbSymbolTableRecord
100
AcDbLayerTableRecord
  2
DEFPOINTS
 70
     0
 62
     7
  6
Continuous
290
     0
370
    -3
390
F
  0
LAYER
  5
571
330
2
100
AcDbSymbolTableRecord
100
AcDbLayerTableRecord
  2
SCHRAFF
 70
     0
 62
     7
  6
Continuous
370
    -3
390
F
  0
LAYER
  5
E5A
330
2
100
AcDbSymbolTableRecord
100
AcDbLayerTableRecord
  2
VERDECKT
 70
     0
 62
     6
  6
VERDECKT
370
    -3
390
F
  0
ENDTAB
  0
TABLE
  2
STYLE
  5
3
330
0
100
AcDbSymbolTable
 70
     2
  0
STYLE
  5
11
330
3
100
AcDbSymbolTableRecord
100
AcDbTextStyleTableRecord
  2
STANDARD
 70
     0
 40
0.0
 41
0.8
 50
0.0
 71
     0
 42
3.5
  3
simplex.shx
  4

  0
STYLE
  5
24
330
3
100
AcDbSymbolTableRecord
100
AcDbTextStyleTableRecord
  2
GREEKS
 70
     0
 40
0.0
 41
0.8
 50
0.0
 71
     0
 42
2.5
  3
SIMPLEX.shx
  4

  0
ENDTAB
  0
TABLE
  2
VIEW
  5
6
330
0
100
AcDbSymbolTable
 70
     0
  0
ENDTAB
  0
TABLE
  2
UCS
  5
7
330
0
100
AcDbSymbolTable
 70
     0
  0
ENDTAB
  0
TABLE
  2
APPID
  5
9
330
0
100
AcDbSymbolTable
 70
     1
  0
APPID
  5
12
330
9
100
AcDbSymbolTableRecord
100
AcDbRegAppTableRecord
  2
ACAD
 70
     0
  0
ENDTAB
  0
TABLE
  2
DIMSTYLE
  5
A
330
0
100
AcDbSymbolTable
 70
     1
100
AcDbDimStyleTable
 71
     1
340
A2
  0
DIMSTYLE
105
A2
102
{ACAD_REACTORS
330
946
330
945
330
944
330
93B
330
93A
330
935
330
925
330
803
330
A65
330
A50
330
BF2
330
892
330
DA9
102
}
330
A
100
AcDbSymbolTableRecord
100
AcDbDimStyleTableRecord
  2
Standard
 70
     0
340
11
  0
ENDTAB
  0
TABLE
  2
BLOCK_RECORD
  5
1
330
0
100
AcDbSymbolTable
 70
    20
  0
BLOCK_RECORD
  5
1E
102
{ACAD_XDICTIONARY
360
DB
102
}
330
1
100
AcDbSymbolTableRecord
100
AcDbBlockTableRecord
  2
*Model_Space
340
21
  0
BLOCK_RECORD
  5
1A
102
{ACAD_XDICTIONARY
360
DD
102
}
330
1
100
AcDbSymbolTableRecord
100
AcDbBlockTableRecord
  2
*Paper_Space
340
1D
  0
BLOCK_RECORD
  5
22
330
1
100
AcDbSymbolTableRecord
100
AcDbBlockTableRecord
  2
LOGO
340
0
102
{BLKREFS
331
56
102
}
  0
BLOCK_RECORD
  5
23
330
1
100
AcDbSymbolTableRecord
100
AcDbBlockTableRecord
  2
LORO
340
0
102
{BLKREFS
331
9B
102
}
  0
BLOCK_RECORD
  5
18E
330
1
100
AcDbSymbolTableRecord
100
AcDbBlockTableRecord
  2
*X2
340
0
102
{BLKREFS
331
940
102
}
  0
BLOCK_RECORD
  5
1F5
330
1
100
AcDbSymbolTableRecord
100
AcDbBlockTableRecord
  2
*X3
340
0
102
{BLKREFS
331
941
102
}
  0
BLOCK_RECORD
  5
254
330
1
100
AcDbSymbolTableRecord
100
AcDbBlockTableRecord
  2
*X4
340
0
102
{BLKREFS
331
94C
102
}
  0
BLOCK_RECORD
  5
293
330
1
100
AcDbSymbolTableRecord
100
AcDbBlockTableRecord
  2
*X5
340
0
102
{BLKREFS
331
94A
102
}
  0
BLOCK_RECORD
  5
549
330
1
100
AcDbSymbolTableRecord
100
AcDbBlockTableRecord
  2
*X6
340
0
102
{BLKREFS
331
85C
331
8F5
102
}
  0
BLOCK_RECORD
  5
A7A
330
1
100
AcDbSymbolTableRecord
100
AcDbBlockTableRecord
  2
*D7
340
0
  0
BLOCK_RECORD
  5
A87
330
1
100
AcDbSymbolTableRecord
100
AcDbBlockTableRecord
  2
*D8
340
0
  0
BLOCK_RECORD
  5
A94
330
1
100
AcDbSymbolTableRecord
100
AcDbBlockTableRecord
  2
*D9
340
0
  0
BLOCK_RECORD
  5
AA1
330
1
100
AcDbSymbolTableRecord
100
AcDbBlockTableRecord
  2
*D10
340
0
  0
BLOCK_RECORD
  5
AAE
330
1
100
AcDbSymbolTableRecord
100
AcDbBlockTableRecord
  2
*D11
340
0
  0
BLOCK_RECORD
  5
ABB
330
1
100
AcDbSymbolTableRecord
100
AcDbBlockTableRecord
  2
*D12
340
0
  0
BLOCK_RECORD
  5
AC8
330
1
100
AcDbSymbolTableRecord
100
AcDbBlockTableRecord
  2
*D13
340
0
  0
BLOCK_RECORD
  5
AD5
330
1
100
AcDbSymbolTableRecord
100
AcDbBlockTableRecord
  2
*D14
340
0
  0
BLOCK_RECORD
  5
AE2
330
1
100
AcDbSymbolTableRecord
100
AcDbBlockTableRecord
  2
*D15
340
0
  0
BLOCK_RECORD
  5
AEF
330
1
100
AcDbSymbolTableRecord
100
AcDbBlockTableRecord
  2
*D16
340
0
  0
BLOCK_RECORD
  5
AFC
330
1
100
AcDbSymbolTableRecord
100
AcDbBlockTableRecord
  2
*D17
340
0
  0
BLOCK_RECORD
  5
BF3
330
1
100
AcDbSymbolTableRecord
100
AcDbBlockTableRecord
  2
*D18
340
0
  0
BLOCK_RECORD
  5
DAA
330
1
100
AcDbSymbolTableRecord
100
AcDbBlockTableRecord
  2
*D19
340
0
  0
ENDTAB
  0
ENDSEC
  0
SECTION
  2
BLOCKS
  0
BLOCK
  5
37
330
1E
100
AcDbEntity
  8
0
100
AcDbBlockBegin
  2
*Model_Space
 70
     0
 10
0.0
 20
0.0
 30
0.0
  3
*Model_Space
  1

  0
ENDBLK
  5
38
330
1E
100
AcDbEntity
  8
0
100
AcDbBlockEnd
  0
BLOCK
  5
35
330
1A
100
AcDbEntity
 67
     1
  8
0
100
AcDbBlockBegin
  2
*Paper_Space
 70
     0
 10
0.0
 20
0.0
 30
0.0
  3
*Paper_Space
  1

  0
ENDBLK
  5
36
330
1A
100
AcDbEntity
 67
     1
  8
0
100
AcDbBlockEnd
  0
BLOCK
  5
39
330
22
100
AcDbEntity
  8
0
100
AcDbBlockBegin
  2
LOGO
 70
     0
 10
0.0
 20
0.0
 30
0.0
  3
LOGO
  1

  0
ARC
  5
3A
330
22
100
AcDbEntity
  8
0
100
AcDbCircle
 10
11.59973089678112
 20
-9.271599258481501
 30
0.0
 40
4.5
100
AcDbArc
 50
270.0
 51
231.0575587310159
  0
LINE
  5
3B
330
22
100
AcDbEntity
  8
0
100
AcDbLine
 10
3.599730896781125
 20
-4.771599258481529
 30
0.0
 11
3.599730896781153
 21
-11.77159925848133
 31
0.0
  0
LINE
  5
3C
330
22
100
AcDbEntity
  8
0
100
AcDbLine
 10
2.599730896781125
 20
-4.771599258481529
 30
0.0
 11
2.599730896781153
 21
-11.77159925848133
 31
0.0
  0
CIRCLE
  5
3D
330
22
100
AcDbEntity
  8
0
100
AcDbCircle
 10
11.59973089678112
 20
-9.271599258481501
 30
0.0
 40
3.5
  0
ARC
  5
3E
330
22
100
AcDbEntity
  8
0
100
AcDbCircle
 10
31.59973089678115
 20
-9.271599258481472
 30
0.0
 40
4.5
100
AcDbArc
 50
270.0
 51
231.0575587310182
  0
LINE
  5
3F
330
22
100
AcDbEntity
  8
0
100
AcDbLine
 10
17.59973089678112
 20
-4.771599258481472
 30
0.0
 11
17.59973089678115
 21
-13.77159925848147
 31
0.0
  0
ARC
  5
40
330
22
100
AcDbEntity
  8
0
100
AcDbCircle
 10
22.59973089678116
 20
-7.271599258481472
 30
0.0
 40
2.5
100
AcDbArc
 50
293.1161887722295
 51
90.0
  0
CIRCLE
  5
41
330
22
100
AcDbEntity
  8
0
100
AcDbCircle
 10
31.59973089678115
 20
-9.271599258481472
 30
0.0
 40
3.5
  0
ARC
  5
42
330
22
100
AcDbEntity
  8
0
100
AcDbCircle
 10
4.599730896781153
 20
-11.77159925848133
 30
0.0
 40
1.0
100
AcDbArc
 50
180.0
 51
270.0
  0
ARC
  5
43
330
22
100
AcDbEntity
  8
0
100
AcDbCircle
 10
4.599730896781153
 20
-11.77159925848133
 30
0.0
 40
2.0
100
AcDbArc
 50
179.9999999999992
 51
270.0
  0
LINE
  5
44
330
22
100
AcDbEntity
  8
0
100
AcDbLine
 10
11.59973089678115
 20
-13.77159925848144
 30
0.0
 11
4.599730896781153
 21
-13.77159925848147
 31
0.0
  0
LINE
  5
45
330
22
100
AcDbEntity
  8
0
100
AcDbLine
 10
8.771303772034769
 20
-12.77159925848136
 30
0.0
 11
4.599730896781153
 21
-12.77159925848133
 31
0.0
  0
LINE
  5
46
330
22
100
AcDbEntity
  8
0
100
AcDbLine
 10
31.59973089678115
 20
-13.77159925848147
 30
0.0
 11
23.6715276665056
 21
-13.77159925848144
 31
0.0
  0
LINE
  5
47
330
22
100
AcDbEntity
  8
0
100
AcDbLine
 10
23.56565672307022
 20
-9.51278021337896
 30
0.0
 11
24.4388546544846
 21
-12.77159925848144
 31
0.0
  0
LINE
  5
48
330
22
100
AcDbEntity
  8
0
100
AcDbLine
 10
22.59973089678116
 20
-9.771599258481472
 30
0.0
 11
18.59973089678112
 21
-9.771599258481472
 31
0.0
  0
LINE
  5
49
330
22
100
AcDbEntity
  8
0
100
AcDbLine
 10
18.59973089678115
 20
-13.77159925848144
 30
0.0
 11
17.59973089678115
 21
-13.77159925848144
 31
0.0
  0
LINE
  5
4A
330
22
100
AcDbEntity
  8
0
100
AcDbLine
 10
18.59973089678115
 20
-9.771599258481472
 30
0.0
 11
18.59973089678115
 21
-13.77159925848144
 31
0.0
  0
LINE
  5
4B
330
22
100
AcDbEntity
  8
0
100
AcDbLine
 10
22.59973089678116
 20
-9.771599258481472
 30
0.0
 11
23.67152766650562
 21
-13.77159925848147
 31
0.0
  0
ARC
  5
4C
330
22
100
AcDbEntity
  8
0
100
AcDbCircle
 10
22.59973089678116
 20
-7.271599258481472
 30
0.0
 40
2.5
100
AcDbArc
 50
270.0
 51
270.0000000000007
  0
LINE
  5
4D
330
22
100
AcDbEntity
  8
0
100
AcDbLine
 10
28.77130377203494
 20
-12.77159925848147
 30
0.0
 11
24.43885465448463
 21
-12.77159925848144
 31
0.0
  0
LINE
  5
4E
330
22
100
AcDbEntity
  8
0
100
AcDbLine
 10
3.599730896781125
 20
-4.771599258481472
 30
0.0
 11
2.599730896781125
 21
-4.771599258481472
 31
0.0
  0
LINE
  5
4F
330
22
100
AcDbEntity
  8
0
100
AcDbLine
 10
22.59973089678116
 20
-8.771599258481472
 30
0.0
 11
18.59973089678115
 21
-8.771599258481472
 31
0.0
  0
LINE
  5
50
330
22
100
AcDbEntity
  8
0
100
AcDbLine
 10
22.59973089678116
 20
-5.771599258481472
 30
0.0
 11
18.59973089678115
 21
-5.771599258481472
 31
0.0
  0
LINE
  5
51
330
22
100
AcDbEntity
  8
0
100
AcDbLine
 10
22.59973089678116
 20
-4.771599258481472
 30
0.0
 11
17.59973089678115
 21
-4.771599258481472
 31
0.0
  0
LINE
  5
52
330
22
100
AcDbEntity
  8
0
100
AcDbLine
 10
18.59973089678115
 20
-5.771599258481472
 30
0.0
 11
18.59973089678115
 21
-8.771599258481472
 31
0.0
  0
ARC
  5
53
330
22
100
AcDbEntity
  8
0
100
AcDbCircle
 10
22.59973089678116
 20
-7.271599258481472
 30
0.0
 40
1.5
100
AcDbArc
 50
270.0
 51
90.0
  0
ENDBLK
  5
54
330
22
100
AcDbEntity
  8
0
100
AcDbBlockEnd
  0
BLOCK
  5
55
330
23
100
AcDbEntity
  8
0
100
AcDbBlockBegin
  2
LORO
 70
     0
 10
0.0
 20
0.0
 30
0.0
  3
LORO
  1

  0
INSERT
  5
56
330
23
100
AcDbEntity
  8
STEMPEL
100
AcDbBlockReference
  2
LOGO
 10
-1.748032802467321
 20
3.771489518552062
 30
0.0
  0
ENDBLK
  5
57
330
23
100
AcDbEntity
  8
0
100
AcDbBlockEnd
  0
BLOCK
  5
18F
330
18E
100
AcDbEntity
  8
0
100
AcDbBlockBegin
  2
*X2
 70
     1
 10
0.0
 20
0.0
 30
0.0
  3
*X2
  1

  0
LINE
  5
190
330
18E
100
AcDbEntity
  8
0
 62
     0
100
AcDbLine
 10
143.1071527604259
 20
391.2
 30
0.0
 11
147.4211499863993
 21
391.2
 31
0.0
  0
LINE
  5
191
330
18E
100
AcDbEntity
  8
0
 62
     0
100
AcDbLine
 10
341.1211499863991
 20
391.2
 30
0.0
 11
345.4351472123765
 21
391.2
 31
0.0
  0
LINE
  5
192
330
18E
100
AcDbEntity
  8
0
 62
     0
100
AcDbLine
 10
143.0500953744069
 20
391.3
 30
0.0
 11
147.4211499863993
 21
391.3
 31
0.0
  0
LINE
  5
193
330
18E
100
AcDbEntity
  8
0
 62
     0
100
AcDbLine
 10
341.1211499863991
 20
391.3
 30
0.0
 11
345.4922045983955
 21
391.3
 31
0.0
  0
LINE
  5
194
330
18E
100
AcDbEntity
  8
0
 62
     0
100
AcDbLine
 10
142.9960324991076
 20
391.4000000000001
 30
0.0
 11
147.4211499863993
 21
391.4000000000001
 31
0.0
  0
LINE
  5
195
330
18E
100
AcDbEntity
  8
0
 62
     0
100
AcDbLine
 10
341.1211499863991
 20
391.4000000000001
 30
0.0
 11
345.5462674736946
 21
391.4000000000001
 31
0.0
  0
LINE
  5
196
330
18E
100
AcDbEntity
  8
0
 62
     0
100
AcDbLine
 10
142.9448556337401
 20
391.5
 30
0.0
 11
147.4211499863993
 21
391.5
 31
0.0
  0
LINE
  5
197
330
18E
100
AcDbEntity
  8
0
 62
     0
100
AcDbLine
 10
341.1211499863991
 20
391.5
 30
0.0
 11
345.5974443390621
 21
391.5
 31
0.0
  0
LINE
  5
198
330
18E
100
AcDbEntity
  8
0
 62
     0
100
AcDbLine
 10
142.8964668497628
 20
391.6
 30
0.0
 11
147.4211499863993
 21
391.6
 31
0.0
  0
LINE
  5
199
330
18E
100
AcDbEntity
  8
0
 62
     0
100
AcDbLine
 10
341.1211499863991
 20
391.6
 30
0.0
 11
345.6458331230394
 21
391.6
 31
0.0
  0
LINE
  5
19A
330
18E
100
AcDbEntity
  8
0
 62
     0
100
AcDbLine
 10
142.8507775899444
 20
391.7000000000001
 30
0.0
 11
147.4211499863993
 21
391.7000000000001
 31
0.0
  0
LINE
  5
19B
330
18E
100
AcDbEntity
  8
0
 62
     0
100
AcDbLine
 10
341.1211499863991
 20
391.7000000000001
 30
0.0
 11
345.6915223828578
 21
391.7000000000001
 31
0.0
  0
LINE
  5
19C
330
18E
100
AcDbEntity
  8
0
 62
     0
100
AcDbLine
 10
142.8077076493162
 20
391.8
 30
0.0
 11
147.4211499863993
 21
391.8
 31
0.0
  0
LINE
  5
19D
330
18E
100
AcDbEntity
  8
0
 62
     0
100
AcDbLine
 10
341.1211499863991
 20
391.8
 30
0.0
 11
345.734592323486
 21
391.8
 31
0.0
  0
LINE
  5
19E
330
18E
100
AcDbEntity
  8
0
 62
     0
100
AcDbLine
 10
142.7671843061536
 20
391.9
 30
0.0
 11
147.4211499863993
 21
391.9
 31
0.0
  0
LINE
  5
19F
330
18E
100
AcDbEntity
  8
0
 62
     0
100
AcDbLine
 10
341.1211499863991
 20
391.9
 30
0.0
 11
345.7751156666486
 21
391.9
 31
0.0
  0
LINE
  5
1A0
330
18E
100
AcDbEntity
  8
0
 62
     0
100
AcDbLine
 10
142.7291415776025
 20
392.0
 30
0.0
 11
147.4211499863993
 21
392.0
 31
0.0
  0
LINE
  5
1A1
330
18E
100
AcDbEntity
  8
0
 62
     0
100
AcDbLine
 10
341.1211499863991
 20
392.0
 30
0.0
 11
345.8131583951995
 21
392.0
 31
0.0
  0
LINE
  5
1A2
330
18E
100
AcDbEntity
  8
0
 62
     0
100
AcDbLine
 10
142.6935195795746
 20
392.1
 30
0.0
 11
147.4211499863993
 21
392.1
 31
0.0
  0
LINE
  5
1A3
330
18E
100
AcDbEntity
  8
0
 62
     0
100
AcDbLine
 10
341.1211499863991
 20
392.1
 30
0.0
 11
345.8487803932275
 21
392.1
 31
0.0
  0
LINE
  5
1A4
330
18E
100
AcDbEntity
  8
0
 62
     0
100
AcDbLine
 10
142.6602639744423
 20
392.2
 30
0.0
 11
147.4211499863993
 21
392.2
 31
0.0
  0
LINE
  5
1A5
330
18E
100
AcDbEntity
  8
0
 62
     0
100
AcDbLine
 10
341.1211499863991
 20
392.2
 30
0.0
 11
345.8820359983597
 21
392.2
 31
0.0
  0
LINE
  5
1A6
330
18E
100
AcDbEntity
  8
0
 62
     0
100
AcDbLine
 10
142.6293254931439
 20
392.3
 30
0.0
 11
147.4211499863993
 21
392.3
 31
0.0
  0
LINE
  5
1A7
330
18E
100
AcDbEntity
  8
0
 62
     0
100
AcDbLine
 10
341.1211499863991
 20
392.3
 30
0.0
 11
345.912974479658
 21
392.3
 31
0.0
  0
LINE
  5
1A8
330
18E
100
AcDbEntity
  8
0
 62
     0
100
AcDbLine
 10
142.6006595207437
 20
392.4
 30
0.0
 11
147.4211499863993
 21
392.4
 31
0.0
  0
LINE
  5
1A9
330
18E
100
AcDbEntity
  8
0
 62
     0
100
AcDbLine
 10
341.1211499863991
 20
392.4
 30
0.0
 11
345.9416404520582
 21
392.4
 31
0.0
  0
LINE
  5
1AA
330
18E
100
AcDbEntity
  8
0
 62
     0
100
AcDbLine
 10
142.5742257364455
 20
392.5
 30
0.0
 11
147.4211499863993
 21
392.5
 31
0.0
  0
LINE
  5
1AB
330
18E
100
AcDbEntity
  8
0
 62
     0
100
AcDbLine
 10
341.1211499863991
 20
392.5
 30
0.0
 11
345.9680742363565
 21
392.5
 31
0.0
  0
LINE
  5
1AC
330
18E
100
AcDbEntity
  8
0
 62
     0
100
AcDbLine
 10
142.5499878006263
 20
392.6
 30
0.0
 11
147.4211499863993
 21
392.6
 31
0.0
  0
LINE
  5
1AD
330
18E
100
AcDbEntity
  8
0
 62
     0
100
AcDbLine
 10
341.1211499863991
 20
392.6
 30
0.0
 11
345.9923121721756
 21
392.6
 31
0.0
  0
LINE
  5
1AE
330
18E
100
AcDbEntity
  8
0
 62
     0
100
AcDbLine
 10
142.5279130827313
 20
392.7000000000001
 30
0.0
 11
147.4211499863993
 21
392.7000000000001
 31
0.0
  0
LINE
  5
1AF
330
18E
100
AcDbEntity
  8
0
 62
     0
100
AcDbLine
 10
341.1211499863991
 20
392.7000000000001
 30
0.0
 11
346.0143868900706
 21
392.7000000000001
 31
0.0
  0
LINE
  5
1B0
330
18E
100
AcDbEntity
  8
0
 62
     0
100
AcDbLine
 10
142.5079724249089
 20
392.8
 30
0.0
 11
147.4211499863993
 21
392.8
 31
0.0
  0
LINE
  5
1B1
330
18E
100
AcDbEntity
  8
0
 62
     0
100
AcDbLine
 10
341.1211499863991
 20
392.8
 30
0.0
 11
346.034327547893
 21
392.8
 31
0.0
  0
LINE
  5
1B2
330
18E
100
AcDbEntity
  8
0
 62
     0
100
AcDbLine
 10
142.4901399371247
 20
392.9
 30
0.0
 11
147.4211499863993
 21
392.9
 31
0.0
  0
LINE
  5
1B3
330
18E
100
AcDbEntity
  8
0
 62
     0
100
AcDbLine
 10
341.1211499863991
 20
392.9
 30
0.0
 11
346.0521600356772
 21
392.9
 31
0.0
  0
LINE
  5
1B4
330
18E
100
AcDbEntity
  8
0
 62
     0
100
AcDbLine
 10
142.4743928201983
 20
393.0
 30
0.0
 11
147.4211499863993
 21
393.0
 31
0.0
  0
LINE
  5
1B5
330
18E
100
AcDbEntity
  8
0
 62
     0
100
AcDbLine
 10
341.1211499863991
 20
393.0
 30
0.0
 11
346.0679071526036
 21
393.0
 31
0.0
  0
LINE
  5
1B6
330
18E
100
AcDbEntity
  8
0
 62
     0
100
AcDbLine
 10
142.4607112138031
 20
393.1
 30
0.0
 11
147.4211499863993
 21
393.1
 31
0.0
  0
LINE
  5
1B7
330
18E
100
AcDbEntity
  8
0
 62
     0
100
AcDbLine
 10
341.1211499863991
 20
393.1
 30
0.0
 11
346.0815887589987
 21
393.1
 31
0.0
  0
LINE
  5
1B8
330
18E
100
AcDbEntity
  8
0
 62
     0
100
AcDbLine
 10
142.4490780669688
 20
393.2
 30
0.0
 11
147.4211499863993
 21
393.2
 31
0.0
  0
LINE
  5
1B9
330
18E
100
AcDbEntity
  8
0
 62
     0
100
AcDbLine
 10
341.1211499863991
 20
393.2
 30
0.0
 11
346.0932219058331
 21
393.2
 31
0.0
  0
LINE
  5
1BA
330
18E
100
AcDbEntity
  8
0
 62
     0
100
AcDbLine
 10
142.4394790290494
 20
393.3
 30
0.0
 11
147.4211499863993
 21
393.3
 31
0.0
  0
LINE
  5
1BB
330
18E
100
AcDbEntity
  8
0
 62
     0
100
AcDbLine
 10
341.1211499863991
 20
393.3
 30
0.0
 11
346.1028209437525
 21
393.3
 31
0.0
  0
LINE
  5
1BC
330
18E
100
AcDbEntity
  8
0
 62
     0
100
AcDbLine
 10
142.4319023594902
 20
393.4000000000001
 30
0.0
 11
147.4211499863993
 21
393.4000000000001
 31
0.0
  0
LINE
  5
1BD
330
18E
100
AcDbEntity
  8
0
 62
     0
100
AcDbLine
 10
341.1211499863991
 20
393.4000000000001
 30
0.0
 11
346.1103976133116
 21
393.4000000000001
 31
0.0
  0
LINE
  5
1BE
330
18E
100
AcDbEntity
  8
0
 62
     0
100
AcDbLine
 10
142.4263388550419
 20
393.5
 30
0.0
 11
147.4211499863993
 21
393.5
 31
0.0
  0
LINE
  5
1BF
330
18E
100
AcDbEntity
  8
0
 62
     0
100
AcDbLine
 10
341.1211499863991
 20
393.5
 30
0.0
 11
346.11596111776
 21
393.5
 31
0.0
  0
LINE
  5
1C0
330
18E
100
AcDbEntity
  8
0
 62
     0
100
AcDbLine
 10
142.4227817933541
 20
393.6
 30
0.0
 11
147.4211499863993
 21
393.6
 31
0.0
  0
LINE
  5
1C1
330
18E
100
AcDbEntity
  8
0
 62
     0
100
AcDbLine
 10
341.1211499863991
 20
393.6
 30
0.0
 11
346.1195181794478
 21
393.6
 31
0.0
  0
LINE
  5
1C2
330
18E
100
AcDbEntity
  8
0
 62
     0
100
AcDbLine
 10
142.4212268921347
 20
393.7000000000001
 30
0.0
 11
147.4211499863993
 21
393.7000000000001
 31
0.0
  0
LINE
  5
1C3
330
18E
100
AcDbEntity
  8
0
 62
     0
100
AcDbLine
 10
341.1211499863991
 20
393.7000000000001
 30
0.0
 11
346.1210730806671
 21
393.7000000000001
 31
0.0
  0
LINE
  5
1C4
330
18E
100
AcDbEntity
  8
0
 62
     0
100
AcDbLine
 10
143.1673251533353
 20
391.1000000000001
 30
0.0
 11
147.4211499863993
 21
391.1000000000001
 31
0.0
  0
LINE
  5
1C5
330
18E
100
AcDbEntity
  8
0
 62
     0
100
AcDbLine
 10
341.1211499863991
 20
391.1000000000001
 30
0.0
 11
345.3749748194671
 21
391.1000000000001
 31
0.0
  0
LINE
  5
1C6
330
18E
100
AcDbEntity
  8
0
 62
     0
100
AcDbLine
 10
143.2307467414744
 20
391.0
 30
0.0
 11
147.4211499863993
 21
391.0
 31
0.0
  0
LINE
  5
1C7
330
18E
100
AcDbEntity
  8
0
 62
     0
100
AcDbLine
 10
341.1211499863991
 20
391.0
 30
0.0
 11
345.3115532313282
 21
391.0
 31
0.0
  0
LINE
  5
1C8
330
18E
100
AcDbEntity
  8
0
 62
     0
100
AcDbLine
 10
143.2975674420862
 20
390.9
 30
0.0
 11
147.4211499863993
 21
390.9
 31
0.0
  0
LINE
  5
1C9
330
18E
100
AcDbEntity
  8
0
 62
     0
100
AcDbLine
 10
341.1211499863991
 20
390.9
 30
0.0
 11
345.2447325307164
 21
390.9
 31
0.0
  0
LINE
  5
1CA
330
18E
100
AcDbEntity
  8
0
 62
     0
100
AcDbLine
 10
143.3679553643204
 20
390.8
 30
0.0
 11
147.4211499863993
 21
390.8
 31
0.0
  0
LINE
  5
1CB
330
18E
100
AcDbEntity
  8
0
 62
     0
100
AcDbLine
 10
341.1211499863991
 20
390.8
 30
0.0
 11
345.1743446084822
 21
390.8
 31
0.0
  0
LINE
  5
1CC
330
18E
100
AcDbEntity
  8
0
 62
     0
100
AcDbLine
 10
143.4420998121573
 20
390.7
 30
0.0
 11
147.4211499863993
 21
390.7
 31
0.0
  0
LINE
  5
1CD
330
18E
100
AcDbEntity
  8
0
 62
     0
100
AcDbLine
 10
341.1211499863991
 20
390.7
 30
0.0
 11
345.1002001606454
 21
390.7
 31
0.0
  0
LINE
  5
1CE
330
18E
100
AcDbEntity
  8
0
 62
     0
100
AcDbLine
 10
143.5202149787606
 20
390.6
 30
0.0
 11
147.4211499863993
 21
390.6
 31
0.0
  0
LINE
  5
1CF
330
18E
100
AcDbEntity
  8
0
 62
     0
100
AcDbLine
 10
341.1211499863991
 20
390.6
 30
0.0
 11
345.0220849940422
 21
390.6
 31
0.0
  0
LINE
  5
1D0
330
18E
100
AcDbEntity
  8
0
 62
     0
100
AcDbLine
 10
143.6025445369575
 20
390.5
 30
0.0
 11
147.4211499863993
 21
390.5
 31
0.0
  0
LINE
  5
1D1
330
18E
100
AcDbEntity
  8
0
 62
     0
100
AcDbLine
 10
341.1211499863991
 20
390.5
 30
0.0
 11
344.9397554358454
 21
390.5
 31
0.0
  0
LINE
  5
1D2
330
18E
100
AcDbEntity
  8
0
 62
     0
100
AcDbLine
 10
143.6893674065599
 20
390.4
 30
0.0
 11
147.4211499863993
 21
390.4
 31
0.0
  0
LINE
  5
1D3
330
18E
100
AcDbEntity
  8
0
 62
     0
100
AcDbLine
 10
341.1211499863991
 20
390.4
 30
0.0
 11
344.8529325662431
 21
390.4
 31
0.0
  0
LINE
  5
1D4
330
18E
100
AcDbEntity
  8
0
 62
     0
100
AcDbLine
 10
143.7810050898494
 20
390.3
 30
0.0
 11
147.4211499863993
 21
390.3
 31
0.0
  0
LINE
  5
1D5
330
18E
100
AcDbEntity
  8
0
 62
     0
100
AcDbLine
 10
341.1211499863991
 20
390.3
 30
0.0
 11
344.7612948829537
 21
390.3
 31
0.0
  0
LINE
  5
1D6
330
18E
100
AcDbEntity
  8
0
 62
     0
100
AcDbLine
 10
143.8778311307832
 20
390.2000000000001
 30
0.0
 11
147.4211499863993
 21
390.2000000000001
 31
0.0
  0
LINE
  5
1D7
330
18E
100
AcDbEntity
  8
0
 62
     0
100
AcDbLine
 10
341.1211499863991
 20
390.2000000000001
 30
0.0
 11
344.66446884202
 21
390.2000000000001
 31
0.0
  0
LINE
  5
1D8
330
18E
100
AcDbEntity
  8
0
 62
     0
100
AcDbLine
 10
143.9802835029027
 20
390.1
 30
0.0
 11
147.4211499863993
 21
390.1
 31
0.0
  0
LINE
  5
1D9
330
18E
100
AcDbEntity
  8
0
 62
     0
100
AcDbLine
 10
341.1211499863991
 20
390.1
 30
0.0
 11
344.5620164699007
 21
390.1
 31
0.0
  0
LINE
  5
1DA
330
18E
100
AcDbEntity
  8
0
 62
     0
100
AcDbLine
 10
144.0888811194056
 20
390.0
 30
0.0
 11
147.4211499863993
 21
390.0
 31
0.0
  0
LINE
  5
1DB
330
18E
100
AcDbEntity
  8
0
 62
     0
100
AcDbLine
 10
341.1211499863991
 20
390.0
 30
0.0
 11
344.453418853398
 21
390.0
 31
0.0
  0
LINE
  5
1DC
330
18E
100
AcDbEntity
  8
0
 62
     0
100
AcDbLine
 10
144.2042462814958
 20
389.9
 30
0.0
 11
147.4211499863993
 21
389.9
 31
0.0
  0
LINE
  5
1DD
330
18E
100
AcDbEntity
  8
0
 62
     0
100
AcDbLine
 10
341.1211499863991
 20
389.9
 30
0.0
 11
344.338053691308
 21
389.9
 31
0.0
  0
LINE
  5
1DE
330
18E
100
AcDbEntity
  8
0
 62
     0
100
AcDbLine
 10
144.3271359122058
 20
389.8
 30
0.0
 11
147.4211499863993
 21
389.8
 31
0.0
  0
LINE
  5
1DF
330
18E
100
AcDbEntity
  8
0
 62
     0
100
AcDbLine
 10
341.1211499863991
 20
389.8
 30
0.0
 11
344.2151640605981
 21
389.8
 31
0.0
  0
LINE
  5
1E0
330
18E
100
AcDbEntity
  8
0
 62
     0
100
AcDbLine
 10
144.4584861958227
 20
389.7000000000001
 30
0.0
 11
147.4211499863993
 21
389.7000000000001
 31
0.0
  0
LINE
  5
1E1
330
18E
100
AcDbEntity
  8
0
 62
     0
100
AcDbLine
 10
341.1211499863991
 20
389.7000000000001
 30
0.0
 11
344.0838137769815
 21
389.7000000000001
 31
0.0
  0
LINE
  5
1E2
330
18E
100
AcDbEntity
  8
0
 62
     0
100
AcDbLine
 10
144.5994784284962
 20
389.6
 30
0.0
 11
147.4211499863993
 21
389.6
 31
0.0
  0
LINE
  5
1E3
330
18E
100
AcDbEntity
  8
0
 62
     0
100
AcDbLine
 10
341.1211499863991
 20
389.6
 30
0.0
 11
343.9428215443083
 21
389.6
 31
0.0
  0
LINE
  5
1E4
330
18E
100
AcDbEntity
  8
0
 62
     0
100
AcDbLine
 10
144.7516399142391
 20
389.5
 30
0.0
 11
147.4211499863993
 21
389.5
 31
0.0
  0
LINE
  5
1E5
330
18E
100
AcDbEntity
  8
0
 62
     0
100
AcDbLine
 10
341.1211499863991
 20
389.5
 30
0.0
 11
343.7906600585658
 21
389.5
 31
0.0
  0
LINE
  5
1E6
330
18E
100
AcDbEntity
  8
0
 62
     0
100
AcDbLine
 10
144.9170058871009
 20
389.4000000000001
 30
0.0
 11
147.4211499863993
 21
389.4000000000001
 31
0.0
  0
LINE
  5
1E7
330
18E
100
AcDbEntity
  8
0
 62
     0
100
AcDbLine
 10
341.1211499863991
 20
389.4000000000001
 30
0.0
 11
343.6252940857043
 21
389.4000000000001
 31
0.0
  0
LINE
  5
1E8
330
18E
100
AcDbEntity
  8
0
 62
     0
100
AcDbLine
 10
145.0983948734491
 20
389.3
 30
0.0
 11
147.4211499863993
 21
389.3
 31
0.0
  0
LINE
  5
1E9
330
18E
100
AcDbEntity
  8
0
 62
     0
100
AcDbLine
 10
341.1211499863991
 20
389.3
 30
0.0
 11
343.4439050993568
 21
389.3
 31
0.0
  0
LINE
  5
1EA
330
18E
100
AcDbEntity
  8
0
 62
     0
100
AcDbLine
 10
145.299913328357
 20
389.2
 30
0.0
 11
147.4211499863993
 21
389.2
 31
0.0
  0
LINE
  5
1EB
330
18E
100
AcDbEntity
  8
0
 62
     0
100
AcDbLine
 10
341.1211499863991
 20
389.2
 30
0.0
 11
343.2423866444496
 21
389.2
 31
0.0
  0
LINE
  5
1EC
330
18E
100
AcDbEntity
  8
0
 62
     0
100
AcDbLine
 10
145.5279784135861
 20
389.1
 30
0.0
 11
147.4211499863993
 21
389.1
 31
0.0
  0
LINE
  5
1ED
330
18E
100
AcDbEntity
  8
0
 62
     0
100
AcDbLine
 10
341.1211499863991
 20
389.1
 30
0.0
 11
343.0143215592214
 21
389.1
 31
0.0
  0
LINE
  5
1EE
330
18E
100
AcDbEntity
  8
0
 62
     0
100
AcDbLine
 10
145.7937126607877
 20
389.0
 30
0.0
 11
147.4211499863993
 21
389.0
 31
0.0
  0
LINE
  5
1EF
330
18E
100
AcDbEntity
  8
0
 62
     0
100
AcDbLine
 10
341.1211499863991
 20
389.0
 30
0.0
 11
342.7485873120213
 21
389.0
 31
0.0
  0
LINE
  5
1F0
330
18E
100
AcDbEntity
  8
0
 62
     0
100
AcDbLine
 10
146.1199943871415
 20
388.9
 30
0.0
 11
147.4211499863993
 21
388.9
 31
0.0
  0
LINE
  5
1F1
330
18E
100
AcDbEntity
  8
0
 62
     0
100
AcDbLine
 10
341.1211499863991
 20
388.9
 30
0.0
 11
342.4223055856702
 21
388.9
 31
0.0
  0
LINE
  5
1F2
330
18E
100
AcDbEntity
  8
0
 62
     0
100
AcDbLine
 10
146.5741201532969
 20
388.8
 30
0.0
 11
147.4211499863993
 21
388.8
 31
0.0
  0
LINE
  5
1F3
330
18E
100
AcDbEntity
  8
0
 62
     0
100
AcDbLine
 10
341.1211499863991
 20
388.8
 30
0.0
 11
341.9681798195219
 21
388.8
 31
0.0
  0
ENDBLK
  5
1F4
330
18E
100
AcDbEntity
  8
0
100
AcDbBlockEnd
  0
BLOCK
  5
1F6
330
1F5
100
AcDbEntity
  8
0
100
AcDbBlockBegin
  2
*X3
 70
     1
 10
0.0
 20
0.0
 30
0.0
  3
*X3
  1

  0
LINE
  5
1F7
330
1F5
100
AcDbEntity
  8
0
 62
     0
100
AcDbLine
 10
146.9875595554293
 20
318.1
 30
0.0
 11
149.8746878117228
 21
318.1
 31
0.0
  0
LINE
  5
1F8
330
1F5
100
AcDbEntity
  8
0
 62
     0
100
AcDbLine
 10
338.6676121610756
 20
318.1
 30
0.0
 11
341.5547404173706
 21
318.1
 31
0.0
  0
LINE
  5
1F9
330
1F5
100
AcDbEntity
  8
0
 62
     0
100
AcDbLine
 10
146.9679315434132
 20
318.2
 30
0.0
 11
149.9378457064597
 21
318.2
 31
0.0
  0
LINE
  5
1FA
330
1F5
100
AcDbEntity
  8
0
 62
     0
100
AcDbLine
 10
338.6044542663388
 20
318.2
 30
0.0
 11
341.5743684293866
 21
318.2
 31
0.0
  0
LINE
  5
1FB
330
1F5
100
AcDbEntity
  8
0
 62
     0
100
AcDbLine
 10
146.9517989584291
 20
318.3
 30
0.0
 11
150.0010036011965
 21
318.3
 31
0.0
  0
LINE
  5
1FC
330
1F5
100
AcDbEntity
  8
0
 62
     0
100
AcDbLine
 10
338.5412963716019
 20
318.3
 30
0.0
 11
341.5905010143707
 21
318.3
 31
0.0
  0
LINE
  5
1FD
330
1F5
100
AcDbEntity
  8
0
 62
     0
100
AcDbLine
 10
146.9391050701343
 20
318.4000000000001
 30
0.0
 11
150.0641614959334
 21
318.4000000000001
 31
0.0
  0
LINE
  5
1FE
330
1F5
100
AcDbEntity
  8
0
 62
     0
100
AcDbLine
 10
338.4781384768651
 20
318.4000000000001
 30
0.0
 11
341.6031949026654
 21
318.4000000000001
 31
0.0
  0
LINE
  5
1FF
330
1F5
100
AcDbEntity
  8
0
 62
     0
100
AcDbLine
 10
146.9298061014647
 20
318.5
 30
0.0
 11
150.1273193906702
 21
318.5
 31
0.0
  0
LINE
  5
200
330
1F5
100
AcDbEntity
  8
0
 62
     0
100
AcDbLine
 10
338.4149805821283
 20
318.5
 30
0.0
 11
341.6124938713351
 21
318.5
 31
0.0
  0
LINE
  5
201
330
1F5
100
AcDbEntity
  8
0
 62
     0
100
AcDbLine
 10
146.9238704543486
 20
318.6
 30
0.0
 11
150.190477285407
 21
318.6
 31
0.0
  0
LINE
  5
202
330
1F5
100
AcDbEntity
  8
0
 62
     0
100
AcDbLine
 10
338.3518226873915
 20
318.6
 30
0.0
 11
341.6184295184511
 21
318.6
 31
0.0
  0
LINE
  5
203
330
1F5
100
AcDbEntity
  8
0
 62
     0
100
AcDbLine
 10
146.9212781643769
 20
318.7000000000001
 30
0.0
 11
150.2536351801439
 21
318.7000000000001
 31
0.0
  0
LINE
  5
204
330
1F5
100
AcDbEntity
  8
0
 62
     0
100
AcDbLine
 10
338.2886647926546
 20
318.7000000000001
 30
0.0
 11
341.6210218084229
 21
318.7000000000001
 31
0.0
  0
LINE
  5
205
330
1F5
100
AcDbEntity
  8
0
 62
     0
100
AcDbLine
 10
146.9220205620699
 20
318.8
 30
0.0
 11
147.4211499863993
 21
318.8
 31
0.0
  0
LINE
  5
206
330
1F5
100
AcDbEntity
  8
0
 62
     0
100
AcDbLine
 10
341.1211499863991
 20
318.8
 30
0.0
 11
341.6202794107298
 21
318.8
 31
0.0
  0
LINE
  5
207
330
1F5
100
AcDbEntity
  8
0
 62
     0
100
AcDbLine
 10
146.9261001271829
 20
318.9
 30
0.0
 11
147.4211499863993
 21
318.9
 31
0.0
  0
LINE
  5
208
330
1F5
100
AcDbEntity
  8
0
 62
     0
100
AcDbLine
 10
341.1211499863991
 20
318.9
 30
0.0
 11
341.6161998456169
 21
318.9
 31
0.0
  0
LINE
  5
209
330
1F5
100
AcDbEntity
  8
0
 62
     0
100
AcDbLine
 10
146.9335305302927
 20
319.0
 30
0.0
 11
147.4211499863993
 21
319.0
 31
0.0
  0
LINE
  5
20A
330
1F5
100
AcDbEntity
  8
0
 62
     0
100
AcDbLine
 10
341.1211499863991
 20
319.0
 30
0.0
 11
341.6087694425071
 21
319.0
 31
0.0
  0
LINE
  5
20B
330
1F5
100
AcDbEntity
  8
0
 62
     0
100
AcDbLine
 10
146.9443368633059
 20
319.1
 30
0.0
 11
147.4211499863993
 21
319.1
 31
0.0
  0
LINE
  5
20C
330
1F5
100
AcDbEntity
  8
0
 62
     0
100
AcDbLine
 10
341.1211499863991
 20
319.1
 30
0.0
 11
341.5979631094938
 21
319.1
 31
0.0
  0
LINE
  5
20D
330
1F5
100
AcDbEntity
  8
0
 62
     0
100
AcDbLine
 10
146.958556068034
 20
319.2000000000001
 30
0.0
 11
147.4211499863993
 21
319.2000000000001
 31
0.0
  0
LINE
  5
20E
330
1F5
100
AcDbEntity
  8
0
 62
     0
100
AcDbLine
 10
341.1211499863991
 20
319.2000000000001
 30
0.0
 11
341.5837439047658
 21
319.2000000000001
 31
0.0
  0
LINE
  5
20F
330
1F5
100
AcDbEntity
  8
0
 62
     0
100
AcDbLine
 10
146.9762375801554
 20
319.3
 30
0.0
 11
147.4211499863993
 21
319.3
 31
0.0
  0
LINE
  5
210
330
1F5
100
AcDbEntity
  8
0
 62
     0
100
AcDbLine
 10
341.1211499863991
 20
319.3
 30
0.0
 11
341.5660623926444
 21
319.3
 31
0.0
  0
LINE
  5
211
330
1F5
100
AcDbEntity
  8
0
 62
     0
100
AcDbLine
 10
146.9974442153335
 20
319.4
 30
0.0
 11
147.4211499863993
 21
319.4
 31
0.0
  0
LINE
  5
212
330
1F5
100
AcDbEntity
  8
0
 62
     0
100
AcDbLine
 10
341.1211499863991
 20
319.4
 30
0.0
 11
341.5448557574663
 21
319.4
 31
0.0
  0
LINE
  5
213
330
1F5
100
AcDbEntity
  8
0
 62
     0
100
AcDbLine
 10
147.0222533357618
 20
319.5
 30
0.0
 11
147.4211499863993
 21
319.5
 31
0.0
  0
LINE
  5
214
330
1F5
100
AcDbEntity
  8
0
 62
     0
100
AcDbLine
 10
341.1211499863991
 20
319.5
 30
0.0
 11
341.5200466370381
 21
319.5
 31
0.0
  0
LINE
  5
215
330
1F5
100
AcDbEntity
  8
0
 62
     0
100
AcDbLine
 10
147.0507583499859
 20
319.6
 30
0.0
 11
147.4211499863993
 21
319.6
 31
0.0
  0
LINE
  5
216
330
1F5
100
AcDbEntity
  8
0
 62
     0
100
AcDbLine
 10
341.1211499863991
 20
319.6
 30
0.0
 11
341.4915416228139
 21
319.6
 31
0.0
  0
LINE
  5
217
330
1F5
100
AcDbEntity
  8
0
 62
     0
100
AcDbLine
 10
147.0830706179344
 20
319.7
 30
0.0
 11
147.4211499863993
 21
319.7
 31
0.0
  0
LINE
  5
218
330
1F5
100
AcDbEntity
  8
0
 62
     0
100
AcDbLine
 10
341.1211499863991
 20
319.7
 30
0.0
 11
341.4592293548654
 21
319.7
 31
0.0
  0
LINE
  5
219
330
1F5
100
AcDbEntity
  8
0
 62
     0
100
AcDbLine
 10
147.1193218587262
 20
319.8
 30
0.0
 11
147.4211499863993
 21
319.8
 31
0.0
  0
LINE
  5
21A
330
1F5
100
AcDbEntity
  8
0
 62
     0
100
AcDbLine
 10
341.1211499863991
 20
319.8
 30
0.0
 11
341.4229781140737
 21
319.8
 31
0.0
  0
LINE
  5
21B
330
1F5
100
AcDbEntity
  8
0
 62
     0
100
AcDbLine
 10
147.1596671940694
 20
319.9
 30
0.0
 11
147.4211499863993
 21
319.9
 31
0.0
  0
LINE
  5
21C
330
1F5
100
AcDbEntity
  8
0
 62
     0
100
AcDbLine
 10
341.1211499863991
 20
319.9
 30
0.0
 11
341.3826327787305
 21
319.9
 31
0.0
  0
LINE
  5
21D
330
1F5
100
AcDbEntity
  8
0
 62
     0
100
AcDbLine
 10
147.2042890095275
 20
320.0
 30
0.0
 11
147.4211499863993
 21
320.0
 31
0.0
  0
LINE
  5
21E
330
1F5
100
AcDbEntity
  8
0
 62
     0
100
AcDbLine
 10
341.1211499863991
 20
320.0
 30
0.0
 11
341.3380109632724
 21
320.0
 31
0.0
  0
LINE
  5
21F
330
1F5
100
AcDbEntity
  8
0
 62
     0
100
AcDbLine
 10
147.2534018867912
 20
320.1
 30
0.0
 11
147.4211499863993
 21
320.1
 31
0.0
  0
LINE
  5
220
330
1F5
100
AcDbEntity
  8
0
 62
     0
100
AcDbLine
 10
341.1211499863991
 20
320.1
 30
0.0
 11
341.2888980860087
 21
320.1
 31
0.0
  0
LINE
  5
221
330
1F5
100
AcDbEntity
  8
0
 62
     0
100
AcDbLine
 10
147.3072589637519
 20
320.2
 30
0.0
 11
147.4211499863993
 21
320.2
 31
0.0
  0
LINE
  5
222
330
1F5
100
AcDbEntity
  8
0
 62
     0
100
AcDbLine
 10
341.1211499863991
 20
320.2
 30
0.0
 11
341.2350410090481
 21
320.2
 31
0.0
  0
LINE
  5
223
330
1F5
100
AcDbEntity
  8
0
 62
     0
100
AcDbLine
 10
147.3661602342494
 20
320.3
 30
0.0
 11
147.4211499863993
 21
320.3
 31
0.0
  0
LINE
  5
224
330
1F5
100
AcDbEntity
  8
0
 62
     0
100
AcDbLine
 10
341.1211499863991
 20
320.3
 30
0.0
 11
341.1761397385506
 21
320.3
 31
0.0
  0
LINE
  5
225
330
1F5
100
AcDbEntity
  8
0
 62
     0
100
AcDbLine
 10
147.0107537141771
 20
318.0
 30
0.0
 11
149.811529916986
 21
318.0
 31
0.0
  0
LINE
  5
226
330
1F5
100
AcDbEntity
  8
0
 62
     0
100
AcDbLine
 10
338.7307700558125
 20
318.0
 30
0.0
 11
341.5315462586227
 21
318.0
 31
0.0
  0
LINE
  5
227
330
1F5
100
AcDbEntity
  8
0
 62
     0
100
AcDbLine
 10
147.0376000724823
 20
317.9
 30
0.0
 11
149.7483720222491
 21
317.9
 31
0.0
  0
LINE
  5
228
330
1F5
100
AcDbEntity
  8
0
 62
     0
100
AcDbLine
 10
338.7939279505493
 20
317.9
 30
0.0
 11
341.5046999003175
 21
317.9
 31
0.0
  0
LINE
  5
229
330
1F5
100
AcDbEntity
  8
0
 62
     0
100
AcDbLine
 10
147.0682017305179
 20
317.8
 30
0.0
 11
149.6852141275123
 21
317.8
 31
0.0
  0
LINE
  5
22A
330
1F5
100
AcDbEntity
  8
0
 62
     0
100
AcDbLine
 10
338.8570858452862
 20
317.8
 30
0.0
 11
341.4740982422819
 21
317.8
 31
0.0
  0
LINE
  5
22B
330
1F5
100
AcDbEntity
  8
0
 62
     0
100
AcDbLine
 10
147.1026810056542
 20
317.7
 30
0.0
 11
149.6220562327755
 21
317.7
 31
0.0
  0
LINE
  5
22C
330
1F5
100
AcDbEntity
  8
0
 62
     0
100
AcDbLine
 10
338.920243740023
 20
317.7
 30
0.0
 11
341.4396189671457
 21
317.7
 31
0.0
  0
LINE
  5
22D
330
1F5
100
AcDbEntity
  8
0
 62
     0
100
AcDbLine
 10
147.1411821736165
 20
317.6
 30
0.0
 11
149.5588983380386
 21
317.6
 31
0.0
  0
LINE
  5
22E
330
1F5
100
AcDbEntity
  8
0
 62
     0
100
AcDbLine
 10
338.9834016347598
 20
317.6
 30
0.0
 11
341.4011177991834
 21
317.6
 31
0.0
  0
LINE
  5
22F
330
1F5
100
AcDbEntity
  8
0
 62
     0
100
AcDbLine
 10
147.1838749390586
 20
317.5
 30
0.0
 11
149.4957404433018
 21
317.5
 31
0.0
  0
LINE
  5
230
330
1F5
100
AcDbEntity
  8
0
 62
     0
100
AcDbLine
 10
339.0465595294967
 20
317.5
 30
0.0
 11
341.3584250337413
 21
317.5
 31
0.0
  0
LINE
  5
231
330
1F5
100
AcDbEntity
  8
0
 62
     0
100
AcDbLine
 10
147.2309588538811
 20
317.4
 30
0.0
 11
149.4325825485649
 21
317.4
 31
0.0
  0
LINE
  5
232
330
1F5
100
AcDbEntity
  8
0
 62
     0
100
AcDbLine
 10
339.1097174242335
 20
317.4
 30
0.0
 11
341.3113411189189
 21
317.4
 31
0.0
  0
LINE
  5
233
330
1F5
100
AcDbEntity
  8
0
 62
     0
100
AcDbLine
 10
147.2826689888998
 20
317.3
 30
0.0
 11
149.369424653828
 21
317.3
 31
0.0
  0
LINE
  5
234
330
1F5
100
AcDbEntity
  8
0
 62
     0
100
AcDbLine
 10
339.1728753189704
 20
317.3
 30
0.0
 11
341.2596309839001
 21
317.3
 31
0.0
  0
LINE
  5
235
330
1F5
100
AcDbEntity
  8
0
 62
     0
100
AcDbLine
 10
147.3392832937036
 20
317.2000000000001
 30
0.0
 11
149.3062667590912
 21
317.2000000000001
 31
0.0
  0
LINE
  5
236
330
1F5
100
AcDbEntity
  8
0
 62
     0
100
AcDbLine
 10
339.2360332137072
 20
317.2000000000001
 30
0.0
 11
341.2030166790964
 21
317.2000000000001
 31
0.0
  0
LINE
  5
237
330
1F5
100
AcDbEntity
  8
0
 62
     0
100
AcDbLine
 10
147.4011322754422
 20
317.1
 30
0.0
 11
149.2431088643544
 21
317.1
 31
0.0
  0
LINE
  5
238
330
1F5
100
AcDbEntity
  8
0
 62
     0
100
AcDbLine
 10
339.2991911084441
 20
317.1
 30
0.0
 11
341.1411676973578
 21
317.1
 31
0.0
  0
LINE
  5
239
330
1F5
100
AcDbEntity
  8
0
 62
     0
100
AcDbLine
 10
147.4686119320109
 20
317.0
 30
0.0
 11
149.2613577902624
 21
317.0
 31
0.0
  0
LINE
  5
23A
330
1F5
100
AcDbEntity
  8
0
 62
     0
100
AcDbLine
 10
339.280942182536
 20
317.0
 30
0.0
 11
341.0736880407891
 21
317.0
 31
0.0
  0
LINE
  5
23B
330
1F5
100
AcDbEntity
  8
0
 62
     0
100
AcDbLine
 10
147.5422013629715
 20
316.9
 30
0.0
 11
149.4196911235957
 21
316.9
 31
0.0
  0
LINE
  5
23C
330
1F5
100
AcDbEntity
  8
0
 62
     0
100
AcDbLine
 10
339.1226088492027
 20
316.9
 30
0.0
 11
341.0000986098286
 21
316.9
 31
0.0
  0
LINE
  5
23D
330
1F5
100
AcDbEntity
  8
0
 62
     0
100
AcDbLine
 10
147.6224872887434
 20
316.8
 30
0.0
 11
149.5780244569291
 21
316.8
 31
0.0
  0
LINE
  5
23E
330
1F5
100
AcDbEntity
  8
0
 62
     0
100
AcDbLine
 10
338.9642755158694
 20
316.8
 30
0.0
 11
340.9198126840568
 21
316.8
 31
0.0
  0
LINE
  5
23F
330
1F5
100
AcDbEntity
  8
0
 62
     0
100
AcDbLine
 10
147.7101990954294
 20
316.7000000000001
 30
0.0
 11
149.7363577902623
 21
316.7000000000001
 31
0.0
  0
LINE
  5
240
330
1F5
100
AcDbEntity
  8
0
 62
     0
100
AcDbLine
 10
338.8059421825361
 20
316.7000000000001
 30
0.0
 11
340.8321008773709
 21
316.7000000000001
 31
0.0
  0
LINE
  5
241
330
1F5
100
AcDbEntity
  8
0
 62
     0
100
AcDbLine
 10
147.806260512463
 20
316.6
 30
0.0
 11
149.8946911235957
 21
316.6
 31
0.0
  0
LINE
  5
242
330
1F5
100
AcDbEntity
  8
0
 62
     0
100
AcDbLine
 10
338.6476088492027
 20
316.6
 30
0.0
 11
340.7360394603373
 21
316.6
 31
0.0
  0
LINE
  5
243
330
1F5
100
AcDbEntity
  8
0
 62
     0
100
AcDbLine
 10
147.9118687388752
 20
316.5
 30
0.0
 11
150.053024456929
 21
316.5
 31
0.0
  0
LINE
  5
244
330
1F5
100
AcDbEntity
  8
0
 62
     0
100
AcDbLine
 10
338.4892755158694
 20
316.5
 30
0.0
 11
340.6304312339253
 21
316.5
 31
0.0
  0
LINE
  5
245
330
1F5
100
AcDbEntity
  8
0
 62
     0
100
AcDbLine
 10
148.0286213138719
 20
316.4000000000001
 30
0.0
 11
150.2113577902623
 21
316.4000000000001
 31
0.0
  0
LINE
  5
246
330
1F5
100
AcDbEntity
  8
0
 62
     0
100
AcDbLine
 10
338.330942182536
 20
316.4000000000001
 30
0.0
 11
340.5136786589286
 21
316.4000000000001
 31
0.0
  0
LINE
  5
247
330
1F5
100
AcDbEntity
  8
0
 62
     0
100
AcDbLine
 10
148.1587316419011
 20
316.3
 30
0.0
 11
150.3696911235957
 21
316.3
 31
0.0
  0
LINE
  5
248
330
1F5
100
AcDbEntity
  8
0
 62
     0
100
AcDbLine
 10
338.1726088492027
 20
316.3
 30
0.0
 11
340.3835683308996
 21
316.3
 31
0.0
  0
LINE
  5
249
330
1F5
100
AcDbEntity
  8
0
 62
     0
100
AcDbLine
 10
148.305423504067
 20
316.2
 30
0.0
 11
150.528024456929
 21
316.2
 31
0.0
  0
LINE
  5
24A
330
1F5
100
AcDbEntity
  8
0
 62
     0
100
AcDbLine
 10
338.0142755158694
 20
316.2
 30
0.0
 11
340.2368764687339
 21
316.2
 31
0.0
  0
LINE
  5
24B
330
1F5
100
AcDbEntity
  8
0
 62
     0
100
AcDbLine
 10
148.4737296223048
 20
316.1
 30
0.0
 11
150.6863577902624
 21
316.1
 31
0.0
  0
LINE
  5
24C
330
1F5
100
AcDbEntity
  8
0
 62
     0
100
AcDbLine
 10
337.855942182536
 20
316.1
 30
0.0
 11
340.0685703504964
 21
316.1
 31
0.0
  0
LINE
  5
24D
330
1F5
100
AcDbEntity
  8
0
 62
     0
100
AcDbLine
 10
148.6723588288868
 20
316.0
 30
0.0
 11
150.8446911235957
 21
316.0
 31
0.0
  0
LINE
  5
24E
330
1F5
100
AcDbEntity
  8
0
 62
     0
100
AcDbLine
 10
337.6976088492027
 20
316.0
 30
0.0
 11
339.8699411439147
 21
316.0
 31
0.0
  0
LINE
  5
24F
330
1F5
100
AcDbEntity
  8
0
 62
     0
100
AcDbLine
 10
148.9191854162835
 20
315.9
 30
0.0
 11
150.9231145565151
 21
315.9
 31
0.0
  0
LINE
  5
250
330
1F5
100
AcDbEntity
  8
0
 62
     0
100
AcDbLine
 10
337.6191854162794
 20
315.9
 30
0.0
 11
339.6231145565189
 21
315.9
 31
0.0
  0
LINE
  5
251
330
1F5
100
AcDbEntity
  8
0
 62
     0
100
AcDbLine
 10
149.2666374621089
 20
315.8
 30
0.0
 11
150.5756625106897
 21
315.8
 31
0.0
  0
LINE
  5
252
330
1F5
100
AcDbEntity
  8
0
 62
     0
100
AcDbLine
 10
337.9666374621027
 20
315.8
 30
0.0
 11
339.2756625106955
 21
315.8
 31
0.0
  0
ENDBLK
  5
253
330
1F5
100
AcDbEntity
  8
0
100
AcDbBlockEnd
  0
BLOCK
  5
255
330
254
100
AcDbEntity
  8
0
100
AcDbBlockBegin
  2
*X4
 70
     1
 10
0.0
 20
0.0
 30
0.0
  3
*X4
  1

  0
LINE
  5
256
330
254
100
AcDbEntity
  8
0
 62
     0
100
AcDbLine
 10
188.0090261847973
 20
303.2
 30
0.0
 11
190.8707621967262
 21
303.2
 31
0.0
  0
LINE
  5
257
330
254
100
AcDbEntity
  8
0
 62
     0
100
AcDbLine
 10
297.6715377760722
 20
303.2
 30
0.0
 11
300.5332737880013
 21
303.2
 31
0.0
  0
LINE
  5
258
330
254
100
AcDbEntity
  8
0
 62
     0
100
AcDbLine
 10
187.8608823670565
 20
303.3
 30
0.0
 11
190.8034545044185
 21
303.3
 31
0.0
  0
LINE
  5
259
330
254
100
AcDbEntity
  8
0
 62
     0
100
AcDbLine
 10
297.7388454683799
 20
303.3
 30
0.0
 11
300.6814176057421
 21
303.3
 31
0.0
  0
LINE
  5
25A
330
254
100
AcDbEntity
  8
0
 62
     0
100
AcDbLine
 10
187.7185236567073
 20
303.4
 30
0.0
 11
190.7361468121108
 21
303.4
 31
0.0
  0
LINE
  5
25B
330
254
100
AcDbEntity
  8
0
 62
     0
100
AcDbLine
 10
297.8061531606876
 20
303.4
 30
0.0
 11
300.8237763160913
 21
303.4
 31
0.0
  0
LINE
  5
25C
330
254
100
AcDbEntity
  8
0
 62
     0
100
AcDbLine
 10
187.581513237537
 20
303.5
 30
0.0
 11
190.6688391198031
 21
303.5
 31
0.0
  0
LINE
  5
25D
330
254
100
AcDbEntity
  8
0
 62
     0
100
AcDbLine
 10
297.8734608529953
 20
303.5
 30
0.0
 11
300.9607867352616
 21
303.5
 31
0.0
  0
LINE
  5
25E
330
254
100
AcDbEntity
  8
0
 62
     0
100
AcDbLine
 10
187.4494713158889
 20
303.6
 30
0.0
 11
190.6015314274954
 21
303.6
 31
0.0
  0
LINE
  5
25F
330
254
100
AcDbEntity
  8
0
 62
     0
100
AcDbLine
 10
297.940768545303
 20
303.6
 30
0.0
 11
301.0928286569097
 21
303.6
 31
0.0
  0
LINE
  5
260
330
254
100
AcDbEntity
  8
0
 62
     0
100
AcDbLine
 10
187.3220651873949
 20
303.7
 30
0.0
 11
190.5342237351878
 21
303.7
 31
0.0
  0
LINE
  5
261
330
254
100
AcDbEntity
  8
0
 62
     0
100
AcDbLine
 10
298.0080762376106
 20
303.7
 30
0.0
 11
301.2202347854038
 21
303.7
 31
0.0
  0
LINE
  5
262
330
254
100
AcDbEntity
  8
0
 62
     0
100
AcDbLine
 10
187.1990014301612
 20
303.8
 30
0.0
 11
190.4669160428801
 21
303.8
 31
0.0
  0
LINE
  5
263
330
254
100
AcDbEntity
  8
0
 62
     0
100
AcDbLine
 10
298.0753839299183
 20
303.8
 30
0.0
 11
301.3432985426375
 21
303.8
 31
0.0
  0
LINE
  5
264
330
254
100
AcDbEntity
  8
0
 62
     0
100
AcDbLine
 10
187.0800196925515
 20
303.9000000000001
 30
0.0
 11
190.5413770612082
 21
303.9000000000001
 31
0.0
  0
LINE
  5
265
330
254
100
AcDbEntity
  8
0
 62
     0
100
AcDbLine
 10
298.0009229115901
 20
303.9000000000001
 30
0.0
 11
301.4622802802472
 21
303.9000000000001
 31
0.0
  0
LINE
  5
266
330
254
100
AcDbEntity
  8
0
 62
     0
100
AcDbLine
 10
186.964887694214
 20
304.0
 30
0.0
 11
190.6899484897795
 21
304.0
 31
0.0
  0
LINE
  5
267
330
254
100
AcDbEntity
  8
0
 62
     0
100
AcDbLine
 10
297.8523514830188
 20
304.0
 30
0.0
 11
301.5774122785846
 21
304.0
 31
0.0
  0
LINE
  5
268
330
254
100
AcDbEntity
  8
0
 62
     0
100
AcDbLine
 10
186.8533971623898
 20
304.1
 30
0.0
 11
190.838519918351
 21
304.1
 31
0.0
  0
LINE
  5
269
330
254
100
AcDbEntity
  8
0
 62
     0
100
AcDbLine
 10
297.7037800544473
 20
304.1
 30
0.0
 11
301.6889028104088
 21
304.1
 31
0.0
  0
LINE
  5
26A
330
254
100
AcDbEntity
  8
0
 62
     0
100
AcDbLine
 10
186.7453604978595
 20
304.2
 30
0.0
 11
190.9870913469224
 21
304.2
 31
0.0
  0
LINE
  5
26B
330
254
100
AcDbEntity
  8
0
 62
     0
100
AcDbLine
 10
297.5552086258759
 20
304.2
 30
0.0
 11
301.7969394749391
 21
304.2
 31
0.0
  0
LINE
  5
26C
330
254
100
AcDbEntity
  8
0
 62
     0
100
AcDbLine
 10
186.6406080163157
 20
304.3
 30
0.0
 11
191.1356627754938
 21
304.3
 31
0.0
  0
LINE
  5
26D
330
254
100
AcDbEntity
  8
0
 62
     0
100
AcDbLine
 10
297.4066371973044
 20
304.3
 30
0.0
 11
301.901691956483
 21
304.3
 31
0.0
  0
LINE
  5
26E
330
254
100
AcDbEntity
  8
0
 62
     0
100
AcDbLine
 10
186.5389856480838
 20
304.4
 30
0.0
 11
191.2842342040653
 21
304.4
 31
0.0
  0
LINE
  5
26F
330
254
100
AcDbEntity
  8
0
 62
     0
100
AcDbLine
 10
297.258065768733
 20
304.4
 30
0.0
 11
302.0033143247148
 21
304.4
 31
0.0
  0
LINE
  5
270
330
254
100
AcDbEntity
  8
0
 62
     0
100
AcDbLine
 10
186.4403530062871
 20
304.5
 30
0.0
 11
191.4328056326367
 21
304.5
 31
0.0
  0
LINE
  5
271
330
254
100
AcDbEntity
  8
0
 62
     0
100
AcDbLine
 10
297.1094943401616
 20
304.5
 30
0.0
 11
302.1019469665116
 21
304.5
 31
0.0
  0
LINE
  5
272
330
254
100
AcDbEntity
  8
0
 62
     0
100
AcDbLine
 10
186.3445817536968
 20
304.6
 30
0.0
 11
191.5813770612081
 21
304.6
 31
0.0
  0
LINE
  5
273
330
254
100
AcDbEntity
  8
0
 62
     0
100
AcDbLine
 10
296.9609229115901
 20
304.6
 30
0.0
 11
302.1977182191018
 21
304.6
 31
0.0
  0
LINE
  5
274
330
254
100
AcDbEntity
  8
0
 62
     0
100
AcDbLine
 10
186.2515542136187
 20
304.7
 30
0.0
 11
191.7299484897795
 21
304.7
 31
0.0
  0
LINE
  5
275
330
254
100
AcDbEntity
  8
0
 62
     0
100
AcDbLine
 10
296.8123514830188
 20
304.7
 30
0.0
 11
302.2907457591799
 21
304.7
 31
0.0
  0
LINE
  5
276
330
254
100
AcDbEntity
  8
0
 62
     0
100
AcDbLine
 10
188.1634617638551
 20
303.1
 30
0.0
 11
190.9380698890339
 21
303.1
 31
0.0
  0
LINE
  5
277
330
254
100
AcDbEntity
  8
0
 62
     0
100
AcDbLine
 10
297.6042300837645
 20
303.1
 30
0.0
 11
300.3788382089435
 21
303.1
 31
0.0
  0
LINE
  5
278
330
254
100
AcDbEntity
  8
0
 62
     0
100
AcDbLine
 10
188.3247823880205
 20
303.0
 30
0.0
 11
191.0053775813416
 21
303.0
 31
0.0
  0
LINE
  5
279
330
254
100
AcDbEntity
  8
0
 62
     0
100
AcDbLine
 10
297.5369223914568
 20
303.0
 30
0.0
 11
300.2175175847782
 21
303.0
 31
0.0
  0
LINE
  5
27A
330
254
100
AcDbEntity
  8
0
 62
     0
100
AcDbLine
 10
188.493690364477
 20
302.9
 30
0.0
 11
191.0726852736493
 21
302.9
 31
0.0
  0
LINE
  5
27B
330
254
100
AcDbEntity
  8
0
 62
     0
100
AcDbLine
 10
297.4696146991491
 20
302.9
 30
0.0
 11
300.0486096083217
 21
302.9
 31
0.0
  0
LINE
  5
27C
330
254
100
AcDbEntity
  8
0
 62
     0
100
AcDbLine
 10
188.6710274917112
 20
302.8
 30
0.0
 11
191.139992965957
 21
302.8
 31
0.0
  0
LINE
  5
27D
330
254
100
AcDbEntity
  8
0
 62
     0
100
AcDbLine
 10
297.4023070068414
 20
302.8
 30
0.0
 11
299.8712724810874
 21
302.8
 31
0.0
  0
LINE
  5
27E
330
254
100
AcDbEntity
  8
0
 62
     0
100
AcDbLine
 10
188.8578174806145
 20
302.7
 30
0.0
 11
191.2073006582647
 21
302.7
 31
0.0
  0
LINE
  5
27F
330
254
100
AcDbEntity
  8
0
 62
     0
100
AcDbLine
 10
297.3349993145337
 20
302.7
 30
0.0
 11
299.6844824921842
 21
302.7
 31
0.0
  0
LINE
  5
280
330
254
100
AcDbEntity
  8
0
 62
     0
100
AcDbLine
 10
189.0553266257194
 20
302.6
 30
0.0
 11
191.2746083505723
 21
302.6
 31
0.0
  0
LINE
  5
281
330
254
100
AcDbEntity
  8
0
 62
     0
100
AcDbLine
 10
297.267691622226
 20
302.6
 30
0.0
 11
299.4869733470793
 21
302.6
 31
0.0
  0
LINE
  5
282
330
254
100
AcDbEntity
  8
0
 62
     0
100
AcDbLine
 10
189.265153369567
 20
302.5
 30
0.0
 11
191.3419160428801
 21
302.5
 31
0.0
  0
LINE
  5
283
330
254
100
AcDbEntity
  8
0
 62
     0
100
AcDbLine
 10
297.2003839299183
 20
302.5
 30
0.0
 11
299.2771466032317
 21
302.5
 31
0.0
  0
LINE
  5
284
330
254
100
AcDbEntity
  8
0
 62
     0
100
AcDbLine
 10
189.4893656307632
 20
302.4
 30
0.0
 11
191.4092237351877
 21
302.4
 31
0.0
  0
LINE
  5
285
330
254
100
AcDbEntity
  8
0
 62
     0
100
AcDbLine
 10
297.1330762376107
 20
302.4
 30
0.0
 11
299.0529343420356
 21
302.4
 31
0.0
  0
LINE
  5
286
330
254
100
AcDbEntity
  8
0
 62
     0
100
AcDbLine
 10
189.7307213473194
 20
302.3
 30
0.0
 11
191.4765314274955
 21
302.3
 31
0.0
  0
LINE
  5
287
330
254
100
AcDbEntity
  8
0
 62
     0
100
AcDbLine
 10
297.065768545303
 20
302.3
 30
0.0
 11
298.8115786254793
 21
302.3
 31
0.0
  0
LINE
  5
288
330
254
100
AcDbEntity
  8
0
 62
     0
100
AcDbLine
 10
189.9930437767375
 20
302.2
 30
0.0
 11
191.5438391198032
 21
302.2
 31
0.0
  0
LINE
  5
289
330
254
100
AcDbEntity
  8
0
 62
     0
100
AcDbLine
 10
296.9984608529953
 20
302.2
 30
0.0
 11
298.5492561960612
 21
302.2
 31
0.0
  0
LINE
  5
28A
330
254
100
AcDbEntity
  8
0
 62
     0
100
AcDbLine
 10
190.2819096906982
 20
302.1
 30
0.0
 11
191.6111468121108
 21
302.1
 31
0.0
  0
LINE
  5
28B
330
254
100
AcDbEntity
  8
0
 62
     0
100
AcDbLine
 10
296.9311531606876
 20
302.1
 30
0.0
 11
298.2603902821006
 21
302.1
 31
0.0
  0
LINE
  5
28C
330
254
100
AcDbEntity
  8
0
 62
     0
100
AcDbLine
 10
190.6060448539391
 20
302.0
 30
0.0
 11
191.6784545044185
 21
302.0
 31
0.0
  0
LINE
  5
28D
330
254
100
AcDbEntity
  8
0
 62
     0
100
AcDbLine
 10
296.8638454683798
 20
302.0
 30
0.0
 11
297.9362551188597
 21
302.0
 31
0.0
  0
LINE
  5
28E
330
254
100
AcDbEntity
  8
0
 62
     0
100
AcDbLine
 10
190.9805921794681
 20
301.9000000000001
 30
0.0
 11
191.7457621967262
 21
301.9000000000001
 31
0.0
  0
LINE
  5
28F
330
254
100
AcDbEntity
  8
0
 62
     0
100
AcDbLine
 10
296.7965377760722
 20
301.9000000000001
 30
0.0
 11
297.5617077933308
 21
301.9000000000001
 31
0.0
  0
LINE
  5
290
330
254
100
AcDbEntity
  8
0
 62
     0
100
AcDbLine
 10
191.4367319249257
 20
301.8
 30
0.0
 11
191.8130698890339
 21
301.8
 31
0.0
  0
LINE
  5
291
330
254
100
AcDbEntity
  8
0
 62
     0
100
AcDbLine
 10
296.7711499863992
 20
301.8
 30
0.0
 11
297.1055680478733
 21
301.8
 31
0.0
  0
ENDBLK
  5
292
330
254
100
AcDbEntity
  8
0
100
AcDbBlockEnd
  0
BLOCK
  5
294
330
293
100
AcDbEntity
  8
0
100
AcDbBlockBegin
  2
*X5
 70
     1
 10
0.0
 20
0.0
 30
0.0
  3
*X5
  1

  0
LINE
  5
295
330
293
100
AcDbEntity
  8
0
 62
     0
100
AcDbLine
 10
205.863246596374
 20
278.4
 30
0.0
 11
207.7711499863992
 21
278.4
 31
0.0
  0
LINE
  5
296
330
293
100
AcDbEntity
  8
0
 62
     0
100
AcDbLine
 10
280.7711499863992
 20
278.4
 30
0.0
 11
282.6790533764248
 21
278.4
 31
0.0
  0
LINE
  5
297
330
293
100
AcDbEntity
  8
0
 62
     0
100
AcDbLine
 10
205.8303778371822
 20
278.5
 30
0.0
 11
207.7711499863992
 21
278.5
 31
0.0
  0
LINE
  5
298
330
293
100
AcDbEntity
  8
0
 62
     0
100
AcDbLine
 10
280.7711499863992
 20
278.5
 30
0.0
 11
282.7119221356166
 21
278.5
 31
0.0
  0
LINE
  5
299
330
293
100
AcDbEntity
  8
0
 62
     0
100
AcDbLine
 10
205.7995951433382
 20
278.6
 30
0.0
 11
207.7711499863992
 21
278.6
 31
0.0
  0
LINE
  5
29A
330
293
100
AcDbEntity
  8
0
 62
     0
100
AcDbLine
 10
280.7711499863992
 20
278.6
 30
0.0
 11
282.7427048294607
 21
278.6
 31
0.0
  0
LINE
  5
29B
330
293
100
AcDbEntity
  8
0
 62
     0
100
AcDbLine
 10
205.7708624342749
 20
278.7
 30
0.0
 11
207.7711499863992
 21
278.7
 31
0.0
  0
LINE
  5
29C
330
293
100
AcDbEntity
  8
0
 62
     0
100
AcDbLine
 10
280.7711499863992
 20
278.7
 30
0.0
 11
282.7714375385239
 21
278.7
 31
0.0
  0
LINE
  5
29D
330
293
100
AcDbEntity
  8
0
 62
     0
100
AcDbLine
 10
205.7441467794951
 20
278.8
 30
0.0
 11
207.2938391198031
 21
278.8
 31
0.0
  0
LINE
  5
29E
330
293
100
AcDbEntity
  8
0
 62
     0
100
AcDbLine
 10
281.2484608529953
 20
278.8
 30
0.0
 11
282.7981531933037
 21
278.8
 31
0.0
  0
LINE
  5
29F
330
293
100
AcDbEntity
  8
0
 62
     0
100
AcDbLine
 10
205.7194181903039
 20
278.9000000000001
 30
0.0
 11
207.2265314274954
 21
278.9000000000001
 31
0.0
  0
LINE
  5
2A0
330
293
100
AcDbEntity
  8
0
 62
     0
100
AcDbLine
 10
281.3157685453029
 20
278.9000000000001
 30
0.0
 11
282.8228817824949
 21
278.9000000000001
 31
0.0
  0
LINE
  5
2A1
330
293
100
AcDbEntity
  8
0
 62
     0
100
AcDbLine
 10
205.6966494362323
 20
279.0
 30
0.0
 11
207.1592237351878
 21
279.0
 31
0.0
  0
LINE
  5
2A2
330
293
100
AcDbEntity
  8
0
 62
     0
100
AcDbLine
 10
281.3830762376106
 20
279.0
 30
0.0
 11
282.8456505365665
 21
279.0
 31
0.0
  0
LINE
  5
2A3
330
293
100
AcDbEntity
  8
0
 62
     0
100
AcDbLine
 10
205.6758158833259
 20
279.1
 30
0.0
 11
207.09191604288
 21
279.1
 31
0.0
  0
LINE
  5
2A4
330
293
100
AcDbEntity
  8
0
 62
     0
100
AcDbLine
 10
281.4503839299184
 20
279.1
 30
0.0
 11
282.8664840894729
 21
279.1
 31
0.0
  0
LINE
  5
2A5
330
293
100
AcDbEntity
  8
0
 62
     0
100
AcDbLine
 10
205.6568953519066
 20
279.2
 30
0.0
 11
207.0246083505724
 21
279.2
 31
0.0
  0
LINE
  5
2A6
330
293
100
AcDbEntity
  8
0
 62
     0
100
AcDbLine
 10
281.517691622226
 20
279.2
 30
0.0
 11
282.8854046208923
 21
279.2
 31
0.0
  0
LINE
  5
2A7
330
293
100
AcDbEntity
  8
0
 62
     0
100
AcDbLine
 10
205.6398679917721
 20
279.3
 30
0.0
 11
206.9573006582646
 21
279.3
 31
0.0
  0
LINE
  5
2A8
330
293
100
AcDbEntity
  8
0
 62
     0
100
AcDbLine
 10
281.5849993145337
 20
279.3
 30
0.0
 11
282.9024319810267
 21
279.3
 31
0.0
  0
LINE
  5
2A9
330
293
100
AcDbEntity
  8
0
 62
     0
100
AcDbLine
 10
205.6247161731126
 20
279.4
 30
0.0
 11
206.8899929659569
 21
279.4
 31
0.0
  0
LINE
  5
2AA
330
293
100
AcDbEntity
  8
0
 62
     0
100
AcDbLine
 10
281.6523070068415
 20
279.4
 30
0.0
 11
282.9175837996862
 21
279.4
 31
0.0
  0
LINE
  5
2AB
330
293
100
AcDbEntity
  8
0
 62
     0
100
AcDbLine
 10
205.6114243916808
 20
279.5
 30
0.0
 11
206.8226852736493
 21
279.5
 31
0.0
  0
LINE
  5
2AC
330
293
100
AcDbEntity
  8
0
 62
     0
100
AcDbLine
 10
281.7196146991491
 20
279.5
 30
0.0
 11
282.9308755811181
 21
279.5
 31
0.0
  0
LINE
  5
2AD
330
293
100
AcDbEntity
  8
0
 62
     0
100
AcDbLine
 10
205.599979186983
 20
279.6
 30
0.0
 11
206.7553775813416
 21
279.6
 31
0.0
  0
LINE
  5
2AE
330
293
100
AcDbEntity
  8
0
 62
     0
100
AcDbLine
 10
281.7869223914568
 20
279.6
 30
0.0
 11
282.9423207858158
 21
279.6
 31
0.0
  0
LINE
  5
2AF
330
293
100
AcDbEntity
  8
0
 62
     0
100
AcDbLine
 10
205.5903690724532
 20
279.7
 30
0.0
 11
206.6880698890339
 21
279.7
 31
0.0
  0
LINE
  5
2B0
330
293
100
AcDbEntity
  8
0
 62
     0
100
AcDbLine
 10
281.8542300837645
 20
279.7
 30
0.0
 11
282.9519309003456
 21
279.7
 31
0.0
  0
LINE
  5
2B1
330
293
100
AcDbEntity
  8
0
 62
     0
100
AcDbLine
 10
205.5825844767426
 20
279.8
 30
0.0
 11
206.6207621967262
 21
279.8
 31
0.0
  0
LINE
  5
2B2
330
293
100
AcDbEntity
  8
0
 62
     0
100
AcDbLine
 10
281.9215377760722
 20
279.8
 30
0.0
 11
282.9597154960562
 21
279.8
 31
0.0
  0
LINE
  5
2B3
330
293
100
AcDbEntity
  8
0
 62
     0
100
AcDbLine
 10
205.576617695414
 20
279.9
 30
0.0
 11
206.5534545044185
 21
279.9
 31
0.0
  0
LINE
  5
2B4
330
293
100
AcDbEntity
  8
0
 62
     0
100
AcDbLine
 10
281.9888454683799
 20
279.9
 30
0.0
 11
282.9656822773848
 21
279.9
 31
0.0
  0
LINE
  5
2B5
330
293
100
AcDbEntity
  8
0
 62
     0
100
AcDbLine
 10
205.5724628524624
 20
280.0
 30
0.0
 11
206.4861468121108
 21
280.0
 31
0.0
  0
LINE
  5
2B6
330
293
100
AcDbEntity
  8
0
 62
     0
100
AcDbLine
 10
282.0561531606876
 20
280.0
 30
0.0
 11
282.9698371203364
 21
280.0
 31
0.0
  0
LINE
  5
2B7
330
293
100
AcDbEntity
  8
0
 62
     0
100
AcDbLine
 10
205.5701158712095
 20
280.1
 30
0.0
 11
206.4188391198031
 21
280.1
 31
0.0
  0
LINE
  5
2B8
330
293
100
AcDbEntity
  8
0
 62
     0
100
AcDbLine
 10
282.1234608529953
 20
280.1
 30
0.0
 11
282.9721841015894
 21
280.1
 31
0.0
  0
LINE
  5
2B9
330
293
100
AcDbEntity
  8
0
 62
     0
100
AcDbLine
 10
205.5695744542334
 20
280.2
 30
0.0
 11
206.3515314274954
 21
280.2
 31
0.0
  0
LINE
  5
2BA
330
293
100
AcDbEntity
  8
0
 62
     0
100
AcDbLine
 10
282.1907685453029
 20
280.2
 30
0.0
 11
282.9727255185654
 21
280.2
 31
0.0
  0
LINE
  5
2BB
330
293
100
AcDbEntity
  8
0
 62
     0
100
AcDbLine
 10
205.5708380721029
 20
280.3
 30
0.0
 11
206.2842237351877
 21
280.3
 31
0.0
  0
LINE
  5
2BC
330
293
100
AcDbEntity
  8
0
 62
     0
100
AcDbLine
 10
282.2580762376106
 20
280.3
 30
0.0
 11
282.9714619006959
 21
280.3
 31
0.0
  0
LINE
  5
2BD
330
293
100
AcDbEntity
  8
0
 62
     0
100
AcDbLine
 10
205.573907960785
 20
280.4
 30
0.0
 11
206.21691604288
 21
280.4
 31
0.0
  0
LINE
  5
2BE
330
293
100
AcDbEntity
  8
0
 62
     0
100
AcDbLine
 10
282.3253839299184
 20
280.4
 30
0.0
 11
282.9683920120138
 21
280.4
 31
0.0
  0
LINE
  5
2BF
330
293
100
AcDbEntity
  8
0
 62
     0
100
AcDbLine
 10
205.5787871276986
 20
280.5
 30
0.0
 11
206.1496083505724
 21
280.5
 31
0.0
  0
LINE
  5
2C0
330
293
100
AcDbEntity
  8
0
 62
     0
100
AcDbLine
 10
282.392691622226
 20
280.5
 30
0.0
 11
282.9635128451002
 21
280.5
 31
0.0
  0
LINE
  5
2C1
330
293
100
AcDbEntity
  8
0
 62
     0
100
AcDbLine
 10
205.5854803664814
 20
280.6
 30
0.0
 11
206.0823006582647
 21
280.6
 31
0.0
  0
LINE
  5
2C2
330
293
100
AcDbEntity
  8
0
 62
     0
100
AcDbLine
 10
282.4599993145337
 20
280.6
 30
0.0
 11
282.9568196063174
 21
280.6
 31
0.0
  0
LINE
  5
2C3
330
293
100
AcDbEntity
  8
0
 62
     0
100
AcDbLine
 10
205.5939942806417
 20
280.7
 30
0.0
 11
206.014992965957
 21
280.7
 31
0.0
  0
LINE
  5
2C4
330
293
100
AcDbEntity
  8
0
 62
     0
100
AcDbLine
 10
282.5273070068414
 20
280.7
 30
0.0
 11
282.9483056921571
 21
280.7
 31
0.0
  0
LINE
  5
2C5
330
293
100
AcDbEntity
  8
0
 62
     0
100
AcDbLine
 10
205.6043373163667
 20
280.8
 30
0.0
 11
205.9476852736493
 21
280.8
 31
0.0
  0
LINE
  5
2C6
330
293
100
AcDbEntity
  8
0
 62
     0
100
AcDbLine
 10
282.5946146991491
 20
280.8
 30
0.0
 11
282.9379626564321
 21
280.8
 31
0.0
  0
LINE
  5
2C7
330
293
100
AcDbEntity
  8
0
 62
     0
100
AcDbLine
 10
205.6165198048726
 20
280.9000000000001
 30
0.0
 11
205.8803775813416
 21
280.9000000000001
 31
0.0
  0
LINE
  5
2C8
330
293
100
AcDbEntity
  8
0
 62
     0
100
AcDbLine
 10
282.6619223914568
 20
280.9000000000001
 30
0.0
 11
282.9257801679262
 21
280.9000000000001
 31
0.0
  0
LINE
  5
2C9
330
293
100
AcDbEntity
  8
0
 62
     0
100
AcDbLine
 10
205.6305540147964
 20
281.0
 30
0.0
 11
205.8130698890339
 21
281.0
 31
0.0
  0
LINE
  5
2CA
330
293
100
AcDbEntity
  8
0
 62
     0
100
AcDbLine
 10
282.7292300837645
 20
281.0
 30
0.0
 11
282.9117459580025
 21
281.0
 31
0.0
  0
LINE
  5
2CB
330
293
100
AcDbEntity
  8
0
 62
     0
100
AcDbLine
 10
205.646454215259
 20
281.1
 30
0.0
 11
205.7457621967262
 21
281.1
 31
0.0
  0
LINE
  5
2CC
330
293
100
AcDbEntity
  8
0
 62
     0
100
AcDbLine
 10
282.7965377760722
 20
281.1
 30
0.0
 11
282.8958457575398
 21
281.1
 31
0.0
  0
LINE
  5
2CD
330
293
100
AcDbEntity
  8
0
 62
     0
100
AcDbLine
 10
205.6642367503731
 20
281.2
 30
0.0
 11
205.6784545044185
 21
281.2
 31
0.0
  0
LINE
  5
2CE
330
293
100
AcDbEntity
  8
0
 62
     0
100
AcDbLine
 10
282.8638454683798
 20
281.2
 30
0.0
 11
282.8780632224258
 21
281.2
 31
0.0
  0
LINE
  5
2CF
330
293
100
AcDbEntity
  8
0
 62
     0
100
AcDbLine
 10
205.8982408878482
 20
278.3
 30
0.0
 11
207.7711499863992
 21
278.3
 31
0.0
  0
LINE
  5
2D0
330
293
100
AcDbEntity
  8
0
 62
     0
100
AcDbLine
 10
280.7711499863992
 20
278.3
 30
0.0
 11
282.6440590849506
 21
278.3
 31
0.0
  0
LINE
  5
2D1
330
293
100
AcDbEntity
  8
0
 62
     0
100
AcDbLine
 10
205.9354038331882
 20
278.2
 30
0.0
 11
207.7711499863992
 21
278.2
 31
0.0
  0
LINE
  5
2D2
330
293
100
AcDbEntity
  8
0
 62
     0
100
AcDbLine
 10
280.7711499863992
 20
278.2
 30
0.0
 11
282.6068961396106
 21
278.2
 31
0.0
  0
LINE
  5
2D3
330
293
100
AcDbEntity
  8
0
 62
     0
100
AcDbLine
 10
205.9747825135907
 20
278.1
 30
0.0
 11
207.7711499863992
 21
278.1
 31
0.0
  0
LINE
  5
2D4
330
293
100
AcDbEntity
  8
0
 62
     0
100
AcDbLine
 10
280.7711499863992
 20
278.1
 30
0.0
 11
282.5675174592081
 21
278.1
 31
0.0
  0
LINE
  5
2D5
330
293
100
AcDbEntity
  8
0
 62
     0
100
AcDbLine
 10
206.0164283171164
 20
278.0
 30
0.0
 11
207.7711499863992
 21
278.0
 31
0.0
  0
LINE
  5
2D6
330
293
100
AcDbEntity
  8
0
 62
     0
100
AcDbLine
 10
280.7711499863992
 20
278.0
 30
0.0
 11
282.5258716556825
 21
278.0
 31
0.0
  0
LINE
  5
2D7
330
293
100
AcDbEntity
  8
0
 62
     0
100
AcDbLine
 10
206.0603973349311
 20
277.9
 30
0.0
 11
207.7711499863992
 21
277.9
 31
0.0
  0
LINE
  5
2D8
330
293
100
AcDbEntity
  8
0
 62
     0
100
AcDbLine
 10
280.7711499863992
 20
277.9
 30
0.0
 11
282.4819026378677
 21
277.9
 31
0.0
  0
LINE
  5
2D9
330
293
100
AcDbEntity
  8
0
 62
     0
100
AcDbLine
 10
206.1067508146035
 20
277.8
 30
0.0
 11
207.7711499863992
 21
277.8
 31
0.0
  0
LINE
  5
2DA
330
293
100
AcDbEntity
  8
0
 62
     0
100
AcDbLine
 10
280.7711499863992
 20
277.8
 30
0.0
 11
282.4355491581954
 21
277.8
 31
0.0
  0
LINE
  5
2DB
330
293
100
AcDbEntity
  8
0
 62
     0
100
AcDbLine
 10
206.1555556801983
 20
277.7
 30
0.0
 11
207.7711499863992
 21
277.7
 31
0.0
  0
LINE
  5
2DC
330
293
100
AcDbEntity
  8
0
 62
     0
100
AcDbLine
 10
280.7711499863992
 20
277.7
 30
0.0
 11
282.3867442926005
 21
277.7
 31
0.0
  0
LINE
  5
2DD
330
293
100
AcDbEntity
  8
0
 62
     0
100
AcDbLine
 10
206.2068851309989
 20
277.6
 30
0.0
 11
207.7711499863992
 21
277.6
 31
0.0
  0
LINE
  5
2DE
330
293
100
AcDbEntity
  8
0
 62
     0
100
AcDbLine
 10
280.7711499863992
 20
277.6
 30
0.0
 11
282.3354148418
 21
277.6
 31
0.0
  0
LINE
  5
2DF
330
293
100
AcDbEntity
  8
0
 62
     0
100
AcDbLine
 10
206.2608193333112
 20
277.5
 30
0.0
 11
207.7711499863992
 21
277.5
 31
0.0
  0
LINE
  5
2E0
330
293
100
AcDbEntity
  8
0
 62
     0
100
AcDbLine
 10
280.7711499863992
 20
277.5
 30
0.0
 11
282.2814806394877
 21
277.5
 31
0.0
  0
LINE
  5
2E1
330
293
100
AcDbEntity
  8
0
 62
     0
100
AcDbLine
 10
206.3174462231112
 20
277.4
 30
0.0
 11
207.7711499863992
 21
277.4
 31
0.0
  0
LINE
  5
2E2
330
293
100
AcDbEntity
  8
0
 62
     0
100
AcDbLine
 10
280.7711499863992
 20
277.4
 30
0.0
 11
282.2248537496877
 21
277.4
 31
0.0
  0
LINE
  5
2E3
330
293
100
AcDbEntity
  8
0
 62
     0
100
AcDbLine
 10
206.3768624415139
 20
277.3
 30
0.0
 11
207.7711499863992
 21
277.3
 31
0.0
  0
LINE
  5
2E4
330
293
100
AcDbEntity
  8
0
 62
     0
100
AcDbLine
 10
280.7711499863992
 20
277.3
 30
0.0
 11
282.165437531285
 21
277.3
 31
0.0
  0
LINE
  5
2E5
330
293
100
AcDbEntity
  8
0
 62
     0
100
AcDbLine
 10
206.4391744304463
 20
277.2
 30
0.0
 11
207.7711499863992
 21
277.2
 31
0.0
  0
LINE
  5
2E6
330
293
100
AcDbEntity
  8
0
 62
     0
100
AcDbLine
 10
280.7711499863992
 20
277.2
 30
0.0
 11
282.1031255423526
 21
277.2
 31
0.0
  0
LINE
  5
2E7
330
293
100
AcDbEntity
  8
0
 62
     0
100
AcDbLine
 10
206.5044997229117
 20
277.1
 30
0.0
 11
207.7711499863992
 21
277.1
 31
0.0
  0
LINE
  5
2E8
330
293
100
AcDbEntity
  8
0
 62
     0
100
AcDbLine
 10
280.7711499863992
 20
277.1
 30
0.0
 11
282.0378002498872
 21
277.1
 31
0.0
  0
LINE
  5
2E9
330
293
100
AcDbEntity
  8
0
 62
     0
100
AcDbLine
 10
206.5729684713832
 20
277.0
 30
0.0
 11
207.7711499863992
 21
277.0
 31
0.0
  0
LINE
  5
2EA
330
293
100
AcDbEntity
  8
0
 62
     0
100
AcDbLine
 10
280.7711499863992
 20
277.0
 30
0.0
 11
281.9693315014157
 21
277.0
 31
0.0
  0
LINE
  5
2EB
330
293
100
AcDbEntity
  8
0
 62
     0
100
AcDbLine
 10
206.6447252699449
 20
276.9000000000001
 30
0.0
 11
207.7711499863992
 21
276.9000000000001
 31
0.0
  0
LINE
  5
2EC
330
293
100
AcDbEntity
  8
0
 62
     0
100
AcDbLine
 10
280.7711499863992
 20
276.9000000000001
 30
0.0
 11
281.8975747028541
 21
276.9000000000001
 31
0.0
  0
LINE
  5
2ED
330
293
100
AcDbEntity
  8
0
 62
     0
100
AcDbLine
 10
206.7199313419302
 20
276.8
 30
0.0
 11
207.7711499863992
 21
276.8
 31
0.0
  0
LINE
  5
2EE
330
293
100
AcDbEntity
  8
0
 62
     0
100
AcDbLine
 10
280.7711499863992
 20
276.8
 30
0.0
 11
281.8223686308688
 21
276.8
 31
0.0
  0
LINE
  5
2EF
330
293
100
AcDbEntity
  8
0
 62
     0
100
AcDbLine
 10
206.7987671865801
 20
276.7
 30
0.0
 11
207.7711499863992
 21
276.7
 31
0.0
  0
LINE
  5
2F0
330
293
100
AcDbEntity
  8
0
 62
     0
100
AcDbLine
 10
280.7711499863992
 20
276.7
 30
0.0
 11
281.7435327862188
 21
276.7
 31
0.0
  0
LINE
  5
2F1
330
293
100
AcDbEntity
  8
0
 62
     0
100
AcDbLine
 10
206.8814358080406
 20
276.6
 30
0.0
 11
207.7711499863992
 21
276.6
 31
0.0
  0
LINE
  5
2F2
330
293
100
AcDbEntity
  8
0
 62
     0
100
AcDbLine
 10
280.7711499863992
 20
276.6
 30
0.0
 11
281.6608641647583
 21
276.6
 31
0.0
  0
LINE
  5
2F3
330
293
100
AcDbEntity
  8
0
 62
     0
100
AcDbLine
 10
206.9681666913362
 20
276.5
 30
0.0
 11
207.7711499863992
 21
276.5
 31
0.0
  0
LINE
  5
2F4
330
293
100
AcDbEntity
  8
0
 62
     0
100
AcDbLine
 10
280.7711499863992
 20
276.5
 30
0.0
 11
281.5741332814627
 21
276.5
 31
0.0
  0
LINE
  5
2F5
330
293
100
AcDbEntity
  8
0
 62
     0
100
AcDbLine
 10
207.0592207481461
 20
276.4
 30
0.0
 11
207.7711499863992
 21
276.4
 31
0.0
  0
LINE
  5
2F6
330
293
100
AcDbEntity
  8
0
 62
     0
100
AcDbLine
 10
280.7711499863992
 20
276.4
 30
0.0
 11
281.4830792246528
 21
276.4
 31
0.0
  0
LINE
  5
2F7
330
293
100
AcDbEntity
  8
0
 62
     0
100
AcDbLine
 10
207.1548965385377
 20
276.3
 30
0.0
 11
207.7711499863992
 21
276.3
 31
0.0
  0
LINE
  5
2F8
330
293
100
AcDbEntity
  8
0
 62
     0
100
AcDbLine
 10
280.7711499863992
 20
276.3
 30
0.0
 11
281.3874034342612
 21
276.3
 31
0.0
  0
LINE
  5
2F9
330
293
100
AcDbEntity
  8
0
 62
     0
100
AcDbLine
 10
207.2555381963471
 20
276.2
 30
0.0
 11
207.7711499863992
 21
276.2
 31
0.0
  0
LINE
  5
2FA
330
293
100
AcDbEntity
  8
0
 62
     0
100
AcDbLine
 10
280.7711499863992
 20
276.2
 30
0.0
 11
281.2867617764519
 21
276.2
 31
0.0
  0
LINE
  5
2FB
330
293
100
AcDbEntity
  8
0
 62
     0
100
AcDbLine
 10
207.3615456668323
 20
276.1
 30
0.0
 11
207.7711499863992
 21
276.1
 31
0.0
  0
LINE
  5
2FC
330
293
100
AcDbEntity
  8
0
 62
     0
100
AcDbLine
 10
280.7711499863992
 20
276.1
 30
0.0
 11
281.1807543059667
 21
276.1
 31
0.0
  0
LINE
  5
2FD
330
293
100
AcDbEntity
  8
0
 62
     0
100
AcDbLine
 10
207.4733881408017
 20
276.0
 30
0.0
 11
207.7711499863992
 21
276.0
 31
0.0
  0
LINE
  5
2FE
330
293
100
AcDbEntity
  8
0
 62
     0
100
AcDbLine
 10
280.7711499863992
 20
276.0
 30
0.0
 11
281.0689118319974
 21
276.0
 31
0.0
  0
LINE
  5
2FF
330
293
100
AcDbEntity
  8
0
 62
     0
100
AcDbLine
 10
207.5916220000392
 20
275.9
 30
0.0
 11
207.7711499863992
 21
275.9
 31
0.0
  0
LINE
  5
300
330
293
100
AcDbEntity
  8
0
 62
     0
100
AcDbLine
 10
280.7711499863992
 20
275.9
 30
0.0
 11
280.9506779727599
 21
275.9
 31
0.0
  0
LINE
  5
301
330
293
100
AcDbEntity
  8
0
 62
     0
100
AcDbLine
 10
207.7169152815881
 20
275.8
 30
0.0
 11
207.7711499863992
 21
275.8
 31
0.0
  0
LINE
  5
302
330
293
100
AcDbEntity
  8
0
 62
     0
100
AcDbLine
 10
280.7711499863992
 20
275.8
 30
0.0
 11
280.8253846912109
 21
275.8
 31
0.0
  0
ENDBLK
  5
303
330
293
100
AcDbEntity
  8
0
100
AcDbBlockEnd
  0
BLOCK
  5
54A
330
549
100
AcDbEntity
  8
0
100
AcDbBlockBegin
  2
*X6
 70
     1
 10
0.0
 20
0.0
 30
0.0
  3
*X6
  1

  0
LINE
  5
54B
330
549
100
AcDbEntity
  8
0
 62
     0
100
AcDbLine
 10
183.5588540448954
 20
704.8
 30
0.0
 11
186.2265932738467
 21
704.8
 31
0.0
  0
LINE
  5
54C
330
549
100
AcDbEntity
  8
0
 62
     0
100
AcDbLine
 10
183.5071589787508
 20
704.9000000000001
 30
0.0
 11
186.2692279949211
 21
704.9000000000001
 31
0.0
  0
LINE
  5
54D
330
549
100
AcDbEntity
  8
0
 62
     0
100
AcDbLine
 10
183.4589561417001
 20
705.0
 30
0.0
 11
186.3122919468753
 21
705.0
 31
0.0
  0
LINE
  5
54E
330
549
100
AcDbEntity
  8
0
 62
     0
100
AcDbLine
 10
183.4141079962462
 20
705.1
 30
0.0
 11
186.3557871470226
 21
705.1
 31
0.0
  0
LINE
  5
54F
330
549
100
AcDbEntity
  8
0
 62
     0
100
AcDbLine
 10
183.3724929944959
 20
705.2
 30
0.0
 11
186.399715645731
 21
705.2
 31
0.0
  0
LINE
  5
550
330
549
100
AcDbEntity
  8
0
 62
     0
100
AcDbLine
 10
183.3340035528289
 20
705.3
 30
0.0
 11
186.4440795270081
 21
705.3
 31
0.0
  0
LINE
  5
551
330
549
100
AcDbEntity
  8
0
 62
     0
100
AcDbLine
 10
183.2985443796192
 20
705.4000000000001
 30
0.0
 11
186.4888809091028
 21
705.4000000000001
 31
0.0
  0
LINE
  5
552
330
549
100
AcDbEntity
  8
0
 62
     0
100
AcDbLine
 10
183.2660310866149
 20
705.4999999999999
 30
0.0
 11
186.5341219451216
 21
705.4999999999999
 31
0.0
  0
LINE
  5
553
330
549
100
AcDbEntity
  8
0
 62
     0
100
AcDbLine
 10
183.2363890305431
 20
705.6
 30
0.0
 11
186.5798048236618
 21
705.6
 31
0.0
  0
LINE
  5
554
330
549
100
AcDbEntity
  8
0
 62
     0
100
AcDbLine
 10
183.2095523434239
 20
705.7
 30
0.0
 11
186.6259317694601
 21
705.7
 31
0.0
  0
LINE
  5
555
330
549
100
AcDbEntity
  8
0
 62
     0
100
AcDbLine
 10
183.1854631190779
 20
705.8
 30
0.0
 11
186.6724741510156
 21
705.8
 31
0.0
  0
LINE
  5
556
330
549
100
AcDbEntity
  8
0
 62
     0
100
AcDbLine
 10
183.1640707301975
 20
705.9000000000001
 30
0.0
 11
186.7191049168311
 21
705.9000000000001
 31
0.0
  0
LINE
  5
557
330
549
100
AcDbEntity
  8
0
 62
     0
100
AcDbLine
 10
183.1453312556678
 20
706.0
 30
0.0
 11
186.7657356826466
 21
706.0
 31
0.0
  0
LINE
  5
558
330
549
100
AcDbEntity
  8
0
 62
     0
100
AcDbLine
 10
183.1292070019879
 20
706.0999999999999
 30
0.0
 11
186.8123664484621
 21
706.0999999999999
 31
0.0
  0
LINE
  5
559
330
549
100
AcDbEntity
  8
0
 62
     0
100
AcDbLine
 10
183.1156661059286
 20
706.2
 30
0.0
 11
186.8589972142776
 21
706.2
 31
0.0
  0
LINE
  5
55A
330
549
100
AcDbEntity
  8
0
 62
     0
100
AcDbLine
 10
183.1046822082068
 20
706.3
 30
0.0
 11
186.9056279800931
 21
706.3
 31
0.0
  0
LINE
  5
55B
330
549
100
AcDbEntity
  8
0
 62
     0
100
AcDbLine
 10
183.096234190096
 20
706.4
 30
0.0
 11
186.9522587459086
 21
706.4
 31
0.0
  0
LINE
  5
55C
330
549
100
AcDbEntity
  8
0
 62
     0
100
AcDbLine
 10
183.0903059666669
 20
706.5
 30
0.0
 11
186.9988895117241
 21
706.5
 31
0.0
  0
LINE
  5
55D
330
549
100
AcDbEntity
  8
0
 62
     0
100
AcDbLine
 10
183.0868863318417
 20
706.6
 30
0.0
 11
187.0455202775396
 21
706.6
 31
0.0
  0
LINE
  5
55E
330
549
100
AcDbEntity
  8
0
 62
     0
100
AcDbLine
 10
183.6141973366689
 20
704.7
 30
0.0
 11
186.1843857988217
 21
704.7
 31
0.0
  0
LINE
  5
55F
330
549
100
AcDbEntity
  8
0
 62
     0
100
AcDbLine
 10
183.6733663440136
 20
704.6
 30
0.0
 11
186.1426036169421
 21
704.6
 31
0.0
  0
LINE
  5
560
330
549
100
AcDbEntity
  8
0
 62
     0
100
AcDbLine
 10
183.7365638119855
 20
704.4999999999999
 30
0.0
 11
186.1012448066873
 21
704.4999999999999
 31
0.0
  0
LINE
  5
561
330
549
100
AcDbEntity
  8
0
 62
     0
100
AcDbLine
 10
183.8040224511511
 20
704.4000000000001
 30
0.0
 11
186.0603074773906
 21
704.4000000000001
 31
0.0
  0
LINE
  5
562
330
549
100
AcDbEntity
  8
0
 62
     0
100
AcDbLine
 10
183.8760109031267
 20
704.3000000000001
 30
0.0
 11
186.0197897687229
 21
704.3000000000001
 31
0.0
  0
LINE
  5
563
330
549
100
AcDbEntity
  8
0
 62
     0
100
AcDbLine
 10
183.9528413929381
 20
704.2
 30
0.0
 11
185.9796898501891
 21
704.2
 31
0.0
  0
LINE
  5
564
330
549
100
AcDbEntity
  8
0
 62
     0
100
AcDbLine
 10
184.0348796882039
 20
704.1
 30
0.0
 11
185.9400059206367
 21
704.1
 31
0.0
  0
LINE
  5
565
330
549
100
AcDbEntity
  8
0
 62
     0
100
AcDbLine
 10
184.1225582752297
 20
704.0
 30
0.0
 11
185.9007362077767
 21
704.0
 31
0.0
  0
LINE
  5
566
330
549
100
AcDbEntity
  8
0
 62
     0
100
AcDbLine
 10
184.2163941212972
 20
703.9000000000001
 30
0.0
 11
185.861878967716
 21
703.9000000000001
 31
0.0
  0
LINE
  5
567
330
549
100
AcDbEntity
  8
0
 62
     0
100
AcDbLine
 10
184.3170131420882
 20
703.8000000000001
 30
0.0
 11
185.8234324845008
 21
703.8000000000001
 31
0.0
  0
LINE
  5
568
330
549
100
AcDbEntity
  8
0
 62
     0
100
AcDbLine
 10
184.4251847612559
 20
703.7
 30
0.0
 11
185.785395069672
 21
703.7
 31
0.0
  0
LINE
  5
569
330
549
100
AcDbEntity
  8
0
 62
     0
100
AcDbLine
 10
184.5418721842669
 20
703.6
 30
0.0
 11
185.7477650618305
 21
703.6
 31
0.0
  0
LINE
  5
56A
330
549
100
AcDbEntity
  8
0
 62
     0
100
AcDbLine
 10
184.668308143684
 20
703.5
 30
0.0
 11
185.7105408262129
 21
703.5
 31
0.0
  0
LINE
  5
56B
330
549
100
AcDbEntity
  8
0
 62
     0
100
AcDbLine
 10
184.806113978747
 20
703.4
 30
0.0
 11
185.6737207542781
 21
703.4
 31
0.0
  0
LINE
  5
56C
330
549
100
AcDbEntity
  8
0
 62
     0
100
AcDbLine
 10
184.9574969624134
 20
703.3000000000001
 30
0.0
 11
185.637303263303
 21
703.3000000000001
 31
0.0
  0
LINE
  5
56D
330
549
100
AcDbEntity
  8
0
 62
     0
100
AcDbLine
 10
185.1255999616033
 20
703.2
 30
0.0
 11
185.6012867959884
 21
703.2
 31
0.0
  0
LINE
  5
56E
330
549
100
AcDbEntity
  8
0
 62
     0
100
AcDbLine
 10
185.315178396397
 20
703.1
 30
0.0
 11
185.5656698200737
 21
703.1
 31
0.0
  0
ENDBLK
  5
56F
330
549
100
AcDbEntity
  8
0
100
AcDbBlockEnd
  0
BLOCK
  5
A85
330
A7A
100
AcDbEntity
  8
0
100
AcDbBlockBegin
  2
*D7
 70
     1
 10
0.0
 20
0.0
 30
0.0
  3
*D7
  1

  0
LINE
  5
E9B
330
A7A
100
AcDbEntity
  8
BEM
 62
     0
370
    -2
100
AcDbLine
 10
379.9722164835511
 20
734.9590672994889
 30
0.0
 11
429.667689856788
 21
734.9590672994889
 31
0.0
  0
LINE
  5
E9C
330
A7A
100
AcDbEntity
  8
BEM
 62
     0
370
    -2
100
AcDbLine
 10
379.9722164835513
 20
740.9590672994888
 30
0.0
 11
429.667689856788
 21
740.9590672994888
 31
0.0
  0
LINE
  5
E9D
330
A7A
100
AcDbEntity
  8
BEM
 62
     0
370
    -2
100
AcDbLine
 10
427.667689856788
 20
727.9590672994888
 30
0.0
 11
427.667689856788
 21
720.9590672994888
 31
0.0
  0
LINE
  5
E9E
330
A7A
100
AcDbEntity
  8
BEM
 62
     0
370
    -2
100
AcDbLine
 10
427.667689856788
 20
747.9590672994889
 30
0.0
 11
427.667689856788
 21
764.4257339661556
 31
0.0
  0
LINE
  5
E9F
330
A7A
100
AcDbEntity
  8
BEM
 62
     0
370
    -2
100
AcDbLine
 10
427.667689856788
 20
734.9590672994889
 30
0.0
 11
427.667689856788
 21
740.9590672994888
 31
0.0
  0
SOLID
  5
EA0
330
A7A
100
AcDbEntity
  8
BEM
 62
     0
100
AcDbTrace
 10
426.5010231901213
 20
727.9590672994888
 30
0.0
 11
428.8343565234547
 21
727.9590672994888
 31
0.0
 12
427.667689856788
 22
734.9590672994889
 32
0.0
 13
427.667689856788
 23
734.9590672994889
 33
0.0
  0
SOLID
  5
EA1
330
A7A
100
AcDbEntity
  8
BEM
 62
     0
100
AcDbTrace
 10
426.5010231901213
 20
747.9590672994889
 30
0.0
 11
428.8343565234547
 21
747.9590672994889
 31
0.0
 12
427.667689856788
 22
740.9590672994888
 32
0.0
 13
427.667689856788
 23
740.9590672994888
 33
0.0
  0
MTEXT
  5
EA2
330
A7A
100
AcDbEntity
  8
BEM
 62
     1
100
AcDbMText
 10
421.1676898567879
 20
759.6924006328223
 30
0.0
 40
7.0
 41
0.0
 71
     5
 72
     1
  1
\A1;6
 11
0.0000000000000001
 21
1.0
 31
0.0
 73
     1
 44
1.0
  0
POINT
  5
EA3
330
A7A
100
AcDbEntity
  8
DEFPOINTS
 62
     0
100
AcDbPoint
 10
377.9722164835512
 20
734.9590672994889
 30
0.0
  0
POINT
  5
EA4
330
A7A
100
AcDbEntity
  8
DEFPOINTS
 62
     0
100
AcDbPoint
 10
377.9722164835513
 20
740.9590672994888
 30
0.0
  0
POINT
  5
EA5
330
A7A
100
AcDbEntity
  8
DEFPOINTS
 62
     0
100
AcDbPoint
 10
427.667689856788
 20
740.9590672994888
 30
0.0
  0
ENDBLK
  5
A86
330
A7A
100
AcDbEntity
  8
0
100
AcDbBlockEnd
  0
BLOCK
  5
A92
330
A87
100
AcDbEntity
  8
0
100
AcDbBlockBegin
  2
*D8
 70
     1
 10
0.0
 20
0.0
 30
0.0
  3
*D8
  1

  0
LINE
  5
D95
330
A87
100
AcDbEntity
  8
BEM
 62
     0
370
    -2
100
AcDbLine
 10
199.4722164835511
 20
463.8892097908352
 30
0.0
 11
199.4722164835511
 21
436.2668770121604
 31
0.0
  0
LINE
  5
D96
330
A87
100
AcDbEntity
  8
BEM
 62
     0
370
    -2
100
AcDbLine
 10
272.4722164835512
 20
463.8892097908359
 30
0.0
 11
272.4722164835512
 21
436.2668770121604
 31
0.0
  0
LINE
  5
D97
330
A87
100
AcDbEntity
  8
BEM
 62
     0
370
    -2
100
AcDbLine
 10
206.4722164835512
 20
438.2668770121604
 30
0.0
 11
265.4722164835511
 21
438.2668770121604
 31
0.0
  0
SOLID
  5
D98
330
A87
100
AcDbEntity
  8
BEM
 62
     0
100
AcDbTrace
 10
206.4722164835512
 20
439.4335436788271
 30
0.0
 11
206.4722164835512
 21
437.1002103454937
 31
0.0
 12
199.4722164835511
 22
438.2668770121604
 32
0.0
 13
199.4722164835511
 23
438.2668770121604
 33
0.0
  0
SOLID
  5
D99
330
A87
100
AcDbEntity
  8
BEM
 62
     0
100
AcDbTrace
 10
265.4722164835511
 20
439.4335436788271
 30
0.0
 11
265.4722164835511
 21
437.1002103454937
 31
0.0
 12
272.4722164835512
 22
438.2668770121604
 32
0.0
 13
272.4722164835512
 23
438.2668770121604
 33
0.0
  0
MTEXT
  5
D9A
330
A87
100
AcDbEntity
  8
BEM
 62
     1
100
AcDbMText
 10
235.9722164835512
 20
444.7668770121603
 30
0.0
 40
7.0
 41
0.0
 71
     5
 72
     1
  1
\A1;%%c73
 73
     1
 44
1.0
  0
POINT
  5
D9B
330
A87
100
AcDbEntity
  8
DEFPOINTS
 62
     0
100
AcDbPoint
 10
199.4722164835511
 20
465.8892097908353
 30
0.0
  0
POINT
  5
D9C
330
A87
100
AcDbEntity
  8
DEFPOINTS
 62
     0
100
AcDbPoint
 10
272.4722164835512
 20
465.889209790836
 30
0.0
  0
POINT
  5
D9D
330
A87
100
AcDbEntity
  8
DEFPOINTS
 62
     0
100
AcDbPoint
 10
272.4722164835512
 20
438.2668770121604
 30
0.0
  0
ENDBLK
  5
A93
330
A87
100
AcDbEntity
  8
0
100
AcDbBlockEnd
  0
BLOCK
  5
A9F
330
A94
100
AcDbEntity
  8
0
100
AcDbBlockBegin
  2
*D9
 70
     1
 10
0.0
 20
0.0
 30
0.0
  3
*D9
  1

  0
LINE
  5
D8A
330
A94
100
AcDbEntity
  8
BEM
 62
     0
370
    -2
100
AcDbLine
 10
55.97221648355116
 20
722.9590672994893
 30
0.0
 11
42.306997531967
 21
722.9590672994893
 31
0.0
  0
LINE
  5
D8B
330
A94
100
AcDbEntity
  8
BEM
 62
     0
370
    -2
100
AcDbLine
 10
57.97221648355116
 20
728.9590672994893
 30
0.0
 11
42.306997531967
 21
728.9590672994893
 31
0.0
  0
LINE
  5
D8C
330
A94
100
AcDbEntity
  8
BEM
 62
     0
370
    -2
100
AcDbLine
 10
44.30699753196699
 20
715.9590672994893
 30
0.0
 11
44.30699753196699
 21
708.9590672994893
 31
0.0
  0
LINE
  5
D8D
330
A94
100
AcDbEntity
  8
BEM
 62
     0
370
    -2
100
AcDbLine
 10
44.306997531967
 20
735.9590672994893
 30
0.0
 11
44.30699753196701
 21
752.425733966156
 31
0.0
  0
LINE
  5
D8E
330
A94
100
AcDbEntity
  8
BEM
 62
     0
370
    -2
100
AcDbLine
 10
44.306997531967
 20
722.9590672994893
 30
0.0
 11
44.306997531967
 21
728.9590672994893
 31
0.0
  0
SOLID
  5
D8F
330
A94
100
AcDbEntity
  8
BEM
 62
     0
100
AcDbTrace
 10
43.14033086530033
 20
715.9590672994893
 30
0.0
 11
45.47366419863365
 21
715.9590672994893
 31
0.0
 12
44.306997531967
 22
722.9590672994893
 32
0.0
 13
44.306997531967
 23
722.9590672994893
 33
0.0
  0
SOLID
  5
D90
330
A94
100
AcDbEntity
  8
BEM
 62
     0
100
AcDbTrace
 10
43.14033086530034
 20
735.9590672994893
 30
0.0
 11
45.47366419863366
 21
735.9590672994893
 31
0.0
 12
44.306997531967
 22
728.9590672994893
 32
0.0
 13
44.306997531967
 23
728.9590672994893
 33
0.0
  0
MTEXT
  5
D91
330
A94
100
AcDbEntity
  8
BEM
 62
     1
100
AcDbMText
 10
37.80699753196688
 20
747.6924006328227
 30
0.0
 40
7.0
 41
0.0
 71
     5
 72
     1
  1
\A1;6
 11
0.0000000000000001
 21
1.0
 31
0.0
 73
     1
 44
1.0
  0
POINT
  5
D92
330
A94
100
AcDbEntity
  8
DEFPOINTS
 62
     0
100
AcDbPoint
 10
57.97221648355116
 20
722.9590672994893
 30
0.0
  0
POINT
  5
D93
330
A94
100
AcDbEntity
  8
DEFPOINTS
 62
     0
100
AcDbPoint
 10
59.97221648355116
 20
728.9590672994893
 30
0.0
  0
POINT
  5
D94
330
A94
100
AcDbEntity
  8
DEFPOINTS
 62
     0
100
AcDbPoint
 10
44.306997531967
 20
728.9590672994893
 30
0.0
  0
ENDBLK
  5
AA0
330
A94
100
AcDbEntity
  8
0
100
AcDbBlockEnd
  0
BLOCK
  5
AAC
330
AA1
100
AcDbEntity
  8
0
100
AcDbBlockBegin
  2
*D10
 70
     1
 10
0.0
 20
0.0
 30
0.0
  3
*D10
  1

  0
LINE
  5
D81
330
AA1
100
AcDbEntity
  8
BEM
 62
     0
370
    -2
100
AcDbLine
 10
158.3935156411771
 20
633.9590672994893
 30
0.0
 11
42.30699753196697
 21
633.9590672994893
 31
0.0
  0
LINE
  5
D82
330
AA1
100
AcDbEntity
  8
BEM
 62
     0
370
    -2
100
AcDbLine
 10
55.97221648355116
 20
722.9590672994893
 30
0.0
 11
42.306997531967
 21
722.9590672994893
 31
0.0
  0
LINE
  5
D83
330
AA1
100
AcDbEntity
  8
BEM
 62
     0
370
    -2
100
AcDbLine
 10
44.30699753196697
 20
640.9590672994893
 30
0.0
 11
44.30699753196699
 21
715.9590672994893
 31
0.0
  0
SOLID
  5
D84
330
AA1
100
AcDbEntity
  8
BEM
 62
     0
100
AcDbTrace
 10
43.14033086530031
 20
640.9590672994893
 30
0.0
 11
45.47366419863364
 21
640.9590672994893
 31
0.0
 12
44.30699753196697
 22
633.9590672994893
 32
0.0
 13
44.30699753196697
 23
633.9590672994893
 33
0.0
  0
SOLID
  5
D85
330
AA1
100
AcDbEntity
  8
BEM
 62
     0
100
AcDbTrace
 10
43.14033086530033
 20
715.9590672994893
 30
0.0
 11
45.47366419863365
 21
715.9590672994893
 31
0.0
 12
44.306997531967
 22
722.9590672994893
 32
0.0
 13
44.306997531967
 23
722.9590672994893
 33
0.0
  0
MTEXT
  5
D86
330
AA1
100
AcDbEntity
  8
BEM
 62
     1
100
AcDbMText
 10
37.80699753196688
 20
678.4590672994893
 30
0.0
 40
7.0
 41
0.0
 71
     5
 72
     1
  1
\A1;89
 11
0.0000000000000001
 21
1.0
 31
0.0
 73
     1
 44
1.0
  0
POINT
  5
D87
330
AA1
100
AcDbEntity
  8
DEFPOINTS
 62
     0
100
AcDbPoint
 10
160.3935156411771
 20
633.9590672994893
 30
0.0
  0
POINT
  5
D88
330
AA1
100
AcDbEntity
  8
DEFPOINTS
 62
     0
100
AcDbPoint
 10
57.97221648355116
 20
722.9590672994893
 30
0.0
  0
POINT
  5
D89
330
AA1
100
AcDbEntity
  8
DEFPOINTS
 62
     0
100
AcDbPoint
 10
44.306997531967
 20
722.9590672994893
 30
0.0
  0
ENDBLK
  5
AAD
330
AA1
100
AcDbEntity
  8
0
100
AcDbBlockEnd
  0
BLOCK
  5
AB9
330
AAE
100
AcDbEntity
  8
0
100
AcDbBlockBegin
  2
*D11
 70
     1
 10
0.0
 20
0.0
 30
0.0
  3
*D11
  1

  0
LINE
  5
D78
330
AAE
100
AcDbEntity
  8
BEM
 62
     0
370
    -2
100
AcDbLine
 10
90.97221648355116
 20
739.9590672994902
 30
0.0
 11
90.97221648355116
 21
805.1531883256954
 31
0.0
  0
LINE
  5
D79
330
AAE
100
AcDbEntity
  8
BEM
 62
     0
370
    -2
100
AcDbLine
 10
380.9722164835512
 20
739.9590672994889
 30
0.0
 11
380.9722164835512
 21
805.1531883256954
 31
0.0
  0
LINE
  5
D7A
330
AAE
100
AcDbEntity
  8
BEM
 62
     0
370
    -2
100
AcDbLine
 10
97.97221648355117
 20
803.1531883256954
 30
0.0
 11
373.9722164835512
 21
803.1531883256954
 31
0.0
  0
SOLID
  5
D7B
330
AAE
100
AcDbEntity
  8
BEM
 62
     0
100
AcDbTrace
 10
97.97221648355117
 20
804.3198549923621
 30
0.0
 11
97.97221648355117
 21
801.9865216590288
 31
0.0
 12
90.97221648355116
 22
803.1531883256954
 32
0.0
 13
90.97221648355116
 23
803.1531883256954
 33
0.0
  0
SOLID
  5
D7C
330
AAE
100
AcDbEntity
  8
BEM
 62
     0
100
AcDbTrace
 10
373.9722164835512
 20
804.3198549923621
 30
0.0
 11
373.9722164835512
 21
801.9865216590288
 31
0.0
 12
380.9722164835512
 22
803.1531883256954
 32
0.0
 13
380.9722164835512
 23
803.1531883256954
 33
0.0
  0
MTEXT
  5
D7D
330
AAE
100
AcDbEntity
  8
BEM
 62
     1
100
AcDbMText
 10
235.9722164835512
 20
809.6531883256954
 30
0.0
 40
7.0
 41
0.0
 71
     5
 72
     1
  1
\A1;%%c290
 73
     1
 44
1.0
  0
POINT
  5
D7E
330
AAE
100
AcDbEntity
  8
DEFPOINTS
 62
     0
100
AcDbPoint
 10
90.97221648355116
 20
737.9590672994902
 30
0.0
  0
POINT
  5
D7F
330
AAE
100
AcDbEntity
  8
DEFPOINTS
 62
     0
100
AcDbPoint
 10
380.9722164835512
 20
737.9590672994888
 30
0.0
  0
POINT
  5
D80
330
AAE
100
AcDbEntity
  8
DEFPOINTS
 62
     0
100
AcDbPoint
 10
380.9722164835512
 20
803.1531883256954
 30
0.0
  0
ENDBLK
  5
ABA
330
AAE
100
AcDbEntity
  8
0
100
AcDbBlockEnd
  0
BLOCK
  5
AC6
330
ABB
100
AcDbEntity
  8
0
100
AcDbBlockBegin
  2
*D12
 70
     1
 10
0.0
 20
0.0
 30
0.0
  3
*D12
  1

  0
LINE
  5
F03
330
ABB
100
AcDbEntity
  8
BEM
 62
     0
370
    -2
100
AcDbLine
 10
123.9722164835511
 20
765.9590672994893
 30
0.0
 11
123.9722164835511
 21
790.4286906656655
 31
0.0
  0
LINE
  5
F04
330
ABB
100
AcDbEntity
  8
BEM
 62
     0
370
    -2
100
AcDbLine
 10
347.9722164835512
 20
780.9590672994893
 30
0.0
 11
347.9722164835512
 21
790.4286906656655
 31
0.0
  0
LINE
  5
F05
330
ABB
100
AcDbEntity
  8
BEM
 62
     0
370
    -2
100
AcDbLine
 10
130.9722164835511
 20
788.4286906656654
 30
0.0
 11
340.9722164835512
 21
788.4286906656654
 31
0.0
  0
SOLID
  5
F06
330
ABB
100
AcDbEntity
  8
BEM
 62
     0
100
AcDbTrace
 10
130.9722164835511
 20
789.5953573323321
 30
0.0
 11
130.9722164835511
 21
787.2620239989989
 31
0.0
 12
123.9722164835511
 22
788.4286906656654
 32
0.0
 13
123.9722164835511
 23
788.4286906656654
 33
0.0
  0
SOLID
  5
F07
330
ABB
100
AcDbEntity
  8
BEM
 62
     0
100
AcDbTrace
 10
340.9722164835512
 20
789.5953573323321
 30
0.0
 11
340.9722164835512
 21
787.2620239989989
 31
0.0
 12
347.9722164835512
 22
788.4286906656654
 32
0.0
 13
347.9722164835512
 23
788.4286906656654
 33
0.0
  0
MTEXT
  5
F08
330
ABB
100
AcDbEntity
  8
BEM
 62
     1
100
AcDbMText
 10
235.9722164835512
 20
794.9286906656655
 30
0.0
 40
7.0
 41
0.0
 71
     5
 72
     1
  1
\A1;%%c224
 73
     1
 44
1.0
  0
POINT
  5
F09
330
ABB
100
AcDbEntity
  8
DEFPOINTS
 62
     0
100
AcDbPoint
 10
123.9722164835511
 20
763.9590672994893
 30
0.0
  0
POINT
  5
F0A
330
ABB
100
AcDbEntity
  8
DEFPOINTS
 62
     0
100
AcDbPoint
 10
347.9722164835512
 20
778.9590672994893
 30
0.0
  0
POINT
  5
F0B
330
ABB
100
AcDbEntity
  8
DEFPOINTS
 62
     0
100
AcDbPoint
 10
347.9722164835512
 20
788.4286906656654
 30
0.0
  0
ENDBLK
  5
AC7
330
ABB
100
AcDbEntity
  8
0
100
AcDbBlockEnd
  0
BLOCK
  5
AD3
330
AC8
100
AcDbEntity
  8
0
100
AcDbBlockBegin
  2
*D13
 70
     1
 10
0.0
 20
0.0
 30
0.0
  3
*D13
  1

  0
LINE
  5
D66
330
AC8
100
AcDbEntity
  8
BEM
 62
     0
370
    -2
100
AcDbLine
 10
332.8222164835511
 20
645.9590672994893
 30
0.0
 11
332.8222164835511
 21
419.2312986687836
 31
0.0
  0
LINE
  5
D67
330
AC8
100
AcDbEntity
  8
BEM
 62
     0
370
    -2
100
AcDbLine
 10
139.1222164835512
 20
645.9590672994893
 30
0.0
 11
139.1222164835512
 21
419.2312986687836
 31
0.0
  0
LINE
  5
D68
330
AC8
100
AcDbEntity
  8
BEM
 62
     0
370
    -2
100
AcDbLine
 10
325.8222164835511
 20
421.2312986687836
 30
0.0
 11
146.1222164835512
 21
421.2312986687836
 31
0.0
  0
SOLID
  5
D69
330
AC8
100
AcDbEntity
  8
BEM
 62
     0
100
AcDbTrace
 10
325.8222164835511
 20
422.3979653354502
 30
0.0
 11
325.8222164835511
 21
420.0646320021169
 31
0.0
 12
332.8222164835511
 22
421.2312986687836
 32
0.0
 13
332.8222164835511
 23
421.2312986687836
 33
0.0
  0
SOLID
  5
D6A
330
AC8
100
AcDbEntity
  8
BEM
 62
     0
100
AcDbTrace
 10
146.1222164835512
 20
422.3979653354502
 30
0.0
 11
146.1222164835512
 21
420.0646320021169
 31
0.0
 12
139.1222164835512
 22
421.2312986687836
 32
0.0
 13
139.1222164835512
 23
421.2312986687836
 33
0.0
  0
MTEXT
  5
D6B
330
AC8
100
AcDbEntity
  8
BEM
 62
     1
100
AcDbMText
 10
235.9722164835512
 20
427.7312986687836
 30
0.0
 40
7.0
 41
0.0
 71
     5
 72
     1
  1
\A1;%%c193.7
 73
     1
 44
1.0
  0
POINT
  5
D6C
330
AC8
100
AcDbEntity
  8
DEFPOINTS
 62
     0
100
AcDbPoint
 10
332.8222164835511
 20
647.9590672994893
 30
0.0
  0
POINT
  5
D6D
330
AC8
100
AcDbEntity
  8
DEFPOINTS
 62
     0
100
AcDbPoint
 10
139.1222164835512
 20
647.9590672994893
 30
0.0
  0
POINT
  5
D6E
330
AC8
100
AcDbEntity
  8
DEFPOINTS
 62
     0
100
AcDbPoint
 10
139.1222164835512
 20
421.2312986687836
 30
0.0
  0
ENDBLK
  5
AD4
330
AC8
100
AcDbEntity
  8
0
100
AcDbBlockEnd
  0
BLOCK
  5
AE0
330
AD5
100
AcDbEntity
  8
0
100
AcDbBlockBegin
  2
*D14
 70
     1
 10
0.0
 20
0.0
 30
0.0
  3
*D14
  1

  0
LINE
  5
D5D
330
AD5
100
AcDbEntity
  8
BEM
 62
     0
370
    -2
100
AcDbLine
 10
198.0785253881632
 20
458.9590672994893
 30
0.0
 11
42.30699753196695
 21
458.9590672994894
 31
0.0
  0
LINE
  5
D5E
330
AD5
100
AcDbEntity
  8
BEM
 62
     0
370
    -2
100
AcDbLine
 10
158.3935156411771
 20
633.9590672994893
 30
0.0
 11
42.306997531967
 21
633.9590672994893
 31
0.0
  0
LINE
  5
D5F
330
AD5
100
AcDbEntity
  8
BEM
 62
     0
370
    -2
100
AcDbLine
 10
44.30699753196696
 20
465.9590672994894
 30
0.0
 11
44.306997531967
 21
626.9590672994893
 31
0.0
  0
SOLID
  5
D60
330
AD5
100
AcDbEntity
  8
BEM
 62
     0
100
AcDbTrace
 10
43.1403308653003
 20
465.9590672994894
 30
0.0
 11
45.47366419863362
 21
465.9590672994894
 31
0.0
 12
44.30699753196695
 22
458.9590672994894
 32
0.0
 13
44.30699753196695
 23
458.9590672994894
 33
0.0
  0
SOLID
  5
D61
330
AD5
100
AcDbEntity
  8
BEM
 62
     0
100
AcDbTrace
 10
43.14033086530034
 20
626.9590672994893
 30
0.0
 11
45.47366419863366
 21
626.9590672994893
 31
0.0
 12
44.306997531967
 22
633.9590672994893
 32
0.0
 13
44.306997531967
 23
633.9590672994893
 33
0.0
  0
MTEXT
  5
D62
330
AD5
100
AcDbEntity
  8
BEM
 62
     1
100
AcDbMText
 10
37.80699753196689
 20
546.4590672994893
 30
0.0
 40
7.0
 41
0.0
 71
     5
 72
     1
  1
\A1;175
 11
0.0000000000000001
 21
1.0
 31
0.0
 73
     1
 44
1.0
  0
POINT
  5
D63
330
AD5
100
AcDbEntity
  8
DEFPOINTS
 62
     0
100
AcDbPoint
 10
200.0785253881633
 20
458.9590672994893
 30
0.0
  0
POINT
  5
D64
330
AD5
100
AcDbEntity
  8
DEFPOINTS
 62
     0
100
AcDbPoint
 10
160.3935156411771
 20
633.9590672994893
 30
0.0
  0
POINT
  5
D65
330
AD5
100
AcDbEntity
  8
DEFPOINTS
 62
     0
100
AcDbPoint
 10
44.306997531967
 20
633.9590672994893
 30
0.0
  0
ENDBLK
  5
AE1
330
AD5
100
AcDbEntity
  8
0
100
AcDbBlockEnd
  0
BLOCK
  5
AED
330
AE2
100
AcDbEntity
  8
0
100
AcDbBlockBegin
  2
*D15
 70
     1
 10
0.0
 20
0.0
 30
0.0
  3
*D15
  1

  0
LINE
  5
D54
330
AE2
100
AcDbEntity
  8
BEM
 62
     0
370
    -2
100
AcDbLine
 10
57.97221648355116
 20
728.9590672994893
 30
0.0
 11
25.51026568436606
 21
728.9590672994893
 31
0.0
  0
LINE
  5
D55
330
AE2
100
AcDbEntity
  8
BEM
 62
     0
370
    -2
100
AcDbLine
 10
198.0785253881632
 20
458.9590672994893
 30
0.0
 11
25.51026568436599
 21
458.9590672994894
 31
0.0
  0
LINE
  5
D56
330
AE2
100
AcDbEntity
  8
BEM
 62
     0
370
    -2
100
AcDbLine
 10
27.51026568436606
 20
721.9590672994893
 30
0.0
 11
27.510265684366
 21
465.9590672994894
 31
0.0
  0
SOLID
  5
D57
330
AE2
100
AcDbEntity
  8
BEM
 62
     0
100
AcDbTrace
 10
26.34359901769939
 20
721.9590672994893
 30
0.0
 11
28.67693235103273
 21
721.9590672994893
 31
0.0
 12
27.51026568436607
 22
728.9590672994893
 32
0.0
 13
27.51026568436607
 23
728.9590672994893
 33
0.0
  0
SOLID
  5
D58
330
AE2
100
AcDbEntity
  8
BEM
 62
     0
100
AcDbTrace
 10
26.34359901769934
 20
465.9590672994894
 30
0.0
 11
28.67693235103267
 21
465.9590672994894
 31
0.0
 12
27.510265684366
 22
458.9590672994894
 32
0.0
 13
27.510265684366
 23
458.9590672994894
 33
0.0
  0
MTEXT
  5
D59
330
AE2
100
AcDbEntity
  8
BEM
 62
     1
100
AcDbMText
 10
21.01026568436594
 20
593.9590672994893
 30
0.0
 40
7.0
 41
0.0
 71
     5
 72
     1
  1
\A1;270
 11
0.0000000000000001
 21
1.0
 31
0.0
 73
     1
 44
1.0
  0
POINT
  5
D5A
330
AE2
100
AcDbEntity
  8
DEFPOINTS
 62
     0
100
AcDbPoint
 10
59.97221648355116
 20
728.9590672994893
 30
0.0
  0
POINT
  5
D5B
330
AE2
100
AcDbEntity
  8
DEFPOINTS
 62
     0
100
AcDbPoint
 10
200.0785253881633
 20
458.9590672994893
 30
0.0
  0
POINT
  5
D5C
330
AE2
100
AcDbEntity
  8
DEFPOINTS
 62
     0
100
AcDbPoint
 10
27.510265684366
 20
458.9590672994894
 30
0.0
  0
ENDBLK
  5
AEE
330
AE2
100
AcDbEntity
  8
0
100
AcDbBlockEnd
  0
BLOCK
  5
AFA
330
AEF
100
AcDbEntity
  8
0
100
AcDbBlockBegin
  2
*D16
 70
     1
 10
0.0
 20
0.0
 30
0.0
  3
*D16
  1

  0
LINE
  5
D4B
330
AEF
100
AcDbEntity
  8
BEM
 62
     0
370
    -2
100
AcDbLine
 10
62.20784299475099
 20
211.272371333121
 30
0.0
 11
41.0835053628009
 21
211.272371333121
 31
0.0
  0
LINE
  5
D4C
330
AEF
100
AcDbEntity
  8
BEM
 62
     0
370
    -2
100
AcDbLine
 10
62.20784299475099
 20
241.272371333121
 30
0.0
 11
41.08350536280091
 21
241.272371333121
 31
0.0
  0
LINE
  5
D4D
330
AEF
100
AcDbEntity
  8
BEM
 62
     0
370
    -2
100
AcDbLine
 10
43.0835053628009
 20
218.272371333121
 30
0.0
 11
43.0835053628009
 21
234.2723713331209
 31
0.0
  0
SOLID
  5
D4E
330
AEF
100
AcDbEntity
  8
BEM
 62
     0
100
AcDbTrace
 10
41.91683869613423
 20
218.272371333121
 30
0.0
 11
44.25017202946756
 21
218.272371333121
 31
0.0
 12
43.0835053628009
 22
211.272371333121
 32
0.0
 13
43.0835053628009
 23
211.272371333121
 33
0.0
  0
SOLID
  5
D4F
330
AEF
100
AcDbEntity
  8
BEM
 62
     0
100
AcDbTrace
 10
41.91683869613423
 20
234.2723713331209
 30
0.0
 11
44.25017202946756
 21
234.2723713331209
 31
0.0
 12
43.0835053628009
 22
241.272371333121
 32
0.0
 13
43.0835053628009
 23
241.272371333121
 33
0.0
  0
MTEXT
  5
D50
330
AEF
100
AcDbEntity
  8
BEM
 62
     1
100
AcDbMText
 10
36.58350536280086
 20
226.2723713331209
 30
0.0
 40
7.0
 41
0.0
 71
     5
 72
     1
  1
\A1;30
 11
0.0000000000000001
 21
1.0
 31
0.0
 73
     1
 44
1.0
  0
POINT
  5
D51
330
AEF
100
AcDbEntity
  8
DEFPOINTS
 62
     0
100
AcDbPoint
 10
64.20784299475099
 20
211.2723713331209
 30
0.0
  0
POINT
  5
D52
330
AEF
100
AcDbEntity
  8
DEFPOINTS
 62
     0
100
AcDbPoint
 10
64.20784299475099
 20
241.2723713331209
 30
0.0
  0
POINT
  5
D53
330
AEF
100
AcDbEntity
  8
DEFPOINTS
 62
     0
100
AcDbPoint
 10
43.0835053628009
 20
241.272371333121
 30
0.0
  0
ENDBLK
  5
AFB
330
AEF
100
AcDbEntity
  8
0
100
AcDbBlockEnd
  0
BLOCK
  5
B07
330
AFC
100
AcDbEntity
  8
0
100
AcDbBlockBegin
  2
*D17
 70
     1
 10
0.0
 20
0.0
 30
0.0
  3
*D17
  1

  0
LINE
  5
D42
330
AFC
100
AcDbEntity
  8
BEM
 62
     0
370
    -2
100
AcDbLine
 10
233.9722164835511
 20
48.27237133312099
 30
0.0
 11
25.28742691947848
 21
48.27237133312104
 31
0.0
  0
LINE
  5
D43
330
AFC
100
AcDbEntity
  8
BEM
 62
     0
370
    -2
100
AcDbLine
 10
233.9722164835511
 20
404.2723713331209
 30
0.0
 11
25.28742691947855
 21
404.272371333121
 31
0.0
  0
LINE
  5
D44
330
AFC
100
AcDbEntity
  8
BEM
 62
     0
370
    -2
100
AcDbLine
 10
27.28742691947847
 20
55.27237133312104
 30
0.0
 11
27.28742691947855
 21
397.272371333121
 31
0.0
  0
SOLID
  5
D45
330
AFC
100
AcDbEntity
  8
BEM
 62
     0
100
AcDbTrace
 10
26.1207602528118
 20
55.27237133312104
 30
0.0
 11
28.45409358614514
 21
55.27237133312104
 31
0.0
 12
27.28742691947847
 22
48.27237133312104
 32
0.0
 13
27.28742691947847
 23
48.27237133312104
 33
0.0
  0
SOLID
  5
D46
330
AFC
100
AcDbEntity
  8
BEM
 62
     0
100
AcDbTrace
 10
26.12076025281188
 20
397.272371333121
 30
0.0
 11
28.45409358614522
 21
397.272371333121
 31
0.0
 12
27.28742691947855
 22
404.272371333121
 32
0.0
 13
27.28742691947855
 23
404.272371333121
 33
0.0
  0
MTEXT
  5
D47
330
AFC
100
AcDbEntity
  8
BEM
 62
     1
100
AcDbMText
 10
20.78742691947847
 20
226.272371333121
 30
0.0
 40
7.0
 41
0.0
 71
     5
 72
     1
  1
\A1;356
 11
0.0000000000000001
 21
1.0
 31
0.0
 73
     1
 44
1.0
  0
POINT
  5
D48
330
AFC
100
AcDbEntity
  8
DEFPOINTS
 62
     0
100
AcDbPoint
 10
235.9722164835511
 20
48.27237133312099
 30
0.0
  0
POINT
  5
D49
330
AFC
100
AcDbEntity
  8
DEFPOINTS
 62
     0
100
AcDbPoint
 10
235.9722164835511
 20
404.2723713331209
 30
0.0
  0
POINT
  5
D4A
330
AFC
100
AcDbEntity
  8
DEFPOINTS
 62
     0
100
AcDbPoint
 10
27.28742691947855
 20
404.272371333121
 30
0.0
  0
ENDBLK
  5
B08
330
AFC
100
AcDbEntity
  8
0
100
AcDbBlockEnd
  0
BLOCK
  5
BF9
330
BF3
100
AcDbEntity
  8
0
100
AcDbBlockBegin
  2
*D18
 70
     1
 10
0.0
 20
0.0
 30
0.0
  3
*D18
  1

  0
LINE
  5
D3D
330
BF3
100
AcDbEntity
  8
BEM
 62
     0
370
    -2
100
AcDbLine
 10
311.3341350381346
 20
259.0830338030139
 30
0.0
 11
365.2510954125394
 21
282.5571069446882
 31
0.0
  0
MTEXT
  5
D3E
330
BF3
100
AcDbEntity
  8
BEM
 62
     1
100
AcDbMText
 10
320.2920293149436
 20
270.0723982125471
 30
0.0
 40
7.0
 41
0.0
 71
     5
 72
     1
  1
\A1;\U+2205296
 11
0.9168714817658736
 21
0.3991825220678519
 31
0.0
 73
     1
 44
1.0
  0
SOLID
  5
D3F
330
BF3
100
AcDbEntity
  8
BEM
 62
     0
100
AcDbTrace
 10
364.7853824701269
 20
283.6267903400816
 30
0.0
 11
365.7168083549519
 21
281.4874235492946
 31
0.0
 12
371.6691957849004
 22
285.3513845991631
 32
0.0
 13
371.6691957849004
 23
285.3513845991631
 33
0.0
  0
POINT
  5
D40
330
BF3
100
AcDbEntity
  8
DEFPOINTS
 62
     0
100
AcDbPoint
 10
371.6691957849004
 20
285.3513845991631
 30
0.0
  0
POINT
  5
D41
330
BF3
100
AcDbEntity
  8
DEFPOINTS
 62
     0
100
AcDbPoint
 10
100.2752371822019
 20
167.1933580670789
 30
0.0
  0
ENDBLK
  5
BFA
330
BF3
100
AcDbEntity
  8
0
100
AcDbBlockEnd
  0
BLOCK
  5
DB4
330
DAA
100
AcDbEntity
  8
0
100
AcDbBlockBegin
  2
*D19
 70
     1
 10
0.0
 20
0.0
 30
0.0
  3
*D19
  1

  0
LINE
  5
EB8
330
DAA
100
AcDbEntity
  8
SCHRAFF
 62
     0
370
    -2
100
AcDbLine
 10
85.97221648355114
 20
733.9590672994895
 30
0.0
 11
85.97221648355114
 21
818.4914530872813
 31
0.0
  0
LINE
  5
EB9
330
DAA
100
AcDbEntity
  8
SCHRAFF
 62
     0
370
    -2
100
AcDbLine
 10
385.9722164835512
 20
733.9590672994895
 30
0.0
 11
385.9722164835512
 21
818.4914530872813
 31
0.0
  0
LINE
  5
EBA
330
DAA
100
AcDbEntity
  8
SCHRAFF
 62
     0
370
    -2
100
AcDbLine
 10
92.97221648355115
 20
816.4914530872813
 30
0.0
 11
378.9722164835512
 21
816.4914530872813
 31
0.0
  0
SOLID
  5
EBB
330
DAA
100
AcDbEntity
  8
SCHRAFF
 62
     0
100
AcDbTrace
 10
92.97221648355115
 20
817.658119753948
 30
0.0
 11
92.97221648355115
 21
815.3247864206146
 31
0.0
 12
85.97221648355114
 22
816.4914530872813
 32
0.0
 13
85.97221648355114
 23
816.4914530872813
 33
0.0
  0
SOLID
  5
EBC
330
DAA
100
AcDbEntity
  8
SCHRAFF
 62
     0
100
AcDbTrace
 10
378.9722164835512
 20
817.658119753948
 30
0.0
 11
378.9722164835512
 21
815.3247864206146
 31
0.0
 12
385.9722164835512
 22
816.4914530872813
 32
0.0
 13
385.9722164835512
 23
816.4914530872813
 33
0.0
  0
MTEXT
  5
EBD
330
DAA
100
AcDbEntity
  8
SCHRAFF
 62
     1
100
AcDbMText
 10
235.9722164835512
 20
822.9914530872813
 30
0.0
 40
7.0
 41
0.0
 71
     5
 72
     1
  1
\A1;%%c300
 73
     1
 44
1.0
  0
POINT
  5
EBE
330
DAA
100
AcDbEntity
  8
DEFPOINTS
 62
     0
100
AcDbPoint
 10
85.97221648355114
 20
731.9590672994896
 30
0.0
  0
POINT
  5
EBF
330
DAA
100
AcDbEntity
  8
DEFPOINTS
 62
     0
100
AcDbPoint
 10
385.9722164835512
 20
731.9590672994896
 30
0.0
  0
POINT
  5
EC0
330
DAA
100
AcDbEntity
  8
DEFPOINTS
 62
     0
100
AcDbPoint
 10
385.9722164835512
 20
816.4914530872813
 30
0.0
  0
ENDBLK
  5
DB5
330
DAA
100
AcDbEntity
  8
0
100
AcDbBlockEnd
  0
ENDSEC
  0
SECTION
  2
ENTITIES
  0
LINE
  5
58
330
1E
100
AcDbEntity
  8
STEMPEL
100
AcDbLine
 10
484.0
 20
830.0000000000002
 30
0.0
 11
484.0
 21
470.0000000000001
 31
0.0
  0
LINE
  5
59
330
1E
100
AcDbEntity
  8
STEMPEL
100
AcDbLine
 10
484.0
 20
470.0000000000001
 30
0.0
 11
584.0
 21
470.0000000000001
 31
0.0
  0
LINE
  5
5A
330
1E
100
AcDbEntity
  8
STEMPEL
100
AcDbLine
 10
484.0000000000001
 20
566.0000000000002
 30
0.0
 11
584.0000000000001
 21
566.0
 31
0.0
  0
LINE
  5
5B
330
1E
100
AcDbEntity
  8
STEMPEL
100
AcDbLine
 10
484.0
 20
650.0
 30
0.0
 11
584.0
 21
650.0
 31
0.0
  0
LINE
  5
5C
330
1E
100
AcDbEntity
  8
STEMPEL
100
AcDbLine
 10
484.0000000000003
 20
752.0000000000002
 30
0.0
 11
554.0
 21
752.0000000000002
 31
0.0
  0
LINE
  5
5D
330
1E
100
AcDbEntity
  8
STEMPEL
100
AcDbLine
 10
564.0
 20
566.0
 30
0.0
 11
564.0
 21
470.0000000000001
 31
0.0
  0
LINE
  5
5E
330
1E
100
AcDbEntity
  8
STEMPEL
100
AcDbLine
 10
554.0
 20
830.0000000000002
 30
0.0
 11
554.0
 21
566.0
 31
0.0
  0
LINE
  5
5F
330
1E
100
AcDbEntity
  8
STEMPEL
100
AcDbLine
 10
514.0
 20
830.0000000000002
 30
0.0
 11
514.0
 21
566.0000000000002
 31
0.0
  0
LINE
  5
60
330
1E
100
AcDbEntity
  8
VOLL
100
AcDbLine
 10
484.0
 20
484.0000000000001
 30
0.0
 11
584.0
 21
484.0
 31
0.0
  0
LINE
  5
61
330
1E
100
AcDbEntity
  8
VOLL
100
AcDbLine
 10
484.0000000000001
 20
524.0000000000001
 30
0.0
 11
584.0000000000001
 21
524.0
 31
0.0
  0
LINE
  5
62
330
1E
100
AcDbEntity
  8
VOLL
100
AcDbLine
 10
484.0000000000001
 20
544.0000000000002
 30
0.0
 11
584.0000000000001
 21
544.0
 31
0.0
  0
LINE
  5
63
330
1E
100
AcDbEntity
  8
VOLL
100
AcDbLine
 10
514.0
 20
584.0000000000002
 30
0.0
 11
554.0
 21
584.0000000000002
 31
0.0
  0
LINE
  5
64
330
1E
100
AcDbEntity
  8
VOLL
100
AcDbLine
 10
484.0000000000002
 20
610.0000000000002
 30
0.0
 11
554.0
 21
610.0
 31
0.0
  0
LINE
  5
65
330
1E
100
AcDbEntity
  8
HILF
100
AcDbLine
 10
494.0
 20
470.0000000000001
 30
0.0
 11
494.0
 21
566.0000000000002
 31
0.0
  0
LINE
  5
66
330
1E
100
AcDbEntity
  8
HILF
100
AcDbLine
 10
504.0
 20
470.0000000000001
 30
0.0
 11
504.0
 21
566.0000000000002
 31
0.0
  0
LINE
  5
67
330
1E
100
AcDbEntity
  8
HILF
100
AcDbLine
 10
514.0
 20
470.0000000000001
 30
0.0
 11
514.0
 21
566.0000000000002
 31
0.0
  0
LINE
  5
68
330
1E
100
AcDbEntity
  8
HILF
100
AcDbLine
 10
524.0
 20
470.0000000000001
 30
0.0
 11
524.0
 21
566.0000000000002
 31
0.0
  0
LINE
  5
69
330
1E
100
AcDbEntity
  8
HILF
100
AcDbLine
 10
534.0
 20
470.0000000000001
 30
0.0
 11
534.0
 21
566.0000000000002
 31
0.0
  0
LINE
  5
6A
330
1E
100
AcDbEntity
  8
HILF
100
AcDbLine
 10
544.0
 20
470.0000000000001
 30
0.0
 11
544.0
 21
566.0000000000002
 31
0.0
  0
LINE
  5
6B
330
1E
100
AcDbEntity
  8
HILF
100
AcDbLine
 10
554.0
 20
470.0000000000001
 30
0.0
 11
554.0
 21
566.0000000000002
 31
0.0
  0
LINE
  5
6C
330
1E
100
AcDbEntity
  8
HILF
100
AcDbLine
 10
524.0
 20
566.0000000000002
 30
0.0
 11
524.0
 21
650.0
 31
0.0
  0
LINE
  5
6D
330
1E
100
AcDbEntity
  8
HILF
100
AcDbLine
 10
534.0
 20
566.0000000000002
 30
0.0
 11
534.0
 21
650.0
 31
0.0
  0
LINE
  5
6E
330
1E
100
AcDbEntity
  8
HILF
100
AcDbLine
 10
544.0
 20
566.0000000000002
 30
0.0
 11
544.0
 21
650.0
 31
0.0
  0
LINE
  5
6F
330
1E
100
AcDbEntity
  8
HILF
100
AcDbLine
 10
509.9624175243587
 20
654.7736801096948
 30
0.0
 11
509.9624175243587
 21
746.6297842514811
 31
0.0
  0
LINE
  5
70
330
1E
100
AcDbEntity
  8
HILF
100
AcDbLine
 10
524.0
 20
654.7736801096948
 30
0.0
 11
524.0
 21
746.6297842514811
 31
0.0
  0
LINE
  5
71
330
1E
100
AcDbEntity
  8
HILF
100
AcDbLine
 10
534.0
 20
654.7736801096948
 30
0.0
 11
534.0
 21
746.6297842514811
 31
0.0
  0
LINE
  5
72
330
1E
100
AcDbEntity
  8
HILF
100
AcDbLine
 10
544.0
 20
654.7736801096948
 30
0.0
 11
544.0
 21
746.6297842514811
 31
0.0
  0
LINE
  5
73
330
1E
100
AcDbEntity
  8
VOLL
100
AcDbLine
 10
534.0
 20
752.0000000000002
 30
0.0
 11
534.0
 21
830.0000000000002
 31
0.0
  0
LINE
  5
74
330
1E
100
AcDbEntity
  8
HILF
100
AcDbLine
 10
510.2201636304418
 20
756.7238616296995
 30
0.0
 11
510.2201636304418
 21
824.858883932673
 31
0.0
  0
LINE
  5
75
330
1E
100
AcDbEntity
  8
HILF
100
AcDbLine
 10
579.1060174197169
 20
654.7736801096948
 30
0.0
 11
579.1060174197169
 21
824.858883932673
 31
0.0
  0
TEXT
  5
76
330
1E
100
AcDbEntity
  8
TEXT
100
AcDbText
 10
575.3261810501587
 20
492.3998239263297
 30
0.0
 40
4.0
  1
Änderung
 50
90.0
 41
0.8
  7
GREEKS
 72
     1
 11
575.3261810501587
 21
503.1426810691868
 31
0.0
100
AcDbText
  0
TEXT
  5
78
330
1E
100
AcDbEntity
  8
TEXT
100
AcDbText
 10
491.5379104912911
 20
573.5163572150376
 30
0.0
 40
5.0
  1
Maßstab
 50
90.0
 41
0.8
  7
GREEKS
100
AcDbText
  0
TEXT
  5
79
330
1E
100
AcDbEntity
  8
TEXT
100
AcDbText
 10
491.4510671988221
 20
654.8779403809009
 30
0.0
 40
5.0
  1
Benennung
 50
90.0
 41
0.8
  7
GREEKS
100
AcDbText
  0
TEXT
  5
7A
330
1E
100
AcDbEntity
  8
TEXT
100
AcDbText
 10
491.6867965462863
 20
756.1787549576343
 30
0.0
 40
5.0
  1
Zeichnungs Nr.
 50
90.0
 41
0.8
  7
GREEKS
100
AcDbText
  0
TEXT
  5
7B
330
1E
100
AcDbEntity
  8
TEXT
100
AcDbText
 10
563.1543942980694
 20
654.7422383911359
 30
0.0
 40
5.0
  1
Bauvorhaben
 50
90.0
 41
0.8
  7
GREEKS
100
AcDbText
  0
TEXT
  5
7C
330
1E
100
AcDbEntity
  8
TEXT
100
AcDbText
 10
520.8188176290003
 20
756.7238616296995
 30
0.0
 40
5.0
  1
Ersatz für:
 50
90.0
 41
0.8
  7
GREEKS
100
AcDbText
  0
TEXT
  5
7D
330
1E
100
AcDbEntity
  8
TEXT
100
AcDbText
 10
580.3453415397281
 20
478.2664110704577
 30
0.0
 40
4.0
  1
Index
 50
180.0
 41
0.8
  7
GREEKS
100
AcDbText
  0
TEXT
  5
7E
330
1E
100
AcDbEntity
  8
TEXT
100
AcDbText
 10
575.3284373066019
 20
529.8990113186978
 30
0.0
 40
4.0
  1
Tag
 50
90.0
 41
0.8
  7
GREEKS
 72
     1
 11
575.3284373066019
 21
533.6323446520311
 31
0.0
100
AcDbText
  0
TEXT
  5
7F
330
1E
100
AcDbEntity
  8
TEXT
100
AcDbText
 10
575.4067578303359
 20
548.9795678138292
 30
0.0
 40
4.0
  1
Name
 50
90.0
 41
0.8
  7
GREEKS
 72
     1
 11
575.4067578303359
 21
555.3033773376387
 31
0.0
100
AcDbText
  0
TEXT
  5
80
330
1E
100
AcDbEntity
  8
TEXT
100
AcDbText
 10
520.6811949877008
 20
592.3311673153651
 30
0.0
 40
4.0
  1
Tag
 50
90.0
 41
0.8
  7
GREEKS
100
AcDbText
  0
TEXT
  5
81
330
1E
100
AcDbEntity
  8
TEXT
100
AcDbText
 10
520.6903890808478
 20
622.4626584226296
 30
0.0
 40
4.0
  1
Name
 50
90.0
 41
0.8
  7
GREEKS
100
AcDbText
  0
TEXT
  5
82
330
1E
100
AcDbEntity
  8
TEXT
100
AcDbText
 10
530.3700963038204
 20
567.5836127167615
 30
0.0
 40
4.0
  1
Gez.
 50
90.0
 41
0.8
  7
GREEKS
100
AcDbText
  0
TEXT
  5
83
330
1E
100
AcDbEntity
  8
TEXT
100
AcDbText
 10
540.3107370857163
 20
567.5515086571672
 30
0.0
 40
4.0
  1
Gepr.
 50
90.0
 41
0.8
  7
GREEKS
100
AcDbText
  0
TEXT
  5
84
330
1E
100
AcDbEntity
  8
TEXT
100
AcDbText
 10
550.470536103502
 20
567.6006777387303
 30
0.0
 40
4.0
  1
Norm.
 50
90.0
 41
0.8
  7
GREEKS
100
AcDbText
  0
TEXT
  5
85
330
1E
100
AcDbEntity
  8
TEXT
100
AcDbText
 10
541.925838221214
 20
757.2400861497007
 30
0.0
 40
5.0
  1
ersetzt durch:
 50
90.0
 41
0.8
  7
GREEKS
100
AcDbText
  0
TEXT
  5
86
330
1E
100
AcDbEntity
  8
TEXT
100
AcDbText
 10
521.0331740347627
 20
568.8693027807324
 30
0.0
 40
4.0
  1
2011
 50
90.0
 41
0.8
  7
GREEKS
100
AcDbText
  0
LINE
  5
87
330
1E
100
AcDbEntity
  8
HILF
100
AcDbLine
 10
594.0
 20
-0.0000000000000568
 30
0.0
 11
594.0
 21
840.0
 31
0.0
  0
LINE
  5
88
330
1E
100
AcDbEntity
  8
HILF
100
AcDbLine
 10
594.0
 20
840.0
 30
0.0
 11
0.0
 21
840.0
 31
0.0
  0
LINE
  5
89
330
1E
100
AcDbEntity
  8
HILF
100
AcDbLine
 10
0.0
 20
840.0
 30
0.0
 11
0.0
 21
0.0
 31
0.0
  0
LINE
  5
8B
330
1E
100
AcDbEntity
  8
STEMPEL
100
AcDbLine
 10
10.0
 20
830.0
 30
0.0
 11
10.0
 21
39.99999999999995
 31
0.0
  0
LINE
  5
8D
330
1E
100
AcDbEntity
  8
STEMPEL
100
AcDbLine
 10
584.0
 20
39.99999999999995
 30
0.0
 11
584.0
 21
830.0
 31
0.0
  0
LINE
  5
8E
330
1E
100
AcDbEntity
  8
STEMPEL
100
AcDbLine
 10
584.0
 20
830.0
 30
0.0
 11
10.0
 21
830.0
 31
0.0
  0
TEXT
  5
8F
330
1E
100
AcDbEntity
  8
TEXT
 62
     1
100
AcDbText
 10
506.6265692434746
 20
655.0390572473189
 30
0.0
 40
7.0
  1
Grundeinheit DN70
 50
90.0
 41
0.8
  7
GREEKS
100
AcDbText
  0
TEXT
  5
90
330
1E
100
AcDbEntity
  8
TEXT
 62
     1
100
AcDbText
 10
506.6265692434746
 20
766.6628088850802
 30
0.0
 40
7.0
  1
19543070W
 50
90.0
 41
0.8
  7
GREEKS
 72
     1
 11
506.6265692434746
 21
790.1294755517469
 31
0.0
100
AcDbText
  0
TEXT
  5
91
330
1E
100
AcDbEntity
  8
TEXT
100
AcDbText
 10
491.16010388621
 20
618.5090226415829
 30
0.0
 40
5.0
  1
Zul.Abw.
 50
90.0
 41
0.8
  7
GREEKS
100
AcDbText
  0
TEXT
  5
93
330
1E
100
AcDbEntity
  8
TEXT
100
AcDbText
 10
530.8491412387978
 20
590.4612856559488
 30
0.0
 40
4.0
  1
24.01.
 50
90.0
 41
0.8
  7
GREEKS
 72
     1
 11
530.8491412387978
 21
597.1660475607107
 31
0.0
100
AcDbText
  0
TEXT
  5
94
330
1E
100
AcDbEntity
  8
TEXT
100
AcDbText
 10
531.0570234483452
 20
624.0231753226609
 30
0.0
 40
4.0
  1
Koeh
 50
90.0
 41
0.8
  7
GREEKS
 72
     1
 11
531.0570234483452
 21
629.2803181798038
 31
0.0
100
AcDbText
  0
TEXT
  5
95
330
1E
100
AcDbEntity
  8
TEXT
100
AcDbText
 10
521.8997861689246
 20
654.3410940884991
 30
0.0
 40
5.0
  1
für Versal-Schnellablauf
 50
90.0
 41
0.8
  7
GREEKS
100
AcDbText
  0
TEXT
  5
96
330
1E
100
AcDbEntity
  8
TEXT
100
AcDbText
 10
531.6544091479096
 20
654.3410940884991
 30
0.0
 40
5.0
  1

 50
90.0
 41
0.8
  7
GREEKS
100
AcDbText
  0
TEXT
  5
97
330
1E
100
AcDbEntity
  8
TEXT
100
AcDbText
 10
541.4090266215394
 20
654.3410940884991
 30
0.0
 40
5.0
  1
EDV-Art.Nr. 19543.070X
 50
90.0
 41
0.8
  7
GREEKS
100
AcDbText
  0
TEXT
  5
98
330
1E
100
AcDbEntity
  8
TEXT
100
AcDbText
 10
550.6887237520849
 20
654.1676050109347
 30
0.0
 40
4.0
  1
19543070W.DWG
 50
90.0
 41
0.8
  7
GREEKS
100
AcDbText
  0
TEXT
  5
99
330
1E
100
AcDbEntity
  8
TEXT
 62
     1
100
AcDbText
 10
506.5292291158502
 20
582.703491203422
 30
0.0
 40
7.0
  1
1:2
 50
90.0
 41
0.8
  7
GREEKS
100
AcDbText
  0
TEXT
  5
9A
330
1E
100
AcDbEntity
  8
TEXT
100
AcDbText
 10
479.8856414948956
 20
470.0441139350127
 30
0.0
 40
5.0
  1
Erstellt mit AUTOCAD 2004
 50
90.0
 41
0.8
  7
GREEKS
100
AcDbText
  0
INSERT
  5
9B
330
1E
100
AcDbEntity
  8
HILF
100
AcDbBlockReference
  2
LORO
 10
557.0194069970104
 20
573.0624985962354
 30
0.0
 41
2.0
 42
2.0
 43
2.0
 50
90.0
  0
LINE
  5
9C
330
1E
100
AcDbEntity
  8
BEM
100
AcDbLine
 10
594.0
 20
455.9999999999999
 30
0.0
 11
584.0
 21
455.9999999999999
 31
0.0
  0
LINE
  5
13E
330
1E
100
AcDbEntity
  8
HILF
100
AcDbLine
 10
594.0
 20
-0.0000000000000568
 30
0.0
 11
0.0
 21
0.0
 31
0.0
  0
LINE
  5
13F
330
1E
100
AcDbEntity
  8
STEMPEL
100
AcDbLine
 10
584.0
 20
39.99999999999995
 30
0.0
 11
10.0
 21
39.99999999999995
 31
0.0
  0
LINE
  5
14A
330
1E
100
AcDbEntity
  8
HILF
100
AcDbLine
 10
297.0
 20
-0.0000000000000568
 30
0.0
 11
297.0
 21
39.99999999999995
 31
0.0
  0
TEXT
  5
15B
330
1E
100
AcDbEntity
  8
BEM
100
AcDbText
 10
583.8320989200114
 20
837.3022923857165
 30
0.0
 40
4.0
  1
Diese Zeichnung ist urheberrechtlich geschützt und bleibt unser Eigentum. Sie darf weder ganz noch teilweise verfielfältigt und nicht an Dritte weitergegeben werden.
 50
180.0
 41
0.8
  7
GREEKS
100
AcDbText
  0
LINE
  5
7F8
102
{ACAD_REACTORS
330
CB2
102
}
330
1E
100
AcDbEntity
  8
STEMPEL
100
AcDbLine
 10
413.9722164835512
 20
726.9590672994895
 30
0.0
 11
413.9722164835512
 21
722.9590672994895
 31
0.0
  0
LINE
  5
7F9
102
{ACAD_REACTORS
330
CB2
102
}
330
1E
100
AcDbEntity
  8
STEMPEL
100
AcDbLine
 10
413.9722164835512
 20
726.9590672994895
 30
0.0
 11
411.9722164835512
 21
728.9590672994895
 31
0.0
  0
LINE
  5
7FA
330
1E
100
AcDbEntity
  8
STEMPEL
100
AcDbLine
 10
388.4722164835512
 20
726.4590672994893
 30
0.0
 11
383.472216483551
 21
726.4590672994893
 31
0.0
  0
LINE
  5
7FB
102
{ACAD_REACTORS
330
CB2
102
}
330
1E
100
AcDbEntity
  8
STEMPEL
100
AcDbLine
 10
383.4722164835512
 20
726.4590672994891
 30
0.0
 11
383.4722164835512
 21
722.9590672994893
 31
0.0
  0
LINE
  5
7FD
102
{ACAD_REACTORS
330
CB2
102
}
330
1E
100
AcDbEntity
  8
STEMPEL
100
AcDbLine
 10
388.4722164835512
 20
726.4590672994893
 30
0.0
 11
388.4722164835512
 21
722.9590672994893
 31
0.0
  0
LINE
  5
7FE
102
{ACAD_REACTORS
330
CB2
102
}
330
1E
100
AcDbEntity
  8
STEMPEL
100
AcDbLine
 10
390.972216483551
 20
728.9590672994893
 30
0.0
 11
388.4722164835512
 21
726.4590672994893
 31
0.0
  0
LINE
  5
7FF
330
1E
100
AcDbEntity
  8
MITTEL
100
AcDbLine
 10
385.9722164835512
 20
733.9590672994893
 30
0.0
 11
385.9722164835512
 21
717.9590672994893
 31
0.0
  0
ARC
  5
800
102
{ACAD_REACTORS
330
CC9
102
}
330
1E
100
AcDbEntity
  8
STEMPEL
100
AcDbCircle
 10
377.9722164835512
 20
737.9590672994888
 30
0.0
 40
3.0
100
AcDbArc
 50
270.0
 51
90.0
  0
LINE
  5
801
102
{ACAD_REACTORS
330
CB2
102
}
330
1E
100
AcDbEntity
  8
STEMPEL
100
AcDbLine
 10
380.9722164835512
 20
728.9590672994893
 30
0.0
 11
383.4722164835512
 21
726.4590672994891
 31
0.0
  0
TEXT
  5
802
330
1E
100
AcDbEntity
  8
TEXT
 62
     1
100
AcDbText
 10
369.0752174353986
 20
690.5833261629624
 30
0.0
 40
7.0
  1
Losflansch
 41
0.8
  7
GREEKS
100
AcDbText
  0
DIMENSION
  5
803
330
1E
100
AcDbEntity
  8
BEM
100
AcDbDimension
  2
*D7
 10
427.667689856788
 20
740.9590672994888
 30
0.0
 11
421.1676898567879
 21
759.6924006328223
 31
0.0
 70
    32
 71
     5
 42
6.0
  3
Standard
100
AcDbAlignedDimension
 13
377.9722164835512
 23
734.9590672994889
 33
0.0
 14
377.9722164835513
 24
740.9590672994888
 34
0.0
 50
90.0
100
AcDbRotatedDimension
1001
ACAD
1000
DSTYLE
1002
{
1070
    40
1040
2.0
1070
    41
1040
3.5
1070
    42
1040
1.0
1070
    43
1040
7.0
1070
    44
1040
1.0
1070
    73
1070
     0
1070
    74
1070
     0
1070
    77
1070
     1
1070
    78
1070
     8
1070
    79
1070
     2
1070
   140
1040
3.5
1070
   141
1040
1.5
1070
   146
1040
0.5142857142857144
1070
   147
1040
1.5
1070
   172
1070
     1
1070
   178
1070
     1
1070
   179
1070
     2
1070
   271
1070
     2
1070
   272
1070
     2
1070
   284
1070
     8
1070
   285
1070
     8
1070
   286
1070
     8
1002
}
  0
TEXT
  5
804
330
1E
100
AcDbEntity
  8
TEXT
 62
     1
100
AcDbText
 10
369.0752174353986
 20
678.4010430932116
 30
0.0
 40
7.0
  1
EDV-Art.Nr. 19826.125X
 41
0.8
  7
GREEKS
100
AcDbText
  0
LINE
  5
805
330
1E
100
AcDbEntity
  8
TEXT
 62
     2
100
AcDbLine
 10
368.6956037934549
 20
687.620542779025
 30
0.0
 11
474.6190006325718
 21
687.620542779025
 31
0.0
  0
LINE
  5
806
330
1E
100
AcDbEntity
  8
STEMPEL
100
AcDbLine
 10
352.9722164835512
 20
773.9590672994893
 30
0.0
 11
353.9722164835512
 21
772.9590672994893
 31
0.0
  0
LINE
  5
807
330
1E
100
AcDbEntity
  8
STEMPEL
100
AcDbLine
 10
341.9722164835512
 20
772.9590672994893
 30
0.0
 11
342.9722164835512
 21
773.9590672994893
 31
0.0
  0
LINE
  5
808
330
1E
100
AcDbEntity
  8
STEMPEL
100
AcDbLine
 10
352.9722164835512
 20
773.9590672994893
 30
0.0
 11
342.9722164835512
 21
773.9590672994893
 31
0.0
  0
LINE
  5
809
330
1E
100
AcDbEntity
  8
STEMPEL
100
AcDbLine
 10
353.9722164835512
 20
772.9590672994893
 30
0.0
 11
341.9722164835512
 21
772.9590672994893
 31
0.0
  0
ARC
  5
80A
330
1E
100
AcDbEntity
  8
STEMPEL
100
AcDbCircle
 10
355.8852511679903
 20
749.1639162946903
 30
0.0
 40
4.29515103386132
100
AcDbArc
 50
58.53080547591829
 51
127.8806357171815
  0
ARC
  5
80B
330
1E
100
AcDbEntity
  8
STEMPEL
100
AcDbCircle
 10
355.8852511679903
 20
747.7542182238198
 30
0.0
 40
4.29515103386132
100
AcDbArc
 50
232.1193642828185
 51
301.4691945240817
  0
LINE
  5
80C
330
1E
100
AcDbEntity
  8
STEMPEL
100
AcDbLine
 10
353.2479490678961
 20
752.0321329060875
 30
0.0
 11
353.2479490678961
 21
752.5540431413612
 31
0.0
  0
LINE
  5
80D
330
1E
100
AcDbEntity
  8
STEMPEL
100
AcDbLine
 10
353.2479490678961
 20
744.8860016124227
 30
0.0
 11
353.2479490678961
 21
744.3640913771489
 31
0.0
  0
LINE
  5
80E
330
1E
100
AcDbEntity
  8
STEMPEL
100
AcDbLine
 10
353.2479490678961
 20
744.8860016124227
 30
0.0
 11
353.2479490678961
 21
752.0321329060875
 31
0.0
  0
LINE
  5
80F
330
1E
100
AcDbEntity
  8
STEMPEL
100
AcDbLine
 10
358.5225532680843
 20
752.5992519789829
 30
0.0
 11
357.9367492822401
 21
752.9374660679023
 31
0.0
  0
LINE
  5
810
330
1E
100
AcDbEntity
  8
STEMPEL
100
AcDbLine
 10
358.5225532680843
 20
752.0321329060875
 30
0.0
 11
358.5225532680843
 21
752.5992519789829
 31
0.0
  0
LINE
  5
811
330
1E
100
AcDbEntity
  8
STEMPEL
100
AcDbLine
 10
358.5225532680843
 20
744.8860016124227
 30
0.0
 11
358.5225532680843
 21
744.3188825395273
 31
0.0
  0
LINE
  5
812
330
1E
100
AcDbEntity
  8
STEMPEL
100
AcDbLine
 10
358.5225532680843
 20
744.3188825395273
 30
0.0
 11
357.9367492822401
 21
743.9806684506077
 31
0.0
  0
LINE
  5
813
330
1E
100
AcDbEntity
  8
STEMPEL
100
AcDbLine
 10
358.5225532680843
 20
744.8860016124227
 30
0.0
 11
358.5225532680843
 21
752.0321329060875
 31
0.0
  0
LINE
  5
814
330
1E
100
AcDbEntity
  8
STEMPEL
100
AcDbLine
 10
342.6987406675197
 20
752.0321329060875
 30
0.0
 11
342.6987406675197
 21
752.5540431413612
 31
0.0
  0
LINE
  5
815
330
1E
100
AcDbEntity
  8
STEMPEL
100
AcDbLine
 10
342.6987406675197
 20
744.8860016124227
 30
0.0
 11
342.6987406675197
 21
744.3640913771489
 31
0.0
  0
LINE
  5
816
330
1E
100
AcDbEntity
  8
STEMPEL
100
AcDbLine
 10
342.6987406675197
 20
744.8860016124227
 30
0.0
 11
342.6987406675197
 21
752.0321329060875
 31
0.0
  0
ARC
  5
817
330
1E
100
AcDbEntity
  8
STEMPEL
100
AcDbCircle
 10
347.973344867708
 20
737.6359982623405
 30
0.0
 40
15.82306899691459
100
AcDbArc
 50
70.52782738138638
 51
109.4721726186136
  0
ARC
  5
818
330
1E
100
AcDbEntity
  8
STEMPEL
100
AcDbCircle
 10
347.973344867708
 20
759.2821362561696
 30
0.0
 40
15.82306899691459
100
AcDbArc
 50
250.5278273813864
 51
289.4721726186136
  0
LINE
  5
819
330
1E
100
AcDbEntity
  8
STEMPEL
100
AcDbLine
 10
337.4241364673316
 20
752.4166598322083
 30
0.0
 11
337.4241364673316
 21
752.5540431413612
 31
0.0
  0
LINE
  5
81A
330
1E
100
AcDbEntity
  8
STEMPEL
100
AcDbLine
 10
337.4241364673316
 20
752.5540431413612
 30
0.0
 11
337.4241364673316
 21
752.5992519789829
 31
0.0
  0
LINE
  5
81B
330
1E
100
AcDbEntity
  8
STEMPEL
100
AcDbLine
 10
337.4241364673316
 20
752.5992519789829
 30
0.0
 11
338.0099404531757
 21
752.9374660679023
 31
0.0
  0
LINE
  5
81C
330
1E
100
AcDbEntity
  8
STEMPEL
100
AcDbLine
 10
337.4241364673316
 20
752.0321329060875
 30
0.0
 11
337.4241364673316
 21
752.4166598322083
 31
0.0
  0
LINE
  5
81D
330
1E
100
AcDbEntity
  8
STEMPEL
100
AcDbLine
 10
337.4241364673316
 20
744.3188825395273
 30
0.0
 11
338.0099404531757
 21
743.9806684506077
 31
0.0
  0
LINE
  5
81E
330
1E
100
AcDbEntity
  8
STEMPEL
100
AcDbLine
 10
337.4241364673316
 20
744.8860016124227
 30
0.0
 11
337.4241364673316
 21
744.5014746863019
 31
0.0
  0
LINE
  5
81F
330
1E
100
AcDbEntity
  8
STEMPEL
100
AcDbLine
 10
337.4241364673316
 20
744.3640913771489
 30
0.0
 11
337.4241364673316
 21
744.3188825395273
 31
0.0
  0
LINE
  5
820
330
1E
100
AcDbEntity
  8
STEMPEL
100
AcDbLine
 10
337.4241364673316
 20
744.5014746863019
 30
0.0
 11
337.4241364673316
 21
744.3640913771489
 31
0.0
  0
LINE
  5
821
330
1E
100
AcDbEntity
  8
STEMPEL
100
AcDbLine
 10
337.4241364673316
 20
744.8860016124227
 30
0.0
 11
337.4241364673316
 21
752.0321329060875
 31
0.0
  0
LINE
  5
822
330
1E
100
AcDbEntity
  8
STEMPEL
100
AcDbLine
 10
340.0690036207322
 20
753.4590672592551
 30
0.0
 11
340.0622101099563
 21
753.4590672592551
 31
0.0
  0
LINE
  5
823
330
1E
100
AcDbEntity
  8
STEMPEL
100
AcDbLine
 10
355.8844796254885
 20
753.4590672592551
 30
0.0
 11
340.0622101099411
 21
753.4590672592551
 31
0.0
  0
LINE
  5
824
330
1E
100
AcDbEntity
  8
STEMPEL
100
AcDbLine
 10
335.9722164835512
 20
743.459067299489
 30
0.0
 11
359.9722164835512
 21
743.459067299489
 31
0.0
  0
ARC
  5
825
330
1E
100
AcDbEntity
  8
STEMPEL
100
AcDbCircle
 10
340.0614385674256
 20
749.1639162946903
 30
0.0
 40
4.29515103386132
100
AcDbArc
 50
52.11936428281847
 51
121.4691945240817
  0
ARC
  5
826
330
1E
100
AcDbEntity
  8
STEMPEL
100
AcDbCircle
 10
340.0614385674256
 20
747.7542182238198
 30
0.0
 40
4.29515103386132
100
AcDbArc
 50
238.5308054759183
 51
307.8806357171815
  0
LINE
  5
827
330
1E
100
AcDbEntity
  8
HILF
100
AcDbLine
 10
342.9722164835512
 20
773.9590672994893
 30
0.0
 11
342.9722164835512
 21
753.4590672592553
 31
0.0
  0
LINE
  5
828
330
1E
100
AcDbEntity
  8
STEMPEL
100
AcDbLine
 10
341.9722164835512
 20
772.9590672994893
 30
0.0
 11
341.9722164835512
 21
753.4590672592551
 31
0.0
  0
LINE
  5
829
330
1E
100
AcDbEntity
  8
HILF
100
AcDbLine
 10
352.9722164835512
 20
773.9590672994893
 30
0.0
 11
352.9722164835512
 21
753.4590672592553
 31
0.0
  0
LINE
  5
82A
330
1E
100
AcDbEntity
  8
STEMPEL
100
AcDbLine
 10
353.9722164835512
 20
772.9590672994893
 30
0.0
 11
353.9722164835512
 21
753.4590672592551
 31
0.0
  0
LINE
  5
82B
330
1E
100
AcDbEntity
  8
STEMPEL
100
AcDbLine
 10
302.5225532680845
 20
752.0321329060878
 30
0.0
 11
302.5225532680845
 21
752.5992519789831
 31
0.0
  0
LINE
  5
82C
330
1E
100
AcDbEntity
  8
STEMPEL
100
AcDbLine
 10
302.5225532680845
 20
752.5992519789831
 30
0.0
 11
301.9367492822403
 21
752.9374660679025
 31
0.0
  0
LINE
  5
82D
330
1E
100
AcDbEntity
  8
STEMPEL
100
AcDbLine
 10
302.5225532680845
 20
744.8860016124228
 30
0.0
 11
302.5225532680845
 21
744.3188825395274
 31
0.0
  0
LINE
  5
82E
330
1E
100
AcDbEntity
  8
STEMPEL
100
AcDbLine
 10
302.5225532680845
 20
744.3188825395274
 30
0.0
 11
301.9367492822403
 21
743.9806684506079
 31
0.0
  0
LINE
  5
82F
330
1E
100
AcDbEntity
  8
STEMPEL
100
AcDbLine
 10
302.5225532680845
 20
744.8860016124228
 30
0.0
 11
302.5225532680845
 21
752.0321329060878
 31
0.0
  0
LINE
  5
830
330
1E
100
AcDbEntity
  8
STEMPEL
100
AcDbLine
 10
296.9722164835513
 20
758.9590672994893
 30
0.0
 11
297.9722164835513
 21
757.9590672994893
 31
0.0
  0
LINE
  5
831
330
1E
100
AcDbEntity
  8
STEMPEL
100
AcDbLine
 10
285.9722164835513
 20
757.9590672994893
 30
0.0
 11
286.9722164835513
 21
758.9590672994893
 31
0.0
  0
LINE
  5
832
330
1E
100
AcDbEntity
  8
STEMPEL
100
AcDbLine
 10
297.9722164835513
 20
757.9590672994893
 30
0.0
 11
285.9722164835513
 21
757.9590672994893
 31
0.0
  0
LINE
  5
833
330
1E
100
AcDbEntity
  8
STEMPEL
100
AcDbLine
 10
296.9722164835513
 20
758.9590672994893
 30
0.0
 11
286.9722164835513
 21
758.9590672994893
 31
0.0
  0
LINE
  5
834
330
1E
100
AcDbEntity
  8
STEMPEL
100
AcDbLine
 10
297.2479490678962
 20
752.0321329060878
 30
0.0
 11
297.2479490678962
 21
752.5540431413615
 31
0.0
  0
LINE
  5
835
330
1E
100
AcDbEntity
  8
STEMPEL
100
AcDbLine
 10
297.2479490678962
 20
744.8860016124228
 30
0.0
 11
297.2479490678962
 21
744.3640913771491
 31
0.0
  0
LINE
  5
836
330
1E
100
AcDbEntity
  8
STEMPEL
100
AcDbLine
 10
297.2479490678962
 20
744.8860016124228
 30
0.0
 11
297.2479490678962
 21
752.0321329060878
 31
0.0
  0
LINE
  5
837
330
1E
100
AcDbEntity
  8
STEMPEL
100
AcDbLine
 10
286.6987406675199
 20
752.0321329060878
 30
0.0
 11
286.6987406675199
 21
752.5540431413615
 31
0.0
  0
LINE
  5
838
330
1E
100
AcDbEntity
  8
STEMPEL
100
AcDbLine
 10
284.0690036207324
 20
753.4590672592553
 30
0.0
 11
284.0622101099564
 21
753.4590672592553
 31
0.0
  0
LINE
  5
839
330
1E
100
AcDbEntity
  8
STEMPEL
100
AcDbLine
 10
281.4241364673317
 20
752.4166598322085
 30
0.0
 11
281.4241364673317
 21
752.5540431413615
 31
0.0
  0
LINE
  5
83A
330
1E
100
AcDbEntity
  8
STEMPEL
100
AcDbLine
 10
281.4241364673317
 20
752.5540431413615
 30
0.0
 11
281.4241364673317
 21
752.5992519789831
 31
0.0
  0
LINE
  5
83B
330
1E
100
AcDbEntity
  8
STEMPEL
100
AcDbLine
 10
281.4241364673317
 20
752.5992519789831
 30
0.0
 11
282.0099404531758
 21
752.9374660679025
 31
0.0
  0
LINE
  5
83C
330
1E
100
AcDbEntity
  8
STEMPEL
100
AcDbLine
 10
281.4241364673317
 20
752.0321329060878
 30
0.0
 11
281.4241364673317
 21
752.4166598322085
 31
0.0
  0
ARC
  5
83D
330
1E
100
AcDbEntity
  8
STEMPEL
100
AcDbCircle
 10
284.0614385674257
 20
749.1639162946905
 30
0.0
 40
4.29515103386132
100
AcDbArc
 50
52.11936428281847
 51
121.4691945240817
  0
LINE
  5
83E
330
1E
100
AcDbEntity
  8
STEMPEL
100
AcDbLine
 10
286.6987406675199
 20
744.8860016124228
 30
0.0
 11
286.6987406675199
 21
744.3640913771491
 31
0.0
  0
LINE
  5
83F
330
1E
100
AcDbEntity
  8
STEMPEL
100
AcDbLine
 10
281.4241364673317
 20
744.3188825395274
 30
0.0
 11
282.0099404531758
 21
743.9806684506079
 31
0.0
  0
LINE
  5
840
330
1E
100
AcDbEntity
  8
STEMPEL
100
AcDbLine
 10
281.4241364673317
 20
744.8860016124228
 30
0.0
 11
281.4241364673317
 21
744.5014746863021
 31
0.0
  0
LINE
  5
841
330
1E
100
AcDbEntity
  8
STEMPEL
100
AcDbLine
 10
281.4241364673317
 20
744.3640913771491
 30
0.0
 11
281.4241364673317
 21
744.3188825395274
 31
0.0
  0
LINE
  5
842
330
1E
100
AcDbEntity
  8
STEMPEL
100
AcDbLine
 10
281.4241364673317
 20
744.5014746863021
 30
0.0
 11
281.4241364673317
 21
744.3640913771491
 31
0.0
  0
ARC
  5
843
330
1E
100
AcDbEntity
  8
STEMPEL
100
AcDbCircle
 10
284.0614385674257
 20
747.7542182238201
 30
0.0
 40
4.29515103386132
100
AcDbArc
 50
238.5308054759183
 51
307.8806357171815
  0
LINE
  5
844
330
1E
100
AcDbEntity
  8
STEMPEL
100
AcDbLine
 10
281.4241364673317
 20
744.8860016124228
 30
0.0
 11
281.4241364673317
 21
752.0321329060878
 31
0.0
  0
LINE
  5
845
330
1E
100
AcDbEntity
  8
STEMPEL
100
AcDbLine
 10
286.6987406675199
 20
744.8860016124228
 30
0.0
 11
286.6987406675199
 21
752.0321329060878
 31
0.0
  0
LINE
  5
846
330
1E
100
AcDbEntity
  8
STEMPEL
100
AcDbLine
 10
299.8844796254886
 20
753.4590672592553
 30
0.0
 11
284.0622101099413
 21
753.4590672592553
 31
0.0
  0
ARC
  5
847
330
1E
100
AcDbEntity
  8
STEMPEL
100
AcDbCircle
 10
291.9733448677081
 20
737.6359982623407
 30
0.0
 40
15.82306899691459
100
AcDbArc
 50
70.52782738138638
 51
109.4721726186136
  0
ARC
  5
848
330
1E
100
AcDbEntity
  8
STEMPEL
100
AcDbCircle
 10
291.9733448677081
 20
759.2821362561699
 30
0.0
 40
15.82306899691459
100
AcDbArc
 50
250.5278273813864
 51
289.4721726186136
  0
LINE
  5
849
330
1E
100
AcDbEntity
  8
STEMPEL
100
AcDbLine
 10
285.9722164835513
 20
757.9590672994893
 30
0.0
 11
285.9722164835513
 21
753.4590672592553
 31
0.0
  0
LINE
  5
84A
330
1E
100
AcDbEntity
  8
HILF
100
AcDbLine
 10
296.9722164835513
 20
758.9590672994893
 30
0.0
 11
296.9722164835513
 21
753.4590672592553
 31
0.0
  0
LINE
  5
84B
330
1E
100
AcDbEntity
  8
STEMPEL
100
AcDbLine
 10
297.9722164835513
 20
757.9590672994893
 30
0.0
 11
297.9722164835513
 21
753.4590672592553
 31
0.0
  0
LINE
  5
84C
330
1E
100
AcDbEntity
  8
HILF
100
AcDbLine
 10
286.9722164835513
 20
758.9590672994893
 30
0.0
 11
286.9722164835512
 21
753.4590672592553
 31
0.0
  0
ARC
  5
84D
330
1E
100
AcDbEntity
  8
STEMPEL
100
AcDbCircle
 10
299.8852511679904
 20
749.1639162946905
 30
0.0
 40
4.29515103386132
100
AcDbArc
 50
58.53080547591829
 51
127.8806357171815
  0
ARC
  5
84E
330
1E
100
AcDbEntity
  8
STEMPEL
100
AcDbCircle
 10
299.8852511679904
 20
747.7542182238201
 30
0.0
 40
4.29515103386132
100
AcDbArc
 50
232.1193642828185
 51
301.4691945240817
  0
LINE
  5
84F
102
{ACAD_REACTORS
330
CC9
102
}
330
1E
100
AcDbEntity
  8
STEMPEL
100
AcDbLine
 10
355.9722164835512
 20
740.9590672994904
 30
0.0
 11
355.9722164835512
 21
734.959067299489
 31
0.0
  0
LINE
  5
850
330
1E
100
AcDbEntity
  8
HILF
100
AcDbLine
 10
352.9722164835512
 20
740.9590672994888
 30
0.0
 11
352.9722164835512
 21
728.9590672994893
 31
0.0
  0
LINE
  5
851
330
1E
100
AcDbEntity
  8
STEMPEL
100
AcDbLine
 10
353.9722164835512
 20
740.9590672994888
 30
0.0
 11
353.9722164835512
 21
728.9590672994893
 31
0.0
  0
LINE
  5
852
330
1E
100
AcDbEntity
  8
HILF
100
AcDbLine
 10
342.9722164835512
 20
740.9590672994891
 30
0.0
 11
342.9722164835512
 21
728.9590672994893
 31
0.0
  0
LINE
  5
853
330
1E
100
AcDbEntity
  8
STEMPEL
100
AcDbLine
 10
341.9722164835512
 20
740.9590672994891
 30
0.0
 11
341.9722164835512
 21
728.9590672994893
 31
0.0
  0
LINE
  5
854
102
{ACAD_REACTORS
330
CC9
102
}
330
1E
100
AcDbEntity
  8
STEMPEL
100
AcDbLine
 10
339.9722164835512
 20
740.9590672994904
 30
0.0
 11
339.9722164835512
 21
734.9590672994892
 31
0.0
  0
ARC
  5
855
330
1E
100
AcDbEntity
  8
SCHRAFF
100
AcDbCircle
 10
332.8222164835511
 20
722.9590672994893
 30
0.0
 40
5.0
100
AcDbArc
 50
270.0
 51
359.9999999999992
  0
ARC
  5
856
102
{ACAD_REACTORS
330
CC9
102
}
330
1E
100
AcDbEntity
  8
STEMPEL
100
AcDbCircle
 10
317.9722164835512
 20
737.9590672994895
 30
0.0
 40
3.0
100
AcDbArc
 50
90.0
 51
270.0
  0
LINE
  5
857
102
{ACAD_REACTORS
330
CB2
102
}
330
1E
100
AcDbEntity
  8
STEMPEL
100
AcDbLine
 10
305.9722164835512
 20
722.9590672994895
 30
0.0
 11
305.9722164835512
 21
728.9590672994895
 31
0.0
  0
ARC
  5
858
102
{ACAD_REACTORS
330
C8F
102
}
330
1E
100
AcDbEntity
  8
STEMPEL
100
AcDbCircle
 10
281.9722164835511
 20
709.3566898550252
 30
0.0
 40
27.5
100
AcDbArc
 50
0.0
 51
24.99999999999455
  0
LINE
  5
859
102
{ACAD_REACTORS
330
C8F
102
}
330
1E
100
AcDbEntity
  8
STEMPEL
100
AcDbLine
 10
305.9722164835512
 20
722.9590672994895
 30
0.0
 11
306.8956806270592
 21
720.9786920528941
 31
0.0
  0
ARC
  5
85A
102
{ACAD_REACTORS
330
C8F
102
}
330
1E
100
AcDbEntity
  8
STEMPEL
100
AcDbCircle
 10
281.9722164835511
 20
709.3566898550252
 30
0.0
 40
30.0
100
AcDbArc
 50
0.0
 51
24.99999999999308
  0
ARC
  5
85B
102
{ACAD_REACTORS
330
C8F
102
}
330
1E
100
AcDbEntity
  8
SCHRAFF
100
AcDbCircle
 10
308.7306612809574
 20
722.9590672994895
 30
0.0
 40
4.0
100
AcDbArc
 50
292.877190109944
 51
359.9999999999984
  0
INSERT
  5
85C
330
1E
100
AcDbEntity
  8
SCHRAFF
100
AcDbBlockReference
  2
*X6
 10
495.8166080040712
 20
16.27237250718417
 30
0.0
 41
-1.0
1001
ACAD
1000
HATCH
1002
{
1070
    16
1000
_U,I
1040
0.1
1040
0.0
1070
     0
1002
}
  0
LINE
  5
85D
330
1E
100
AcDbEntity
  8
HILF
100
AcDbLine
 10
296.9722164835514
 20
734.9590672994893
 30
0.0
 11
296.9722164835514
 21
731.9590672994896
 31
0.0
  0
LINE
  5
85E
330
1E
100
AcDbEntity
  8
STEMPEL
100
AcDbLine
 10
297.9722164835513
 20
734.9590672994893
 30
0.0
 11
297.9722164835513
 21
731.9590672994896
 31
0.0
  0
LINE
  5
85F
330
1E
100
AcDbEntity
  8
STEMPEL
100
AcDbLine
 10
285.9722164835512
 20
734.9590672994893
 30
0.0
 11
285.9722164835512
 21
731.9590672994896
 31
0.0
  0
LINE
  5
860
330
1E
100
AcDbEntity
  8
HILF
100
AcDbLine
 10
286.9722164835512
 20
734.9590672994893
 30
0.0
 11
286.9722164835512
 21
731.9590672994896
 31
0.0
  0
LINE
  5
861
102
{ACAD_REACTORS
330
C8F
102
}
330
1E
100
AcDbEntity
  8
STEMPEL
100
AcDbLine
 10
309.4722164835512
 20
709.3566898550252
 30
0.0
 11
309.4722164835512
 21
693.9590672994896
 31
0.0
  0
LINE
  5
862
102
{ACAD_REACTORS
330
C8F
102
}
330
1E
100
AcDbEntity
  8
STEMPEL
100
AcDbLine
 10
311.9722164835512
 20
709.3566898550252
 30
0.0
 11
311.9722164835512
 21
693.9590672994896
 31
0.0
  0
LINE
  5
864
330
1E
100
AcDbEntity
  8
MITTEL
100
AcDbLine
 10
291.9722164835513
 20
763.9590672994893
 30
0.0
 11
291.9722164835513
 21
728.9590672994895
 31
0.0
  0
LINE
  5
865
330
1E
100
AcDbEntity
  8
STEMPEL
100
AcDbLine
 10
335.9722164835512
 20
743.459067299489
 30
0.0
 11
335.9722164835512
 21
740.9590672994891
 31
0.0
  0
LINE
  5
866
330
1E
100
AcDbEntity
  8
STEMPEL
100
AcDbLine
 10
303.9722164835513
 20
743.4590672994893
 30
0.0
 11
303.9722164835513
 21
740.9590672994891
 31
0.0
  0
LINE
  5
867
330
1E
100
AcDbEntity
  8
STEMPEL
100
AcDbLine
 10
359.9722164835512
 20
743.459067299489
 30
0.0
 11
359.9722164835512
 21
740.9590672994888
 31
0.0
  0
LINE
  5
868
330
1E
100
AcDbEntity
  8
MITTEL
100
AcDbLine
 10
347.9722164835512
 20
778.9590672994893
 30
0.0
 11
347.9722164835512
 21
728.9590672994895
 31
0.0
  0
LINE
  5
86E
330
1E
100
AcDbEntity
  8
STEMPEL
100
AcDbLine
 10
279.9722164835513
 20
743.4590672994893
 30
0.0
 11
279.9722164835513
 21
740.9590672994893
 31
0.0
  0
LINE
  5
86F
330
1E
100
AcDbEntity
  8
STEMPEL
100
AcDbLine
 10
279.9722164835513
 20
743.4590672994893
 30
0.0
 11
303.9722164835513
 21
743.4590672994893
 31
0.0
  0
LINE
  5
870
102
{ACAD_REACTORS
330
C8F
102
}
330
1E
100
AcDbEntity
  8
STEMPEL
100
AcDbLine
 10
311.9722164835512
 20
693.9590672994896
 30
0.0
 11
281.9722164835512
 21
693.9590672994896
 31
0.0
  0
LINE
  5
872
102
{ACAD_REACTORS
330
CB2
330
EFE
102
}
330
1E
100
AcDbEntity
  8
TEXT
 62
     2
100
AcDbLine
 10
358.6631289509973
 20
737.5945383416962
 30
0.0
 11
368.6956037934549
 21
687.620542779025
 31
0.0
  0
LINE
  5
873
102
{ACAD_REACTORS
330
CC9
102
}
330
1E
100
AcDbEntity
  8
STEMPEL
100
AcDbLine
 10
377.9722164835512
 20
734.9590672994889
 30
0.0
 11
353.9722164835512
 21
734.959067299489
 31
0.0
  0
LINE
  5
874
102
{ACAD_REACTORS
330
C58
102
}
330
1E
100
AcDbEntity
  8
STEMPEL
100
AcDbLine
 10
329.9722164835511
 20
647.9590672994893
 30
0.0
 11
331.0402024663272
 21
646.2680894934274
 31
0.0
  0
ARC
  5
875
330
1E
100
AcDbEntity
  8
SCHRAFF
100
AcDbCircle
 10
330.3222164835511
 20
647.9590672994893
 30
0.0
 40
3.0
100
AcDbArc
 50
249.4589845671365
 51
33.55730976191877
  0
LINE
  5
878
102
{ACAD_REACTORS
330
C58
102
}
330
1E
100
AcDbEntity
  8
STEMPEL
100
AcDbLine
 10
282.672216483551
 20
633.9590672994893
 30
0.0
 11
282.672216483551
 21
635.9590672994893
 31
0.0
  0
LINE
  5
87A
102
{ACAD_REACTORS
330
C44
102
}
330
1E
100
AcDbEntity
  8
STEMPEL
100
AcDbLine
 10
288.4722164835512
 20
633.9590672994893
 30
0.0
 11
289.7995568797422
 21
633.0656651097451
 31
0.0
  0
ARC
  5
87B
330
1E
100
AcDbEntity
  8
SCHRAFF
100
AcDbCircle
 10
287.0055231465022
 20
640.3372378084761
 30
0.0
 40
9.478597977455626
100
AcDbArc
 50
278.3478768867723
 51
317.7085360934725
  0
LINE
  5
87C
102
{ACAD_REACTORS
330
C58
102
}
330
1E
100
AcDbEntity
  8
STEMPEL
100
AcDbLine
 10
281.9722164835511
 20
635.9590672994894
 30
0.0
 11
310.9722164835512
 21
635.9590672994893
 31
0.0
  0
LINE
  5
87D
102
{ACAD_REACTORS
330
C58
102
}
330
1E
100
AcDbEntity
  8
STEMPEL
100
AcDbLine
 10
282.0065021978368
 20
633.9590672994894
 30
0.0
 11
311.5509173259252
 21
633.9590672994893
 31
0.0
  0
LINE
  5
87E
330
1E
100
AcDbEntity
  8
STEMPEL
100
AcDbLine
 10
281.9722164835511
 20
647.9590672994893
 30
0.0
 11
329.9722164835511
 21
647.9590672994893
 31
0.0
  0
LINE
  5
87F
102
{ACAD_REACTORS
330
C7B
102
}
330
1E
100
AcDbEntity
  8
STEMPEL
100
AcDbLine
 10
235.9722164835512
 20
647.9590672994892
 30
0.0
 11
240.9722164835511
 21
647.9590672994892
 31
0.0
  0
LINE
  5
880
102
{ACAD_REACTORS
330
C58
102
}
330
1E
100
AcDbEntity
  8
STEMPEL
100
AcDbLine
 10
329.9722164835511
 20
647.9590672994893
 30
0.0
 11
310.9722164835512
 21
635.9590672994893
 31
0.0
  0
LINE
  5
881
102
{ACAD_REACTORS
330
C58
102
}
330
1E
100
AcDbEntity
  8
STEMPEL
100
AcDbLine
 10
331.0402024663272
 20
646.2680894934274
 30
0.0
 11
311.5509173259252
 21
633.9590672994893
 31
0.0
  0
LINE
  5
886
102
{ACAD_REACTORS
330
C38
330
C44
102
}
330
1E
100
AcDbEntity
  8
STEMPEL
100
AcDbLine
 10
199.0435476904169
 20
607.9590672994891
 30
0.0
 11
272.9008852766851
 21
607.9590672994891
 31
0.0
  0
ARC
  5
887
330
1E
100
AcDbEntity
  8
SCHRAFF
100
AcDbCircle
 10
269.1332092640043
 20
609.4113317128451
 30
0.0
 40
5.540618862635756
100
AcDbArc
 50
307.0593209522971
 51
10.78200252537565
  0
LINE
  5
888
102
{ACAD_REACTORS
330
C58
102
}
330
1E
100
AcDbEntity
  8
TEXT
 62
     2
100
AcDbLine
 10
280.0303032224573
 20
657.4259261938646
 30
0.0
 11
350.2023816753135
 21
625.0287501596103
 31
0.0
  0
LINE
  5
889
102
{ACAD_REACTORS
330
C44
102
}
330
1E
100
AcDbEntity
  8
STEMPEL
100
AcDbLine
 10
289.7995568797422
 20
633.0656651097451
 30
0.0
 11
272.9008852766851
 21
607.9590672994891
 31
0.0
  0
LINE
  5
88A
102
{ACAD_REACTORS
330
C44
102
}
330
1E
100
AcDbEntity
  8
STEMPEL
100
AcDbLine
 10
288.4722164835512
 20
633.9590672994893
 30
0.0
 11
270.9722164835511
 21
607.9590672994891
 31
0.0
  0
LINE
  5
88C
102
{ACAD_REACTORS
330
C38
102
}
330
1E
100
AcDbEntity
  8
STEMPEL
100
AcDbLine
 10
272.4722164835512
 20
465.889209790836
 30
0.0
 11
271.865907578939
 21
458.9590672994893
 31
0.0
  0
LINE
  5
88D
102
{ACAD_REACTORS
330
C38
102
}
330
1E
100
AcDbEntity
  8
STEMPEL
100
AcDbLine
 10
270.8722164835511
 20
465.9590672994902
 30
0.0
 11
270.2597958388697
 21
458.9590672994893
 31
0.0
  0
LINE
  5
88E
102
{ACAD_REACTORS
330
C38
102
}
330
1E
100
AcDbEntity
  8
STEMPEL
100
AcDbLine
 10
201.0722164835512
 20
465.9590672994895
 30
0.0
 11
201.6846371282326
 21
458.9590672994893
 31
0.0
  0
LINE
  5
88F
102
{ACAD_REACTORS
330
C38
102
}
330
1E
100
AcDbEntity
  8
STEMPEL
100
AcDbLine
 10
199.4722164835511
 20
465.8892097908353
 30
0.0
 11
200.0785253881633
 21
458.9590672994893
 31
0.0
  0
LINE
  5
890
102
{ACAD_REACTORS
330
C38
102
}
330
1E
100
AcDbEntity
  8
STEMPEL
100
AcDbLine
 10
200.0785253881633
 20
458.9590672994893
 30
0.0
 11
271.865907578939
 21
458.9590672994893
 31
0.0
  0
LINE
  5
891
330
1E
100
AcDbEntity
  8
HILF
100
AcDbLine
 10
202.6783282236205
 20
465.9590672994894
 30
0.0
 11
269.2661047434817
 21
465.9590672994894
 31
0.0
  0
DIMENSION
  5
892
330
1E
100
AcDbEntity
  8
BEM
100
AcDbDimension
  2
*D8
 10
272.4722164835512
 20
438.2668770121604
 30
0.0
 11
235.9722164835512
 21
444.7668770121603
 31
0.0
 70
    32
  1
%%c<>
 71
     5
 42
73.0
  3
Standard
100
AcDbAlignedDimension
 13
199.4722164835511
 23
465.8892097908353
 33
0.0
 14
272.4722164835512
 24
465.889209790836
 34
0.0
100
AcDbRotatedDimension
1001
ACAD
1000
DSTYLE
1002
{
1070
    40
1040
2.0
1070
    41
1040
3.5
1070
    42
1040
1.0
1070
    43
1040
7.0
1070
    44
1040
1.0
1070
    73
1070
     0
1070
    74
1070
     0
1070
    77
1070
     1
1070
    78
1070
     8
1070
    79
1070
     2
1070
   140
1040
3.5
1070
   141
1040
1.5
1070
   146
1040
0.5142857142857144
1070
   147
1040
1.5
1070
   172
1070
     1
1070
   178
1070
     1
1070
   179
1070
     2
1070
   271
1070
     2
1070
   272
1070
     2
1070
   284
1070
     8
1070
   285
1070
     8
1070
   286
1070
     8
1002
}
  0
LINE
  5
893
330
1E
100
AcDbEntity
  8
TEXT
 62
     2
100
AcDbLine
 10
271.452492155207
 20
503.2389673201569
 30
0.0
 11
355.0690190748243
 21
486.1961287979268
 31
0.0
  0
LINE
  5
895
102
{ACAD_REACTORS
330
C38
102
}
330
1E
100
AcDbEntity
  8
STEMPEL
100
AcDbLine
 10
199.4722164835511
 20
607.9590672994891
 30
0.0
 11
199.4722164835511
 21
465.8892097908353
 31
0.0
  0
LINE
  5
896
102
{ACAD_REACTORS
330
C38
102
}
330
1E
100
AcDbEntity
  8
STEMPEL
100
AcDbLine
 10
201.0722164835511
 20
607.9590672994891
 30
0.0
 11
201.0722164835512
 21
465.9590672994895
 31
0.0
  0
LINE
  5
897
102
{ACAD_REACTORS
330
C38
102
}
330
1E
100
AcDbEntity
  8
STEMPEL
100
AcDbLine
 10
272.4722164835512
 20
607.9590672994891
 30
0.0
 11
272.4722164835512
 21
465.889209790836
 31
0.0
  0
LINE
  5
898
102
{ACAD_REACTORS
330
C38
102
}
330
1E
100
AcDbEntity
  8
STEMPEL
100
AcDbLine
 10
270.8722164835511
 20
607.9590672994891
 30
0.0
 11
270.8722164835511
 21
465.9590672994902
 31
0.0
  0
TEXT
  5
899
330
1E
100
AcDbEntity
  8
TEXT
 62
     1
100
AcDbText
 10
350.5819953172572
 20
615.8092504737969
 30
0.0
 40
7.0
  1
EDV-Art.Nr. 19085.000X
 41
0.8
  7
GREEKS
100
AcDbText
  0
LINE
  5
89A
330
1E
100
AcDbEntity
  8
TEXT
 62
     2
100
AcDbLine
 10
350.2023816753135
 20
625.0287501596103
 30
0.0
 11
456.1257785144303
 21
625.0287501596103
 31
0.0
  0
TEXT
  5
89B
330
1E
100
AcDbEntity
  8
TEXT
 62
     1
100
AcDbText
 10
355.448632716768
 20
489.1589121818642
 30
0.0
 40
7.0
  1
Ablauftopf
 41
0.8
  7
GREEKS
100
AcDbText
  0
LINE
  5
89C
330
1E
100
AcDbEntity
  8
TEXT
 62
     2
100
AcDbLine
 10
355.0690190748243
 20
486.1961287979268
 30
0.0
 11
460.9924159139412
 21
486.1961287979268
 31
0.0
  0
TEXT
  5
89D
330
1E
100
AcDbEntity
  8
TEXT
 62
     1
100
AcDbText
 10
355.448632716768
 20
476.9766291121134
 30
0.0
 40
7.0
  1
EDV-Art.Nr. 19037.070X
 41
0.8
  7
GREEKS
100
AcDbText
  0
TEXT
  5
89E
330
1E
100
AcDbEntity
  8
TEXT
 62
     1
100
AcDbText
 10
350.5819953172572
 20
627.9915335435478
 30
0.0
 40
7.0
  1
Luftsieb
 41
0.8
  7
GREEKS
100
AcDbText
  0
LINE
  5
8AB
330
1E
100
AcDbEntity
  8
MITTEL
100
AcDbLine
 10
235.9722164835512
 20
745.9590672994895
 30
0.0
 11
235.9722164835512
 21
453.9590672994891
 31
0.0
  0
LINE
  5
8AD
102
{ACAD_REACTORS
330
C7B
102
}
330
1E
100
AcDbEntity
  8
STEMPEL
100
AcDbLine
 10
332.8222164835511
 20
722.9590672994893
 30
0.0
 11
332.8222164835511
 21
647.9590672994893
 31
0.0
  0
LINE
  5
8AE
102
{ACAD_REACTORS
330
C7B
102
}
330
1E
100
AcDbEntity
  8
STEMPEL
100
AcDbLine
 10
330.3222164835511
 20
722.9590672994893
 30
0.0
 11
330.3222164835511
 21
647.9590672994893
 31
0.0
  0
LINE
  5
8AF
330
1E
100
AcDbEntity
  8
STEMPEL
100
AcDbLine
 10
185.972216483551
 20
772.9590672994893
 30
0.0
 11
184.972216483551
 21
773.9590672994893
 31
0.0
  0
LINE
  5
8B0
330
1E
100
AcDbEntity
  8
STEMPEL
100
AcDbLine
 10
174.972216483551
 20
773.9590672994893
 30
0.0
 11
173.972216483551
 21
772.9590672994893
 31
0.0
  0
LINE
  5
8B1
330
1E
100
AcDbEntity
  8
STEMPEL
100
AcDbLine
 10
173.972216483551
 20
772.9590672994893
 30
0.0
 11
185.972216483551
 21
772.9590672994893
 31
0.0
  0
LINE
  5
8B2
330
1E
100
AcDbEntity
  8
STEMPEL
100
AcDbLine
 10
174.972216483551
 20
773.9590672994893
 30
0.0
 11
184.972216483551
 21
773.9590672994893
 31
0.0
  0
LINE
  5
8B3
330
1E
100
AcDbEntity
  8
STEMPEL
100
AcDbLine
 10
190.5225532680842
 20
752.5992519789836
 30
0.0
 11
189.9367492822401
 21
752.9374660679029
 31
0.0
  0
LINE
  5
8B4
330
1E
100
AcDbEntity
  8
STEMPEL
100
AcDbLine
 10
190.5225532680842
 20
752.0321329060882
 30
0.0
 11
190.5225532680842
 21
752.5992519789836
 31
0.0
  0
LINE
  5
8B5
330
1E
100
AcDbEntity
  8
STEMPEL
100
AcDbLine
 10
190.5225532680842
 20
744.8860016124231
 30
0.0
 11
190.5225532680842
 21
744.3188825395277
 31
0.0
  0
LINE
  5
8B6
330
1E
100
AcDbEntity
  8
STEMPEL
100
AcDbLine
 10
190.5225532680842
 20
744.3188825395277
 30
0.0
 11
189.9367492822401
 21
743.9806684506083
 31
0.0
  0
LINE
  5
8B7
330
1E
100
AcDbEntity
  8
STEMPEL
100
AcDbLine
 10
190.5225532680842
 20
744.8860016124231
 30
0.0
 11
190.5225532680842
 21
752.0321329060882
 31
0.0
  0
LINE
  5
8B8
330
1E
100
AcDbEntity
  8
STEMPEL
100
AcDbLine
 10
185.247949067896
 20
752.0321329060882
 30
0.0
 11
185.247949067896
 21
752.5540431413619
 31
0.0
  0
LINE
  5
8B9
330
1E
100
AcDbEntity
  8
STEMPEL
100
AcDbLine
 10
185.247949067896
 20
744.8860016124231
 30
0.0
 11
185.247949067896
 21
744.3640913771494
 31
0.0
  0
LINE
  5
8BA
330
1E
100
AcDbEntity
  8
STEMPEL
100
AcDbLine
 10
185.247949067896
 20
744.8860016124231
 30
0.0
 11
185.247949067896
 21
752.0321329060882
 31
0.0
  0
ARC
  5
8BB
330
1E
100
AcDbEntity
  8
STEMPEL
100
AcDbCircle
 10
187.8852511679902
 20
749.1639162946908
 30
0.0
 40
4.29515103386132
100
AcDbArc
 50
58.53080547591829
 51
127.8806357171815
  0
ARC
  5
8BC
330
1E
100
AcDbEntity
  8
STEMPEL
100
AcDbCircle
 10
187.8852511679902
 20
747.7542182238205
 30
0.0
 40
4.29515103386132
100
AcDbArc
 50
232.1193642828185
 51
301.4691945240817
  0
ARC
  5
8BD
330
1E
100
AcDbEntity
  8
STEMPEL
100
AcDbCircle
 10
172.0614385674255
 20
749.1639162946908
 30
0.0
 40
4.29515103386132
100
AcDbArc
 50
52.11936428281847
 51
121.4691945240817
  0
ARC
  5
8BE
330
1E
100
AcDbEntity
  8
STEMPEL
100
AcDbCircle
 10
172.0614385674255
 20
747.7542182238205
 30
0.0
 40
4.29515103386132
100
AcDbArc
 50
238.5308054759183
 51
307.8806357171815
  0
LINE
  5
8BF
330
1E
100
AcDbEntity
  8
STEMPEL
100
AcDbLine
 10
169.4241364673315
 20
752.4166598322088
 30
0.0
 11
169.4241364673315
 21
752.5540431413619
 31
0.0
  0
LINE
  5
8C0
330
1E
100
AcDbEntity
  8
STEMPEL
100
AcDbLine
 10
169.4241364673315
 20
752.5540431413619
 30
0.0
 11
169.4241364673315
 21
752.5992519789836
 31
0.0
  0
LINE
  5
8C1
330
1E
100
AcDbEntity
  8
STEMPEL
100
AcDbLine
 10
169.4241364673315
 20
752.5992519789836
 30
0.0
 11
170.0099404531756
 21
752.9374660679029
 31
0.0
  0
LINE
  5
8C2
330
1E
100
AcDbEntity
  8
STEMPEL
100
AcDbLine
 10
169.4241364673315
 20
752.0321329060882
 30
0.0
 11
169.4241364673315
 21
752.4166598322088
 31
0.0
  0
LINE
  5
8C3
330
1E
100
AcDbEntity
  8
STEMPEL
100
AcDbLine
 10
169.4241364673315
 20
744.3188825395277
 30
0.0
 11
170.0099404531756
 21
743.9806684506083
 31
0.0
  0
LINE
  5
8C4
330
1E
100
AcDbEntity
  8
STEMPEL
100
AcDbLine
 10
169.4241364673315
 20
744.8860016124231
 30
0.0
 11
169.4241364673315
 21
744.5014746863026
 31
0.0
  0
LINE
  5
8C5
330
1E
100
AcDbEntity
  8
STEMPEL
100
AcDbLine
 10
169.4241364673315
 20
744.3640913771494
 30
0.0
 11
169.4241364673315
 21
744.3188825395277
 31
0.0
  0
LINE
  5
8C6
330
1E
100
AcDbEntity
  8
STEMPEL
100
AcDbLine
 10
169.4241364673315
 20
744.5014746863026
 30
0.0
 11
169.4241364673315
 21
744.3640913771494
 31
0.0
  0
LINE
  5
8C7
330
1E
100
AcDbEntity
  8
STEMPEL
100
AcDbLine
 10
169.4241364673315
 20
744.8860016124231
 30
0.0
 11
169.4241364673315
 21
752.0321329060882
 31
0.0
  0
LINE
  5
8C8
330
1E
100
AcDbEntity
  8
STEMPEL
100
AcDbLine
 10
174.6987406675197
 20
752.0321329060882
 30
0.0
 11
174.6987406675197
 21
752.5540431413619
 31
0.0
  0
LINE
  5
8C9
330
1E
100
AcDbEntity
  8
STEMPEL
100
AcDbLine
 10
172.0690036207321
 20
753.4590672592558
 30
0.0
 11
172.0622101099562
 21
753.4590672592558
 31
0.0
  0
LINE
  5
8CA
330
1E
100
AcDbEntity
  8
STEMPEL
100
AcDbLine
 10
174.6987406675197
 20
744.8860016124231
 30
0.0
 11
174.6987406675197
 21
744.3640913771494
 31
0.0
  0
LINE
  5
8CB
330
1E
100
AcDbEntity
  8
STEMPEL
100
AcDbLine
 10
174.6987406675197
 20
744.8860016124231
 30
0.0
 11
174.6987406675197
 21
752.0321329060882
 31
0.0
  0
ARC
  5
8CC
330
1E
100
AcDbEntity
  8
STEMPEL
100
AcDbCircle
 10
179.9733448677078
 20
759.2821362561701
 30
0.0
 40
15.82306899691459
100
AcDbArc
 50
250.5278273813864
 51
289.4721726186136
  0
LINE
  5
8CD
330
1E
100
AcDbEntity
  8
STEMPEL
100
AcDbLine
 10
187.8844796254884
 20
753.4590672592558
 30
0.0
 11
172.062210109941
 21
753.4590672592558
 31
0.0
  0
ARC
  5
8CE
330
1E
100
AcDbEntity
  8
STEMPEL
100
AcDbCircle
 10
179.9733448677078
 20
737.6359982623412
 30
0.0
 40
15.82306899691459
100
AcDbArc
 50
70.52782738138638
 51
109.4721726186136
  0
LINE
  5
8CF
330
1E
100
AcDbEntity
  8
STEMPEL
100
AcDbLine
 10
167.972216483551
 20
743.4590672994895
 30
0.0
 11
191.972216483551
 21
743.4590672994895
 31
0.0
  0
LINE
  5
8D0
330
1E
100
AcDbEntity
  8
STEMPEL
100
AcDbLine
 10
173.972216483551
 20
772.9590672994893
 30
0.0
 11
173.972216483551
 21
753.4590672592558
 31
0.0
  0
LINE
  5
8D1
330
1E
100
AcDbEntity
  8
HILF
100
AcDbLine
 10
174.972216483551
 20
773.9590672994893
 30
0.0
 11
174.972216483551
 21
753.4590672592558
 31
0.0
  0
LINE
  5
8D2
330
1E
100
AcDbEntity
  8
HILF
100
AcDbLine
 10
184.972216483551
 20
773.9590672994893
 30
0.0
 11
184.972216483551
 21
753.4590672592558
 31
0.0
  0
LINE
  5
8D3
330
1E
100
AcDbEntity
  8
STEMPEL
100
AcDbLine
 10
185.972216483551
 20
772.9590672994893
 30
0.0
 11
185.972216483551
 21
753.4590672592558
 31
0.0
  0
LINE
  5
8D4
330
1E
100
AcDbEntity
  8
STEMPEL
100
AcDbLine
 10
129.9722164835511
 20
757.9590672994893
 30
0.0
 11
128.9722164835511
 21
758.9590672994893
 31
0.0
  0
LINE
  5
8D5
330
1E
100
AcDbEntity
  8
STEMPEL
100
AcDbLine
 10
118.9722164835511
 20
758.9590672994893
 30
0.0
 11
117.9722164835511
 21
757.9590672994893
 31
0.0
  0
LINE
  5
8D6
330
1E
100
AcDbEntity
  8
STEMPEL
100
AcDbLine
 10
118.9722164835511
 20
758.9590672994893
 30
0.0
 11
128.9722164835511
 21
758.9590672994893
 31
0.0
  0
LINE
  5
8D7
330
1E
100
AcDbEntity
  8
STEMPEL
100
AcDbLine
 10
117.9722164835511
 20
757.9590672994893
 30
0.0
 11
129.9722164835511
 21
757.9590672994893
 31
0.0
  0
ARC
  5
8D8
330
1E
100
AcDbEntity
  8
STEMPEL
100
AcDbCircle
 10
131.8852511679903
 20
749.163916294691
 30
0.0
 40
4.29515103386132
100
AcDbArc
 50
58.53080547591829
 51
127.8806357171815
  0
ARC
  5
8D9
330
1E
100
AcDbEntity
  8
STEMPEL
100
AcDbCircle
 10
131.8852511679903
 20
747.7542182238208
 30
0.0
 40
4.29515103386132
100
AcDbArc
 50
232.1193642828185
 51
301.4691945240817
  0
LINE
  5
8DA
330
1E
100
AcDbEntity
  8
STEMPEL
100
AcDbLine
 10
129.2479490678962
 20
752.0321329060884
 30
0.0
 11
129.2479490678962
 21
752.5540431413621
 31
0.0
  0
LINE
  5
8DB
330
1E
100
AcDbEntity
  8
STEMPEL
100
AcDbLine
 10
129.2479490678962
 20
744.8860016124233
 30
0.0
 11
129.2479490678962
 21
744.3640913771496
 31
0.0
  0
LINE
  5
8DC
330
1E
100
AcDbEntity
  8
STEMPEL
100
AcDbLine
 10
129.2479490678962
 20
744.8860016124233
 30
0.0
 11
129.2479490678962
 21
752.0321329060884
 31
0.0
  0
LINE
  5
8DD
330
1E
100
AcDbEntity
  8
STEMPEL
100
AcDbLine
 10
134.5225532680843
 20
752.0321329060884
 30
0.0
 11
134.5225532680843
 21
752.5992519789838
 31
0.0
  0
LINE
  5
8DE
330
1E
100
AcDbEntity
  8
STEMPEL
100
AcDbLine
 10
134.5225532680843
 20
752.5992519789838
 30
0.0
 11
133.9367492822401
 21
752.9374660679032
 31
0.0
  0
LINE
  5
8DF
330
1E
100
AcDbEntity
  8
STEMPEL
100
AcDbLine
 10
134.5225532680843
 20
744.318882539528
 30
0.0
 11
133.9367492822401
 21
743.9806684506086
 31
0.0
  0
LINE
  5
8E0
330
1E
100
AcDbEntity
  8
STEMPEL
100
AcDbLine
 10
134.5225532680843
 20
744.8860016124233
 30
0.0
 11
134.5225532680843
 21
744.318882539528
 31
0.0
  0
LINE
  5
8E1
330
1E
100
AcDbEntity
  8
STEMPEL
100
AcDbLine
 10
134.5225532680843
 20
744.8860016124233
 30
0.0
 11
134.5225532680843
 21
752.0321329060884
 31
0.0
  0
LINE
  5
8E2
330
1E
100
AcDbEntity
  8
STEMPEL
100
AcDbLine
 10
118.6987406675197
 20
752.0321329060884
 30
0.0
 11
118.6987406675197
 21
752.5540431413621
 31
0.0
  0
LINE
  5
8E3
330
1E
100
AcDbEntity
  8
STEMPEL
100
AcDbLine
 10
118.6987406675197
 20
744.8860016124233
 30
0.0
 11
118.6987406675197
 21
744.3640913771496
 31
0.0
  0
LINE
  5
8E4
330
1E
100
AcDbEntity
  8
STEMPEL
100
AcDbLine
 10
118.6987406675197
 20
744.8860016124233
 30
0.0
 11
118.6987406675197
 21
752.0321329060884
 31
0.0
  0
ARC
  5
8E5
330
1E
100
AcDbEntity
  8
STEMPEL
100
AcDbCircle
 10
123.9733448677079
 20
737.6359982623414
 30
0.0
 40
15.82306899691459
100
AcDbArc
 50
70.52782738138638
 51
109.4721726186136
  0
ARC
  5
8E6
330
1E
100
AcDbEntity
  8
STEMPEL
100
AcDbCircle
 10
123.9733448677079
 20
759.2821362561704
 30
0.0
 40
15.82306899691459
100
AcDbArc
 50
250.5278273813864
 51
289.4721726186136
  0
LINE
  5
8E7
330
1E
100
AcDbEntity
  8
STEMPEL
100
AcDbLine
 10
117.9722164835511
 20
757.9590672994893
 30
0.0
 11
117.9722164835511
 21
753.4590672592558
 31
0.0
  0
LINE
  5
8E8
330
1E
100
AcDbEntity
  8
HILF
100
AcDbLine
 10
118.9722164835511
 20
758.9590672994893
 30
0.0
 11
118.9722164835511
 21
753.4590672592559
 31
0.0
  0
LINE
  5
8E9
330
1E
100
AcDbEntity
  8
HILF
100
AcDbLine
 10
128.9722164835511
 20
758.9590672994893
 30
0.0
 11
128.9722164835511
 21
753.4590672592559
 31
0.0
  0
LINE
  5
8EA
330
1E
100
AcDbEntity
  8
STEMPEL
100
AcDbLine
 10
129.9722164835511
 20
757.9590672994893
 30
0.0
 11
129.9722164835511
 21
753.4590672592558
 31
0.0
  0
LINE
  5
8EB
330
1E
100
AcDbEntity
  8
HILF
100
AcDbLine
 10
184.9722164835511
 20
734.9590672994898
 30
0.0
 11
184.972216483551
 21
731.9590672994894
 31
0.0
  0
LINE
  5
8EC
330
1E
100
AcDbEntity
  8
STEMPEL
100
AcDbLine
 10
185.9722164835512
 20
734.9590672994898
 30
0.0
 11
185.9722164835511
 21
731.9590672994894
 31
0.0
  0
LINE
  5
8EE
330
1E
100
AcDbEntity
  8
HILF
100
AcDbLine
 10
174.972216483551
 20
734.9590672994898
 30
0.0
 11
174.972216483551
 21
731.9590672994894
 31
0.0
  0
LINE
  5
8EF
330
1E
100
AcDbEntity
  8
STEMPEL
100
AcDbLine
 10
173.9722164835511
 20
734.9590672994898
 30
0.0
 11
173.9722164835511
 21
731.9590672994894
 31
0.0
  0
LINE
  5
8F0
102
{ACAD_REACTORS
330
C8F
102
}
330
1E
100
AcDbEntity
  8
STEMPEL
100
AcDbLine
 10
163.2137716861449
 20
722.9590672994895
 30
0.0
 11
162.7829828724517
 21
722.0352377072465
 31
0.0
  0
ARC
  5
8F1
330
1E
100
AcDbEntity
  8
VOLL
100
AcDbCircle
 10
163.2137716861449
 20
722.9590672994895
 30
0.0
 40
4.0
100
AcDbArc
 50
359.9999999999984
 51
0.0
  0
LINE
  5
8F2
102
{ACAD_REACTORS
330
CB2
102
}
330
1E
100
AcDbEntity
  8
STEMPEL
100
AcDbLine
 10
165.9722164835511
 20
722.9590672994895
 30
0.0
 11
165.9722164835511
 21
728.9590672994895
 31
0.0
  0
ARC
  5
8F3
102
{ACAD_REACTORS
330
C8F
102
}
330
1E
100
AcDbEntity
  8
STEMPEL
100
AcDbCircle
 10
189.9722164835511
 20
709.3566898550252
 30
0.0
 40
27.5
100
AcDbArc
 50
155.000000000005
 51
180.0
  0
ARC
  5
8F4
102
{ACAD_REACTORS
330
C8F
102
}
330
1E
100
AcDbEntity
  8
STEMPEL
100
AcDbCircle
 10
189.9722164835511
 20
709.3566898550252
 30
0.0
 40
30.0
100
AcDbArc
 50
155.0000000000047
 51
180.0
  0
INSERT
  5
8F5
330
1E
100
AcDbEntity
  8
SCHRAFF
100
AcDbBlockReference
  2
*X6
 10
-23.87217503696888
 20
16.27237250718417
 30
0.0
1001
ACAD
1000
HATCH
1002
{
1070
    16
1000
_U,I
1040
0.1
1040
0.0
1070
     0
1002
}
  0
ARC
  5
8F6
330
1E
100
AcDbEntity
  8
SCHRAFF
100
AcDbCircle
 10
163.2137716861449
 20
722.9590672994895
 30
0.0
 40
4.0
100
AcDbArc
 50
180.0000000000016
 51
247.122809890056
  0
LINE
  5
8F7
102
{ACAD_REACTORS
330
C8F
102
}
330
1E
100
AcDbEntity
  8
STEMPEL
100
AcDbLine
 10
165.9722164835511
 20
722.9590672994895
 30
0.0
 11
165.0487523400433
 21
720.9786920528945
 31
0.0
  0
LINE
  5
8F8
102
{ACAD_REACTORS
330
C8F
102
}
330
1E
100
AcDbEntity
  8
STEMPEL
100
AcDbLine
 10
240.9722164835511
 20
693.9590672994896
 30
0.0
 11
230.9722164835511
 21
693.9590672994897
 31
0.0
  0
LINE
  5
8F9
102
{ACAD_REACTORS
330
C8F
102
}
330
1E
100
AcDbEntity
  8
STEMPEL
100
AcDbLine
 10
159.9722164835512
 20
709.3566898550252
 30
0.0
 11
159.9722164835512
 21
693.9590672994896
 31
0.0
  0
LINE
  5
8FA
102
{ACAD_REACTORS
330
C8F
102
}
330
1E
100
AcDbEntity
  8
STEMPEL
100
AcDbLine
 10
162.4722164835511
 20
709.3566898550252
 30
0.0
 11
162.4722164835511
 21
693.9590672994896
 31
0.0
  0
ARC
  5
8FC
102
{ACAD_REACTORS
330
CC9
102
}
330
1E
100
AcDbEntity
  8
STEMPEL
100
AcDbCircle
 10
153.9722164835511
 20
737.9590672994904
 30
0.0
 40
3.0
100
AcDbArc
 50
270.0
 51
90.0
  0
ARC
  5
8FD
330
1E
100
AcDbEntity
  8
SCHRAFF
100
AcDbCircle
 10
139.1222164835512
 20
722.9590672994893
 30
0.0
 40
3.0
100
AcDbArc
 50
359.9999999999988
 51
0.0
  0
LINE
  5
8FE
330
1E
100
AcDbEntity
  8
HILF
100
AcDbLine
 10
128.9722164835511
 20
740.9590672994897
 30
0.0
 11
128.9722164835511
 21
728.9590672994893
 31
0.0
  0
LINE
  5
8FF
330
1E
100
AcDbEntity
  8
STEMPEL
100
AcDbLine
 10
129.9722164835511
 20
740.9590672994897
 30
0.0
 11
129.9722164835511
 21
728.9590672994893
 31
0.0
  0
LINE
  5
900
102
{ACAD_REACTORS
330
CC9
102
}
330
1E
100
AcDbEntity
  8
STEMPEL
100
AcDbLine
 10
131.9722164835513
 20
740.9590672994904
 30
0.0
 11
131.9722164835511
 21
734.9590672994901
 31
0.0
  0
LINE
  5
901
330
1E
100
AcDbEntity
  8
STEMPEL
100
AcDbLine
 10
117.9722164835511
 20
740.9590672994897
 30
0.0
 11
117.9722164835511
 21
728.9590672994893
 31
0.0
  0
LINE
  5
902
330
1E
100
AcDbEntity
  8
HILF
100
AcDbLine
 10
118.9722164835511
 20
740.9590672994897
 30
0.0
 11
118.9722164835511
 21
728.9590672994893
 31
0.0
  0
ARC
  5
903
330
1E
100
AcDbEntity
  8
SCHRAFF
100
AcDbCircle
 10
139.1222164835512
 20
722.9590672994893
 30
0.0
 40
5.0
100
AcDbArc
 50
180.0000000000008
 51
270.0
  0
LINE
  5
904
330
1E
100
AcDbEntity
  8
STEMPEL
100
AcDbLine
 10
135.9722164835512
 20
743.4590672994898
 30
0.0
 11
135.9722164835512
 21
740.9590672994897
 31
0.0
  0
LINE
  5
905
330
1E
100
AcDbEntity
  8
MITTEL
100
AcDbLine
 10
123.9722164835511
 20
763.9590672994893
 30
0.0
 11
123.9722164835511
 21
728.9590672994893
 31
0.0
  0
LINE
  5
906
330
1E
100
AcDbEntity
  8
STEMPEL
100
AcDbLine
 10
191.972216483551
 20
743.4590672994895
 30
0.0
 11
191.972216483551
 21
740.9590672994895
 31
0.0
  0
LINE
  5
907
330
1E
100
AcDbEntity
  8
STEMPEL
100
AcDbLine
 10
167.972216483551
 20
743.4590672994895
 30
0.0
 11
167.972216483551
 21
740.9590672994895
 31
0.0
  0
LINE
  5
908
330
1E
100
AcDbEntity
  8
MITTEL
100
AcDbLine
 10
179.972216483551
 20
778.9590672994893
 30
0.0
 11
179.972216483551
 21
728.9590672994893
 31
0.0
  0
LINE
  5
909
330
1E
100
AcDbEntity
  8
STEMPEL
100
AcDbLine
 10
113.4241364673316
 20
752.0321329060884
 30
0.0
 11
113.4241364673316
 21
752.4166598322089
 31
0.0
  0
LINE
  5
90A
330
1E
100
AcDbEntity
  8
STEMPEL
100
AcDbLine
 10
113.4241364673316
 20
752.5992519789838
 30
0.0
 11
114.0099404531757
 21
752.9374660679032
 31
0.0
  0
LINE
  5
90B
330
1E
100
AcDbEntity
  8
STEMPEL
100
AcDbLine
 10
113.4241364673316
 20
752.5540431413621
 30
0.0
 11
113.4241364673316
 21
752.5992519789838
 31
0.0
  0
LINE
  5
90C
330
1E
100
AcDbEntity
  8
STEMPEL
100
AcDbLine
 10
113.4241364673316
 20
752.4166598322089
 30
0.0
 11
113.4241364673316
 21
752.5540431413621
 31
0.0
  0
LINE
  5
90D
330
1E
100
AcDbEntity
  8
STEMPEL
100
AcDbLine
 10
116.0690036207322
 20
753.4590672592559
 30
0.0
 11
116.0622101099563
 21
753.4590672592559
 31
0.0
  0
LINE
  5
90E
330
1E
100
AcDbEntity
  8
STEMPEL
100
AcDbLine
 10
113.4241364673316
 20
744.5014746863027
 30
0.0
 11
113.4241364673316
 21
744.3640913771496
 31
0.0
  0
LINE
  5
90F
330
1E
100
AcDbEntity
  8
STEMPEL
100
AcDbLine
 10
113.4241364673316
 20
744.3640913771496
 30
0.0
 11
113.4241364673316
 21
744.318882539528
 31
0.0
  0
LINE
  5
910
330
1E
100
AcDbEntity
  8
STEMPEL
100
AcDbLine
 10
113.4241364673316
 20
744.8860016124233
 30
0.0
 11
113.4241364673316
 21
744.5014746863027
 31
0.0
  0
LINE
  5
911
330
1E
100
AcDbEntity
  8
STEMPEL
100
AcDbLine
 10
113.4241364673316
 20
744.318882539528
 30
0.0
 11
114.0099404531757
 21
743.9806684506086
 31
0.0
  0
LINE
  5
912
330
1E
100
AcDbEntity
  8
STEMPEL
100
AcDbLine
 10
113.4241364673316
 20
744.8860016124233
 30
0.0
 11
113.4241364673316
 21
752.0321329060884
 31
0.0
  0
LINE
  5
913
102
{ACAD_REACTORS
330
CC9
102
}
330
1E
100
AcDbEntity
  8
STEMPEL
100
AcDbLine
 10
115.9722164835511
 20
740.9590672994904
 30
0.0
 11
115.9722164835511
 21
734.9590672994899
 31
0.0
  0
LINE
  5
914
102
{ACAD_REACTORS
330
CB2
102
}
330
1E
100
AcDbEntity
  8
STEMPEL
100
AcDbLine
 10
91.97221648355133
 20
728.9590672994893
 30
0.0
 11
88.97221648355117
 21
725.9590672994891
 31
0.0
  0
LINE
  5
915
102
{ACAD_REACTORS
330
CB2
102
}
330
1E
100
AcDbEntity
  8
STEMPEL
100
AcDbLine
 10
88.97221648355117
 20
725.9590672994891
 30
0.0
 11
88.97221648355117
 21
722.9590672994893
 31
0.0
  0
LINE
  5
917
102
{ACAD_REACTORS
330
CB2
102
}
330
1E
100
AcDbEntity
  8
STEMPEL
100
AcDbLine
 10
82.97221648355117
 20
725.9590672994893
 30
0.0
 11
82.97221648355117
 21
722.9590672994893
 31
0.0
  0
LINE
  5
918
102
{ACAD_REACTORS
330
CB2
102
}
330
1E
100
AcDbEntity
  8
STEMPEL
100
AcDbLine
 10
79.97221648355105
 20
728.9590672994893
 30
0.0
 11
82.97221648355117
 21
725.9590672994893
 31
0.0
  0
LINE
  5
919
330
1E
100
AcDbEntity
  8
STEMPEL
100
AcDbLine
 10
82.97221648355117
 20
725.9590672994893
 30
0.0
 11
88.97221648355133
 21
725.9590672994893
 31
0.0
  0
LINE
  5
91A
330
1E
100
AcDbEntity
  8
MITTEL
100
AcDbLine
 10
85.97221648355116
 20
733.9590672994893
 30
0.0
 11
85.97221648355116
 21
717.9590672994893
 31
0.0
  0
ARC
  5
91B
102
{ACAD_REACTORS
330
CC9
102
}
330
1E
100
AcDbEntity
  8
STEMPEL
100
AcDbCircle
 10
93.97221648355117
 20
737.9590672994902
 30
0.0
 40
3.0
100
AcDbArc
 50
90.0
 51
270.0
  0
LINE
  5
91C
102
{ACAD_REACTORS
330
CB2
102
}
330
1E
100
AcDbEntity
  8
STEMPEL
100
AcDbLine
 10
57.97221648355116
 20
726.9590672994893
 30
0.0
 11
57.97221648355116
 21
722.9590672994893
 31
0.0
  0
LINE
  5
91D
102
{ACAD_REACTORS
330
CB2
102
}
330
1E
100
AcDbEntity
  8
STEMPEL
100
AcDbLine
 10
59.97221648355116
 20
728.9590672994893
 30
0.0
 11
57.97221648355116
 21
726.9590672994893
 31
0.0
  0
LINE
  5
91E
330
1E
100
AcDbEntity
  8
STEMPEL
100
AcDbLine
 10
111.9722164835511
 20
743.4590672994898
 30
0.0
 11
111.9722164835511
 21
740.9590672994897
 31
0.0
  0
LINE
  5
91F
102
{ACAD_REACTORS
330
CC9
102
}
330
1E
100
AcDbEntity
  8
STEMPEL
100
AcDbLine
 10
117.9722164835511
 20
734.9590672994899
 30
0.0
 11
93.97221648355117
 21
734.9590672994899
 31
0.0
  0
LINE
  5
921
330
1E
100
AcDbEntity
  8
STEMPEL
100
AcDbLine
 10
111.9722164835511
 20
743.4590672994898
 30
0.0
 11
135.9722164835512
 21
743.4590672994898
 31
0.0
  0
LINE
  5
922
330
1E
100
AcDbEntity
  8
STEMPEL
100
AcDbLine
 10
131.8844796254885
 20
753.4590672592559
 30
0.0
 11
116.0622101099411
 21
753.4590672592559
 31
0.0
  0
ARC
  5
923
330
1E
100
AcDbEntity
  8
STEMPEL
100
AcDbCircle
 10
116.0614385674257
 20
749.163916294691
 30
0.0
 40
4.29515103386132
100
AcDbArc
 50
52.11936428281847
 51
121.4691945240817
  0
ARC
  5
924
330
1E
100
AcDbEntity
  8
STEMPEL
100
AcDbCircle
 10
116.0614385674257
 20
747.7542182238208
 30
0.0
 40
4.29515103386132
100
AcDbArc
 50
238.5308054759183
 51
307.8806357171815
  0
DIMENSION
  5
925
330
1E
100
AcDbEntity
  8
BEM
100
AcDbDimension
  2
*D9
 10
44.306997531967
 20
728.9590672994893
 30
0.0
 11
37.80699753196688
 21
747.6924006328227
 31
0.0
 70
    32
 71
     5
 42
6.0
  3
Standard
100
AcDbAlignedDimension
 13
57.97221648355116
 23
722.9590672994893
 33
0.0
 14
59.97221648355116
 24
728.9590672994893
 34
0.0
 50
90.0
100
AcDbRotatedDimension
1001
ACAD
1000
DSTYLE
1002
{
1070
    40
1040
2.0
1070
    41
1040
3.5
1070
    42
1040
1.0
1070
    43
1040
7.0
1070
    44
1040
1.0
1070
    73
1070
     0
1070
    74
1070
     0
1070
    77
1070
     1
1070
    78
1070
     8
1070
    79
1070
     2
1070
   140
1040
3.5
1070
   141
1040
1.5
1070
   146
1040
0.5142857142857144
1070
   147
1040
1.5
1070
   172
1070
     1
1070
   178
1070
     1
1070
   179
1070
     2
1070
   271
1070
     2
1070
   272
1070
     2
1070
   284
1070
     8
1070
   285
1070
     8
1070
   286
1070
     8
1002
}
  0
LINE
  5
926
102
{ACAD_REACTORS
330
C58
102
}
330
1E
100
AcDbEntity
  8
STEMPEL
100
AcDbLine
 10
189.2722164835509
 20
633.9590672994893
 30
0.0
 11
189.2722164835509
 21
635.9590672994893
 31
0.0
  0
LINE
  5
92A
102
{ACAD_REACTORS
330
C44
102
}
330
1E
100
AcDbEntity
  8
STEMPEL
100
AcDbLine
 10
183.4722164835511
 20
633.9590672994893
 30
0.0
 11
182.14487608736
 21
633.0656651097454
 31
0.0
  0
LINE
  5
92B
102
{ACAD_REACTORS
330
C58
102
}
330
1E
100
AcDbEntity
  8
STEMPEL
100
AcDbLine
 10
160.9722164835512
 20
635.9590672994893
 30
0.0
 11
189.9722164835511
 21
635.9590672994893
 31
0.0
  0
LINE
  5
92C
102
{ACAD_REACTORS
330
C58
102
}
330
1E
100
AcDbEntity
  8
STEMPEL
100
AcDbLine
 10
160.3935156411771
 20
633.9590672994893
 30
0.0
 11
189.9379307692654
 21
633.9590672994893
 31
0.0
  0
ARC
  5
92D
330
1E
100
AcDbEntity
  8
SCHRAFF
100
AcDbCircle
 10
184.9389098206001
 20
640.3372378084761
 30
0.0
 40
9.478597977455626
100
AcDbArc
 50
222.2914639065275
 51
261.6521231132277
  0
LINE
  5
92F
102
{ACAD_REACTORS
330
C58
102
}
330
1E
100
AcDbEntity
  8
STEMPEL
100
AcDbLine
 10
141.9722164835511
 20
647.9590672994893
 30
0.0
 11
140.9042305007751
 21
646.2680894934274
 31
0.0
  0
ARC
  5
930
330
1E
100
AcDbEntity
  8
SCHRAFF
100
AcDbCircle
 10
141.6222164835512
 20
647.9590672994893
 30
0.0
 40
3.0
100
AcDbArc
 50
146.4426902380812
 51
290.5410154328635
  0
LINE
  5
931
102
{ACAD_REACTORS
330
C58
102
}
330
1E
100
AcDbEntity
  8
STEMPEL
100
AcDbLine
 10
141.9722164835511
 20
647.9590672994893
 30
0.0
 11
160.9722164835512
 21
635.9590672994893
 31
0.0
  0
LINE
  5
932
102
{ACAD_REACTORS
330
C58
102
}
330
1E
100
AcDbEntity
  8
STEMPEL
100
AcDbLine
 10
140.9042305007751
 20
646.2680894934274
 30
0.0
 11
160.3935156411771
 21
633.9590672994893
 31
0.0
  0
LINE
  5
933
330
1E
100
AcDbEntity
  8
STEMPEL
100
AcDbLine
 10
141.9722164835511
 20
647.9590672994893
 30
0.0
 11
189.9722164835511
 21
647.9590672994892
 31
0.0
  0
LINE
  5
934
102
{ACAD_REACTORS
330
C7B
102
}
330
1E
100
AcDbEntity
  8
STEMPEL
100
AcDbLine
 10
139.1222164835512
 20
647.9590672994893
 30
0.0
 11
189.9722164835511
 21
647.9590672994893
 31
0.0
  0
DIMENSION
  5
935
330
1E
100
AcDbEntity
  8
BEM
100
AcDbDimension
  2
*D10
 10
44.306997531967
 20
722.9590672994893
 30
0.0
 11
37.80699753196688
 21
678.4590672994893
 31
0.0
 70
    32
 71
     5
 42
89.0
  3
Standard
100
AcDbAlignedDimension
 13
160.3935156411771
 23
633.9590672994893
 33
0.0
 14
57.97221648355116
 24
722.9590672994893
 34
0.0
 50
90.0
100
AcDbRotatedDimension
1001
ACAD
1000
DSTYLE
1002
{
1070
    40
1040
2.0
1070
    41
1040
3.5
1070
    42
1040
1.0
1070
    43
1040
7.0
1070
    44
1040
1.0
1070
    73
1070
     0
1070
    74
1070
     0
1070
    77
1070
     1
1070
    78
1070
     8
1070
    79
1070
     2
1070
   140
1040
3.5
1070
   141
1040
1.5
1070
   146
1040
0.5142857142857144
1070
   147
1040
1.5
1070
   172
1070
     1
1070
   178
1070
     1
1070
   179
1070
     2
1070
   271
1070
     2
1070
   272
1070
     2
1070
   284
1070
     8
1070
   285
1070
     8
1070
   286
1070
     8
1002
}
  0
LINE
  5
938
102
{ACAD_REACTORS
330
C7B
102
}
330
1E
100
AcDbEntity
  8
STEMPEL
100
AcDbLine
 10
139.1222164835512
 20
722.9590672994893
 30
0.0
 11
139.1222164835512
 21
647.9590672994893
 31
0.0
  0
LINE
  5
939
102
{ACAD_REACTORS
330
C7B
102
}
330
1E
100
AcDbEntity
  8
STEMPEL
100
AcDbLine
 10
141.6222164835512
 20
722.9590672994893
 30
0.0
 11
141.6222164835512
 21
647.959067299489
 31
0.0
  0
DIMENSION
  5
93A
330
1E
100
AcDbEntity
  8
BEM
100
AcDbDimension
  2
*D11
 10
380.9722164835512
 20
803.1531883256954
 30
0.0
 11
235.9722164835512
 21
809.6531883256954
 31
0.0
 70
    32
  1
%%c<>
 71
     5
 42
290.0
  3
Standard
100
AcDbAlignedDimension
 13
90.97221648355116
 23
737.9590672994902
 33
0.0
 14
380.9722164835512
 24
737.9590672994888
 34
0.0
100
AcDbRotatedDimension
1001
ACAD
1000
DSTYLE
1002
{
1070
    40
1040
2.0
1070
    41
1040
3.5
1070
    42
1040
1.0
1070
    43
1040
7.0
1070
    44
1040
1.0
1070
    73
1070
     0
1070
    74
1070
     0
1070
    77
1070
     1
1070
    78
1070
     8
1070
    79
1070
     2
1070
   140
1040
3.5
1070
   141
1040
1.5
1070
   146
1040
0.5142857142857144
1070
   147
1040
1.5
1070
   172
1070
     1
1070
   178
1070
     1
1070
   179
1070
     2
1070
   271
1070
     2
1070
   272
1070
     2
1070
   284
1070
     8
1070
   285
1070
     8
1070
   286
1070
     8
1002
}
  0
DIMENSION
  5
93B
330
1E
100
AcDbEntity
  8
BEM
100
AcDbDimension
  2
*D12
 10
347.9722164835512
 20
788.4286906656654
 30
0.0
 11
235.9722164835512
 21
794.9286906656655
 31
0.0
 70
    32
  1
%%c<>
 71
     5
 42
224.0000000000001
  3
Standard
100
AcDbAlignedDimension
 13
123.9722164835511
 23
763.9590672994893
 33
0.0
 14
347.9722164835512
 24
778.9590672994893
 34
0.0
100
AcDbRotatedDimension
1001
ACAD
1000
DSTYLE
1002
{
1070
    40
1040
2.0
1070
    41
1040
3.5
1070
    42
1040
1.0
1070
    43
1040
7.0
1070
    44
1040
1.0
1070
    73
1070
     0
1070
    74
1070
     0
1070
    77
1070
     1
1070
    78
1070
     8
1070
    79
1070
     2
1070
   140
1040
3.5
1070
   141
1040
1.5
1070
   146
1040
0.5142857142857144
1070
   147
1040
1.5
1070
   172
1070
     1
1070
   178
1070
     1
1070
   179
1070
     2
1070
   271
1070
     2
1070
   272
1070
     2
1070
   284
1070
     8
1070
   285
1070
     8
1070
   286
1070
     8
1002
}
  0
LINE
  5
93C
102
{ACAD_REACTORS
330
CC9
102
}
330
1E
100
AcDbEntity
  8
STEMPEL
100
AcDbLine
 10
93.97221648355117
 20
740.95906729949
 30
0.0
 11
377.9722164835513
 21
740.9590672994888
 31
0.0
  0
LINE
  5
93D
102
{ACAD_REACTORS
330
CC9
102
}
330
1E
100
AcDbEntity
  8
STEMPEL
100
AcDbLine
 10
341.9722164835512
 20
734.959067299489
 30
0.0
 11
129.9722164835511
 21
734.9590672994899
 31
0.0
  0
LINE
  5
93E
102
{ACAD_REACTORS
330
C7B
330
C8F
330
CB2
102
}
330
1E
100
AcDbEntity
  8
STEMPEL
100
AcDbLine
 10
57.97221648355116
 20
722.9590672994893
 30
0.0
 11
413.9722164835512
 21
722.9590672994895
 31
0.0
  0
LINE
  5
93F
102
{ACAD_REACTORS
330
CB2
330
EFE
102
}
330
1E
100
AcDbEntity
  8
STEMPEL
100
AcDbLine
 10
59.97221648355116
 20
728.9590672994893
 30
0.0
 11
411.9722164835512
 21
728.9590672994895
 31
0.0
  0
INSERT
  5
940
330
1E
100
AcDbEntity
  8
SCHRAFF
100
AcDbBlockReference
  2
*X2
 10
-8.298933502848058
 20
329.2313355229184
 30
0.0
1001
ACAD
1000
HATCH
1002
{
1070
    16
1000
_U,I
1040
0.1
1040
0.0
1070
     0
1002
}
  0
INSERT
  5
941
330
1E
100
AcDbEntity
  8
SCHRAFF
100
AcDbBlockReference
  2
*X3
 10
-8.298933502848058
 20
329.2313355229184
 30
0.0
1001
ACAD
1000
HATCH
1002
{
1070
    16
1000
_U,I
1040
0.1
1040
0.0
1070
     0
1002
}
  0
DIMENSION
  5
944
330
1E
100
AcDbEntity
  8
BEM
100
AcDbDimension
  2
*D13
 10
139.1222164835512
 20
421.2312986687836
 30
0.0
 11
235.9722164835512
 21
427.7312986687836
 31
0.0
 70
    32
  1
%%c<>
 71
     5
 42
193.6999999999998
  3
Standard
100
AcDbAlignedDimension
 13
332.8222164835511
 23
647.9590672994893
 33
0.0
 14
139.1222164835512
 24
647.9590672994893
 34
0.0
100
AcDbRotatedDimension
1001
ACAD
1000
DSTYLE
1002
{
1070
    40
1040
2.0
1070
    41
1040
3.5
1070
    42
1040
1.0
1070
    43
1040
7.0
1070
    44
1040
1.0
1070
    73
1070
     0
1070
    74
1070
     0
1070
    77
1070
     1
1070
    78
1070
     8
1070
    79
1070
     2
1070
   140
1040
3.5
1070
   141
1040
1.5
1070
   146
1040
0.5142857142857144
1070
   147
1040
1.5
1070
   172
1070
     1
1070
   178
1070
     1
1070
   179
1070
     2
1070
   271
1070
     2
1070
   272
1070
     2
1070
   284
1070
     8
1070
   285
1070
     8
1070
   286
1070
     8
1002
}
  0
DIMENSION
  5
945
330
1E
100
AcDbEntity
  8
BEM
100
AcDbDimension
  2
*D14
 10
44.306997531967
 20
633.9590672994893
 30
0.0
 11
37.80699753196689
 21
546.4590672994893
 31
0.0
 70
    32
 71
     5
 42
174.9999999999999
  3
Standard
100
AcDbAlignedDimension
 13
200.0785253881633
 23
458.9590672994893
 33
0.0
 14
160.3935156411771
 24
633.9590672994893
 34
0.0
 50
90.0
100
AcDbRotatedDimension
1001
ACAD
1000
DSTYLE
1002
{
1070
    40
1040
2.0
1070
    41
1040
3.5
1070
    42
1040
1.0
1070
    43
1040
7.0
1070
    44
1040
1.0
1070
    73
1070
     0
1070
    74
1070
     0
1070
    77
1070
     1
1070
    78
1070
     8
1070
    79
1070
     2
1070
   140
1040
3.5
1070
   141
1040
1.5
1070
   146
1040
0.5142857142857144
1070
   147
1040
1.5
1070
   172
1070
     1
1070
   178
1070
     1
1070
   179
1070
     2
1070
   271
1070
     2
1070
   272
1070
     2
1070
   284
1070
     8
1070
   285
1070
     8
1070
   286
1070
     8
1002
}
  0
DIMENSION
  5
946
330
1E
100
AcDbEntity
  8
BEM
100
AcDbDimension
  2
*D15
 10
27.510265684366
 20
458.9590672994894
 30
0.0
 11
21.01026568436594
 21
593.9590672994893
 31
0.0
 70
    32
 71
     5
 42
269.9999999999999
  3
Standard
100
AcDbAlignedDimension
 13
59.97221648355116
 23
728.9590672994893
 33
0.0
 14
200.0785253881633
 24
458.9590672994893
 34
0.0
 50
90.0
100
AcDbRotatedDimension
1001
ACAD
1000
DSTYLE
1002
{
1070
    40
1040
2.0
1070
    41
1040
3.5
1070
    42
1040
1.0
1070
    43
1040
7.0
1070
    44
1040
1.0
1070
    73
1070
     0
1070
    74
1070
     0
1070
    77
1070
     1
1070
    78
1070
     8
1070
    79
1070
     2
1070
   140
1040
3.5
1070
   141
1040
1.5
1070
   146
1040
0.5142857142857144
1070
   147
1040
1.5
1070
   172
1070
     1
1070
   178
1070
     1
1070
   179
1070
     2
1070
   271
1070
     2
1070
   272
1070
     2
1070
   284
1070
     8
1070
   285
1070
     8
1070
   286
1070
     8
1002
}
  0
INSERT
  5
94A
330
1E
100
AcDbEntity
  8
SCHRAFF
100
AcDbBlockReference
  2
*X5
 10
-8.298933502848058
 20
329.2313355229184
 30
0.0
1001
ACAD
1000
HATCH
1002
{
1070
    16
1000
_U,I
1040
0.1
1040
0.0
1070
     0
1002
}
  0
INSERT
  5
94C
330
1E
100
AcDbEntity
  8
SCHRAFF
100
AcDbBlockReference
  2
*X4
 10
-8.298933502848058
 20
329.2313355229184
 30
0.0
1001
ACAD
1000
HATCH
1002
{
1070
    16
1000
_U,I
1040
0.1
1040
0.0
1070
     0
1002
}
  0
ARC
  5
94D
330
1E
100
AcDbEntity
  8
SCHRAFF
100
AcDbCircle
 10
202.8112237030979
 20
609.4113317128451
 30
0.0
 40
5.540618862635756
100
AcDbArc
 50
169.2179974746243
 51
232.9406790477027
  0
LINE
  5
94E
102
{ACAD_REACTORS
330
C44
102
}
330
1E
100
AcDbEntity
  8
STEMPEL
100
AcDbLine
 10
182.14487608736
 20
633.0656651097454
 30
0.0
 11
199.0435476904169
 21
607.9590672994891
 31
0.0
  0
LINE
  5
94F
102
{ACAD_REACTORS
330
C44
102
}
330
1E
100
AcDbEntity
  8
STEMPEL
100
AcDbLine
 10
183.4722164835511
 20
633.9590672994893
 30
0.0
 11
200.9722164835511
 21
607.9590672994891
 31
0.0
  0
ARC
  5
954
330
1E
100
AcDbEntity
  8
STEMPEL
100
AcDbCircle
 10
407.7365899723512
 20
235.2723713331209
 30
0.0
 40
4.0
100
AcDbArc
 50
2.999404749410954
 51
90.0
  0
ARC
  5
955
330
1E
100
AcDbEntity
  8
STEMPEL
100
AcDbCircle
 10
407.7365899723512
 20
235.2723713331209
 30
0.0
 40
6.0
100
AcDbArc
 50
2.999404749410954
 51
90.0
  0
ARC
  5
956
330
1E
100
AcDbEntity
  8
STEMPEL
100
AcDbCircle
 10
235.9722164835512
 20
226.272371333121
 30
0.0
 40
178.0
100
AcDbArc
 50
357.0005952505886
 51
2.99940474941136
  0
ARC
  5
957
330
1E
100
AcDbEntity
  8
STEMPEL
100
AcDbCircle
 10
235.9722164835512
 20
226.272371333121
 30
0.0
 40
176.0
100
AcDbArc
 50
357.0005952505886
 51
2.99940474941136
  0
CIRCLE
  5
958
330
1E
100
AcDbEntity
  8
STEMPEL
100
AcDbCircle
 10
385.9722164835512
 20
226.272371333121
 30
0.0
 40
2.0
  0
CIRCLE
  5
959
330
1E
100
AcDbEntity
  8
STEMPEL
100
AcDbCircle
 10
385.9722164835512
 20
226.272371333121
 30
0.0
 40
5.0
  0
ARC
  5
95A
330
1E
100
AcDbEntity
  8
STEMPEL
100
AcDbCircle
 10
388.5336795074747
 20
247.2723713331209
 30
0.0
 40
8.0
100
AcDbArc
 50
187.8374797630839
 51
270.0
  0
ARC
  5
95B
330
1E
100
AcDbEntity
  8
STEMPEL
100
AcDbCircle
 10
388.5336795074747
 20
247.2723713331209
 30
0.0
 40
6.0
100
AcDbArc
 50
187.8374797630839
 51
270.0
  0
LINE
  5
95C
330
1E
100
AcDbEntity
  8
STEMPEL
100
AcDbLine
 10
388.5336795074747
 20
239.2723713331209
 30
0.0
 11
407.7365899723512
 21
239.2723713331209
 31
0.0
  0
LINE
  5
95D
330
1E
100
AcDbEntity
  8
STEMPEL
100
AcDbLine
 10
388.5336795074747
 20
241.2723713331209
 30
0.0
 11
407.7365899723512
 21
241.2723713331209
 31
0.0
  0
LINE
  5
95E
330
1E
100
AcDbEntity
  8
STEMPEL
100
AcDbLine
 10
388.5336795074747
 20
213.272371333121
 30
0.0
 11
407.7365899723512
 21
213.272371333121
 31
0.0
  0
ARC
  5
95F
330
1E
100
AcDbEntity
  8
STEMPEL
100
AcDbCircle
 10
388.5336795074747
 20
205.272371333121
 30
0.0
 40
6.0
100
AcDbArc
 50
90.0
 51
172.1625202369156
  0
LINE
  5
960
330
1E
100
AcDbEntity
  8
STEMPEL
100
AcDbLine
 10
388.5336795074747
 20
211.272371333121
 30
0.0
 11
407.7365899723512
 21
211.272371333121
 31
0.0
  0
ARC
  5
961
330
1E
100
AcDbEntity
  8
STEMPEL
100
AcDbCircle
 10
388.5336795074747
 20
205.272371333121
 30
0.0
 40
8.0
100
AcDbArc
 50
90.0
 51
172.1625202369156
  0
ARC
  5
962
330
1E
100
AcDbEntity
  8
MITTEL
100
AcDbCircle
 10
235.9722164835511
 20
226.2723713331209
 30
0.0
 40
150.0
100
AcDbArc
 50
354.7745304430864
 51
5.2254695569136
  0
ARC
  5
963
330
1E
100
AcDbEntity
  8
STEMPEL
100
AcDbCircle
 10
407.7365899723512
 20
217.272371333121
 30
0.0
 40
6.0
100
AcDbArc
 50
270.0
 51
357.0005952505882
  0
ARC
  5
964
330
1E
100
AcDbEntity
  8
STEMPEL
100
AcDbCircle
 10
407.7365899723512
 20
217.272371333121
 30
0.0
 40
4.0
100
AcDbArc
 50
270.0
 51
357.0005952505882
  0
LINE
  5
965
330
1E
100
AcDbEntity
  8
STEMPEL
100
AcDbLine
 10
297.4570440408527
 20
332.7672165569781
 30
0.0
 11
286.4873889262497
 21
332.7672165569781
 31
0.0
  0
LINE
  5
966
330
1E
100
AcDbEntity
  8
STEMPEL
100
AcDbLine
 10
281.0025613689482
 20
323.2672165569781
 30
0.0
 11
286.4873889262497
 21
313.7672165569781
 31
0.0
  0
LINE
  5
967
330
1E
100
AcDbEntity
  8
STEMPEL
100
AcDbLine
 10
286.4873889262497
 20
313.7672165569781
 30
0.0
 11
297.4570440408525
 21
313.7672165569781
 31
0.0
  0
LINE
  5
968
330
1E
100
AcDbEntity
  8
MITTEL
100
AcDbLine
 10
286.4722164835512
 20
313.7409371153493
 30
0.0
 11
297.4722164835512
 21
332.793495998607
 31
0.0
  0
CIRCLE
  5
969
330
1E
100
AcDbEntity
  8
STEMPEL
100
AcDbCircle
 10
291.9722164835512
 20
323.2672165569781
 30
0.0
 40
6.0
  0
LINE
  5
96A
330
1E
100
AcDbEntity
  8
STEMPEL
100
AcDbLine
 10
286.4873889262497
 20
332.7672165569781
 30
0.0
 11
281.0025613689482
 21
323.2672165569781
 31
0.0
  0
ARC
  5
96B
330
1E
100
AcDbEntity
  8
HILF
100
AcDbCircle
 10
291.9722164835512
 20
323.2672165569781
 30
0.0
 40
5.0
100
AcDbArc
 50
194.9999999999992
 51
106.2790298767994
  0
LINE
  5
96C
330
1E
100
AcDbEntity
  8
STEMPEL
100
AcDbLine
 10
302.9418715981541
 20
323.2672165569781
 30
0.0
 11
297.4570440408527
 21
332.7672165569781
 31
0.0
  0
LINE
  5
96D
330
1E
100
AcDbEntity
  8
STEMPEL
100
AcDbLine
 10
297.4570440408525
 20
313.7672165569781
 30
0.0
 11
302.9418715981541
 21
323.2672165569781
 31
0.0
  0
CIRCLE
  5
96E
330
1E
100
AcDbEntity
  8
STEMPEL
100
AcDbCircle
 10
291.9722164835512
 20
323.2672165569781
 30
0.0
 40
9.5
  0
ARC
  5
96F
330
1E
100
AcDbEntity
  8
STEMPEL
100
AcDbCircle
 10
244.9722164835512
 20
398.036744821921
 30
0.0
 40
6.0
100
AcDbArc
 50
0.0
 51
87.00059525058614
  0
ARC
  5
970
330
1E
100
AcDbEntity
  8
STEMPEL
100
AcDbCircle
 10
244.9722164835512
 20
398.036744821921
 30
0.0
 40
4.0
100
AcDbArc
 50
0.0
 51
87.00059525058614
  0
LINE
  5
971
330
1E
100
AcDbEntity
  8
STEMPEL
100
AcDbLine
 10
250.9722164835512
 20
398.036744821921
 30
0.0
 11
250.9722164835512
 21
378.8338343570446
 31
0.0
  0
LINE
  5
972
330
1E
100
AcDbEntity
  8
STEMPEL
100
AcDbLine
 10
248.9722164835512
 20
398.036744821921
 30
0.0
 11
248.9722164835512
 21
378.8338343570446
 31
0.0
  0
ARC
  5
973
330
1E
100
AcDbEntity
  8
STEMPEL
100
AcDbCircle
 10
256.9722164835511
 20
378.8338343570446
 30
0.0
 40
8.0
100
AcDbArc
 50
180.0
 51
262.1625202369163
  0
ARC
  5
974
330
1E
100
AcDbEntity
  8
STEMPEL
100
AcDbCircle
 10
256.9722164835511
 20
378.8338343570446
 30
0.0
 40
6.0
100
AcDbArc
 50
180.0
 51
262.1625202369163
  0
ARC
  5
975
330
1E
100
AcDbEntity
  8
STEMPEL
100
AcDbCircle
 10
226.972216483551
 20
398.036744821921
 30
0.0
 40
6.0
100
AcDbArc
 50
92.99940474941386
 51
180.0
  0
ARC
  5
976
330
1E
100
AcDbEntity
  8
STEMPEL
100
AcDbCircle
 10
226.972216483551
 20
398.036744821921
 30
0.0
 40
4.0
100
AcDbArc
 50
92.99940474941386
 51
180.0
  0
LINE
  5
977
330
1E
100
AcDbEntity
  8
STEMPEL
100
AcDbLine
 10
222.9722164835511
 20
398.036744821921
 30
0.0
 11
222.9722164835511
 21
378.8338343570446
 31
0.0
  0
LINE
  5
978
330
1E
100
AcDbEntity
  8
STEMPEL
100
AcDbLine
 10
220.9722164835511
 20
398.036744821921
 30
0.0
 11
220.9722164835511
 21
378.8338343570446
 31
0.0
  0
ARC
  5
979
330
1E
100
AcDbEntity
  8
STEMPEL
100
AcDbCircle
 10
214.9722164835511
 20
378.8338343570446
 30
0.0
 40
8.0
100
AcDbArc
 50
277.8374797630837
 51
0.0
  0
ARC
  5
97A
330
1E
100
AcDbEntity
  8
STEMPEL
100
AcDbCircle
 10
214.9722164835511
 20
378.8338343570446
 30
0.0
 40
6.0
100
AcDbArc
 50
277.8374797630837
 51
0.0
  0
ARC
  5
97B
330
1E
100
AcDbEntity
  8
STEMPEL
100
AcDbCircle
 10
235.9722164835512
 20
226.272371333121
 30
0.0
 40
176.0
100
AcDbArc
 50
87.00059525058614
 51
92.99940474941386
  0
ARC
  5
97C
330
1E
100
AcDbEntity
  8
STEMPEL
100
AcDbCircle
 10
235.9722164835512
 20
226.272371333121
 30
0.0
 40
178.0
100
AcDbArc
 50
87.00059525058614
 51
92.99940474941386
  0
CIRCLE
  5
97D
330
1E
100
AcDbEntity
  8
STEMPEL
100
AcDbCircle
 10
291.9722164835512
 20
323.2672165569781
 30
0.0
 40
12.0
  0
LINE
  5
97E
330
1E
100
AcDbEntity
  8
STEMPEL
100
AcDbLine
 10
353.4570440408526
 20
235.772371333121
 30
0.0
 11
342.4873889262498
 21
235.772371333121
 31
0.0
  0
LINE
  5
97F
330
1E
100
AcDbEntity
  8
STEMPEL
100
AcDbLine
 10
353.4570440408526
 20
216.772371333121
 30
0.0
 11
358.9418715981541
 21
226.272371333121
 31
0.0
  0
LINE
  5
980
330
1E
100
AcDbEntity
  8
STEMPEL
100
AcDbLine
 10
342.4873889262498
 20
216.772371333121
 30
0.0
 11
353.4570440408526
 21
216.772371333121
 31
0.0
  0
ARC
  5
981
330
1E
100
AcDbEntity
  8
HILF
100
AcDbCircle
 10
347.9722164835512
 20
226.272371333121
 30
0.0
 40
5.0
100
AcDbArc
 50
194.9999999999992
 51
106.2790298767994
  0
CIRCLE
  5
982
330
1E
100
AcDbEntity
  8
STEMPEL
100
AcDbCircle
 10
347.9722164835512
 20
226.272371333121
 30
0.0
 40
6.0
  0
LINE
  5
983
330
1E
100
AcDbEntity
  8
STEMPEL
100
AcDbLine
 10
358.9418715981541
 20
226.272371333121
 30
0.0
 11
353.4570440408526
 21
235.772371333121
 31
0.0
  0
CIRCLE
  5
984
330
1E
100
AcDbEntity
  8
STEMPEL
100
AcDbCircle
 10
347.9722164835512
 20
226.272371333121
 30
0.0
 40
12.0
  0
CIRCLE
  5
985
330
1E
100
AcDbEntity
  8
STEMPEL
100
AcDbCircle
 10
347.9722164835512
 20
226.272371333121
 30
0.0
 40
9.5
  0
LINE
  5
986
330
1E
100
AcDbEntity
  8
STEMPEL
100
AcDbLine
 10
342.4873889262498
 20
235.772371333121
 30
0.0
 11
337.0025613689482
 21
226.272371333121
 31
0.0
  0
LINE
  5
987
330
1E
100
AcDbEntity
  8
STEMPEL
100
AcDbLine
 10
337.0025613689482
 20
226.272371333121
 30
0.0
 11
342.4873889262498
 21
216.772371333121
 31
0.0
  0
ARC
  5
9F3
330
1E
100
AcDbEntity
  8
STEMPEL
100
AcDbCircle
 10
235.9722164835512
 20
226.272371333121
 30
0.0
 40
146.0
100
AcDbArc
 50
7.837479763083932
 51
82.1625202369163
  0
ARC
  5
9F4
330
1E
100
AcDbEntity
  8
STEMPEL
100
AcDbCircle
 10
235.9722164835512
 20
226.272371333121
 30
0.0
 40
148.0
100
AcDbArc
 50
7.837479763083932
 51
82.1625202369163
  0
LINE
  5
9F7
330
1E
100
AcDbEntity
  8
STEMPEL
100
AcDbLine
 10
297.4570440408527
 20
138.7775261092638
 30
0.0
 11
286.4873889262497
 21
138.7775261092638
 31
0.0
  0
LINE
  5
9F8
330
1E
100
AcDbEntity
  8
STEMPEL
100
AcDbLine
 10
281.0025613689482
 20
129.2775261092638
 30
0.0
 11
286.4873889262497
 21
119.7775261092638
 31
0.0
  0
LINE
  5
9F9
330
1E
100
AcDbEntity
  8
STEMPEL
100
AcDbLine
 10
286.4873889262497
 20
119.7775261092638
 30
0.0
 11
297.4570440408525
 21
119.7775261092638
 31
0.0
  0
CIRCLE
  5
9FA
330
1E
100
AcDbEntity
  8
STEMPEL
100
AcDbCircle
 10
291.9722164835512
 20
129.2775261092638
 30
0.0
 40
6.0
  0
LINE
  5
9FB
330
1E
100
AcDbEntity
  8
MITTEL
100
AcDbLine
 10
297.4722164835512
 20
119.7512466676351
 30
0.0
 11
286.4722164835512
 21
138.8038055508925
 31
0.0
  0
LINE
  5
9FC
330
1E
100
AcDbEntity
  8
STEMPEL
100
AcDbLine
 10
286.4873889262497
 20
138.7775261092638
 30
0.0
 11
281.0025613689482
 21
129.2775261092638
 31
0.0
  0
ARC
  5
9FD
330
1E
100
AcDbEntity
  8
HILF
100
AcDbCircle
 10
291.9722164835512
 20
129.2775261092638
 30
0.0
 40
5.0
100
AcDbArc
 50
194.9999999999992
 51
106.2790298767994
  0
LINE
  5
9FE
330
1E
100
AcDbEntity
  8
STEMPEL
100
AcDbLine
 10
302.9418715981541
 20
129.2775261092638
 30
0.0
 11
297.4570440408527
 21
138.7775261092638
 31
0.0
  0
LINE
  5
9FF
330
1E
100
AcDbEntity
  8
STEMPEL
100
AcDbLine
 10
297.4570440408525
 20
119.7775261092638
 30
0.0
 11
302.9418715981541
 21
129.2775261092638
 31
0.0
  0
CIRCLE
  5
A00
330
1E
100
AcDbEntity
  8
STEMPEL
100
AcDbCircle
 10
291.9722164835512
 20
129.2775261092638
 30
0.0
 40
9.5
  0
ARC
  5
A01
330
1E
100
AcDbEntity
  8
STEMPEL
100
AcDbCircle
 10
256.9722164835511
 20
73.7109083091973
 30
0.0
 40
6.0
100
AcDbArc
 50
97.83747976308371
 51
180.0
  0
ARC
  5
A02
330
1E
100
AcDbEntity
  8
STEMPEL
100
AcDbCircle
 10
244.9722164835512
 20
54.50799784432092
 30
0.0
 40
4.0
100
AcDbArc
 50
272.9994047494138
 51
0.0
  0
LINE
  5
A03
330
1E
100
AcDbEntity
  8
STEMPEL
100
AcDbLine
 10
250.9722164835512
 20
73.7109083091973
 30
0.0
 11
250.9722164835512
 21
54.50799784432092
 31
0.0
  0
LINE
  5
A04
330
1E
100
AcDbEntity
  8
STEMPEL
100
AcDbLine
 10
248.9722164835512
 20
73.7109083091973
 30
0.0
 11
248.9722164835512
 21
54.50799784432092
 31
0.0
  0
ARC
  5
A05
330
1E
100
AcDbEntity
  8
STEMPEL
100
AcDbCircle
 10
244.9722164835512
 20
54.50799784432092
 30
0.0
 40
6.0
100
AcDbArc
 50
272.9994047494138
 51
0.0
  0
ARC
  5
A06
330
1E
100
AcDbEntity
  8
STEMPEL
100
AcDbCircle
 10
226.9722164835511
 20
54.50799784432092
 30
0.0
 40
4.0
100
AcDbArc
 50
180.0
 51
267.0005952505861
  0
LINE
  5
A07
330
1E
100
AcDbEntity
  8
STEMPEL
100
AcDbLine
 10
222.9722164835511
 20
73.71090830919752
 30
0.0
 11
222.9722164835511
 21
54.50799784432092
 31
0.0
  0
LINE
  5
A08
330
1E
100
AcDbEntity
  8
STEMPEL
100
AcDbLine
 10
220.9722164835511
 20
73.71090830919752
 30
0.0
 11
220.9722164835511
 21
54.50799784432092
 31
0.0
  0
ARC
  5
A09
330
1E
100
AcDbEntity
  8
STEMPEL
100
AcDbCircle
 10
214.9722164835511
 20
73.71090830919752
 30
0.0
 40
6.0
100
AcDbArc
 50
0.0
 51
82.1625202369163
  0
ARC
  5
A0A
330
1E
100
AcDbEntity
  8
STEMPEL
100
AcDbCircle
 10
226.9722164835511
 20
54.50799784432092
 30
0.0
 40
6.0
100
AcDbArc
 50
180.0
 51
267.0005952505861
  0
ARC
  5
A0B
330
1E
100
AcDbEntity
  8
STEMPEL
100
AcDbCircle
 10
235.9722164835512
 20
226.272371333121
 30
0.0
 40
176.0
100
AcDbArc
 50
267.0005952505861
 51
272.9994047494138
  0
ARC
  5
A0C
330
1E
100
AcDbEntity
  8
STEMPEL
100
AcDbCircle
 10
235.9722164835512
 20
226.272371333121
 30
0.0
 40
178.0
100
AcDbArc
 50
267.0005952505861
 51
272.9994047494138
  0
ARC
  5
A0D
330
1E
100
AcDbEntity
  8
STEMPEL
100
AcDbCircle
 10
256.9722164835511
 20
73.7109083091973
 30
0.0
 40
8.0
100
AcDbArc
 50
97.83747976308371
 51
180.0
  0
ARC
  5
A0E
330
1E
100
AcDbEntity
  8
STEMPEL
100
AcDbCircle
 10
214.9722164835511
 20
73.71090830919752
 30
0.0
 40
8.0
100
AcDbArc
 50
0.0
 51
82.1625202369163
  0
CIRCLE
  5
A0F
330
1E
100
AcDbEntity
  8
STEMPEL
100
AcDbCircle
 10
291.9722164835512
 20
129.2775261092638
 30
0.0
 40
12.0
  0
ARC
  5
A11
330
1E
100
AcDbEntity
  8
STEMPEL
100
AcDbCircle
 10
235.9722164835512
 20
226.272371333121
 30
0.0
 40
146.0
100
AcDbArc
 50
277.8374797630837
 51
352.1625202369161
  0
ARC
  5
A12
330
1E
100
AcDbEntity
  8
STEMPEL
100
AcDbCircle
 10
235.9722164835512
 20
226.272371333121
 30
0.0
 40
148.0
100
AcDbArc
 50
277.8374797630837
 51
352.1625202369161
  0
LINE
  5
A13
330
1E
100
AcDbEntity
  8
MITTEL
100
AcDbLine
 10
235.9722164835511
 20
409.2723713331209
 30
0.0
 11
235.9722164835511
 21
43.27237133312087
 31
0.0
  0
LINE
  5
A14
330
1E
100
AcDbEntity
  8
STEMPEL
100
AcDbLine
 10
185.4570440408526
 20
313.7672165569781
 30
0.0
 11
190.9418715981539
 21
323.2672165569781
 31
0.0
  0
LINE
  5
A15
330
1E
100
AcDbEntity
  8
STEMPEL
100
AcDbLine
 10
190.9418715981539
 20
323.2672165569781
 30
0.0
 11
185.4570440408526
 21
332.7672165569781
 31
0.0
  0
LINE
  5
A16
330
1E
100
AcDbEntity
  8
STEMPEL
100
AcDbLine
 10
169.0025613689482
 20
323.2672165569781
 30
0.0
 11
174.4873889262496
 21
313.7672165569781
 31
0.0
  0
LINE
  5
A17
330
1E
100
AcDbEntity
  8
STEMPEL
100
AcDbLine
 10
174.4873889262496
 20
332.7672165569781
 30
0.0
 11
169.0025613689482
 21
323.2672165569781
 31
0.0
  0
LINE
  5
A18
330
1E
100
AcDbEntity
  8
MITTEL
100
AcDbLine
 10
185.4722164835511
 20
313.7409371153493
 30
0.0
 11
174.4722164835511
 21
332.793495998607
 31
0.0
  0
CIRCLE
  5
A19
330
1E
100
AcDbEntity
  8
STEMPEL
100
AcDbCircle
 10
179.9722164835511
 20
323.2672165569781
 30
0.0
 40
6.0
  0
ARC
  5
A1A
330
1E
100
AcDbEntity
  8
HILF
100
AcDbCircle
 10
179.9722164835511
 20
323.2672165569781
 30
0.0
 40
5.0
100
AcDbArc
 50
194.9999999999992
 51
106.2790298767994
  0
CIRCLE
  5
A1B
330
1E
100
AcDbEntity
  8
STEMPEL
100
AcDbCircle
 10
179.9722164835511
 20
323.2672165569781
 30
0.0
 40
9.5
  0
LINE
  5
A1C
330
1E
100
AcDbEntity
  8
STEMPEL
100
AcDbLine
 10
174.4873889262496
 20
313.7672165569781
 30
0.0
 11
185.4570440408526
 21
313.7672165569781
 31
0.0
  0
LINE
  5
A1D
330
1E
100
AcDbEntity
  8
STEMPEL
100
AcDbLine
 10
185.4570440408526
 20
332.7672165569781
 30
0.0
 11
174.4873889262496
 21
332.7672165569781
 31
0.0
  0
CIRCLE
  5
A1E
330
1E
100
AcDbEntity
  8
STEMPEL
100
AcDbCircle
 10
179.9722164835511
 20
323.2672165569781
 30
0.0
 40
12.0
  0
LINE
  5
A31
330
1E
100
AcDbEntity
  8
STEMPEL
100
AcDbLine
 10
129.4570440408525
 20
235.7723713331209
 30
0.0
 11
118.4873889262497
 21
235.7723713331209
 31
0.0
  0
LINE
  5
A32
330
1E
100
AcDbEntity
  8
STEMPEL
100
AcDbLine
 10
129.4570440408525
 20
216.7723713331209
 30
0.0
 11
134.941871598154
 21
226.2723713331209
 31
0.0
  0
LINE
  5
A33
330
1E
100
AcDbEntity
  8
STEMPEL
100
AcDbLine
 10
118.4873889262497
 20
216.7723713331209
 30
0.0
 11
129.4570440408525
 21
216.7723713331209
 31
0.0
  0
CIRCLE
  5
A34
330
1E
100
AcDbEntity
  8
STEMPEL
100
AcDbCircle
 10
123.9722164835511
 20
226.2723713331209
 30
0.0
 40
6.0
  0
ARC
  5
A35
330
1E
100
AcDbEntity
  8
HILF
100
AcDbCircle
 10
123.9722164835511
 20
226.2723713331209
 30
0.0
 40
5.0
100
AcDbArc
 50
194.9999999999992
 51
106.2790298767994
  0
LINE
  5
A36
330
1E
100
AcDbEntity
  8
STEMPEL
100
AcDbLine
 10
134.941871598154
 20
226.2723713331209
 30
0.0
 11
129.4570440408525
 21
235.7723713331209
 31
0.0
  0
CIRCLE
  5
A3B
330
1E
100
AcDbEntity
  8
STEMPEL
100
AcDbCircle
 10
85.97221648355111
 20
226.2723713331209
 30
0.0
 40
2.0
  0
CIRCLE
  5
A3C
330
1E
100
AcDbEntity
  8
STEMPEL
100
AcDbCircle
 10
85.97221648355111
 20
226.2723713331209
 30
0.0
 40
5.0
  0
ARC
  5
A3D
330
1E
100
AcDbEntity
  8
STEMPEL
100
AcDbCircle
 10
83.41075345962753
 20
247.2723713331209
 30
0.0
 40
8.0
100
AcDbArc
 50
270.0
 51
352.1625202369161
  0
ARC
  5
A3E
330
1E
100
AcDbEntity
  8
STEMPEL
100
AcDbCircle
 10
83.41075345962753
 20
247.2723713331209
 30
0.0
 40
6.0
100
AcDbArc
 50
270.0
 51
352.1625202369161
  0
ARC
  5
A3F
330
1E
100
AcDbEntity
  8
STEMPEL
100
AcDbCircle
 10
64.20784299475099
 20
235.2723713331209
 30
0.0
 40
4.0
100
AcDbArc
 50
90.0
 51
177.0005952505886
  0
ARC
  5
A40
330
1E
100
AcDbEntity
  8
STEMPEL
100
AcDbCircle
 10
64.20784299475099
 20
235.2723713331209
 30
0.0
 40
6.0
100
AcDbArc
 50
90.0
 51
177.0005952505886
  0
ARC
  5
A41
330
1E
100
AcDbEntity
  8
STEMPEL
100
AcDbCircle
 10
235.9722164835512
 20
226.272371333121
 30
0.0
 40
176.0
100
AcDbArc
 50
177.0005952505886
 51
182.9994047494114
  0
ARC
  5
A42
330
1E
100
AcDbEntity
  8
STEMPEL
100
AcDbCircle
 10
235.9722164835512
 20
226.272371333121
 30
0.0
 40
178.0
100
AcDbArc
 50
177.0005952505886
 51
182.9994047494114
  0
LINE
  5
A43
330
1E
100
AcDbEntity
  8
STEMPEL
100
AcDbLine
 10
64.20784299475099
 20
239.2723713331209
 30
0.0
 11
83.41075345962753
 21
239.2723713331209
 31
0.0
  0
LINE
  5
A44
330
1E
100
AcDbEntity
  8
STEMPEL
100
AcDbLine
 10
64.20784299475099
 20
241.2723713331209
 30
0.0
 11
83.41075345962753
 21
241.2723713331209
 31
0.0
  0
LINE
  5
A45
330
1E
100
AcDbEntity
  8
STEMPEL
100
AcDbLine
 10
64.20784299475099
 20
213.2723713331209
 30
0.0
 11
83.41075345962753
 21
213.2723713331209
 31
0.0
  0
ARC
  5
A46
330
1E
100
AcDbEntity
  8
STEMPEL
100
AcDbCircle
 10
83.41075345962753
 20
205.2723713331209
 30
0.0
 40
6.0
100
AcDbArc
 50
7.837479763083932
 51
90.0
  0
LINE
  5
A47
330
1E
100
AcDbEntity
  8
STEMPEL
100
AcDbLine
 10
64.20784299475099
 20
211.2723713331209
 30
0.0
 11
83.41075345962753
 21
211.2723713331209
 31
0.0
  0
ARC
  5
A48
330
1E
100
AcDbEntity
  8
STEMPEL
100
AcDbCircle
 10
64.20784299475099
 20
217.2723713331209
 30
0.0
 40
4.0
100
AcDbArc
 50
182.9994047494109
 51
270.0
  0
ARC
  5
A49
330
1E
100
AcDbEntity
  8
STEMPEL
100
AcDbCircle
 10
64.20784299475099
 20
217.2723713331209
 30
0.0
 40
6.0
100
AcDbArc
 50
182.9994047494109
 51
270.0
  0
ARC
  5
A4A
330
1E
100
AcDbEntity
  8
MITTEL
100
AcDbCircle
 10
235.9722164835511
 20
226.2723713331209
 30
0.0
 40
150.0
100
AcDbArc
 50
174.7745304430864
 51
185.2254695569136
  0
ARC
  5
A4B
330
1E
100
AcDbEntity
  8
STEMPEL
100
AcDbCircle
 10
83.41075345962753
 20
205.2723713331209
 30
0.0
 40
8.0
100
AcDbArc
 50
7.837479763083932
 51
90.0
  0
CIRCLE
  5
A4C
330
1E
100
AcDbEntity
  8
STEMPEL
100
AcDbCircle
 10
123.9722164835511
 20
226.2723713331209
 30
0.0
 40
12.0
  0
CIRCLE
  5
A4D
330
1E
100
AcDbEntity
  8
STEMPEL
100
AcDbCircle
 10
123.9722164835511
 20
226.2723713331209
 30
0.0
 40
9.5
  0
LINE
  5
A4E
330
1E
100
AcDbEntity
  8
STEMPEL
100
AcDbLine
 10
118.4873889262497
 20
235.7723713331209
 30
0.0
 11
113.0025613689482
 21
226.2723713331209
 31
0.0
  0
LINE
  5
A4F
330
1E
100
AcDbEntity
  8
STEMPEL
100
AcDbLine
 10
113.0025613689482
 20
226.2723713331209
 30
0.0
 11
118.4873889262497
 21
216.7723713331209
 31
0.0
  0
DIMENSION
  5
A50
330
1E
100
AcDbEntity
  8
BEM
100
AcDbDimension
  2
*D16
 10
43.0835053628009
 20
241.272371333121
 30
0.0
 11
36.58350536280086
 21
226.2723713331209
 31
0.0
 70
    32
 71
     5
 42
30.0
  3
Standard
100
AcDbAlignedDimension
 13
64.20784299475099
 23
211.2723713331209
 33
0.0
 14
64.20784299475099
 24
241.2723713331209
 34
0.0
 50
90.0
100
AcDbRotatedDimension
1001
ACAD
1000
DSTYLE
1002
{
1070
    40
1040
2.0
1070
    41
1040
3.5
1070
    42
1040
1.0
1070
    43
1040
7.0
1070
    44
1040
1.0
1070
    73
1070
     0
1070
    74
1070
     0
1070
    77
1070
     1
1070
    78
1070
     8
1070
    79
1070
     2
1070
   140
1040
3.5
1070
   141
1040
1.5
1070
   146
1040
0.5142857142857144
1070
   147
1040
1.5
1070
   172
1070
     1
1070
   178
1070
     1
1070
   179
1070
     2
1070
   271
1070
     2
1070
   272
1070
     2
1070
   284
1070
     8
1070
   285
1070
     8
1070
   286
1070
     8
1002
}
  0
LINE
  5
A51
330
1E
100
AcDbEntity
  8
STEMPEL
100
AcDbLine
 10
185.4570440408526
 20
119.7775261092638
 30
0.0
 11
190.9418715981539
 21
129.2775261092638
 31
0.0
  0
LINE
  5
A52
330
1E
100
AcDbEntity
  8
STEMPEL
100
AcDbLine
 10
190.9418715981539
 20
129.2775261092638
 30
0.0
 11
185.4570440408526
 21
138.7775261092638
 31
0.0
  0
LINE
  5
A53
330
1E
100
AcDbEntity
  8
STEMPEL
100
AcDbLine
 10
169.0025613689482
 20
129.2775261092638
 30
0.0
 11
174.4873889262496
 21
119.7775261092638
 31
0.0
  0
LINE
  5
A54
330
1E
100
AcDbEntity
  8
STEMPEL
100
AcDbLine
 10
174.4873889262496
 20
138.7775261092638
 30
0.0
 11
169.0025613689482
 21
129.2775261092638
 31
0.0
  0
CIRCLE
  5
A55
330
1E
100
AcDbEntity
  8
STEMPEL
100
AcDbCircle
 10
179.9722164835511
 20
129.2775261092638
 30
0.0
 40
6.0
  0
ARC
  5
A56
330
1E
100
AcDbEntity
  8
HILF
100
AcDbCircle
 10
179.9722164835511
 20
129.2775261092638
 30
0.0
 40
5.0
100
AcDbArc
 50
194.9999999999992
 51
106.2790298767994
  0
LINE
  5
A57
330
1E
100
AcDbEntity
  8
MITTEL
100
AcDbLine
 10
174.4722164835511
 20
119.7512466676351
 30
0.0
 11
185.4722164835511
 21
138.8038055508928
 31
0.0
  0
CIRCLE
  5
A58
330
1E
100
AcDbEntity
  8
STEMPEL
100
AcDbCircle
 10
179.9722164835511
 20
129.2775261092638
 30
0.0
 40
12.0
  0
CIRCLE
  5
A59
330
1E
100
AcDbEntity
  8
STEMPEL
100
AcDbCircle
 10
179.9722164835511
 20
129.2775261092638
 30
0.0
 40
9.5
  0
LINE
  5
A5A
330
1E
100
AcDbEntity
  8
STEMPEL
100
AcDbLine
 10
174.4873889262496
 20
119.7775261092638
 30
0.0
 11
185.4570440408526
 21
119.7775261092638
 31
0.0
  0
LINE
  5
A5B
330
1E
100
AcDbEntity
  8
STEMPEL
100
AcDbLine
 10
185.4570440408526
 20
138.7775261092638
 30
0.0
 11
174.4873889262496
 21
138.7775261092638
 31
0.0
  0
LINE
  5
A5C
330
1E
100
AcDbEntity
  8
MITTEL
100
AcDbLine
 10
52.97221648355116
 20
226.2723713331209
 30
0.0
 11
418.9722164835512
 21
226.272371333121
 31
0.0
  0
CIRCLE
  5
A5D
330
1E
100
AcDbEntity
  8
STEMPEL
100
AcDbCircle
 10
235.9722164835512
 20
226.272371333121
 30
0.0
 40
79.0
  0
CIRCLE
  5
A5E
330
1E
100
AcDbEntity
  8
STEMPEL
100
AcDbCircle
 10
235.9722164835512
 20
226.272371333121
 30
0.0
 40
145.0
  0
CIRCLE
  5
A5F
330
1E
100
AcDbEntity
  8
MITTEL
100
AcDbCircle
 10
235.9722164835512
 20
226.272371333121
 30
0.0
 40
112.0
  0
CIRCLE
  5
A60
330
1E
100
AcDbEntity
  8
HILF
100
AcDbCircle
 10
235.9722164835512
 20
226.272371333121
 30
0.0
 40
142.0
  0
ARC
  5
A61
330
1E
100
AcDbEntity
  8
STEMPEL
100
AcDbCircle
 10
235.9722164835512
 20
226.272371333121
 30
0.0
 40
146.0
100
AcDbArc
 50
187.8374797630843
 51
262.1625202369163
  0
ARC
  5
A62
330
1E
100
AcDbEntity
  8
STEMPEL
100
AcDbCircle
 10
235.9722164835512
 20
226.272371333121
 30
0.0
 40
148.0
100
AcDbArc
 50
187.8374797630843
 51
262.1625202369163
  0
ARC
  5
A63
330
1E
100
AcDbEntity
  8
STEMPEL
100
AcDbCircle
 10
235.9722164835512
 20
226.272371333121
 30
0.0
 40
146.0
100
AcDbArc
 50
97.83747976308371
 51
172.162520236916
  0
ARC
  5
A64
330
1E
100
AcDbEntity
  8
STEMPEL
100
AcDbCircle
 10
235.9722164835512
 20
226.272371333121
 30
0.0
 40
148.0
100
AcDbArc
 50
97.83747976308371
 51
172.162520236916
  0
DIMENSION
  5
A65
330
1E
100
AcDbEntity
  8
BEM
100
AcDbDimension
  2
*D17
 10
27.28742691947855
 20
404.272371333121
 30
0.0
 11
20.78742691947847
 21
226.272371333121
 31
0.0
 70
    32
 71
     5
 42
356.0
  3
Standard
100
AcDbAlignedDimension
 13
235.9722164835511
 23
48.27237133312099
 33
0.0
 14
235.9722164835511
 24
404.2723713331209
 34
0.0
 50
90.0
100
AcDbRotatedDimension
1001
ACAD
1000
DSTYLE
1002
{
1070
    40
1040
2.0
1070
    41
1040
3.5
1070
    42
1040
1.0
1070
    43
1040
7.0
1070
    44
1040
1.0
1070
    73
1070
     0
1070
    74
1070
     0
1070
    77
1070
     1
1070
    78
1070
     8
1070
    79
1070
     2
1070
   140
1040
3.5
1070
   141
1040
1.5
1070
   146
1040
0.5142857142857144
1070
   147
1040
1.5
1070
   172
1070
     1
1070
   178
1070
     1
1070
   179
1070
     2
1070
   271
1070
     2
1070
   272
1070
     2
1070
   284
1070
     8
1070
   285
1070
     8
1070
   286
1070
     8
1002
}
  0
CIRCLE
  5
A73
330
1E
100
AcDbEntity
  8
STEMPEL
100
AcDbCircle
 10
235.9722164835509
 20
226.272371333121
 30
0.0
 40
70.0
  0
DIMENSION
  5
BF2
330
1E
100
AcDbEntity
  8
BEM
100
AcDbDimension
  2
*D18
 10
100.2752371822019
 20
167.1933580670789
 30
0.0
 11
322.8867157083846
 21
264.1127335810689
 31
0.0
 70
   163
 71
     5
 42
296.0
  3
Standard
100
AcDbDiametricDimension
 15
371.6691957849004
 25
285.3513845991631
 35
0.0
 40
0.0
1001
ACAD
1000
DSTYLE
1002
{
1070
    40
1040
2.0
1070
    41
1040
3.5
1070
    42
1040
1.0
1070
    43
1040
7.0
1070
    44
1040
1.0
1070
    73
1070
     0
1070
    74
1070
     0
1070
    77
1070
     1
1070
    78
1070
     8
1070
    79
1070
     2
1070
   140
1040
3.5
1070
   141
1040
1.5
1070
   146
1040
0.5142857142857144
1070
   147
1040
1.5
1070
   172
1070
     1
1070
   178
1070
     1
1070
   179
1070
     2
1070
   271
1070
     2
1070
   272
1070
     2
1070
   284
1070
     8
1070
   285
1070
     8
1070
   286
1070
     8
1070
   288
1070
     1
1002
}
  0
TEXT
  5
BFC
330
1E
100
AcDbEntity
  8
TEXT
100
AcDbText
 10
505.3371857746674
 20
612.2898419893275
 30
0.0
 40
4.0
  1
DIN EN1123-2
 50
90.0
 41
0.8
  7
GREEKS
 72
     1
 11
505.3371857746674
 21
629.2803181798038
 31
0.0
100
AcDbText
  0
HATCH
  5
C38
330
1E
100
AcDbEntity
  8
SCHRAFF
100
AcDbHatch
 10
0.0
 20
0.0
 30
0.0
210
0.0
220
0.0
230
1.0
  2
_USER
 70
     0
 71
     1
 91
        2
 92
        7
 72
     0
 73
     1
 93
        6
 10
272.4722164835512
 20
607.9590672994891
 10
270.8722164835511
 20
607.9590672994891
 10
270.8722164835512
 20
465.9590672994903
 10
270.2597958388697
 20
458.9590672994893
 10
271.865907578939
 20
458.9590672994894
 10
272.4722164835512
 20
465.8892097908361
 97
        6
330
886
330
898
330
88D
330
890
330
88C
330
897
 92
        7
 72
     0
 73
     1
 93
        6
 10
201.0722164835511
 20
607.9590672994889
 10
199.4722164835511
 20
607.9590672994891
 10
199.4722164835511
 20
465.889209790835
 10
200.0785253881633
 20
458.9590672994894
 10
201.6846371282326
 20
458.9590672994894
 10
201.0722164835512
 20
465.9590672994897
 97
        6
330
886
330
895
330
88F
330
890
330
88E
330
896
 75
     0
 76
     0
 52
45.0
 41
2.0
 77
     0
 78
     1
 53
45.0
 43
1.434339440487747
 44
-10.03432294155527
 45
-1.414213562373094
 46
1.414213562373095
 79
     0
 47
0.3174684532515749
 98
        2
 10
271.39287842259
 20
591.0089755261126
 10
200.5547042742319
 20
579.2626412715556
  0
HATCH
  5
C44
330
1E
100
AcDbEntity
  8
SCHRAFF
100
AcDbHatch
 10
0.0
 20
0.0
 30
0.0
210
0.0
220
0.0
230
1.0
  2
_USER
 70
     0
 71
     1
 91
        2
 92
        7
 72
     0
 73
     1
 93
        4
 10
289.7995568797421
 20
633.065665109745
 10
288.4722164835512
 20
633.9590672994893
 10
270.9722164835511
 20
607.9590672994889
 10
272.9008852766851
 20
607.9590672994889
 97
        4
330
87A
330
88A
330
886
330
889
 92
        7
 72
     0
 73
     1
 93
        4
 10
183.4722164835512
 20
633.9590672994893
 10
182.14487608736
 20
633.0656651097454
 10
199.043547690417
 20
607.9590672994891
 10
200.9722164835512
 20
607.9590672994891
 97
        4
330
92A
330
94E
330
886
330
94F
 75
     0
 76
     0
 52
135.0
 41
2.0
 77
     0
 78
     1
 53
135.0
 43
1.434339440487747
 44
-10.03432294155527
 45
-1.414213562373095
 46
-1.414213562373094
 79
     0
 47
0.2290443462623345
 98
        2
 10
284.7714797967037
 20
627.680123674543
 10
192.8692874996636
 20
617.6021717447822
  0
HATCH
  5
C58
330
1E
100
AcDbEntity
  8
SCHRAFF
100
AcDbHatch
 10
0.0
 20
0.0
 30
0.0
210
0.0
220
0.0
230
1.0
  2
_USER
 70
     0
 71
     1
 91
        3
 92
        7
 72
     0
 73
     1
 93
        4
 10
331.0402024663271
 20
646.2680894934274
 10
329.9722164835511
 20
647.9590672994892
 10
317.5411327028573
 20
640.1078564906299
 10
319.7048389682093
 20
639.1089125472476
 97
        4
330
874
330
880
330
888
330
881
 92
        7
 72
     0
 73
     1
 93
        6
 10
282.672216483551
 20
635.9590672994893
 10
282.672216483551
 20
633.9590672994894
 10
311.5509173259253
 20
633.9590672994893
 10
319.7048389682093
 20
639.1089125472476
 10
317.5411327028572
 20
640.1078564906299
 10
310.9722164835513
 20
635.9590672994893
 97
        6
330
888
330
880
330
87C
330
878
330
87D
330
881
 92
        7
 72
     0
 73
     1
 93
        6
 10
160.9722164835511
 20
635.9590672994893
 10
141.9722164835511
 20
647.9590672994893
 10
140.9042305007752
 20
646.2680894934274
 10
160.3935156411772
 20
633.9590672994893
 10
189.2722164835509
 20
633.9590672994893
 10
189.2722164835509
 20
635.9590672994893
 97
        6
330
92B
330
931
330
92F
330
932
330
92C
330
926
 75
     0
 76
     0
 52
45.0
 41
2.0
 77
     0
 78
     1
 53
45.0
 43
1.434339440487747
 44
-10.03432294155527
 45
-1.414213562373094
 46
1.414213562373095
 79
     0
 47
0.2290443462623345
 98
        3
 10
323.2741449152859
 20
641.8808725018436
 10
309.2940099846282
 20
635.2385876218634
 10
171.7844969851308
 20
635.2385876218634
  0
HATCH
  5
C7B
330
1E
100
AcDbEntity
  8
SCHRAFF
100
AcDbHatch
 10
0.0
 20
0.0
 30
0.0
210
0.0
220
0.0
230
1.0
  2
_USER
 70
     0
 71
     1
 91
        2
 92
        7
 72
     0
 73
     1
 93
        4
 10
330.3222164835511
 20
647.9590672994893
 10
332.8222164835511
 20
647.9590672994893
 10
332.822216483551
 20
722.9590672994897
 10
330.3222164835511
 20
722.9590672994897
 97
        4
330
93E
330
8AE
330
87F
330
8AD
 92
        7
 72
     0
 73
     1
 93
        4
 10
141.6222164835512
 20
722.9590672994893
 10
139.1222164835513
 20
722.9590672994894
 10
139.1222164835513
 20
647.9590672994893
 10
141.6222164835512
 20
647.9590672994893
 97
        4
330
93E
330
938
330
934
330
939
 75
     0
 76
     0
 52
135.0
 41
2.0
 77
     0
 78
     1
 53
135.0
 43
1.434339440487747
 44
-10.03432294155527
 45
-1.414213562373095
 46
-1.414213562373094
 79
     0
 47
0.274229969663484
 98
        2
 10
331.2433028174892
 20
709.7239649928986
 10
140.5385002078187
 20
699.0289951537858
  0
HATCH
  5
C8F
330
1E
100
AcDbEntity
  8
SCHRAFF
100
AcDbHatch
 10
0.0
 20
0.0
 30
0.0
210
0.0
220
0.0
230
1.0
  2
_USER
 70
     0
 71
     1
 91
        2
 92
        7
 72
     1
 73
     1
 93
        8
 10
309.4722164835512
 20
693.9590672994896
 42
0.0
 10
311.9722164835512
 20
693.9590672994894
 42
0.0
 10
311.9722164835512
 20
709.3566898550252
 42
0.0844258632003908
 10
310.2856900342613
 20
719.2737063163024
 42
0.3015503310498606
 10
312.7306612809574
 20
722.9590672994894
 42
0.0
 10
305.9722164835512
 20
722.9590672994894
 42
0.0
 10
306.8956806270592
 20
720.9786920528941
 42
-0.1095178116832392
 10
309.4722164835512
 20
709.356689855025
 42
0.0
 97
        8
330
85A
330
85B
330
93E
330
859
330
858
330
861
330
870
330
862
 92
        7
 72
     1
 73
     1
 93
        8
 10
159.9722164835512
 20
693.9590672994894
 42
0.0
 10
162.4722164835511
 20
693.9590672994893
 42
0.0
 10
162.4722164835511
 20
709.3566898550252
 42
-0.1095178116832421
 10
165.0487523400433
 20
720.9786920528945
 42
0.0
 10
165.9722164835511
 20
722.9590672994894
 42
0.0
 10
163.2137716861448
 20
722.9590672994894
 42
0.0
 10
162.7829828724517
 20
722.0352377072465
 42
0.1095178116832419
 10
159.9722164835512
 20
709.3566898550254
 42
0.0
 97
        8
330
8F3
330
8F7
330
93E
330
8F0
330
8F4
330
8F9
330
8F8
330
8FA
 75
     0
 76
     0
 52
45.0
 41
2.0
 77
     0
 78
     1
 53
45.0
 43
1.434339440487747
 44
-10.03432294155527
 45
-1.414213562373094
 46
1.414213562373095
 79
     0
 47
0.274229969663484
 98
        2
 10
310.6636478862069
 20
707.2558953344875
 10
161.1181551391009
 20
702.3197560176656
  0
HATCH
  5
CB2
330
1E
100
AcDbEntity
  8
SCHRAFF
100
AcDbHatch
 10
0.0
 20
0.0
 30
0.0
210
0.0
220
0.0
230
1.0
  2
_USER
 70
     0
 71
     1
 91
        5
 92
        7
 72
     0
 73
     1
 93
        6
 10
390.9722164835512
 20
728.9590672994894
 10
388.4722164835512
 20
726.4590672994893
 10
388.4722164835512
 20
722.9590672994897
 10
413.9722164835512
 20
722.9590672994894
 10
413.9722164835512
 20
726.9590672994895
 10
411.9722164835511
 20
728.9590672994896
 97
        6
330
7F9
330
93F
330
7FE
330
7FD
330
93E
330
7F8
 92
        7
 72
     0
 73
     1
 93
        5
 10
383.4722164835512
 20
722.9590672994894
 10
383.4722164835512
 20
726.4590672994891
 10
380.972216483551
 20
728.9590672994896
 10
360.3967334988878
 20
728.9590672994897
 10
361.601256939069
 20
722.9590672994895
 97
        5
330
801
330
93F
330
872
330
93E
330
7FB
 92
        7
 72
     0
 73
     1
 93
        4
 10
361.601256939069
 20
722.9590672994897
 10
360.3967334988878
 20
728.9590672994895
 10
305.9722164835512
 20
728.9590672994895
 10
305.9722164835512
 20
722.9590672994894
 97
        4
330
93F
330
857
330
93E
330
872
 92
        7
 72
     0
 73
     1
 93
        5
 10
165.9722164835511
 20
722.9590672994893
 10
165.9722164835511
 20
728.9590672994894
 10
91.97221648355132
 20
728.9590672994894
 10
88.97221648355117
 20
725.9590672994891
 10
88.97221648355117
 20
722.9590672994894
 97
        5
330
93F
330
914
330
915
330
93E
330
8F2
 92
        7
 72
     0
 73
     1
 93
        6
 10
59.97221648355108
 20
728.9590672994893
 10
57.97221648355116
 20
726.9590672994893
 10
57.97221648355116
 20
722.9590672994893
 10
82.97221648355117
 20
722.9590672994892
 10
82.97221648355117
 20
725.9590672994894
 10
79.97221648355092
 20
728.9590672994893
 97
        6
330
93F
330
91D
330
91C
330
93E
330
917
330
918
 75
     0
 76
     0
 52
45.0
 41
5.0
 77
     0
 78
     1
 53
45.0
 43
1.434339440487747
 44
-10.03432294155527
 45
-3.535533905932737
 46
3.535533905932737
 79
     0
 47
0.4384895424044056
 98
        5
 10
397.8914663773807
 20
726.6088287028399
 10
368.0561901323122
 20
725.293359098612
 10
345.6797311001064
 20
725.731849626354
 10
133.3227629280727
 20
725.293359098612
 10
74.09096613130805
 20
726.1703381750979
  0
HATCH
  5
CC9
330
1E
100
AcDbEntity
  8
SCHRAFF
100
AcDbHatch
 10
0.0
 20
0.0
 30
0.0
210
0.0
220
0.0
230
1.0
  2
_USER
 70
     0
 71
     1
 91
        4
 92
        7
 72
     1
 73
     1
 93
        4
 10
377.9722164835511
 20
734.959067299489
 42
1.0
 10
377.9722164835513
 20
740.9590672994888
 42
0.0
 10
355.9722164835512
 20
740.9590672994891
 42
0.0
 10
355.9722164835512
 20
734.959067299489
 42
0.0
 97
        4
330
93C
330
84F
330
873
330
800
 92
        7
 72
     1
 73
     1
 93
        4
 10
339.9722164835512
 20
734.959067299489
 42
0.0
 10
339.9722164835512
 20
740.9590672994891
 42
0.0
 10
317.9722164835512
 20
740.9590672994892
 42
1.0
 10
317.9722164835512
 20
734.9590672994892
 42
0.0
 97
        4
330
93C
330
856
330
93D
330
854
 92
        7
 72
     1
 73
     1
 93
        4
 10
153.9722164835511
 20
734.9590672994899
 42
1.0
 10
153.9722164835511
 20
740.9590672994897
 42
0.0
 10
131.9722164835513
 20
740.95906729949
 42
0.0
 10
131.9722164835511
 20
734.9590672994899
 42
0.0
 97
        4
330
93C
330
900
330
93D
330
8FC
 92
        7
 72
     1
 73
     1
 93
        4
 10
115.9722164835511
 20
734.9590672994901
 42
0.0
 10
115.9722164835511
 20
740.95906729949
 42
0.0
 10
93.97221648355117
 20
740.95906729949
 42
1.0
 10
93.97221648355117
 20
734.9590672994899
 42
0.0
 97
        4
330
93C
330
91B
330
91F
330
913
 75
     0
 76
     0
 52
135.0
 41
5.0
 77
     0
 78
     1
 53
135.0
 43
1.434339440487747
 44
-6.034322941555274
 45
-3.535533905932737
 46
-3.535533905932737
 79
     0
 47
0.3926474524565085
 98
        4
 10
367.504031147455
 20
737.9528048972958
 10
325.4654058556939
 20
736.7748617957138
 10
145.524389262096
 20
737.167510815573
 10
112.9149874020026
 20
737.9528048972958
  0
LINE
  5
CE9
102
{ACAD_REACTORS
330
EFE
102
}
330
1E
100
AcDbEntity
  8
STEMPEL
100
AcDbLine
 10
85.97221648355114
 20
731.9590672994896
 30
0.0
 11
117.9722164835511
 21
731.9590672994896
 31
0.0
  0
LINE
  5
CF6
102
{ACAD_REACTORS
330
EFE
102
}
330
1E
100
AcDbEntity
  8
STEMPEL
100
AcDbLine
 10
385.9722164835512
 20
731.9590672994896
 30
0.0
 11
385.9722164835511
 21
728.9590672994895
 31
0.0
  0
LINE
  5
CF7
102
{ACAD_REACTORS
330
EFE
102
}
330
1E
100
AcDbEntity
  8
STEMPEL
100
AcDbLine
 10
315.9722164835511
 20
731.9590672994893
 30
0.0
 11
315.972216483551
 21
728.9590672994894
 31
0.0
  0
LINE
  5
CFA
102
{ACAD_REACTORS
330
EFE
102
}
330
1E
100
AcDbEntity
  8
STEMPEL
100
AcDbLine
 10
353.9722164835512
 20
731.9590672994896
 30
0.0
 11
385.9722164835512
 21
731.9590672994896
 31
0.0
  0
LINE
  5
CFB
102
{ACAD_REACTORS
330
EFE
102
}
330
1E
100
AcDbEntity
  8
STEMPEL
100
AcDbLine
 10
339.9722164835512
 20
731.9590672994896
 30
0.0
 11
339.9722164835512
 21
728.9590672994895
 31
0.0
  0
LINE
  5
CFC
102
{ACAD_REACTORS
330
EFE
102
}
330
1E
100
AcDbEntity
  8
STEMPEL
100
AcDbLine
 10
355.9722164835512
 20
731.9590672994896
 30
0.0
 11
355.9722164835512
 21
728.9590672994895
 31
0.0
  0
LINE
  5
D01
102
{ACAD_REACTORS
330
EFE
102
}
330
1E
100
AcDbEntity
  8
STEMPEL
100
AcDbLine
 10
155.9722164835512
 20
731.9590672994894
 30
0.0
 11
155.9722164835512
 21
728.9590672994894
 31
0.0
  0
LINE
  5
D02
102
{ACAD_REACTORS
330
EFE
102
}
330
1E
100
AcDbEntity
  8
STEMPEL
100
AcDbLine
 10
131.972216483551
 20
731.9590672994894
 30
0.0
 11
131.972216483551
 21
728.9590672994894
 31
0.0
  0
LINE
  5
D03
102
{ACAD_REACTORS
330
EFE
102
}
330
1E
100
AcDbEntity
  8
STEMPEL
100
AcDbLine
 10
115.9722164835511
 20
731.9590672994894
 30
0.0
 11
115.9722164835511
 21
728.9590672994894
 31
0.0
  0
LINE
  5
D05
102
{ACAD_REACTORS
330
EFE
102
}
330
1E
100
AcDbEntity
  8
STEMPEL
100
AcDbLine
 10
129.9722164835511
 20
731.9590672994896
 30
0.0
 11
341.9722164835511
 21
731.9590672994896
 31
0.0
  0
LINE
  5
D06
102
{ACAD_REACTORS
330
EFE
102
}
330
1E
100
AcDbEntity
  8
STEMPEL
100
AcDbLine
 10
85.97221648355114
 20
731.9590672994893
 30
0.0
 11
85.97221648355114
 21
728.9590672994892
 31
0.0
  0
LINE
  5
D09
330
1E
100
AcDbEntity
  8
TEXT
 62
     2
100
AcDbLine
 10
355.7723013298671
 20
655.8699137168123
 30
0.0
 11
475.2088272556896
 21
655.8699137168123
 31
0.0
  0
TEXT
  5
D0A
330
1E
100
AcDbEntity
  8
TEXT
 62
     1
100
AcDbText
 10
356.1519149718108
 20
646.6504140309989
 30
0.0
 40
7.0
  1
EDV-Art.Nr. 21810.125X
 41
0.8
  7
GREEKS
100
AcDbText
  0
TEXT
  5
D0B
330
1E
100
AcDbEntity
  8
TEXT
 62
     1
100
AcDbText
 10
356.1519149718108
 20
658.8326971007497
 30
0.0
 40
7.0
  1
Kompressionsdichtung DN125
 41
0.75
  7
GREEKS
100
AcDbText
  0
LINE
  5
D0C
330
1E
100
AcDbEntity
  8
TEXT
 62
     2
100
AcDbLine
 10
329.2345718585524
 20
729.9987405985632
 30
0.0
 11
355.7723013298671
 21
655.8699137168123
 31
0.0
  0
TEXT
  5
D34
330
1E
100
AcDbEntity
  8
TEXT
 62
     1
100
AcDbText
 10
226.2131864472518
 20
532.333612411081
 30
0.0
 40
7.0
  1
DN70
 50
90.0
 41
0.8
  7
GREEKS
100
AcDbText
  0
DIMENSION
  5
DA9
330
1E
100
AcDbEntity
  8
SCHRAFF
100
AcDbDimension
  2
*D19
 10
385.9722164835512
 20
816.4914530872813
 30
0.0
 11
235.9722164835512
 21
822.9914530872813
 31
0.0
 70
    32
  1
%%c<>
 71
     5
 42
300.0
  3
Standard
100
AcDbAlignedDimension
 13
85.97221648355114
 23
731.9590672994896
 33
0.0
 14
385.9722164835512
 24
731.9590672994896
 34
0.0
100
AcDbRotatedDimension
1001
ACAD
1000
DSTYLE
1002
{
1070
    40
1040
2.0
1070
    41
1040
3.5
1070
    42
1040
1.0
1070
    43
1040
7.0
1070
    44
1040
1.0
1070
    73
1070
     0
1070
    74
1070
     0
1070
    77
1070
     1
1070
    78
1070
     8
1070
    79
1070
     2
1070
   140
1040
3.5
1070
   141
1040
1.5
1070
   146
1040
0.5142857142857144
1070
   147
1040
1.5
1070
   172
1070
     1
1070
   178
1070
     1
1070
   179
1070
     2
1070
   271
1070
     2
1070
   272
1070
     2
1070
   284
1070
     8
1070
   285
1070
     8
1070
   286
1070
     8
1002
}
  0
LINE
  5
E1C
330
1E
100
AcDbEntity
  8
STEMPEL
100
AcDbLine
 10
281.9722164835511
 20
709.3019244423462
 30
0.0
 11
189.9722164835511
 21
709.3019244423462
 31
0.0
  0
LINE
  5
E1D
330
1E
100
AcDbEntity
  8
STEMPEL
100
AcDbLine
 10
281.9722164835511
 20
708.3019244423462
 30
0.0
 11
189.9722164835511
 21
708.3019244423462
 31
0.0
  0
LINE
  5
E1E
330
1E
100
AcDbEntity
  8
STEMPEL
100
AcDbLine
 10
240.9722164835511
 20
700.3019244423462
 30
0.0
 11
240.9722164835511
 21
642.8019244423462
 31
0.0
  0
ARC
  5
E1F
330
1E
100
AcDbEntity
  8
STEMPEL
100
AcDbCircle
 10
235.9722164835511
 20
700.3019244423462
 30
0.0
 40
5.0
100
AcDbArc
 50
0.0
 51
180.0
  0
ELLIPSE
  5
E20
330
1E
100
AcDbEntity
  8
STEMPEL
100
AcDbEllipse
 10
276.9056562745046
 20
700.3019244423462
 30
0.0
 11
0.0
 21
-5.0
 31
0.0
210
0.0
220
0.0
230
-1.0
 40
0.3578787416023175
 41
3.364520263041026
 42
4.712388980384689
  0
LINE
  5
E21
330
1E
100
AcDbEntity
  8
STEMPEL
100
AcDbLine
 10
278.6950499825161
 20
657.3019244423463
 30
0.0
 11
278.6950499825161
 21
700.3019244423462
 31
0.0
  0
ELLIPSE
  5
E22
330
1E
100
AcDbEntity
  8
STEMPEL
100
AcDbEllipse
 10
260.3010532690531
 20
700.3019244423462
 30
0.0
 11
0.0
 21
5.0
 31
0.0
210
0.0
220
0.0
230
-1.0
 40
0.7941361070252299
 41
0.0649930632248183
 42
1.570796326794896
  0
LINE
  5
E23
330
1E
100
AcDbEntity
  8
STEMPEL
100
AcDbLine
 10
264.2717338041792
 20
657.3019244423463
 30
0.0
 11
264.2717338041792
 21
700.3019244423462
 31
0.0
  0
ELLIPSE
  5
E24
330
1E
100
AcDbEntity
  8
STEMPEL
100
AcDbEllipse
 10
277.815288269859
 20
700.3019244423462
 30
0.0
 11
0.0
 21
5.0
 31
0.0
210
0.0
220
0.0
230
-1.0
 40
0.3658316025268192
 41
0.0
 42
1.570796326794896
  0
ELLIPSE
  5
E25
330
1E
100
AcDbEntity
  8
STEMPEL
100
AcDbEllipse
 10
277.815288269859
 20
700.3019244423462
 30
0.0
 11
0.0
 21
5.0
 31
0.0
210
0.0
220
0.0
230
-1.0
 40
0.464998423476942
 41
4.712388980384689
 42
6.283185307179586
  0
LINE
  5
E26
330
1E
100
AcDbEntity
  8
STEMPEL
100
AcDbLine
 10
279.6444462824932
 20
657.3019244423463
 30
0.0
 11
279.6444462824932
 21
700.3019244423462
 31
0.0
  0
LINE
  5
E27
330
1E
100
AcDbEntity
  8
STEMPEL
100
AcDbLine
 10
275.4902961524743
 20
657.3019244423463
 30
0.0
 11
275.4902961524743
 21
700.3019244423462
 31
0.0
  0
ELLIPSE
  5
E28
330
1E
100
AcDbEntity
  8
STEMPEL
100
AcDbEllipse
 10
260.8416940865087
 20
700.3019244423462
 30
0.0
 11
0.0
 21
-5.0
 31
0.0
210
0.0
220
0.0
230
-1.0
 40
0.8117835760702689
 41
3.141592653589793
 42
4.712388980384689
  0
ELLIPSE
  5
E29
330
1E
100
AcDbEntity
  8
STEMPEL
100
AcDbEllipse
 10
260.8416940865087
 20
700.3019244423462
 30
0.0
 11
0.0
 21
5.0
 31
0.0
210
0.0
220
0.0
230
-1.0
 40
0.870723489592126
 41
4.712388980384689
 42
6.283185307179586
  0
LINE
  5
E2A
330
1E
100
AcDbEntity
  8
STEMPEL
100
AcDbLine
 10
264.9006119668601
 20
657.3019244423463
 30
0.0
 11
264.90061196686
 21
700.3019244423462
 31
0.0
  0
LINE
  5
E2B
330
1E
100
AcDbEntity
  8
STEMPEL
100
AcDbLine
 10
256.488076638548
 20
657.3019244423463
 30
0.0
 11
256.488076638548
 21
700.3019244423462
 31
0.0
  0
ARC
  5
E2C
102
{ACAD_REACTORS
330
E2E
102
}
330
1E
100
AcDbEntity
  8
SCHRAFF
100
AcDbCircle
 10
281.5480762508586
 20
708.3019244423462
 30
0.0
 40
1.086229688872692
100
AcDbArc
 50
292.9837545556703
 51
67.01624544432819
  0
LINE
  5
E2D
102
{ACAD_REACTORS
330
E2E
102
}
330
1E
100
AcDbEntity
  8
STEMPEL
100
AcDbLine
 10
281.9722164835511
 20
709.3019244423462
 30
0.0
 11
281.9722164835511
 21
634.3019244423461
 31
0.0
  0
HATCH
  5
E2E
330
1E
100
AcDbEntity
  8
SCHRAFF
100
AcDbHatch
 10
0.0
 20
0.0
 30
0.0
210
0.0
220
0.0
230
1.0
  2
_USER
 70
     0
 71
     1
 91
        2
 92
        7
 72
     1
 73
     1
 93
        2
 10
281.9722164835511
 20
709.3019244423462
 42
0.0
 10
281.9722164835511
 20
707.3019244423463
 42
0.6620894561801651
 97
        2
330
E2D
330
E2C
 92
        7
 72
     1
 73
     1
 93
        2
 10
189.9722164835511
 20
709.3019244423462
 42
0.6620894561801651
 10
189.9722164835511
 20
707.3019244423463
 42
0.0
 97
        2
330
E3D
330
E30
 75
     0
 76
     0
 52
0.0
 41
0.1
 77
     0
 78
     1
 53
0.0
 43
123.4722164835511
 44
434.2083444724887
 45
0.0
 46
0.1
 79
     0
 47
0.1065575046149088
 98
        2
 10
282.3564233554069
 20
708.58041179419
 10
189.831920698789
 20
708.3672966350119
  0
LINE
  5
E2F
330
1E
100
AcDbEntity
  8
STEMPEL
100
AcDbLine
 10
230.9722164835511
 20
700.3019244423462
 30
0.0
 11
230.9722164835511
 21
642.8019244423462
 31
0.0
  0
LINE
  5
E30
102
{ACAD_REACTORS
330
E2E
102
}
330
1E
100
AcDbEntity
  8
STEMPEL
100
AcDbLine
 10
189.9722164835511
 20
709.3019244423462
 30
0.0
 11
189.9722164835511
 21
634.3019244423461
 31
0.0
  0
LINE
  5
E31
330
1E
100
AcDbEntity
  8
STEMPEL
100
AcDbLine
 10
215.4563563285542
 20
657.3019244423463
 30
0.0
 11
215.4563563285542
 21
700.3019244423462
 31
0.0
  0
LINE
  5
E32
330
1E
100
AcDbEntity
  8
STEMPEL
100
AcDbLine
 10
207.0438210002421
 20
657.3019244423463
 30
0.0
 11
207.0438210002422
 21
700.3019244423462
 31
0.0
  0
ELLIPSE
  5
E33
330
1E
100
AcDbEntity
  8
STEMPEL
100
AcDbEllipse
 10
211.1027388805935
 20
700.3019244423462
 30
0.0
 11
0.0
 21
5.0
 31
0.0
210
0.0
220
0.0
230
1.0
 40
0.870723489592126
 41
4.712388980384689
 42
6.283185307179586
  0
ELLIPSE
  5
E34
330
1E
100
AcDbEntity
  8
STEMPEL
100
AcDbEllipse
 10
211.1027388805935
 20
700.3019244423462
 30
0.0
 11
0.0
 21
-5.0
 31
0.0
210
0.0
220
0.0
230
1.0
 40
0.8117835760702689
 41
3.141592653589793
 42
4.712388980384689
  0
LINE
  5
E35
330
1E
100
AcDbEntity
  8
STEMPEL
100
AcDbLine
 10
196.4541368146278
 20
657.3019244423463
 30
0.0
 11
196.4541368146278
 21
700.3019244423462
 31
0.0
  0
LINE
  5
E36
330
1E
100
AcDbEntity
  8
STEMPEL
100
AcDbLine
 10
192.299986684609
 20
657.3019244423463
 30
0.0
 11
192.299986684609
 21
700.3019244423462
 31
0.0
  0
ELLIPSE
  5
E37
330
1E
100
AcDbEntity
  8
STEMPEL
100
AcDbEllipse
 10
194.1291446972431
 20
700.3019244423462
 30
0.0
 11
0.0
 21
5.0
 31
0.0
210
0.0
220
0.0
230
1.0
 40
0.464998423476942
 41
4.712388980384689
 42
6.283185307179586
  0
ELLIPSE
  5
E38
330
1E
100
AcDbEntity
  8
STEMPEL
100
AcDbEllipse
 10
194.1291446972431
 20
700.3019244423462
 30
0.0
 11
0.0
 21
5.0
 31
0.0
210
0.0
220
0.0
230
1.0
 40
0.3658316025268192
 41
0.0
 42
1.570796326794896
  0
LINE
  5
E39
330
1E
100
AcDbEntity
  8
STEMPEL
100
AcDbLine
 10
207.672699162923
 20
657.3019244423463
 30
0.0
 11
207.672699162923
 21
700.3019244423462
 31
0.0
  0
ELLIPSE
  5
E3A
330
1E
100
AcDbEntity
  8
STEMPEL
100
AcDbEllipse
 10
211.6433796980491
 20
700.3019244423462
 30
0.0
 11
0.0
 21
5.0
 31
0.0
210
0.0
220
0.0
230
1.0
 40
0.7941361070252299
 41
0.0649930632248183
 42
1.570796326794896
  0
LINE
  5
E3B
330
1E
100
AcDbEntity
  8
STEMPEL
100
AcDbLine
 10
193.249382984586
 20
657.3019244423463
 30
0.0
 11
193.249382984586
 21
700.3019244423462
 31
0.0
  0
ELLIPSE
  5
E3C
330
1E
100
AcDbEntity
  8
STEMPEL
100
AcDbEllipse
 10
195.0387766925976
 20
700.3019244423462
 30
0.0
 11
0.0
 21
-5.0
 31
0.0
210
0.0
220
0.0
230
1.0
 40
0.3578787416023175
 41
3.364520263041026
 42
4.712388980384689
  0
ARC
  5
E3D
102
{ACAD_REACTORS
330
E2E
102
}
330
1E
100
AcDbEntity
  8
SCHRAFF
100
AcDbCircle
 10
190.3963567162436
 20
708.3019244423462
 30
0.0
 40
1.086229688872692
100
AcDbArc
 50
112.9837545556718
 51
247.0162454443297
  0
ELLIPSE
  5
E3E
330
1E
100
AcDbEntity
  8
STEMPEL
100
AcDbEllipse
 10
211.1027388805935
 20
657.3019244423463
 30
0.0
 11
0.0
 21
5.0
 31
0.0
210
0.0
220
0.0
230
1.0
 40
0.870723489592126
 41
3.141592653589793
 42
4.712388980384689
  0
ELLIPSE
  5
E3F
330
1E
100
AcDbEntity
  8
STEMPEL
100
AcDbEllipse
 10
211.1027388805935
 20
657.3019244423463
 30
0.0
 11
0.0
 21
-5.0
 31
0.0
210
0.0
220
0.0
230
1.0
 40
0.8117835760702689
 41
4.712388980384689
 42
6.283185307179586
  0
ELLIPSE
  5
E40
330
1E
100
AcDbEntity
  8
STEMPEL
100
AcDbEllipse
 10
194.1291446972431
 20
657.3019244423463
 30
0.0
 11
0.0
 21
5.0
 31
0.0
210
0.0
220
0.0
230
1.0
 40
0.464998423476942
 41
3.141592653589793
 42
4.712388980384689
  0
ELLIPSE
  5
E41
330
1E
100
AcDbEntity
  8
STEMPEL
100
AcDbEllipse
 10
194.1291446972431
 20
657.3019244423463
 30
0.0
 11
0.0
 21
-5.0
 31
0.0
210
0.0
220
0.0
230
1.0
 40
0.365831602526822
 41
4.712388980384689
 42
6.283185307179586
  0
ELLIPSE
  5
E42
330
1E
100
AcDbEntity
  8
STEMPEL
100
AcDbEllipse
 10
211.6433796980491
 20
657.3019244423463
 30
0.0
 11
0.0
 21
-5.000000000000028
 31
0.0
210
0.0
220
0.0
230
1.0
 40
0.7941361070252255
 41
4.712388980384689
 42
6.218192243954706
  0
ELLIPSE
  5
E43
330
1E
100
AcDbEntity
  8
STEMPEL
100
AcDbEllipse
 10
195.0387766925976
 20
657.3019244423463
 30
0.0
 11
0.0
 21
5.0
 31
0.0
210
0.0
220
0.0
230
1.0
 40
0.3578787416023175
 41
1.570796326794896
 42
2.918665044139185
  0
ELLIPSE
  5
E44
330
1E
100
AcDbEntity
  8
STEMPEL
100
AcDbEllipse
 10
276.9056562745046
 20
657.3019244423463
 30
0.0
 11
0.0
 21
5.0
 31
0.0
210
0.0
220
0.0
230
-1.0
 40
0.3578787416023175
 41
1.570796326794896
 42
2.918665044139185
  0
ELLIPSE
  5
E45
330
1E
100
AcDbEntity
  8
STEMPEL
100
AcDbEllipse
 10
260.3010532690531
 20
657.3019244423463
 30
0.0
 11
0.0
 21
-5.000000000000028
 31
0.0
210
0.0
220
0.0
230
-1.0
 40
0.7941361070252255
 41
4.712388980384689
 42
6.218192243954706
  0
ELLIPSE
  5
E46
330
1E
100
AcDbEntity
  8
STEMPEL
100
AcDbEllipse
 10
277.815288269859
 20
657.3019244423463
 30
0.0
 11
0.0
 21
-5.0
 31
0.0
210
0.0
220
0.0
230
-1.0
 40
0.365831602526822
 41
4.712388980384689
 42
6.283185307179586
  0
ELLIPSE
  5
E47
330
1E
100
AcDbEntity
  8
STEMPEL
100
AcDbEllipse
 10
277.815288269859
 20
657.3019244423463
 30
0.0
 11
0.0
 21
5.0
 31
0.0
210
0.0
220
0.0
230
-1.0
 40
0.464998423476942
 41
3.141592653589793
 42
4.712388980384689
  0
ELLIPSE
  5
E48
330
1E
100
AcDbEntity
  8
STEMPEL
100
AcDbEllipse
 10
260.8416940865087
 20
657.3019244423463
 30
0.0
 11
0.0
 21
-5.0
 31
0.0
210
0.0
220
0.0
230
-1.0
 40
0.8117835760702689
 41
4.712388980384689
 42
6.283185307179586
  0
ELLIPSE
  5
E49
330
1E
100
AcDbEntity
  8
STEMPEL
100
AcDbEllipse
 10
260.8416940865087
 20
657.3019244423463
 30
0.0
 11
0.0
 21
5.0
 31
0.0
210
0.0
220
0.0
230
-1.0
 40
0.870723489592126
 41
3.141592653589793
 42
4.712388980384689
  0
ARC
  5
E4A
330
1E
100
AcDbEntity
  8
STEMPEL
100
AcDbCircle
 10
235.9722164835511
 20
642.8019244423462
 30
0.0
 40
5.0
100
AcDbArc
 50
180.0
 51
0.0
  0
LINE
  5
E4B
330
1E
100
AcDbEntity
  8
HILF
100
AcDbLine
 10
281.467228921439
 20
629.3019244423462
 30
0.0
 11
190.4772040456632
 21
629.3019244423462
 31
0.0
  0
LINE
  5
E4C
330
1E
100
AcDbEntity
  8
STEMPEL
100
AcDbLine
 10
282.472216483551
 20
629.3019244423462
 30
0.0
 11
281.9722164835511
 21
624.3019244423463
 31
0.0
  0
LINE
  5
E4D
330
1E
100
AcDbEntity
  8
STEMPEL
100
AcDbLine
 10
281.9722164835511
 20
634.3019244423462
 30
0.0
 11
282.472216483551
 21
629.3019244423462
 31
0.0
  0
LINE
  5
E4E
330
1E
100
AcDbEntity
  8
STEMPEL
100
AcDbLine
 10
281.9722164835511
 20
624.3019244423463
 30
0.0
 11
189.9722164835511
 21
624.3019244423463
 31
0.0
  0
LINE
  5
E4F
330
1E
100
AcDbEntity
  8
HILF
100
AcDbLine
 10
280.972216483551
 20
634.3019244423461
 30
0.0
 11
190.9772040456632
 21
634.3019244423462
 31
0.0
  0
LINE
  5
E50
330
1E
100
AcDbEntity
  8
STEMPEL
100
AcDbLine
 10
189.9722164835511
 20
634.3019244423462
 30
0.0
 11
189.4722164835511
 21
629.3019244423462
 31
0.0
  0
LINE
  5
E51
330
1E
100
AcDbEntity
  8
STEMPEL
100
AcDbLine
 10
189.4722164835511
 20
629.3019244423462
 30
0.0
 11
189.9722164835511
 21
624.3019244423463
 31
0.0
  0
LINE
  5
E52
330
1E
100
AcDbEntity
  8
STEMPEL
100
AcDbLine
 10
230.9722164835511
 20
647.9590672994893
 30
0.0
 11
240.9722164835512
 21
647.9590672994893
 31
0.0
  0
LINE
  5
E53
330
1E
100
AcDbEntity
  8
STEMPEL
100
AcDbLine
 10
281.9722164835511
 20
647.9590672994893
 30
0.0
 11
332.8222164835511
 21
647.9590672994893
 31
0.0
  0
LINE
  5
E54
330
1E
100
AcDbEntity
  8
STEMPEL
100
AcDbLine
 10
278.6950499825162
 20
693.9590672994896
 30
0.0
 11
275.4902961524743
 21
693.9590672994897
 31
0.0
  0
LINE
  5
E55
330
1E
100
AcDbEntity
  8
STEMPEL
100
AcDbLine
 10
264.2717338041792
 20
693.9590672994896
 30
0.0
 11
256.488076638548
 21
693.9590672994894
 31
0.0
  0
LINE
  5
E56
330
1E
100
AcDbEntity
  8
STEMPEL
100
AcDbLine
 10
215.4563563285541
 20
693.9590672994896
 30
0.0
 11
207.672699162923
 21
693.9590672994896
 31
0.0
  0
LINE
  5
E57
330
1E
100
AcDbEntity
  8
STEMPEL
100
AcDbLine
 10
196.4541368146278
 20
693.9590672994896
 30
0.0
 11
193.249382984586
 21
693.9590672994897
 31
0.0
  0
LINE
  5
E58
330
1E
100
AcDbEntity
  8
STEMPEL
100
AcDbLine
 10
189.9722164835511
 20
693.9590672994896
 30
0.0
 11
159.9722164835512
 21
693.9590672994896
 31
0.0
  0
CIRCLE
  5
E79
330
1E
100
AcDbEntity
  8
STEMPEL
100
AcDbCircle
 10
235.9722164835512
 20
226.272371333121
 30
0.0
 40
46.0
  0
CIRCLE
  5
E7A
330
1E
100
AcDbEntity
  8
VERDECKT
100
AcDbCircle
 10
235.9722164835512
 20
226.272371333121
 30
0.0
 40
45.0
  0
LINE
  5
E7B
330
1E
100
AcDbEntity
  8
VERDECKT
100
AcDbLine
 10
231.0809121357251
 20
181.5389929476588
 30
0.0
 11
230.9722164835512
 21
180.5449178724263
 31
0.0
  0
LINE
  5
E7C
330
1E
100
AcDbEntity
  8
VERDECKT
100
AcDbLine
 10
240.8635208313773
 20
181.5389929476588
 30
0.0
 11
240.9722164835512
 21
180.5449178724263
 31
0.0
  0
LINE
  5
E7D
330
1E
100
AcDbEntity
  8
VERDECKT
100
AcDbLine
 10
264.2717338041792
 20
191.2846975119097
 30
0.0
 11
264.9006119668599
 21
190.5071936492161
 31
0.0
  0
LINE
  5
E7E
330
1E
100
AcDbEntity
  8
VERDECKT
100
AcDbLine
 10
256.0420796786568
 20
185.9958199498441
 30
0.0
 11
256.488076638548
 21
185.1007854746601
 31
0.0
  0
LINE
  5
E7F
330
1E
100
AcDbEntity
  8
VERDECKT
100
AcDbLine
 10
278.6950499825162
 20
212.1387413033052
 30
0.0
 11
279.6444462824932
 21
211.8246606359759
 31
0.0
  0
LINE
  5
E80
330
1E
100
AcDbEntity
  8
VERDECKT
100
AcDbLine
 10
274.6312074640195
 20
203.2401674357066
 30
0.0
 11
275.4902961524743
 21
202.7283406824307
 31
0.0
  0
LINE
  5
E81
330
1E
100
AcDbEntity
  8
VERDECKT
100
AcDbLine
 10
279.5541683900484
 20
237.4801127657094
 30
0.0
 11
280.5226562101928
 21
237.7291736864336
 31
0.0
  0
LINE
  5
E82
330
1E
100
AcDbEntity
  8
VERDECKT
100
AcDbLine
 10
280.946378764461
 20
227.797076921222
 30
0.0
 11
281.9458045929257
 21
227.8309592676242
 31
0.0
  0
LINE
  5
E83
330
1E
100
AcDbEntity
  8
VERDECKT
100
AcDbLine
 10
266.576325002625
 20
259.2631055133836
 30
0.0
 11
267.2564163030489
 21
259.9962329396117
 31
0.0
  0
LINE
  5
E84
330
1E
100
AcDbEntity
  8
VERDECKT
100
AcDbLine
 10
272.9825713129594
 20
251.8699031555702
 30
0.0
 11
273.8050236425017
 21
252.4387371960691
 31
0.0
  0
LINE
  5
E85
330
1E
100
AcDbEntity
  8
VERDECKT
100
AcDbLine
 10
243.8818933986934
 20
270.5717732602133
 30
0.0
 11
244.0576639968077
 21
271.5562044141486
 31
0.0
  0
LINE
  5
E86
330
1E
100
AcDbEntity
  8
VERDECKT
100
AcDbLine
 10
253.2682377057918
 20
267.8156938998079
 30
0.0
 11
253.6525937329527
 21
268.7388788457343
 31
0.0
  0
LINE
  5
E87
330
1E
100
AcDbEntity
  8
VERDECKT
100
AcDbLine
 10
218.6761952613106
 20
267.815693899808
 30
0.0
 11
218.2918392341497
 21
268.7388788457344
 31
0.0
  0
LINE
  5
E88
330
1E
100
AcDbEntity
  8
VERDECKT
100
AcDbLine
 10
228.062539568409
 20
270.5717732602133
 30
0.0
 11
227.8867689702947
 21
271.5562044141486
 31
0.0
  0
LINE
  5
E89
330
1E
100
AcDbEntity
  8
VERDECKT
100
AcDbLine
 10
198.9618616541429
 20
251.8699031555703
 30
0.0
 11
198.1394093246006
 21
252.4387371960691
 31
0.0
  0
LINE
  5
E8A
330
1E
100
AcDbEntity
  8
VERDECKT
100
AcDbLine
 10
205.3681079644773
 20
259.2631055133836
 30
0.0
 11
204.6880166640534
 21
259.9962329396117
 31
0.0
  0
LINE
  5
E8B
330
1E
100
AcDbEntity
  8
VERDECKT
100
AcDbLine
 10
190.9980542026413
 20
227.7970769212221
 30
0.0
 11
189.9986283741766
 21
227.8309592676243
 31
0.0
  0
LINE
  5
E8C
330
1E
100
AcDbEntity
  8
VERDECKT
100
AcDbLine
 10
192.3902645770539
 20
237.4801127657095
 30
0.0
 11
191.4217767569095
 21
237.7291736864337
 31
0.0
  0
LINE
  5
E8D
330
1E
100
AcDbEntity
  8
VERDECKT
100
AcDbLine
 10
197.3132255030828
 20
203.2401674357067
 30
0.0
 11
196.4541368146279
 21
202.7283406824308
 31
0.0
  0
LINE
  5
E8E
330
1E
100
AcDbEntity
  8
VERDECKT
100
AcDbLine
 10
193.2493829845861
 20
212.1387413033053
 30
0.0
 11
192.2999866846091
 21
211.824660635976
 31
0.0
  0
LINE
  5
E8F
330
1E
100
AcDbEntity
  8
VERDECKT
100
AcDbLine
 10
215.9023532884455
 20
185.9958199498441
 30
0.0
 11
215.4563563285542
 21
185.1007854746602
 31
0.0
  0
LINE
  5
E90
330
1E
100
AcDbEntity
  8
VERDECKT
100
AcDbLine
 10
207.6726991629231
 20
191.2846975119098
 30
0.0
 11
207.0438210002424
 21
190.5071936492162
 31
0.0
  0
CIRCLE
  5
E91
330
1E
100
AcDbEntity
  8
STEMPEL
100
AcDbCircle
 10
235.9722164835512
 20
226.272371333121
 30
0.0
 40
46.5
  0
HATCH
  5
EFE
330
1E
100
AcDbEntity
  8
SCHRAFF
100
AcDbHatch
 10
0.0
 20
0.0
 30
0.0
210
0.0
220
0.0
230
1.0
  2
NET
 70
     0
 71
     1
 91
        5
 92
        7
 72
     0
 73
     1
 93
        4
 10
385.9722164835512
 20
731.9590672994896
 10
359.7944717787972
 20
731.9590672994896
 10
360.3967334988878
 20
728.9590672994896
 10
385.9722164835512
 20
728.9590672994896
 97
        4
330
CFA
330
872
330
93F
330
CF6
 92
        7
 72
     0
 73
     1
 93
        4
 10
359.7944717787972
 20
731.9590672994896
 10
355.9722164835512
 20
731.9590672994896
 10
355.9722164835512
 20
728.9590672994895
 10
360.3967334988878
 20
728.9590672994895
 97
        4
330
CFA
330
CFC
330
93F
330
872
 92
        7
 72
     0
 73
     1
 93
        4
 10
339.9722164835511
 20
731.9590672994896
 10
315.9722164835511
 20
731.9590672994894
 10
315.972216483551
 20
728.9590672994895
 10
339.9722164835512
 20
728.9590672994895
 97
        4
330
D05
330
CF7
330
93F
330
CFB
 92
        7
 72
     0
 73
     1
 93
        4
 10
155.9722164835512
 20
731.9590672994896
 10
131.972216483551
 20
731.9590672994894
 10
131.972216483551
 20
728.9590672994894
 10
155.9722164835512
 20
728.9590672994895
 97
        4
330
D05
330
D02
330
93F
330
D01
 92
        7
 72
     0
 73
     1
 93
        4
 10
115.9722164835511
 20
731.9590672994896
 10
85.97221648355114
 20
731.9590672994896
 10
85.97221648355114
 20
728.9590672994894
 10
115.9722164835511
 20
728.9590672994894
 97
        4
330
CE9
330
D06
330
93F
330
D03
 75
     0
 76
     1
 52
45.0
 41
15.0
 77
     0
 78
     2
 53
45.0
 43
0.0
 44
0.0
 45
-1.325825214724776
 46
1.325825214724776
 79
     0
 53
135.0
 43
0.0
 44
0.0
 45
-1.325825214724776
 46
-1.325825214724776
 79
     0
 47
0.3440736138586689
 98
        5
 10
367.2703794831637
 20
730.2699791387738
 10
359.698191314827
 20
730.9581262089594
 10
335.9490547915734
 20
729.5818320685882
 10
142.8582631311215
 20
729.925905603681
 10
102.5879908962647
 20
730.9581262089594
  0
ENDSEC
  0
SECTION
  2
OBJECTS
  0
DICTIONARY
  5
C
330
0
100
AcDbDictionary
281
     1
  3
ACAD_COLOR
350
11A
  3
ACAD_GROUP
350
D
  3
ACAD_LAYOUT
350
19
  3
ACAD_MATERIAL
350
119
  3
ACAD_MLINESTYLE
350
16
  3
ACAD_PLOTSETTINGS
350
18
  3
ACAD_PLOTSTYLENAME
350
E
  3
AcDbVariableDictionary
350
125
  0
DICTIONARY
  5
DB
330
1E
100
AcDbDictionary
280
     1
281
     1
  3
ACAD_LAYOUTSELFREF
360
10F
  0
DICTIONARY
  5
DD
330
1A
100
AcDbDictionary
280
     1
281
     1
  3
ACAD_LAYOUTSELFREF
360
10E
  0
DICTIONARY
  5
11A
102
{ACAD_REACTORS
330
C
102
}
330
C
100
AcDbDictionary
281
     1
  0
DICTIONARY
  5
D
102
{ACAD_REACTORS
330
C
102
}
330
C
100
AcDbDictionary
281
     1
  0
DICTIONARY
  5
19
102
{ACAD_REACTORS
330
C
102
}
330
C
100
AcDbDictionary
281
     1
  3
Layout1
350
1D
  3
Model
350
21
  0
DICTIONARY
  5
119
102
{ACAD_REACTORS
330
C
102
}
330
C
100
AcDbDictionary
281
     1
  0
DICTIONARY
  5
16
102
{ACAD_REACTORS
330
C
102
}
330
C
100
AcDbDictionary
281
     1
  3
Standard
350
17
  0
DICTIONARY
  5
18
102
{ACAD_REACTORS
330
C
102
}
330
C
100
AcDbDictionary
281
     1
  0
ACDBDICTIONARYWDFLT
  5
E
102
{ACAD_REACTORS
330
C
102
}
330
C
100
AcDbDictionary
281
     1
  3
Normal
350
F
100
AcDbDictionaryWithDefault
340
F
  0
DICTIONARY
  5
125
102
{ACAD_REACTORS
330
C
102
}
330
C
100
AcDbDictionary
281
     1
  3
DIMASSOC
350
126
  3
PROJECTNAME
350
127
  0
XRECORD
  5
10F
102
{ACAD_REACTORS
330
DB
102
}
330
DB
100
AcDbXrecord
280
     1
340
1E
  0
XRECORD
  5
10E
102
{ACAD_REACTORS
330
DD
102
}
330
DD
100
AcDbXrecord
280
     1
340
1A
  0
LAYOUT
  5
1D
102
{ACAD_REACTORS
330
19
102
}
330
19
100
AcDbPlotSettings
  1

  2
\\NT_WORK01\HP LaserJet 5000 PCL 6
  4

  6

 40
0.0
 41
0.0
 42
0.0
 43
0.0
 44
0.0
 45
0.0
 46
0.0
 47
0.0
 48
0.0
 49
0.0
140
0.0
141
0.0
142
1.0
143
1.0
 70
   688
 72
     0
 73
     0
 74
     5
  7

 75
    16
147
1.0
 76
     0
 77
     2
 78
   300
148
0.0
149
0.0
100
AcDbLayout
  1
Layout1
 70
     0
 71
     1
 10
0.0
 20
0.0
 11
12.0
 21
9.0
 12
0.0
 22
0.0
 32
0.0
 14
1.000000000000000E+20
 24
1.000000000000000E+20
 34
1.000000000000000E+20
 15
-1.000000000000000E+20
 25
-1.000000000000000E+20
 35
-1.000000000000000E+20
146
0.0
 13
0.0
 23
0.0
 33
0.0
 16
1.0
 26
0.0
 36
0.0
 17
0.0
 27
1.0
 37
0.0
 76
     0
330
1A
  0
LAYOUT
  5
21
102
{ACAD_REACTORS
330
19
102
}
330
19
100
AcDbPlotSettings
  1

  2
\\NT_WORK01\HP LaserJet 5000 PCL 6
  4

  6

 40
0.0
 41
0.0
 42
0.0
 43
0.0
 44
0.0
 45
0.0
 46
0.0
 47
0.0
 48
0.0
 49
0.0
140
0.0
141
0.0
142
1.0
143
1.0
 70
  1712
 72
     0
 73
     0
 74
     0
  7

 75
     0
147
1.0
 76
     0
 77
     2
 78
   300
148
0.0
149
0.0
100
AcDbLayout
  1
Model
 70
     1
 71
     0
 10
0.0
 20
0.0
 11
12.0
 21
9.0
 12
0.0
 22
0.0
 32
0.0
 14
0.0
 24
0.0
 34
0.0
 15
0.0
 25
0.0
 35
0.0
146
0.0
 13
0.0
 23
0.0
 33
0.0
 16
1.0
 26
0.0
 36
0.0
 17
0.0
 27
1.0
 37
0.0
 76
     0
330
1E
  0
MLINESTYLE
  5
17
102
{ACAD_REACTORS
330
16
102
}
330
16
100
AcDbMlineStyle
  2
STANDARD
 70
     0
  3

 62
   256
 51
90.0
 52
90.0
 71
     2
 49
0.5
 62
   256
  6
BYLAYER
 49
-0.5
 62
   256
  6
BYLAYER
  0
ACDBPLACEHOLDER
  5
F
102
{ACAD_REACTORS
330
E
102
}
330
E
  0
DICTIONARYVAR
  5
126
102
{ACAD_REACTORS
330
125
102
}
330
125
100
DictionaryVariables
280
     0
  1
1
  0
DICTIONARYVAR
  5
127
102
{ACAD_REACTORS
330
125
102
}
330
125
100
DictionaryVariables
280
     0
  1

  0
ENDSEC
  0
EOF
