  0
SECTION
  2
HEADER
  9
$ACADVER
  1
AC1018
  9
$ACADMAINTVER
 70
     2
  9
$DWGCODEPAGE
  3
ANSI_1252
  9
$INSBASE
 10
0.0
 20
0.0
 30
0.0
  9
$EXTMIN
 10
0.0
 20
-0.0000000000000568
 30
0.0
  9
$EXTMAX
 10
594.0
 20
840.0
 30
0.0
  9
$LIMMIN
 10
0.0
 20
0.0
  9
$LIMMAX
 10
594.0
 20
840.0
  9
$ORTHOMODE
 70
     1
  9
$REGENMODE
 70
     1
  9
$FILLMODE
 70
     1
  9
$QTEXTMODE
 70
     0
  9
$MIRRTEXT
 70
     1
  9
$LTSCALE
 40
20.0
  9
$ATTMODE
 70
     1
  9
$TEXTSIZE
 40
3.5
  9
$TRACEWID
 40
1.0
  9
$TEXTSTYLE
  7
STANDARD
  9
$CLAYER
  8
BEM
  9
$CELTYPE
  6
ByLayer
  9
$CECOLOR
 62
   256
  9
$CELTSCALE
 40
1.0
  9
$DISPSILH
 70
     0
  9
$DIMSCALE
 40
2.0
  9
$DIMASZ
 40
3.5
  9
$DIMEXO
 40
1.0
  9
$DIMDLI
 40
7.0
  9
$DIMRND
 40
0.0
  9
$DIMDLE
 40
0.0
  9
$DIMEXE
 40
1.0
  9
$DIMTP
 40
0.0
  9
$DIMTM
 40
0.0
  9
$DIMTXT
 40
3.5
  9
$DIMCEN
 40
1.5
  9
$DIMTSZ
 40
0.0
  9
$DIMTOL
 70
     0
  9
$DIMLIM
 70
     0
  9
$DIMTIH
 70
     0
  9
$DIMTOH
 70
     0
  9
$DIMSE1
 70
     0
  9
$DIMSE2
 70
     0
  9
$DIMTAD
 70
     1
  9
$DIMZIN
 70
     8
  9
$DIMBLK
  1

  9
$DIMASO
 70
     1
  9
$DIMSHO
 70
     0
  9
$DIMPOST
  1

  9
$DIMAPOST
  1

  9
$DIMALT
 70
     0
  9
$DIMALTD
 70
     2
  9
$DIMALTF
 40
25.4
  9
$DIMLFAC
 40
1.0
  9
$DIMTOFL
 70
     1
  9
$DIMTVP
 40
0.0
  9
$DIMTIX
 70
     0
  9
$DIMSOXD
 70
     0
  9
$DIMSAH
 70
     0
  9
$DIMBLK1
  1

  9
$DIMBLK2
  1

  9
$DIMSTYLE
  2
Standard
  9
$DIMCLRD
 70
     0
  9
$DIMCLRE
 70
     0
  9
$DIMCLRT
 70
     1
  9
$DIMTFAC
 40
0.5142857142857144
  9
$DIMGAP
 40
1.5
  9
$DIMJUST
 70
     0
  9
$DIMSD1
 70
     0
  9
$DIMSD2
 70
     0
  9
$DIMTOLJ
 70
     1
  9
$DIMTZIN
 70
     8
  9
$DIMALTZ
 70
     8
  9
$DIMALTTZ
 70
     8
  9
$DIMUPT
 70
     0
  9
$DIMDEC
 70
     2
  9
$DIMTDEC
 70
     2
  9
$DIMALTU
 70
     2
  9
$DIMALTTD
 70
     2
  9
$DIMTXSTY
  7
STANDARD
  9
$DIMAUNIT
 70
     0
  9
$DIMADEC
 70
     2
  9
$DIMALTRND
 40
0.0
  9
$DIMAZIN
 70
     2
  9
$DIMDSEP
 70
    46
  9
$DIMATFIT
 70
     3
  9
$DIMFRAC
 70
     0
  9
$DIMLDRBLK
  1

  9
$DIMLUNIT
 70
     2
  9
$DIMLWD
 70
    -2
  9
$DIMLWE
 70
    -2
  9
$DIMTMOVE
 70
     0
  9
$LUNITS
 70
     2
  9
$LUPREC
 70
     2
  9
$SKETCHINC
 40
1.0
  9
$FILLETRAD
 40
0.0
  9
$AUNITS
 70
     0
  9
$AUPREC
 70
     0
  9
$MENU
  1
ACAD
  9
$ELEVATION
 40
0.0
  9
$PELEVATION
 40
0.0
  9
$THICKNESS
 40
0.0
  9
$LIMCHECK
 70
     0
  9
$CHAMFERA
 40
0.0
  9
$CHAMFERB
 40
0.0
  9
$CHAMFERC
 40
0.0
  9
$CHAMFERD
 40
0.0
  9
$SKPOLY
 70
     0
  9
$TDCREATE
 40
2455397.867059838
  9
$TDUCREATE
 40
2455397.783726505
  9
$TDUPDATE
 40
2456094.362622025
  9
$TDUUPDATE
 40
2456094.279288692
  9
$TDINDWG
 40
0.0985316204
  9
$TDUSRTIMER
 40
0.0985316204
  9
$USRTIMER
 70
     1
  9
$ANGBASE
 50
0.0
  9
$ANGDIR
 70
     0
  9
$PDMODE
 70
     0
  9
$PDSIZE
 40
0.0
  9
$PLINEWID
 40
0.0
  9
$SPLFRAME
 70
     0
  9
$SPLINETYPE
 70
     6
  9
$SPLINESEGS
 70
     8
  9
$HANDSEED
  5
98E
  9
$SURFTAB1
 70
     6
  9
$SURFTAB2
 70
     6
  9
$SURFTYPE
 70
     6
  9
$SURFU
 70
     6
  9
$SURFV
 70
     6
  9
$UCSBASE
  2

  9
$UCSNAME
  2

  9
$UCSORG
 10
0.0
 20
0.0
 30
0.0
  9
$UCSXDIR
 10
1.0
 20
0.0
 30
0.0
  9
$UCSYDIR
 10
0.0
 20
1.0
 30
0.0
  9
$UCSORTHOREF
  2

  9
$UCSORTHOVIEW
 70
     0
  9
$UCSORGTOP
 10
0.0
 20
0.0
 30
0.0
  9
$UCSORGBOTTOM
 10
0.0
 20
0.0
 30
0.0
  9
$UCSORGLEFT
 10
0.0
 20
0.0
 30
0.0
  9
$UCSORGRIGHT
 10
0.0
 20
0.0
 30
0.0
  9
$UCSORGFRONT
 10
0.0
 20
0.0
 30
0.0
  9
$UCSORGBACK
 10
0.0
 20
0.0
 30
0.0
  9
$PUCSBASE
  2

  9
$PUCSNAME
  2

  9
$PUCSORG
 10
0.0
 20
0.0
 30
0.0
  9
$PUCSXDIR
 10
1.0
 20
0.0
 30
0.0
  9
$PUCSYDIR
 10
0.0
 20
1.0
 30
0.0
  9
$PUCSORTHOREF
  2

  9
$PUCSORTHOVIEW
 70
     0
  9
$PUCSORGTOP
 10
0.0
 20
0.0
 30
0.0
  9
$PUCSORGBOTTOM
 10
0.0
 20
0.0
 30
0.0
  9
$PUCSORGLEFT
 10
0.0
 20
0.0
 30
0.0
  9
$PUCSORGRIGHT
 10
0.0
 20
0.0
 30
0.0
  9
$PUCSORGFRONT
 10
0.0
 20
0.0
 30
0.0
  9
$PUCSORGBACK
 10
0.0
 20
0.0
 30
0.0
  9
$USERI1
 70
     0
  9
$USERI2
 70
     0
  9
$USERI3
 70
     0
  9
$USERI4
 70
     0
  9
$USERI5
 70
     0
  9
$USERR1
 40
0.0
  9
$USERR2
 40
0.0
  9
$USERR3
 40
0.0
  9
$USERR4
 40
0.0
  9
$USERR5
 40
0.0
  9
$WORLDVIEW
 70
     1
  9
$SHADEDGE
 70
     3
  9
$SHADEDIF
 70
    70
  9
$TILEMODE
 70
     1
  9
$MAXACTVP
 70
    16
  9
$PINSBASE
 10
0.0
 20
0.0
 30
0.0
  9
$PLIMCHECK
 70
     0
  9
$PEXTMIN
 10
1.000000000000000E+20
 20
1.000000000000000E+20
 30
1.000000000000000E+20
  9
$PEXTMAX
 10
-1.000000000000000E+20
 20
-1.000000000000000E+20
 30
-1.000000000000000E+20
  9
$PLIMMIN
 10
0.0
 20
0.0
  9
$PLIMMAX
 10
12.0
 20
9.0
  9
$UNITMODE
 70
     0
  9
$VISRETAIN
 70
     0
  9
$PLINEGEN
 70
     0
  9
$PSLTSCALE
 70
     0
  9
$TREEDEPTH
 70
  3020
  9
$CMLSTYLE
  2
Standard
  9
$CMLJUST
 70
     0
  9
$CMLSCALE
 40
1.0
  9
$PROXYGRAPHICS
 70
     1
  9
$MEASUREMENT
 70
     0
  9
$CELWEIGHT
370
    -1
  9
$ENDCAPS
280
     0
  9
$JOINSTYLE
280
     0
  9
$LWDISPLAY
290
     0
  9
$INSUNITS
 70
     0
  9
$HYPERLINKBASE
  1

  9
$STYLESHEET
  1
monochrome 1.ctb
  9
$XEDIT
290
     1
  9
$CEPSNTYPE
380
     0
  9
$PSTYLEMODE
290
     1
  9
$FINGERPRINTGUID
  2
{D68B0D0D-A558-11D7-B632-000102183313}
  9
$VERSIONGUID
  2
{37197768-0258-4D3D-917F-F42C7A7AB21E}
  9
$EXTNAMES
290
     1
  9
$PSVPSCALE
 40
0.0
  9
$OLESTARTUP
290
     0
  9
$SORTENTS
280
   127
  9
$INDEXCTL
280
     0
  9
$HIDETEXT
280
     0
  9
$XCLIPFRAME
290
     0
  9
$HALOGAP
280
     0
  9
$OBSCOLOR
 70
   257
  9
$OBSLTYPE
280
     0
  9
$INTERSECTIONDISPLAY
280
     0
  9
$INTERSECTIONCOLOR
 70
   257
  9
$DIMASSOC
280
     1
  9
$PROJECTNAME
  1

  0
ENDSEC
  0
SECTION
  2
CLASSES
  0
CLASS
  1
ACDBDICTIONARYWDFLT
  2
AcDbDictionaryWithDefault
  3
ObjectDBX Classes
 90
        0
 91
        1
280
     0
281
     0
  0
CLASS
  1
DICTIONARYVAR
  2
AcDbDictionaryVar
  3
ObjectDBX Classes
 90
        0
 91
        2
280
     0
281
     0
  0
ENDSEC
  0
SECTION
  2
TABLES
  0
TABLE
  2
VPORT
  5
8
330
0
100
AcDbSymbolTable
 70
     3
  0
VPORT
  5
98D
330
8
100
AcDbSymbolTableRecord
100
AcDbViewportTableRecord
  2
*Active
 70
     0
 10
0.0
 20
0.0
 11
1.0
 21
1.0
 12
297.0000000000002
 22
420.0000000000001
 13
0.0
 23
0.0
 14
1.0
 24
1.0
 15
10.0
 25
10.0
 16
0.0
 26
0.0
 36
1.0
 17
0.0
 27
0.0
 37
0.0
 40
840.0000000000002
 41
1.374331550802138
 42
50.0
 43
0.0
 44
0.0
 50
0.0
 51
0.0
 71
     0
 72
  1500
 73
     1
 74
     0
 75
     0
 76
     0
 77
     0
 78
     0
281
     0
 65
     1
110
0.0
120
0.0
130
0.0
111
1.0
121
0.0
131
0.0
112
0.0
122
1.0
132
0.0
 79
     0
146
0.0
  0
ENDTAB
  0
TABLE
  2
LTYPE
  5
5
330
0
100
AcDbSymbolTable
 70
     2
  0
LTYPE
  5
13
330
5
100
AcDbSymbolTableRecord
100
AcDbLinetypeTableRecord
  2
ByBlock
 70
     0
  3

 72
    65
 73
     0
 40
0.0
  0
LTYPE
  5
14
330
5
100
AcDbSymbolTableRecord
100
AcDbLinetypeTableRecord
  2
ByLayer
 70
     0
  3

 72
    65
 73
     0
 40
0.0
  0
LTYPE
  5
15
330
5
100
AcDbSymbolTableRecord
100
AcDbLinetypeTableRecord
  2
Continuous
 70
     0
  3
Solid line
 72
    65
 73
     0
 40
0.0
  0
LTYPE
  5
25
330
5
100
AcDbSymbolTableRecord
100
AcDbLinetypeTableRecord
  2
STRICHPUNKT
 70
     0
  3
__ . __ . __ . __ . __ . __ . __ . __ . __ . __
 72
    65
 73
     4
 40
1.0
 49
0.5
 74
     0
 49
-0.25
 74
     0
 49
0.0
 74
     0
 49
-0.25
 74
     0
  0
ENDTAB
  0
TABLE
  2
LAYER
  5
2
330
0
100
AcDbSymbolTable
 70
     9
  0
LAYER
  5
10
330
2
100
AcDbSymbolTableRecord
100
AcDbLayerTableRecord
  2
0
 70
     0
 62
     7
  6
Continuous
370
    -3
390
F
  0
LAYER
  5
2B
330
2
100
AcDbSymbolTableRecord
100
AcDbLayerTableRecord
  2
VOLL
 70
     0
 62
     1
  6
Continuous
370
    -3
390
F
  0
LAYER
  5
2C
330
2
100
AcDbSymbolTableRecord
100
AcDbLayerTableRecord
  2
HILF
 70
     0
 62
     2
  6
Continuous
370
    -3
390
F
  0
LAYER
  5
2D
330
2
100
AcDbSymbolTableRecord
100
AcDbLayerTableRecord
  2
MITTEL
 70
     0
 62
     2
  6
STRICHPUNKT
370
    -3
390
F
  0
LAYER
  5
2F
330
2
100
AcDbSymbolTableRecord
100
AcDbLayerTableRecord
  2
BEM
 70
     0
 62
     7
  6
Continuous
370
    -3
390
F
  0
LAYER
  5
30
330
2
100
AcDbSymbolTableRecord
100
AcDbLayerTableRecord
  2
STEMPEL
 70
     0
 62
     3
  6
Continuous
370
    -3
390
F
  0
LAYER
  5
33
330
2
100
AcDbSymbolTableRecord
100
AcDbLayerTableRecord
  2
TEXT
 70
     0
 62
     7
  6
Continuous
370
    -3
390
F
  0
LAYER
  5
1CD
330
2
100
AcDbSymbolTableRecord
100
AcDbLayerTableRecord
  2
DEFPOINTS
 70
     0
 62
     7
  6
Continuous
290
     0
370
    -3
390
F
  0
LAYER
  5
1CE
330
2
100
AcDbSymbolTableRecord
100
AcDbLayerTableRecord
  2
SCHRAFF
 70
     0
 62
     7
  6
Continuous
370
    -3
390
F
  0
ENDTAB
  0
TABLE
  2
STYLE
  5
3
330
0
100
AcDbSymbolTable
 70
     2
  0
STYLE
  5
11
330
3
100
AcDbSymbolTableRecord
100
AcDbTextStyleTableRecord
  2
STANDARD
 70
     0
 40
0.0
 41
0.8
 50
0.0
 71
     0
 42
3.5
  3
simplex.shx
  4

  0
STYLE
  5
24
330
3
100
AcDbSymbolTableRecord
100
AcDbTextStyleTableRecord
  2
GREEKS
 70
     0
 40
0.0
 41
0.8
 50
0.0
 71
     0
 42
2.5
  3
SIMPLEX.shx
  4

  0
ENDTAB
  0
TABLE
  2
VIEW
  5
6
330
0
100
AcDbSymbolTable
 70
     0
  0
ENDTAB
  0
TABLE
  2
UCS
  5
7
330
0
100
AcDbSymbolTable
 70
     0
  0
ENDTAB
  0
TABLE
  2
APPID
  5
9
330
0
100
AcDbSymbolTable
 70
     1
  0
APPID
  5
12
330
9
100
AcDbSymbolTableRecord
100
AcDbRegAppTableRecord
  2
ACAD
 70
     0
  0
ENDTAB
  0
TABLE
  2
DIMSTYLE
  5
A
330
0
100
AcDbSymbolTable
 70
     1
100
AcDbDimStyleTable
 71
     1
340
A2
  0
DIMSTYLE
105
A2
102
{ACAD_REACTORS
330
385
330
387
330
3B8
330
5C1
330
810
330
915
330
922
102
}
330
A
100
AcDbSymbolTableRecord
100
AcDbDimStyleTableRecord
  2
Standard
 70
     0
340
11
  0
ENDTAB
  0
TABLE
  2
BLOCK_RECORD
  5
1
330
0
100
AcDbSymbolTable
 70
     9
  0
BLOCK_RECORD
  5
1E
102
{ACAD_XDICTIONARY
360
DB
102
}
330
1
100
AcDbSymbolTableRecord
100
AcDbBlockTableRecord
  2
*Model_Space
340
21
  0
BLOCK_RECORD
  5
1A
102
{ACAD_XDICTIONARY
360
DD
102
}
330
1
100
AcDbSymbolTableRecord
100
AcDbBlockTableRecord
  2
*Paper_Space
340
1D
  0
BLOCK_RECORD
  5
22
330
1
100
AcDbSymbolTableRecord
100
AcDbBlockTableRecord
  2
LOGO
340
0
102
{BLKREFS
331
56
102
}
  0
BLOCK_RECORD
  5
23
330
1
100
AcDbSymbolTableRecord
100
AcDbBlockTableRecord
  2
LORO
340
0
102
{BLKREFS
331
9B
102
}
  0
BLOCK_RECORD
  5
3C0
330
1
100
AcDbSymbolTableRecord
100
AcDbBlockTableRecord
  2
*D2
340
0
  0
BLOCK_RECORD
  5
3CC
330
1
100
AcDbSymbolTableRecord
100
AcDbBlockTableRecord
  2
*D3
340
0
  0
BLOCK_RECORD
  5
3D8
330
1
100
AcDbSymbolTableRecord
100
AcDbBlockTableRecord
  2
*D4
340
0
  0
BLOCK_RECORD
  5
5E0
330
1
100
AcDbSymbolTableRecord
100
AcDbBlockTableRecord
  2
*D5
340
0
  0
BLOCK_RECORD
  5
8C4
330
1
100
AcDbSymbolTableRecord
100
AcDbBlockTableRecord
  2
*D6
340
0
  0
BLOCK_RECORD
  5
916
330
1
100
AcDbSymbolTableRecord
100
AcDbBlockTableRecord
  2
*D7
340
0
  0
BLOCK_RECORD
  5
923
330
1
100
AcDbSymbolTableRecord
100
AcDbBlockTableRecord
  2
*D8
340
0
  0
ENDTAB
  0
ENDSEC
  0
SECTION
  2
BLOCKS
  0
BLOCK
  5
37
330
1E
100
AcDbEntity
  8
0
100
AcDbBlockBegin
  2
*Model_Space
 70
     0
 10
0.0
 20
0.0
 30
0.0
  3
*Model_Space
  1

  0
ENDBLK
  5
38
330
1E
100
AcDbEntity
  8
0
100
AcDbBlockEnd
  0
BLOCK
  5
35
330
1A
100
AcDbEntity
 67
     1
  8
0
100
AcDbBlockBegin
  2
*Paper_Space
 70
     0
 10
0.0
 20
0.0
 30
0.0
  3
*Paper_Space
  1

  0
ENDBLK
  5
36
330
1A
100
AcDbEntity
 67
     1
  8
0
100
AcDbBlockEnd
  0
BLOCK
  5
39
330
22
100
AcDbEntity
  8
0
100
AcDbBlockBegin
  2
LOGO
 70
     0
 10
0.0
 20
0.0
 30
0.0
  3
LOGO
  1

  0
ARC
  5
3A
330
22
100
AcDbEntity
  8
0
100
AcDbCircle
 10
11.59973089678112
 20
-9.271599258481501
 30
0.0
 40
4.5
100
AcDbArc
 50
270.0
 51
231.0575587310159
  0
LINE
  5
3B
330
22
100
AcDbEntity
  8
0
100
AcDbLine
 10
3.599730896781125
 20
-4.771599258481529
 30
0.0
 11
3.599730896781153
 21
-11.77159925848133
 31
0.0
  0
LINE
  5
3C
330
22
100
AcDbEntity
  8
0
100
AcDbLine
 10
2.599730896781125
 20
-4.771599258481529
 30
0.0
 11
2.599730896781153
 21
-11.77159925848133
 31
0.0
  0
CIRCLE
  5
3D
330
22
100
AcDbEntity
  8
0
100
AcDbCircle
 10
11.59973089678112
 20
-9.271599258481501
 30
0.0
 40
3.5
  0
ARC
  5
3E
330
22
100
AcDbEntity
  8
0
100
AcDbCircle
 10
31.59973089678115
 20
-9.271599258481472
 30
0.0
 40
4.5
100
AcDbArc
 50
270.0
 51
231.0575587310182
  0
LINE
  5
3F
330
22
100
AcDbEntity
  8
0
100
AcDbLine
 10
17.59973089678112
 20
-4.771599258481472
 30
0.0
 11
17.59973089678115
 21
-13.77159925848147
 31
0.0
  0
ARC
  5
40
330
22
100
AcDbEntity
  8
0
100
AcDbCircle
 10
22.59973089678116
 20
-7.271599258481472
 30
0.0
 40
2.5
100
AcDbArc
 50
293.1161887722295
 51
90.0
  0
CIRCLE
  5
41
330
22
100
AcDbEntity
  8
0
100
AcDbCircle
 10
31.59973089678115
 20
-9.271599258481472
 30
0.0
 40
3.5
  0
ARC
  5
42
330
22
100
AcDbEntity
  8
0
100
AcDbCircle
 10
4.599730896781153
 20
-11.77159925848133
 30
0.0
 40
1.0
100
AcDbArc
 50
180.0
 51
270.0
  0
ARC
  5
43
330
22
100
AcDbEntity
  8
0
100
AcDbCircle
 10
4.599730896781153
 20
-11.77159925848133
 30
0.0
 40
2.0
100
AcDbArc
 50
179.9999999999992
 51
270.0
  0
LINE
  5
44
330
22
100
AcDbEntity
  8
0
100
AcDbLine
 10
11.59973089678115
 20
-13.77159925848144
 30
0.0
 11
4.599730896781153
 21
-13.77159925848147
 31
0.0
  0
LINE
  5
45
330
22
100
AcDbEntity
  8
0
100
AcDbLine
 10
8.771303772034769
 20
-12.77159925848136
 30
0.0
 11
4.599730896781153
 21
-12.77159925848133
 31
0.0
  0
LINE
  5
46
330
22
100
AcDbEntity
  8
0
100
AcDbLine
 10
31.59973089678115
 20
-13.77159925848147
 30
0.0
 11
23.6715276665056
 21
-13.77159925848144
 31
0.0
  0
LINE
  5
47
330
22
100
AcDbEntity
  8
0
100
AcDbLine
 10
23.56565672307022
 20
-9.51278021337896
 30
0.0
 11
24.4388546544846
 21
-12.77159925848144
 31
0.0
  0
LINE
  5
48
330
22
100
AcDbEntity
  8
0
100
AcDbLine
 10
22.59973089678116
 20
-9.771599258481472
 30
0.0
 11
18.59973089678112
 21
-9.771599258481472
 31
0.0
  0
LINE
  5
49
330
22
100
AcDbEntity
  8
0
100
AcDbLine
 10
18.59973089678115
 20
-13.77159925848144
 30
0.0
 11
17.59973089678115
 21
-13.77159925848144
 31
0.0
  0
LINE
  5
4A
330
22
100
AcDbEntity
  8
0
100
AcDbLine
 10
18.59973089678115
 20
-9.771599258481472
 30
0.0
 11
18.59973089678115
 21
-13.77159925848144
 31
0.0
  0
LINE
  5
4B
330
22
100
AcDbEntity
  8
0
100
AcDbLine
 10
22.59973089678116
 20
-9.771599258481472
 30
0.0
 11
23.67152766650562
 21
-13.77159925848147
 31
0.0
  0
ARC
  5
4C
330
22
100
AcDbEntity
  8
0
100
AcDbCircle
 10
22.59973089678116
 20
-7.271599258481472
 30
0.0
 40
2.5
100
AcDbArc
 50
270.0
 51
270.0000000000007
  0
LINE
  5
4D
330
22
100
AcDbEntity
  8
0
100
AcDbLine
 10
28.77130377203494
 20
-12.77159925848147
 30
0.0
 11
24.43885465448463
 21
-12.77159925848144
 31
0.0
  0
LINE
  5
4E
330
22
100
AcDbEntity
  8
0
100
AcDbLine
 10
3.599730896781125
 20
-4.771599258481472
 30
0.0
 11
2.599730896781125
 21
-4.771599258481472
 31
0.0
  0
LINE
  5
4F
330
22
100
AcDbEntity
  8
0
100
AcDbLine
 10
22.59973089678116
 20
-8.771599258481472
 30
0.0
 11
18.59973089678115
 21
-8.771599258481472
 31
0.0
  0
LINE
  5
50
330
22
100
AcDbEntity
  8
0
100
AcDbLine
 10
22.59973089678116
 20
-5.771599258481472
 30
0.0
 11
18.59973089678115
 21
-5.771599258481472
 31
0.0
  0
LINE
  5
51
330
22
100
AcDbEntity
  8
0
100
AcDbLine
 10
22.59973089678116
 20
-4.771599258481472
 30
0.0
 11
17.59973089678115
 21
-4.771599258481472
 31
0.0
  0
LINE
  5
52
330
22
100
AcDbEntity
  8
0
100
AcDbLine
 10
18.59973089678115
 20
-5.771599258481472
 30
0.0
 11
18.59973089678115
 21
-8.771599258481472
 31
0.0
  0
ARC
  5
53
330
22
100
AcDbEntity
  8
0
100
AcDbCircle
 10
22.59973089678116
 20
-7.271599258481472
 30
0.0
 40
1.5
100
AcDbArc
 50
270.0
 51
90.0
  0
ENDBLK
  5
54
330
22
100
AcDbEntity
  8
0
100
AcDbBlockEnd
  0
BLOCK
  5
55
330
23
100
AcDbEntity
  8
0
100
AcDbBlockBegin
  2
LORO
 70
     0
 10
0.0
 20
0.0
 30
0.0
  3
LORO
  1

  0
INSERT
  5
56
330
23
100
AcDbEntity
  8
STEMPEL
100
AcDbBlockReference
  2
LOGO
 10
-1.748032802467321
 20
3.771489518552062
 30
0.0
  0
ENDBLK
  5
57
330
23
100
AcDbEntity
  8
0
100
AcDbBlockEnd
  0
BLOCK
  5
3CA
330
3C0
100
AcDbEntity
  8
0
100
AcDbBlockBegin
  2
*D2
 70
     1
 10
0.0
 20
0.0
 30
0.0
  3
*D2
  1

  0
LINE
  5
3E4
330
3C0
100
AcDbEntity
  8
BEM
 62
     0
370
    -2
100
AcDbLine
 10
101.3527584900807
 20
420.1942390982964
 30
0.0
 11
87.93664539660497
 21
420.1942390982964
 31
0.0
  0
LINE
  5
3E5
330
3C0
100
AcDbEntity
  8
BEM
 62
     0
370
    -2
100
AcDbLine
 10
221.2902018077105
 20
170.1942390982966
 30
0.0
 11
87.93664539660493
 21
170.1942390982966
 31
0.0
  0
LINE
  5
3E6
330
3C0
100
AcDbEntity
  8
BEM
 62
     0
370
    -2
100
AcDbLine
 10
89.93664539660496
 20
413.1942390982965
 30
0.0
 11
89.93664539660491
 21
177.1942390982966
 31
0.0
  0
SOLID
  5
3E7
330
3C0
100
AcDbEntity
  8
BEM
 62
     0
100
AcDbTrace
 10
88.76997872993829
 20
413.1942390982965
 30
0.0
 11
91.10331206327163
 21
413.1942390982965
 31
0.0
 12
89.93664539660498
 22
420.1942390982964
 32
0.0
 13
89.93664539660498
 23
420.1942390982964
 33
0.0
  0
SOLID
  5
3E8
330
3C0
100
AcDbEntity
  8
BEM
 62
     0
100
AcDbTrace
 10
88.76997872993824
 20
177.1942390982966
 30
0.0
 11
91.10331206327158
 21
177.1942390982966
 31
0.0
 12
89.93664539660491
 22
170.1942390982966
 32
0.0
 13
89.93664539660491
 23
170.1942390982966
 33
0.0
  0
MTEXT
  5
3E9
330
3C0
100
AcDbEntity
  8
BEM
 62
     1
100
AcDbMText
 10
83.43664539660489
 20
295.1942390982966
 30
0.0
 40
7.0
 41
0.0
 71
     5
 72
     1
  1
\A1;250
 11
0.0000000000000001
 21
1.0
 31
0.0
 73
     1
 44
1.0
  0
POINT
  5
3EA
330
3C0
100
AcDbEntity
  8
DEFPOINTS
 62
     0
100
AcDbPoint
 10
103.3527584900807
 20
420.1942390982964
 30
0.0
  0
POINT
  5
3EB
330
3C0
100
AcDbEntity
  8
DEFPOINTS
 62
     0
100
AcDbPoint
 10
223.2902018077105
 20
170.1942390982966
 30
0.0
  0
POINT
  5
3EC
330
3C0
100
AcDbEntity
  8
DEFPOINTS
 62
     0
100
AcDbPoint
 10
89.93664539660491
 20
170.1942390982966
 30
0.0
  0
ENDBLK
  5
3CB
330
3C0
100
AcDbEntity
  8
0
100
AcDbBlockEnd
  0
BLOCK
  5
3D6
330
3CC
100
AcDbEntity
  8
0
100
AcDbBlockBegin
  2
*D3
 70
     1
 10
0.0
 20
0.0
 30
0.0
  3
*D3
  1

  0
LINE
  5
3ED
330
3CC
100
AcDbEntity
  8
BEM
 62
     0
370
    -2
100
AcDbLine
 10
222.8527584900808
 20
173.1942390982965
 30
0.0
 11
222.8527584900808
 21
150.1887040448862
 31
0.0
  0
LINE
  5
3EE
330
3CC
100
AcDbEntity
  8
BEM
 62
     0
370
    -2
100
AcDbLine
 10
275.8527584900809
 20
173.1942390982965
 30
0.0
 11
275.8527584900809
 21
150.1887040448862
 31
0.0
  0
LINE
  5
3EF
330
3CC
100
AcDbEntity
  8
BEM
 62
     0
370
    -2
100
AcDbLine
 10
229.8527584900809
 20
152.1887040448862
 30
0.0
 11
268.8527584900809
 21
152.1887040448862
 31
0.0
  0
SOLID
  5
3F0
330
3CC
100
AcDbEntity
  8
BEM
 62
     0
100
AcDbTrace
 10
229.8527584900809
 20
153.3553707115529
 30
0.0
 11
229.8527584900809
 21
151.0220373782195
 31
0.0
 12
222.8527584900808
 22
152.1887040448862
 32
0.0
 13
222.8527584900808
 23
152.1887040448862
 33
0.0
  0
SOLID
  5
3F1
330
3CC
100
AcDbEntity
  8
BEM
 62
     0
100
AcDbTrace
 10
268.8527584900809
 20
153.3553707115529
 30
0.0
 11
268.8527584900809
 21
151.0220373782195
 31
0.0
 12
275.8527584900809
 22
152.1887040448862
 32
0.0
 13
275.8527584900809
 23
152.1887040448862
 33
0.0
  0
MTEXT
  5
3F2
330
3CC
100
AcDbEntity
  8
BEM
 62
     1
100
AcDbMText
 10
249.3527584900809
 20
158.6887040448862
 30
0.0
 40
7.0
 41
0.0
 71
     5
 72
     1
  1
\A1;%%C53
 73
     1
 44
1.0
  0
POINT
  5
3F3
330
3CC
100
AcDbEntity
  8
DEFPOINTS
 62
     0
100
AcDbPoint
 10
222.8527584900808
 20
175.1942390982965
 30
0.0
  0
POINT
  5
3F4
330
3CC
100
AcDbEntity
  8
DEFPOINTS
 62
     0
100
AcDbPoint
 10
275.8527584900809
 20
175.1942390982965
 30
0.0
  0
POINT
  5
3F5
330
3CC
100
AcDbEntity
  8
DEFPOINTS
 62
     0
100
AcDbPoint
 10
275.8527584900809
 20
152.1887040448862
 30
0.0
  0
ENDBLK
  5
3D7
330
3CC
100
AcDbEntity
  8
0
100
AcDbBlockEnd
  0
BLOCK
  5
3E2
330
3D8
100
AcDbEntity
  8
0
100
AcDbBlockBegin
  2
*D4
 70
     1
 10
0.0
 20
0.0
 30
0.0
  3
*D4
  1

  0
LINE
  5
717
330
3D8
100
AcDbEntity
  8
BEM
 62
     0
370
    -2
100
AcDbLine
 10
103.3527584900807
 20
422.1942390982965
 30
0.0
 11
103.3527584900807
 21
430.4270558634656
 31
0.0
  0
LINE
  5
718
330
3D8
100
AcDbEntity
  8
BEM
 62
     0
370
    -2
100
AcDbLine
 10
395.3527584900808
 20
422.1942390982965
 30
0.0
 11
395.3527584900808
 21
430.4270558634656
 31
0.0
  0
LINE
  5
719
330
3D8
100
AcDbEntity
  8
BEM
 62
     0
370
    -2
100
AcDbLine
 10
110.3527584900807
 20
428.4270558634657
 30
0.0
 11
388.3527584900808
 21
428.4270558634657
 31
0.0
  0
SOLID
  5
71A
330
3D8
100
AcDbEntity
  8
BEM
 62
     0
100
AcDbTrace
 10
110.3527584900807
 20
429.5937225301323
 30
0.0
 11
110.3527584900807
 21
427.260389196799
 31
0.0
 12
103.3527584900807
 22
428.4270558634657
 32
0.0
 13
103.3527584900807
 23
428.4270558634657
 33
0.0
  0
SOLID
  5
71B
330
3D8
100
AcDbEntity
  8
BEM
 62
     0
100
AcDbTrace
 10
388.3527584900808
 20
429.5937225301323
 30
0.0
 11
388.3527584900808
 21
427.260389196799
 31
0.0
 12
395.3527584900808
 22
428.4270558634657
 32
0.0
 13
395.3527584900808
 23
428.4270558634657
 33
0.0
  0
MTEXT
  5
71C
330
3D8
100
AcDbEntity
  8
BEM
 62
     1
100
AcDbMText
 10
249.3527584900808
 20
434.9270558634656
 30
0.0
 40
7.0
 41
0.0
 71
     5
 72
     1
  1
\A1;%%C292
 73
     1
 44
1.0
  0
POINT
  5
71D
330
3D8
100
AcDbEntity
  8
DEFPOINTS
 62
     0
100
AcDbPoint
 10
103.3527584900807
 20
420.1942390982964
 30
0.0
  0
POINT
  5
71E
330
3D8
100
AcDbEntity
  8
DEFPOINTS
 62
     0
100
AcDbPoint
 10
395.3527584900808
 20
420.1942390982964
 30
0.0
  0
POINT
  5
71F
330
3D8
100
AcDbEntity
  8
DEFPOINTS
 62
     0
100
AcDbPoint
 10
395.3527584900808
 20
428.4270558634657
 30
0.0
  0
ENDBLK
  5
3E3
330
3D8
100
AcDbEntity
  8
0
100
AcDbBlockEnd
  0
BLOCK
  5
5EA
330
5E0
100
AcDbEntity
  8
0
100
AcDbBlockBegin
  2
*D5
 70
     1
 10
0.0
 20
0.0
 30
0.0
  3
*D5
  1

  0
LINE
  5
709
330
5E0
100
AcDbEntity
  8
BEM
 62
     0
370
    -2
100
AcDbLine
 10
103.3527584900807
 20
507.1942390982965
 30
0.0
 11
103.3527584900807
 21
519.7770072593571
 31
0.0
  0
LINE
  5
70A
330
5E0
100
AcDbEntity
  8
BEM
 62
     0
370
    -2
100
AcDbLine
 10
395.3527584900807
 20
507.1942390982965
 30
0.0
 11
395.3527584900807
 21
519.7770072593571
 31
0.0
  0
LINE
  5
70B
330
5E0
100
AcDbEntity
  8
BEM
 62
     0
370
    -2
100
AcDbLine
 10
110.3527584900807
 20
517.777007259357
 30
0.0
 11
388.3527584900807
 21
517.777007259357
 31
0.0
  0
SOLID
  5
70C
330
5E0
100
AcDbEntity
  8
BEM
 62
     0
100
AcDbTrace
 10
110.3527584900807
 20
518.9436739260237
 30
0.0
 11
110.3527584900807
 21
516.6103405926905
 31
0.0
 12
103.3527584900807
 22
517.777007259357
 32
0.0
 13
103.3527584900807
 23
517.777007259357
 33
0.0
  0
SOLID
  5
70D
330
5E0
100
AcDbEntity
  8
BEM
 62
     0
100
AcDbTrace
 10
388.3527584900807
 20
518.9436739260237
 30
0.0
 11
388.3527584900807
 21
516.6103405926905
 31
0.0
 12
395.3527584900807
 22
517.777007259357
 32
0.0
 13
395.3527584900807
 23
517.777007259357
 33
0.0
  0
MTEXT
  5
70E
330
5E0
100
AcDbEntity
  8
BEM
 62
     1
100
AcDbMText
 10
249.3527584900807
 20
524.2770072593571
 30
0.0
 40
7.0
 41
0.0
 71
     5
 72
     1
  1
\A1;%%C292
 73
     1
 44
1.0
  0
POINT
  5
70F
330
5E0
100
AcDbEntity
  8
DEFPOINTS
 62
     0
100
AcDbPoint
 10
103.3527584900807
 20
505.1942390982964
 30
0.0
  0
POINT
  5
710
330
5E0
100
AcDbEntity
  8
DEFPOINTS
 62
     0
100
AcDbPoint
 10
395.3527584900807
 20
505.1942390982964
 30
0.0
  0
POINT
  5
711
330
5E0
100
AcDbEntity
  8
DEFPOINTS
 62
     0
100
AcDbPoint
 10
395.3527584900807
 20
517.777007259357
 30
0.0
  0
ENDBLK
  5
5EB
330
5E0
100
AcDbEntity
  8
0
100
AcDbBlockEnd
  0
BLOCK
  5
8CE
330
8C4
100
AcDbEntity
  8
0
100
AcDbBlockBegin
  2
*D6
 70
     1
 10
0.0
 20
0.0
 30
0.0
  3
*D6
  1

  0
LINE
  5
902
330
8C4
100
AcDbEntity
  8
BEM
 62
     0
370
    -2
100
AcDbLine
 10
198.8527584900808
 20
639.1942390982965
 30
0.0
 11
198.8527584900808
 21
649.4870395293453
 31
0.0
  0
LINE
  5
903
330
8C4
100
AcDbEntity
  8
BEM
 62
     0
370
    -2
100
AcDbLine
 10
299.8527584900807
 20
639.1942390982965
 30
0.0
 11
299.8527584900807
 21
649.4870395293453
 31
0.0
  0
LINE
  5
904
330
8C4
100
AcDbEntity
  8
BEM
 62
     0
370
    -2
100
AcDbLine
 10
205.8527584900808
 20
647.4870395293453
 30
0.0
 11
292.8527584900806
 21
647.4870395293453
 31
0.0
  0
SOLID
  5
905
330
8C4
100
AcDbEntity
  8
BEM
 62
     0
100
AcDbTrace
 10
205.8527584900808
 20
648.6537061960119
 30
0.0
 11
205.8527584900808
 21
646.3203728626787
 31
0.0
 12
198.8527584900808
 22
647.4870395293453
 32
0.0
 13
198.8527584900808
 23
647.4870395293453
 33
0.0
  0
SOLID
  5
906
330
8C4
100
AcDbEntity
  8
BEM
 62
     0
100
AcDbTrace
 10
292.8527584900806
 20
648.6537061960119
 30
0.0
 11
292.8527584900806
 21
646.3203728626787
 31
0.0
 12
299.8527584900807
 22
647.4870395293453
 32
0.0
 13
299.8527584900807
 23
647.4870395293453
 33
0.0
  0
MTEXT
  5
907
330
8C4
100
AcDbEntity
  8
BEM
 62
     1
100
AcDbMText
 10
250.7891156159537
 20
653.9870395293453
 30
0.0
 40
7.0
 41
0.0
 71
     5
 72
     1
  1
\A1;101
 73
     1
 44
1.0
  0
POINT
  5
908
330
8C4
100
AcDbEntity
  8
DEFPOINTS
 62
     0
100
AcDbPoint
 10
198.8527584900808
 20
637.1942390982965
 30
0.0
  0
POINT
  5
909
330
8C4
100
AcDbEntity
  8
DEFPOINTS
 62
     0
100
AcDbPoint
 10
299.8527584900807
 20
637.1942390982965
 30
0.0
  0
POINT
  5
90A
330
8C4
100
AcDbEntity
  8
DEFPOINTS
 62
     0
100
AcDbPoint
 10
299.8527584900807
 20
647.4870395293453
 30
0.0
  0
ENDBLK
  5
8CF
330
8C4
100
AcDbEntity
  8
0
100
AcDbBlockEnd
  0
BLOCK
  5
920
330
916
100
AcDbEntity
  8
0
100
AcDbBlockBegin
  2
*D7
 70
     1
 10
0.0
 20
0.0
 30
0.0
  3
*D7
  1

  0
LINE
  5
963
330
916
100
AcDbEntity
  8
BEM
 62
     0
370
    -2
100
AcDbLine
 10
101.3527584900807
 20
420.1942390982964
 30
0.0
 11
87.93664539660497
 21
420.1942390982964
 31
0.0
  0
LINE
  5
964
330
916
100
AcDbEntity
  8
BEM
 62
     0
370
    -2
100
AcDbLine
 10
101.3527584900807
 20
505.1942390982964
 30
0.0
 11
87.93664539660499
 21
505.1942390982964
 31
0.0
  0
LINE
  5
965
330
916
100
AcDbEntity
  8
BEM
 62
     0
370
    -2
100
AcDbLine
 10
89.93664539660498
 20
427.1942390982965
 30
0.0
 11
89.93664539660498
 21
498.1942390982964
 31
0.0
  0
SOLID
  5
966
330
916
100
AcDbEntity
  8
BEM
 62
     0
100
AcDbTrace
 10
88.76997872993831
 20
427.1942390982965
 30
0.0
 11
91.10331206327165
 21
427.1942390982965
 31
0.0
 12
89.93664539660498
 22
420.1942390982964
 32
0.0
 13
89.93664539660498
 23
420.1942390982964
 33
0.0
  0
SOLID
  5
967
330
916
100
AcDbEntity
  8
BEM
 62
     0
100
AcDbTrace
 10
88.76997872993831
 20
498.1942390982964
 30
0.0
 11
91.10331206327165
 21
498.1942390982964
 31
0.0
 12
89.93664539660498
 22
505.1942390982964
 32
0.0
 13
89.93664539660498
 23
505.1942390982964
 33
0.0
  0
MTEXT
  5
968
330
916
100
AcDbEntity
  8
BEM
 62
     1
100
AcDbMText
 10
77.60331206327157
 20
462.6942390982965
 30
0.0
 40
7.0
 41
0.0
 71
     5
 72
     1
  1
\A1;min.40 -\Pmax. 120
 11
0.0000000000000001
 21
1.0
 31
0.0
 73
     1
 44
1.0
  0
POINT
  5
969
330
916
100
AcDbEntity
  8
DEFPOINTS
 62
     0
100
AcDbPoint
 10
103.3527584900807
 20
420.1942390982964
 30
0.0
  0
POINT
  5
96A
330
916
100
AcDbEntity
  8
DEFPOINTS
 62
     0
100
AcDbPoint
 10
103.3527584900807
 20
505.1942390982964
 30
0.0
  0
POINT
  5
96B
330
916
100
AcDbEntity
  8
DEFPOINTS
 62
     0
100
AcDbPoint
 10
89.93664539660498
 20
505.1942390982964
 30
0.0
  0
ENDBLK
  5
921
330
916
100
AcDbEntity
  8
0
100
AcDbBlockEnd
  0
BLOCK
  5
92D
330
923
100
AcDbEntity
  8
0
100
AcDbBlockBegin
  2
*D8
 70
     1
 10
0.0
 20
0.0
 30
0.0
  3
*D8
  1

  0
LINE
  5
93A
330
923
100
AcDbEntity
  8
BEM
 62
     0
370
    -2
100
AcDbLine
 10
101.3527584900807
 20
505.1942390982964
 30
0.0
 11
87.93664539660499
 21
505.1942390982964
 31
0.0
  0
LINE
  5
93B
330
923
100
AcDbEntity
  8
BEM
 62
     0
370
    -2
100
AcDbLine
 10
196.8527584900806
 20
637.1942390982965
 30
0.0
 11
87.93664539660502
 21
637.1942390982965
 31
0.0
  0
LINE
  5
93C
330
923
100
AcDbEntity
  8
BEM
 62
     0
370
    -2
100
AcDbLine
 10
89.93664539660498
 20
512.1942390982964
 30
0.0
 11
89.93664539660501
 21
630.1942390982965
 31
0.0
  0
SOLID
  5
93D
330
923
100
AcDbEntity
  8
BEM
 62
     0
100
AcDbTrace
 10
88.76997872993831
 20
512.1942390982964
 30
0.0
 11
91.10331206327165
 21
512.1942390982964
 31
0.0
 12
89.93664539660498
 22
505.1942390982964
 32
0.0
 13
89.93664539660498
 23
505.1942390982964
 33
0.0
  0
SOLID
  5
93E
330
923
100
AcDbEntity
  8
BEM
 62
     0
100
AcDbTrace
 10
88.76997872993834
 20
630.1942390982965
 30
0.0
 11
91.10331206327169
 21
630.1942390982965
 31
0.0
 12
89.93664539660501
 22
637.1942390982965
 32
0.0
 13
89.93664539660501
 23
637.1942390982965
 33
0.0
  0
MTEXT
  5
93F
330
923
100
AcDbEntity
  8
BEM
 62
     1
100
AcDbMText
 10
83.4366453966049
 20
571.1942390982965
 30
0.0
 40
7.0
 41
0.0
 71
     5
 72
     1
  1
\A1;min.10 - max.130
 11
0.0000000000000001
 21
1.0
 31
0.0
 73
     1
 44
1.0
  0
POINT
  5
940
330
923
100
AcDbEntity
  8
DEFPOINTS
 62
     0
100
AcDbPoint
 10
103.3527584900807
 20
505.1942390982964
 30
0.0
  0
POINT
  5
941
330
923
100
AcDbEntity
  8
DEFPOINTS
 62
     0
100
AcDbPoint
 10
198.8527584900806
 20
637.1942390982965
 30
0.0
  0
POINT
  5
942
330
923
100
AcDbEntity
  8
DEFPOINTS
 62
     0
100
AcDbPoint
 10
89.93664539660501
 20
637.1942390982965
 30
0.0
  0
ENDBLK
  5
92E
330
923
100
AcDbEntity
  8
0
100
AcDbBlockEnd
  0
ENDSEC
  0
SECTION
  2
ENTITIES
  0
LINE
  5
58
330
1E
100
AcDbEntity
  8
STEMPEL
100
AcDbLine
 10
484.0
 20
830.0000000000002
 30
0.0
 11
484.0
 21
470.0000000000001
 31
0.0
  0
LINE
  5
59
330
1E
100
AcDbEntity
  8
STEMPEL
100
AcDbLine
 10
484.0
 20
470.0000000000001
 30
0.0
 11
584.0
 21
470.0000000000001
 31
0.0
  0
LINE
  5
5A
330
1E
100
AcDbEntity
  8
STEMPEL
100
AcDbLine
 10
484.0000000000001
 20
566.0000000000002
 30
0.0
 11
584.0000000000001
 21
566.0
 31
0.0
  0
LINE
  5
5B
330
1E
100
AcDbEntity
  8
STEMPEL
100
AcDbLine
 10
484.0
 20
650.0
 30
0.0
 11
584.0
 21
650.0
 31
0.0
  0
LINE
  5
5C
330
1E
100
AcDbEntity
  8
STEMPEL
100
AcDbLine
 10
484.0000000000003
 20
752.0000000000002
 30
0.0
 11
554.0
 21
752.0000000000002
 31
0.0
  0
LINE
  5
5D
330
1E
100
AcDbEntity
  8
STEMPEL
100
AcDbLine
 10
564.0
 20
566.0
 30
0.0
 11
564.0
 21
470.0000000000001
 31
0.0
  0
LINE
  5
5E
330
1E
100
AcDbEntity
  8
STEMPEL
100
AcDbLine
 10
554.0
 20
830.0000000000002
 30
0.0
 11
554.0
 21
566.0
 31
0.0
  0
LINE
  5
5F
330
1E
100
AcDbEntity
  8
STEMPEL
100
AcDbLine
 10
514.0
 20
830.0000000000002
 30
0.0
 11
514.0
 21
566.0000000000002
 31
0.0
  0
LINE
  5
60
330
1E
100
AcDbEntity
  8
VOLL
100
AcDbLine
 10
484.0
 20
484.0000000000001
 30
0.0
 11
584.0
 21
484.0
 31
0.0
  0
LINE
  5
61
330
1E
100
AcDbEntity
  8
VOLL
100
AcDbLine
 10
484.0000000000001
 20
524.0000000000001
 30
0.0
 11
584.0000000000001
 21
524.0
 31
0.0
  0
LINE
  5
62
330
1E
100
AcDbEntity
  8
VOLL
100
AcDbLine
 10
484.0000000000001
 20
544.0000000000002
 30
0.0
 11
584.0000000000001
 21
544.0
 31
0.0
  0
LINE
  5
63
330
1E
100
AcDbEntity
  8
VOLL
100
AcDbLine
 10
514.0
 20
584.0000000000002
 30
0.0
 11
554.0
 21
584.0000000000002
 31
0.0
  0
LINE
  5
64
330
1E
100
AcDbEntity
  8
VOLL
100
AcDbLine
 10
484.0000000000002
 20
610.0000000000002
 30
0.0
 11
554.0
 21
610.0
 31
0.0
  0
LINE
  5
65
330
1E
100
AcDbEntity
  8
HILF
100
AcDbLine
 10
494.0
 20
470.0000000000001
 30
0.0
 11
494.0
 21
566.0000000000002
 31
0.0
  0
LINE
  5
66
330
1E
100
AcDbEntity
  8
HILF
100
AcDbLine
 10
504.0
 20
470.0000000000001
 30
0.0
 11
504.0
 21
566.0000000000002
 31
0.0
  0
LINE
  5
67
330
1E
100
AcDbEntity
  8
HILF
100
AcDbLine
 10
514.0
 20
470.0000000000001
 30
0.0
 11
514.0
 21
566.0000000000002
 31
0.0
  0
LINE
  5
68
330
1E
100
AcDbEntity
  8
HILF
100
AcDbLine
 10
524.0
 20
470.0000000000001
 30
0.0
 11
524.0
 21
566.0000000000002
 31
0.0
  0
LINE
  5
69
330
1E
100
AcDbEntity
  8
HILF
100
AcDbLine
 10
534.0
 20
470.0000000000001
 30
0.0
 11
534.0
 21
566.0000000000002
 31
0.0
  0
LINE
  5
6A
330
1E
100
AcDbEntity
  8
HILF
100
AcDbLine
 10
544.0
 20
470.0000000000001
 30
0.0
 11
544.0
 21
566.0000000000002
 31
0.0
  0
LINE
  5
6B
330
1E
100
AcDbEntity
  8
HILF
100
AcDbLine
 10
554.0
 20
470.0000000000001
 30
0.0
 11
554.0
 21
566.0000000000002
 31
0.0
  0
LINE
  5
6C
330
1E
100
AcDbEntity
  8
HILF
100
AcDbLine
 10
524.0
 20
566.0000000000002
 30
0.0
 11
524.0
 21
650.0
 31
0.0
  0
LINE
  5
6D
330
1E
100
AcDbEntity
  8
HILF
100
AcDbLine
 10
534.0
 20
566.0000000000002
 30
0.0
 11
534.0
 21
650.0
 31
0.0
  0
LINE
  5
6E
330
1E
100
AcDbEntity
  8
HILF
100
AcDbLine
 10
544.0
 20
566.0000000000002
 30
0.0
 11
544.0
 21
650.0
 31
0.0
  0
LINE
  5
6F
330
1E
100
AcDbEntity
  8
HILF
100
AcDbLine
 10
509.9624175243587
 20
654.7736801096948
 30
0.0
 11
509.9624175243587
 21
746.6297842514811
 31
0.0
  0
LINE
  5
70
330
1E
100
AcDbEntity
  8
HILF
100
AcDbLine
 10
524.0
 20
654.7736801096948
 30
0.0
 11
524.0
 21
746.6297842514811
 31
0.0
  0
LINE
  5
71
330
1E
100
AcDbEntity
  8
HILF
100
AcDbLine
 10
534.0
 20
654.7736801096948
 30
0.0
 11
534.0
 21
746.6297842514811
 31
0.0
  0
LINE
  5
72
330
1E
100
AcDbEntity
  8
HILF
100
AcDbLine
 10
544.0
 20
654.7736801096948
 30
0.0
 11
544.0
 21
746.6297842514811
 31
0.0
  0
LINE
  5
73
330
1E
100
AcDbEntity
  8
VOLL
100
AcDbLine
 10
534.0
 20
752.0000000000002
 30
0.0
 11
534.0
 21
830.0000000000002
 31
0.0
  0
LINE
  5
74
330
1E
100
AcDbEntity
  8
HILF
100
AcDbLine
 10
510.2201636304418
 20
756.7238616296995
 30
0.0
 11
510.2201636304418
 21
824.858883932673
 31
0.0
  0
LINE
  5
75
330
1E
100
AcDbEntity
  8
HILF
100
AcDbLine
 10
579.1060174197169
 20
654.7736801096948
 30
0.0
 11
579.1060174197169
 21
824.858883932673
 31
0.0
  0
TEXT
  5
76
330
1E
100
AcDbEntity
  8
TEXT
100
AcDbText
 10
575.3261810501587
 20
492.3998239263297
 30
0.0
 40
4.0
  1
Änderung
 50
90.0
 41
0.8
  7
GREEKS
 72
     1
 11
575.3261810501587
 21
503.1426810691868
 31
0.0
100
AcDbText
  0
TEXT
  5
78
330
1E
100
AcDbEntity
  8
TEXT
100
AcDbText
 10
491.5379104912911
 20
573.5163572150376
 30
0.0
 40
5.0
  1
Maßstab
 50
90.0
 41
0.8
  7
GREEKS
100
AcDbText
  0
TEXT
  5
79
330
1E
100
AcDbEntity
  8
TEXT
100
AcDbText
 10
491.4510671988221
 20
654.8779403809009
 30
0.0
 40
5.0
  1
Benennung
 50
90.0
 41
0.8
  7
GREEKS
100
AcDbText
  0
TEXT
  5
7A
330
1E
100
AcDbEntity
  8
TEXT
100
AcDbText
 10
491.6867965462863
 20
756.1787549576343
 30
0.0
 40
5.0
  1
Zeichnungs Nr.
 50
90.0
 41
0.8
  7
GREEKS
100
AcDbText
  0
TEXT
  5
7B
330
1E
100
AcDbEntity
  8
TEXT
100
AcDbText
 10
563.1543942980694
 20
654.7422383911359
 30
0.0
 40
5.0
  1
Bauvorhaben
 50
90.0
 41
0.8
  7
GREEKS
100
AcDbText
  0
TEXT
  5
7C
330
1E
100
AcDbEntity
  8
TEXT
100
AcDbText
 10
520.8188176290003
 20
756.7238616296995
 30
0.0
 40
5.0
  1
Ersatz für:
 50
90.0
 41
0.8
  7
GREEKS
100
AcDbText
  0
TEXT
  5
7D
330
1E
100
AcDbEntity
  8
TEXT
100
AcDbText
 10
580.3453415397281
 20
478.2664110704577
 30
0.0
 40
4.0
  1
Index
 50
180.0
 41
0.8
  7
GREEKS
100
AcDbText
  0
TEXT
  5
7E
330
1E
100
AcDbEntity
  8
TEXT
100
AcDbText
 10
575.3284373066019
 20
529.8990113186978
 30
0.0
 40
4.0
  1
Tag
 50
90.0
 41
0.8
  7
GREEKS
 72
     1
 11
575.3284373066019
 21
533.6323446520311
 31
0.0
100
AcDbText
  0
TEXT
  5
7F
330
1E
100
AcDbEntity
  8
TEXT
100
AcDbText
 10
575.4067578303359
 20
548.9795678138292
 30
0.0
 40
4.0
  1
Name
 50
90.0
 41
0.8
  7
GREEKS
 72
     1
 11
575.4067578303359
 21
555.3033773376387
 31
0.0
100
AcDbText
  0
TEXT
  5
80
330
1E
100
AcDbEntity
  8
TEXT
100
AcDbText
 10
520.6811949877008
 20
592.3311673153651
 30
0.0
 40
4.0
  1
Tag
 50
90.0
 41
0.8
  7
GREEKS
100
AcDbText
  0
TEXT
  5
81
330
1E
100
AcDbEntity
  8
TEXT
100
AcDbText
 10
520.6903890808478
 20
622.4626584226296
 30
0.0
 40
4.0
  1
Name
 50
90.0
 41
0.8
  7
GREEKS
100
AcDbText
  0
TEXT
  5
82
330
1E
100
AcDbEntity
  8
TEXT
100
AcDbText
 10
530.3700963038204
 20
567.5836127167615
 30
0.0
 40
4.0
  1
Gez.
 50
90.0
 41
0.8
  7
GREEKS
100
AcDbText
  0
TEXT
  5
83
330
1E
100
AcDbEntity
  8
TEXT
100
AcDbText
 10
540.3107370857163
 20
567.5515086571672
 30
0.0
 40
4.0
  1
Gepr.
 50
90.0
 41
0.8
  7
GREEKS
100
AcDbText
  0
TEXT
  5
84
330
1E
100
AcDbEntity
  8
TEXT
100
AcDbText
 10
550.470536103502
 20
567.6006777387303
 30
0.0
 40
4.0
  1
Norm.
 50
90.0
 41
0.8
  7
GREEKS
100
AcDbText
  0
TEXT
  5
85
330
1E
100
AcDbEntity
  8
TEXT
100
AcDbText
 10
541.925838221214
 20
757.2400861497007
 30
0.0
 40
5.0
  1
ersetzt durch:
 50
90.0
 41
0.8
  7
GREEKS
100
AcDbText
  0
TEXT
  5
86
330
1E
100
AcDbEntity
  8
TEXT
100
AcDbText
 10
521.0331740347627
 20
568.8693027807324
 30
0.0
 40
4.0
  1
2012
 50
90.0
 41
0.8
  7
GREEKS
100
AcDbText
  0
LINE
  5
87
330
1E
100
AcDbEntity
  8
HILF
100
AcDbLine
 10
594.0
 20
-0.0000000000000568
 30
0.0
 11
594.0
 21
840.0
 31
0.0
  0
LINE
  5
88
330
1E
100
AcDbEntity
  8
HILF
100
AcDbLine
 10
594.0
 20
840.0
 30
0.0
 11
0.0
 21
840.0
 31
0.0
  0
LINE
  5
89
330
1E
100
AcDbEntity
  8
HILF
100
AcDbLine
 10
0.0
 20
840.0
 30
0.0
 11
0.0
 21
0.0
 31
0.0
  0
LINE
  5
8B
330
1E
100
AcDbEntity
  8
STEMPEL
100
AcDbLine
 10
10.0
 20
830.0
 30
0.0
 11
10.0
 21
39.99999999999995
 31
0.0
  0
LINE
  5
8D
330
1E
100
AcDbEntity
  8
STEMPEL
100
AcDbLine
 10
584.0
 20
39.99999999999995
 30
0.0
 11
584.0
 21
830.0
 31
0.0
  0
LINE
  5
8E
330
1E
100
AcDbEntity
  8
STEMPEL
100
AcDbLine
 10
584.0
 20
830.0
 30
0.0
 11
10.0
 21
830.0
 31
0.0
  0
TEXT
  5
8F
330
1E
100
AcDbEntity
  8
TEXT
 62
     1
100
AcDbText
 10
506.6265692434746
 20
655.0390572473189
 30
0.0
 40
7.0
  1
Kompletteinheit DN50
 50
90.0
 41
0.8
  7
GREEKS
100
AcDbText
  0
TEXT
  5
90
330
1E
100
AcDbEntity
  8
TEXT
 62
     1
100
AcDbText
 10
506.6265692434746
 20
766.6628088850802
 30
0.0
 40
7.0
  1
19250050W
 50
90.0
 41
0.8
  7
GREEKS
 72
     1
 11
506.6265692434746
 21
790.1294755517469
 31
0.0
100
AcDbText
  0
TEXT
  5
91
330
1E
100
AcDbEntity
  8
TEXT
100
AcDbText
 10
491.16010388621
 20
618.5090226415829
 30
0.0
 40
5.0
  1
Zul.Abw.
 50
90.0
 41
0.8
  7
GREEKS
100
AcDbText
  0
TEXT
  5
93
330
1E
100
AcDbEntity
  8
TEXT
100
AcDbText
 10
530.8491412387978
 20
590.4612856559488
 30
0.0
 40
4.0
  1
15.06.
 50
90.0
 41
0.8
  7
GREEKS
 72
     1
 11
530.8491412387978
 21
597.1660475607107
 31
0.0
100
AcDbText
  0
TEXT
  5
94
330
1E
100
AcDbEntity
  8
TEXT
100
AcDbText
 10
531.0570234483452
 20
624.0231753226609
 30
0.0
 40
4.0
  1
Koeh
 50
90.0
 41
0.8
  7
GREEKS
 72
     1
 11
531.0570234483452
 21
629.2803181798038
 31
0.0
100
AcDbText
  0
TEXT
  5
95
330
1E
100
AcDbEntity
  8
TEXT
100
AcDbText
 10
521.8997861689246
 20
654.3410940884991
 30
0.0
 40
5.0
  1
zweiteilig
 50
90.0
 41
0.8
  7
GREEKS
100
AcDbText
  0
TEXT
  5
97
330
1E
100
AcDbEntity
  8
TEXT
100
AcDbText
 10
541.4090266215394
 20
654.3410940884991
 30
0.0
 40
5.0
  1
EDV-Art.Nr. 19250.050X
 50
90.0
 41
0.8
  7
GREEKS
100
AcDbText
  0
TEXT
  5
98
330
1E
100
AcDbEntity
  8
TEXT
100
AcDbText
 10
550.6887237520849
 20
654.1676050109347
 30
0.0
 40
4.0
  1
19250050W.DWG
 50
90.0
 41
0.8
  7
GREEKS
100
AcDbText
  0
TEXT
  5
99
330
1E
100
AcDbEntity
  8
TEXT
 62
     1
100
AcDbText
 10
506.5292291158502
 20
582.703491203422
 30
0.0
 40
7.0
  1
1:2
 50
90.0
 41
0.8
  7
GREEKS
100
AcDbText
  0
TEXT
  5
9A
330
1E
100
AcDbEntity
  8
TEXT
100
AcDbText
 10
479.8856414948956
 20
470.0441139350127
 30
0.0
 40
5.0
  1
Erstellt mit AUTOCAD 2004
 50
90.0
 41
0.8
  7
GREEKS
100
AcDbText
  0
INSERT
  5
9B
330
1E
100
AcDbEntity
  8
HILF
100
AcDbBlockReference
  2
LORO
 10
557.0194069970104
 20
573.0624985962354
 30
0.0
 41
2.0
 42
2.0
 43
2.0
 50
90.0
  0
LINE
  5
9C
330
1E
100
AcDbEntity
  8
BEM
100
AcDbLine
 10
594.0
 20
455.9999999999999
 30
0.0
 11
584.0
 21
455.9999999999999
 31
0.0
  0
LINE
  5
13E
330
1E
100
AcDbEntity
  8
HILF
100
AcDbLine
 10
594.0
 20
-0.0000000000000568
 30
0.0
 11
0.0
 21
0.0
 31
0.0
  0
LINE
  5
13F
330
1E
100
AcDbEntity
  8
STEMPEL
100
AcDbLine
 10
584.0
 20
39.99999999999995
 30
0.0
 11
10.0
 21
39.99999999999995
 31
0.0
  0
LINE
  5
14A
330
1E
100
AcDbEntity
  8
HILF
100
AcDbLine
 10
297.0
 20
-0.0000000000000568
 30
0.0
 11
297.0
 21
39.99999999999995
 31
0.0
  0
TEXT
  5
15B
330
1E
100
AcDbEntity
  8
BEM
100
AcDbText
 10
583.8320989200114
 20
837.3022923857165
 30
0.0
 40
4.0
  1
Diese Zeichnung ist urheberrechtlich geschützt und bleibt unser Eigentum. Sie darf weder ganz noch teilweise verfielfältigt und nicht an Dritte weitergegeben werden.
 50
180.0
 41
0.8
  7
GREEKS
100
AcDbText
  0
LINE
  5
19C
330
1E
100
AcDbEntity
  8
BEM
100
AcDbLine
 10
0.0
 20
455.9999999999999
 30
0.0
 11
10.0
 21
455.9999999999999
 31
0.0
  0
TEXT
  5
2CB
330
1E
100
AcDbEntity
  8
TEXT
 62
     1
100
AcDbText
 10
351.7876523343265
 20
361.2815469475945
 30
0.0
 40
7.0
  1
Flanschdichtring DN70
 41
0.8
  7
GREEKS
100
AcDbText
  0
TEXT
  5
2CC
330
1E
100
AcDbEntity
  8
TEXT
 62
     1
100
AcDbText
 10
351.7876523343265
 20
348.3942830768897
 30
0.0
 40
7.0
  1
EDV-Art.Nr. 19088.070X
 41
0.8
  7
GREEKS
100
AcDbText
  0
LINE
  5
2CD
330
1E
100
AcDbEntity
  8
TEXT
 62
     2
100
AcDbLine
 10
350.5149651116088
 20
357.7514371341906
 30
0.0
 11
457.4950923817876
 21
357.7514371341906
 31
0.0
  0
LINE
  5
2CE
330
1E
100
AcDbEntity
  8
TEXT
 62
     2
100
AcDbLine
 10
350.5149651116088
 20
357.7514371341906
 30
0.0
 11
316.9327272674206
 21
398.328549887987
 31
0.0
  0
LINE
  5
2CF
330
1E
100
AcDbEntity
  8
TEXT
 62
     2
100
AcDbLine
 10
350.7613700773121
 20
385.7301775656808
 30
0.0
 11
333.0578308661836
 21
409.6446262982813
 31
0.0
  0
LINE
  5
2D0
330
1E
100
AcDbEntity
  8
TEXT
 62
     2
100
AcDbLine
 10
350.7613700773121
 20
385.7301775656808
 30
0.0
 11
456.6965507252533
 21
385.7301775656808
 31
0.0
  0
TEXT
  5
2D1
330
1E
100
AcDbEntity
  8
TEXT
 62
     1
100
AcDbText
 10
352.0340573000297
 20
376.3730235083799
 30
0.0
 40
7.0
  1
EDV-Art.Nr. 19070.000X
 41
0.8
  7
GREEKS
100
AcDbText
  0
TEXT
  5
2D2
330
1E
100
AcDbEntity
  8
TEXT
 62
     1
100
AcDbText
 10
352.0340573000297
 20
389.2602873790847
 30
0.0
 40
7.0
  1
Losflansch
 41
0.8
  7
GREEKS
100
AcDbText
  0
LINE
  5
2D3
330
1E
100
AcDbEntity
  8
STEMPEL
100
AcDbLine
 10
202.3527584900807
 20
396.2527136067974
 30
0.0
 11
209.8407033031393
 21
396.2527136067974
 31
0.0
  0
LINE
  5
2D4
330
1E
100
AcDbEntity
  8
STEMPEL
100
AcDbLine
 10
202.3527584900807
 20
398.2527136067974
 30
0.0
 11
202.3527584900807
 21
392.1942390982965
 31
0.0
  0
LINE
  5
2D5
330
1E
100
AcDbEntity
  8
HILF
100
AcDbLine
 10
201.3527584900808
 20
398.2527136067974
 30
0.0
 11
201.3527584900808
 21
392.1942390982966
 31
0.0
  0
LINE
  5
2D6
330
1E
100
AcDbEntity
  8
STEMPEL
100
AcDbLine
 10
194.3527584900808
 20
398.2527136067974
 30
0.0
 11
194.3527584900807
 21
392.1942390982965
 31
0.0
  0
LINE
  5
2D7
330
1E
100
AcDbEntity
  8
HILF
100
AcDbLine
 10
195.3527584900807
 20
398.2527136067974
 30
0.0
 11
195.3527584900808
 21
392.1942390982966
 31
0.0
  0
LINE
  5
2DC
330
1E
100
AcDbEntity
  8
STEMPEL
100
AcDbLine
 10
304.3527584900808
 20
396.2527136067975
 30
0.0
 11
310.3527584900807
 21
396.2527136067974
 31
0.0
  0
LINE
  5
2DD
330
1E
100
AcDbEntity
  8
STEMPEL
100
AcDbLine
 10
304.3527584900807
 20
398.2527136067973
 30
0.0
 11
304.3527584900808
 21
392.1942390982966
 31
0.0
  0
LINE
  5
2DE
330
1E
100
AcDbEntity
  8
HILF
100
AcDbLine
 10
303.3527584900808
 20
398.2527136067974
 30
0.0
 11
303.3527584900808
 21
392.1942390982966
 31
0.0
  0
LINE
  5
2DF
330
1E
100
AcDbEntity
  8
STEMPEL
100
AcDbLine
 10
296.3527584900808
 20
398.2527136067973
 30
0.0
 11
296.3527584900808
 21
392.1942390982966
 31
0.0
  0
LINE
  5
2E0
330
1E
100
AcDbEntity
  8
HILF
100
AcDbLine
 10
297.3527584900807
 20
398.2527136067974
 30
0.0
 11
297.3527584900807
 21
392.1942390982966
 31
0.0
  0
LINE
  5
2F4
330
1E
100
AcDbEntity
  8
STEMPEL
100
AcDbLine
 10
191.8527584900806
 20
406.2527136067973
 30
0.0
 11
204.8527584900807
 21
406.2527136067973
 31
0.0
  0
LINE
  5
2F5
330
1E
100
AcDbEntity
  8
STEMPEL
100
AcDbLine
 10
205.8583119895458
 20
399.7985736609079
 30
0.0
 11
205.8583119895458
 21
405.9832763586694
 31
0.0
  0
LINE
  5
2F6
330
1E
100
AcDbEntity
  8
STEMPEL
100
AcDbLine
 10
202.1055352398132
 20
399.7985736609079
 30
0.0
 11
202.1055352398132
 21
405.9832763586694
 31
0.0
  0
LINE
  5
2F7
330
1E
100
AcDbEntity
  8
STEMPEL
100
AcDbLine
 10
194.5999817403481
 20
399.7985736609079
 30
0.0
 11
194.5999817403481
 21
405.9832763586694
 31
0.0
  0
LINE
  5
2F8
330
1E
100
AcDbEntity
  8
HILF
100
AcDbLine
 10
206.907970576076
 20
399.4165291792689
 30
0.0
 11
189.7975464040852
 21
399.4165291792689
 31
0.0
  0
LINE
  5
2F9
330
1E
100
AcDbEntity
  8
STEMPEL
100
AcDbLine
 10
206.7027584900807
 20
398.2527136067974
 30
0.0
 11
190.0027584900806
 21
398.2527136067974
 31
0.0
  0
LINE
  5
2FA
330
1E
100
AcDbEntity
  8
STEMPEL
100
AcDbLine
 10
190.8472049906155
 20
399.7985736609079
 30
0.0
 11
190.8472049906155
 21
405.9832763586694
 31
0.0
  0
LINE
  5
2FB
330
1E
100
AcDbEntity
  8
STEMPEL
100
AcDbLine
 10
191.8527584900806
 20
406.2527136067973
 30
0.0
 11
190.8472049906155
 21
405.9832763586694
 31
0.0
  0
LINE
  5
2FC
330
1E
100
AcDbEntity
  8
STEMPEL
100
AcDbLine
 10
205.8583119895458
 20
405.9832763586694
 30
0.0
 11
204.8527584900807
 21
406.2527136067973
 31
0.0
  0
LINE
  5
2FD
330
1E
100
AcDbEntity
  8
STEMPEL
100
AcDbLine
 10
206.907970576076
 20
399.4165291792689
 30
0.0
 11
205.8583119895458
 21
399.7985736609079
 31
0.0
  0
LINE
  5
2FE
330
1E
100
AcDbEntity
  8
STEMPEL
100
AcDbLine
 10
190.8472049906155
 20
399.7985736609079
 30
0.0
 11
189.7975464040852
 21
399.4165291792689
 31
0.0
  0
ARC
  5
2FF
330
1E
100
AcDbEntity
  8
STEMPEL
100
AcDbCircle
 10
190.0027584900806
 20
398.8527136067974
 30
0.0
 40
0.5999999999999993
100
AcDbArc
 50
110.0000000000001
 51
270.0
  0
ARC
  5
300
330
1E
100
AcDbEntity
  8
STEMPEL
100
AcDbCircle
 10
206.7027584900807
 20
398.8527136067974
 30
0.0
 40
0.5999999999999999
100
AcDbArc
 50
270.0
 51
69.99999999999992
  0
ARC
  5
301
330
1E
100
AcDbEntity
  8
STEMPEL
100
AcDbCircle
 10
198.3527584900807
 20
379.98327635867
 30
0.0
 40
26.26943724812735
100
AcDbArc
 50
81.78678929826036
 51
98.21321070173965
  0
ARC
  5
302
330
1E
100
AcDbEntity
  8
STEMPEL
100
AcDbCircle
 10
192.7235933654817
 20
399.5843153267175
 30
0.0
 40
6.668398280079905
100
AcDbArc
 50
73.65710669401625
 51
106.3428933059837
  0
ARC
  5
303
330
1E
100
AcDbEntity
  8
STEMPEL
100
AcDbCircle
 10
203.9819236146795
 20
399.5843153267175
 30
0.0
 40
6.668398280079882
100
AcDbArc
 50
73.65710669401625
 51
106.3428933059837
  0
ARC
  5
304
330
1E
100
AcDbEntity
  8
STEMPEL
100
AcDbCircle
 10
198.3527584900807
 20
380.7415984389196
 30
0.0
 40
19.42296676475576
100
AcDbArc
 50
78.85962783889116
 51
101.1403721611088
  0
ARC
  5
305
330
1E
100
AcDbEntity
  8
STEMPEL
100
AcDbCircle
 10
192.7235933654818
 20
395.1700627534937
 30
0.0
 40
4.994391509822305
100
AcDbArc
 50
67.93247218100519
 51
112.0675278189948
  0
ARC
  5
306
330
1E
100
AcDbEntity
  8
STEMPEL
100
AcDbCircle
 10
203.9819236146796
 20
395.1700627534937
 30
0.0
 40
4.994391509822305
100
AcDbArc
 50
67.93247218100519
 51
112.0675278189948
  0
ARC
  5
307
330
1E
100
AcDbEntity
  8
STEMPEL
100
AcDbCircle
 10
305.9819236146797
 20
395.1700627534937
 30
0.0
 40
4.994391509822305
100
AcDbArc
 50
67.93247218100519
 51
112.0675278189948
  0
ARC
  5
308
330
1E
100
AcDbEntity
  8
STEMPEL
100
AcDbCircle
 10
294.7235933654819
 20
395.1700627534937
 30
0.0
 40
4.994391509822305
100
AcDbArc
 50
67.93247218100519
 51
112.0675278189948
  0
ARC
  5
309
330
1E
100
AcDbEntity
  8
STEMPEL
100
AcDbCircle
 10
300.3527584900808
 20
380.7415984389196
 30
0.0
 40
19.42296676475576
100
AcDbArc
 50
78.85962783889116
 51
101.1403721611088
  0
ARC
  5
30A
330
1E
100
AcDbEntity
  8
STEMPEL
100
AcDbCircle
 10
305.9819236146796
 20
399.5843153267175
 30
0.0
 40
6.668398280079882
100
AcDbArc
 50
73.65710669401625
 51
106.3428933059837
  0
ARC
  5
30B
330
1E
100
AcDbEntity
  8
STEMPEL
100
AcDbCircle
 10
294.7235933654819
 20
399.5843153267175
 30
0.0
 40
6.668398280079905
100
AcDbArc
 50
73.65710669401625
 51
106.3428933059837
  0
ARC
  5
30C
330
1E
100
AcDbEntity
  8
STEMPEL
100
AcDbCircle
 10
300.3527584900808
 20
379.98327635867
 30
0.0
 40
26.26943724812735
100
AcDbArc
 50
81.78678929826036
 51
98.21321070173965
  0
ARC
  5
30D
330
1E
100
AcDbEntity
  8
STEMPEL
100
AcDbCircle
 10
308.7027584900808
 20
398.8527136067974
 30
0.0
 40
0.5999999999999999
100
AcDbArc
 50
270.0
 51
69.99999999999992
  0
ARC
  5
30E
330
1E
100
AcDbEntity
  8
STEMPEL
100
AcDbCircle
 10
292.0027584900807
 20
398.8527136067974
 30
0.0
 40
0.5999999999999993
100
AcDbArc
 50
110.0000000000001
 51
270.0
  0
LINE
  5
30F
330
1E
100
AcDbEntity
  8
STEMPEL
100
AcDbLine
 10
292.8472049906156
 20
399.7985736609079
 30
0.0
 11
291.7975464040853
 21
399.4165291792689
 31
0.0
  0
LINE
  5
310
330
1E
100
AcDbEntity
  8
STEMPEL
100
AcDbLine
 10
308.9079705760761
 20
399.4165291792689
 30
0.0
 11
307.8583119895459
 21
399.7985736609079
 31
0.0
  0
LINE
  5
311
330
1E
100
AcDbEntity
  8
STEMPEL
100
AcDbLine
 10
307.8583119895459
 20
405.9832763586694
 30
0.0
 11
306.8527584900808
 21
406.2527136067973
 31
0.0
  0
LINE
  5
312
330
1E
100
AcDbEntity
  8
STEMPEL
100
AcDbLine
 10
293.8527584900807
 20
406.2527136067973
 30
0.0
 11
292.8472049906156
 21
405.9832763586694
 31
0.0
  0
LINE
  5
313
330
1E
100
AcDbEntity
  8
STEMPEL
100
AcDbLine
 10
292.8472049906156
 20
399.7985736609079
 30
0.0
 11
292.8472049906156
 21
405.9832763586694
 31
0.0
  0
LINE
  5
314
330
1E
100
AcDbEntity
  8
STEMPEL
100
AcDbLine
 10
308.7027584900808
 20
398.2527136067974
 30
0.0
 11
292.0027584900807
 21
398.2527136067974
 31
0.0
  0
LINE
  5
315
330
1E
100
AcDbEntity
  8
HILF
100
AcDbLine
 10
308.9079705760761
 20
399.4165291792689
 30
0.0
 11
291.7975464040853
 21
399.4165291792689
 31
0.0
  0
LINE
  5
316
330
1E
100
AcDbEntity
  8
STEMPEL
100
AcDbLine
 10
296.5999817403482
 20
399.7985736609079
 30
0.0
 11
296.5999817403482
 21
405.9832763586694
 31
0.0
  0
LINE
  5
317
330
1E
100
AcDbEntity
  8
STEMPEL
100
AcDbLine
 10
304.1055352398133
 20
399.7985736609079
 30
0.0
 11
304.1055352398133
 21
405.9832763586694
 31
0.0
  0
LINE
  5
318
330
1E
100
AcDbEntity
  8
STEMPEL
100
AcDbLine
 10
307.8583119895459
 20
399.7985736609079
 30
0.0
 11
307.8583119895459
 21
405.9832763586694
 31
0.0
  0
LINE
  5
319
330
1E
100
AcDbEntity
  8
STEMPEL
100
AcDbLine
 10
293.8527584900807
 20
406.2527136067973
 30
0.0
 11
306.8527584900808
 21
406.2527136067973
 31
0.0
  0
HATCH
  5
31A
330
1E
100
AcDbEntity
  8
SCHRAFF
100
AcDbHatch
 10
0.0
 20
0.0
 30
0.0
210
0.0
220
0.0
230
1.0
  2
NET
 70
     0
 71
     0
 91
        1
 92
        7
 72
     0
 73
     1
 93
        5
 10
183.7808866623257
 20
397.9734168449295
 10
182.7843062807301
 20
396.2602575584866
 10
156.8527584900807
 20
411.3451781476467
 10
157.8584198626915
 20
413.0739480003567
 10
170.8241937580535
 20
405.5314877057588
 97
        0
 75
     0
 76
     1
 52
75.0
 41
10.0
 77
     0
 78
     2
 53
105.0000000000001
 43
480.8153800872982
 44
-24.79960351617052
 45
1.207407282861334
 46
0.3235238063781529
 79
     0
 53
15.00000000000009
 43
480.8153800872982
 44
-24.79960351617052
 45
0.3235238063781527
 46
-1.207407282861334
 79
     0
 47
0.2040341236788785
 98
        1
 10
177.290580378822
 20
400.6765119627811
  0
HATCH
  5
31B
330
1E
100
AcDbEntity
  8
SCHRAFF
100
AcDbHatch
 10
0.0
 20
0.0
 30
0.0
210
0.0
220
0.0
230
1.0
  2
NET
 70
     0
 71
     1
 91
        1
 92
        7
 72
     0
 73
     1
 93
        5
 10
314.9246303178356
 20
397.9734168449295
 10
315.9212106994313
 20
396.2602575584868
 10
341.8527584900807
 20
411.3451781476468
 10
340.84709711747
 20
413.0739480003567
 10
327.8813232220944
 20
405.5314877057462
 97
        5
330
31F
330
33D
330
329
330
31E
330
3A2
 75
     0
 76
     1
 52
75.0
 41
10.0
 77
     0
 78
     2
 53
75.0
 43
17.89013689286366
 44
-24.79960351617092
 45
-1.207407282861335
 46
0.3235238063781509
 79
     0
 53
165.0
 43
17.89013689286366
 44
-24.79960351617092
 45
-0.323523806378151
 46
-1.207407282861335
 79
     0
 47
0.2040341236788785
 98
        1
 10
321.4149366013394
 20
400.6765119627812
  0
LINE
  5
31C
330
1E
100
AcDbEntity
  8
STEMPEL
100
AcDbLine
 10
182.7843062807295
 20
396.2602575584859
 30
0.0
 11
183.7899676533407
 21
397.9890274111967
 31
0.0
  0
LINE
  5
31D
330
1E
100
AcDbEntity
  8
STEMPEL
100
AcDbLine
 10
156.8527584900807
 20
411.3451781476469
 30
0.0
 11
157.8584198626914
 21
413.0739480003568
 31
0.0
  0
LINE
  5
31E
102
{ACAD_REACTORS
330
31B
102
}
330
1E
100
AcDbEntity
  8
STEMPEL
100
AcDbLine
 10
315.9212106994315
 20
396.2602575584865
 30
0.0
 11
314.9155493268206
 21
397.9890274111967
 31
0.0
  0
LINE
  5
31F
102
{ACAD_REACTORS
330
31B
102
}
330
1E
100
AcDbEntity
  8
STEMPEL
100
AcDbLine
 10
341.8527584900807
 20
411.3451781476468
 30
0.0
 11
340.84709711747
 21
413.0739480003568
 31
0.0
  0
POINT
  5
320
330
1E
100
AcDbEntity
  8
DEFPOINTS
  6
ByBlock
 62
     0
100
AcDbPoint
 10
337.375984643225
 20
411.0700402014066
 30
0.0
  0
POINT
  5
321
330
1E
100
AcDbEntity
  8
DEFPOINTS
  6
ByBlock
 62
     0
100
AcDbPoint
 10
313.375984643225
 20
397.0700402014066
 30
0.0
  0
LINE
  5
322
330
1E
100
AcDbEntity
  8
STEMPEL
100
AcDbLine
 10
192.8527584900806
 20
398.2527136067974
 30
0.0
 11
192.8527584900806
 21
396.2527136067975
 31
0.0
  0
LINE
  5
323
330
1E
100
AcDbEntity
  8
STEMPEL
100
AcDbLine
 10
203.8527584900807
 20
398.2527136067974
 30
0.0
 11
203.8527584900807
 21
396.2527136067974
 31
0.0
  0
LINE
  5
324
330
1E
100
AcDbEntity
  8
STEMPEL
100
AcDbLine
 10
305.8527584900807
 20
398.2527136067974
 30
0.0
 11
305.8527584900807
 21
396.2527136067974
 31
0.0
  0
LINE
  5
325
330
1E
100
AcDbEntity
  8
STEMPEL
100
AcDbLine
 10
294.8527584900806
 20
398.2527136067974
 30
0.0
 11
294.8527584900806
 21
396.2527136067974
 31
0.0
  0
LINE
  5
326
330
1E
100
AcDbEntity
  8
STEMPEL
100
AcDbLine
 10
290.3527584900806
 20
398.2527136067974
 30
0.0
 11
290.3527584900806
 21
396.2527136067974
 31
0.0
  0
LINE
  5
327
330
1E
100
AcDbEntity
  8
STEMPEL
100
AcDbLine
 10
208.3527584900807
 20
398.2527136067974
 30
0.0
 11
208.3527584900807
 21
396.2527136067974
 31
0.0
  0
ARC
  5
328
330
1E
100
AcDbEntity
  8
STEMPEL
100
AcDbCircle
 10
334.3527584900806
 20
416.2527136067973
 30
0.0
 40
6.0
100
AcDbArc
 50
300.2564371635316
 51
0.0
  0
LINE
  5
329
102
{ACAD_REACTORS
330
31B
102
}
330
1E
100
AcDbEntity
  8
STEMPEL
100
AcDbLine
 10
337.3759846432252
 20
411.0700402014067
 30
0.0
 11
313.3759846432253
 21
397.0700402014068
 31
0.0
  0
ARC
  5
32A
330
1E
100
AcDbEntity
  8
STEMPEL
100
AcDbCircle
 10
310.3527584900807
 20
402.2527136067973
 30
0.0
 40
6.0
100
AcDbArc
 50
270.0
 51
300.2564371635316
  0
ARC
  5
32B
330
1E
100
AcDbEntity
  8
STEMPEL
100
AcDbCircle
 10
188.3527584900807
 20
402.2527136067973
 30
0.0
 40
6.0
100
AcDbArc
 50
239.7435628364707
 51
270.0
  0
LINE
  5
32C
330
1E
100
AcDbEntity
  8
STEMPEL
100
AcDbLine
 10
185.3295323369362
 20
397.0700402014068
 30
0.0
 11
161.3295323369362
 21
411.0700402014067
 31
0.0
  0
ARC
  5
32D
330
1E
100
AcDbEntity
  8
STEMPEL
100
AcDbCircle
 10
164.3527584900807
 20
416.2527136067975
 30
0.0
 40
6.0
100
AcDbArc
 50
180.0
 51
239.7435628364707
  0
LINE
  5
32E
330
1E
100
AcDbEntity
  8
STEMPEL
100
AcDbLine
 10
186.3372743879844
 20
398.7975980032036
 30
0.0
 11
162.3372743879844
 21
412.7975980032037
 31
0.0
  0
LINE
  5
32F
330
1E
100
AcDbEntity
  8
STEMPEL
100
AcDbLine
 10
336.368242592177
 20
412.7975980032036
 30
0.0
 11
312.368242592177
 21
398.7975980032036
 31
0.0
  0
ARC
  5
330
330
1E
100
AcDbEntity
  8
STEMPEL
100
AcDbCircle
 10
164.3527584900807
 20
416.2527136067975
 30
0.0
 40
4.0
100
AcDbArc
 50
180.0
 51
239.7435628364707
  0
ARC
  5
331
330
1E
100
AcDbEntity
  8
STEMPEL
100
AcDbCircle
 10
188.3527584900807
 20
402.2527136067973
 30
0.0
 40
4.0
100
AcDbArc
 50
239.7435628364707
 51
270.0
  0
ARC
  5
332
330
1E
100
AcDbEntity
  8
STEMPEL
100
AcDbCircle
 10
310.3527584900807
 20
402.2527136067973
 30
0.0
 40
4.0
100
AcDbArc
 50
270.0
 51
300.2564371635316
  0
ARC
  5
333
330
1E
100
AcDbEntity
  8
STEMPEL
100
AcDbCircle
 10
334.3527584900806
 20
416.2527136067973
 30
0.0
 40
4.0
100
AcDbArc
 50
300.2564371635316
 51
0.0
  0
LINE
  5
334
330
1E
100
AcDbEntity
  8
STEMPEL
100
AcDbLine
 10
160.3527584900807
 20
418.2527136067974
 30
0.0
 11
160.3527584900807
 21
416.2527136067975
 31
0.0
  0
LINE
  5
335
330
1E
100
AcDbEntity
  8
STEMPEL
100
AcDbLine
 10
338.3527584900806
 20
418.2527136067974
 30
0.0
 11
338.3527584900806
 21
416.2527136067973
 31
0.0
  0
LINE
  5
336
330
1E
100
AcDbEntity
  8
STEMPEL
100
AcDbLine
 10
340.3527584900806
 20
418.2527136067974
 30
0.0
 11
340.3527584900806
 21
416.2527136067973
 31
0.0
  0
LINE
  5
337
330
1E
100
AcDbEntity
  8
STEMPEL
100
AcDbLine
 10
158.3527584900807
 20
418.2527136067974
 30
0.0
 11
158.3527584900807
 21
416.2527136067975
 31
0.0
  0
LINE
  5
338
330
1E
100
AcDbEntity
  8
STEMPEL
100
AcDbLine
 10
188.3527584900807
 20
398.2527136067974
 30
0.0
 11
212.8527584900807
 21
398.2527136067973
 31
0.0
  0
LINE
  5
339
330
1E
100
AcDbEntity
  8
STEMPEL
100
AcDbLine
 10
188.3527584900807
 20
396.2527136067974
 30
0.0
 11
194.3527584900808
 21
396.2527136067974
 31
0.0
  0
LINE
  5
33A
330
1E
100
AcDbEntity
  8
STEMPEL
100
AcDbLine
 10
158.3527584900807
 20
418.2527136067974
 30
0.0
 11
212.8527584900807
 21
418.2527136067974
 31
0.0
  0
HATCH
  5
33B
330
1E
100
AcDbEntity
  8
SCHRAFF
100
AcDbHatch
 10
0.0
 20
0.0
 30
0.0
210
0.0
220
0.0
230
1.0
  2
_USER
 70
     0
 71
     0
 91
        4
 92
        7
 72
     1
 73
     1
 93
       12
 10
310.3527584900807
 20
396.2527136067974
 42
0.1327909774928473
 10
313.3759846432253
 20
397.0700402014068
 42
0.0
 10
337.3759846432252
 20
411.0700402014067
 42
0.2667502984552007
 10
340.3527584900806
 20
416.2527136067973
 42
0.0
 10
340.3527584900806
 20
418.2527136067973
 42
0.0
 10
338.3527584900806
 20
418.2527136067973
 42
0.0
 10
338.3527584900806
 20
416.2527136067973
 42
-0.2667502984552046
 10
336.368242592177
 20
412.7975980032036
 42
0.0
 10
312.368242592177
 20
398.7975980032036
 42
-0.1327909774928444
 10
310.3527584900807
 20
398.2527136067974
 42
0.0
 10
305.8527584900807
 20
398.2527136067974
 42
0.0
 10
305.8527584900807
 20
396.2527136067974
 42
0.0
 97
        0
 92
        7
 72
     0
 73
     1
 93
        4
 10
294.8527584900806
 20
396.2527136067974
 10
294.8527584900807
 20
398.2527136067974
 10
290.3527584900806
 20
398.2527136067974
 10
290.3527584900807
 20
396.2527136067974
 97
        0
 92
        7
 72
     0
 73
     1
 93
        4
 10
203.8527584900807
 20
398.2527136067974
 10
203.8527584900807
 20
396.2527136067974
 10
208.3527584900807
 20
396.2527136067974
 10
208.3527584900807
 20
398.2527136067974
 97
        0
 92
        7
 72
     1
 73
     1
 93
       12
 10
188.3527584900807
 20
398.2527136067974
 42
-0.1327909774928438
 10
186.3372743879843
 20
398.7975980032037
 42
0.0
 10
162.3372743879844
 20
412.7975980032037
 42
-0.2667502984552084
 10
160.3527584900807
 20
416.2527136067975
 42
0.0
 10
160.3527584900806
 20
418.2527136067974
 42
0.0
 10
158.3527584900807
 20
418.2527136067974
 42
0.0
 10
158.3527584900807
 20
416.2527136067975
 42
0.2667502984552073
 10
161.3295323369362
 20
411.0700402014067
 42
0.0
 10
185.3295323369362
 20
397.0700402014068
 42
0.1327909774928451
 10
188.3527584900807
 20
396.2527136067974
 42
0.0
 10
192.8527584900807
 20
396.2527136067974
 42
0.0
 10
192.8527584900806
 20
398.2527136067974
 42
0.0
 97
        0
 75
     0
 76
     0
 52
135.0
 41
2.0
 77
     0
 78
     1
 53
135.0
 43
17.89013689286366
 44
-148.0488134752976
 45
-1.414213562373095
 46
-1.414213562373094
 79
     0
 47
0.2375292043459171
 98
        4
 10
309.0285581282695
 20
396.8259205764899
 10
292.6297073678187
 20
397.0634500711115
 10
207.3081499903414
 20
397.3009795657331
 10
190.6716346888032
 20
397.3009795657331
  0
LINE
  5
33C
330
1E
100
AcDbEntity
  8
STEMPEL
100
AcDbLine
 10
157.8584198626914
 20
413.0739480003568
 30
0.0
 11
183.7899676533407
 21
397.9890274111967
 31
0.0
  0
LINE
  5
33D
102
{ACAD_REACTORS
330
31B
102
}
330
1E
100
AcDbEntity
  8
STEMPEL
100
AcDbLine
 10
340.84709711747
 20
413.0739480003568
 30
0.0
 11
314.9155493268206
 21
397.9890274111967
 31
0.0
  0
HATCH
  5
33E
330
1E
100
AcDbEntity
  8
SCHRAFF
100
AcDbHatch
 10
0.0
 20
0.0
 30
0.0
210
0.0
220
0.0
230
1.0
  2
_USER
 70
     0
 71
     0
 91
        2
 92
        7
 72
     1
 73
     1
 93
       10
 10
275.8527584900809
 20
294.5991696356719
 42
-0.0661745536307371
 10
276.269491559471
 20
297.7341221415708
 42
0.0
 10
279.6417875563623
 20
310.1943443068263
 42
0.0
 10
278.6058103944885
 20
310.1943443068262
 42
0.0
 10
275.3042193152534
 20
297.9953681837286
 42
0.0661745536307224
 10
274.8527584900809
 20
294.5991696356722
 42
0.0
 10
274.8527584900808
 20
175.2379000412053
 42
0.0
 10
274.4114953349078
 20
170.1942390982965
 42
0.0
 10
275.4153151724513
 20
170.1942390982965
 42
0.0
 10
275.8527584900809
 20
175.194239098296
 42
0.0
 97
        0
 92
        7
 72
     1
 73
     1
 93
       10
 10
223.8527584900808
 20
294.5942390982965
 42
0.0663773012992471
 10
223.3985513345423
 20
298.0005687804997
 42
0.0
 10
220.0877984767198
 20
310.1943443068263
 42
0.0
 10
219.0515945347952
 20
310.1943443068262
 42
0.0
 10
222.4334903465067
 20
297.7385434203304
 42
-0.0663773012992539
 10
222.8527584900809
 20
294.5942390982964
 42
0.0
 10
222.8527584900808
 20
175.1942390982968
 42
0.0
 10
223.2902018077105
 20
170.1942390982966
 42
0.0
 10
224.2940216452538
 20
170.1942390982966
 42
0.0
 10
223.8527584900808
 20
175.2379000412054
 42
0.0
 97
        0
 75
     0
 76
     0
 52
45.0
 41
2.0
 77
     0
 78
     1
 53
45.0
 43
17.89013689286366
 44
-24.79960351617092
 45
-1.414213562373094
 46
1.414213562373095
 79
     0
 47
0.234305280529618
 98
        2
 10
275.4556761056242
 20
285.3659687636882
 10
223.6559647089038
 20
288.4119364141443
  0
HATCH
  5
33F
330
1E
100
AcDbEntity
  8
SCHRAFF
100
AcDbHatch
 10
0.0
 20
0.0
 30
0.0
210
0.0
220
0.0
230
1.0
  2
_USER
 70
     0
 71
     1
 91
        2
 92
        7
 72
     1
 73
     1
 93
       22
 10
288.4527584900807
 20
357.2695032979884
 42
-0.0932053832641477
 10
289.2724306212283
 20
361.6284330685815
 42
0.0932053832641367
 10
290.9527584900807
 20
370.5642390982966
 42
0.0
 10
290.9527584900807
 20
379.6704565083721
 42
0.1109653701492531
 10
288.5880907340568
 20
390.1942390982965
 42
0.0
 10
287.2527584900808
 20
390.1942390982965
 42
-0.1171484945869472
 10
289.7527584900807
 20
379.6704565083721
 42
0.0
 10
289.7527584900807
 20
370.5642390982966
 42
-0.0932053832641468
 10
288.1543978343428
 20
362.06432604564
 42
0.093205383264128
 10
287.2527584900808
 20
357.2695032979884
 42
0.0
 10
287.2527584900808
 20
340.4190243283789
 42
-0.1257737761160455
 10
285.9772867919676
 20
335.428735432126
 42
0.1257737761160562
 10
284.6527584900809
 20
330.2465123475553
 42
0.0
 10
284.6527584900809
 20
323.6626931022042
 42
-0.1450994323300641
 10
282.7140818856885
 20
317.1228328950593
 42
0.0
 10
278.2105643033371
 20
310.1943443068263
 42
0.0
 10
279.6417875563623
 20
310.1943443068263
 42
0.0
 10
283.7202142252492
 20
316.4688468743445
 42
0.1450994323300657
 10
285.8527584900808
 20
323.662693102204
 42
0.0
 10
285.8527584900808
 20
330.2465123475554
 42
-0.1257737761160446
 10
287.0301169806467
 20
334.8529328671734
 42
0.1257737761160551
 10
288.4527584900807
 20
340.4190243283789
 42
0.0
 97
       22
330
375
330
378
330
379
330
37A
330
3B6
330
37C
330
37D
330
37B
330
374
330
377
330
371
330
373
330
384
330
346
330
348
330
355
330
34B
330
344
330
3B7
330
372
330
370
330
376
 92
        7
 72
     1
 73
     1
 93
       22
 10
211.4527584900807
 20
357.2695032979883
 42
0.0932053832641409
 10
210.5511191458184
 20
362.0643260456405
 42
-0.0932053832641394
 10
208.9527584900807
 20
370.5642390982965
 42
0.0
 10
208.9527584900807
 20
379.670456508372
 42
-0.1171484945869484
 10
211.4527584900807
 20
390.1942390982965
 42
0.0
 10
210.1174262461046
 20
390.1942390982965
 42
0.1109653701492537
 10
207.7527584900807
 20
379.670456508372
 42
0.0
 10
207.7527584900807
 20
370.5642390982965
 42
0.0932053832641405
 10
209.4330863589332
 20
361.6284330685811
 42
-0.0932053832641402
 10
210.2527584900808
 20
357.2695032979883
 42
0.0
 10
210.2527584900808
 20
340.4190243283789
 42
0.1257737761160508
 10
211.6753999995147
 20
334.8529328671735
 42
-0.1257737761160527
 10
212.8527584900808
 20
330.2465123475553
 42
0.0
 10
212.8527584900808
 20
323.6626931022042
 42
0.1450994323300668
 10
214.9853027549124
 20
316.4688468743447
 42
0.0
 10
219.0637294237993
 20
310.1943443068262
 42
0.0
 10
220.4949526768245
 20
310.1943443068261
 42
0.0
 10
215.9914350944731
 20
317.1228328950594
 42
-0.1450994323300642
 10
214.0527584900808
 20
323.6626931022044
 42
0.0
 10
214.0527584900808
 20
330.2465123475553
 42
0.1257737761160501
 10
212.728230188194
 20
335.4287354321258
 42
-0.1257737761160518
 10
211.4527584900807
 20
340.4190243283789
 42
0.0
 97
       22
330
36B
330
364
330
362
330
363
330
3B6
330
365
330
366
330
367
330
36A
330
369
330
36F
330
36D
330
382
330
343
330
34A
330
355
330
349
330
345
330
383
330
36C
330
36E
330
368
 75
     0
 76
     0
 52
135.0
 41
2.0
 77
     0
 78
     1
 53
135.0
 43
17.89013689286366
 44
-24.79960351617092
 45
-1.414213562373095
 46
-1.414213562373094
 79
     0
 47
0.234305280529618
 98
        2
 10
287.643844038817
 20
349.7999204618802
 10
211.2334103581334
 20
350.0342262030231
  0
HATCH
  5
340
330
1E
100
AcDbEntity
  8
SCHRAFF
100
AcDbHatch
 10
0.0
 20
0.0
 30
0.0
210
0.0
220
0.0
230
1.0
  2
_USER
 70
     0
 71
     1
 91
        1
 92
        7
 72
     1
 73
     1
 93
        3
 10
281.2767526081486
 20
312.7096751557282
 42
0.0
 10
279.6417875563623
 20
310.1943443068261
 42
0.0
 10
278.8580494298877
 20
307.2985275741739
 42
0.4432405744639671
 97
        3
330
34B
330
352
330
341
 75
     0
 76
     0
 52
0.0
 41
0.1
 77
     0
 78
     1
 53
0.0
 43
17.89013689286366
 44
-24.79960351617092
 45
0.0
 46
0.1
 79
     0
 47
0.0338663164055397
 98
        1
 10
280.36737467992
 20
309.6049567031255
  0
ARC
  5
341
102
{ACAD_REACTORS
330
340
102
}
330
1E
100
AcDbEntity
  8
SCHRAFF
100
AcDbCircle
 10
277.6149734680526
 20
311.1003003176824
 30
0.0
 40
3.999839226791049
100
AcDbArc
 50
288.1063325140729
 51
23.72578920735833
  0
LINE
  5
342
330
1E
100
AcDbEntity
  8
HILF
100
AcDbLine
 10
282.9000966992768
 20
320.2521125612473
 30
0.0
 11
215.8054202808849
 21
320.2521125612474
 31
0.0
  0
ARC
  5
343
102
{ACAD_REACTORS
330
33F
102
}
330
1E
100
AcDbEntity
  8
STEMPEL
100
AcDbCircle
 10
226.0527584900808
 20
323.6626931022042
 30
0.0
 40
13.2
100
AcDbArc
 50
180.0
 51
213.0238675557968
  0
ARC
  5
344
102
{ACAD_REACTORS
330
33F
102
}
330
1E
100
AcDbEntity
  8
STEMPEL
100
AcDbCircle
 10
272.6527584900808
 20
323.662693102204
 30
0.0
 40
13.2
100
AcDbArc
 50
326.9761324442032
 51
0.0
  0
ARC
  5
345
102
{ACAD_REACTORS
330
33F
102
}
330
1E
100
AcDbEntity
  8
STEMPEL
100
AcDbCircle
 10
226.0527584900808
 20
323.6626931022044
 30
0.0
 40
12.0
100
AcDbArc
 50
180.0
 51
213.0238675557968
  0
ARC
  5
346
102
{ACAD_REACTORS
330
33F
102
}
330
1E
100
AcDbEntity
  8
STEMPEL
100
AcDbCircle
 10
272.6527584900809
 20
323.6626931022042
 30
0.0
 40
12.0
100
AcDbArc
 50
326.9761324442032
 51
0.0
  0
TEXT
  5
347
330
1E
100
AcDbEntity
  8
TEXT
 62
     1
100
AcDbText
 10
245.6822526475539
 20
237.0169048524609
 30
0.0
 40
7.0
  1
DN50
 50
90.0
 41
0.8
  7
GREEKS
100
AcDbText
  0
LINE
  5
348
102
{ACAD_REACTORS
330
33F
102
}
330
1E
100
AcDbEntity
  8
STEMPEL
100
AcDbLine
 10
282.7140818856885
 20
317.1228328950592
 30
0.0
 11
278.2105643033371
 21
310.1943443068263
 31
0.0
  0
LINE
  5
349
102
{ACAD_REACTORS
330
33F
102
}
330
1E
100
AcDbEntity
  8
STEMPEL
100
AcDbLine
 10
215.9914350944731
 20
317.1228328950594
 30
0.0
 11
220.4949526768245
 21
310.1943443068263
 31
0.0
  0
LINE
  5
34A
102
{ACAD_REACTORS
330
33F
102
}
330
1E
100
AcDbEntity
  8
STEMPEL
100
AcDbLine
 10
214.9853027549124
 20
316.4688468743448
 30
0.0
 11
219.0637294237993
 21
310.1943443068263
 31
0.0
  0
LINE
  5
34B
102
{ACAD_REACTORS
330
340
330
33F
102
}
330
1E
100
AcDbEntity
  8
STEMPEL
100
AcDbLine
 10
283.7202142252492
 20
316.4688468743445
 30
0.0
 11
279.6417875563623
 21
310.1943443068263
 31
0.0
  0
LINE
  5
34C
330
1E
100
AcDbEntity
  8
HILF
100
AcDbLine
 10
273.9423445155369
 20
296.1804295943171
 30
0.0
 11
224.7626246192583
 21
296.1803110602084
 31
0.0
  0
LINE
  5
34D
330
1E
100
AcDbEntity
  8
STEMPEL
100
AcDbLine
 10
223.3985513345423
 20
298.0005687804998
 30
0.0
 11
220.0877984767198
 21
310.1943443068263
 31
0.0
  0
ARC
  5
34E
330
1E
100
AcDbEntity
  8
STEMPEL
100
AcDbCircle
 10
210.8527584900808
 20
294.5942390982965
 30
0.0
 40
13.0
100
AcDbArc
 50
0.0
 51
15.19027385472237
  0
LINE
  5
34F
330
1E
100
AcDbEntity
  8
STEMPEL
100
AcDbLine
 10
275.3042193152534
 20
297.9953681837286
 30
0.0
 11
278.6058103944885
 21
310.1943443068263
 31
0.0
  0
ARC
  5
350
330
1E
100
AcDbEntity
  8
STEMPEL
100
AcDbCircle
 10
287.8527584900808
 20
294.5991696356719
 30
0.0
 40
13.0
100
AcDbArc
 50
164.8559892772305
 51
180.0
  0
ARC
  5
351
330
1E
100
AcDbEntity
  8
STEMPEL
100
AcDbCircle
 10
287.8527584900808
 20
294.5991696356719
 30
0.0
 40
12.0
100
AcDbArc
 50
164.8559892772305
 51
180.0
  0
LINE
  5
352
102
{ACAD_REACTORS
330
340
102
}
330
1E
100
AcDbEntity
  8
STEMPEL
100
AcDbLine
 10
276.2694915594709
 20
297.7341221415704
 30
0.0
 11
279.6417875563623
 21
310.1943443068263
 31
0.0
  0
ARC
  5
353
330
1E
100
AcDbEntity
  8
STEMPEL
100
AcDbCircle
 10
210.8527584900808
 20
294.5942390982965
 30
0.0
 40
12.0
100
AcDbArc
 50
0.0
 51
15.19027385472237
  0
LINE
  5
354
330
1E
100
AcDbEntity
  8
STEMPEL
100
AcDbLine
 10
222.4334903465067
 20
297.7385434203304
 30
0.0
 11
219.0428894715899
 21
310.2264057717637
 31
0.0
  0
LINE
  5
355
102
{ACAD_REACTORS
330
33F
102
}
330
1E
100
AcDbEntity
  8
STEMPEL
100
AcDbLine
 10
219.0637294237993
 20
310.1943443068263
 30
0.0
 11
279.6417875563623
 21
310.1943443068263
 31
0.0
  0
LINE
  5
356
330
1E
100
AcDbEntity
  8
STEMPEL
100
AcDbLine
 10
275.8527584900809
 20
175.1942390982965
 30
0.0
 11
275.4153151724513
 21
170.1942390982966
 31
0.0
  0
LINE
  5
357
330
1E
100
AcDbEntity
  8
STEMPEL
100
AcDbLine
 10
274.8527584900809
 20
175.2379000412054
 30
0.0
 11
274.4114953349078
 21
170.1942390982966
 31
0.0
  0
LINE
  5
358
330
1E
100
AcDbEntity
  8
STEMPEL
100
AcDbLine
 10
275.8527584900809
 20
294.5991696356719
 30
0.0
 11
275.8527584900809
 21
175.1942390982965
 31
0.0
  0
LINE
  5
359
330
1E
100
AcDbEntity
  8
STEMPEL
100
AcDbLine
 10
274.8527584900809
 20
294.5991696356719
 30
0.0
 11
274.8527584900809
 21
175.2379000412054
 31
0.0
  0
LINE
  5
35A
330
1E
100
AcDbEntity
  8
STEMPEL
100
AcDbLine
 10
223.8527584900808
 20
294.5942390982965
 30
0.0
 11
223.8527584900809
 21
175.2379000412054
 31
0.0
  0
LINE
  5
35B
330
1E
100
AcDbEntity
  8
STEMPEL
100
AcDbLine
 10
223.8527584900809
 20
175.2379000412054
 30
0.0
 11
224.2940216452538
 21
170.1942390982966
 31
0.0
  0
LINE
  5
35C
330
1E
100
AcDbEntity
  8
STEMPEL
100
AcDbLine
 10
222.8527584900808
 20
175.1942390982965
 30
0.0
 11
223.2902018077105
 21
170.1942390982966
 31
0.0
  0
LINE
  5
35D
330
1E
100
AcDbEntity
  8
HILF
100
AcDbLine
 10
224.8603981651676
 20
175.1942390982966
 30
0.0
 11
273.8451188149942
 21
175.1942390982966
 31
0.0
  0
LINE
  5
35E
330
1E
100
AcDbEntity
  8
STEMPEL
100
AcDbLine
 10
222.8527584900809
 20
294.5942390982965
 30
0.0
 11
222.8527584900808
 21
175.1942390982965
 31
0.0
  0
LINE
  5
35F
330
1E
100
AcDbEntity
  8
HILF
  6
Continuous
100
AcDbLine
 10
283.6905869539534
 20
332.6237630189648
 30
0.0
 11
215.014930026208
 21
332.6237630189648
 31
0.0
  0
LINE
  5
362
102
{ACAD_REACTORS
330
33F
330
6FF
102
}
330
1E
100
AcDbEntity
  8
STEMPEL
100
AcDbLine
 10
208.9527584900807
 20
379.670456508372
 30
0.0
 11
208.9527584900807
 21
370.5642390982965
 31
0.0
  0
ARC
  5
363
102
{ACAD_REACTORS
330
33F
330
6FF
102
}
330
1E
100
AcDbEntity
  8
STEMPEL
100
AcDbCircle
 10
232.3527584900807
 20
379.670456508372
 30
0.0
 40
23.4
100
AcDbArc
 50
153.2733618891368
 51
180.0
  0
ARC
  5
364
102
{ACAD_REACTORS
330
33F
102
}
330
1E
100
AcDbEntity
  8
STEMPEL
100
AcDbCircle
 10
232.3527584900807
 20
370.5642390982966
 30
0.0
 40
23.4
100
AcDbArc
 50
180.0
 51
201.2995644254105
  0
ARC
  5
365
102
{ACAD_REACTORS
330
33F
102
}
330
1E
100
AcDbEntity
  8
STEMPEL
100
AcDbCircle
 10
232.3527584900807
 20
379.670456508372
 30
0.0
 40
24.6
100
AcDbArc
 50
154.6722275782224
 51
180.0
  0
LINE
  5
366
102
{ACAD_REACTORS
330
33F
102
}
330
1E
100
AcDbEntity
  8
STEMPEL
100
AcDbLine
 10
207.7527584900807
 20
379.670456508372
 30
0.0
 11
207.7527584900807
 21
370.5642390982965
 31
0.0
  0
ARC
  5
367
102
{ACAD_REACTORS
330
33F
102
}
330
1E
100
AcDbEntity
  8
STEMPEL
100
AcDbCircle
 10
232.3527584900807
 20
370.5642390982966
 30
0.0
 40
24.6
100
AcDbArc
 50
180.0
 51
201.2995644254105
  0
LINE
  5
368
102
{ACAD_REACTORS
330
33F
102
}
330
1E
100
AcDbEntity
  8
STEMPEL
100
AcDbLine
 10
211.4527584900807
 20
357.2695032979883
 30
0.0
 11
211.4527584900807
 21
340.4190243283789
 31
0.0
  0
LINE
  5
369
102
{ACAD_REACTORS
330
33F
102
}
330
1E
100
AcDbEntity
  8
STEMPEL
100
AcDbLine
 10
210.2527584900808
 20
357.2695032979883
 30
0.0
 11
210.2527584900808
 21
340.4190243283789
 31
0.0
  0
ARC
  5
36A
102
{ACAD_REACTORS
330
33F
102
}
330
1E
100
AcDbEntity
  8
STEMPEL
100
AcDbCircle
 10
198.2527584900807
 20
357.2695032979883
 30
0.0
 40
12.0
100
AcDbArc
 50
0.0
 51
21.29956442541051
  0
ARC
  5
36B
102
{ACAD_REACTORS
330
33F
102
}
330
1E
100
AcDbEntity
  8
STEMPEL
100
AcDbCircle
 10
198.2527584900807
 20
357.2695032979883
 30
0.0
 40
13.2
100
AcDbArc
 50
0.0
 51
21.29956442541051
  0
ARC
  5
36C
102
{ACAD_REACTORS
330
33F
102
}
330
1E
100
AcDbEntity
  8
STEMPEL
100
AcDbCircle
 10
203.2527584900807
 20
330.2465123475553
 30
0.0
 40
10.8
100
AcDbArc
 50
0.0
 51
28.67465690507389
  0
ARC
  5
36D
102
{ACAD_REACTORS
330
33F
102
}
330
1E
100
AcDbEntity
  8
STEMPEL
100
AcDbCircle
 10
203.2527584900807
 20
330.2465123475553
 30
0.0
 40
9.600000000000001
100
AcDbArc
 50
0.0
 51
28.67465690507389
  0
ARC
  5
36E
102
{ACAD_REACTORS
330
33F
102
}
330
1E
100
AcDbEntity
  8
STEMPEL
100
AcDbCircle
 10
221.8527584900808
 20
340.4190243283789
 30
0.0
 40
10.4
100
AcDbArc
 50
180.0
 51
208.6746569050739
  0
ARC
  5
36F
102
{ACAD_REACTORS
330
33F
102
}
330
1E
100
AcDbEntity
  8
STEMPEL
100
AcDbCircle
 10
221.8527584900808
 20
340.4190243283789
 30
0.0
 40
11.6
100
AcDbArc
 50
180.0
 51
208.6746569050739
  0
ARC
  5
370
102
{ACAD_REACTORS
330
33F
102
}
330
1E
100
AcDbEntity
  8
STEMPEL
100
AcDbCircle
 10
276.8527584900807
 20
340.4190243283789
 30
0.0
 40
11.6
100
AcDbArc
 50
331.3253430949261
 51
0.0
  0
ARC
  5
371
102
{ACAD_REACTORS
330
33F
102
}
330
1E
100
AcDbEntity
  8
STEMPEL
100
AcDbCircle
 10
276.8527584900807
 20
340.4190243283789
 30
0.0
 40
10.4
100
AcDbArc
 50
331.3253430949261
 51
0.0
  0
ARC
  5
372
102
{ACAD_REACTORS
330
33F
102
}
330
1E
100
AcDbEntity
  8
STEMPEL
100
AcDbCircle
 10
295.4527584900807
 20
330.2465123475554
 30
0.0
 40
9.600000000000001
100
AcDbArc
 50
151.3253430949261
 51
180.0
  0
ARC
  5
373
102
{ACAD_REACTORS
330
33F
102
}
330
1E
100
AcDbEntity
  8
STEMPEL
100
AcDbCircle
 10
295.4527584900807
 20
330.2465123475554
 30
0.0
 40
10.8
100
AcDbArc
 50
151.3253430949261
 51
180.0
  0
ARC
  5
374
102
{ACAD_REACTORS
330
33F
102
}
330
1E
100
AcDbEntity
  8
STEMPEL
100
AcDbCircle
 10
300.4527584900807
 20
357.2695032979884
 30
0.0
 40
13.2
100
AcDbArc
 50
158.7004355745895
 51
180.0
  0
ARC
  5
375
102
{ACAD_REACTORS
330
33F
102
}
330
1E
100
AcDbEntity
  8
STEMPEL
100
AcDbCircle
 10
300.4527584900807
 20
357.2695032979884
 30
0.0
 40
12.0
100
AcDbArc
 50
158.7004355745895
 51
180.0
  0
LINE
  5
376
102
{ACAD_REACTORS
330
33F
102
}
330
1E
100
AcDbEntity
  8
STEMPEL
100
AcDbLine
 10
288.4527584900807
 20
357.2695032979884
 30
0.0
 11
288.4527584900807
 21
340.4190243283789
 31
0.0
  0
LINE
  5
377
102
{ACAD_REACTORS
330
33F
102
}
330
1E
100
AcDbEntity
  8
STEMPEL
100
AcDbLine
 10
287.2527584900808
 20
357.2695032979884
 30
0.0
 11
287.2527584900808
 21
340.4190243283789
 31
0.0
  0
ARC
  5
378
102
{ACAD_REACTORS
330
33F
102
}
330
1E
100
AcDbEntity
  8
STEMPEL
100
AcDbCircle
 10
266.3527584900807
 20
370.5642390982966
 30
0.0
 40
24.6
100
AcDbArc
 50
338.7004355745895
 51
0.0
  0
LINE
  5
379
102
{ACAD_REACTORS
330
33F
102
}
330
1E
100
AcDbEntity
  8
STEMPEL
100
AcDbLine
 10
290.9527584900807
 20
379.6704565083721
 30
0.0
 11
290.9527584900807
 21
370.5642390982966
 31
0.0
  0
ARC
  5
37A
102
{ACAD_REACTORS
330
33F
102
}
330
1E
100
AcDbEntity
  8
STEMPEL
100
AcDbCircle
 10
266.3527584900807
 20
379.670456508372
 30
0.0
 40
24.6
100
AcDbArc
 50
0.0
 51
25.32777242177756
  0
ARC
  5
37B
102
{ACAD_REACTORS
330
33F
102
}
330
1E
100
AcDbEntity
  8
STEMPEL
100
AcDbCircle
 10
266.3527584900807
 20
370.5642390982966
 30
0.0
 40
23.4
100
AcDbArc
 50
338.7004355745895
 51
0.0
  0
ARC
  5
37C
102
{ACAD_REACTORS
330
33F
330
6FF
102
}
330
1E
100
AcDbEntity
  8
STEMPEL
100
AcDbCircle
 10
266.3527584900807
 20
379.670456508372
 30
0.0
 40
23.4
100
AcDbArc
 50
0.0
 51
26.72663811086319
  0
LINE
  5
37D
102
{ACAD_REACTORS
330
33F
330
6FF
102
}
330
1E
100
AcDbEntity
  8
STEMPEL
100
AcDbLine
 10
289.7527584900807
 20
379.670456508372
 30
0.0
 11
289.7527584900807
 21
370.5642390982966
 31
0.0
  0
HATCH
  5
37E
330
1E
100
AcDbEntity
  8
SCHRAFF
100
AcDbHatch
 10
0.0
 20
0.0
 30
0.0
210
0.0
220
0.0
230
1.0
  2
_USER
 70
     0
 71
     0
 91
        2
 92
        7
 72
     1
 73
     1
 93
        3
 10
288.5880907340568
 20
390.1942390982965
 42
-0.0305161962876784
 10
289.7037477567782
 20
387.4094034823844
 42
0.3065326142826381
 10
291.5880907340568
 20
390.1942390982965
 42
0.0
 97
        0
 92
        7
 72
     1
 73
     1
 93
        3
 10
207.1174262461046
 20
390.1942390982966
 42
0.3065326142826505
 10
209.0017692233832
 20
387.4094034823844
 42
-0.0305161962876796
 10
210.1174262461046
 20
390.1942390982965
 42
0.0
 97
        0
 75
     0
 76
     0
 52
0.0
 41
0.1
 77
     0
 78
     1
 53
0.0
 43
17.89013689286366
 44
-24.79960351617092
 45
0.0
 46
0.1
 79
     0
 47
0.1014887106367553
 98
        2
 10
290.227790952481
 20
389.7548317133485
 10
209.1097405054816
 20
389.9578096167916
  0
ARC
  5
37F
330
1E
100
AcDbEntity
  8
SCHRAFF
100
AcDbCircle
 10
210.1174262461046
 20
390.1942390982965
 30
0.0
 40
3.0
100
AcDbArc
 50
180.0
 51
248.1680412106124
  0
ARC
  5
380
330
1E
100
AcDbEntity
  8
SCHRAFF
100
AcDbCircle
 10
288.5880907340568
 20
390.1942390982965
 30
0.0
 40
3.0
100
AcDbArc
 50
291.8319587893876
 51
0.0
  0
HATCH
  5
381
330
1E
100
AcDbEntity
  8
SCHRAFF
100
AcDbHatch
 10
0.0
 20
0.0
 30
0.0
210
0.0
220
0.0
230
1.0
  2
_USER
 70
     0
 71
     0
 91
        4
 92
        7
 72
     1
 73
     1
 93
       12
 10
367.8527584900808
 20
420.1942390982965
 42
0.1324846866320394
 10
347.7395310378673
 20
414.7696361524957
 42
0.0
 10
309.8640812353021
 20
392.7366993928766
 42
-0.1324846866320413
 10
307.8527584900808
 20
392.1942390982966
 42
0.0
 10
300.3527584900808
 20
392.1942390982966
 42
0.0
 10
300.3527584900808
 20
390.1942390982965
 42
0.0
 10
307.8527584900808
 20
390.1942390982965
 42
0.1324846866320368
 10
310.8697426079127
 20
391.0079295401666
 42
0.0
 10
348.7451924104779
 20
413.0408662997856
 42
-0.1324846866320403
 10
367.8527584900808
 20
418.1942390982965
 42
0.0
 10
395.3527584900808
 20
418.1942390982965
 42
0.0
 10
395.3527584900808
 20
420.1942390982964
 42
0.0
 97
        0
 92
        7
 72
     1
 73
     1
 93
       12
 10
103.3527584900807
 20
420.1942390982965
 42
0.0
 10
103.3527584900807
 20
418.1942390982964
 42
0.0
 10
130.8527584900807
 20
418.1942390982965
 42
-0.1324846866320399
 10
149.9603245696836
 20
413.0408662997856
 42
0.0
 10
187.8357743722487
 20
391.0079295401666
 42
0.132484686632038
 10
190.8527584900807
 20
390.1942390982965
 42
0.0
 10
198.3527584900807
 20
390.1942390982965
 42
0.0
 10
198.3527584900807
 20
392.1942390982965
 42
0.0
 10
190.8527584900807
 20
392.1942390982965
 42
-0.1324846866320423
 10
188.8414357448594
 20
392.7366993928766
 42
0.0
 10
150.9659859422943
 20
414.7696361524956
 42
0.1324846866320404
 10
130.8527584900807
 20
420.1942390982964
 42
0.0
 97
        0
 92
        7
 72
     0
 73
     1
 93
        4
 10
211.3527584900808
 20
390.1942390982966
 10
211.3527584900808
 20
392.1942390982965
 10
198.3527584900807
 20
392.1942390982965
 10
198.3527584900807
 20
390.1942390982965
 97
        0
 92
        7
 72
     0
 73
     1
 93
        4
 10
287.3527584900807
 20
392.1942390982966
 10
287.3527584900807
 20
390.1942390982965
 10
300.3527584900808
 20
390.1942390982965
 10
300.3527584900808
 20
392.1942390982966
 97
        0
 75
     0
 76
     0
 52
45.0
 41
2.0
 77
     0
 78
     1
 53
45.0
 43
17.89013689286366
 44
-24.79960351617092
 45
-1.414213562373094
 46
1.414213562373095
 79
     0
 47
0.3060430538636909
 98
        4
 10
373.9305212273207
 20
419.4111105904401
 10
113.0899676891322
 20
419.4111105904401
 10
206.7721385710888
 20
390.9491072202006
 10
292.1882343238058
 20
391.2551497565051
  0
LINE
  5
382
102
{ACAD_REACTORS
330
33F
102
}
330
1E
100
AcDbEntity
  8
STEMPEL
100
AcDbLine
 10
212.8527584900808
 20
330.2465123475553
 30
0.0
 11
212.8527584900808
 21
323.6626931022042
 31
0.0
  0
LINE
  5
383
102
{ACAD_REACTORS
330
33F
102
}
330
1E
100
AcDbEntity
  8
STEMPEL
100
AcDbLine
 10
214.0527584900808
 20
330.2465123475553
 30
0.0
 11
214.0527584900808
 21
323.6626931022044
 31
0.0
  0
LINE
  5
384
102
{ACAD_REACTORS
330
33F
102
}
330
1E
100
AcDbEntity
  8
STEMPEL
100
AcDbLine
 10
284.6527584900809
 20
330.2465123475554
 30
0.0
 11
284.6527584900809
 21
323.6626931022042
 31
0.0
  0
DIMENSION
  5
385
330
1E
100
AcDbEntity
  8
BEM
100
AcDbDimension
  2
*D2
 10
89.93664539660491
 20
170.1942390982966
 30
0.0
 11
83.43664539660489
 21
295.1942390982966
 31
0.0
 70
    32
 71
     5
 42
249.9999999999999
  3
Standard
100
AcDbAlignedDimension
 13
103.3527584900807
 23
420.1942390982964
 33
0.0
 14
223.2902018077105
 24
170.1942390982966
 34
0.0
 50
90.0
100
AcDbRotatedDimension
1001
ACAD
1000
DSTYLE
1002
{
1070
    40
1040
2.0
1070
    41
1040
3.5
1070
    42
1040
1.0
1070
    43
1040
7.0
1070
    44
1040
1.0
1070
    73
1070
     0
1070
    74
1070
     0
1070
    77
1070
     1
1070
    78
1070
     8
1070
    79
1070
     2
1070
   140
1040
3.5
1070
   141
1040
1.5
1070
   146
1040
0.5142857142857144
1070
   147
1040
1.5
1070
   172
1070
     1
1070
   178
1070
     1
1070
   179
1070
     2
1070
   271
1070
     2
1070
   272
1070
     2
1070
   284
1070
     8
1070
   285
1070
     8
1070
   286
1070
     8
1002
}
  0
LINE
  5
386
330
1E
100
AcDbEntity
  8
STEMPEL
100
AcDbLine
 10
223.2902018077105
 20
170.1942390982966
 30
0.0
 11
275.4153151724513
 21
170.1942390982966
 31
0.0
  0
DIMENSION
  5
387
330
1E
100
AcDbEntity
  8
BEM
100
AcDbDimension
  2
*D3
 10
275.8527584900809
 20
152.1887040448862
 30
0.0
 11
249.3527584900809
 21
158.6887040448862
 31
0.0
 70
    32
  1
%%C<>
 71
     5
 42
53.00000000000003
  3
Standard
100
AcDbAlignedDimension
 13
222.8527584900808
 23
175.1942390982965
 33
0.0
 14
275.8527584900809
 24
175.1942390982965
 34
0.0
100
AcDbRotatedDimension
1001
ACAD
1000
DSTYLE
1002
{
1070
    40
1040
2.0
1070
    41
1040
3.5
1070
    42
1040
1.0
1070
    43
1040
7.0
1070
    44
1040
1.0
1070
    73
1070
     0
1070
    74
1070
     0
1070
    77
1070
     1
1070
    78
1070
     8
1070
    79
1070
     2
1070
   140
1040
3.5
1070
   141
1040
1.5
1070
   146
1040
0.5142857142857144
1070
   147
1040
1.5
1070
   172
1070
     1
1070
   178
1070
     1
1070
   179
1070
     2
1070
   271
1070
     2
1070
   272
1070
     2
1070
   284
1070
     8
1070
   285
1070
     8
1070
   286
1070
     8
1002
}
  0
LINE
  5
390
330
1E
100
AcDbEntity
  8
STEMPEL
100
AcDbLine
 10
103.3527584900807
 20
420.1942390982964
 30
0.0
 11
212.8527584900807
 21
420.1942390982964
 31
0.0
  0
LINE
  5
391
330
1E
100
AcDbEntity
  8
STEMPEL
100
AcDbLine
 10
103.3527584900807
 20
418.1942390982965
 30
0.0
 11
130.8527584900807
 21
418.1942390982965
 31
0.0
  0
LINE
  5
392
330
1E
100
AcDbEntity
  8
STEMPEL
100
AcDbLine
 10
103.3527584900807
 20
420.1942390982964
 30
0.0
 11
103.3527584900807
 21
418.1942390982965
 31
0.0
  0
LINE
  5
393
330
1E
100
AcDbEntity
  8
STEMPEL
100
AcDbLine
 10
395.3527584900808
 20
420.1942390982964
 30
0.0
 11
395.3527584900808
 21
418.1942390982965
 31
0.0
  0
ARC
  5
394
330
1E
100
AcDbEntity
  8
STEMPEL
100
AcDbCircle
 10
190.8527584900807
 20
396.1942390982965
 30
0.0
 40
4.0
100
AcDbArc
 50
239.8125459251749
 51
270.0
  0
ARC
  5
395
330
1E
100
AcDbEntity
  8
STEMPEL
100
AcDbCircle
 10
307.8527584900808
 20
396.1942390982965
 30
0.0
 40
4.0
100
AcDbArc
 50
270.0
 51
300.1874540748251
  0
ARC
  5
396
330
1E
100
AcDbEntity
  8
STEMPEL
100
AcDbCircle
 10
367.8527584900808
 20
380.1942390982965
 30
0.0
 40
40.0
100
AcDbArc
 50
90.0
 51
120.1874540748251
  0
ARC
  5
397
330
1E
100
AcDbEntity
  8
STEMPEL
100
AcDbCircle
 10
130.8527584900807
 20
380.1942390982965
 30
0.0
 40
40.0
100
AcDbArc
 50
59.8125459251749
 51
90.0
  0
ARC
  5
398
330
1E
100
AcDbEntity
  8
STEMPEL
100
AcDbCircle
 10
367.8527584900808
 20
380.1942390982965
 30
0.0
 40
38.0
100
AcDbArc
 50
90.0
 51
120.1874540748251
  0
LINE
  5
399
330
1E
100
AcDbEntity
  8
STEMPEL
100
AcDbLine
 10
348.7451924104779
 20
413.0408662997856
 30
0.0
 11
310.8697426079127
 21
391.0079295401666
 31
0.0
  0
ARC
  5
39A
330
1E
100
AcDbEntity
  8
STEMPEL
100
AcDbCircle
 10
307.8527584900808
 20
396.1942390982965
 30
0.0
 40
6.0
100
AcDbArc
 50
270.0
 51
300.1874540748251
  0
LINE
  5
39B
330
1E
100
AcDbEntity
  8
STEMPEL
100
AcDbLine
 10
367.8527584900808
 20
418.1942390982965
 30
0.0
 11
395.3527584900808
 21
418.1942390982965
 31
0.0
  0
ARC
  5
39C
330
1E
100
AcDbEntity
  8
STEMPEL
100
AcDbCircle
 10
130.8527584900807
 20
380.1942390982965
 30
0.0
 40
38.0
100
AcDbArc
 50
59.8125459251749
 51
90.0
  0
LINE
  5
39D
330
1E
100
AcDbEntity
  8
STEMPEL
100
AcDbLine
 10
149.9603245696836
 20
413.0408662997856
 30
0.0
 11
187.8357743722487
 21
391.0079295401666
 31
0.0
  0
ARC
  5
39E
330
1E
100
AcDbEntity
  8
STEMPEL
100
AcDbCircle
 10
190.8527584900807
 20
396.1942390982965
 30
0.0
 40
6.0
100
AcDbArc
 50
239.8125459251749
 51
270.0
  0
LINE
  5
39F
102
{ACAD_REACTORS
330
6FF
102
}
330
1E
100
AcDbEntity
  8
STEMPEL
100
AcDbLine
 10
211.3527584900808
 20
392.1942390982965
 30
0.0
 11
211.3527584900808
 21
390.1942390982965
 31
0.0
  0
LINE
  5
3A0
102
{ACAD_REACTORS
330
6FF
102
}
330
1E
100
AcDbEntity
  8
STEMPEL
100
AcDbLine
 10
287.3527584900807
 20
392.1942390982965
 30
0.0
 11
287.3527584900807
 21
390.1942390982965
 31
0.0
  0
LINE
  5
3A1
330
1E
100
AcDbEntity
  8
STEMPEL
100
AcDbLine
 10
150.9659859422943
 20
414.7696361524956
 30
0.0
 11
188.8414357448594
 21
392.7366993928766
 31
0.0
  0
LINE
  5
3A2
102
{ACAD_REACTORS
330
31B
102
}
330
1E
100
AcDbEntity
  8
STEMPEL
100
AcDbLine
 10
347.7395310378672
 20
414.7696361524956
 30
0.0
 11
309.8640812353021
 21
392.7366993928766
 31
0.0
  0
LINE
  5
3A3
330
1E
100
AcDbEntity
  8
MITTEL
100
AcDbLine
 10
300.3527584900808
 20
417.1942390982966
 30
0.0
 11
300.3527584900808
 21
390.1942390982964
 31
0.0
  0
LINE
  5
3A4
330
1E
100
AcDbEntity
  8
STEMPEL
100
AcDbLine
 10
304.3527584900808
 20
411.1942390982965
 30
0.0
 11
304.3527584900807
 21
406.2527136067974
 31
0.0
  0
LINE
  5
3A5
330
1E
100
AcDbEntity
  8
HILF
100
AcDbLine
 10
303.3527584900808
 20
412.1942390982966
 30
0.0
 11
303.3527584900808
 21
406.2527136067974
 31
0.0
  0
LINE
  5
3A6
330
1E
100
AcDbEntity
  8
STEMPEL
100
AcDbLine
 10
296.3527584900808
 20
411.1942390982965
 30
0.0
 11
296.3527584900808
 21
406.2527136067974
 31
0.0
  0
LINE
  5
3A7
330
1E
100
AcDbEntity
  8
HILF
100
AcDbLine
 10
297.3527584900807
 20
412.1942390982966
 30
0.0
 11
297.3527584900807
 21
406.2527136067974
 31
0.0
  0
LINE
  5
3A8
330
1E
100
AcDbEntity
  8
STEMPEL
100
AcDbLine
 10
297.3527584900807
 20
412.1942390982966
 30
0.0
 11
303.3527584900808
 21
412.1942390982966
 31
0.0
  0
LINE
  5
3A9
330
1E
100
AcDbEntity
  8
STEMPEL
100
AcDbLine
 10
296.3527584900808
 20
411.1942390982965
 30
0.0
 11
304.3527584900808
 21
411.1942390982965
 31
0.0
  0
LINE
  5
3AA
330
1E
100
AcDbEntity
  8
STEMPEL
100
AcDbLine
 10
296.3527584900808
 20
411.1942390982965
 30
0.0
 11
297.3527584900807
 21
412.1942390982966
 31
0.0
  0
LINE
  5
3AB
330
1E
100
AcDbEntity
  8
STEMPEL
100
AcDbLine
 10
303.3527584900808
 20
412.1942390982966
 30
0.0
 11
304.3527584900808
 21
411.1942390982965
 31
0.0
  0
LINE
  5
3AC
330
1E
100
AcDbEntity
  8
MITTEL
100
AcDbLine
 10
198.3527584900806
 20
417.1942390982966
 30
0.0
 11
198.3527584900807
 21
390.1942390982966
 31
0.0
  0
LINE
  5
3AD
330
1E
100
AcDbEntity
  8
STEMPEL
100
AcDbLine
 10
202.3527584900807
 20
411.1942390982965
 30
0.0
 11
202.3527584900807
 21
406.2527136067974
 31
0.0
  0
LINE
  5
3AE
330
1E
100
AcDbEntity
  8
HILF
100
AcDbLine
 10
201.3527584900808
 20
412.1942390982966
 30
0.0
 11
201.3527584900808
 21
406.2527136067973
 31
0.0
  0
LINE
  5
3AF
330
1E
100
AcDbEntity
  8
STEMPEL
100
AcDbLine
 10
194.3527584900807
 20
411.1942390982965
 30
0.0
 11
194.3527584900807
 21
406.2527136067974
 31
0.0
  0
LINE
  5
3B0
330
1E
100
AcDbEntity
  8
HILF
100
AcDbLine
 10
195.3527584900807
 20
412.1942390982966
 30
0.0
 11
195.3527584900807
 21
406.2527136067973
 31
0.0
  0
LINE
  5
3B1
330
1E
100
AcDbEntity
  8
STEMPEL
100
AcDbLine
 10
195.3527584900807
 20
412.1942390982966
 30
0.0
 11
201.3527584900808
 21
412.1942390982966
 31
0.0
  0
LINE
  5
3B2
330
1E
100
AcDbEntity
  8
STEMPEL
100
AcDbLine
 10
194.3527584900807
 20
411.1942390982965
 30
0.0
 11
202.3527584900806
 21
411.1942390982965
 31
0.0
  0
LINE
  5
3B3
330
1E
100
AcDbEntity
  8
STEMPEL
100
AcDbLine
 10
194.3527584900807
 20
411.1942390982965
 30
0.0
 11
195.3527584900807
 21
412.1942390982966
 31
0.0
  0
LINE
  5
3B4
330
1E
100
AcDbEntity
  8
STEMPEL
100
AcDbLine
 10
201.3527584900808
 20
412.1942390982966
 30
0.0
 11
202.3527584900807
 21
411.1942390982965
 31
0.0
  0
LINE
  5
3B5
330
1E
100
AcDbEntity
  8
STEMPEL
100
AcDbLine
 10
190.8527584900807
 20
392.1942390982965
 30
0.0
 11
211.3527584900808
 21
392.1942390982966
 31
0.0
  0
LINE
  5
3B6
102
{ACAD_REACTORS
330
33F
330
6FF
102
}
330
1E
100
AcDbEntity
  8
STEMPEL
100
AcDbLine
 10
190.8527584900807
 20
390.1942390982965
 30
0.0
 11
211.4527584900807
 21
390.1942390982966
 31
0.0
  0
LINE
  5
3B7
102
{ACAD_REACTORS
330
33F
102
}
330
1E
100
AcDbEntity
  8
STEMPEL
100
AcDbLine
 10
285.8527584900808
 20
330.2465123475554
 30
0.0
 11
285.8527584900808
 21
323.662693102204
 31
0.0
  0
DIMENSION
  5
3B8
330
1E
100
AcDbEntity
  8
BEM
100
AcDbDimension
  2
*D4
 10
395.3527584900808
 20
428.4270558634657
 30
0.0
 11
249.3527584900808
 21
434.9270558634656
 31
0.0
 70
    32
  1
%%C<>
 71
     5
 42
292.0
  3
Standard
100
AcDbAlignedDimension
 13
103.3527584900807
 23
420.1942390982964
 33
0.0
 14
395.3527584900808
 24
420.1942390982964
 34
0.0
100
AcDbRotatedDimension
1001
ACAD
1000
DSTYLE
1002
{
1070
    40
1040
2.0
1070
    41
1040
3.5
1070
    42
1040
1.0
1070
    43
1040
7.0
1070
    44
1040
1.0
1070
    73
1070
     0
1070
    74
1070
     0
1070
    77
1070
     1
1070
    78
1070
     8
1070
    79
1070
     2
1070
   140
1040
3.5
1070
   141
1040
1.5
1070
   146
1040
0.5142857142857144
1070
   147
1040
1.5
1070
   172
1070
     1
1070
   178
1070
     1
1070
   179
1070
     2
1070
   271
1070
     2
1070
   272
1070
     2
1070
   284
1070
     8
1070
   285
1070
     8
1070
   286
1070
     8
1002
}
  0
LINE
  5
3B9
102
{ACAD_REACTORS
330
6FF
102
}
330
1E
100
AcDbEntity
  8
STEMPEL
100
AcDbLine
 10
202.3527584900807
 20
392.1942390982965
 30
0.0
 11
211.3527584900808
 21
392.1942390982966
 31
0.0
  0
LINE
  5
3BA
330
1E
100
AcDbEntity
  8
MITTEL
100
AcDbLine
 10
249.3527584900805
 20
642.1942390982965
 30
0.0
 11
249.3527584900806
 21
531.9025698499499
 31
0.0
  0
TEXT
  5
3BB
330
1E
100
AcDbEntity
  8
TEXT
 62
     1
100
AcDbText
 10
308.7022196623847
 20
210.5855662401006
 30
0.0
 40
7.0
  1
Ablauftopf DN50
 41
0.8
  7
GREEKS
100
AcDbText
  0
LINE
  5
3BF
330
1E
100
AcDbEntity
  8
TEXT
 62
     2
100
AcDbLine
 10
307.429532439667
 20
207.0554564266968
 30
0.0
 11
275.5543455795984
 21
214.5940289290025
 31
0.0
  0
LINE
  5
4F8
330
1E
100
AcDbEntity
  8
TEXT
 62
     2
100
AcDbLine
 10
354.7889634051879
 20
537.4701463459753
 30
0.0
 11
347.4091896492367
 21
519.6251997652683
 31
0.0
  0
LINE
  5
4F9
330
1E
100
AcDbEntity
  8
STEMPEL
100
AcDbLine
 10
212.8527584900807
 20
345.1942390982964
 30
0.0
 11
213.7276451253399
 21
335.1942390982965
 31
0.0
  0
LINE
  5
4FB
330
1E
100
AcDbEntity
  8
STEMPEL
100
AcDbLine
 10
214.0527584900806
 20
345.2466322297866
 30
0.0
 11
214.932228930392
 21
335.1942390982965
 31
0.0
  0
LINE
  5
4FC
330
1E
100
AcDbEntity
  8
STEMPEL
100
AcDbLine
 10
214.0527584900808
 20
443.2465123475552
 30
0.0
 11
214.0527584900806
 21
345.2466322297866
 31
0.0
  0
LINE
  5
4FD
330
1E
100
AcDbEntity
  8
STEMPEL
100
AcDbLine
 10
207.7527584900806
 20
464.6704565083719
 30
0.0
 11
207.7527584900806
 21
461.2139829541824
 31
0.0
  0
ARC
  5
4FE
330
1E
100
AcDbEntity
  8
STEMPEL
100
AcDbCircle
 10
232.3527584900806
 20
464.6704565083719
 30
0.0
 40
24.6
100
AcDbArc
 50
154.6722275782254
 51
180.0
  0
ARC
  5
4FF
330
1E
100
AcDbEntity
  8
STEMPEL
100
AcDbCircle
 10
232.3527584900806
 20
464.6704565083719
 30
0.0
 40
23.4
100
AcDbArc
 50
153.2733618891379
 51
180.0
  0
LINE
  5
500
330
1E
100
AcDbEntity
  8
STEMPEL
100
AcDbLine
 10
208.9527584900807
 20
464.6704565083719
 30
0.0
 11
208.9527584900807
 21
461.2139829541824
 31
0.0
  0
LINE
  5
501
330
1E
100
AcDbEntity
  8
STEMPEL
100
AcDbLine
 10
212.8527584900808
 20
443.2465123475552
 30
0.0
 11
212.8527584900807
 21
345.1942390982964
 31
0.0
  0
ARC
  5
502
330
1E
100
AcDbEntity
  8
SCHRAFF
100
AcDbCircle
 10
210.1174262461045
 20
475.1942390982964
 30
0.0
 40
3.0
100
AcDbArc
 50
180.0
 51
248.1680412106136
  0
LINE
  5
503
330
1E
100
AcDbEntity
  8
VOLL
100
AcDbLine
 10
212.8527584900807
 20
448.1942390982962
 30
0.0
 11
212.8527584900807
 21
448.1942390982962
 31
0.0
  0
ARC
  5
504
330
1E
100
AcDbEntity
  8
STEMPEL
100
AcDbCircle
 10
203.2527584900807
 20
443.2465123475551
 30
0.0
 40
9.600000000000001
100
AcDbArc
 50
0.0
 51
31.69279372243331
  0
ARC
  5
505
330
1E
100
AcDbEntity
  8
STEMPEL
100
AcDbCircle
 10
203.2527584900807
 20
443.2465123475551
 30
0.0
 40
10.8
100
AcDbArc
 50
0.0
 51
31.69279372243331
  0
ARC
  5
506
330
1E
100
AcDbEntity
  8
STEMPEL
100
AcDbCircle
 10
232.3527584900806
 20
461.2139829541824
 30
0.0
 40
23.4
100
AcDbArc
 50
180.0
 51
211.6927937224333
  0
ARC
  5
507
330
1E
100
AcDbEntity
  8
STEMPEL
100
AcDbCircle
 10
232.3527584900806
 20
461.2139829541824
 30
0.0
 40
24.6
100
AcDbArc
 50
180.0
 51
211.6927937224333
  0
LINE
  5
509
330
1E
100
AcDbEntity
  8
STEMPEL
100
AcDbLine
 10
285.8527584900808
 20
443.2465123475552
 30
0.0
 11
285.8527584900808
 21
345.1942390982964
 31
0.0
  0
LINE
  5
50B
330
1E
100
AcDbEntity
  8
STEMPEL
100
AcDbLine
 10
285.8527584900808
 20
345.1942390982966
 30
0.0
 11
284.9778718548216
 21
335.1942390982965
 31
0.0
  0
LINE
  5
50C
330
1E
100
AcDbEntity
  8
HILF
100
AcDbLine
 10
215.2619261001848
 20
345.1942390982964
 30
0.0
 11
283.4435908799767
 21
345.1942390982964
 31
0.0
  0
LINE
  5
50D
330
1E
100
AcDbEntity
  8
STEMPEL
100
AcDbLine
 10
213.7276451253399
 20
335.1942390982965
 30
0.0
 11
284.9778718548216
 21
335.1942390982965
 31
0.0
  0
LINE
  5
50E
330
1E
100
AcDbEntity
  8
STEMPEL
100
AcDbLine
 10
284.6527584900808
 20
443.2465123475552
 30
0.0
 11
284.6527584900808
 21
345.2466322297873
 31
0.0
  0
LINE
  5
50F
330
1E
100
AcDbEntity
  8
STEMPEL
100
AcDbLine
 10
284.6527584900808
 20
345.2466322297873
 30
0.0
 11
283.7732880497695
 21
335.1942390982965
 31
0.0
  0
LINE
  5
510
330
1E
100
AcDbEntity
  8
STEMPEL
100
AcDbLine
 10
289.7527584900807
 20
464.6704565083719
 30
0.0
 11
289.7527584900807
 21
461.2139829541825
 31
0.0
  0
ARC
  5
511
330
1E
100
AcDbEntity
  8
STEMPEL
100
AcDbCircle
 10
266.3527584900807
 20
464.6704565083719
 30
0.0
 40
23.4
100
AcDbArc
 50
0.0
 51
26.72663811086211
  0
ARC
  5
512
330
1E
100
AcDbEntity
  8
STEMPEL
100
AcDbCircle
 10
266.3527584900807
 20
464.6704565083719
 30
0.0
 40
24.6
100
AcDbArc
 50
0.0
 51
25.32777242177462
  0
LINE
  5
513
330
1E
100
AcDbEntity
  8
STEMPEL
100
AcDbLine
 10
290.9527584900807
 20
464.670456508372
 30
0.0
 11
290.9527584900807
 21
461.2139829541826
 31
0.0
  0
ARC
  5
514
330
1E
100
AcDbEntity
  8
STEMPEL
100
AcDbCircle
 10
295.4527584900807
 20
443.2465123475552
 30
0.0
 40
10.8
100
AcDbArc
 50
148.3072062775667
 51
180.0
  0
ARC
  5
515
330
1E
100
AcDbEntity
  8
STEMPEL
100
AcDbCircle
 10
295.4527584900807
 20
443.2465123475552
 30
0.0
 40
9.600000000000001
100
AcDbArc
 50
148.3072062775667
 51
180.0
  0
ARC
  5
516
330
1E
100
AcDbEntity
  8
SCHRAFF
100
AcDbCircle
 10
288.5880907340567
 20
475.1942390982964
 30
0.0
 40
3.0
100
AcDbArc
 50
291.8319587893864
 51
0.0
  0
HATCH
  5
517
330
1E
100
AcDbEntity
  8
SCHRAFF
100
AcDbHatch
 10
0.0
 20
0.0
 30
0.0
210
0.0
220
0.0
230
1.0
  2
_USER
 70
     0
 71
     0
 91
        2
 92
        7
 72
     1
 73
     1
 93
        3
 10
288.5880907340567
 20
475.1942390982964
 42
-0.0305161962876784
 10
289.7037477567782
 20
472.4094034823844
 42
0.3065326142826381
 10
291.5880907340567
 20
475.1942390982964
 42
0.0
 97
        0
 92
        7
 72
     1
 73
     1
 93
        3
 10
207.1174262461045
 20
475.1942390982964
 42
0.3065326142826505
 10
209.0017692233831
 20
472.4094034823843
 42
-0.0305161962876796
 10
210.1174262461046
 20
475.1942390982964
 42
0.0
 97
        0
 75
     0
 76
     0
 52
0.0
 41
0.1
 77
     0
 78
     1
 53
0.0
 43
17.89013689286361
 44
60.20039648382902
 45
0.0
 46
0.1
 79
     0
 47
0.1014887106367553
 98
        2
 10
290.2277909524809
 20
474.7548317133484
 10
209.1097405054815
 20
474.9578096167915
  0
LINE
  5
518
330
1E
100
AcDbEntity
  8
VOLL
100
AcDbLine
 10
285.8527584900807
 20
448.1942390982964
 30
0.0
 11
285.8527584900807
 21
448.1942390982964
 31
0.0
  0
ARC
  5
519
330
1E
100
AcDbEntity
  8
STEMPEL
100
AcDbCircle
 10
266.3527584900807
 20
461.2139829541825
 30
0.0
 40
24.6
100
AcDbArc
 50
328.3072062775667
 51
0.0
  0
ARC
  5
51A
330
1E
100
AcDbEntity
  8
STEMPEL
100
AcDbCircle
 10
266.3527584900807
 20
461.2139829541825
 30
0.0
 40
23.4
100
AcDbArc
 50
328.3072062775667
 51
0.0
  0
LINE
  5
51B
330
1E
100
AcDbEntity
  8
HILF
100
AcDbLine
 10
283.8207699285863
 20
446.1955532264282
 30
0.0
 11
214.8847470515751
 21
446.1955532264281
 31
0.0
  0
HATCH
  5
51C
330
1E
100
AcDbEntity
  8
SCHRAFF
100
AcDbHatch
 10
0.0
 20
0.0
 30
0.0
210
0.0
220
0.0
230
1.0
  2
_USER
 70
     0
 71
     0
 91
        2
 92
        7
 72
     1
 73
     1
 93
       14
 10
290.9527584900807
 20
464.670456508372
 42
0.1109653701492531
 10
288.5880907340567
 20
475.1942390982964
 42
0.0
 10
287.2527584900808
 20
475.1942390982964
 42
-0.1171484945869472
 10
289.7527584900807
 20
464.670456508372
 42
0.0
 10
289.7527584900807
 20
461.2139829541825
 42
-0.1391741750786694
 10
286.2632848058701
 20
448.9204504338587
 42
0.1391741750786612
 10
284.6527584900808
 20
443.2465123475556
 42
0.0
 10
284.6527584900808
 20
345.2466322297868
 42
0.0
 10
283.7732880497695
 20
335.1942390982965
 42
0.0
 10
284.9778718548216
 20
335.1942390982965
 42
0.0
 10
285.8527584900808
 20
345.1942390982964
 42
0.0
 10
285.8527584900808
 20
443.2465123475552
 42
-0.1391741750786689
 10
287.2843374374492
 20
448.2900128687137
 42
0.1391741750786703
 10
290.9527584900807
 20
461.2139829541826
 42
0.0
 97
        0
 92
        7
 72
     1
 73
     1
 93
       14
 10
212.8527584900807
 20
345.1942390982967
 42
0.0
 10
213.7276451253399
 20
335.1942390982965
 42
0.0
 10
214.932228930392
 20
335.1942390982965
 42
0.0
 10
214.0527584900806
 20
345.2466322297862
 42
0.0
 10
214.0527584900808
 20
443.2465123475552
 42
0.1391741750786652
 10
212.4422321742913
 20
448.9204504338583
 42
-0.1391741750786729
 10
208.9527584900807
 20
461.2139829541824
 42
0.0
 10
208.9527584900807
 20
464.6704565083719
 42
-0.1171484945869484
 10
211.4527584900806
 20
475.1942390982964
 42
0.0
 10
210.1174262461046
 20
475.1942390982964
 42
0.1109653701492537
 10
207.7527584900806
 20
464.6704565083719
 42
0.0
 10
207.7527584900806
 20
461.2139829541824
 42
0.139174175078671
 10
211.4211795427123
 20
448.2900128687137
 42
-0.1391741750786646
 10
212.8527584900808
 20
443.2465123475552
 42
0.0
 97
        0
 75
     0
 76
     0
 52
135.0
 41
2.0
 77
     0
 78
     1
 53
135.0
 43
17.89013689286361
 44
60.20039648382902
 45
-1.414213562373095
 46
-1.414213562373094
 79
     0
 47
0.2202035750496299
 98
        2
 10
290.400072170978
 20
463.1351317880495
 10
213.3016663325897
 20
437.8117204166953
  0
TEXT
  5
51D
330
1E
100
AcDbEntity
  8
TEXT
 62
     1
100
AcDbText
 10
245.2602383316829
 20
392.0095269134184
 30
0.0
 40
7.0
  1
DN70
 50
90.0
 41
0.8
  7
GREEKS
100
AcDbText
  0
TEXT
  5
51E
330
1E
100
AcDbEntity
  8
TEXT
 62
     1
100
AcDbText
 10
355.9013244991791
 20
477.7495247188311
 30
0.0
 40
7.0
  1
Flanschdichtring DN70
 41
0.8
  7
GREEKS
100
AcDbText
  0
TEXT
  5
51F
330
1E
100
AcDbEntity
  8
TEXT
 62
     1
100
AcDbText
 10
355.9013244991791
 20
464.8622608481264
 30
0.0
 40
7.0
  1
EDV-Art.Nr. 19088.070X
 41
0.8
  7
GREEKS
100
AcDbText
  0
LINE
  5
520
330
1E
100
AcDbEntity
  8
TEXT
 62
     2
100
AcDbLine
 10
354.6286372764615
 20
474.2194149054273
 30
0.0
 11
461.6087645466403
 21
474.2194149054273
 31
0.0
  0
LINE
  5
521
330
1E
100
AcDbEntity
  8
TEXT
 62
     2
100
AcDbLine
 10
354.6286372764615
 20
474.2194149054273
 30
0.0
 11
334.6176170754435
 21
493.9359072213475
 31
0.0
  0
LINE
  5
523
330
1E
100
AcDbEntity
  8
TEXT
 62
     2
100
AcDbLine
 10
354.7889634051879
 20
537.4701463459753
 30
0.0
 11
460.7241440531291
 21
537.4701463459753
 31
0.0
  0
TEXT
  5
524
330
1E
100
AcDbEntity
  8
TEXT
 62
     1
100
AcDbText
 10
356.0616506279055
 20
528.1129922886743
 30
0.0
 40
7.0
  1
EDV-Art.Nr. 19070.000X
 41
0.8
  7
GREEKS
100
AcDbText
  0
TEXT
  5
525
330
1E
100
AcDbEntity
  8
TEXT
 62
     1
100
AcDbText
 10
356.0616506279055
 20
541.0002561593792
 30
0.0
 40
7.0
  1
Losflansch
 41
0.8
  7
GREEKS
100
AcDbText
  0
LINE
  5
526
330
1E
100
AcDbEntity
  8
STEMPEL
100
AcDbLine
 10
202.3527584900807
 20
481.2527136067973
 30
0.0
 11
209.3527584900807
 21
481.2527136067973
 31
0.0
  0
LINE
  5
527
330
1E
100
AcDbEntity
  8
STEMPEL
100
AcDbLine
 10
202.3527584900807
 20
483.2527136067973
 30
0.0
 11
202.3527584900807
 21
477.1942390982964
 31
0.0
  0
LINE
  5
528
330
1E
100
AcDbEntity
  8
HILF
100
AcDbLine
 10
201.3527584900807
 20
483.2527136067973
 30
0.0
 11
201.3527584900807
 21
477.1942390982964
 31
0.0
  0
LINE
  5
529
330
1E
100
AcDbEntity
  8
STEMPEL
100
AcDbLine
 10
194.3527584900807
 20
483.2527136067973
 30
0.0
 11
194.3527584900806
 21
477.1942390982964
 31
0.0
  0
LINE
  5
52A
330
1E
100
AcDbEntity
  8
HILF
100
AcDbLine
 10
195.3527584900807
 20
483.2527136067973
 30
0.0
 11
195.3527584900807
 21
477.1942390982964
 31
0.0
  0
LINE
  5
52F
330
1E
100
AcDbEntity
  8
STEMPEL
100
AcDbLine
 10
304.3527584900807
 20
481.2527136067973
 30
0.0
 11
310.3527584900806
 21
481.2527136067973
 31
0.0
  0
LINE
  5
530
330
1E
100
AcDbEntity
  8
STEMPEL
100
AcDbLine
 10
304.3527584900806
 20
483.2527136067972
 30
0.0
 11
304.3527584900807
 21
477.1942390982964
 31
0.0
  0
LINE
  5
531
330
1E
100
AcDbEntity
  8
HILF
100
AcDbLine
 10
303.3527584900807
 20
483.2527136067973
 30
0.0
 11
303.3527584900807
 21
477.1942390982966
 31
0.0
  0
LINE
  5
532
330
1E
100
AcDbEntity
  8
STEMPEL
100
AcDbLine
 10
296.3527584900807
 20
483.2527136067972
 30
0.0
 11
296.3527584900807
 21
477.1942390982964
 31
0.0
  0
LINE
  5
533
330
1E
100
AcDbEntity
  8
HILF
100
AcDbLine
 10
297.3527584900807
 20
483.2527136067973
 30
0.0
 11
297.3527584900807
 21
477.1942390982966
 31
0.0
  0
LINE
  5
535
330
1E
100
AcDbEntity
  8
STEMPEL
100
AcDbLine
 10
256.8583119895458
 20
484.7985736609078
 30
0.0
 11
256.8583119895458
 21
487.1942390982965
 31
0.0
  0
LINE
  5
538
330
1E
100
AcDbEntity
  8
HILF
100
AcDbLine
 10
257.907970576076
 20
484.4165291792689
 30
0.0
 11
256.8527584900806
 21
484.4165291792689
 31
0.0
  0
LINE
  5
539
330
1E
100
AcDbEntity
  8
STEMPEL
100
AcDbLine
 10
257.7027584900807
 20
483.2527136067973
 30
0.0
 11
256.8527584900806
 21
483.2527136067973
 31
0.0
  0
LINE
  5
53A
330
1E
100
AcDbEntity
  8
STEMPEL
100
AcDbLine
 10
241.8472049906155
 20
484.7985736609078
 30
0.0
 11
241.8472049906155
 21
487.1942390982965
 31
0.0
  0
LINE
  5
53D
330
1E
100
AcDbEntity
  8
STEMPEL
100
AcDbLine
 10
257.907970576076
 20
484.4165291792689
 30
0.0
 11
256.8583119895458
 21
484.7985736609078
 31
0.0
  0
LINE
  5
53E
330
1E
100
AcDbEntity
  8
STEMPEL
100
AcDbLine
 10
241.8472049906155
 20
484.7985736609078
 30
0.0
 11
240.7975464040852
 21
484.4165291792689
 31
0.0
  0
ARC
  5
53F
330
1E
100
AcDbEntity
  8
STEMPEL
100
AcDbCircle
 10
241.0027584900806
 20
483.8527136067972
 30
0.0
 40
0.5999999999999993
100
AcDbArc
 50
110.0000000000006
 51
270.0
  0
ARC
  5
540
330
1E
100
AcDbEntity
  8
STEMPEL
100
AcDbCircle
 10
257.7027584900807
 20
483.8527136067972
 30
0.0
 40
0.5999999999999999
100
AcDbArc
 50
270.0
 51
69.99999999999935
  0
ARC
  5
545
330
1E
100
AcDbEntity
  8
STEMPEL
100
AcDbCircle
 10
243.7235933654818
 20
480.1700627534937
 30
0.0
 40
4.994391509822305
100
AcDbArc
 50
111.9987984124007
 51
112.0675278189948
  0
ARC
  5
546
330
1E
100
AcDbEntity
  8
STEMPEL
100
AcDbCircle
 10
254.9819236146795
 20
480.1700627534937
 30
0.0
 40
4.994391509822305
100
AcDbArc
 50
67.93247218100519
 51
68.00120158759924
  0
LINE
  5
547
330
1E
100
AcDbEntity
  8
STEMPEL
100
AcDbLine
 10
191.8527584900806
 20
491.2527136067973
 30
0.0
 11
204.8527584900806
 21
491.2527136067973
 31
0.0
  0
LINE
  5
548
330
1E
100
AcDbEntity
  8
STEMPEL
100
AcDbLine
 10
205.8583119895458
 20
484.7985736609078
 30
0.0
 11
205.8583119895458
 21
490.9832763586693
 31
0.0
  0
LINE
  5
549
330
1E
100
AcDbEntity
  8
STEMPEL
100
AcDbLine
 10
202.1055352398132
 20
484.7985736609078
 30
0.0
 11
202.1055352398132
 21
490.9832763586693
 31
0.0
  0
LINE
  5
54A
330
1E
100
AcDbEntity
  8
STEMPEL
100
AcDbLine
 10
194.599981740348
 20
484.7985736609078
 30
0.0
 11
194.599981740348
 21
490.9832763586693
 31
0.0
  0
LINE
  5
54B
330
1E
100
AcDbEntity
  8
HILF
100
AcDbLine
 10
206.907970576076
 20
484.4165291792689
 30
0.0
 11
189.7975464040852
 21
484.4165291792689
 31
0.0
  0
LINE
  5
54C
330
1E
100
AcDbEntity
  8
STEMPEL
100
AcDbLine
 10
206.7027584900806
 20
483.2527136067973
 30
0.0
 11
190.0027584900806
 21
483.2527136067973
 31
0.0
  0
LINE
  5
54D
330
1E
100
AcDbEntity
  8
STEMPEL
100
AcDbLine
 10
190.8472049906155
 20
484.7985736609078
 30
0.0
 11
190.8472049906155
 21
490.9832763586693
 31
0.0
  0
LINE
  5
54E
330
1E
100
AcDbEntity
  8
STEMPEL
100
AcDbLine
 10
191.8527584900806
 20
491.2527136067973
 30
0.0
 11
190.8472049906155
 21
490.9832763586693
 31
0.0
  0
LINE
  5
54F
330
1E
100
AcDbEntity
  8
STEMPEL
100
AcDbLine
 10
205.8583119895458
 20
490.9832763586693
 30
0.0
 11
204.8527584900806
 21
491.2527136067973
 31
0.0
  0
LINE
  5
550
330
1E
100
AcDbEntity
  8
STEMPEL
100
AcDbLine
 10
206.907970576076
 20
484.4165291792689
 30
0.0
 11
205.8583119895458
 21
484.7985736609078
 31
0.0
  0
LINE
  5
551
330
1E
100
AcDbEntity
  8
STEMPEL
100
AcDbLine
 10
190.8472049906155
 20
484.7985736609078
 30
0.0
 11
189.7975464040852
 21
484.4165291792689
 31
0.0
  0
ARC
  5
552
330
1E
100
AcDbEntity
  8
STEMPEL
100
AcDbCircle
 10
190.0027584900806
 20
483.8527136067972
 30
0.0
 40
0.5999999999999993
100
AcDbArc
 50
110.0000000000006
 51
270.0
  0
ARC
  5
553
330
1E
100
AcDbEntity
  8
STEMPEL
100
AcDbCircle
 10
206.7027584900806
 20
483.8527136067972
 30
0.0
 40
0.5999999999999999
100
AcDbArc
 50
270.0
 51
69.99999999999935
  0
ARC
  5
554
330
1E
100
AcDbEntity
  8
STEMPEL
100
AcDbCircle
 10
198.3527584900806
 20
464.98327635867
 30
0.0
 40
26.26943724812735
100
AcDbArc
 50
81.78678929826011
 51
98.21321070173988
  0
ARC
  5
555
330
1E
100
AcDbEntity
  8
STEMPEL
100
AcDbCircle
 10
192.7235933654817
 20
484.5843153267174
 30
0.0
 40
6.668398280079905
100
AcDbArc
 50
73.65710669401579
 51
106.3428933059842
  0
ARC
  5
556
330
1E
100
AcDbEntity
  8
STEMPEL
100
AcDbCircle
 10
203.9819236146795
 20
484.5843153267174
 30
0.0
 40
6.668398280079882
100
AcDbArc
 50
73.65710669401579
 51
106.3428933059842
  0
ARC
  5
557
330
1E
100
AcDbEntity
  8
STEMPEL
100
AcDbCircle
 10
198.3527584900806
 20
465.7415984389196
 30
0.0
 40
19.42296676475576
100
AcDbArc
 50
78.85962783889116
 51
101.1403721611088
  0
ARC
  5
558
330
1E
100
AcDbEntity
  8
STEMPEL
100
AcDbCircle
 10
192.7235933654817
 20
480.1700627534937
 30
0.0
 40
4.994391509822305
100
AcDbArc
 50
67.93247218100519
 51
112.0675278189948
  0
ARC
  5
559
330
1E
100
AcDbEntity
  8
STEMPEL
100
AcDbCircle
 10
203.9819236146795
 20
480.1700627534937
 30
0.0
 40
4.994391509822305
100
AcDbArc
 50
67.93247218100519
 51
112.0675278189948
  0
ARC
  5
55A
330
1E
100
AcDbEntity
  8
STEMPEL
100
AcDbCircle
 10
305.9819236146796
 20
480.1700627534937
 30
0.0
 40
4.994391509822305
100
AcDbArc
 50
67.93247218100519
 51
112.0675278189948
  0
ARC
  5
55B
330
1E
100
AcDbEntity
  8
STEMPEL
100
AcDbCircle
 10
294.7235933654819
 20
480.1700627534937
 30
0.0
 40
4.994391509822305
100
AcDbArc
 50
67.93247218100519
 51
112.0675278189948
  0
ARC
  5
55C
330
1E
100
AcDbEntity
  8
STEMPEL
100
AcDbCircle
 10
300.3527584900807
 20
465.7415984389196
 30
0.0
 40
19.42296676475576
100
AcDbArc
 50
78.85962783889116
 51
101.1403721611088
  0
ARC
  5
55D
330
1E
100
AcDbEntity
  8
STEMPEL
100
AcDbCircle
 10
305.9819236146795
 20
484.5843153267174
 30
0.0
 40
6.668398280079882
100
AcDbArc
 50
73.65710669401579
 51
106.3428933059842
  0
ARC
  5
55E
330
1E
100
AcDbEntity
  8
STEMPEL
100
AcDbCircle
 10
294.7235933654818
 20
484.5843153267174
 30
0.0
 40
6.668398280079905
100
AcDbArc
 50
73.65710669401579
 51
106.3428933059842
  0
ARC
  5
55F
330
1E
100
AcDbEntity
  8
STEMPEL
100
AcDbCircle
 10
300.3527584900807
 20
464.98327635867
 30
0.0
 40
26.26943724812735
100
AcDbArc
 50
81.78678929826011
 51
98.21321070173988
  0
ARC
  5
560
330
1E
100
AcDbEntity
  8
STEMPEL
100
AcDbCircle
 10
308.7027584900807
 20
483.8527136067972
 30
0.0
 40
0.5999999999999999
100
AcDbArc
 50
270.0
 51
69.99999999999935
  0
ARC
  5
561
330
1E
100
AcDbEntity
  8
STEMPEL
100
AcDbCircle
 10
292.0027584900807
 20
483.8527136067972
 30
0.0
 40
0.5999999999999993
100
AcDbArc
 50
110.0000000000006
 51
270.0
  0
LINE
  5
562
330
1E
100
AcDbEntity
  8
STEMPEL
100
AcDbLine
 10
292.8472049906156
 20
484.7985736609078
 30
0.0
 11
291.7975464040853
 21
484.4165291792689
 31
0.0
  0
LINE
  5
563
330
1E
100
AcDbEntity
  8
STEMPEL
100
AcDbLine
 10
308.9079705760761
 20
484.4165291792689
 30
0.0
 11
307.8583119895458
 21
484.7985736609078
 31
0.0
  0
LINE
  5
564
330
1E
100
AcDbEntity
  8
STEMPEL
100
AcDbLine
 10
307.8583119895458
 20
490.9832763586693
 30
0.0
 11
306.8527584900807
 21
491.2527136067973
 31
0.0
  0
LINE
  5
565
330
1E
100
AcDbEntity
  8
STEMPEL
100
AcDbLine
 10
293.8527584900807
 20
491.2527136067973
 30
0.0
 11
292.8472049906156
 21
490.9832763586693
 31
0.0
  0
LINE
  5
566
330
1E
100
AcDbEntity
  8
STEMPEL
100
AcDbLine
 10
292.8472049906156
 20
484.7985736609078
 30
0.0
 11
292.8472049906156
 21
490.9832763586693
 31
0.0
  0
LINE
  5
567
330
1E
100
AcDbEntity
  8
STEMPEL
100
AcDbLine
 10
308.7027584900807
 20
483.2527136067973
 30
0.0
 11
292.0027584900807
 21
483.2527136067973
 31
0.0
  0
LINE
  5
568
330
1E
100
AcDbEntity
  8
HILF
100
AcDbLine
 10
308.9079705760761
 20
484.4165291792689
 30
0.0
 11
291.7975464040853
 21
484.4165291792689
 31
0.0
  0
LINE
  5
569
330
1E
100
AcDbEntity
  8
STEMPEL
100
AcDbLine
 10
296.5999817403481
 20
484.7985736609078
 30
0.0
 11
296.5999817403481
 21
490.9832763586693
 31
0.0
  0
LINE
  5
56A
330
1E
100
AcDbEntity
  8
STEMPEL
100
AcDbLine
 10
304.1055352398132
 20
484.7985736609078
 30
0.0
 11
304.1055352398132
 21
490.9832763586693
 31
0.0
  0
LINE
  5
56B
330
1E
100
AcDbEntity
  8
STEMPEL
100
AcDbLine
 10
307.8583119895458
 20
484.7985736609078
 30
0.0
 11
307.8583119895458
 21
490.9832763586693
 31
0.0
  0
LINE
  5
56C
330
1E
100
AcDbEntity
  8
STEMPEL
100
AcDbLine
 10
293.8527584900807
 20
491.2527136067973
 30
0.0
 11
306.8527584900807
 21
491.2527136067973
 31
0.0
  0
HATCH
  5
56D
330
1E
100
AcDbEntity
  8
SCHRAFF
100
AcDbHatch
 10
0.0
 20
0.0
 30
0.0
210
0.0
220
0.0
230
1.0
  2
NET
 70
     0
 71
     0
 91
        1
 92
        7
 72
     0
 73
     1
 93
        5
 10
183.7808866623256
 20
482.9734168449294
 10
182.78430628073
 20
481.2602575584866
 10
156.8527584900807
 20
496.3451781476466
 10
157.8584198626914
 20
498.0739480003566
 10
170.8241937580535
 20
490.5314877057587
 97
        0
 75
     0
 76
     1
 52
75.0
 41
10.0
 77
     0
 78
     2
 53
105.0000000000001
 43
480.8153800872982
 44
60.20039648382942
 45
1.207407282861334
 46
0.3235238063781529
 79
     0
 53
15.00000000000009
 43
480.8153800872982
 44
60.20039648382942
 45
0.3235238063781527
 46
-1.207407282861334
 79
     0
 47
0.2040341236788785
 98
        1
 10
177.2905803788219
 20
485.676511962781
  0
HATCH
  5
56E
330
1E
100
AcDbEntity
  8
SCHRAFF
100
AcDbHatch
 10
0.0
 20
0.0
 30
0.0
210
0.0
220
0.0
230
1.0
  2
NET
 70
     0
 71
     1
 91
        1
 92
        7
 72
     0
 73
     1
 93
        5
 10
314.9246303178355
 20
482.9734168449292
 10
315.9212106994313
 20
481.2602575584866
 10
341.8527584900807
 20
496.3451781476468
 10
340.8470971174699
 20
498.0739480003568
 10
327.8813232221875
 20
490.5314877057935
 97
        5
330
572
330
590
330
57C
330
571
330
5AC
 75
     0
 76
     1
 52
75.0
 41
10.0
 77
     0
 78
     2
 53
75.0
 43
17.89013689286361
 44
60.20039648382902
 45
-1.207407282861335
 46
0.3235238063781509
 79
     0
 53
165.0
 43
17.89013689286361
 44
60.20039648382902
 45
-0.323523806378151
 46
-1.207407282861335
 79
     0
 47
0.2040341236788785
 98
        1
 10
321.4149366013393
 20
485.6765119627811
  0
LINE
  5
56F
330
1E
100
AcDbEntity
  8
STEMPEL
100
AcDbLine
 10
182.7843062807295
 20
481.2602575584858
 30
0.0
 11
183.7899676533407
 21
482.9890274111966
 31
0.0
  0
LINE
  5
570
330
1E
100
AcDbEntity
  8
STEMPEL
100
AcDbLine
 10
156.8527584900806
 20
496.3451781476469
 30
0.0
 11
157.8584198626914
 21
498.0739480003569
 31
0.0
  0
LINE
  5
571
102
{ACAD_REACTORS
330
56E
102
}
330
1E
100
AcDbEntity
  8
STEMPEL
100
AcDbLine
 10
315.9212106994314
 20
481.2602575584864
 30
0.0
 11
314.9155493268205
 21
482.9890274111966
 31
0.0
  0
LINE
  5
572
102
{ACAD_REACTORS
330
56E
102
}
330
1E
100
AcDbEntity
  8
STEMPEL
100
AcDbLine
 10
341.8527584900806
 20
496.3451781476469
 30
0.0
 11
340.8470971174699
 21
498.0739480003568
 31
0.0
  0
POINT
  5
573
330
1E
100
AcDbEntity
  8
DEFPOINTS
  6
ByBlock
 62
     0
100
AcDbPoint
 10
337.375984643225
 20
496.0700402014064
 30
0.0
  0
POINT
  5
574
330
1E
100
AcDbEntity
  8
DEFPOINTS
  6
ByBlock
 62
     0
100
AcDbPoint
 10
313.375984643225
 20
482.0700402014065
 30
0.0
  0
LINE
  5
575
330
1E
100
AcDbEntity
  8
STEMPEL
100
AcDbLine
 10
192.8527584900806
 20
483.2527136067973
 30
0.0
 11
192.8527584900806
 21
481.2527136067973
 31
0.0
  0
LINE
  5
576
330
1E
100
AcDbEntity
  8
STEMPEL
100
AcDbLine
 10
203.8527584900806
 20
483.2527136067973
 30
0.0
 11
203.8527584900806
 21
481.2527136067973
 31
0.0
  0
LINE
  5
577
330
1E
100
AcDbEntity
  8
STEMPEL
100
AcDbLine
 10
305.8527584900806
 20
483.2527136067973
 30
0.0
 11
305.8527584900806
 21
481.2527136067973
 31
0.0
  0
LINE
  5
578
330
1E
100
AcDbEntity
  8
STEMPEL
100
AcDbLine
 10
294.8527584900806
 20
483.2527136067973
 30
0.0
 11
294.8527584900806
 21
481.2527136067973
 31
0.0
  0
LINE
  5
579
330
1E
100
AcDbEntity
  8
STEMPEL
100
AcDbLine
 10
290.3527584900806
 20
483.2527136067973
 30
0.0
 11
290.3527584900806
 21
481.2527136067973
 31
0.0
  0
LINE
  5
57A
330
1E
100
AcDbEntity
  8
STEMPEL
100
AcDbLine
 10
208.3527584900806
 20
483.2527136067973
 30
0.0
 11
208.3527584900806
 21
481.2527136067973
 31
0.0
  0
ARC
  5
57B
330
1E
100
AcDbEntity
  8
STEMPEL
100
AcDbCircle
 10
334.3527584900806
 20
501.2527136067974
 30
0.0
 40
6.0
100
AcDbArc
 50
300.2564371635316
 51
0.0
  0
LINE
  5
57C
102
{ACAD_REACTORS
330
56E
102
}
330
1E
100
AcDbEntity
  8
STEMPEL
100
AcDbLine
 10
337.3759846432252
 20
496.0700402014067
 30
0.0
 11
313.3759846432252
 21
482.0700402014066
 31
0.0
  0
ARC
  5
57D
330
1E
100
AcDbEntity
  8
STEMPEL
100
AcDbCircle
 10
310.3527584900806
 20
487.2527136067973
 30
0.0
 40
6.0
100
AcDbArc
 50
270.0
 51
300.2564371635316
  0
ARC
  5
57E
330
1E
100
AcDbEntity
  8
STEMPEL
100
AcDbCircle
 10
188.3527584900806
 20
487.2527136067973
 30
0.0
 40
6.0
100
AcDbArc
 50
239.7435628364698
 51
270.0
  0
LINE
  5
57F
330
1E
100
AcDbEntity
  8
STEMPEL
100
AcDbLine
 10
185.3295323369361
 20
482.0700402014066
 30
0.0
 11
161.3295323369361
 21
496.0700402014067
 31
0.0
  0
ARC
  5
580
330
1E
100
AcDbEntity
  8
STEMPEL
100
AcDbCircle
 10
164.3527584900806
 20
501.2527136067974
 30
0.0
 40
6.0
100
AcDbArc
 50
180.0
 51
239.7435628364698
  0
LINE
  5
581
330
1E
100
AcDbEntity
  8
STEMPEL
100
AcDbLine
 10
186.3372743879843
 20
483.7975980032035
 30
0.0
 11
162.3372743879843
 21
497.7975980032037
 31
0.0
  0
LINE
  5
582
330
1E
100
AcDbEntity
  8
STEMPEL
100
AcDbLine
 10
336.368242592177
 20
497.7975980032034
 30
0.0
 11
312.3682425921769
 21
483.7975980032035
 31
0.0
  0
ARC
  5
583
330
1E
100
AcDbEntity
  8
STEMPEL
100
AcDbCircle
 10
164.3527584900806
 20
501.2527136067974
 30
0.0
 40
4.0
100
AcDbArc
 50
180.0
 51
239.7435628364698
  0
ARC
  5
584
330
1E
100
AcDbEntity
  8
STEMPEL
100
AcDbCircle
 10
188.3527584900806
 20
487.2527136067973
 30
0.0
 40
4.0
100
AcDbArc
 50
239.7435628364698
 51
270.0
  0
ARC
  5
585
330
1E
100
AcDbEntity
  8
STEMPEL
100
AcDbCircle
 10
310.3527584900806
 20
487.2527136067973
 30
0.0
 40
4.0
100
AcDbArc
 50
270.0
 51
300.2564371635316
  0
ARC
  5
586
330
1E
100
AcDbEntity
  8
STEMPEL
100
AcDbCircle
 10
334.3527584900806
 20
501.2527136067974
 30
0.0
 40
4.0
100
AcDbArc
 50
300.2564371635316
 51
0.0
  0
LINE
  5
587
330
1E
100
AcDbEntity
  8
STEMPEL
100
AcDbLine
 10
160.3527584900806
 20
503.2527136067973
 30
0.0
 11
160.3527584900806
 21
501.2527136067974
 31
0.0
  0
LINE
  5
588
330
1E
100
AcDbEntity
  8
STEMPEL
100
AcDbLine
 10
338.3527584900806
 20
503.2527136067973
 30
0.0
 11
338.3527584900806
 21
501.2527136067974
 31
0.0
  0
LINE
  5
589
330
1E
100
AcDbEntity
  8
STEMPEL
100
AcDbLine
 10
340.3527584900806
 20
503.2527136067973
 30
0.0
 11
340.3527584900806
 21
501.2527136067974
 31
0.0
  0
LINE
  5
58A
330
1E
100
AcDbEntity
  8
STEMPEL
100
AcDbLine
 10
158.3527584900806
 20
503.2527136067973
 30
0.0
 11
158.3527584900806
 21
501.2527136067974
 31
0.0
  0
LINE
  5
58B
330
1E
100
AcDbEntity
  8
STEMPEL
100
AcDbLine
 10
188.3527584900806
 20
483.2527136067973
 30
0.0
 11
209.3527584900806
 21
483.2527136067973
 31
0.0
  0
LINE
  5
58C
330
1E
100
AcDbEntity
  8
STEMPEL
100
AcDbLine
 10
188.3527584900806
 20
481.2527136067973
 30
0.0
 11
194.3527584900807
 21
481.2527136067973
 31
0.0
  0
LINE
  5
58D
330
1E
100
AcDbEntity
  8
STEMPEL
100
AcDbLine
 10
158.3527584900806
 20
503.2527136067973
 30
0.0
 11
213.3527584900807
 21
503.2527136067974
 31
0.0
  0
HATCH
  5
58E
330
1E
100
AcDbEntity
  8
SCHRAFF
100
AcDbHatch
 10
0.0
 20
0.0
 30
0.0
210
0.0
220
0.0
230
1.0
  2
_USER
 70
     0
 71
     0
 91
        4
 92
        7
 72
     1
 73
     1
 93
       12
 10
310.3527584900806
 20
481.2527136067973
 42
0.1327909774928473
 10
313.3759846432252
 20
482.0700402014066
 42
0.0
 10
337.3759846432252
 20
496.0700402014067
 42
0.2667502984552007
 10
340.3527584900806
 20
501.2527136067974
 42
0.0
 10
340.3527584900805
 20
503.2527136067972
 42
0.0
 10
338.3527584900806
 20
503.2527136067972
 42
0.0
 10
338.3527584900806
 20
501.2527136067974
 42
-0.2667502984552046
 10
336.368242592177
 20
497.7975980032034
 42
0.0
 10
312.3682425921769
 20
483.7975980032035
 42
-0.1327909774928444
 10
310.3527584900806
 20
483.2527136067973
 42
0.0
 10
305.8527584900807
 20
483.2527136067973
 42
0.0
 10
305.8527584900806
 20
481.2527136067973
 42
0.0
 97
        0
 92
        7
 72
     0
 73
     1
 93
        4
 10
294.8527584900806
 20
481.2527136067973
 10
294.8527584900806
 20
483.2527136067973
 10
290.3527584900806
 20
483.2527136067973
 10
290.3527584900806
 20
481.2527136067973
 97
        0
 92
        7
 72
     0
 73
     1
 93
        4
 10
203.8527584900806
 20
483.2527136067973
 10
203.8527584900806
 20
481.2527136067973
 10
208.3527584900806
 20
481.2527136067973
 10
208.3527584900806
 20
483.2527136067973
 97
        0
 92
        7
 72
     1
 73
     1
 93
       12
 10
188.3527584900806
 20
483.2527136067973
 42
-0.1327909774928438
 10
186.3372743879843
 20
483.7975980032036
 42
0.0
 10
162.3372743879843
 20
497.7975980032037
 42
-0.2667502984552084
 10
160.3527584900806
 20
501.2527136067974
 42
0.0
 10
160.3527584900806
 20
503.2527136067973
 42
0.0
 10
158.3527584900806
 20
503.2527136067973
 42
0.0
 10
158.3527584900806
 20
501.2527136067974
 42
0.2667502984552073
 10
161.3295323369361
 20
496.0700402014067
 42
0.0
 10
185.3295323369361
 20
482.0700402014066
 42
0.1327909774928451
 10
188.3527584900807
 20
481.2527136067973
 42
0.0
 10
192.8527584900806
 20
481.2527136067973
 42
0.0
 10
192.8527584900806
 20
483.2527136067973
 42
0.0
 97
        0
 75
     0
 76
     0
 52
135.0
 41
2.0
 77
     0
 78
     1
 53
135.0
 43
17.89013689286361
 44
-63.04881347529772
 45
-1.414213562373095
 46
-1.414213562373094
 79
     0
 47
0.2375292043459171
 98
        4
 10
309.0285581282695
 20
481.8259205764897
 10
292.6297073678187
 20
482.0634500711114
 10
207.3081499903413
 20
482.300979565733
 10
190.6716346888032
 20
482.300979565733
  0
LINE
  5
58F
330
1E
100
AcDbEntity
  8
STEMPEL
100
AcDbLine
 10
157.8584198626914
 20
498.0739480003569
 30
0.0
 11
183.7899676533407
 21
482.9890274111966
 31
0.0
  0
LINE
  5
590
102
{ACAD_REACTORS
330
56E
102
}
330
1E
100
AcDbEntity
  8
STEMPEL
100
AcDbLine
 10
340.8470971174699
 20
498.0739480003568
 30
0.0
 11
314.9155493268205
 21
482.9890274111966
 31
0.0
  0
HATCH
  5
591
330
1E
100
AcDbEntity
  8
SCHRAFF
100
AcDbHatch
 10
0.0
 20
0.0
 30
0.0
210
0.0
220
0.0
230
1.0
  2
_USER
 70
     0
 71
     0
 91
        4
 92
        7
 72
     1
 73
     1
 93
       12
 10
367.8527584900806
 20
505.1942390982965
 42
0.1324846866320397
 10
347.7395310378672
 20
499.7696361524956
 42
0.0
 10
309.8640812353021
 20
477.7366993928765
 42
-0.1324846866320431
 10
307.8527584900807
 20
477.1942390982964
 42
0.0
 10
300.3527584900807
 20
477.1942390982965
 42
0.0
 10
300.3527584900807
 20
475.1942390982964
 42
0.0
 10
307.8527584900807
 20
475.1942390982964
 42
0.1324846866320361
 10
310.8697426079126
 20
476.0079295401665
 42
0.0
 10
348.7451924104778
 20
498.0408662997856
 42
-0.1324846866320408
 10
367.8527584900808
 20
503.1942390982965
 42
0.0
 10
395.3527584900807
 20
503.1942390982965
 42
0.0
 10
395.3527584900807
 20
505.1942390982964
 42
0.0
 97
        0
 92
        7
 72
     1
 73
     1
 93
       12
 10
103.3527584900807
 20
505.1942390982963
 42
0.0
 10
103.3527584900807
 20
503.1942390982965
 42
0.0
 10
130.8527584900807
 20
503.1942390982965
 42
-0.1324846866320397
 10
149.9603245696835
 20
498.0408662997856
 42
0.0
 10
187.8357743722486
 20
476.0079295401665
 42
0.1324846866320387
 10
190.8527584900806
 20
475.1942390982964
 42
0.0
 10
198.3527584900806
 20
475.1942390982963
 42
0.0
 10
198.3527584900805
 20
477.1942390982964
 42
0.0
 10
190.8527584900807
 20
477.1942390982964
 42
-0.1324846866320415
 10
188.8414357448593
 20
477.7366993928765
 42
0.0
 10
150.9659859422942
 20
499.7696361524956
 42
0.1324846866320405
 10
130.8527584900806
 20
505.1942390982964
 42
0.0
 97
        0
 92
        7
 72
     0
 73
     1
 93
        4
 10
211.3527584900807
 20
475.1942390982965
 10
211.3527584900807
 20
477.1942390982965
 10
198.3527584900806
 20
477.1942390982964
 10
198.3527584900807
 20
475.1942390982965
 97
        0
 92
        7
 72
     0
 73
     1
 93
        4
 10
287.3527584900807
 20
477.1942390982964
 10
287.3527584900807
 20
475.1942390982965
 10
300.3527584900807
 20
475.1942390982965
 10
300.3527584900806
 20
477.1942390982964
 97
        0
 75
     0
 76
     0
 52
45.0
 41
2.0
 77
     0
 78
     1
 53
45.0
 43
17.89013689286361
 44
60.20039648382902
 45
-1.414213562373094
 46
1.414213562373095
 79
     0
 47
0.3060430538636909
 98
        4
 10
373.9305212273206
 20
504.41111059044
 10
113.0899676891321
 20
504.41111059044
 10
206.7721385710888
 20
475.9491072202005
 10
292.1882343238057
 20
476.2551497565049
  0
LINE
  5
59A
330
1E
100
AcDbEntity
  8
STEMPEL
100
AcDbLine
 10
103.3527584900807
 20
505.1942390982964
 30
0.0
 11
212.8527584900806
 21
505.1942390982964
 31
0.0
  0
LINE
  5
59B
330
1E
100
AcDbEntity
  8
STEMPEL
100
AcDbLine
 10
103.3527584900807
 20
503.1942390982965
 30
0.0
 11
130.8527584900807
 21
503.1942390982965
 31
0.0
  0
LINE
  5
59C
330
1E
100
AcDbEntity
  8
STEMPEL
100
AcDbLine
 10
103.3527584900807
 20
505.1942390982964
 30
0.0
 11
103.3527584900807
 21
503.1942390982965
 31
0.0
  0
LINE
  5
59D
330
1E
100
AcDbEntity
  8
STEMPEL
100
AcDbLine
 10
395.3527584900807
 20
505.1942390982964
 30
0.0
 11
395.3527584900807
 21
503.1942390982965
 31
0.0
  0
ARC
  5
59E
330
1E
100
AcDbEntity
  8
STEMPEL
100
AcDbCircle
 10
190.8527584900807
 20
481.1942390982964
 30
0.0
 40
4.0
100
AcDbArc
 50
239.8125459251757
 51
270.0
  0
ARC
  5
59F
330
1E
100
AcDbEntity
  8
STEMPEL
100
AcDbCircle
 10
307.8527584900807
 20
481.1942390982964
 30
0.0
 40
4.0
100
AcDbArc
 50
270.0
 51
300.1874540748243
  0
ARC
  5
5A0
330
1E
100
AcDbEntity
  8
STEMPEL
100
AcDbCircle
 10
367.8527584900807
 20
465.1942390982965
 30
0.0
 40
40.0
100
AcDbArc
 50
90.0
 51
120.1874540748243
  0
ARC
  5
5A1
330
1E
100
AcDbEntity
  8
STEMPEL
100
AcDbCircle
 10
130.8527584900807
 20
465.1942390982965
 30
0.0
 40
40.0
100
AcDbArc
 50
59.81254592517572
 51
90.0
  0
ARC
  5
5A2
330
1E
100
AcDbEntity
  8
STEMPEL
100
AcDbCircle
 10
367.8527584900807
 20
465.1942390982965
 30
0.0
 40
38.0
100
AcDbArc
 50
90.0
 51
120.1874540748243
  0
LINE
  5
5A3
330
1E
100
AcDbEntity
  8
STEMPEL
100
AcDbLine
 10
348.7451924104778
 20
498.0408662997856
 30
0.0
 11
310.8697426079126
 21
476.0079295401665
 31
0.0
  0
ARC
  5
5A4
330
1E
100
AcDbEntity
  8
STEMPEL
100
AcDbCircle
 10
307.8527584900807
 20
481.1942390982964
 30
0.0
 40
6.0
100
AcDbArc
 50
270.0
 51
300.1874540748243
  0
LINE
  5
5A5
330
1E
100
AcDbEntity
  8
STEMPEL
100
AcDbLine
 10
367.8527584900807
 20
503.1942390982965
 30
0.0
 11
395.3527584900807
 21
503.1942390982965
 31
0.0
  0
ARC
  5
5A6
330
1E
100
AcDbEntity
  8
STEMPEL
100
AcDbCircle
 10
130.8527584900807
 20
465.1942390982965
 30
0.0
 40
38.0
100
AcDbArc
 50
59.81254592517572
 51
90.0
  0
LINE
  5
5A7
330
1E
100
AcDbEntity
  8
STEMPEL
100
AcDbLine
 10
149.9603245696835
 20
498.0408662997856
 30
0.0
 11
187.8357743722486
 21
476.0079295401665
 31
0.0
  0
ARC
  5
5A8
330
1E
100
AcDbEntity
  8
STEMPEL
100
AcDbCircle
 10
190.8527584900807
 20
481.1942390982964
 30
0.0
 40
6.0
100
AcDbArc
 50
239.8125459251757
 51
270.0
  0
LINE
  5
5A9
330
1E
100
AcDbEntity
  8
STEMPEL
100
AcDbLine
 10
211.3527584900807
 20
477.1942390982964
 30
0.0
 11
211.3527584900807
 21
475.1942390982964
 31
0.0
  0
LINE
  5
5AA
330
1E
100
AcDbEntity
  8
STEMPEL
100
AcDbLine
 10
287.3527584900807
 20
477.1942390982964
 30
0.0
 11
287.3527584900807
 21
475.1942390982964
 31
0.0
  0
LINE
  5
5AB
330
1E
100
AcDbEntity
  8
STEMPEL
100
AcDbLine
 10
150.9659859422942
 20
499.7696361524956
 30
0.0
 11
188.8414357448593
 21
477.7366993928765
 31
0.0
  0
LINE
  5
5AC
102
{ACAD_REACTORS
330
56E
102
}
330
1E
100
AcDbEntity
  8
STEMPEL
100
AcDbLine
 10
347.7395310378672
 20
499.7696361524956
 30
0.0
 11
309.8640812353021
 21
477.7366993928765
 31
0.0
  0
LINE
  5
5AD
330
1E
100
AcDbEntity
  8
MITTEL
100
AcDbLine
 10
300.3527584900807
 20
502.1942390982966
 30
0.0
 11
300.3527584900807
 21
475.1942390982963
 31
0.0
  0
LINE
  5
5AE
330
1E
100
AcDbEntity
  8
STEMPEL
100
AcDbLine
 10
304.3527584900807
 20
496.1942390982965
 30
0.0
 11
304.3527584900806
 21
491.2527136067973
 31
0.0
  0
LINE
  5
5AF
330
1E
100
AcDbEntity
  8
HILF
100
AcDbLine
 10
303.3527584900807
 20
497.1942390982966
 30
0.0
 11
303.3527584900807
 21
491.2527136067973
 31
0.0
  0
LINE
  5
5B0
330
1E
100
AcDbEntity
  8
STEMPEL
100
AcDbLine
 10
296.3527584900807
 20
496.1942390982965
 30
0.0
 11
296.3527584900807
 21
491.2527136067973
 31
0.0
  0
LINE
  5
5B1
330
1E
100
AcDbEntity
  8
HILF
100
AcDbLine
 10
297.3527584900807
 20
497.1942390982966
 30
0.0
 11
297.3527584900807
 21
491.2527136067973
 31
0.0
  0
LINE
  5
5B2
330
1E
100
AcDbEntity
  8
STEMPEL
100
AcDbLine
 10
297.3527584900807
 20
497.1942390982966
 30
0.0
 11
303.3527584900807
 21
497.1942390982966
 31
0.0
  0
LINE
  5
5B3
330
1E
100
AcDbEntity
  8
STEMPEL
100
AcDbLine
 10
296.3527584900807
 20
496.1942390982965
 30
0.0
 11
304.3527584900807
 21
496.1942390982965
 31
0.0
  0
LINE
  5
5B4
330
1E
100
AcDbEntity
  8
STEMPEL
100
AcDbLine
 10
296.3527584900807
 20
496.1942390982965
 30
0.0
 11
297.3527584900807
 21
497.1942390982966
 31
0.0
  0
LINE
  5
5B5
330
1E
100
AcDbEntity
  8
STEMPEL
100
AcDbLine
 10
303.3527584900807
 20
497.1942390982966
 30
0.0
 11
304.3527584900807
 21
496.1942390982965
 31
0.0
  0
LINE
  5
5B6
330
1E
100
AcDbEntity
  8
MITTEL
100
AcDbLine
 10
198.3527584900805
 20
502.1942390982966
 30
0.0
 11
198.3527584900806
 21
475.1942390982964
 31
0.0
  0
LINE
  5
5B7
330
1E
100
AcDbEntity
  8
STEMPEL
100
AcDbLine
 10
202.3527584900807
 20
496.1942390982965
 30
0.0
 11
202.3527584900807
 21
491.2527136067973
 31
0.0
  0
LINE
  5
5B8
330
1E
100
AcDbEntity
  8
HILF
100
AcDbLine
 10
201.3527584900807
 20
497.1942390982966
 30
0.0
 11
201.3527584900807
 21
491.2527136067973
 31
0.0
  0
LINE
  5
5B9
330
1E
100
AcDbEntity
  8
STEMPEL
100
AcDbLine
 10
194.3527584900807
 20
496.1942390982965
 30
0.0
 11
194.3527584900807
 21
491.2527136067973
 31
0.0
  0
LINE
  5
5BA
330
1E
100
AcDbEntity
  8
HILF
100
AcDbLine
 10
195.3527584900807
 20
497.1942390982966
 30
0.0
 11
195.3527584900807
 21
491.2527136067973
 31
0.0
  0
LINE
  5
5BB
330
1E
100
AcDbEntity
  8
STEMPEL
100
AcDbLine
 10
195.3527584900807
 20
497.1942390982966
 30
0.0
 11
201.3527584900807
 21
497.1942390982966
 31
0.0
  0
LINE
  5
5BC
330
1E
100
AcDbEntity
  8
STEMPEL
100
AcDbLine
 10
194.3527584900807
 20
496.1942390982965
 30
0.0
 11
202.3527584900806
 21
496.1942390982965
 31
0.0
  0
LINE
  5
5BD
330
1E
100
AcDbEntity
  8
STEMPEL
100
AcDbLine
 10
194.3527584900807
 20
496.1942390982965
 30
0.0
 11
195.3527584900807
 21
497.1942390982966
 31
0.0
  0
LINE
  5
5BE
330
1E
100
AcDbEntity
  8
STEMPEL
100
AcDbLine
 10
201.3527584900807
 20
497.1942390982966
 30
0.0
 11
202.3527584900807
 21
496.1942390982965
 31
0.0
  0
LINE
  5
5BF
330
1E
100
AcDbEntity
  8
STEMPEL
100
AcDbLine
 10
190.8527584900807
 20
477.1942390982964
 30
0.0
 11
211.3527584900807
 21
477.1942390982964
 31
0.0
  0
LINE
  5
5C0
330
1E
100
AcDbEntity
  8
STEMPEL
100
AcDbLine
 10
190.8527584900807
 20
475.1942390982964
 30
0.0
 11
211.3527584900807
 21
475.1942390982964
 31
0.0
  0
DIMENSION
  5
5C1
330
1E
100
AcDbEntity
  8
BEM
100
AcDbDimension
  2
*D5
 10
395.3527584900807
 20
517.777007259357
 30
0.0
 11
249.3527584900807
 21
524.2770072593571
 31
0.0
 70
    32
  1
%%C<>
 71
     5
 42
292.0
  3
Standard
100
AcDbAlignedDimension
 13
103.3527584900807
 23
505.1942390982964
 33
0.0
 14
395.3527584900807
 24
505.1942390982964
 34
0.0
100
AcDbRotatedDimension
1001
ACAD
1000
DSTYLE
1002
{
1070
    40
1040
2.0
1070
    41
1040
3.5
1070
    42
1040
1.0
1070
    43
1040
7.0
1070
    44
1040
1.0
1070
    73
1070
     0
1070
    74
1070
     0
1070
    77
1070
     1
1070
    78
1070
     8
1070
    79
1070
     2
1070
   140
1040
3.5
1070
   141
1040
1.5
1070
   146
1040
0.5142857142857144
1070
   147
1040
1.5
1070
   172
1070
     1
1070
   178
1070
     1
1070
   179
1070
     2
1070
   271
1070
     2
1070
   272
1070
     2
1070
   284
1070
     8
1070
   285
1070
     8
1070
   286
1070
     8
1002
}
  0
LINE
  5
5C2
330
1E
100
AcDbEntity
  8
STEMPEL
100
AcDbLine
 10
202.3527584900807
 20
477.1942390982964
 30
0.0
 11
211.3527584900806
 21
477.1942390982964
 31
0.0
  0
TEXT
  5
5C4
330
1E
100
AcDbEntity
  8
TEXT
 62
     1
100
AcDbText
 10
350.1617863747281
 20
451.8375020695331
 30
0.0
 40
7.0
  1
Etageneinsatz DN70
 41
0.8
  7
GREEKS
100
AcDbText
  0
LINE
  5
5C7
330
1E
100
AcDbEntity
  8
TEXT
 62
     2
100
AcDbLine
 10
348.8890991520105
 20
448.3073922561293
 30
0.0
 11
285.3230524004508
 21
437.4956598841182
 31
0.0
  0
LINE
  5
6BB
330
1E
100
AcDbEntity
  8
STEMPEL
100
AcDbLine
 10
287.7498200055087
 20
397.1942390982966
 30
0.0
 11
285.8527584900808
 21
397.1942390982966
 31
0.0
  0
LINE
  5
6BF
102
{ACAD_REACTORS
330
6FF
102
}
330
1E
100
AcDbEntity
  8
STEMPEL
100
AcDbLine
 10
212.8527584900807
 20
391.1942390982966
 30
0.0
 11
212.8527584900806
 21
372.866418072216
 31
0.0
  0
LINE
  5
6C0
102
{ACAD_REACTORS
330
6FF
102
}
330
1E
100
AcDbEntity
  8
STEMPEL
100
AcDbLine
 10
208.9527584900807
 20
377.1942390982965
 30
0.0
 11
211.494728892176
 21
377.1942390982966
 31
0.0
  0
ARC
  5
6C1
102
{ACAD_REACTORS
330
6FF
102
}
330
1E
100
AcDbEntity
  8
STEMPEL
100
AcDbCircle
 10
210.6357653376902
 20
378.3318179609874
 30
0.0
 40
0.7312245447849949
100
AcDbArc
 50
2.813365876565988
 51
169.1280957824138
  0
LINE
  5
6C4
102
{ACAD_REACTORS
330
6FF
102
}
330
1E
100
AcDbEntity
  8
STEMPEL
100
AcDbLine
 10
209.5647234365892
 20
377.1942390982966
 30
0.0
 11
209.9176653081112
 21
378.4697370764669
 31
0.0
  0
ARC
  5
6CA
102
{ACAD_REACTORS
330
6FF
102
}
330
1E
100
AcDbEntity
  8
STEMPEL
100
AcDbCircle
 10
306.0846964277575
 20
388.1557359177163
 30
0.0
 40
95.22298236720223
100
AcDbArc
 50
185.8998884032364
 51
189.2395946206953
  0
ARC
  5
6CB
102
{ACAD_REACTORS
330
6FF
102
}
330
1E
100
AcDbEntity
  8
STEMPEL
100
AcDbCircle
 10
210.9556969746526
 20
396.1942390982966
 30
0.0
 40
1.0
100
AcDbArc
 50
10.00000000000181
 51
150.588086334471
  0
LINE
  5
6CE
102
{ACAD_REACTORS
330
6FF
102
}
330
1E
100
AcDbEntity
  8
STEMPEL
100
AcDbLine
 10
207.5527584900807
 20
392.1942390982966
 30
0.0
 11
210.0845852573034
 21
396.6853239951289
 31
0.0
  0
LINE
  5
6D0
102
{ACAD_REACTORS
330
6FF
102
}
330
1E
100
AcDbEntity
  8
STEMPEL
100
AcDbLine
 10
212.8527584900807
 20
391.1942390982966
 30
0.0
 11
211.9405047276648
 21
396.3678872759635
 31
0.0
  0
LINE
  5
6D1
102
{ACAD_REACTORS
330
6FF
102
}
330
1E
100
AcDbEntity
  8
STEMPEL
100
AcDbLine
 10
212.8527584900806
 20
372.866418072216
 30
0.0
 11
212.0971806039856
 21
372.8664180722161
 31
0.0
  0
LINE
  5
6D3
330
1E
100
AcDbEntity
  8
STEMPEL
100
AcDbLine
 10
288.8648136770225
 20
396.2527136067974
 30
0.0
 11
296.3527584900808
 21
396.2527136067975
 31
0.0
  0
LINE
  5
6D4
102
{ACAD_REACTORS
330
6FF
102
}
330
1E
100
AcDbEntity
  8
STEMPEL
100
AcDbLine
 10
287.2527584900808
 20
390.1942390982965
 30
0.0
 11
307.8527584900808
 21
390.1942390982965
 31
0.0
  0
LINE
  5
6D5
330
1E
100
AcDbEntity
  8
STEMPEL
100
AcDbLine
 10
287.3527584900807
 20
392.1942390982965
 30
0.0
 11
296.3527584900809
 21
392.1942390982965
 31
0.0
  0
LINE
  5
6D6
102
{ACAD_REACTORS
330
6FF
102
}
330
1E
100
AcDbEntity
  8
STEMPEL
100
AcDbLine
 10
287.3527584900807
 20
392.1942390982966
 30
0.0
 11
307.8527584900808
 21
392.1942390982966
 31
0.0
  0
ARC
  5
6D7
102
{ACAD_REACTORS
330
6FF
102
}
330
1E
100
AcDbEntity
  8
STEMPEL
100
AcDbCircle
 10
192.620820552404
 20
388.1557359177148
 30
0.0
 40
95.22298236720223
100
AcDbArc
 50
350.7604053793063
 51
354.1001115967653
  0
LINE
  5
6D8
102
{ACAD_REACTORS
330
6FF
102
}
330
1E
100
AcDbEntity
  8
STEMPEL
100
AcDbLine
 10
289.1407935435726
 20
377.1942390982977
 30
0.0
 11
288.7878516720506
 21
378.469737076468
 31
0.0
  0
ARC
  5
6D9
102
{ACAD_REACTORS
330
6FF
102
}
330
1E
100
AcDbEntity
  8
STEMPEL
100
AcDbCircle
 10
288.0697516424715
 20
378.3318179609885
 30
0.0
 40
0.7312245447849949
100
AcDbArc
 50
10.87190421758781
 51
177.1866341234356
  0
LINE
  5
6DA
102
{ACAD_REACTORS
330
6FF
102
}
330
1E
100
AcDbEntity
  8
STEMPEL
100
AcDbLine
 10
289.752758490081
 20
377.1942390982977
 30
0.0
 11
287.2107880879858
 21
377.1942390982977
 31
0.0
  0
LINE
  5
6DB
102
{ACAD_REACTORS
330
6FF
102
}
330
1E
100
AcDbEntity
  8
STEMPEL
100
AcDbLine
 10
285.8527584900807
 20
391.1942390982977
 30
0.0
 11
285.8527584900813
 21
372.8664180722171
 31
0.0
  0
LINE
  5
6DC
102
{ACAD_REACTORS
330
6FF
102
}
330
1E
100
AcDbEntity
  8
STEMPEL
100
AcDbLine
 10
285.8527584900813
 20
372.8664180722171
 30
0.0
 11
286.6083363761763
 21
372.8664180722172
 31
0.0
  0
LINE
  5
6DD
102
{ACAD_REACTORS
330
6FF
102
}
330
1E
100
AcDbEntity
  8
STEMPEL
100
AcDbLine
 10
285.8527584900807
 20
391.1942390982977
 30
0.0
 11
286.7650122524964
 21
396.3678872759646
 31
0.0
  0
LINE
  5
6DE
102
{ACAD_REACTORS
330
6FF
102
}
330
1E
100
AcDbEntity
  8
STEMPEL
100
AcDbLine
 10
291.1527584900807
 20
392.1942390982978
 30
0.0
 11
288.6209317228578
 21
396.6853239951301
 31
0.0
  0
ARC
  5
6DF
102
{ACAD_REACTORS
330
6FF
102
}
330
1E
100
AcDbEntity
  8
STEMPEL
100
AcDbCircle
 10
287.7498200055086
 20
396.1942390982977
 30
0.0
 40
1.0
100
AcDbArc
 50
29.41191366553063
 51
169.9999999999998
  0
HATCH
  5
6FF
330
1E
100
AcDbEntity
  8
SCHRAFF
100
AcDbHatch
 10
0.0
 20
0.0
 30
0.0
210
0.0
220
0.0
230
1.0
  2
NET
 70
     0
 71
     1
 91
        2
 92
        7
 72
     1
 73
     1
 93
       14
 10
285.8527584900813
 20
372.8664180722172
 42
0.0
 10
286.6083363761763
 20
372.8664180722172
 42
0.0145732489413956
 10
287.3394084319828
 20
378.3677084860501
 42
-0.8871764228042565
 10
288.7878516720506
 20
378.469737076468
 42
0.0
 10
289.1407935435726
 20
377.1942390982977
 42
0.0
 10
289.7527584900807
 20
377.1942390982978
 42
0.0
 10
289.7527584900807
 20
379.670456508372
 42
0.1171484945869486
 10
287.2527584900808
 20
390.1942390982965
 42
0.0
 10
287.3527584900807
 20
390.1942390982965
 42
0.0
 10
287.3527584900807
 20
392.1942390982966
 42
0.0
 10
291.1527584900813
 20
392.1942390982966
 42
0.0
 10
288.6209317228578
 20
396.6853239951301
 42
0.7040385315424038
 10
286.7650122524964
 20
396.3678872759646
 42
0.0
 10
285.8527584900807
 20
391.1942390982975
 42
0.0
 97
       14
330
6D4
330
3A0
330
6D6
330
6DE
330
6DF
330
6DD
330
6DB
330
6DC
330
6D7
330
6D9
330
6D8
330
6DA
330
37D
330
37C
 92
        7
 72
     1
 73
     1
 93
       14
 10
208.9527584900807
 20
379.6704565083719
 42
0.0
 10
208.9527584900807
 20
377.1942390982965
 42
0.0
 10
209.5647234365891
 20
377.1942390982966
 42
0.0
 10
209.9176653081112
 20
378.4697370764669
 42
-0.8871764228019635
 10
211.3661085481787
 20
378.3677084860517
 42
0.0145732489414025
 10
212.0971806039856
 20
372.8664180722161
 42
0.0
 10
212.8527584900806
 20
372.866418072216
 42
0.0
 10
212.8527584900806
 20
391.1942390982968
 42
0.0
 10
211.9405047276648
 20
396.3678872759635
 42
0.704038531542393
 10
210.0845852573034
 20
396.6853239951289
 42
0.0
 10
207.5527584900807
 20
392.1942390982966
 42
0.0
 10
211.3527584900808
 20
392.1942390982966
 42
0.0
 10
211.3527584900807
 20
390.1942390982965
 42
0.0
 10
211.4527584900807
 20
390.1942390982966
 42
0.1171484945869506
 97
       14
330
6D0
330
6CB
330
6CE
330
3B9
330
39F
330
3B6
330
363
330
362
330
6C0
330
6C4
330
6C1
330
6CA
330
6D1
330
6BF
 75
     0
 76
     1
 52
45.0
 41
15.0
 77
     0
 78
     2
 53
45.0
 43
0.0
 44
0.0
 45
-1.325825214724776
 46
1.325825214724776
 79
     0
 53
135.0
 43
0.0
 44
0.0
 45
-1.325825214724776
 46
-1.325825214724776
 79
     0
 47
0.1888887242235635
 98
        2
 10
287.1302119519942
 20
380.701447672403
 10
210.7934300540933
 20
382.4014465041832
  0
LINE
  5
712
330
1E
100
AcDbEntity
  8
STEMPEL
100
AcDbLine
 10
285.8527584900807
 20
418.2527136067974
 30
0.0
 11
340.3527584900806
 21
418.2527136067974
 31
0.0
  0
LINE
  5
713
330
1E
100
AcDbEntity
  8
STEMPEL
100
AcDbLine
 10
285.8527584900808
 20
420.1942390982964
 30
0.0
 11
395.3527584900808
 21
420.1942390982964
 31
0.0
  0
LINE
  5
714
330
1E
100
AcDbEntity
  8
STEMPEL
100
AcDbLine
 10
285.8527584900808
 20
398.2527136067973
 30
0.0
 11
310.3527584900807
 21
398.2527136067974
 31
0.0
  0
LINE
  5
715
330
1E
100
AcDbEntity
  8
STEMPEL
100
AcDbLine
 10
212.8527584900807
 20
397.1942390982966
 30
0.0
 11
210.9556969746526
 21
397.1942390982966
 31
0.0
  0
LINE
  5
722
330
1E
100
AcDbEntity
  8
MITTEL
100
AcDbLine
 10
249.3527584900807
 20
425.1465708552382
 30
0.0
 11
249.3527584900809
 21
165.1942390982965
 31
0.0
  0
LINE
  5
803
330
1E
100
AcDbEntity
  8
TEXT
 62
     2
100
AcDbLine
 10
352.4753633216749
 20
564.0390170091211
 30
0.0
 11
454.5758915691156
 21
564.0390170091211
 31
0.0
  0
TEXT
  5
804
330
1E
100
AcDbEntity
  8
TEXT
 62
     1
100
AcDbText
 10
353.4855694690667
 20
567.2658837899807
 30
0.0
 40
7.0
  1
Entwässerungsring
 41
0.8
  7
GREEKS
100
AcDbText
  0
TEXT
  5
805
330
1E
100
AcDbEntity
  8
TEXT
 62
     1
100
AcDbText
 10
353.4855694690667
 20
554.7752001132708
 30
0.0
 40
7.0
  1
EDV-Art.Nr.19098.000X
 41
0.8
  7
GREEKS
100
AcDbText
  0
LINE
  5
806
330
1E
100
AcDbEntity
  8
TEXT
 62
     2
100
AcDbLine
 10
288.3506128124955
 20
495.1053800323899
 30
0.0
 11
308.0784294820259
 21
516.3126384130093
 31
0.0
  0
LINE
  5
807
330
1E
100
AcDbEntity
  8
TEXT
 62
     2
100
AcDbLine
 10
349.890084216995
 20
614.2158703739749
 30
0.0
 11
455.4122181825857
 21
614.2158703739749
 31
0.0
  0
LINE
  5
808
330
1E
100
AcDbEntity
  8
TEXT
 62
     2
100
AcDbLine
 10
350.4317607920101
 20
589.3026129437657
 30
0.0
 11
451.8090513481747
 21
589.3026129437657
 31
0.0
  0
TEXT
  5
809
330
1E
100
AcDbEntity
  8
TEXT
 62
     1
100
AcDbText
 10
352.0176366922566
 20
617.1384536602215
 30
0.0
 40
7.0
  1
Edelstahlsieb
 41
0.8
  7
GREEKS
100
AcDbText
  0
TEXT
  5
80A
330
1E
100
AcDbEntity
  8
TEXT
 62
     1
100
AcDbText
 10
352.0176366922566
 20
604.8116263643374
 30
0.0
 40
7.0
  1
EDV-Art-Nr.15096.000X
 41
0.8
  7
GREEKS
100
AcDbText
  0
TEXT
  5
80B
330
1E
100
AcDbEntity
  8
TEXT
 62
     1
100
AcDbText
 10
352.078506310576
 20
592.1574271858207
 30
0.0
 40
7.0
  1
Siebaufnahme
 41
0.8
  7
GREEKS
100
AcDbText
  0
TEXT
  5
80C
330
1E
100
AcDbEntity
  8
TEXT
 62
     1
100
AcDbText
 10
352.078506310576
 20
580.6109913131368
 30
0.0
 40
7.0
  1
EDV-Art.Nr.15094.000X
 41
0.8
  7
GREEKS
100
AcDbText
  0
LINE
  5
80D
330
1E
100
AcDbEntity
  8
TEXT
 62
     2
100
AcDbLine
 10
283.3293481374227
 20
574.4341246696911
 30
0.0
 11
350.4317607920101
 21
589.3026129437657
 31
0.0
  0
LINE
  5
80E
330
1E
100
AcDbEntity
  8
TEXT
 62
     2
100
AcDbLine
 10
288.9309194950976
 20
636.6397295965223
 30
0.0
 11
349.890084216995
 21
614.2158703739749
 31
0.0
  0
DIMENSION
  5
810
330
1E
100
AcDbEntity
  8
BEM
100
AcDbDimension
  2
*D6
 10
299.8527584900807
 20
647.4870395293453
 30
0.0
 11
250.7891156159537
 21
647.4870395293453
 31
0.0
 70
   160
  1
<>
 71
     5
 42
100.9999999999998
  3
Standard
100
AcDbAlignedDimension
 13
198.8527584900808
 23
637.1942390982965
 33
0.0
 14
299.8527584900807
 24
637.1942390982965
 34
0.0
100
AcDbRotatedDimension
1001
ACAD
1000
DSTYLE
1002
{
1070
    40
1040
2.0
1070
    41
1040
3.5
1070
    42
1040
1.0
1070
    43
1040
7.0
1070
    44
1040
1.0
1070
    73
1070
     0
1070
    74
1070
     0
1070
    77
1070
     1
1070
    78
1070
     8
1070
    79
1070
     2
1070
   140
1040
3.5
1070
   141
1040
1.5
1070
   146
1040
0.5142857142857144
1070
   147
1040
1.5
1070
   172
1070
     1
1070
   178
1070
     1
1070
   179
1070
     2
1070
   271
1070
     2
1070
   272
1070
     2
1070
   284
1070
     8
1070
   285
1070
     8
1070
   286
1070
     8
1002
}
  0
LWPOLYLINE
  5
811
330
1E
100
AcDbEntity
  8
BEM
 62
     1
100
AcDbPolyline
 90
        4
 70
     1
 43
0.0
 10
236.7397722680158
 20
657.489749941343
 10
236.7397722680158
 20
650.489749941343
 10
243.7397722680158
 20
650.489749941343
 10
243.7397722680158
 20
657.489749941343
  0
LINE
  5
812
330
1E
100
AcDbEntity
  8
STEMPEL
100
AcDbLine
 10
296.3527584900806
 20
631.1942390982965
 30
0.0
 11
296.3527584900806
 21
634.6942390982965
 31
0.0
  0
LINE
  5
813
330
1E
100
AcDbEntity
  8
STEMPEL
100
AcDbLine
 10
202.3527584900806
 20
631.1942390982965
 30
0.0
 11
202.3527584900806
 21
634.6942390982965
 31
0.0
  0
ARC
  5
814
330
1E
100
AcDbEntity
  8
STEMPEL
100
AcDbCircle
 10
293.8527584900807
 20
634.6942390982965
 30
0.0
 40
2.5
100
AcDbArc
 50
0.0
 51
90.0
  0
ARC
  5
815
330
1E
100
AcDbEntity
  8
STEMPEL
100
AcDbCircle
 10
204.8527584900806
 20
634.6942390982965
 30
0.0
 40
2.5
100
AcDbArc
 50
90.0
 51
180.0
  0
LINE
  5
816
330
1E
100
AcDbEntity
  8
STEMPEL
100
AcDbLine
 10
243.6603703346555
 20
633.1942390982963
 30
0.0
 11
243.6603703346555
 21
633.6942390982965
 31
0.0
  0
LINE
  5
817
330
1E
100
AcDbEntity
  8
STEMPEL
100
AcDbLine
 10
235.2106228663496
 20
633.1942390982963
 30
0.0
 11
235.2106228663496
 21
633.6942390982965
 31
0.0
  0
ARC
  5
818
330
1E
100
AcDbEntity
  8
STEMPEL
100
AcDbCircle
 10
204.8527584900806
 20
634.6942390982965
 30
0.0
 40
1.25
100
AcDbArc
 50
90.0
 51
180.0
  0
LINE
  5
819
330
1E
100
AcDbEntity
  8
STEMPEL
100
AcDbLine
 10
251.5451466455058
 20
635.9442390982965
 30
0.0
 11
247.1603703346555
 21
635.9442390982965
 31
0.0
  0
LINE
  5
81A
330
1E
100
AcDbEntity
  8
STEMPEL
100
AcDbLine
 10
203.6027584900806
 20
631.1942390982965
 30
0.0
 11
203.6027584900806
 21
634.6942390982965
 31
0.0
  0
ARC
  5
81B
330
1E
100
AcDbEntity
  8
STEMPEL
100
AcDbCircle
 10
293.8527584900807
 20
634.6942390982965
 30
0.0
 40
1.25
100
AcDbArc
 50
0.0
 51
90.0
  0
LINE
  5
81C
330
1E
100
AcDbEntity
  8
STEMPEL
100
AcDbLine
 10
295.1027584900806
 20
631.1942390982965
 30
0.0
 11
295.1027584900806
 21
634.6942390982965
 31
0.0
  0
LINE
  5
81D
330
1E
100
AcDbEntity
  8
STEMPEL
100
AcDbLine
 10
291.5794178929676
 20
633.1942390982965
 30
0.0
 11
207.1260990871936
 21
633.1942390982965
 31
0.0
  0
LINE
  5
81E
330
1E
100
AcDbEntity
  8
STEMPEL
100
AcDbLine
 10
226.7253414921111
 20
633.1942390982963
 30
0.0
 11
226.7253414921111
 21
633.6942390982965
 31
0.0
  0
LINE
  5
81F
330
1E
100
AcDbEntity
  8
STEMPEL
100
AcDbLine
 10
216.8258465554994
 20
633.1942390982965
 30
0.0
 11
216.8258465554994
 21
633.6942390982965
 31
0.0
  0
LINE
  5
820
330
1E
100
AcDbEntity
  8
STEMPEL
100
AcDbLine
 10
207.1260990871936
 20
633.1942390982963
 30
0.0
 11
207.1260990871936
 21
633.6942390982965
 31
0.0
  0
ARC
  5
821
330
1E
100
AcDbEntity
  8
STEMPEL
100
AcDbCircle
 10
204.8760990871936
 20
633.6942390982965
 30
0.0
 40
2.25
100
AcDbArc
 50
0.0
 51
90.0
  0
ARC
  5
822
330
1E
100
AcDbEntity
  8
STEMPEL
100
AcDbCircle
 10
213.3258465554994
 20
633.6942390982965
 30
0.0
 40
2.25
100
AcDbArc
 50
0.0
 51
90.0
  0
LINE
  5
823
330
1E
100
AcDbEntity
  8
STEMPEL
100
AcDbLine
 10
215.5758465554994
 20
633.1942390982963
 30
0.0
 11
215.5758465554994
 21
633.6942390982965
 31
0.0
  0
LINE
  5
824
330
1E
100
AcDbEntity
  8
STEMPEL
100
AcDbLine
 10
233.9606228663496
 20
633.1942390982963
 30
0.0
 11
233.9606228663496
 21
633.6942390982965
 31
0.0
  0
ARC
  5
825
330
1E
100
AcDbEntity
  8
STEMPEL
100
AcDbCircle
 10
231.7106228663496
 20
633.6942390982965
 30
0.0
 40
2.25
100
AcDbArc
 50
0.0
 51
90.0
  0
ARC
  5
826
330
1E
100
AcDbEntity
  8
STEMPEL
100
AcDbCircle
 10
230.2253414921111
 20
633.6942390982965
 30
0.0
 40
2.25
100
AcDbArc
 50
90.0
 51
180.0
  0
LINE
  5
827
330
1E
100
AcDbEntity
  8
STEMPEL
100
AcDbLine
 10
227.9753414921111
 20
633.1942390982963
 30
0.0
 11
227.9753414921111
 21
633.6942390982965
 31
0.0
  0
LINE
  5
828
330
1E
100
AcDbEntity
  8
STEMPEL
100
AcDbLine
 10
244.9103703346555
 20
633.1942390982963
 30
0.0
 11
244.9103703346555
 21
633.6942390982965
 31
0.0
  0
ARC
  5
829
330
1E
100
AcDbEntity
  8
STEMPEL
100
AcDbCircle
 10
247.1603703346555
 20
633.6942390982965
 30
0.0
 40
2.25
100
AcDbArc
 50
90.0
 51
180.0
  0
LINE
  5
82A
330
1E
100
AcDbEntity
  8
STEMPEL
100
AcDbLine
 10
231.7106228663496
 20
635.9442390982965
 30
0.0
 11
230.2253414921111
 21
635.9442390982965
 31
0.0
  0
LINE
  5
82B
330
1E
100
AcDbEntity
  8
STEMPEL
100
AcDbLine
 10
213.3258465554994
 20
635.9442390982965
 30
0.0
 11
204.8527584900806
 21
635.9442390982965
 31
0.0
  0
ARC
  5
82C
330
1E
100
AcDbEntity
  8
STEMPEL
100
AcDbCircle
 10
213.3258465554994
 20
633.6942390982965
 30
0.0
 40
3.5
100
AcDbArc
 50
0.0
 51
90.0
  0
ARC
  5
82D
330
1E
100
AcDbEntity
  8
STEMPEL
100
AcDbCircle
 10
230.2253414921111
 20
633.6942390982965
 30
0.0
 40
3.5
100
AcDbArc
 50
90.0
 51
180.0
  0
ARC
  5
82E
330
1E
100
AcDbEntity
  8
STEMPEL
100
AcDbCircle
 10
231.7106228663496
 20
633.6942390982965
 30
0.0
 40
3.5
100
AcDbArc
 50
0.0
 51
90.0
  0
ARC
  5
82F
330
1E
100
AcDbEntity
  8
STEMPEL
100
AcDbCircle
 10
247.1603703346555
 20
633.6942390982965
 30
0.0
 40
3.5
100
AcDbArc
 50
90.0
 51
180.0
  0
ARC
  5
830
330
1E
100
AcDbEntity
  8
STEMPEL
100
AcDbCircle
 10
251.5451466455058
 20
633.6942390982965
 30
0.0
 40
3.5
100
AcDbArc
 50
0.0
 51
90.0
  0
ARC
  5
831
330
1E
100
AcDbEntity
  8
STEMPEL
100
AcDbCircle
 10
266.9948941138117
 20
633.6942390982962
 30
0.0
 40
3.5
100
AcDbArc
 50
90.0
 51
180.0
  0
ARC
  5
832
330
1E
100
AcDbEntity
  8
STEMPEL
100
AcDbCircle
 10
268.4801754880502
 20
633.6942390982962
 30
0.0
 40
3.5
100
AcDbArc
 50
0.0
 51
90.0
  0
ARC
  5
833
330
1E
100
AcDbEntity
  8
STEMPEL
100
AcDbCircle
 10
285.3796704246619
 20
633.6942390982962
 30
0.0
 40
3.5
100
AcDbArc
 50
90.0
 51
180.0
  0
LINE
  5
834
330
1E
100
AcDbEntity
  8
STEMPEL
100
AcDbLine
 10
285.379670424662
 20
635.9442390982962
 30
0.0
 11
293.8527584900807
 21
635.9442390982962
 31
0.0
  0
LINE
  5
835
330
1E
100
AcDbEntity
  8
STEMPEL
100
AcDbLine
 10
266.9948941138117
 20
635.9442390982962
 30
0.0
 11
268.4801754880502
 21
635.9442390982962
 31
0.0
  0
ARC
  5
836
330
1E
100
AcDbEntity
  8
STEMPEL
100
AcDbCircle
 10
251.5451466455058
 20
633.6942390982965
 30
0.0
 40
2.25
100
AcDbArc
 50
0.0
 51
90.0
  0
LINE
  5
837
330
1E
100
AcDbEntity
  8
STEMPEL
100
AcDbLine
 10
253.7951466455059
 20
633.1942390982963
 30
0.0
 11
253.7951466455058
 21
633.6942390982965
 31
0.0
  0
LINE
  5
838
330
1E
100
AcDbEntity
  8
STEMPEL
100
AcDbLine
 10
270.7301754880502
 20
633.1942390982963
 30
0.0
 11
270.7301754880502
 21
633.6942390982962
 31
0.0
  0
ARC
  5
839
330
1E
100
AcDbEntity
  8
STEMPEL
100
AcDbCircle
 10
268.4801754880502
 20
633.6942390982962
 30
0.0
 40
2.25
100
AcDbArc
 50
0.0
 51
90.0
  0
ARC
  5
83A
330
1E
100
AcDbEntity
  8
STEMPEL
100
AcDbCircle
 10
266.9948941138117
 20
633.6942390982962
 30
0.0
 40
2.25
100
AcDbArc
 50
90.0
 51
180.0
  0
LINE
  5
83B
330
1E
100
AcDbEntity
  8
STEMPEL
100
AcDbLine
 10
264.7448941138117
 20
633.1942390982963
 30
0.0
 11
264.7448941138117
 21
633.6942390982962
 31
0.0
  0
LINE
  5
83C
330
1E
100
AcDbEntity
  8
STEMPEL
100
AcDbLine
 10
283.1296704246619
 20
633.1942390982963
 30
0.0
 11
283.129670424662
 21
633.6942390982962
 31
0.0
  0
ARC
  5
83D
330
1E
100
AcDbEntity
  8
STEMPEL
100
AcDbCircle
 10
285.3796704246619
 20
633.6942390982962
 30
0.0
 40
2.25
100
AcDbArc
 50
90.0
 51
180.0
  0
ARC
  5
83E
330
1E
100
AcDbEntity
  8
STEMPEL
100
AcDbCircle
 10
293.8294178929677
 20
633.6942390982962
 30
0.0
 40
2.25
100
AcDbArc
 50
90.0
 51
180.0
  0
LINE
  5
83F
330
1E
100
AcDbEntity
  8
STEMPEL
100
AcDbLine
 10
291.5794178929677
 20
633.1942390982963
 30
0.0
 11
291.5794178929677
 21
633.6942390982962
 31
0.0
  0
LINE
  5
840
330
1E
100
AcDbEntity
  8
STEMPEL
100
AcDbLine
 10
281.8796704246619
 20
633.1942390982963
 30
0.0
 11
281.8796704246619
 21
633.6942390982962
 31
0.0
  0
LINE
  5
841
330
1E
100
AcDbEntity
  8
STEMPEL
100
AcDbLine
 10
271.9801754880502
 20
633.1942390982963
 30
0.0
 11
271.9801754880502
 21
633.6942390982962
 31
0.0
  0
LINE
  5
842
330
1E
100
AcDbEntity
  8
STEMPEL
100
AcDbLine
 10
263.4948941138117
 20
633.1942390982963
 30
0.0
 11
263.4948941138117
 21
633.6942390982962
 31
0.0
  0
LINE
  5
843
330
1E
100
AcDbEntity
  8
STEMPEL
100
AcDbLine
 10
255.0451466455058
 20
633.1942390982963
 30
0.0
 11
255.0451466455058
 21
633.6942390982965
 31
0.0
  0
HATCH
  5
844
330
1E
100
AcDbEntity
  8
SCHRAFF
100
AcDbHatch
 10
0.0
 20
0.0
 30
0.0
210
0.0
220
0.0
230
1.0
  2
_USER
 70
     0
 71
     0
 91
        6
 92
        7
 72
     1
 73
     1
 93
       12
 10
213.3258465554994
 20
637.1942390982965
 42
0.0
 10
204.8527584900806
 20
637.1942390982965
 42
0.4142135623730951
 10
202.3527584900806
 20
634.6942390982965
 42
0.0
 10
202.3527584900806
 20
631.1942390982965
 42
0.0
 10
203.6027584900806
 20
631.1942390982965
 42
0.0
 10
203.6027584900806
 20
634.6942390982965
 42
-0.4142135623730951
 10
204.8527584900806
 20
635.9442390982965
 42
0.0
 10
213.3258465554994
 20
635.9442390982965
 42
-0.4142135623730934
 10
215.5758465554994
 20
633.6942390982965
 42
0.0
 10
215.5758465554994
 20
633.1942390982965
 42
0.0
 10
216.8258465554994
 20
633.1942390982965
 42
0.0
 10
216.8258465554994
 20
633.6942390982965
 42
0.4142135623730964
 97
        0
 92
        7
 72
     1
 73
     1
 93
       12
 10
231.7106228663496
 20
637.1942390982965
 42
0.0
 10
230.2253414921111
 20
637.1942390982965
 42
0.4142135623730951
 10
226.7253414921111
 20
633.6942390982965
 42
0.0
 10
226.7253414921111
 20
633.1942390982965
 42
0.0
 10
227.9753414921111
 20
633.1942390982965
 42
0.0
 10
227.9753414921111
 20
633.6942390982965
 42
-0.4142135623730934
 10
230.2253414921111
 20
635.9442390982965
 42
0.0
 10
231.7106228663496
 20
635.9442390982965
 42
-0.4142135623730934
 10
233.9606228663496
 20
633.6942390982965
 42
0.0
 10
233.9606228663496
 20
633.1942390982965
 42
0.0
 10
235.2106228663496
 20
633.1942390982963
 42
0.0
 10
235.2106228663496
 20
633.6942390982965
 42
0.4142135623730964
 97
        0
 92
        7
 72
     1
 73
     1
 93
        8
 10
249.3527584900807
 20
637.1942390982965
 42
0.0
 10
247.1603703346555
 20
637.1942390982965
 42
0.4142135623731023
 10
243.6603703346555
 20
633.6942390982965
 42
0.0
 10
243.6603703346555
 20
633.1942390982965
 42
0.0
 10
244.9103703346555
 20
633.1942390982965
 42
0.0
 10
244.9103703346555
 20
633.6942390982965
 42
-0.4142135623730934
 10
247.1603703346555
 20
635.9442390982965
 42
0.0
 10
249.3527584900807
 20
635.9442390982965
 42
0.0
 97
        0
 92
        7
 72
     1
 73
     1
 93
        8
 10
251.5451466455058
 20
637.1942390982965
 42
0.0
 10
249.3527584900806
 20
637.1942390982965
 42
0.0
 10
249.3527584900806
 20
635.9442390982965
 42
0.0
 10
251.5451466455058
 20
635.9442390982965
 42
-0.4142135623730934
 10
253.7951466455058
 20
633.6942390982965
 42
0.0
 10
253.7951466455059
 20
633.1942390982965
 42
0.0
 10
255.0451466455059
 20
633.1942390982965
 42
0.0
 10
255.0451466455058
 20
633.6942390982965
 42
0.4142135623730975
 97
        0
 92
        7
 72
     1
 73
     1
 93
       12
 10
268.4801754880502
 20
637.1942390982965
 42
0.0
 10
266.9948941138117
 20
637.1942390982965
 42
0.4142135623730985
 10
263.4948941138117
 20
633.6942390982962
 42
0.0
 10
263.4948941138117
 20
633.1942390982965
 42
0.0
 10
264.7448941138117
 20
633.1942390982965
 42
0.0
 10
264.7448941138117
 20
633.6942390982962
 42
-0.4142135623730951
 10
266.9948941138117
 20
635.9442390982962
 42
0.0
 10
268.4801754880502
 20
635.9442390982962
 42
-0.4142135623730951
 10
270.7301754880502
 20
633.6942390982962
 42
0.0
 10
270.7301754880502
 20
633.1942390982965
 42
0.0
 10
271.9801754880502
 20
633.1942390982965
 42
0.0
 10
271.9801754880502
 20
633.6942390982962
 42
0.4142135623730999
 97
        0
 92
        7
 72
     1
 73
     1
 93
       12
 10
293.8527584900807
 20
637.1942390982965
 42
0.0
 10
285.3796704246619
 20
637.1942390982965
 42
0.4142135623731022
 10
281.8796704246619
 20
633.6942390982962
 42
0.0
 10
281.8796704246619
 20
633.1942390982965
 42
0.0
 10
283.129670424662
 20
633.1942390982965
 42
0.0
 10
283.129670424662
 20
633.6942390982962
 42
-0.4142135623730951
 10
285.379670424662
 20
635.9442390982962
 42
0.0
 10
293.8527584900807
 20
635.9442390982962
 42
-0.4142135623730432
 10
295.1027584900806
 20
634.6942390982965
 42
0.0
 10
295.1027584900806
 20
631.1942390982965
 42
0.0
 10
296.3527584900806
 20
631.1942390982963
 42
0.0
 10
296.3527584900806
 20
634.6942390982965
 42
0.4142135623730964
 97
        0
 75
     0
 76
     0
 52
45.0
 41
2.0
 77
     0
 78
     1
 53
45.0
 43
138.6396097191995
 44
385.8445502073688
 45
-1.414213562373094
 46
1.414213562373095
 79
     0
 47
0.19196931903384
 98
        6
 10
211.6828537366213
 20
636.5196665649964
 10
229.35703539895
 20
636.5196665649964
 10
248.1838818486441
 20
636.3276973127085
 10
250.8734307607132
 20
636.3276973127085
 10
267.5870586594157
 20
636.7116358172845
 10
287.1823478489968
 20
636.7116358172845
  0
LINE
  5
845
330
1E
100
AcDbEntity
  8
STEMPEL
100
AcDbLine
 10
285.8527584900805
 20
500.1942390982964
 30
0.0
 11
289.3527584900807
 21
500.1942390982964
 31
0.0
  0
LINE
  5
846
330
1E
100
AcDbEntity
  8
STEMPEL
100
AcDbLine
 10
296.0527584900806
 20
635.8816733070002
 30
0.0
 11
296.0527584900806
 21
637.1942390982965
 31
0.0
  0
LINE
  5
847
102
{ACAD_REACTORS
330
89F
102
}
330
1E
100
AcDbEntity
  8
STEMPEL
100
AcDbLine
 10
296.8527584900805
 20
637.1942390982965
 30
0.0
 11
296.8527584900805
 21
631.1942390982965
 31
0.0
  0
LINE
  5
848
102
{ACAD_REACTORS
330
89F
102
}
330
1E
100
AcDbEntity
  8
STEMPEL
100
AcDbLine
 10
299.8527584900805
 20
637.1942390982965
 30
0.0
 11
299.8527584900805
 21
628.1942390982965
 31
0.0
  0
LINE
  5
849
102
{ACAD_REACTORS
330
89F
102
}
330
1E
100
AcDbEntity
  8
STEMPEL
100
AcDbLine
 10
285.3527584900805
 20
606.1942390982965
 30
0.0
 11
285.8527584900805
 21
606.1942390982965
 31
0.0
  0
LINE
  5
84A
102
{ACAD_REACTORS
330
89F
102
}
330
1E
100
AcDbEntity
  8
STEMPEL
100
AcDbLine
 10
285.3527584900805
 20
609.1942390982967
 30
0.0
 11
285.8527584900805
 21
609.1942390982965
 31
0.0
  0
LINE
  5
84B
102
{ACAD_REACTORS
330
89F
102
}
330
1E
100
AcDbEntity
  8
STEMPEL
100
AcDbLine
 10
285.3527584900805
 20
609.1942390982967
 30
0.0
 11
285.3527584900805
 21
606.1942390982965
 31
0.0
  0
LINE
  5
84C
102
{ACAD_REACTORS
330
89F
102
}
330
1E
100
AcDbEntity
  8
STEMPEL
100
AcDbLine
 10
285.8527584900805
 20
621.1942390982965
 30
0.0
 11
285.8527584900805
 21
609.1942390982965
 31
0.0
  0
LINE
  5
84D
102
{ACAD_REACTORS
330
89F
102
}
330
1E
100
AcDbEntity
  8
STEMPEL
100
AcDbLine
 10
285.8527584900805
 20
621.1942390982965
 30
0.0
 11
292.8527584900804
 21
628.1942390982965
 31
0.0
  0
LINE
  5
84E
102
{ACAD_REACTORS
330
89F
102
}
330
1E
100
AcDbEntity
  8
STEMPEL
100
AcDbLine
 10
291.3527584900805
 20
631.1942390982965
 30
0.0
 11
281.3527584900805
 21
621.1942390982965
 31
0.0
  0
LINE
  5
84F
102
{ACAD_REACTORS
330
89F
102
}
330
1E
100
AcDbEntity
  8
STEMPEL
100
AcDbLine
 10
292.8527584900804
 20
628.1942390982965
 30
0.0
 11
299.8527584900805
 21
628.1942390982965
 31
0.0
  0
LINE
  5
850
102
{ACAD_REACTORS
330
89F
102
}
330
1E
100
AcDbEntity
  8
STEMPEL
100
AcDbLine
 10
285.3527584900805
 20
594.1942390982965
 30
0.0
 11
285.8527584900805
 21
594.1942390982965
 31
0.0
  0
LINE
  5
851
102
{ACAD_REACTORS
330
89F
102
}
330
1E
100
AcDbEntity
  8
STEMPEL
100
AcDbLine
 10
285.3527584900805
 20
591.1942390982964
 30
0.0
 11
285.8527584900805
 21
591.1942390982964
 31
0.0
  0
LINE
  5
852
102
{ACAD_REACTORS
330
89F
102
}
330
1E
100
AcDbEntity
  8
STEMPEL
100
AcDbLine
 10
285.3527584900805
 20
591.1942390982964
 30
0.0
 11
285.3527584900805
 21
594.1942390982965
 31
0.0
  0
LINE
  5
853
102
{ACAD_REACTORS
330
89F
102
}
330
1E
100
AcDbEntity
  8
STEMPEL
100
AcDbLine
 10
285.3527584900805
 20
579.1942390982965
 30
0.0
 11
285.8527584900805
 21
579.1942390982965
 31
0.0
  0
LINE
  5
854
102
{ACAD_REACTORS
330
89F
102
}
330
1E
100
AcDbEntity
  8
STEMPEL
100
AcDbLine
 10
285.3527584900805
 20
576.1942390982967
 30
0.0
 11
285.8527584900805
 21
576.1942390982965
 31
0.0
  0
LINE
  5
855
102
{ACAD_REACTORS
330
89F
102
}
330
1E
100
AcDbEntity
  8
STEMPEL
100
AcDbLine
 10
285.3527584900805
 20
579.1942390982967
 30
0.0
 11
285.3527584900805
 21
576.1942390982967
 31
0.0
  0
LINE
  5
856
102
{ACAD_REACTORS
330
89F
102
}
330
1E
100
AcDbEntity
  8
STEMPEL
100
AcDbLine
 10
285.3527584900805
 20
564.1942390982968
 30
0.0
 11
285.8527584900805
 21
564.1942390982965
 31
0.0
  0
LINE
  5
857
102
{ACAD_REACTORS
330
89F
102
}
330
1E
100
AcDbEntity
  8
STEMPEL
100
AcDbLine
 10
285.3527584900805
 20
561.1942390982967
 30
0.0
 11
285.8527584900805
 21
561.1942390982965
 31
0.0
  0
LINE
  5
858
102
{ACAD_REACTORS
330
89F
102
}
330
1E
100
AcDbEntity
  8
STEMPEL
100
AcDbLine
 10
285.3527584900805
 20
564.1942390982968
 30
0.0
 11
285.3527584900805
 21
561.1942390982965
 31
0.0
  0
LINE
  5
859
102
{ACAD_REACTORS
330
89F
102
}
330
1E
100
AcDbEntity
  8
STEMPEL
100
AcDbLine
 10
285.8527584900805
 20
576.1942390982965
 30
0.0
 11
285.8527584900805
 21
564.1942390982965
 31
0.0
  0
LINE
  5
85A
102
{ACAD_REACTORS
330
89F
102
}
330
1E
100
AcDbEntity
  8
STEMPEL
100
AcDbLine
 10
285.8527584900805
 20
591.1942390982964
 30
0.0
 11
285.8527584900805
 21
579.1942390982965
 31
0.0
  0
LINE
  5
85B
102
{ACAD_REACTORS
330
89F
102
}
330
1E
100
AcDbEntity
  8
STEMPEL
100
AcDbLine
 10
285.3527584900805
 20
549.1942390982964
 30
0.0
 11
285.8527584900805
 21
549.1942390982964
 31
0.0
  0
LINE
  5
85C
102
{ACAD_REACTORS
330
89F
102
}
330
1E
100
AcDbEntity
  8
STEMPEL
100
AcDbLine
 10
285.3527584900805
 20
546.1942390982965
 30
0.0
 11
285.8527584900805
 21
546.1942390982965
 31
0.0
  0
LINE
  5
85D
102
{ACAD_REACTORS
330
89F
102
}
330
1E
100
AcDbEntity
  8
STEMPEL
100
AcDbLine
 10
285.3527584900805
 20
549.1942390982964
 30
0.0
 11
285.3527584900805
 21
546.1942390982965
 31
0.0
  0
LINE
  5
85E
102
{ACAD_REACTORS
330
89F
102
}
330
1E
100
AcDbEntity
  8
STEMPEL
100
AcDbLine
 10
285.3527584900805
 20
531.1942390982965
 30
0.0
 11
285.8527584900805
 21
531.1942390982965
 31
0.0
  0
LINE
  5
85F
102
{ACAD_REACTORS
330
89F
102
}
330
1E
100
AcDbEntity
  8
STEMPEL
100
AcDbLine
 10
285.3527584900805
 20
534.1942390982965
 30
0.0
 11
285.8527584900805
 21
534.1942390982965
 31
0.0
  0
LINE
  5
860
102
{ACAD_REACTORS
330
89F
102
}
330
1E
100
AcDbEntity
  8
STEMPEL
100
AcDbLine
 10
285.3527584900805
 20
534.1942390982965
 30
0.0
 11
285.3527584900805
 21
531.1942390982965
 31
0.0
  0
LINE
  5
861
102
{ACAD_REACTORS
330
89F
102
}
330
1E
100
AcDbEntity
  8
STEMPEL
100
AcDbLine
 10
285.3527584900805
 20
516.1942390982964
 30
0.0
 11
285.8527584900805
 21
516.1942390982964
 31
0.0
  0
LINE
  5
862
102
{ACAD_REACTORS
330
89F
102
}
330
1E
100
AcDbEntity
  8
STEMPEL
100
AcDbLine
 10
285.3527584900805
 20
519.1942390982965
 30
0.0
 11
285.8527584900805
 21
519.1942390982965
 31
0.0
  0
LINE
  5
863
102
{ACAD_REACTORS
330
89F
102
}
330
1E
100
AcDbEntity
  8
STEMPEL
100
AcDbLine
 10
285.3527584900805
 20
519.1942390982965
 30
0.0
 11
285.3527584900805
 21
516.1942390982964
 31
0.0
  0
LINE
  5
864
102
{ACAD_REACTORS
330
89F
102
}
330
1E
100
AcDbEntity
  8
STEMPEL
100
AcDbLine
 10
285.8527584900805
 20
531.1942390982967
 30
0.0
 11
285.8527584900805
 21
519.1942390982965
 31
0.0
  0
LINE
  5
865
102
{ACAD_REACTORS
330
89F
102
}
330
1E
100
AcDbEntity
  8
STEMPEL
100
AcDbLine
 10
285.8527584900805
 20
546.1942390982965
 30
0.0
 11
285.8527584900805
 21
534.1942390982967
 31
0.0
  0
LINE
  5
866
102
{ACAD_REACTORS
330
89F
102
}
330
1E
100
AcDbEntity
  8
STEMPEL
100
AcDbLine
 10
285.8527584900805
 20
561.1942390982967
 30
0.0
 11
285.8527584900805
 21
549.1942390982964
 31
0.0
  0
LINE
  5
867
102
{ACAD_REACTORS
330
89F
102
}
330
1E
100
AcDbEntity
  8
STEMPEL
100
AcDbLine
 10
285.3527584900805
 20
504.1942390982965
 30
0.0
 11
285.8527584900805
 21
504.1942390982965
 31
0.0
  0
LINE
  5
868
102
{ACAD_REACTORS
330
89F
102
}
330
1E
100
AcDbEntity
  8
STEMPEL
100
AcDbLine
 10
285.3527584900805
 20
501.1942390982965
 30
0.0
 11
285.8527584900805
 21
501.1942390982965
 31
0.0
  0
LINE
  5
869
102
{ACAD_REACTORS
330
89F
102
}
330
1E
100
AcDbEntity
  8
STEMPEL
100
AcDbLine
 10
285.3527584900805
 20
504.1942390982965
 30
0.0
 11
285.3527584900805
 21
501.1942390982965
 31
0.0
  0
LINE
  5
86A
102
{ACAD_REACTORS
330
89F
102
}
330
1E
100
AcDbEntity
  8
STEMPEL
100
AcDbLine
 10
283.8527584900806
 20
487.1942390982965
 30
0.0
 11
285.8527584900805
 21
487.1942390982965
 31
0.0
  0
LINE
  5
86B
102
{ACAD_REACTORS
330
89F
102
}
330
1E
100
AcDbEntity
  8
STEMPEL
100
AcDbLine
 10
285.8527584900805
 20
501.1942390982965
 30
0.0
 11
285.8527584900805
 21
487.1942390982965
 31
0.0
  0
LINE
  5
86C
102
{ACAD_REACTORS
330
89F
102
}
330
1E
100
AcDbEntity
  8
STEMPEL
100
AcDbLine
 10
285.8527584900805
 20
516.1942390982964
 30
0.0
 11
285.8527584900805
 21
504.1942390982965
 31
0.0
  0
LINE
  5
86D
102
{ACAD_REACTORS
330
89F
102
}
330
1E
100
AcDbEntity
  8
STEMPEL
100
AcDbLine
 10
285.8527584900805
 20
606.1942390982965
 30
0.0
 11
285.8527584900805
 21
594.1942390982965
 31
0.0
  0
LINE
  5
86E
102
{ACAD_REACTORS
330
89F
102
}
330
1E
100
AcDbEntity
  8
STEMPEL
100
AcDbLine
 10
281.3527584900805
 20
621.1942390982965
 30
0.0
 11
283.8527584900806
 21
487.1942390982965
 31
0.0
  0
LINE
  5
86F
330
1E
100
AcDbEntity
  8
STEMPEL
100
AcDbLine
 10
218.6027584900806
 20
631.1942390982965
 30
0.0
 11
218.6027584900806
 21
633.1942390982965
 31
0.0
  0
LINE
  5
870
102
{ACAD_REACTORS
330
89F
102
}
330
1E
100
AcDbEntity
  8
STEMPEL
100
AcDbLine
 10
213.3527584900807
 20
609.1942390982967
 30
0.0
 11
213.3527584900807
 21
606.1942390982965
 31
0.0
  0
LINE
  5
871
102
{ACAD_REACTORS
330
89F
102
}
330
1E
100
AcDbEntity
  8
STEMPEL
100
AcDbLine
 10
213.3527584900807
 20
609.1942390982967
 30
0.0
 11
212.8527584900806
 21
609.1942390982965
 31
0.0
  0
LINE
  5
872
102
{ACAD_REACTORS
330
89F
102
}
330
1E
100
AcDbEntity
  8
STEMPEL
100
AcDbLine
 10
213.3527584900807
 20
606.1942390982965
 30
0.0
 11
212.8527584900806
 21
606.1942390982965
 31
0.0
  0
LINE
  5
873
102
{ACAD_REACTORS
330
89F
102
}
330
1E
100
AcDbEntity
  8
STEMPEL
100
AcDbLine
 10
212.8527584900807
 20
621.1942390982965
 30
0.0
 11
212.8527584900807
 21
609.1942390982965
 31
0.0
  0
LINE
  5
874
330
1E
100
AcDbEntity
  8
MITTEL
100
AcDbLine
 10
214.3527584900806
 20
626.1942390982965
 30
0.0
 11
214.3527584900807
 21
640.6942390982965
 31
0.0
  0
LINE
  5
875
330
1E
100
AcDbEntity
  8
STEMPEL
100
AcDbLine
 10
210.1027584900807
 20
631.1942390982965
 30
0.0
 11
210.1027584900807
 21
633.1942390982965
 31
0.0
  0
LINE
  5
876
330
1E
100
AcDbEntity
  8
STEMPEL
100
AcDbLine
 10
202.6527584900807
 20
635.8816733070002
 30
0.0
 11
202.6527584900807
 21
637.1942390982965
 31
0.0
  0
LINE
  5
877
102
{ACAD_REACTORS
330
89F
102
}
330
1E
100
AcDbEntity
  8
STEMPEL
100
AcDbLine
 10
201.8527584900807
 20
637.1942390982965
 30
0.0
 11
201.8527584900806
 21
631.1942390982965
 31
0.0
  0
LINE
  5
878
102
{ACAD_REACTORS
330
89F
102
}
330
1E
100
AcDbEntity
  8
STEMPEL
100
AcDbLine
 10
205.8527584900808
 20
628.1942390982965
 30
0.0
 11
198.8527584900806
 21
628.1942390982965
 31
0.0
  0
LINE
  5
879
102
{ACAD_REACTORS
330
89F
102
}
330
1E
100
AcDbEntity
  8
STEMPEL
100
AcDbLine
 10
198.8527584900806
 20
637.1942390982965
 30
0.0
 11
198.8527584900806
 21
628.1942390982965
 31
0.0
  0
LINE
  5
87A
102
{ACAD_REACTORS
330
89F
102
}
330
1E
100
AcDbEntity
  8
STEMPEL
100
AcDbLine
 10
207.3527584900806
 20
631.1942390982965
 30
0.0
 11
217.3527584900806
 21
621.1942390982965
 31
0.0
  0
LINE
  5
87B
102
{ACAD_REACTORS
330
89F
102
}
330
1E
100
AcDbEntity
  8
STEMPEL
100
AcDbLine
 10
212.8527584900807
 20
621.1942390982965
 30
0.0
 11
205.8527584900808
 21
628.1942390982965
 31
0.0
  0
LINE
  5
87C
102
{ACAD_REACTORS
330
89F
102
}
330
1E
100
AcDbEntity
  8
STEMPEL
100
AcDbLine
 10
213.3527584900807
 20
591.1942390982964
 30
0.0
 11
213.3527584900807
 21
594.1942390982965
 31
0.0
  0
LINE
  5
87D
102
{ACAD_REACTORS
330
89F
102
}
330
1E
100
AcDbEntity
  8
STEMPEL
100
AcDbLine
 10
213.3527584900807
 20
591.1942390982964
 30
0.0
 11
212.8527584900806
 21
591.1942390982964
 31
0.0
  0
LINE
  5
87E
102
{ACAD_REACTORS
330
89F
102
}
330
1E
100
AcDbEntity
  8
STEMPEL
100
AcDbLine
 10
213.3527584900807
 20
594.1942390982965
 30
0.0
 11
212.8527584900806
 21
594.1942390982965
 31
0.0
  0
LINE
  5
87F
102
{ACAD_REACTORS
330
89F
102
}
330
1E
100
AcDbEntity
  8
STEMPEL
100
AcDbLine
 10
213.3527584900807
 20
579.1942390982967
 30
0.0
 11
213.3527584900807
 21
576.1942390982967
 31
0.0
  0
LINE
  5
880
102
{ACAD_REACTORS
330
89F
102
}
330
1E
100
AcDbEntity
  8
STEMPEL
100
AcDbLine
 10
213.3527584900807
 20
576.1942390982967
 30
0.0
 11
212.8527584900806
 21
576.1942390982965
 31
0.0
  0
LINE
  5
881
102
{ACAD_REACTORS
330
89F
102
}
330
1E
100
AcDbEntity
  8
STEMPEL
100
AcDbLine
 10
213.3527584900807
 20
579.1942390982965
 30
0.0
 11
212.8527584900806
 21
579.1942390982965
 31
0.0
  0
LINE
  5
882
102
{ACAD_REACTORS
330
89F
102
}
330
1E
100
AcDbEntity
  8
STEMPEL
100
AcDbLine
 10
213.3527584900807
 20
564.1942390982968
 30
0.0
 11
213.3527584900807
 21
561.1942390982965
 31
0.0
  0
LINE
  5
883
102
{ACAD_REACTORS
330
89F
102
}
330
1E
100
AcDbEntity
  8
STEMPEL
100
AcDbLine
 10
213.3527584900807
 20
561.1942390982967
 30
0.0
 11
212.8527584900806
 21
561.1942390982965
 31
0.0
  0
LINE
  5
884
102
{ACAD_REACTORS
330
89F
102
}
330
1E
100
AcDbEntity
  8
STEMPEL
100
AcDbLine
 10
213.3527584900807
 20
564.1942390982968
 30
0.0
 11
212.8527584900806
 21
564.1942390982965
 31
0.0
  0
LINE
  5
885
102
{ACAD_REACTORS
330
89F
102
}
330
1E
100
AcDbEntity
  8
STEMPEL
100
AcDbLine
 10
212.8527584900807
 20
576.1942390982965
 30
0.0
 11
212.8527584900807
 21
564.1942390982965
 31
0.0
  0
LINE
  5
886
102
{ACAD_REACTORS
330
89F
102
}
330
1E
100
AcDbEntity
  8
STEMPEL
100
AcDbLine
 10
212.8527584900807
 20
591.1942390982964
 30
0.0
 11
212.8527584900807
 21
579.1942390982965
 31
0.0
  0
LINE
  5
887
102
{ACAD_REACTORS
330
89F
102
}
330
1E
100
AcDbEntity
  8
STEMPEL
100
AcDbLine
 10
213.3527584900807
 20
549.1942390982964
 30
0.0
 11
212.8527584900806
 21
549.1942390982964
 31
0.0
  0
LINE
  5
888
102
{ACAD_REACTORS
330
89F
102
}
330
1E
100
AcDbEntity
  8
STEMPEL
100
AcDbLine
 10
213.3527584900807
 20
546.1942390982965
 30
0.0
 11
212.8527584900806
 21
546.1942390982965
 31
0.0
  0
LINE
  5
889
102
{ACAD_REACTORS
330
89F
102
}
330
1E
100
AcDbEntity
  8
STEMPEL
100
AcDbLine
 10
213.3527584900807
 20
549.1942390982964
 30
0.0
 11
213.3527584900807
 21
546.1942390982965
 31
0.0
  0
LINE
  5
88A
102
{ACAD_REACTORS
330
89F
102
}
330
1E
100
AcDbEntity
  8
STEMPEL
100
AcDbLine
 10
213.3527584900807
 20
534.1942390982965
 30
0.0
 11
213.3527584900807
 21
531.1942390982965
 31
0.0
  0
LINE
  5
88B
102
{ACAD_REACTORS
330
89F
102
}
330
1E
100
AcDbEntity
  8
STEMPEL
100
AcDbLine
 10
213.3527584900807
 20
534.1942390982965
 30
0.0
 11
212.8527584900806
 21
534.1942390982965
 31
0.0
  0
LINE
  5
88C
102
{ACAD_REACTORS
330
89F
102
}
330
1E
100
AcDbEntity
  8
STEMPEL
100
AcDbLine
 10
213.3527584900807
 20
531.1942390982965
 30
0.0
 11
212.8527584900806
 21
531.1942390982965
 31
0.0
  0
LINE
  5
88D
102
{ACAD_REACTORS
330
89F
102
}
330
1E
100
AcDbEntity
  8
STEMPEL
100
AcDbLine
 10
213.3527584900807
 20
519.1942390982965
 30
0.0
 11
213.3527584900807
 21
516.1942390982964
 31
0.0
  0
LINE
  5
88E
102
{ACAD_REACTORS
330
89F
102
}
330
1E
100
AcDbEntity
  8
STEMPEL
100
AcDbLine
 10
213.3527584900807
 20
516.1942390982964
 30
0.0
 11
212.8527584900806
 21
516.1942390982964
 31
0.0
  0
LINE
  5
88F
102
{ACAD_REACTORS
330
89F
102
}
330
1E
100
AcDbEntity
  8
STEMPEL
100
AcDbLine
 10
213.3527584900807
 20
519.1942390982965
 30
0.0
 11
212.8527584900806
 21
519.1942390982965
 31
0.0
  0
LINE
  5
890
102
{ACAD_REACTORS
330
89F
102
}
330
1E
100
AcDbEntity
  8
STEMPEL
100
AcDbLine
 10
212.8527584900806
 20
531.1942390982967
 30
0.0
 11
212.8527584900806
 21
519.1942390982965
 31
0.0
  0
LINE
  5
891
102
{ACAD_REACTORS
330
89F
102
}
330
1E
100
AcDbEntity
  8
STEMPEL
100
AcDbLine
 10
212.8527584900807
 20
546.1942390982965
 30
0.0
 11
212.8527584900806
 21
534.1942390982967
 31
0.0
  0
LINE
  5
892
102
{ACAD_REACTORS
330
89F
102
}
330
1E
100
AcDbEntity
  8
STEMPEL
100
AcDbLine
 10
212.8527584900807
 20
561.1942390982967
 30
0.0
 11
212.8527584900807
 21
549.1942390982964
 31
0.0
  0
LINE
  5
893
102
{ACAD_REACTORS
330
89F
102
}
330
1E
100
AcDbEntity
  8
STEMPEL
100
AcDbLine
 10
213.3527584900807
 20
504.1942390982965
 30
0.0
 11
212.8527584900806
 21
504.1942390982965
 31
0.0
  0
LINE
  5
894
102
{ACAD_REACTORS
330
89F
102
}
330
1E
100
AcDbEntity
  8
STEMPEL
100
AcDbLine
 10
213.3527584900807
 20
501.1942390982965
 30
0.0
 11
212.8527584900806
 21
501.1942390982965
 31
0.0
  0
LINE
  5
895
102
{ACAD_REACTORS
330
89F
102
}
330
1E
100
AcDbEntity
  8
STEMPEL
100
AcDbLine
 10
213.3527584900807
 20
504.1942390982965
 30
0.0
 11
213.3527584900807
 21
501.1942390982965
 31
0.0
  0
LINE
  5
896
102
{ACAD_REACTORS
330
89F
102
}
330
1E
100
AcDbEntity
  8
STEMPEL
100
AcDbLine
 10
214.8527584900806
 20
487.1942390982965
 30
0.0
 11
212.8527584900806
 21
487.1942390982965
 31
0.0
  0
LINE
  5
897
102
{ACAD_REACTORS
330
89F
102
}
330
1E
100
AcDbEntity
  8
STEMPEL
100
AcDbLine
 10
212.8527584900806
 20
501.1942390982965
 30
0.0
 11
212.8527584900806
 21
487.1942390982965
 31
0.0
  0
LINE
  5
898
102
{ACAD_REACTORS
330
89F
102
}
330
1E
100
AcDbEntity
  8
STEMPEL
100
AcDbLine
 10
212.8527584900806
 20
516.1942390982964
 30
0.0
 11
212.8527584900806
 21
504.1942390982965
 31
0.0
  0
LINE
  5
899
102
{ACAD_REACTORS
330
89F
102
}
330
1E
100
AcDbEntity
  8
STEMPEL
100
AcDbLine
 10
217.3527584900806
 20
621.1942390982965
 30
0.0
 11
214.8527584900806
 21
487.1942390982965
 31
0.0
  0
LINE
  5
89A
102
{ACAD_REACTORS
330
89F
102
}
330
1E
100
AcDbEntity
  8
STEMPEL
100
AcDbLine
 10
212.8527584900807
 20
606.1942390982965
 30
0.0
 11
212.8527584900807
 21
594.1942390982965
 31
0.0
  0
LINE
  5
89B
330
1E
100
AcDbEntity
  8
STEMPEL
100
AcDbLine
 10
214.8527584900806
 20
487.1942390982964
 30
0.0
 11
283.8527584900806
 21
487.1942390982965
 31
0.0
  0
LINE
  5
89C
102
{ACAD_REACTORS
330
89F
102
}
330
1E
100
AcDbEntity
  8
STEMPEL
100
AcDbLine
 10
201.8527584900806
 20
631.1942390982965
 30
0.0
 11
296.8527584900805
 21
631.1942390982965
 31
0.0
  0
LINE
  5
89D
102
{ACAD_REACTORS
330
89F
102
}
330
1E
100
AcDbEntity
  8
STEMPEL
100
AcDbLine
 10
198.8527584900806
 20
637.1942390982965
 30
0.0
 11
299.8527584900805
 21
637.1942390982965
 31
0.0
  0
LINE
  5
89E
330
1E
100
AcDbEntity
  8
STEMPEL
100
AcDbLine
 10
217.3527584900806
 20
621.1942390982965
 30
0.0
 11
281.3527584900805
 21
621.1942390982965
 31
0.0
  0
HATCH
  5
89F
330
1E
100
AcDbEntity
  8
SCHRAFF
100
AcDbHatch
 10
0.0
 20
0.0
 30
0.0
210
0.0
220
0.0
230
1.0
  2
NET
 70
     0
 71
     1
 91
        2
 92
        7
 72
     0
 73
     1
 93
       42
 10
296.8527584900803
 20
631.1942390982965
 10
291.3527584900805
 20
631.1942390982966
 10
281.3527584900805
 20
621.1942390982965
 10
283.8527584900806
 20
487.1942390982966
 10
285.8527584900805
 20
487.1942390982964
 10
285.8527584900805
 20
501.1942390982965
 10
285.3527584900805
 20
501.1942390982965
 10
285.3527584900805
 20
504.1942390982965
 10
285.8527584900805
 20
504.1942390982965
 10
285.8527584900805
 20
516.1942390982964
 10
285.3527584900805
 20
516.1942390982964
 10
285.3527584900805
 20
519.1942390982965
 10
285.8527584900805
 20
519.1942390982965
 10
285.8527584900805
 20
531.1942390982965
 10
285.3527584900805
 20
531.1942390982965
 10
285.3527584900805
 20
534.1942390982965
 10
285.8527584900805
 20
534.1942390982965
 10
285.8527584900805
 20
546.1942390982965
 10
285.3527584900805
 20
546.1942390982965
 10
285.3527584900805
 20
549.1942390982964
 10
285.8527584900805
 20
549.1942390982964
 10
285.8527584900805
 20
561.1942390982965
 10
285.3527584900805
 20
561.1942390982967
 10
285.3527584900805
 20
564.1942390982968
 10
285.8527584900805
 20
564.1942390982965
 10
285.8527584900805
 20
576.1942390982965
 10
285.3527584900805
 20
576.1942390982967
 10
285.3527584900805
 20
579.1942390982965
 10
285.8527584900805
 20
579.1942390982965
 10
285.8527584900805
 20
591.1942390982964
 10
285.3527584900805
 20
591.1942390982964
 10
285.3527584900805
 20
594.1942390982965
 10
285.8527584900805
 20
594.1942390982965
 10
285.8527584900805
 20
606.1942390982965
 10
285.3527584900805
 20
606.1942390982965
 10
285.3527584900805
 20
609.1942390982967
 10
285.8527584900805
 20
609.1942390982965
 10
285.8527584900805
 20
621.1942390982965
 10
292.8527584900805
 20
628.1942390982965
 10
299.8527584900805
 20
628.1942390982966
 10
299.8527584900805
 20
637.1942390982965
 10
296.8527584900805
 20
637.1942390982965
 97
       42
330
89D
330
847
330
89C
330
84E
330
86E
330
86A
330
86B
330
868
330
869
330
867
330
86C
330
861
330
863
330
862
330
864
330
85E
330
860
330
85F
330
865
330
85C
330
85D
330
85B
330
866
330
857
330
858
330
856
330
859
330
854
330
855
330
853
330
85A
330
851
330
852
330
850
330
86D
330
849
330
84B
330
84A
330
84C
330
84D
330
84F
330
848
 92
        7
 72
     0
 73
     1
 93
       42
 10
212.8527584900807
 20
609.1942390982966
 10
213.3527584900807
 20
609.1942390982967
 10
213.3527584900807
 20
606.1942390982965
 10
212.8527584900807
 20
606.1942390982965
 10
212.8527584900808
 20
594.1942390982965
 10
213.3527584900807
 20
594.1942390982965
 10
213.3527584900807
 20
591.1942390982964
 10
212.8527584900807
 20
591.1942390982964
 10
212.8527584900808
 20
579.1942390982965
 10
213.3527584900807
 20
579.1942390982965
 10
213.3527584900807
 20
576.1942390982967
 10
212.8527584900807
 20
576.1942390982965
 10
212.8527584900807
 20
564.1942390982965
 10
213.3527584900807
 20
564.1942390982968
 10
213.3527584900807
 20
561.1942390982967
 10
212.8527584900807
 20
561.1942390982965
 10
212.8527584900807
 20
549.1942390982964
 10
213.3527584900807
 20
549.1942390982964
 10
213.3527584900807
 20
546.1942390982965
 10
212.8527584900807
 20
546.1942390982963
 10
212.8527584900807
 20
534.1942390982965
 10
213.3527584900807
 20
534.1942390982965
 10
213.3527584900807
 20
531.1942390982965
 10
212.8527584900806
 20
531.1942390982965
 10
212.8527584900807
 20
519.1942390982965
 10
213.3527584900807
 20
519.1942390982965
 10
213.3527584900807
 20
516.1942390982964
 10
212.8527584900806
 20
516.1942390982964
 10
212.8527584900806
 20
504.1942390982965
 10
213.3527584900807
 20
504.1942390982965
 10
213.3527584900807
 20
501.1942390982965
 10
212.8527584900806
 20
501.1942390982965
 10
212.8527584900806
 20
487.1942390982965
 10
214.8527584900806
 20
487.1942390982966
 10
217.3527584900806
 20
621.1942390982966
 10
207.3527584900808
 20
631.1942390982964
 10
201.8527584900806
 20
631.1942390982966
 10
201.8527584900807
 20
637.1942390982965
 10
198.8527584900806
 20
637.1942390982965
 10
198.8527584900806
 20
628.1942390982965
 10
205.8527584900809
 20
628.1942390982965
 10
212.8527584900807
 20
621.1942390982965
 97
       42
330
87A
330
89C
330
877
330
89D
330
879
330
878
330
87B
330
873
330
871
330
870
330
872
330
89A
330
87E
330
87C
330
87D
330
886
330
881
330
87F
330
880
330
885
330
884
330
882
330
883
330
892
330
887
330
889
330
888
330
891
330
88B
330
88A
330
88C
330
890
330
88F
330
88D
330
88E
330
898
330
893
330
895
330
894
330
897
330
896
330
899
 75
     0
 76
     1
 52
45.0
 41
15.0
 77
     0
 78
     2
 53
45.0
 43
24.3527584900807
 44
123.6114007190147
 45
-1.325825214724776
 46
1.325825214724776
 79
     0
 53
135.0
 43
24.3527584900807
 44
123.6114007190147
 45
-1.325825214724776
 46
-1.325825214724776
 79
     0
 47
0.33477438141283
 98
        2
 10
297.9353980330383
 20
631.0718498946603
 10
214.8526295080814
 20
612.3244852847951
  0
HATCH
  5
8A0
330
1E
100
AcDbEntity
  8
SCHRAFF
100
AcDbHatch
 10
0.0
 20
0.0
 30
0.0
210
0.0
220
0.0
230
1.0
  2
NET
 70
     0
 71
     0
 91
        2
 92
        7
 72
     0
 73
     1
 93
        8
 10
286.0527584900807
 20
487.1942390982964
 10
283.3527584900807
 20
487.1942390982964
 10
283.3527584900807
 20
472.1942390982964
 10
287.3527584900807
 20
472.1942390982964
 10
287.3527584900807
 20
477.1942390982964
 10
289.3527584900807
 20
477.1942390982964
 10
289.3527584900807
 20
500.1942390982964
 10
286.0527584900807
 20
500.1942390982964
 97
        0
 92
        7
 72
     0
 73
     1
 93
        8
 10
209.3527584900807
 20
477.1942390982964
 10
211.3527584900806
 20
477.1942390982964
 10
211.3527584900807
 20
472.1942390982964
 10
215.3527584900806
 20
472.1942390982964
 10
215.3527584900806
 20
487.1942390982965
 10
212.6527584900806
 20
487.1942390982964
 10
212.6527584900806
 20
500.1942390982964
 10
209.3527584900807
 20
500.1942390982964
 97
        0
 75
     0
 76
     1
 52
45.0
 41
20.0
 77
     0
 78
     2
 53
45.0
 43
136.8527584900806
 44
245.6514058469539
 45
-1.767766952966368
 46
1.767766952966368
 79
     0
 53
135.0
 43
136.8527584900806
 44
245.6514058469539
 45
-1.767766952966368
 46
-1.767766952966368
 79
     0
 47
0.1980523569326961
 98
        2
 10
287.5164937922992
 20
497.5698503191908
 10
210.6284073901146
 20
497.3717982361976
  0
LINE
  5
8A1
330
1E
100
AcDbEntity
  8
STEMPEL
100
AcDbLine
 10
209.3527584900807
 20
500.1942390982964
 30
0.0
 11
212.8527584900806
 21
500.1942390982964
 31
0.0
  0
LINE
  5
8A2
330
1E
100
AcDbEntity
  8
STEMPEL
100
AcDbLine
 10
241.8527584900806
 20
472.1942390982964
 30
0.0
 11
256.8527584900806
 21
472.1942390982964
 31
0.0
  0
LINE
  5
8A3
330
1E
100
AcDbEntity
  8
STEMPEL
100
AcDbLine
 10
289.3527584900807
 20
500.1942390982964
 30
0.0
 11
289.3527584900807
 21
477.1942390982964
 31
0.0
  0
LINE
  5
8A4
330
1E
100
AcDbEntity
  8
STEMPEL
100
AcDbLine
 10
256.8527584900806
 20
487.1942390982964
 30
0.0
 11
256.8527584900806
 21
472.1942390982964
 31
0.0
  0
LINE
  5
8A5
330
1E
100
AcDbEntity
  8
STEMPEL
100
AcDbLine
 10
283.3527584900807
 20
487.1942390982964
 30
0.0
 11
283.3527584900807
 21
472.1942390982964
 31
0.0
  0
LINE
  5
8A6
330
1E
100
AcDbEntity
  8
STEMPEL
100
AcDbLine
 10
287.3527584900807
 20
477.1942390982964
 30
0.0
 11
289.3527584900807
 21
477.1942390982964
 31
0.0
  0
LINE
  5
8A7
330
1E
100
AcDbEntity
  8
STEMPEL
100
AcDbLine
 10
287.3527584900807
 20
477.1942390982964
 30
0.0
 11
287.3527584900807
 21
472.1942390982964
 31
0.0
  0
LINE
  5
8A8
330
1E
100
AcDbEntity
  8
STEMPEL
100
AcDbLine
 10
286.0527584900807
 20
500.1942390982964
 30
0.0
 11
286.0527584900807
 21
487.1942390982964
 31
0.0
  0
LINE
  5
8A9
330
1E
100
AcDbEntity
  8
STEMPEL
100
AcDbLine
 10
283.3527584900807
 20
487.1942390982964
 30
0.0
 11
286.0527584900807
 21
487.1942390982964
 31
0.0
  0
LINE
  5
8AB
330
1E
100
AcDbEntity
  8
STEMPEL
100
AcDbLine
 10
241.8527584900806
 20
487.1942390982965
 30
0.0
 11
256.8527584900806
 21
487.1942390982964
 31
0.0
  0
LINE
  5
8AC
330
1E
100
AcDbEntity
  8
STEMPEL
100
AcDbLine
 10
285.8527584900805
 20
492.1942390982964
 30
0.0
 11
286.0527584900807
 21
492.1942390982964
 31
0.0
  0
LINE
  5
8AD
330
1E
100
AcDbEntity
  8
STEMPEL
100
AcDbLine
 10
211.3527584900806
 20
477.1942390982964
 30
0.0
 11
211.3527584900806
 21
472.1942390982964
 31
0.0
  0
LINE
  5
8AE
330
1E
100
AcDbEntity
  8
STEMPEL
100
AcDbLine
 10
215.3527584900806
 20
487.1942390982964
 30
0.0
 11
215.3527584900806
 21
472.1942390982964
 31
0.0
  0
LINE
  5
8AF
330
1E
100
AcDbEntity
  8
STEMPEL
100
AcDbLine
 10
241.8527584900807
 20
487.1942390982965
 30
0.0
 11
241.8527584900806
 21
472.1942390982964
 31
0.0
  0
LINE
  5
8B0
330
1E
100
AcDbEntity
  8
STEMPEL
100
AcDbLine
 10
212.8527584900806
 20
492.1942390982964
 30
0.0
 11
212.6527584900806
 21
492.1942390982964
 31
0.0
  0
LINE
  5
8B1
330
1E
100
AcDbEntity
  8
STEMPEL
100
AcDbLine
 10
212.6527584900806
 20
500.1942390982964
 30
0.0
 11
212.6527584900806
 21
487.1942390982964
 31
0.0
  0
LINE
  5
8B2
330
1E
100
AcDbEntity
  8
STEMPEL
100
AcDbLine
 10
209.3527584900807
 20
500.1942390982964
 30
0.0
 11
209.3527584900807
 21
477.1942390982964
 31
0.0
  0
LINE
  5
8B3
330
1E
100
AcDbEntity
  8
STEMPEL
100
AcDbLine
 10
215.3527584900807
 20
487.1942390982964
 30
0.0
 11
212.6527584900806
 21
487.1942390982964
 31
0.0
  0
LINE
  5
8B4
330
1E
100
AcDbEntity
  8
STEMPEL
100
AcDbLine
 10
211.3527584900806
 20
477.1942390982964
 30
0.0
 11
209.3527584900807
 21
477.1942390982964
 31
0.0
  0
LINE
  5
8B5
330
1E
100
AcDbEntity
  8
STEMPEL
100
AcDbLine
 10
283.3527584900807
 20
472.1942390982964
 30
0.0
 11
287.3527584900807
 21
472.1942390982964
 31
0.0
  0
LINE
  5
8B6
330
1E
100
AcDbEntity
  8
STEMPEL
100
AcDbLine
 10
215.3527584900806
 20
472.1942390982964
 30
0.0
 11
211.3527584900806
 21
472.1942390982964
 31
0.0
  0
LINE
  5
90C
330
1E
100
AcDbEntity
  8
STEMPEL
100
AcDbLine
 10
285.3527584900805
 20
503.2527136067974
 30
0.0
 11
340.3527584900806
 21
503.2527136067973
 31
0.0
  0
LINE
  5
90D
330
1E
100
AcDbEntity
  8
STEMPEL
100
AcDbLine
 10
285.8527584900805
 20
505.1942390982964
 30
0.0
 11
395.3527584900807
 21
505.1942390982964
 31
0.0
  0
LINE
  5
90E
330
1E
100
AcDbEntity
  8
HILF
100
AcDbLine
 10
241.8527584900807
 20
484.4165291792689
 30
0.0
 11
240.7975464040852
 21
484.4165291792689
 31
0.0
  0
LINE
  5
90F
330
1E
100
AcDbEntity
  8
STEMPEL
100
AcDbLine
 10
256.8527584900806
 20
483.2527136067973
 30
0.0
 11
283.3527584900807
 21
483.2527136067973
 31
0.0
  0
LINE
  5
910
330
1E
100
AcDbEntity
  8
STEMPEL
100
AcDbLine
 10
241.8527584900807
 20
483.2527136067973
 30
0.0
 11
241.0027584900806
 21
483.2527136067973
 31
0.0
  0
LINE
  5
911
330
1E
100
AcDbEntity
  8
STEMPEL
100
AcDbLine
 10
256.8527584900806
 20
481.2527136067973
 30
0.0
 11
283.3527584900807
 21
481.2527136067973
 31
0.0
  0
LINE
  5
912
330
1E
100
AcDbEntity
  8
STEMPEL
100
AcDbLine
 10
256.8527584900806
 20
477.1942390982963
 30
0.0
 11
283.3527584900807
 21
477.1942390982965
 31
0.0
  0
LINE
  5
913
330
1E
100
AcDbEntity
  8
STEMPEL
100
AcDbLine
 10
256.8527584900806
 20
477.1942390982964
 30
0.0
 11
283.3527584900807
 21
477.1942390982964
 31
0.0
  0
LINE
  5
914
330
1E
100
AcDbEntity
  8
STEMPEL
100
AcDbLine
 10
256.8527584900806
 20
475.1942390982964
 30
0.0
 11
283.3527584900807
 21
475.1942390982963
 31
0.0
  0
DIMENSION
  5
915
330
1E
100
AcDbEntity
  8
BEM
100
AcDbDimension
  2
*D7
 10
89.93664539660498
 20
505.1942390982964
 30
0.0
 11
77.60331206327157
 21
462.6942390982965
 31
0.0
 70
    32
  1
min.40 -\Pmax. 120
 71
     5
 42
84.99999999999994
  3
Standard
100
AcDbAlignedDimension
 13
103.3527584900807
 23
420.1942390982964
 33
0.0
 14
103.3527584900807
 24
505.1942390982964
 34
0.0
 50
90.0
100
AcDbRotatedDimension
1001
ACAD
1000
DSTYLE
1002
{
1070
    40
1040
2.0
1070
    41
1040
3.5
1070
    42
1040
1.0
1070
    43
1040
7.0
1070
    44
1040
1.0
1070
    73
1070
     0
1070
    74
1070
     0
1070
    77
1070
     1
1070
    78
1070
     8
1070
    79
1070
     2
1070
   140
1040
3.5
1070
   141
1040
1.5
1070
   146
1040
0.5142857142857144
1070
   147
1040
1.5
1070
   172
1070
     1
1070
   178
1070
     1
1070
   179
1070
     2
1070
   271
1070
     2
1070
   272
1070
     2
1070
   284
1070
     8
1070
   285
1070
     8
1070
   286
1070
     8
1002
}
  0
DIMENSION
  5
922
330
1E
100
AcDbEntity
  8
BEM
100
AcDbDimension
  2
*D8
 10
89.93664539660501
 20
637.1942390982965
 30
0.0
 11
83.4366453966049
 21
571.1942390982965
 31
0.0
 70
    32
  1
min.10 - max.130
 71
     5
 42
132.0
  3
Standard
100
AcDbAlignedDimension
 13
103.3527584900807
 23
505.1942390982964
 33
0.0
 14
198.8527584900806
 24
637.1942390982965
 34
0.0
 50
90.0
100
AcDbRotatedDimension
1001
ACAD
1000
DSTYLE
1002
{
1070
   279
1070
     1
1070
    40
1040
2.0
1070
    41
1040
3.5
1070
    42
1040
1.0
1070
    43
1040
7.0
1070
    44
1040
1.0
1070
    73
1070
     0
1070
    74
1070
     0
1070
    77
1070
     1
1070
    78
1070
     8
1070
    79
1070
     2
1070
   140
1040
3.5
1070
   141
1040
1.5
1070
   146
1040
0.5142857142857144
1070
   147
1040
1.5
1070
   172
1070
     1
1070
   178
1070
     1
1070
   179
1070
     2
1070
   271
1070
     2
1070
   272
1070
     2
1070
   284
1070
     8
1070
   285
1070
     8
1070
   286
1070
     8
1002
}
  0
LINE
  5
92F
330
1E
100
AcDbEntity
  8
STEMPEL
100
AcDbLine
 10
215.3527584900806
 20
483.2527136067974
 30
0.0
 11
241.8527584900807
 21
483.2527136067973
 31
0.0
  0
LINE
  5
930
330
1E
100
AcDbEntity
  8
STEMPEL
100
AcDbLine
 10
215.3527584900807
 20
481.2527136067973
 30
0.0
 11
241.8527584900807
 21
481.2527136067973
 31
0.0
  0
LINE
  5
931
330
1E
100
AcDbEntity
  8
STEMPEL
100
AcDbLine
 10
289.3527584900807
 20
483.2527136067975
 30
0.0
 11
310.3527584900806
 21
483.2527136067973
 31
0.0
  0
LINE
  5
932
330
1E
100
AcDbEntity
  8
STEMPEL
100
AcDbLine
 10
289.3527584900807
 20
481.2527136067973
 30
0.0
 11
296.3527584900808
 21
481.2527136067973
 31
0.0
  0
LINE
  5
933
330
1E
100
AcDbEntity
  8
STEMPEL
100
AcDbLine
 10
287.3527584900807
 20
475.1942390982963
 30
0.0
 11
307.8527584900807
 21
475.1942390982964
 31
0.0
  0
LINE
  5
934
330
1E
100
AcDbEntity
  8
STEMPEL
100
AcDbLine
 10
287.3527584900807
 20
477.1942390982964
 30
0.0
 11
307.8527584900807
 21
477.1942390982964
 31
0.0
  0
LINE
  5
935
330
1E
100
AcDbEntity
  8
STEMPEL
100
AcDbLine
 10
287.3527584900807
 20
477.1942390982964
 30
0.0
 11
296.3527584900808
 21
477.1942390982964
 31
0.0
  0
LINE
  5
936
330
1E
100
AcDbEntity
  8
STEMPEL
100
AcDbLine
 10
215.3527584900806
 20
475.1942390982964
 30
0.0
 11
241.8527584900807
 21
475.1942390982965
 31
0.0
  0
LINE
  5
937
330
1E
100
AcDbEntity
  8
STEMPEL
100
AcDbLine
 10
215.3527584900807
 20
477.1942390982965
 30
0.0
 11
241.8527584900807
 21
477.1942390982964
 31
0.0
  0
LINE
  5
938
330
1E
100
AcDbEntity
  8
STEMPEL
100
AcDbLine
 10
215.3527584900806
 20
477.1942390982964
 30
0.0
 11
241.8527584900807
 21
477.1942390982965
 31
0.0
  0
LINE
  5
939
330
1E
100
AcDbEntity
  8
MITTEL
100
AcDbLine
 10
249.3527584900806
 20
514.5615682447314
 30
0.0
 11
249.3527584900807
 21
441.9422507128547
 31
0.0
  0
TEXT
  5
96D
330
1E
100
AcDbEntity
  8
TEXT
100
AcDbText
 10
504.649691676564
 20
612.2898419893275
 30
0.0
 40
4.0
  1
DIN EN1124-3
 50
90.0
 41
0.8
  7
GREEKS
 72
     1
 11
504.649691676564
 21
629.2803181798038
 31
0.0
100
AcDbText
  0
LINE
  5
970
330
1E
100
AcDbEntity
  8
TEXT
 62
     2
100
AcDbLine
 10
345.8805504359576
 20
515.9288147534458
 30
0.0
 11
339.7996943877148
 21
501.2247662372762
 31
0.0
  0
LINE
  5
971
330
1E
100
AcDbEntity
  8
TEXT
 62
     2
100
AcDbLine
 10
310.8028552063546
 20
519.2413761057049
 30
0.0
 11
352.4753633216749
 21
564.0390170091211
 31
0.0
  0
LINE
  5
97F
330
1E
100
AcDbEntity
  8
TEXT
 62
     2
100
AcDbLine
 10
348.8890991520105
 20
448.3073922561293
 30
0.0
 11
455.8692264221893
 21
448.3073922561293
 31
0.0
  0
TEXT
  5
980
330
1E
100
AcDbEntity
  8
TEXT
 62
     1
100
AcDbText
 10
350.1617863747281
 20
438.9502381988283
 30
0.0
 40
7.0
  1
EDV-Art.Nr. 19060.000X
 41
0.8
  7
GREEKS
100
AcDbText
  0
TEXT
  5
981
330
1E
100
AcDbEntity
  8
TEXT
 62
     1
100
AcDbText
 10
308.7022196623847
 20
197.6983023693958
 30
0.0
 40
7.0
  1
EDV-Art.Nr. 19001.050X
 41
0.8
  7
GREEKS
100
AcDbText
  0
LINE
  5
982
330
1E
100
AcDbEntity
  8
TEXT
 62
     2
100
AcDbLine
 10
307.429532439667
 20
207.0554564266968
 30
0.0
 11
414.4096597098458
 21
207.0554564266968
 31
0.0
  0
ENDSEC
  0
SECTION
  2
OBJECTS
  0
DICTIONARY
  5
C
330
0
100
AcDbDictionary
281
     1
  3
ACAD_COLOR
350
11A
  3
ACAD_GROUP
350
D
  3
ACAD_LAYOUT
350
19
  3
ACAD_MATERIAL
350
119
  3
ACAD_MLINESTYLE
350
16
  3
ACAD_PLOTSETTINGS
350
18
  3
ACAD_PLOTSTYLENAME
350
E
  3
AcDbVariableDictionary
350
125
  0
DICTIONARY
  5
DB
330
1E
100
AcDbDictionary
280
     1
281
     1
  3
ACAD_LAYOUTSELFREF
360
10F
  0
DICTIONARY
  5
DD
330
1A
100
AcDbDictionary
280
     1
281
     1
  3
ACAD_LAYOUTSELFREF
360
10E
  0
DICTIONARY
  5
11A
102
{ACAD_REACTORS
330
C
102
}
330
C
100
AcDbDictionary
281
     1
  0
DICTIONARY
  5
D
102
{ACAD_REACTORS
330
C
102
}
330
C
100
AcDbDictionary
281
     1
  0
DICTIONARY
  5
19
102
{ACAD_REACTORS
330
C
102
}
330
C
100
AcDbDictionary
281
     1
  3
Layout1
350
1D
  3
Model
350
21
  0
DICTIONARY
  5
119
102
{ACAD_REACTORS
330
C
102
}
330
C
100
AcDbDictionary
281
     1
  0
DICTIONARY
  5
16
102
{ACAD_REACTORS
330
C
102
}
330
C
100
AcDbDictionary
281
     1
  3
Standard
350
17
  0
DICTIONARY
  5
18
102
{ACAD_REACTORS
330
C
102
}
330
C
100
AcDbDictionary
281
     1
  0
ACDBDICTIONARYWDFLT
  5
E
102
{ACAD_REACTORS
330
C
102
}
330
C
100
AcDbDictionary
281
     1
  3
Normal
350
F
100
AcDbDictionaryWithDefault
340
F
  0
DICTIONARY
  5
125
102
{ACAD_REACTORS
330
C
102
}
330
C
100
AcDbDictionary
281
     1
  3
DIMASSOC
350
126
  3
PROJECTNAME
350
127
  0
XRECORD
  5
10F
102
{ACAD_REACTORS
330
DB
102
}
330
DB
100
AcDbXrecord
280
     1
340
1E
  0
XRECORD
  5
10E
102
{ACAD_REACTORS
330
DD
102
}
330
DD
100
AcDbXrecord
280
     1
340
1A
  0
LAYOUT
  5
1D
102
{ACAD_REACTORS
330
19
102
}
330
19
100
AcDbPlotSettings
  1

  2
\\NT_WORK01\HP LaserJet 5000 PCL 6
  4

  6

 40
0.0
 41
0.0
 42
0.0
 43
0.0
 44
0.0
 45
0.0
 46
0.0
 47
0.0
 48
0.0
 49
0.0
140
0.0
141
0.0
142
1.0
143
1.0
 70
   688
 72
     0
 73
     0
 74
     5
  7

 75
    16
147
1.0
 76
     0
 77
     2
 78
   300
148
0.0
149
0.0
100
AcDbLayout
  1
Layout1
 70
     0
 71
     1
 10
0.0
 20
0.0
 11
12.0
 21
9.0
 12
0.0
 22
0.0
 32
0.0
 14
1.000000000000000E+20
 24
1.000000000000000E+20
 34
1.000000000000000E+20
 15
-1.000000000000000E+20
 25
-1.000000000000000E+20
 35
-1.000000000000000E+20
146
0.0
 13
0.0
 23
0.0
 33
0.0
 16
1.0
 26
0.0
 36
0.0
 17
0.0
 27
1.0
 37
0.0
 76
     0
330
1A
  0
LAYOUT
  5
21
102
{ACAD_REACTORS
330
19
102
}
330
19
100
AcDbPlotSettings
  1

  2
none_device
  4
Letter_(8.50_x_11.00_Inches)
  6

 40
6.349999904632568
 41
6.349999904632568
 42
6.350006103515625
 43
6.350006103515625
 44
215.8999938964844
 45
279.3999938964844
 46
0.0
 47
0.0
 48
0.0
 49
0.0
140
0.0
141
0.0
142
1.0
143
1.0
 70
 11952
 72
     0
 73
     1
 74
     0
  7

 75
     0
147
1.0
 76
     0
 77
     2
 78
   300
148
3211.660780469763
149
87.46075137249091
100
AcDbLayout
  1
Model
 70
     1
 71
     0
 10
0.0
 20
0.0
 11
12.0
 21
9.0
 12
0.0
 22
0.0
 32
0.0
 14
0.0
 24
0.0
 34
0.0
 15
0.0
 25
0.0
 35
0.0
146
0.0
 13
0.0
 23
0.0
 33
0.0
 16
1.0
 26
0.0
 36
0.0
 17
0.0
 27
1.0
 37
0.0
 76
     0
330
1E
  0
MLINESTYLE
  5
17
102
{ACAD_REACTORS
330
16
102
}
330
16
100
AcDbMlineStyle
  2
STANDARD
 70
     0
  3

 62
   256
 51
90.0
 52
90.0
 71
     2
 49
0.5
 62
   256
  6
BYLAYER
 49
-0.5
 62
   256
  6
BYLAYER
  0
ACDBPLACEHOLDER
  5
F
102
{ACAD_REACTORS
330
E
102
}
330
E
  0
DICTIONARYVAR
  5
126
102
{ACAD_REACTORS
330
125
102
}
330
125
100
DictionaryVariables
280
     0
  1
1
  0
DICTIONARYVAR
  5
127
102
{ACAD_REACTORS
330
125
102
}
330
125
100
DictionaryVariables
280
     0
  1

  0
ENDSEC
  0
EOF
