  0
SECTION
  2
HEADER
  9
$ACADVER
  1
AC1018
  9
$ACADMAINTVER
 70
   104
  9
$DWGCODEPAGE
  3
ANSI_1252
  9
$LASTSAVEDBY
  1
w.koehlhoff
  9
$INSBASE
 10
214.18963059078
 20
83.98788932831553
 30
0.0
  9
$EXTMIN
 10
-0.0207365320223971
 20
-0.0181221163693408
 30
-0.000000000000013
  9
$EXTMAX
 10
420.0139642344882
 20
297.0181314522948
 30
0.0000000000000023
  9
$LIMMIN
 10
0.0
 20
0.0
  9
$LIMMAX
 10
420.0
 20
297.0
  9
$ORTHOMODE
 70
     1
  9
$REGENMODE
 70
     1
  9
$FILLMODE
 70
     1
  9
$QTEXTMODE
 70
     0
  9
$MIRRTEXT
 70
     1
  9
$LTSCALE
 40
10.0
  9
$ATTMODE
 70
     1
  9
$TEXTSIZE
 40
3.5
  9
$TRACEWID
 40
1.0
  9
$TEXTSTYLE
  7
STANDARD
  9
$CLAYER
  8
VOLL
  9
$CELTYPE
  6
ByLayer
  9
$CECOLOR
 62
   256
  9
$CELTSCALE
 40
1.0
  9
$DISPSILH
 70
     0
  9
$DIMSCALE
 40
1.0
  9
$DIMASZ
 40
3.5
  9
$DIMEXO
 40
1.0
  9
$DIMDLI
 40
7.0
  9
$DIMRND
 40
0.0
  9
$DIMDLE
 40
0.0
  9
$DIMEXE
 40
1.0
  9
$DIMTP
 40
0.2
  9
$DIMTM
 40
0.2
  9
$DIMTXT
 40
3.5
  9
$DIMCEN
 40
1.5
  9
$DIMTSZ
 40
0.0
  9
$DIMTOL
 70
     0
  9
$DIMLIM
 70
     0
  9
$DIMTIH
 70
     0
  9
$DIMTOH
 70
     0
  9
$DIMSE1
 70
     0
  9
$DIMSE2
 70
     0
  9
$DIMTAD
 70
     1
  9
$DIMZIN
 70
     8
  9
$DIMBLK
  1

  9
$DIMASO
 70
     1
  9
$DIMSHO
 70
     0
  9
$DIMPOST
  1

  9
$DIMAPOST
  1

  9
$DIMALT
 70
     0
  9
$DIMALTD
 70
     2
  9
$DIMALTF
 40
25.4
  9
$DIMLFAC
 40
1.0
  9
$DIMTOFL
 70
     1
  9
$DIMTVP
 40
0.5714285714285714
  9
$DIMTIX
 70
     0
  9
$DIMSOXD
 70
     0
  9
$DIMSAH
 70
     0
  9
$DIMBLK1
  1

  9
$DIMBLK2
  1

  9
$DIMSTYLE
  2
Standard
  9
$DIMCLRD
 70
     0
  9
$DIMCLRE
 70
     0
  9
$DIMCLRT
 70
     1
  9
$DIMTFAC
 40
0.5
  9
$DIMGAP
 40
1.5
  9
$DIMJUST
 70
     0
  9
$DIMSD1
 70
     0
  9
$DIMSD2
 70
     0
  9
$DIMTOLJ
 70
     1
  9
$DIMTZIN
 70
     8
  9
$DIMALTZ
 70
     8
  9
$DIMALTTZ
 70
     8
  9
$DIMUPT
 70
     0
  9
$DIMDEC
 70
     2
  9
$DIMTDEC
 70
     2
  9
$DIMALTU
 70
     2
  9
$DIMALTTD
 70
     2
  9
$DIMTXSTY
  7
STANDARD
  9
$DIMAUNIT
 70
     0
  9
$DIMADEC
 70
     2
  9
$DIMALTRND
 40
0.0
  9
$DIMAZIN
 70
     2
  9
$DIMDSEP
 70
    46
  9
$DIMATFIT
 70
     3
  9
$DIMFRAC
 70
     0
  9
$DIMLDRBLK
  1

  9
$DIMLUNIT
 70
     2
  9
$DIMLWD
 70
    -2
  9
$DIMLWE
 70
    -2
  9
$DIMTMOVE
 70
     0
  9
$LUNITS
 70
     2
  9
$LUPREC
 70
     2
  9
$SKETCHINC
 40
1.0
  9
$FILLETRAD
 40
0.0
  9
$AUNITS
 70
     0
  9
$AUPREC
 70
     0
  9
$MENU
  1
ACAD
  9
$ELEVATION
 40
0.0
  9
$PELEVATION
 40
0.0
  9
$THICKNESS
 40
0.0
  9
$LIMCHECK
 70
     0
  9
$CHAMFERA
 40
0.0
  9
$CHAMFERB
 40
0.0
  9
$CHAMFERC
 40
0.0
  9
$CHAMFERD
 40
0.0
  9
$SKPOLY
 70
     0
  9
$TDCREATE
 40
2450582.751075926
  9
$TDUCREATE
 40
2450582.709409260
  9
$TDUPDATE
 40
2456345.329277755
  9
$TDUUPDATE
 40
2456345.287611088
  9
$TDINDWG
 40
0.0988204861
  9
$TDUSRTIMER
 40
0.0988204861
  9
$USRTIMER
 70
     1
  9
$ANGBASE
 50
0.0
  9
$ANGDIR
 70
     0
  9
$PDMODE
 70
     0
  9
$PDSIZE
 40
0.0
  9
$PLINEWID
 40
0.0
  9
$SPLFRAME
 70
     0
  9
$SPLINETYPE
 70
     6
  9
$SPLINESEGS
 70
     8
  9
$HANDSEED
  5
170E
  9
$SURFTAB1
 70
     6
  9
$SURFTAB2
 70
     6
  9
$SURFTYPE
 70
     6
  9
$SURFU
 70
     6
  9
$SURFV
 70
     6
  9
$UCSBASE
  2

  9
$UCSNAME
  2

  9
$UCSORG
 10
0.0
 20
0.0
 30
0.0
  9
$UCSXDIR
 10
1.0
 20
0.0
 30
0.0
  9
$UCSYDIR
 10
0.0
 20
1.0
 30
0.0
  9
$UCSORTHOREF
  2

  9
$UCSORTHOVIEW
 70
     0
  9
$UCSORGTOP
 10
0.0
 20
0.0
 30
0.0
  9
$UCSORGBOTTOM
 10
0.0
 20
0.0
 30
0.0
  9
$UCSORGLEFT
 10
0.0
 20
0.0
 30
0.0
  9
$UCSORGRIGHT
 10
0.0
 20
0.0
 30
0.0
  9
$UCSORGFRONT
 10
0.0
 20
0.0
 30
0.0
  9
$UCSORGBACK
 10
0.0
 20
0.0
 30
0.0
  9
$PUCSBASE
  2

  9
$PUCSNAME
  2

  9
$PUCSORG
 10
0.0
 20
0.0
 30
0.0
  9
$PUCSXDIR
 10
1.0
 20
0.0
 30
0.0
  9
$PUCSYDIR
 10
0.0
 20
1.0
 30
0.0
  9
$PUCSORTHOREF
  2

  9
$PUCSORTHOVIEW
 70
     0
  9
$PUCSORGTOP
 10
0.0
 20
0.0
 30
0.0
  9
$PUCSORGBOTTOM
 10
0.0
 20
0.0
 30
0.0
  9
$PUCSORGLEFT
 10
0.0
 20
0.0
 30
0.0
  9
$PUCSORGRIGHT
 10
0.0
 20
0.0
 30
0.0
  9
$PUCSORGFRONT
 10
0.0
 20
0.0
 30
0.0
  9
$PUCSORGBACK
 10
0.0
 20
0.0
 30
0.0
  9
$USERI1
 70
     0
  9
$USERI2
 70
     0
  9
$USERI3
 70
     0
  9
$USERI4
 70
     0
  9
$USERI5
 70
     0
  9
$USERR1
 40
0.0
  9
$USERR2
 40
0.0
  9
$USERR3
 40
0.0
  9
$USERR4
 40
0.0
  9
$USERR5
 40
0.0
  9
$WORLDVIEW
 70
     1
  9
$SHADEDGE
 70
     3
  9
$SHADEDIF
 70
    70
  9
$TILEMODE
 70
     1
  9
$MAXACTVP
 70
    16
  9
$PINSBASE
 10
0.0
 20
0.0
 30
0.0
  9
$PLIMCHECK
 70
     0
  9
$PEXTMIN
 10
1.000000000000000E+20
 20
1.000000000000000E+20
 30
1.000000000000000E+20
  9
$PEXTMAX
 10
-1.000000000000000E+20
 20
-1.000000000000000E+20
 30
-1.000000000000000E+20
  9
$PLIMMIN
 10
0.0
 20
0.0
  9
$PLIMMAX
 10
12.0
 20
9.0
  9
$UNITMODE
 70
     0
  9
$VISRETAIN
 70
     0
  9
$PLINEGEN
 70
     0
  9
$PSLTSCALE
 70
     0
  9
$TREEDEPTH
 70
  3020
  9
$CMLSTYLE
  2
Standard
  9
$CMLJUST
 70
     0
  9
$CMLSCALE
 40
1.0
  9
$PROXYGRAPHICS
 70
     1
  9
$MEASUREMENT
 70
     0
  9
$CELWEIGHT
370
    -1
  9
$ENDCAPS
280
     0
  9
$JOINSTYLE
280
     0
  9
$LWDISPLAY
290
     0
  9
$INSUNITS
 70
     0
  9
$HYPERLINKBASE
  1

  9
$STYLESHEET
  1
monochrome1.ctb
  9
$XEDIT
290
     1
  9
$CEPSNTYPE
380
     0
  9
$PSTYLEMODE
290
     1
  9
$FINGERPRINTGUID
  2
{BF4623EA-AE5E-40F4-88B9-C3C720F5A3F1}
  9
$VERSIONGUID
  2
{95C06890-0484-42FA-BC2F-2C79195A7002}
  9
$EXTNAMES
290
     1
  9
$PSVPSCALE
 40
0.0
  9
$OLESTARTUP
290
     0
  9
$SORTENTS
280
   127
  9
$INDEXCTL
280
     0
  9
$HIDETEXT
280
     1
  9
$XCLIPFRAME
290
     0
  9
$HALOGAP
280
     0
  9
$OBSCOLOR
 70
   257
  9
$OBSLTYPE
280
     0
  9
$INTERSECTIONDISPLAY
280
     0
  9
$INTERSECTIONCOLOR
 70
   257
  9
$DIMASSOC
280
     2
  9
$PROJECTNAME
  1

  0
ENDSEC
  0
SECTION
  2
CLASSES
  0
CLASS
  1
ACDBDICTIONARYWDFLT
  2
AcDbDictionaryWithDefault
  3
ObjectDBX Classes
 90
        0
 91
        1
280
     0
281
     0
  0
CLASS
  1
DICTIONARYVAR
  2
AcDbDictionaryVar
  3
ObjectDBX Classes
 90
        0
 91
       11
280
     0
281
     0
  0
CLASS
  1
DIMASSOC
  2
AcDbDimAssoc
  3
"AcDbDimAssoc|Product Desc:     AcDim ARX App For Dimension|Company:          Autodesk, Inc.|WEB Address:      www.autodesk.com"
 90
        0
 91
        4
280
     0
281
     0
  0
CLASS
  1
MATERIAL
  2
AcDbMaterial
  3
ObjectDBX Classes
 90
     1153
 91
        3
280
     0
281
     0
  0
CLASS
  1
VISUALSTYLE
  2
AcDbVisualStyle
  3
ObjectDBX Classes
 90
     4095
 91
       24
280
     0
281
     0
  0
CLASS
  1
TABLESTYLE
  2
AcDbTableStyle
  3
ObjectDBX Classes
 90
     4095
 91
        1
280
     0
281
     0
  0
CLASS
  1
SCALE
  2
AcDbScale
  3
ObjectDBX Classes
 90
     1153
 91
       17
280
     0
281
     0
  0
CLASS
  1
MLEADERSTYLE
  2
AcDbMLeaderStyle
  3
ACDB_MLEADERSTYLE_CLASS
 90
     4095
 91
        1
280
     0
281
     0
  0
CLASS
  1
ACDBSECTIONVIEWSTYLE
  2
AcDbSectionViewStyle
  3
ObjectDBX Classes
 90
     1025
 91
        1
280
     0
281
     0
  0
CLASS
  1
ACDBDETAILVIEWSTYLE
  2
AcDbDetailViewStyle
  3
ObjectDBX Classes
 90
     1025
 91
        1
280
     0
281
     0
  0
CLASS
  1
CELLSTYLEMAP
  2
AcDbCellStyleMap
  3
ObjectDBX Classes
 90
     1152
 91
        3
280
     0
281
     0
  0
ENDSEC
  0
SECTION
  2
TABLES
  0
TABLE
  2
VPORT
  5
8
102
{ACAD_XDICTIONARY
360
1633
102
}
330
0
100
AcDbSymbolTable
 70
     1
  0
VPORT
  5
13FC
330
8
100
AcDbSymbolTableRecord
100
AcDbViewportTableRecord
  2
*Active
 70
     0
 10
0.0
 20
0.0
 11
1.0
 21
1.0
 12
209.9966138512328
 22
148.5000046679627
 13
0.0
 23
0.0
 14
2.5
 24
2.5
 15
10.0
 25
10.0
 16
0.0
 26
0.0
 36
1.0
 17
0.0
 27
0.0
 37
0.0
 40
299.0409976872378
 41
1.699324324324324
 42
50.0
 43
0.0
 44
0.0
 50
0.0
 51
0.0
 71
     0
 72
   500
 73
     1
 74
     0
 75
     0
 76
     0
 77
     0
 78
     0
281
     0
 65
     1
110
0.0
120
0.0
130
0.0
111
1.0
121
0.0
131
0.0
112
0.0
122
1.0
132
0.0
 79
     0
146
0.0
1001
ACAD_NAV_VCDISPLAY
1070
     3
  0
ENDTAB
  0
TABLE
  2
LTYPE
  5
5
330
0
100
AcDbSymbolTable
 70
     4
  0
LTYPE
  5
13
330
5
100
AcDbSymbolTableRecord
100
AcDbLinetypeTableRecord
  2
ByBlock
 70
     0
  3

 72
    65
 73
     0
 40
0.0
  0
LTYPE
  5
14
330
5
100
AcDbSymbolTableRecord
100
AcDbLinetypeTableRecord
  2
ByLayer
 70
     0
  3

 72
    65
 73
     0
 40
0.0
  0
LTYPE
  5
15
330
5
100
AcDbSymbolTableRecord
100
AcDbLinetypeTableRecord
  2
Continuous
 70
     0
  3
Solid line
 72
    65
 73
     0
 40
0.0
  0
LTYPE
  5
44
330
5
100
AcDbSymbolTableRecord
100
AcDbLinetypeTableRecord
  2
STRICHPUNKT
 70
     0
  3
__ . __ . __ . __ . __ . __ . __ . __ . __ . __
 72
    65
 73
     4
 40
1.0
 49
0.5
 74
     0
 49
-0.25
 74
     0
 49
0.0
 74
     0
 49
-0.25
 74
     0
  0
LTYPE
  5
144F
330
5
100
AcDbSymbolTableRecord
100
AcDbLinetypeTableRecord
  2
PHANTOM2
 70
     0
  3
Phantom (.5x) ___ _ _ ___ _ _ ___ _ _ ___ _ _
 72
    65
 73
     6
 40
1.25
 49
0.625
 74
     0
 49
-0.125
 74
     0
 49
0.125
 74
     0
 49
-0.125
 74
     0
 49
0.125
 74
     0
 49
-0.125
 74
     0
  0
ENDTAB
  0
TABLE
  2
LAYER
  5
2
102
{ACAD_XDICTIONARY
360
1457
102
}
330
0
100
AcDbSymbolTable
 70
     9
  0
LAYER
  5
10
102
{ACAD_XDICTIONARY
360
1620
102
}
330
2
100
AcDbSymbolTableRecord
100
AcDbLayerTableRecord
  2
0
 70
     0
 62
     7
  6
Continuous
370
    -3
390
F
  0
LAYER
  5
47
102
{ACAD_XDICTIONARY
360
1622
102
}
330
2
100
AcDbSymbolTableRecord
100
AcDbLayerTableRecord
  2
VOLL
 70
     0
 62
     1
  6
Continuous
370
    -3
390
F
  0
LAYER
  5
48
102
{ACAD_XDICTIONARY
360
1624
102
}
330
2
100
AcDbSymbolTableRecord
100
AcDbLayerTableRecord
  2
MITTEL
 70
     0
 62
     2
  6
STRICHPUNKT
370
    -3
390
F
  0
LAYER
  5
49
102
{ACAD_XDICTIONARY
360
1626
102
}
330
2
100
AcDbSymbolTableRecord
100
AcDbLayerTableRecord
  2
BEM
 70
     0
 62
     7
  6
Continuous
370
    -3
390
F
  0
LAYER
  5
4A
102
{ACAD_XDICTIONARY
360
1628
102
}
330
2
100
AcDbSymbolTableRecord
100
AcDbLayerTableRecord
  2
HILF
 70
     0
 62
     2
  6
Continuous
370
    -3
390
F
  0
LAYER
  5
4B
330
2
100
AcDbSymbolTableRecord
100
AcDbLayerTableRecord
  2
DEFPOINTS
 70
     0
 62
     7
  6
Continuous
290
     0
370
    -3
390
F
  0
LAYER
  5
4C
102
{ACAD_XDICTIONARY
360
162A
102
}
330
2
100
AcDbSymbolTableRecord
100
AcDbLayerTableRecord
  2
STEMPEL
 70
     0
 62
     3
  6
Continuous
370
    -3
390
F
  0
LAYER
  5
4D
102
{ACAD_XDICTIONARY
360
162C
102
}
330
2
100
AcDbSymbolTableRecord
100
AcDbLayerTableRecord
  2
TEXT
 70
     0
 62
     7
  6
Continuous
370
    -3
390
F
  0
LAYER
  5
4E
102
{ACAD_XDICTIONARY
360
162E
102
}
330
2
100
AcDbSymbolTableRecord
100
AcDbLayerTableRecord
  2
SCHRAFF
 70
     0
 62
     7
  6
Continuous
370
    -3
390
F
  0
ENDTAB
  0
TABLE
  2
STYLE
  5
3
330
0
100
AcDbSymbolTable
 70
     3
  0
STYLE
  5
11
330
3
100
AcDbSymbolTableRecord
100
AcDbTextStyleTableRecord
  2
STANDARD
 70
     0
 40
0.0
 41
0.8
 50
0.0
 71
     0
 42
3.5
  3
simplex.shx
  4

  0
STYLE
  5
43
330
3
100
AcDbSymbolTableRecord
100
AcDbTextStyleTableRecord
  2
GREEKS
 70
     0
 40
0.0
 41
0.8
 50
0.0
 71
     0
 42
3.5
  3
SIMPLEX.shx
  4

  0
ENDTAB
  0
TABLE
  2
VIEW
  5
6
330
0
100
AcDbSymbolTable
 70
     1
  0
ENDTAB
  0
TABLE
  2
UCS
  5
7
330
0
100
AcDbSymbolTable
 70
     0
  0
ENDTAB
  0
TABLE
  2
APPID
  5
9
330
0
100
AcDbSymbolTable
 70
     5
  0
APPID
  5
12
330
9
100
AcDbSymbolTableRecord
100
AcDbRegAppTableRecord
  2
ACAD
 70
     0
  0
APPID
  5
1456
330
9
100
AcDbSymbolTableRecord
100
AcDbRegAppTableRecord
  2
ACAD_NAV_VCDISPLAY
 70
     0
  0
APPID
  5
161A
330
9
100
AcDbSymbolTableRecord
100
AcDbRegAppTableRecord
  2
ACAD_EXEMPT_FROM_CAD_STANDARDS
 70
     0
  0
APPID
  5
166A
330
9
100
AcDbSymbolTableRecord
100
AcDbRegAppTableRecord
  2
ACAD_MLEADERVER
 70
     0
  0
APPID
  5
16C3
330
9
100
AcDbSymbolTableRecord
100
AcDbRegAppTableRecord
  2
ACAD_PSEXT
 70
     0
  0
ENDTAB
  0
TABLE
  2
DIMSTYLE
  5
A
330
0
100
AcDbSymbolTable
 70
     2
100
AcDbDimStyleTable
 71
     1
340
594
  0
DIMSTYLE
105
594
102
{ACAD_REACTORS
330
D3A
330
D1B
330
CDE
330
128D
330
1388
330
138E
330
1392
330
1395
102
}
330
A
100
AcDbSymbolTableRecord
100
AcDbDimStyleTableRecord
  2
Standard
 70
     0
340
11
  0
ENDTAB
  0
TABLE
  2
BLOCK_RECORD
  5
1
330
0
100
AcDbSymbolTable
 70
    10
  0
BLOCK_RECORD
  5
20
330
1
100
AcDbSymbolTableRecord
100
AcDbBlockTableRecord
  2
*Model_Space
340
23
  0
BLOCK_RECORD
  5
1C
330
1
100
AcDbSymbolTableRecord
100
AcDbBlockTableRecord
  2
*Paper_Space
340
1F
  0
BLOCK_RECORD
  5
3F
330
1
100
AcDbSymbolTableRecord
100
AcDbBlockTableRecord
  2
LORO
340
0
102
{BLKREFS
331
1166
102
}
  0
BLOCK_RECORD
  5
DE3
330
1
100
AcDbSymbolTableRecord
100
AcDbBlockTableRecord
  2
*D1
340
0
  0
BLOCK_RECORD
  5
E16
330
1
100
AcDbSymbolTableRecord
100
AcDbBlockTableRecord
  2
*D2
340
0
  0
BLOCK_RECORD
  5
E23
330
1
100
AcDbSymbolTableRecord
100
AcDbBlockTableRecord
  2
*D3
340
0
  0
BLOCK_RECORD
  5
128E
330
1
100
AcDbSymbolTableRecord
100
AcDbBlockTableRecord
  2
*D4
340
0
  0
BLOCK_RECORD
  5
13AB
330
1
100
AcDbSymbolTableRecord
100
AcDbBlockTableRecord
  2
*D5
340
0
  0
BLOCK_RECORD
  5
13B7
330
1
100
AcDbSymbolTableRecord
100
AcDbBlockTableRecord
  2
*D6
340
0
  0
BLOCK_RECORD
  5
13C3
330
1
100
AcDbSymbolTableRecord
100
AcDbBlockTableRecord
  2
*D7
340
0
  0
BLOCK_RECORD
  5
13CF
330
1
100
AcDbSymbolTableRecord
100
AcDbBlockTableRecord
  2
*D8
340
0
  0
ENDTAB
  0
ENDSEC
  0
SECTION
  2
BLOCKS
  0
BLOCK
  5
52
330
20
100
AcDbEntity
  8
0
100
AcDbBlockBegin
  2
*Model_Space
 70
     0
 10
0.0
 20
0.0
 30
0.0
  3
*Model_Space
  1

  0
ENDBLK
  5
53
330
20
100
AcDbEntity
  8
0
100
AcDbBlockEnd
  0
BLOCK
  5
50
330
1C
100
AcDbEntity
 67
     1
  8
0
100
AcDbBlockBegin
  2
*Paper_Space
 70
     0
 10
0.0
 20
0.0
 30
0.0
  3
*Paper_Space
  1

  0
ENDBLK
  5
51
330
1C
100
AcDbEntity
 67
     1
  8
0
100
AcDbBlockEnd
  0
BLOCK
  5
447
330
3F
100
AcDbEntity
  8
0
100
AcDbBlockBegin
  2
LORO
 70
     0
 10
0.0
 20
0.0
 30
0.0
  3
LORO
  1

  0
ARC
  5
448
330
3F
100
AcDbEntity
  8
TEXT
 62
     3
100
AcDbCircle
 10
33.3940879938213
 20
7.339059403255902
 30
0.0
 40
4.9
100
AcDbArc
 50
270.0
 51
229.0342866699857
  0
LINE
  5
449
330
3F
100
AcDbEntity
  8
TEXT
 62
     3
100
AcDbLine
 10
19.29408799382133
 20
12.2390594032559
 30
0.0
 11
19.29408799382133
 21
2.439059403255903
 31
0.0
  0
ARC
  5
44A
330
3F
100
AcDbEntity
  8
TEXT
 62
     3
100
AcDbCircle
 10
6.394087993821358
 20
4.439059403255903
 30
0.0
 40
2.0
100
AcDbArc
 50
180.0000000000003
 51
270.0
  0
ARC
  5
44B
330
3F
100
AcDbEntity
  8
TEXT
 62
     3
100
AcDbCircle
 10
27.29040028552345
 20
4.439059403255901
 30
0.0
 40
2.0
100
AcDbArc
 50
195.0
 51
270.0
  0
LINE
  5
44C
330
3F
100
AcDbEntity
  8
TEXT
 62
     3
100
AcDbLine
 10
20.49408799382133
 20
7.439059403256004
 30
0.0
 11
20.49408799382133
 21
2.439059403255901
 31
0.0
  0
ARC
  5
44D
330
3F
100
AcDbEntity
  8
TEXT
 62
     3
100
AcDbCircle
 10
13.3940879938213
 20
7.339059403255902
 30
0.0
 40
4.9
100
AcDbArc
 50
270.0
 51
229.0342866699857
  0
LINE
  5
44E
330
3F
100
AcDbEntity
  8
TEXT
 62
     3
100
AcDbLine
 10
33.3940879938213
 20
2.439059403255901
 30
0.0
 11
27.29040028552345
 21
2.439059403255901
 31
0.0
  0
LINE
  5
44F
330
3F
100
AcDbEntity
  8
TEXT
 62
     3
100
AcDbLine
 10
13.3940879938213
 20
2.439059403255903
 30
0.0
 11
6.394087993821358
 21
2.439059403255903
 31
0.0
  0
LINE
  5
450
330
3F
100
AcDbEntity
  8
TEXT
 62
     3
100
AcDbLine
 10
20.49408799382133
 20
2.439059403255901
 30
0.0
 11
19.29408799382133
 21
2.439059403255903
 31
0.0
  0
CIRCLE
  5
451
330
3F
100
AcDbEntity
  8
TEXT
 62
     3
100
AcDbCircle
 10
33.3940879938213
 20
7.339059403255902
 30
0.0
 40
3.7
  0
CIRCLE
  5
452
330
3F
100
AcDbEntity
  8
TEXT
 62
     3
100
AcDbCircle
 10
13.3940879938213
 20
7.339059403255902
 30
0.0
 40
3.7
  0
LINE
  5
453
330
3F
100
AcDbEntity
  8
TEXT
 62
     3
100
AcDbLine
 10
10.18161231297949
 20
3.639059403255902
 30
0.0
 11
6.394087993821358
 21
3.639059403255902
 31
0.0
  0
LINE
  5
454
330
3F
100
AcDbEntity
  8
TEXT
 62
     3
100
AcDbLine
 10
4.394087993821301
 20
12.2390594032559
 30
0.0
 11
4.394087993821358
 21
4.439059403255891
 31
0.0
  0
LINE
  5
455
330
3F
100
AcDbEntity
  8
TEXT
 62
     3
100
AcDbLine
 10
5.59408799382129
 20
12.2390594032559
 30
0.0
 11
5.594087993821347
 21
4.439059403255898
 31
0.0
  0
ARC
  5
456
330
3F
100
AcDbEntity
  8
TEXT
 62
     3
100
AcDbCircle
 10
6.394087993821358
 20
4.439059403255903
 30
0.0
 40
0.8
100
AcDbArc
 50
180.0000000000003
 51
270.0
  0
LINE
  5
457
330
3F
100
AcDbEntity
  8
TEXT
 62
     3
100
AcDbLine
 10
4.394087993821301
 20
12.2390594032559
 30
0.0
 11
5.59408799382129
 21
12.2390594032559
 31
0.0
  0
LINE
  5
458
330
3F
100
AcDbEntity
  8
TEXT
 62
     3
100
AcDbLine
 10
24.3940879938213
 20
11.03905940325589
 30
0.0
 11
20.49408799382133
 21
11.03905940325589
 31
0.0
  0
LINE
  5
459
330
3F
100
AcDbEntity
  8
TEXT
 62
     3
100
AcDbLine
 10
24.3940879938213
 20
12.2390594032559
 30
0.0
 11
19.29408799382133
 21
12.2390594032559
 31
0.0
  0
LINE
  5
45A
330
3F
100
AcDbEntity
  8
TEXT
 62
     3
100
AcDbLine
 10
24.3940879938213
 20
8.639059403256004
 30
0.0
 11
20.49408799382133
 21
8.639059403256004
 31
0.0
  0
LINE
  5
45B
330
3F
100
AcDbEntity
  8
TEXT
 62
     3
100
AcDbLine
 10
24.3940879938213
 20
7.439059403256003
 30
0.0
 11
20.49408799382133
 21
7.439059403256003
 31
0.0
  0
LINE
  5
45C
330
3F
100
AcDbEntity
  8
TEXT
 62
     3
100
AcDbLine
 10
20.49408799382133
 20
11.03905940325589
 30
0.0
 11
20.49408799382133
 21
8.639059403256004
 31
0.0
  0
ARC
  5
45D
330
3F
100
AcDbEntity
  8
TEXT
 62
     3
100
AcDbCircle
 10
24.3940879938213
 20
9.839059403256003
 30
0.0
 40
2.399999999999999
100
AcDbArc
 50
299.47751218593
 51
90.0
  0
ARC
  5
45E
330
3F
100
AcDbEntity
  8
TEXT
 62
     3
100
AcDbCircle
 10
24.3940879938213
 20
9.839059403256003
 30
0.0
 40
1.199999999999999
100
AcDbArc
 50
270.0
 51
90.0
  0
LINE
  5
45F
330
3F
100
AcDbEntity
  8
TEXT
 62
     3
100
AcDbLine
 10
30.1816123129795
 20
3.639059403255902
 30
0.0
 11
27.29040028552345
 21
3.639059403255901
 31
0.0
  0
ARC
  5
460
330
3F
100
AcDbEntity
  8
TEXT
 62
     3
100
AcDbCircle
 10
24.3940879938213
 20
9.839059403256003
 30
0.0
 40
2.399999999999999
100
AcDbArc
 50
270.0
 51
270.5224878140705
  0
LINE
  5
461
330
3F
100
AcDbEntity
  8
TEXT
 62
     3
100
AcDbLine
 10
24.4159736088659
 20
7.439159192860971
 30
0.0
 11
25.35854863294531
 21
3.921421313050858
 31
0.0
  0
ARC
  5
462
330
3F
100
AcDbEntity
  8
TEXT
 62
     3
100
AcDbCircle
 10
27.29040028552345
 20
4.439059403255901
 30
0.0
 40
0.8
100
AcDbArc
 50
195.0
 51
270.0
  0
LINE
  5
463
330
3F
100
AcDbEntity
  8
TEXT
 62
     3
100
AcDbLine
 10
25.57508460041276
 20
7.749742046984001
 30
0.0
 11
26.5176596244923
 21
4.232004167173904
 31
0.0
  0
ENDBLK
  5
464
330
3F
100
AcDbEntity
  8
0
100
AcDbBlockEnd
  0
BLOCK
  5
DEE
330
DE3
100
AcDbEntity
  8
0
100
AcDbBlockBegin
  2
*D1
 70
     1
 10
0.0
 20
0.0
 30
0.0
  3
*D1
  1

  0
LINE
  5
1316
330
DE3
100
AcDbEntity
  8
BEM
 62
     0
440
 16777216
370
    -2
100
AcDbLine
 10
373.4895216581888
 20
184.0474130657953
 30
0.0
 11
395.5319149437987
 21
182.8922201836131
 31
0.0
  0
LINE
  5
1317
330
DE3
100
AcDbEntity
  8
BEM
 62
     0
440
 16777216
370
    -2
100
AcDbLine
 10
369.668996852454
 20
111.1474570287114
 30
0.0
 11
391.7113901380639
 21
109.9922641465292
 31
0.0
  0
LINE
  5
1318
330
DE3
100
AcDbEntity
  8
BEM
 62
     0
440
 16777216
370
    -2
100
AcDbLine
 10
394.3501095621938
 20
179.449352768215
 30
0.0
 11
390.8959364501596
 21
113.5398034744132
 31
0.0
  0
SOLID
  5
1319
330
DE3
100
AcDbEntity
  8
BEM
 62
     0
440
 16777216
100
AcDbTrace
 10
393.7675756669203
 20
179.4798820760234
 30
0.0
 11
394.9326434574672
 21
179.4188234604066
 31
0.0
 12
394.5332854090441
 22
182.944556139856
 32
0.0
 13
394.5332854090441
 23
182.944556139856
 33
0.0
  0
SOLID
  5
131A
330
DE3
100
AcDbEntity
  8
BEM
 62
     0
440
 16777216
100
AcDbTrace
 10
390.3134025548861
 20
113.5703327822216
 30
0.0
 11
391.4784703454331
 21
113.5092741666048
 31
0.0
 12
390.7127606033093
 22
110.0446001027722
 32
0.0
 13
390.7127606033093
 23
110.0446001027722
 33
0.0
  0
MTEXT
  5
131B
330
DE3
100
AcDbEntity
  8
BEM
 62
     1
440
 16777216
100
AcDbMText
 10
389.3471307372263
 20
146.0856284434165
 30
0.0
 40
3.5
 41
0.0
 71
     5
 72
     1
  1
\A1;%%c73
 11
0.0523359562429415
 21
0.9986295347545741
 31
0.0
 73
     1
 44
1.0
  0
POINT
  5
131C
330
DE3
100
AcDbEntity
  8
DEFPOINTS
 62
     0
440
 16777216
100
AcDbPoint
 10
372.4908921234342
 20
184.0997490220382
 30
0.0
  0
POINT
  5
131D
330
DE3
100
AcDbEntity
  8
DEFPOINTS
 62
     0
440
 16777216
100
AcDbPoint
 10
368.6703673176995
 20
111.1997929849544
 30
0.0
  0
POINT
  5
131E
330
DE3
100
AcDbEntity
  8
DEFPOINTS
 62
     0
440
 16777216
100
AcDbPoint
 10
390.7127606033093
 20
110.0446001027722
 30
0.0
  0
ENDBLK
  5
DEF
330
DE3
100
AcDbEntity
  8
0
100
AcDbBlockEnd
  0
BLOCK
  5
E21
330
E16
100
AcDbEntity
  8
0
100
AcDbBlockBegin
  2
*D2
 70
     1
 10
0.0
 20
0.0
 30
0.0
  3
*D2
  1

  0
LINE
  5
130B
330
E16
100
AcDbEntity
  8
BEM
 62
     0
440
 16777216
370
    -2
100
AcDbLine
 10
48.50152340745728
 20
227.1298389968632
 30
0.0
 11
43.34397023305086
 21
227.1298389968632
 31
0.0
  0
LINE
  5
130C
330
E16
100
AcDbEntity
  8
BEM
 62
     0
440
 16777216
370
    -2
100
AcDbLine
 10
48.50152340745728
 20
225.1298389968632
 30
0.0
 11
43.34397023305086
 21
225.1298389968632
 31
0.0
  0
LINE
  5
130D
330
E16
100
AcDbEntity
  8
BEM
 62
     0
440
 16777216
370
    -2
100
AcDbLine
 10
44.34397023305087
 20
230.6298389968632
 30
0.0
 11
44.34397023305087
 21
234.1298389968632
 31
0.0
  0
LINE
  5
130E
330
E16
100
AcDbEntity
  8
BEM
 62
     0
440
 16777216
370
    -2
100
AcDbLine
 10
44.34397023305087
 20
221.6298389968632
 30
0.0
 11
44.34397023305087
 21
213.2631723301965
 31
0.0
  0
LINE
  5
130F
330
E16
100
AcDbEntity
  8
BEM
 62
     0
440
 16777216
370
    -2
100
AcDbLine
 10
44.34397023305087
 20
227.1298389968632
 30
0.0
 11
44.34397023305087
 21
225.1298389968632
 31
0.0
  0
SOLID
  5
1310
330
E16
100
AcDbEntity
  8
BEM
 62
     0
440
 16777216
100
AcDbTrace
 10
43.76063689971753
 20
230.6298389968632
 30
0.0
 11
44.9273035663842
 21
230.6298389968632
 31
0.0
 12
44.34397023305087
 22
227.1298389968632
 32
0.0
 13
44.34397023305087
 23
227.1298389968632
 33
0.0
  0
SOLID
  5
1311
330
E16
100
AcDbEntity
  8
BEM
 62
     0
440
 16777216
100
AcDbTrace
 10
43.76063689971753
 20
221.6298389968632
 30
0.0
 11
44.9273035663842
 21
221.6298389968632
 31
0.0
 12
44.34397023305087
 22
225.1298389968632
 32
0.0
 13
44.34397023305087
 23
225.1298389968632
 33
0.0
  0
MTEXT
  5
1312
330
E16
100
AcDbEntity
  8
BEM
 62
     1
440
 16777216
100
AcDbMText
 10
41.09397023305083
 20
215.6965056635299
 30
0.0
 40
3.5
 41
0.0
 71
     5
 72
     1
  1
\A1;2
 11
0.0000000000000001
 21
1.0
 31
0.0
 73
     1
 44
1.0
  0
POINT
  5
1313
330
E16
100
AcDbEntity
  8
DEFPOINTS
 62
     0
440
 16777216
100
AcDbPoint
 10
49.50152340745728
 20
227.1298389968632
 30
0.0
  0
POINT
  5
1314
330
E16
100
AcDbEntity
  8
DEFPOINTS
 62
     0
440
 16777216
100
AcDbPoint
 10
49.50152340745728
 20
225.1298389968632
 30
0.0
  0
POINT
  5
1315
330
E16
100
AcDbEntity
  8
DEFPOINTS
 62
     0
440
 16777216
100
AcDbPoint
 10
44.34397023305087
 20
225.1298389968632
 30
0.0
  0
ENDBLK
  5
E22
330
E16
100
AcDbEntity
  8
0
100
AcDbBlockEnd
  0
BLOCK
  5
E2E
330
E23
100
AcDbEntity
  8
0
100
AcDbBlockBegin
  2
*D3
 70
     1
 10
0.0
 20
0.0
 30
0.0
  3
*D3
  1

  0
LINE
  5
1302
330
E23
100
AcDbEntity
  8
BEM
 62
     0
440
 16777216
370
    -2
100
AcDbLine
 10
49.50152340745728
 20
228.1298389968632
 30
0.0
 11
49.50152340745728
 21
251.1138968333987
 31
0.0
  0
LINE
  5
1303
330
E23
100
AcDbEntity
  8
BEM
 62
     0
440
 16777216
370
    -2
100
AcDbLine
 10
341.5015234074573
 20
228.1298389968632
 30
0.0
 11
341.5015234074573
 21
251.1138968333987
 31
0.0
  0
LINE
  5
1304
330
E23
100
AcDbEntity
  8
BEM
 62
     0
440
 16777216
370
    -2
100
AcDbLine
 10
53.00152340745729
 20
250.1138968333987
 30
0.0
 11
338.0015234074573
 21
250.1138968333987
 31
0.0
  0
SOLID
  5
1305
330
E23
100
AcDbEntity
  8
BEM
 62
     0
440
 16777216
100
AcDbTrace
 10
53.00152340745729
 20
250.6972301667321
 30
0.0
 11
53.00152340745729
 21
249.5305635000654
 31
0.0
 12
49.50152340745728
 22
250.1138968333987
 32
0.0
 13
49.50152340745728
 23
250.1138968333987
 33
0.0
  0
SOLID
  5
1306
330
E23
100
AcDbEntity
  8
BEM
 62
     0
440
 16777216
100
AcDbTrace
 10
338.0015234074573
 20
250.6972301667321
 30
0.0
 11
338.0015234074573
 21
249.5305635000654
 31
0.0
 12
341.5015234074573
 22
250.1138968333987
 32
0.0
 13
341.5015234074573
 23
250.1138968333987
 33
0.0
  0
MTEXT
  5
1307
330
E23
100
AcDbEntity
  8
BEM
 62
     1
440
 16777216
100
AcDbMText
 10
195.5015234074572
 20
253.3638968333987
 30
0.0
 40
3.5
 41
0.0
 71
     5
 72
     1
  1
\A1;%%C292
 73
     1
 44
1.0
  0
POINT
  5
1308
330
E23
100
AcDbEntity
  8
DEFPOINTS
 62
     0
440
 16777216
100
AcDbPoint
 10
49.50152340745728
 20
227.1298389968632
 30
0.0
  0
POINT
  5
1309
330
E23
100
AcDbEntity
  8
DEFPOINTS
 62
     0
440
 16777216
100
AcDbPoint
 10
341.5015234074573
 20
227.1298389968632
 30
0.0
  0
POINT
  5
130A
330
E23
100
AcDbEntity
  8
DEFPOINTS
 62
     0
440
 16777216
100
AcDbPoint
 10
341.5015234074573
 20
250.1138968333987
 30
0.0
  0
ENDBLK
  5
E2F
330
E23
100
AcDbEntity
  8
0
100
AcDbBlockEnd
  0
BLOCK
  5
1298
330
128E
100
AcDbEntity
  8
0
100
AcDbBlockBegin
  2
*D4
 70
     1
 10
0.0
 20
0.0
 30
0.0
  3
*D4
  1

  0
ARC
  5
12F9
330
128E
100
AcDbEntity
  8
BEM
 62
     0
440
 16777216
370
    -2
100
AcDbCircle
 10
195.5015234074572
 20
156.8252781642258
 30
0.0
 40
26.461425041316
100
AcDbArc
 50
4.583933851422987
 51
82.41606614857694
  0
SOLID
  5
12FA
330
128E
100
AcDbEntity
  8
BEM
 62
     0
440
 16777216
100
AcDbTrace
 10
222.4615846279615
 20
158.9481226598507
 30
0.0
 11
221.2950294109436
 21
158.9319970045317
 31
0.0
 12
221.9266839854097
 22
155.4403941811375
 32
0.0
 13
221.9266839854097
 23
155.4403941811375
 33
0.0
  0
SOLID
  5
12FB
330
128E
100
AcDbEntity
  8
BEM
 62
     0
440
 16777216
100
AcDbTrace
 10
198.9552828643612
 20
182.4731779191343
 30
0.0
 11
199.0324392028229
 21
183.6372904611792
 31
0.0
 12
195.5015234074573
 22
183.2867032055418
 32
0.0
 13
195.5015234074573
 23
183.2867032055418
 33
0.0
  0
MTEXT
  5
12FC
330
128E
100
AcDbEntity
  8
BEM
 62
     1
440
 16777216
100
AcDbMText
 10
213.68080369684
 20
180.3259706252109
 30
0.0
 40
3.5
 41
0.0
 71
     5
 72
     1
  1
\A1;93°
 11
0.7909648368701787
 21
-0.6118616075837182
 31
0.0
 73
     1
 44
1.0
  0
POINT
  5
12FD
330
128E
100
AcDbEntity
  8
DEFPOINTS
 62
     0
440
 16777216
100
AcDbPoint
 10
218.8655749513042
 20
169.2481647319141
 30
0.0
  0
POINT
  5
12FE
330
128E
100
AcDbEntity
  8
DEFPOINTS
 62
     0
440
 16777216
100
AcDbPoint
 10
195.5015234074572
 20
230.1298389968632
 30
0.0
  0
POINT
  5
12FF
330
128E
100
AcDbEntity
  8
DEFPOINTS
 62
     0
440
 16777216
100
AcDbPoint
 10
383.497412011721
 20
146.9728311281343
 30
0.0
  0
POINT
  5
1300
330
128E
100
AcDbEntity
  8
DEFPOINTS
 62
     0
440
 16777216
100
AcDbPoint
 10
195.5015234074572
 20
156.8252781642258
 30
0.0
  0
POINT
  5
1301
330
128E
100
AcDbEntity
  8
DEFPOINTS
 62
     0
440
 16777216
100
AcDbPoint
 10
195.5015234074573
 20
115.1298389968632
 30
0.0
  0
ENDBLK
  5
1299
330
128E
100
AcDbEntity
  8
0
100
AcDbBlockEnd
  0
BLOCK
  5
13B5
330
13AB
100
AcDbEntity
  8
0
100
AcDbBlockBegin
  2
*D5
 70
     1
 10
0.0
 20
0.0
 30
0.0
  3
*D5
  1

  0
LINE
  5
13DB
330
13AB
100
AcDbEntity
  8
BEM
 62
     0
440
 16777216
370
    -2
100
AcDbLine
 10
380.5015234074572
 20
146.1298389968632
 30
0.0
 11
380.5015234074572
 21
62.76120088724332
 31
0.0
  0
LINE
  5
13DC
330
13AB
100
AcDbEntity
  8
BEM
 62
     0
440
 16777216
370
    -2
100
AcDbLine
 10
195.5015234074573
 20
114.1298389968632
 30
0.0
 11
195.5015234074573
 21
62.76120088724332
 31
0.0
  0
LINE
  5
13DD
330
13AB
100
AcDbEntity
  8
BEM
 62
     0
440
 16777216
370
    -2
100
AcDbLine
 10
377.0015234074572
 20
63.76120088724332
 30
0.0
 11
199.0015234074573
 21
63.76120088724332
 31
0.0
  0
SOLID
  5
13DE
330
13AB
100
AcDbEntity
  8
BEM
 62
     0
440
 16777216
100
AcDbTrace
 10
377.0015234074572
 20
64.34453422057664
 30
0.0
 11
377.0015234074572
 21
63.17786755390998
 31
0.0
 12
380.5015234074572
 22
63.76120088724332
 32
0.0
 13
380.5015234074572
 23
63.76120088724332
 33
0.0
  0
SOLID
  5
13DF
330
13AB
100
AcDbEntity
  8
BEM
 62
     0
440
 16777216
100
AcDbTrace
 10
199.0015234074573
 20
64.34453422057664
 30
0.0
 11
199.0015234074573
 21
63.17786755390998
 31
0.0
 12
195.5015234074573
 22
63.76120088724332
 32
0.0
 13
195.5015234074573
 23
63.76120088724332
 33
0.0
  0
MTEXT
  5
13E0
330
13AB
100
AcDbEntity
  8
BEM
 62
     1
440
 16777216
100
AcDbMText
 10
288.0015234074572
 20
67.01120088724332
 30
0.0
 40
3.5
 41
0.0
 71
     5
 72
     1
  1
\A1;185
 73
     1
 44
1.0
  0
POINT
  5
13E1
330
13AB
100
AcDbEntity
  8
DEFPOINTS
 62
     0
440
 16777216
100
AcDbPoint
 10
380.5015234074572
 20
147.1298389968632
 30
0.0
  0
POINT
  5
13E2
330
13AB
100
AcDbEntity
  8
DEFPOINTS
 62
     0
440
 16777216
100
AcDbPoint
 10
195.5015234074573
 20
115.1298389968632
 30
0.0
  0
POINT
  5
13E3
330
13AB
100
AcDbEntity
  8
DEFPOINTS
 62
     0
440
 16777216
100
AcDbPoint
 10
195.5015234074573
 20
63.76120088724332
 30
0.0
  0
ENDBLK
  5
13B6
330
13AB
100
AcDbEntity
  8
0
100
AcDbBlockEnd
  0
BLOCK
  5
13C1
330
13B7
100
AcDbEntity
  8
0
100
AcDbBlockBegin
  2
*D6
 70
     1
 10
0.0
 20
0.0
 30
0.0
  3
*D6
  1

  0
LINE
  5
13B8
330
13B7
100
AcDbEntity
  8
BEM
 62
     0
440
 16777216
370
    -2
100
AcDbLine
 10
341.5015234074573
 20
228.1298389968632
 30
0.0
 11
341.5015234074573
 21
236.6574908316891
 31
0.0
  0
LINE
  5
13B9
330
13B7
100
AcDbEntity
  8
BEM
 62
     0
440
 16777216
370
    -2
100
AcDbLine
 10
95.9015045503512
 20
221.0963479536554
 30
0.0
 11
95.9015045503512
 21
236.6574908316891
 31
0.0
  0
LINE
  5
13BA
330
13B7
100
AcDbEntity
  8
BEM
 62
     0
440
 16777216
370
    -2
100
AcDbLine
 10
338.0015234074573
 20
235.6574908316891
 30
0.0
 11
99.40150455035121
 21
235.6574908316891
 31
0.0
  0
SOLID
  5
13BB
330
13B7
100
AcDbEntity
  8
BEM
 62
     0
440
 16777216
100
AcDbTrace
 10
338.0015234074573
 20
236.2408241650224
 30
0.0
 11
338.0015234074573
 21
235.0741574983557
 31
0.0
 12
341.5015234074573
 22
235.6574908316891
 32
0.0
 13
341.5015234074573
 23
235.6574908316891
 33
0.0
  0
SOLID
  5
13BC
330
13B7
100
AcDbEntity
  8
BEM
 62
     0
440
 16777216
100
AcDbTrace
 10
99.40150455035121
 20
236.2408241650224
 30
0.0
 11
99.40150455035121
 21
235.0741574983557
 31
0.0
 12
95.9015045503512
 22
235.6574908316891
 32
0.0
 13
95.9015045503512
 23
235.6574908316891
 33
0.0
  0
MTEXT
  5
13BD
330
13B7
100
AcDbEntity
  8
BEM
 62
     1
440
 16777216
100
AcDbMText
 10
218.7015139789043
 20
238.9074908316891
 30
0.0
 40
3.5
 41
0.0
 71
     5
 72
     1
  1
\A1;245
 73
     1
 44
1.0
  0
POINT
  5
13BE
330
13B7
100
AcDbEntity
  8
DEFPOINTS
 62
     0
440
 16777216
100
AcDbPoint
 10
341.5015234074573
 20
227.1298389968632
 30
0.0
  0
POINT
  5
13BF
330
13B7
100
AcDbEntity
  8
DEFPOINTS
 62
     0
440
 16777216
100
AcDbPoint
 10
95.9015045503512
 20
220.0963479536554
 30
0.0
  0
POINT
  5
13C0
330
13B7
100
AcDbEntity
  8
DEFPOINTS
 62
     0
440
 16777216
100
AcDbPoint
 10
95.9015045503512
 20
235.6574908316891
 30
0.0
  0
ENDBLK
  5
13C2
330
13B7
100
AcDbEntity
  8
0
100
AcDbBlockEnd
  0
BLOCK
  5
13CD
330
13C3
100
AcDbEntity
  8
0
100
AcDbBlockBegin
  2
*D7
 70
     1
 10
0.0
 20
0.0
 30
0.0
  3
*D7
  1

  0
LINE
  5
13C4
330
13C3
100
AcDbEntity
  8
BEM
 62
     0
440
 16777216
370
    -2
100
AcDbLine
 10
48.50152340745728
 20
227.1298389968632
 30
0.0
 11
34.35066393372214
 21
227.1298389968632
 31
0.0
  0
LINE
  5
13C5
330
13C3
100
AcDbEntity
  8
BEM
 62
     0
440
 16777216
370
    -2
100
AcDbLine
 10
149.8422901323697
 20
77.12983899686324
 30
0.0
 11
34.3506639337221
 21
77.12983899686327
 31
0.0
  0
LINE
  5
13C6
330
13C3
100
AcDbEntity
  8
BEM
 62
     0
440
 16777216
370
    -2
100
AcDbLine
 10
35.35066393372214
 20
223.6298389968632
 30
0.0
 11
35.35066393372211
 21
80.62983899686326
 31
0.0
  0
SOLID
  5
13C7
330
13C3
100
AcDbEntity
  8
BEM
 62
     0
440
 16777216
100
AcDbTrace
 10
34.7673306003888
 20
223.6298389968632
 30
0.0
 11
35.93399726705547
 21
223.6298389968632
 31
0.0
 12
35.35066393372214
 22
227.1298389968632
 32
0.0
 13
35.35066393372214
 23
227.1298389968632
 33
0.0
  0
SOLID
  5
13C8
330
13C3
100
AcDbEntity
  8
BEM
 62
     0
440
 16777216
100
AcDbTrace
 10
34.76733060038878
 20
80.62983899686326
 30
0.0
 11
35.93399726705545
 21
80.62983899686326
 31
0.0
 12
35.3506639337221
 22
77.12983899686325
 32
0.0
 13
35.3506639337221
 23
77.12983899686325
 33
0.0
  0
MTEXT
  5
13C9
330
13C3
100
AcDbEntity
  8
BEM
 62
     1
440
 16777216
100
AcDbMText
 10
32.1006639337221
 20
152.1298389968632
 30
0.0
 40
3.5
 41
0.0
 71
     5
 72
     1
  1
\A1;150
 11
0.0000000000000001
 21
1.0
 31
0.0
 73
     1
 44
1.0
  0
POINT
  5
13CA
330
13C3
100
AcDbEntity
  8
DEFPOINTS
 62
     0
440
 16777216
100
AcDbPoint
 10
49.50152340745728
 20
227.1298389968632
 30
0.0
  0
POINT
  5
13CB
330
13C3
100
AcDbEntity
  8
DEFPOINTS
 62
     0
440
 16777216
100
AcDbPoint
 10
150.8422901323697
 20
77.12983899686324
 30
0.0
  0
POINT
  5
13CC
330
13C3
100
AcDbEntity
  8
DEFPOINTS
 62
     0
440
 16777216
100
AcDbPoint
 10
35.3506639337221
 20
77.12983899686325
 30
0.0
  0
ENDBLK
  5
13CE
330
13C3
100
AcDbEntity
  8
0
100
AcDbBlockEnd
  0
BLOCK
  5
13D9
330
13CF
100
AcDbEntity
  8
0
100
AcDbBlockBegin
  2
*D8
 70
     1
 10
0.0
 20
0.0
 30
0.0
  3
*D8
  1

  0
LINE
  5
13E4
330
13CF
100
AcDbEntity
  8
BEM
 62
     0
440
 16777216
370
    -2
100
AcDbLine
 10
333.6928361173244
 20
76.13120946210855
 30
0.0
 11
333.3303918401264
 21
69.21536066721164
 31
0.0
  0
LINE
  5
13E5
330
13CF
100
AcDbEntity
  8
BEM
 62
     0
440
 16777216
370
    -2
100
AcDbLine
 10
378.5844132047314
 20
110.5491971732154
 30
0.0
 11
376.3001788672454
 21
66.96340955285456
 31
0.0
  0
LINE
  5
13E6
330
13CF
100
AcDbEntity
  8
BEM
 62
     0
440
 16777216
370
    -2
100
AcDbLine
 10
336.8779311680104
 20
70.03081435511586
 30
0.0
 11
372.8573114518474
 21
68.14521493445948
 31
0.0
  0
SOLID
  5
13E7
330
13CF
100
AcDbEntity
  8
BEM
 62
     0
440
 16777216
100
AcDbTrace
 10
336.9084604758188
 20
70.61334825038937
 30
0.0
 11
336.8474018602021
 21
69.44828045984237
 31
0.0
 12
333.3827277963694
 22
70.21399020196621
 32
0.0
 13
333.3827277963694
 23
70.21399020196621
 33
0.0
  0
SOLID
  5
13E8
330
13CF
100
AcDbEntity
  8
BEM
 62
     0
440
 16777216
100
AcDbTrace
 10
372.8878407596558
 20
68.72774882973297
 30
0.0
 11
372.8267821440391
 21
67.56268103918597
 31
0.0
 12
376.3525148234884
 22
67.96203908760912
 32
0.0
 13
376.3525148234884
 23
67.96203908760912
 33
0.0
  0
MTEXT
  5
13E9
330
13CF
100
AcDbEntity
  8
BEM
 62
     1
440
 16777216
100
AcDbMText
 10
355.0377131677186
 20
72.33356063274005
 30
0.0
 40
3.5
 41
0.0
 71
     5
 72
     1
  1
\A1;43
 11
0.9986295347545734
 21
-0.0523359562429566
 31
0.0
 73
     1
 44
1.0
  0
POINT
  5
13EA
330
13CF
100
AcDbEntity
  8
DEFPOINTS
 62
     0
440
 16777216
100
AcDbPoint
 10
333.7451720735673
 20
77.12983899686314
 30
0.0
  0
POINT
  5
13EB
330
13CF
100
AcDbEntity
  8
DEFPOINTS
 62
     0
440
 16777216
100
AcDbPoint
 10
378.6367491609744
 20
111.54782670797
 30
0.0
  0
POINT
  5
13EC
330
13CF
100
AcDbEntity
  8
DEFPOINTS
 62
     0
440
 16777216
100
AcDbPoint
 10
376.3525148234884
 20
67.96203908760912
 30
0.0
  0
ENDBLK
  5
13DA
330
13CF
100
AcDbEntity
  8
0
100
AcDbBlockEnd
  0
ENDSEC
  0
SECTION
  2
ENTITIES
  0
LINE
  5
4B9
330
20
100
AcDbEntity
  8
HILF
100
AcDbLine
 10
0.0
 20
0.0
 30
0.0
 11
420.0
 21
0.0
 31
0.0
  0
LINE
  5
4BA
330
20
100
AcDbEntity
  8
HILF
100
AcDbLine
 10
420.0
 20
0.0
 30
0.0
 11
420.0
 21
297.0
 31
0.0
  0
LINE
  5
4BB
330
20
100
AcDbEntity
  8
HILF
100
AcDbLine
 10
420.0
 20
297.0
 30
0.0
 11
0.0
 21
297.0
 31
0.0
  0
LINE
  5
4BC
330
20
100
AcDbEntity
  8
HILF
100
AcDbLine
 10
0.0
 20
297.0
 30
0.0
 11
0.0
 21
0.0
 31
0.0
  0
LINE
  5
4BD
330
20
100
AcDbEntity
  8
STEMPEL
100
AcDbLine
 10
415.0
 20
292.0
 30
0.0
 11
20.0
 21
292.0
 31
0.0
  0
LINE
  5
4BE
330
20
100
AcDbEntity
  8
STEMPEL
100
AcDbLine
 10
20.0
 20
5.0
 30
0.0
 11
415.0
 21
5.0
 31
0.0
  0
LINE
  5
4BF
330
20
100
AcDbEntity
  8
STEMPEL
100
AcDbLine
 10
415.0
 20
5.0
 30
0.0
 11
415.0
 21
292.0
 31
0.0
  0
LINE
  5
4C0
330
20
100
AcDbEntity
  8
STEMPEL
100
AcDbLine
 10
20.0
 20
292.0
 30
0.0
 11
20.0
 21
5.0
 31
0.0
  0
TEXT
  5
4E1
330
20
100
AcDbEntity
  8
VOLL
100
AcDbText
 10
576.5450018312136
 20
-30.64437854115025
 30
0.0
 40
1.8
  1

  7
GREEKS
100
AcDbText
  0
TEXT
  5
4E2
330
20
100
AcDbEntity
  8
TEXT
100
AcDbText
 10
908.3772700348065
 20
-25.08614300792471
 30
0.0
 40
2.5
  1
  
  7
GREEKS
 72
     1
 11
910.6391747967114
 21
-25.08614300792471
 31
0.0
100
AcDbText
  0
TEXT
  5
4E3
330
20
100
AcDbEntity
  8
BEM
100
AcDbText
 10
1152.496987347289
 20
110.4727390224775
 30
0.0
 40
2.5
  1
 
 72
     4
 11
1153.627939728241
 21
110.4727390224775
 31
0.0
100
AcDbText
  0
TEXT
  5
4E5
330
20
100
AcDbEntity
  8
VOLL
100
AcDbText
 10
734.0797189083753
 20
-25.08882290607905
 30
0.0
 40
1.8
  1

  7
GREEKS
100
AcDbText
  0
TEXT
  5
4E6
330
20
100
AcDbEntity
  8
BEM
100
AcDbText
 10
768.5677837476598
 20
-20.36309858285844
 30
0.0
 40
2.5
  1

 41
0.8
  7
GREEKS
100
AcDbText
  0
TEXT
  5
4E7
330
20
100
AcDbEntity
  8
BEM
100
AcDbText
 10
768.5677837476598
 20
-25.0568671369106
 30
0.0
 40
2.5
  1

 41
0.8
  7
GREEKS
100
AcDbText
  0
TEXT
  5
4E8
330
20
100
AcDbEntity
  8
BEM
100
AcDbText
 10
768.5677837476598
 20
-30.2947109555741
 30
0.0
 40
2.5
  1

 41
0.8
  7
GREEKS
100
AcDbText
  0
TEXT
  5
4E9
330
20
100
AcDbEntity
  8
BEM
100
AcDbText
 10
768.4948392702854
 20
-34.79989990567172
 30
0.0
 40
1.8
  1

 41
0.8
  7
GREEKS
100
AcDbText
  0
TEXT
  5
4EA
330
20
100
AcDbEntity
  8
TEXT
100
AcDbText
 10
1065.911987111968
 20
-19.53058737285349
 30
0.0
 40
2.5
  1
  
  7
GREEKS
 72
     1
 11
1068.173891873873
 21
-19.53058737285349
 31
0.0
100
AcDbText
  0
TEXT
  5
4EB
330
20
100
AcDbEntity
  8
BEM
100
AcDbText
 10
1310.03170442445
 20
116.0282946575487
 30
0.0
 40
2.5
  1
 
 72
     4
 11
1311.162656805402
 21
116.0282946575487
 31
0.0
100
AcDbText
  0
TEXT
  5
4FB
330
20
100
AcDbEntity
  8
VOLL
100
AcDbText
 10
534.4160165602213
 20
172.5724056536878
 30
0.0
 40
1.8
  1

  7
GREEKS
100
AcDbText
  0
TEXT
  5
507
330
20
100
AcDbEntity
  8
TEXT
 62
     1
100
AcDbText
 10
172.3382402065886
 20
182.6998250217993
 30
0.0
 40
3.5
  1
DN70
 41
0.8
  7
GREEKS
100
AcDbText
  0
TEXT
  5
530
330
20
100
AcDbEntity
  8
VOLL
100
AcDbText
 10
485.18100284821
 20
287.3094900586244
 30
0.0
 40
1.8
  1

  7
GREEKS
100
AcDbText
  0
TEXT
  5
531
330
20
100
AcDbEntity
  8
TEXT
100
AcDbText
 10
817.013271051803
 20
292.8677255918499
 30
0.0
 40
2.5
  1
  
  7
GREEKS
 72
     1
 11
819.2751758137077
 21
292.8677255918499
 31
0.0
100
AcDbText
  0
TEXT
  5
532
330
20
100
AcDbEntity
  8
BEM
100
AcDbText
 10
1061.132988364285
 20
428.4266076222521
 30
0.0
 40
2.5
  1
 
 72
     4
 11
1062.263940745237
 21
428.4266076222521
 31
0.0
100
AcDbText
  0
TEXT
  5
533
330
20
100
AcDbEntity
  8
VOLL
100
AcDbText
 10
642.7157199253717
 20
292.8650456936956
 30
0.0
 40
1.8
  1

  7
GREEKS
100
AcDbText
  0
TEXT
  5
534
330
20
100
AcDbEntity
  8
BEM
100
AcDbText
 10
677.2037847646563
 20
297.5907700169162
 30
0.0
 40
2.5
  1

 41
0.8
  7
GREEKS
100
AcDbText
  0
TEXT
  5
535
330
20
100
AcDbEntity
  8
BEM
100
AcDbText
 10
677.2037847646563
 20
292.8970014628641
 30
0.0
 40
2.5
  1

 41
0.8
  7
GREEKS
100
AcDbText
  0
TEXT
  5
536
330
20
100
AcDbEntity
  8
BEM
100
AcDbText
 10
677.2037847646563
 20
287.6591576442006
 30
0.0
 40
2.5
  1

 41
0.8
  7
GREEKS
100
AcDbText
  0
TEXT
  5
537
330
20
100
AcDbEntity
  8
BEM
100
AcDbText
 10
677.1308402872818
 20
283.1539686941029
 30
0.0
 40
1.8
  1

 41
0.8
  7
GREEKS
100
AcDbText
  0
TEXT
  5
538
330
20
100
AcDbEntity
  8
TEXT
100
AcDbText
 10
974.5479881289645
 20
298.4232812269212
 30
0.0
 40
2.5
  1
  
  7
GREEKS
 72
     1
 11
976.8098928908694
 21
298.4232812269212
 31
0.0
100
AcDbText
  0
TEXT
  5
539
330
20
100
AcDbEntity
  8
BEM
100
AcDbText
 10
1218.667705441446
 20
433.9821632573233
 30
0.0
 40
2.5
  1
 
 72
     4
 11
1219.798657822399
 21
433.9821632573233
 31
0.0
100
AcDbText
  0
TEXT
  5
53A
330
20
100
AcDbEntity
  8
VOLL
100
AcDbText
 10
443.0520175772177
 20
490.5262742534624
 30
0.0
 40
1.8
  1

  7
GREEKS
100
AcDbText
  0
TEXT
  5
56C
330
20
100
AcDbEntity
  8
VOLL
100
AcDbText
 10
560.4703238567093
 20
57.69226750693924
 30
0.0
 40
1.8
  1

  7
GREEKS
100
AcDbText
  0
TEXT
  5
6E6
330
20
100
AcDbEntity
  8
BEM
100
AcDbText
 10
418.6511461928582
 20
5.083950539994304
 30
0.0
 40
2.0
  1
Diese Zeichnung ist urheberrechtlich geschützt und bleibt unser Eigentum. Sie darf weder ganz noch teilweise verfielfältigt und nicht an Dritte weitergegeben werden.
 50
90.0
 41
0.8
  7
GREEKS
100
AcDbText
  0
TEXT
  5
709
330
20
100
AcDbEntity
  8
TEXT
 62
     1
100
AcDbText
 10
337.0449869143913
 20
161.1099966367497
 30
0.0
 40
3.5
  1
DN70
 50
357.0
 41
0.8
  7
GREEKS
100
AcDbText
  0
LINE
  5
CB2
330
20
100
AcDbEntity
  8
BEM
100
AcDbLine
 10
394.4439001861153
 20
147.1298389968632
 30
0.0
 11
403.2178069726796
 21
147.1298389968632
 31
0.0
  0
POINT
  5
CB3
330
20
100
AcDbEntity
  8
BEM
 62
     0
100
AcDbPoint
 10
402.2178069726797
 20
225.1298389968632
 30
0.0
  0
TEXT
  5
CB6
330
20
100
AcDbEntity
  8
BEM
 62
     1
100
AcDbText
 10
400.4678069726796
 20
180.7965056635298
 30
0.0
 40
3.5
  1
78%%p3
 50
90.0
 41
0.8
  7
GREEKS
 72
     1
 11
398.7178069726797
 21
186.1298389968632
 31
0.0
100
AcDbText
 73
     2
  0
SOLID
  5
CB7
330
20
100
AcDbEntity
  8
BEM
 62
     0
100
AcDbTrace
 10
401.6344736393463
 20
221.6298389968632
 30
0.0
 11
402.801140306013
 21
221.6298389968632
 31
0.0
 12
402.2178069726797
 22
225.1298389968632
 32
0.0
 13
402.2178069726797
 23
225.1298389968632
 33
0.0
  0
SOLID
  5
CB8
330
20
100
AcDbEntity
  8
BEM
100
AcDbTrace
 10
401.6344736393463
 20
150.6298389968632
 30
0.0
 11
402.801140306013
 21
150.6298389968632
 31
0.0
 12
402.2178069726797
 22
147.1298389968632
 32
0.0
 13
402.2178069726797
 23
147.1298389968632
 33
0.0
  0
LINE
  5
CB9
330
20
100
AcDbEntity
  8
BEM
100
AcDbLine
 10
402.2178069726797
 20
150.6298389968632
 30
0.0
 11
402.2178069726797
 21
221.6298389968632
 31
0.0
  0
LINE
  5
CBA
330
20
100
AcDbEntity
  8
BEM
 62
     0
100
AcDbLine
 10
342.5015234074573
 20
225.1298389968632
 30
0.0
 11
403.2178069726796
 21
225.1298389968632
 31
0.0
  0
LINE
  5
CBB
330
20
100
AcDbEntity
  8
BEM
100
AcDbLine
 10
381.5015234074572
 20
147.1298389968632
 30
0.0
 11
385.9238046253717
 21
147.1298389968632
 31
0.0
  0
DIMENSION
  5
CDE
330
20
100
AcDbEntity
  8
BEM
100
AcDbDimension
  2
*D1
 10
390.7127606033093
 20
110.0446001027722
 30
0.0
 11
392.5926767251787
 21
145.915536585627
 31
0.0
 70
   161
  1
%%c<>
 71
     5
 42
72.99999999999991
  3
Standard
100
AcDbAlignedDimension
 13
372.4908921234343
 23
184.0997490220382
 33
0.0
 14
368.6703673176995
 24
111.1997929849544
 34
0.0
1001
ACAD
1000
DSTYLE
1002
{
1070
    41
1040
3.5
1070
    42
1040
1.0
1070
    43
1040
7.0
1070
    44
1040
1.0
1070
    47
1040
0.2
1070
    48
1040
0.2
1070
    73
1070
     0
1070
    74
1070
     0
1070
    77
1070
     1
1070
    78
1070
     8
1070
    79
1070
     2
1070
   140
1040
3.5
1070
   141
1040
1.5
1070
   145
1040
0.5714285714285714
1070
   146
1040
0.5
1070
   147
1040
1.5
1070
   172
1070
     1
1070
   178
1070
     1
1070
   179
1070
     2
1070
   271
1070
     2
1070
   272
1070
     2
1070
   284
1070
     8
1070
   285
1070
     8
1070
   286
1070
     8
1002
}
  0
LINE
  5
D06
102
{ACAD_REACTORS
330
12A4
102
}
330
20
100
AcDbEntity
  8
MITTEL
100
AcDbLine
 10
195.5015234074572
 20
230.1298389968632
 30
0.0
 11
195.5015234074573
 21
115.1298389968632
 31
0.0
  0
DIMENSION
  5
D1B
330
20
100
AcDbEntity
  8
BEM
100
AcDbDimension
  2
*D2
 10
44.34397023305087
 20
225.1298389968632
 30
0.0
 11
41.09397023305083
 21
215.6965056635299
 31
0.0
 70
    32
 71
     5
 42
2.0
  3
Standard
100
AcDbAlignedDimension
 13
49.50152340745728
 23
227.1298389968632
 33
0.0
 14
49.50152340745728
 24
225.1298389968632
 34
0.0
 50
90.0
100
AcDbRotatedDimension
1001
ACAD
1000
DSTYLE
1002
{
1070
    41
1040
3.5
1070
    42
1040
1.0
1070
    43
1040
7.0
1070
    44
1040
1.0
1070
    47
1040
0.2
1070
    48
1040
0.2
1070
    73
1070
     0
1070
    74
1070
     0
1070
    77
1070
     1
1070
    78
1070
     8
1070
    79
1070
     2
1070
   140
1040
3.5
1070
   141
1040
1.5
1070
   145
1040
0.5714285714285714
1070
   146
1040
0.5
1070
   147
1040
1.5
1070
   172
1070
     1
1070
   178
1070
     1
1070
   179
1070
     2
1070
   271
1070
     2
1070
   272
1070
     2
1070
   284
1070
     8
1070
   285
1070
     8
1070
   286
1070
     8
1002
}
  0
DIMENSION
  5
D3A
330
20
100
AcDbEntity
  8
BEM
100
AcDbDimension
  2
*D3
 10
341.5015234074573
 20
250.1138968333987
 30
0.0
 11
195.5015234074572
 21
253.3638968333987
 31
0.0
 70
    32
  1
%%C<>
 71
     5
 42
292.0
  3
Standard
100
AcDbAlignedDimension
 13
49.50152340745728
 23
227.1298389968632
 33
0.0
 14
341.5015234074573
 24
227.1298389968632
 34
0.0
100
AcDbRotatedDimension
1001
ACAD
1000
DSTYLE
1002
{
1070
    41
1040
3.5
1070
    42
1040
1.0
1070
    43
1040
7.0
1070
    44
1040
1.0
1070
    47
1040
0.2
1070
    48
1040
0.2
1070
    73
1070
     0
1070
    74
1070
     0
1070
    77
1070
     1
1070
    78
1070
     8
1070
    79
1070
     2
1070
   140
1040
3.5
1070
   141
1040
1.5
1070
   145
1040
0.5714285714285714
1070
   146
1040
0.5
1070
   147
1040
1.5
1070
   172
1070
     1
1070
   178
1070
     1
1070
   179
1070
     2
1070
   271
1070
     2
1070
   272
1070
     2
1070
   284
1070
     8
1070
   285
1070
     8
1070
   286
1070
     8
1002
}
  0
TEXT
  5
1164
330
20
100
AcDbEntity
  8
BEM
100
AcDbText
 10
306.9981736522005
 20
43.95228283670991
 30
0.0
 40
2.0
  1
DIN EN1123-2
 41
0.8
 72
     1
 11
315.4934117474386
 21
43.95228283670991
 31
0.0
100
AcDbText
  0
INSERT
  5
1166
330
20
100
AcDbEntity
  8
BEM
100
AcDbBlockReference
  2
LORO
 10
282.9999999999999
 20
5.0
 30
0.0
  0
TEXT
  5
1167
330
20
100
AcDbEntity
  8
TEXT
100
AcDbText
 10
327.4105885577624
 20
26.15296550516098
 30
0.0
 40
2.5
  1
EDV-Art.Nr.19236.070X
 41
0.8
  7
GREEKS
100
AcDbText
  0
TEXT
  5
1168
330
20
100
AcDbEntity
  8
TEXT
100
AcDbText
 10
235.1015633051928
 20
56.79771096129536
 30
0.0
 40
2.5
  1
Erstellt mit AUTOCAD 2004
 41
0.8
  7
GREEKS
100
AcDbText
  0
TEXT
  5
1169
330
20
100
AcDbEntity
  8
TEXT
100
AcDbText
 10
327.4856700267283
 20
21.09752286506773
 30
0.0
 40
1.8
  1
19236070W.DWG
 41
0.8
  7
GREEKS
100
AcDbText
  0
TEXT
  5
116A
330
20
100
AcDbEntity
  8
TEXT
 62
     1
100
AcDbText
 10
382.6629667957844
 20
43.50931870881786
 30
0.0
 40
3.5
  1
19236070W
 41
0.8
  7
GREEKS
 72
     1
 11
394.3963001291178
 21
43.50931870881786
 31
0.0
100
AcDbText
  0
TEXT
  5
116B
330
20
100
AcDbEntity
  8
TEXT
100
AcDbText
 10
327.4105885577624
 20
36.15296550516098
 30
0.0
 40
2.5
  1
Auslauf 3%%d
 41
0.8
  7
GREEKS
100
AcDbText
  0
TEXT
  5
116C
330
20
100
AcDbEntity
  8
TEXT
 62
     1
100
AcDbText
 10
289.4032155182224
 20
43.11205252186607
 30
0.0
 40
3.5
  1
1:1
  7
GREEKS
100
AcDbText
  0
TEXT
  5
116D
330
20
100
AcDbEntity
  8
TEXT
100
AcDbText
 10
295.2882621785962
 20
31.70276617679747
 30
0.0
 40
1.8
  1
21.02.
 41
0.8
  7
GREEKS
100
AcDbText
  0
TEXT
  5
116E
330
20
100
AcDbEntity
  8
TEXT
100
AcDbText
 10
284.2713005475914
 20
36.57291841952073
 30
0.0
 40
1.8
  1
2013
 41
0.8
  7
GREEKS
100
AcDbText
  0
TEXT
  5
116F
330
20
100
AcDbEntity
  8
TEXT
100
AcDbText
 10
378.6200430748503
 20
26.037080889393
 30
0.0
 40
2.5
  1
ersetzt durch:
 41
0.8
  7
GREEKS
100
AcDbText
  0
TEXT
  5
1170
330
20
100
AcDbEntity
  8
TEXT
100
AcDbText
 10
311.8080450578568
 20
31.7512662937545
 30
0.0
 40
1.8
  1
Koeh
 41
0.8
  7
GREEKS
100
AcDbText
  0
TEXT
  5
1171
330
20
100
AcDbEntity
  8
TEXT
100
AcDbText
 10
283.8003388693651
 20
21.76473194824899
 30
0.0
 40
1.8
  1
Norm.
 41
0.8
  7
GREEKS
100
AcDbText
  0
TEXT
  5
1172
330
20
100
AcDbEntity
  8
TEXT
100
AcDbText
 10
283.7757543285835
 20
26.84463145714187
 30
0.0
 40
1.8
  1
Gepr.
 41
0.8
  7
GREEKS
100
AcDbText
  0
TEXT
  5
1173
330
20
100
AcDbEntity
  8
TEXT
100
AcDbText
 10
283.7918063583806
 20
31.81495184808978
 30
0.0
 40
1.8
  1
Gez.
 41
0.8
  7
GREEKS
100
AcDbText
  0
TEXT
  5
1174
330
20
100
AcDbEntity
  8
TEXT
100
AcDbText
 10
311.2313292113147
 20
36.6548054595761
 30
0.0
 40
1.8
  1
Name
 41
0.8
  7
GREEKS
100
AcDbText
  0
TEXT
  5
1175
330
20
100
AcDbEntity
  8
TEXT
100
AcDbText
 10
296.1655836576824
 20
36.65940250614961
 30
0.0
 40
1.8
  1
Tag
 41
0.8
  7
GREEKS
100
AcDbText
  0
TEXT
  5
1176
330
20
100
AcDbEntity
  8
TEXT
100
AcDbText
 10
274.5086812872148
 20
9.296621084831997
 30
0.0
 40
2.0
  1
Name
 41
0.8
  7
GREEKS
 72
     1
 11
277.6705860491195
 21
9.296621084831997
 31
0.0
100
AcDbText
  0
TEXT
  5
1177
330
20
100
AcDbEntity
  8
TEXT
100
AcDbText
 10
264.9308591908306
 20
9.335781346699036
 30
0.0
 40
2.0
  1
Tag
 41
0.8
  7
GREEKS
 72
     1
 11
266.7975258574973
 21
9.335781346699036
 31
0.0
100
AcDbText
  0
TEXT
  5
1178
330
20
100
AcDbEntity
  8
TEXT
100
AcDbText
 10
239.1332055352287
 20
6.827329230135944
 30
0.0
 40
1.8
  1
Index
 50
90.0
 41
0.8
  7
GREEKS
100
AcDbText
  0
TEXT
  5
1179
330
20
100
AcDbEntity
  8
TEXT
100
AcDbText
 10
378.3619308148496
 20
36.59059118549982
 30
0.0
 40
2.5
  1
Ersatz für:
 41
0.8
  7
GREEKS
100
AcDbText
  0
TEXT
  5
117A
330
20
100
AcDbEntity
  8
TEXT
100
AcDbText
 10
327.3711191955679
 20
15.4228028509653
 30
0.0
 40
2.5
  1
Bauvorhaben
 41
0.8
  7
GREEKS
100
AcDbText
  0
TEXT
  5
117B
330
20
100
AcDbEntity
  8
TEXT
100
AcDbText
 10
378.089377478817
 20
51.15660172685679
 30
0.0
 40
2.5
  1
Zeichnungs Nr.
 41
0.8
  7
GREEKS
100
AcDbText
  0
TEXT
  5
117C
330
20
100
AcDbEntity
  8
TEXT
100
AcDbText
 10
327.4389701904504
 20
51.27446640058895
 30
0.0
 40
2.5
  1
Benennung
 41
0.8
  7
GREEKS
100
AcDbText
  0
TEXT
  5
117D
330
20
100
AcDbEntity
  8
BEM
100
AcDbText
 10
308.9823307452798
 20
51.20920842174093
 30
0.0
 40
2.5
  1
zul.Abw.
 41
0.8
  7
GREEKS
100
AcDbText
  0
TEXT
  5
117E
330
20
100
AcDbEntity
  8
BEM
100
AcDbText
 10
286.7581786075188
 20
51.2310447543544
 30
0.0
 40
2.5
  1
Maßstab
 41
0.8
  7
GREEKS
100
AcDbText
  0
TEXT
  5
117F
330
20
100
AcDbEntity
  8
TEXT
100
AcDbText
 10
246.3266963118282
 20
9.336909474920616
 30
0.0
 40
2.0
  1
Änderung
 41
0.8
  7
GREEKS
 72
     1
 11
251.6981248832568
 21
9.336909474920616
 31
0.0
100
AcDbText
  0
LINE
  5
1180
330
20
100
AcDbEntity
  8
HILF
100
AcDbLine
 10
327.3868400548473
 20
7.446991290141511
 30
0.0
 11
412.4294419663364
 21
7.446991290141511
 31
0.0
  0
LINE
  5
1181
330
20
100
AcDbEntity
  8
HILF
100
AcDbLine
 10
378.3619308148496
 20
41.8899181847791
 30
0.0
 11
412.4294419663364
 21
41.8899181847791
 31
0.0
  0
LINE
  5
1182
330
20
100
AcDbEntity
  8
VOLL
100
AcDbLine
 10
376.0
 20
30.0
 30
0.0
 11
415.0
 21
30.0
 31
0.0
  0
LINE
  5
1183
330
20
100
AcDbEntity
  8
HILF
100
AcDbLine
 10
327.3868400548473
 20
25.0
 30
0.0
 11
373.3148921257405
 21
25.0
 31
0.0
  0
LINE
  5
1184
330
20
100
AcDbEntity
  8
HILF
100
AcDbLine
 10
327.3868400548473
 20
30.0
 30
0.0
 11
373.3148921257405
 21
30.0
 31
0.0
  0
LINE
  5
1185
330
20
100
AcDbEntity
  8
HILF
100
AcDbLine
 10
327.3868400548473
 20
35.0
 30
0.0
 11
373.3148921257405
 21
35.0
 31
0.0
  0
LINE
  5
1186
330
20
100
AcDbEntity
  8
HILF
100
AcDbLine
 10
327.3868400548473
 20
42.01879123782066
 30
0.0
 11
373.3148921257405
 21
42.01879123782066
 31
0.0
  0
LINE
  5
1187
330
20
100
AcDbEntity
  8
HILF
100
AcDbLine
 10
283.0
 20
25.0
 30
0.0
 11
324.9999999999999
 21
25.0
 31
0.0
  0
LINE
  5
1188
330
20
100
AcDbEntity
  8
HILF
100
AcDbLine
 10
283.0
 20
30.0
 30
0.0
 11
324.9999999999999
 21
30.0
 31
0.0
  0
LINE
  5
1189
330
20
100
AcDbEntity
  8
HILF
100
AcDbLine
 10
283.0
 20
35.0
 30
0.0
 11
324.9999999999999
 21
35.0
 31
0.0
  0
LINE
  5
118A
330
20
100
AcDbEntity
  8
HILF
100
AcDbLine
 10
235.0
 20
20.0
 30
0.0
 11
283.0
 21
20.0
 31
0.0
  0
LINE
  5
118B
330
20
100
AcDbEntity
  8
HILF
100
AcDbLine
 10
235.0
 20
25.0
 30
0.0
 11
283.0
 21
25.0
 31
0.0
  0
LINE
  5
118C
330
20
100
AcDbEntity
  8
HILF
100
AcDbLine
 10
235.0
 20
30.0
 30
0.0
 11
283.0
 21
30.0
 31
0.0
  0
LINE
  5
118D
330
20
100
AcDbEntity
  8
HILF
100
AcDbLine
 10
235.0
 20
35.0
 30
0.0
 11
283.0
 21
35.0
 31
0.0
  0
LINE
  5
118E
330
20
100
AcDbEntity
  8
HILF
100
AcDbLine
 10
235.0
 20
40.0
 30
0.0
 11
283.0
 21
40.0
 31
0.0
  0
LINE
  5
118F
330
20
100
AcDbEntity
  8
HILF
100
AcDbLine
 10
235.0
 20
45.0
 30
0.0
 11
283.0
 21
45.0
 31
0.0
  0
LINE
  5
1190
330
20
100
AcDbEntity
  8
HILF
100
AcDbLine
 10
235.0
 20
50.0
 30
0.0
 11
283.0
 21
50.0
 31
0.0
  0
LINE
  5
1191
330
20
100
AcDbEntity
  8
VOLL
100
AcDbLine
 10
305.0
 20
54.99999999999992
 30
0.0
 11
304.9999999999999
 21
20.0
 31
0.0
  0
LINE
  5
1192
330
20
100
AcDbEntity
  8
VOLL
100
AcDbLine
 10
292.0
 20
40.0
 30
0.0
 11
292.0
 21
20.0
 31
0.0
  0
LINE
  5
1193
330
20
100
AcDbEntity
  8
VOLL
100
AcDbLine
 10
272.0
 20
54.99999999999994
 30
0.0
 11
271.9999999999999
 21
4.999999999999943
 31
0.0
  0
LINE
  5
1194
330
20
100
AcDbEntity
  8
VOLL
100
AcDbLine
 10
262.0
 20
54.99999999999997
 30
0.0
 11
261.9999999999999
 21
5.0
 31
0.0
  0
LINE
  5
1195
330
20
100
AcDbEntity
  8
VOLL
100
AcDbLine
 10
242.0
 20
55.0
 30
0.0
 11
241.9999999999999
 21
5.0
 31
0.0
  0
LINE
  5
1196
330
20
100
AcDbEntity
  8
STEMPEL
100
AcDbLine
 10
415.0
 20
40.0
 30
0.0
 11
283.0
 21
40.0
 31
0.0
  0
LINE
  5
1197
330
20
100
AcDbEntity
  8
STEMPEL
100
AcDbLine
 10
415.0
 20
20.0
 30
0.0
 11
282.9999999999999
 21
20.0
 31
0.0
  0
LINE
  5
1198
330
20
100
AcDbEntity
  8
STEMPEL
100
AcDbLine
 10
282.9999999999999
 20
15.0
 30
0.0
 11
235.0
 21
15.0
 31
0.0
  0
LINE
  5
1199
330
20
100
AcDbEntity
  8
STEMPEL
100
AcDbLine
 10
376.0
 20
54.99999999999983
 30
0.0
 11
376.0
 21
20.0
 31
0.0
  0
LINE
  5
119A
330
20
100
AcDbEntity
  8
STEMPEL
100
AcDbLine
 10
324.9999999999999
 20
55.0
 30
0.0
 11
324.9999999999999
 21
5.0
 31
0.0
  0
LINE
  5
119B
330
20
100
AcDbEntity
  8
STEMPEL
100
AcDbLine
 10
283.0
 20
54.99999999999994
 30
0.0
 11
282.9999999999999
 21
4.999999999999943
 31
0.0
  0
LINE
  5
119C
330
20
100
AcDbEntity
  8
STEMPEL
100
AcDbLine
 10
235.0
 20
55.0
 30
0.0
 11
235.0
 21
5.0
 31
0.0
  0
LINE
  5
119D
330
20
100
AcDbEntity
  8
STEMPEL
100
AcDbLine
 10
415.0
 20
55.0
 30
0.0
 11
235.0
 21
55.0
 31
0.0
  0
TEXT
  5
119E
330
20
100
AcDbEntity
  8
TEXT
 62
     1
100
AcDbText
 10
327.4895586704976
 20
43.49706041992661
 30
0.0
 40
3.5
  1
Grundeinheit DN70
 41
0.8
  7
GREEKS
100
AcDbText
  0
LINE
  5
1273
330
20
100
AcDbEntity
  8
TEXT
 62
     2
100
AcDbLine
 10
296.2219415063401
 20
260.2875774959368
 30
0.0
 11
292.2762772141002
 21
251.5645697785669
 31
0.0
  0
TEXT
  5
1274
330
20
100
AcDbEntity
  8
TEXT
 62
     1
100
AcDbText
 10
296.8582851176989
 20
255.6090004672864
 30
0.0
 40
3.5
  1
EDV-Art.Nr.19088.070X
 41
0.8
  7
GREEKS
100
AcDbText
  0
LINE
  5
1275
330
20
100
AcDbEntity
  8
TEXT
 62
     2
100
AcDbLine
 10
296.2219415063401
 20
260.2875774959368
 30
0.0
 11
347.2539107789526
 21
260.2875774959368
 31
0.0
  0
TEXT
  5
1276
330
20
100
AcDbEntity
  8
TEXT
 62
     1
100
AcDbText
 10
296.8582851176989
 20
262.0526324026388
 30
0.0
 40
3.5
  1
Flanschdichtring DN70
 41
0.8
  7
GREEKS
100
AcDbText
  0
TEXT
  5
1277
330
20
100
AcDbEntity
  8
TEXT
 62
     1
100
AcDbText
 10
356.5286814591476
 20
250.3905909994474
 30
0.0
 40
3.5
  1
Ablauftorf DN70
 41
0.8
  7
GREEKS
100
AcDbText
  0
LINE
  5
1278
330
20
100
AcDbEntity
  8
TEXT
 62
     2
100
AcDbLine
 10
355.8923378477888
 20
248.6255360927455
 30
0.0
 11
406.9243071204012
 21
248.6255360927455
 31
0.0
  0
TEXT
  5
1279
330
20
100
AcDbEntity
  8
TEXT
 62
     1
100
AcDbText
 10
356.5286814591476
 20
243.946959064095
 30
0.0
 40
3.5
  1
EDV-Art.Nr.19005.070X
 41
0.8
  7
GREEKS
100
AcDbText
  0
LINE
  5
127A
330
20
100
AcDbEntity
  8
TEXT
 62
     2
100
AcDbLine
 10
355.8923378477888
 20
248.6255360927455
 30
0.0
 11
340.2115376368075
 21
225.9680524641841
 31
0.0
  0
TEXT
  5
127C
330
20
100
AcDbEntity
  8
TEXT
 62
     1
100
AcDbText
 10
273.8550024517531
 20
279.3506039084704
 30
0.0
 40
3.5
  1
Sechskantmutter M8 DIN 934,  1.4401
 41
0.8
  7
GREEKS
100
AcDbText
  0
LINE
  5
127D
330
20
100
AcDbEntity
  8
TEXT
 62
     2
100
AcDbLine
 10
273.2186588403944
 20
277.5855490017684
 30
0.0
 11
359.841071093937
 21
277.5855490017684
 31
0.0
  0
TEXT
  5
127E
330
20
100
AcDbEntity
  8
TEXT
 62
     1
100
AcDbText
 10
273.8550024517531
 20
272.9069719731179
 30
0.0
 40
3.5
  1
U-Scheibe A8.4 DIN 125, 1.4401
 41
0.8
  7
GREEKS
100
AcDbText
  0
LINE
  5
127F
330
20
100
AcDbEntity
  8
TEXT
 62
     2
100
AcDbLine
 10
231.5639692479712
 20
206.7730013202266
 30
0.0
 11
247.4704606175798
 21
233.8138744986772
 31
0.0
  0
LINE
  5
1280
330
20
100
AcDbEntity
  8
TEXT
 62
     2
100
AcDbLine
 10
97.06119562763058
 20
248.5854771563634
 30
0.0
 11
105.0165533373988
 21
223.9784084328038
 31
0.0
  0
LINE
  5
1281
330
20
100
AcDbEntity
  8
TEXT
 62
     2
100
AcDbLine
 10
91.31112809780892
 20
266.3712653048578
 30
0.0
 11
96.15404080372963
 21
251.3914378571914
 31
0.0
  0
TEXT
  5
1282
330
20
100
AcDbEntity
  8
TEXT
 62
     1
100
AcDbText
 10
41.27113328933001
 20
268.1363202115596
 30
0.0
 40
3.5
  1
Losflansch
 41
0.8
  7
GREEKS
100
AcDbText
  0
LINE
  5
1283
330
20
100
AcDbEntity
  8
TEXT
 62
     2
100
AcDbLine
 10
40.63478967797118
 20
266.3712653048578
 30
0.0
 11
91.31112809780892
 21
266.3712653048578
 31
0.0
  0
TEXT
  5
1284
330
20
100
AcDbEntity
  8
TEXT
 62
     1
100
AcDbText
 10
41.27113328933001
 20
261.6926882762072
 30
0.0
 40
3.5
  1
EDV-Art.Nr.19070.070X
 41
0.8
  7
GREEKS
100
AcDbText
  0
DIMENSION
  5
128D
102
{ACAD_XDICTIONARY
360
129A
102
}
102
{ACAD_REACTORS
330
12A4
102
}
330
20
100
AcDbEntity
  8
BEM
100
AcDbDimension
  2
*D4
 10
195.5015234074573
 20
115.1298389968632
 30
0.0
 11
211.6922534721929
 21
177.7553349053828
 31
0.0
 70
   162
 71
     5
 42
1.623156204354725
  3
Standard
100
AcDb2LineAngularDimension
 13
383.4974120117211
 23
146.9728311281343
 33
0.0
 14
195.5015234074572
 24
156.8252781642258
 34
0.0
 15
195.5015234074572
 25
230.1298389968632
 35
0.0
 16
218.8655749513042
 26
169.2481647319141
 36
0.0
1001
ACAD
1000
DSTYLE
1002
{
1070
    41
1040
3.5
1070
    42
1040
1.0
1070
    43
1040
7.0
1070
    44
1040
1.0
1070
    47
1040
0.2
1070
    48
1040
0.2
1070
    73
1070
     0
1070
    74
1070
     0
1070
    77
1070
     1
1070
    78
1070
     8
1070
    79
1070
     2
1070
   140
1040
3.5
1070
   141
1040
1.5
1070
   145
1040
0.5714285714285714
1070
   146
1040
0.5
1070
   147
1040
1.5
1070
   172
1070
     1
1070
   178
1070
     1
1070
   179
1070
     2
1070
   271
1070
     2
1070
   272
1070
     2
1070
   284
1070
     8
1070
   285
1070
     8
1070
   286
1070
     8
1002
}
  0
DIMENSION
  5
1388
102
{ACAD_XDICTIONARY
360
1389
102
}
102
{ACAD_REACTORS
330
138A
102
}
330
20
100
AcDbEntity
  8
BEM
100
AcDbDimension
  2
*D6
 10
95.9015045503512
 20
235.6574908316891
 30
0.0
 11
218.7015139789043
 21
238.9074908316891
 31
0.0
 70
    32
  1
245
 71
     5
 42
245.6000188571061
  3
Standard
100
AcDbAlignedDimension
 13
341.5015234074573
 23
227.1298389968632
 33
0.0
 14
95.9015045503512
 24
220.0963479536554
 34
0.0
100
AcDbRotatedDimension
1001
ACAD
1000
DSTYLE
1002
{
1070
    41
1040
3.5
1070
    42
1040
1.0
1070
    43
1040
7.0
1070
    44
1040
1.0
1070
    47
1040
0.2
1070
    48
1040
0.2
1070
    73
1070
     0
1070
    74
1070
     0
1070
    77
1070
     1
1070
    78
1070
     8
1070
    79
1070
     2
1070
   140
1040
3.5
1070
   141
1040
1.5
1070
   145
1040
0.5714285714285714
1070
   146
1040
0.5
1070
   147
1040
1.5
1070
   172
1070
     1
1070
   178
1070
     1
1070
   179
1070
     2
1070
   271
1070
     2
1070
   272
1070
     2
1070
   284
1070
     8
1070
   285
1070
     8
1070
   286
1070
     8
1002
}
  0
HATCH
  5
138B
330
20
100
AcDbEntity
  8
SCHRAFF
100
AcDbHatch
 10
0.0
 20
0.0
 30
0.0
210
0.0
220
0.0
230
1.0
  2
HONEY
 70
     0
 71
     0
 91
        2
 92
        7
 72
     1
 73
     1
 93
       10
 10
324.1442936582901
 20
199.6513273814584
 42
0.0
 10
340.1223662143633
 20
198.8139520815712
 42
0.0
 10
341.5015234074574
 20
225.1298389968632
 42
0.0
 10
314.0015234074573
 20
225.1298389968632
 42
0.1324846866320399
 10
294.8939573278544
 20
219.9764661983524
 42
0.0
 10
258.1240595406395
 20
198.5866520357099
 42
-0.5718485723578014
 10
255.5015234074573
 20
194.1298389968632
 42
0.0
 10
255.5015234074573
 20
193.2309020361675
 42
-0.4296339059668373
 10
258.497412011721
 20
190.0738941674386
 42
0.0
 10
323.4639262271321
 20
186.6691434296488
 42
0.0
 97
        0
 92
        7
 72
     1
 73
     1
 93
       15
 10
318.9630339902387
 20
100.7870034407555
 42
0.0
 10
319.643401421397
 20
113.769187392565
 42
0.0
 10
230.8204074346531
 20
118.4242032566811
 42
-0.506418376806895
 10
224.8586693396748
 20
118.1298389968632
 42
0.0
 10
166.6571132037454
 20
118.1298389968632
 42
-0.2149364488769867
 10
150.5491958172569
 20
125.3895792566034
 42
-0.1829859490764164
 10
135.5015234074573
 20
165.1298389968632
 42
0.0
 10
135.5015234074573
 20
194.1298389968631
 42
-0.5718485723578051
 10
132.8789872742751
 20
198.5866520357098
 42
0.0
 10
96.10908948706015
 20
219.9764661983524
 42
0.0015770743694085
 10
95.9015045503512
 20
220.0963479536553
 42
0.0
 10
100.9108133946409
 20
124.513041184716
 42
0.3989595459737192
 10
150.8422901323696
 20
77.12983899686324
 42
0.0
 10
333.7451720735673
 20
77.12983899686324
 42
0.0
 10
334.9411065463119
 20
99.94962814086843
 42
0.0
 97
        0
 75
     0
 76
     1
 52
0.0
 41
30.0
 77
     0
 78
     3
 53
0.0
 43
-0.496926654501749
 44
-16.88474940143339
 45
5.625
 46
3.247595249999999
 79
     2
 49
3.75
 49
-7.5
 53
120.0
 43
-0.496926654501749
 44
-16.88474940143339
 45
-5.624999987709673
 46
3.247595271287468
 79
     2
 49
3.749999999999999
 49
-7.499999999999998
 53
60.0
 43
-0.496926654501749
 44
-16.88474940143339
 45
0.0000000122903263
 46
6.495190521287468
 79
     2
 49
-7.5
 49
3.75
 47
0.4968411867568329
 98
        2
 10
288.3098909639917
 20
197.943551734386
 10
236.6089747903894
 20
100.0658369628609
  0
LINE
  5
138C
102
{ACAD_REACTORS
330
138A
102
}
330
20
100
AcDbEntity
  8
STEMPEL
100
AcDbLine
 10
95.9015045503512
 20
220.0963479536554
 30
0.0
 11
100.9108133946409
 21
124.513041184716
 31
0.0
  0
ARC
  5
138D
102
{ACAD_REACTORS
330
1390
102
}
330
20
100
AcDbEntity
  8
STEMPEL
100
AcDbCircle
 10
150.8422901323697
 20
127.1298389968632
 30
0.0
 40
50.0
100
AcDbArc
 50
183.0000000000007
 51
270.0
  0
DIMENSION
  5
138E
102
{ACAD_XDICTIONARY
360
138F
102
}
102
{ACAD_REACTORS
330
1390
102
}
330
20
100
AcDbEntity
  8
BEM
100
AcDbDimension
  2
*D7
 10
35.3506639337221
 20
77.12983899686325
 30
0.0
 11
32.1006639337221
 21
152.1298389968632
 31
0.0
 70
    32
 71
     5
 42
149.9999999999999
  3
Standard
100
AcDbAlignedDimension
 13
49.50152340745728
 23
227.1298389968632
 33
0.0
 14
150.8422901323697
 24
77.12983899686324
 34
0.0
 50
90.0
100
AcDbRotatedDimension
1001
ACAD
1000
DSTYLE
1002
{
1070
    41
1040
3.5
1070
    42
1040
1.0
1070
    43
1040
7.0
1070
    44
1040
1.0
1070
    47
1040
0.2
1070
    48
1040
0.2
1070
    73
1070
     0
1070
    74
1070
     0
1070
    77
1070
     1
1070
    78
1070
     8
1070
    79
1070
     2
1070
   140
1040
3.5
1070
   141
1040
1.5
1070
   145
1040
0.5714285714285714
1070
   146
1040
0.5
1070
   147
1040
1.5
1070
   172
1070
     1
1070
   178
1070
     1
1070
   179
1070
     2
1070
   271
1070
     2
1070
   272
1070
     2
1070
   284
1070
     8
1070
   285
1070
     8
1070
   286
1070
     8
1002
}
  0
LINE
  5
1391
330
20
100
AcDbEntity
  8
STEMPEL
100
AcDbLine
 10
150.8422901323697
 20
77.12983899686324
 30
0.0
 11
333.7451720735673
 21
77.12983899686324
 31
0.0
  0
DIMENSION
  5
1392
102
{ACAD_XDICTIONARY
360
1393
102
}
102
{ACAD_REACTORS
330
1394
102
}
330
20
100
AcDbEntity
  8
BEM
100
AcDbDimension
  2
*D8
 10
376.3525148234884
 20
67.96203908760912
 30
0.0
 11
355.0377131677186
 21
72.33356063274005
 31
0.0
 70
    32
  1
43
 71
     5
 42
43.02875644237724
  3
Standard
100
AcDbAlignedDimension
 13
333.7451720735673
 23
77.12983899686316
 33
0.0
 14
378.6367491609744
 24
111.54782670797
 34
0.0
 50
356.9999999999993
100
AcDbRotatedDimension
1001
ACAD
1000
DSTYLE
1002
{
1070
    41
1040
3.5
1070
    42
1040
1.0
1070
    43
1040
7.0
1070
    44
1040
1.0
1070
    47
1040
0.2
1070
    48
1040
0.2
1070
    73
1070
     0
1070
    74
1070
     0
1070
    77
1070
     1
1070
    78
1070
     8
1070
    79
1070
     2
1070
   140
1040
3.5
1070
   141
1040
1.5
1070
   145
1040
0.5714285714285714
1070
   146
1040
0.5
1070
   147
1040
1.5
1070
   172
1070
     1
1070
   178
1070
     1
1070
   179
1070
     2
1070
   271
1070
     2
1070
   272
1070
     2
1070
   284
1070
     8
1070
   285
1070
     8
1070
   286
1070
     8
1002
}
  0
DIMENSION
  5
1395
330
20
100
AcDbEntity
  8
BEM
100
AcDbDimension
  2
*D5
 10
195.5015234074573
 20
63.76120088724332
 30
0.0
 11
288.0015234074572
 21
67.01120088724332
 31
0.0
 70
    32
 71
     5
 42
184.9999999999998
  3
Standard
100
AcDbAlignedDimension
 13
380.5015234074572
 23
147.1298389968632
 33
0.0
 14
195.5015234074573
 24
115.1298389968632
 34
0.0
100
AcDbRotatedDimension
1001
ACAD
1000
DSTYLE
1002
{
1070
    41
1040
3.5
1070
    42
1040
1.0
1070
    43
1040
7.0
1070
    44
1040
1.0
1070
    47
1040
0.2
1070
    48
1040
0.2
1070
    73
1070
     0
1070
    74
1070
     0
1070
    77
1070
     1
1070
    78
1070
     8
1070
    79
1070
     2
1070
   140
1040
3.5
1070
   141
1040
1.5
1070
   145
1040
0.5714285714285714
1070
   146
1040
0.5
1070
   147
1040
1.5
1070
   172
1070
     1
1070
   178
1070
     1
1070
   179
1070
     2
1070
   271
1070
     2
1070
   272
1070
     2
1070
   284
1070
     8
1070
   285
1070
     8
1070
   286
1070
     8
1002
}
  0
HATCH
  5
1396
330
20
100
AcDbEntity
  8
SCHRAFF
100
AcDbHatch
 10
0.0
 20
0.0
 30
0.0
210
0.0
220
0.0
230
1.0
  2
NET
 70
     0
 71
     0
 91
        2
 92
        7
 72
     0
 73
     1
 93
       12
 10
330.8795288923705
 20
194.4160132418665
 10
330.6636767953857
 20
190.2973098749665
 10
323.6732700521037
 20
190.6636615686672
 10
323.463926227132
 20
186.6691434296488
 10
333.4502215746776
 20
186.1457838672194
 10
333.6333974215281
 20
189.6409872388605
 10
341.7346207172478
 20
191.3629554079197
 10
342.2242971963584
 20
200.7065392385944
 10
340.2270381268492
 20
200.8112111510803
 10
340.1223662143634
 20
198.8139520815712
 10
324.1442936582902
 20
199.6513273814584
 10
323.9872857895613
 20
196.6554387771946
 97
        0
 92
        7
 72
     0
 73
     1
 93
       12
 10
334.9411065463119
 20
99.94962814086841
 10
334.8364346338259
 20
97.95236907135928
 10
336.8336937033352
 20
97.84769715887341
 10
337.3233701824457
 20
107.1912809895482
 10
329.4465209220924
 20
109.7506244584946
 10
329.6296967689428
 20
113.2458278301355
 10
319.6434014213971
 20
113.769187392565
 10
319.4340575964253
 20
109.7746692535467
 10
326.4244643397073
 20
109.4083175598461
 10
326.2086122427223
 20
105.2896141929462
 10
319.1200418589675
 20
103.7828920450193
 10
318.9630339902388
 20
100.7870034407555
 97
        0
 75
     0
 76
     1
 52
42.0
 41
15.0
 77
     0
 78
     2
 53
42.0
 43
-0.496926654501749
 44
-16.88474940143339
 45
-1.254619886922859
 46
1.393396547770114
 79
     0
 53
132.0
 43
-0.496926654501749
 44
-16.88474940143339
 45
-1.393396547770114
 46
-1.254619886922859
 79
     0
 47
0.4968411867568329
 98
        2
 10
333.0510692407187
 20
195.4593454739096
 10
332.0568200339632
 20
104.0405666930871
  0
LINE
  5
1397
102
{ACAD_REACTORS
330
1394
102
}
330
20
100
AcDbEntity
  8
STEMPEL
100
AcDbLine
 10
334.9411065463119
 20
99.94962814086845
 30
0.0
 11
333.7451720735673
 21
77.12983899686324
 31
0.0
  0
LINE
  5
1398
330
20
100
AcDbEntity
  8
STEMPEL
100
AcDbLine
 10
318.9630339902387
 20
100.7870034407555
 30
0.0
 11
319.643401421397
 21
113.769187392565
 31
0.0
  0
LINE
  5
1399
330
20
100
AcDbEntity
  8
STEMPEL
100
AcDbLine
 10
336.8336937033352
 20
97.84769715887348
 30
0.0
 11
337.6187330469792
 21
112.827140180192
 31
0.0
  0
LINE
  5
139A
330
20
100
AcDbEntity
  8
STEMPEL
100
AcDbLine
 10
329.4465209220924
 20
109.7506244584946
 30
0.0
 11
329.6296967689427
 21
113.2458278301356
 31
0.0
  0
LINE
  5
139B
330
20
100
AcDbEntity
  8
STEMPEL
100
AcDbLine
 10
319.4340575964252
 20
109.7746692535467
 30
0.0
 11
326.4244643397073
 21
109.4083175598461
 31
0.0
  0
LINE
  5
139C
330
20
100
AcDbEntity
  8
STEMPEL
100
AcDbLine
 10
319.1200418589675
 20
103.7828920450193
 30
0.0
 11
326.2086122427223
 21
105.2896141929462
 31
0.0
  0
LINE
  5
139D
330
20
100
AcDbEntity
  8
STEMPEL
100
AcDbLine
 10
318.9630339902387
 20
100.7870034407555
 30
0.0
 11
334.9411065463119
 21
99.94962814086845
 31
0.0
  0
LINE
  5
139E
330
20
100
AcDbEntity
  8
STEMPEL
100
AcDbLine
 10
334.8364346338259
 20
97.95236907135929
 30
0.0
 11
336.8336937033352
 21
97.84769715887343
 31
0.0
  0
LINE
  5
139F
330
20
100
AcDbEntity
  8
STEMPEL
100
AcDbLine
 10
329.4465209220924
 20
109.7506244584946
 30
0.0
 11
337.3233701824457
 21
107.1912809895482
 31
0.0
  0
LINE
  5
13A0
330
20
100
AcDbEntity
  8
STEMPEL
100
AcDbLine
 10
326.2086122427223
 20
105.2896141929462
 30
0.0
 11
326.4244643397073
 21
109.4083175598461
 31
0.0
  0
LINE
  5
13A1
330
20
100
AcDbEntity
  8
STEMPEL
100
AcDbLine
 10
341.5015234074574
 20
225.1298389968632
 30
0.0
 11
340.1223662143633
 21
198.8139520815712
 31
0.0
  0
LINE
  5
13A2
330
20
100
AcDbEntity
  8
STEMPEL
100
AcDbLine
 10
324.1442936582902
 20
199.6513273814584
 30
0.0
 11
340.1223662143633
 21
198.8139520815712
 31
0.0
  0
LINE
  5
13A3
330
20
100
AcDbEntity
  8
STEMPEL
100
AcDbLine
 10
323.9872857895614
 20
196.6554387771946
 30
0.0
 11
330.8795288923706
 21
194.4160132418665
 31
0.0
  0
LINE
  5
13A4
330
20
100
AcDbEntity
  8
STEMPEL
100
AcDbLine
 10
323.6732700521037
 20
190.6636615686672
 30
0.0
 11
330.6636767953857
 21
190.2973098749665
 31
0.0
  0
LINE
  5
13A5
330
20
100
AcDbEntity
  8
STEMPEL
100
AcDbLine
 10
330.6636767953857
 20
190.2973098749665
 30
0.0
 11
330.8795288923706
 21
194.4160132418665
 31
0.0
  0
LINE
  5
13A6
330
20
100
AcDbEntity
  8
STEMPEL
100
AcDbLine
 10
333.633397421528
 20
189.6409872388605
 30
0.0
 11
341.7346207172478
 21
191.3629554079197
 31
0.0
  0
LINE
  5
13A7
330
20
100
AcDbEntity
  8
STEMPEL
100
AcDbLine
 10
340.2270381268492
 20
200.8112111510803
 30
0.0
 11
342.2242971963584
 21
200.7065392385944
 31
0.0
  0
LINE
  5
13A8
330
20
100
AcDbEntity
  8
STEMPEL
100
AcDbLine
 10
341.4392578527142
 20
185.7270962172758
 30
0.0
 11
342.2242971963584
 21
200.7065392385944
 31
0.0
  0
LINE
  5
13A9
330
20
100
AcDbEntity
  8
STEMPEL
100
AcDbLine
 10
333.4502215746776
 20
186.1457838672194
 30
0.0
 11
333.633397421528
 21
189.6409872388605
 31
0.0
  0
LINE
  5
13AA
330
20
100
AcDbEntity
  8
STEMPEL
100
AcDbLine
 10
323.463926227132
 20
186.6691434296488
 30
0.0
 11
324.1442936582902
 21
199.6513273814584
 31
0.0
  0
LINE
  5
13F7
330
20
100
AcDbEntity
  8
TEXT
 62
     2
100
AcDbLine
 10
290.906966995488
 20
248.5373219643218
 30
0.0
 11
285.9372066712063
 21
237.5502601031671
 31
0.0
  0
LINE
  5
13F8
330
20
100
AcDbEntity
  8
TEXT
 62
     2
100
AcDbLine
 10
284.3742341612454
 20
234.0948669788104
 30
0.0
 11
274.0423555007602
 21
211.2533248162916
 31
0.0
  0
LINE
  5
13F9
330
20
100
AcDbEntity
  8
TEXT
 62
     2
100
AcDbLine
 10
258.3604164637192
 20
252.3266884255129
 30
0.0
 11
273.2186588403944
 21
277.5855490017684
 31
0.0
  0
LINE
  5
13FA
330
20
100
AcDbEntity
  8
TEXT
 62
     2
100
AcDbLine
 10
249.6397655280849
 20
237.5016707327628
 30
0.0
 11
255.7081611881549
 21
247.8178814939956
 31
0.0
  0
TEXT
  5
13FB
330
20
100
AcDbEntity
  8
TEXT
100
AcDbText
 10
327.4105885577624
 20
31.15296550516098
 30
0.0
 40
2.5
  1
mit Wärmedämmung
 41
0.8
  7
GREEKS
100
AcDbText
  0
LINE
  5
153B
330
20
100
AcDbEntity
  8
STEMPEL
100
AcDbLine
 10
341.5015234074572
 20
227.1298389968632
 30
0.0
 11
49.50152340745723
 21
227.1298389968632
 31
0.0
  0
LINE
  5
153D
330
20
100
AcDbEntity
  8
STEMPEL
100
AcDbLine
 10
341.5015234074572
 20
225.1298389968632
 30
0.0
 11
341.5015234074572
 21
227.1298389968632
 31
0.0
  0
LINE
  5
153E
330
20
100
AcDbEntity
  8
STEMPEL
100
AcDbLine
 10
341.5015234074572
 20
225.1298389968632
 30
0.0
 11
314.0015234074572
 21
225.1298389968632
 31
0.0
  0
LINE
  5
153F
330
20
100
AcDbEntity
  8
STEMPEL
100
AcDbLine
 10
254.0015234074572
 20
199.1298389968632
 30
0.0
 11
137.0015234074573
 21
199.129838996863
 31
0.0
  0
LINE
  5
1540
330
20
100
AcDbEntity
  8
STEMPEL
100
AcDbLine
 10
233.3015234074574
 20
197.129838996863
 30
0.0
 11
233.3015234074573
 21
199.129838996863
 31
0.0
  0
LINE
  5
1541
330
20
100
AcDbEntity
  8
MITTEL
100
AcDbLine
 10
246.5015234074572
 20
224.1298389968632
 30
0.0
 11
246.5015234074572
 21
197.1298389968632
 31
0.0
  0
ARC
  5
1542
330
20
100
AcDbEntity
  8
STEMPEL
100
AcDbCircle
 10
314.0015234074572
 20
187.1298389968632
 30
0.0
 40
38.0
100
AcDbArc
 50
90.0
 51
120.1874540748214
  0
ARC
  5
1543
330
20
100
AcDbEntity
  8
STEMPEL
100
AcDbCircle
 10
314.0015234074572
 20
187.1298389968632
 30
0.0
 40
40.0
100
AcDbArc
 50
90.0
 51
120.1874540748214
  0
ARC
  5
1544
330
20
100
AcDbEntity
  8
STEMPEL
100
AcDbCircle
 10
254.0015234074572
 20
203.1298389968632
 30
0.0
 40
4.0
100
AcDbArc
 50
270.0
 51
300.1874540748215
  0
ARC
  5
1545
330
20
100
AcDbEntity
  8
STEMPEL
100
AcDbCircle
 10
254.0015234074572
 20
203.1298389968632
 30
0.0
 40
6.0
100
AcDbArc
 50
270.0
 51
300.1874540748215
  0
LINE
  5
1546
330
20
100
AcDbEntity
  8
STEMPEL
100
AcDbLine
 10
294.8939573278545
 20
219.9764661983523
 30
0.0
 11
257.0185075252893
 21
197.9435294387332
 31
0.0
  0
LINE
  5
1547
330
20
100
AcDbEntity
  8
STEMPEL
100
AcDbLine
 10
96.1090894870602
 20
219.9764661983522
 30
0.0
 11
133.9845392896253
 21
197.9435294387333
 31
0.0
  0
ARC
  5
1548
330
20
100
AcDbEntity
  8
STEMPEL
100
AcDbCircle
 10
137.0015234074573
 20
203.1298389968631
 30
0.0
 40
6.0
100
AcDbArc
 50
239.8125459251785
 51
270.0
  0
ARC
  5
1549
330
20
100
AcDbEntity
  8
STEMPEL
100
AcDbCircle
 10
137.0015234074573
 20
203.1298389968631
 30
0.0
 40
4.0
100
AcDbArc
 50
239.8125459251785
 51
270.0
  0
ARC
  5
154A
330
20
100
AcDbEntity
  8
STEMPEL
100
AcDbCircle
 10
77.00152340745723
 20
187.1298389968629
 30
0.0
 40
40.0
100
AcDbArc
 50
59.81254592517853
 51
90.0
  0
ARC
  5
154B
330
20
100
AcDbEntity
  8
STEMPEL
100
AcDbCircle
 10
77.00152340745723
 20
187.1298389968629
 30
0.0
 40
38.0
100
AcDbArc
 50
59.81254592517853
 51
90.0
  0
LINE
  5
154C
330
20
100
AcDbEntity
  8
MITTEL
100
AcDbLine
 10
144.5015234074572
 20
224.1298389968632
 30
0.0
 11
144.5015234074572
 21
197.129838996863
 31
0.0
  0
LINE
  5
154D
330
20
100
AcDbEntity
  8
STEMPEL
100
AcDbLine
 10
157.7015234074572
 20
197.129838996863
 30
0.0
 11
157.7015234074572
 21
199.129838996863
 31
0.0
  0
LINE
  5
154E
330
20
100
AcDbEntity
  8
STEMPEL
100
AcDbLine
 10
49.50152340745723
 20
225.129838996863
 30
0.0
 11
49.50152340745723
 21
227.129838996863
 31
0.0
  0
LINE
  5
154F
330
20
100
AcDbEntity
  8
STEMPEL
100
AcDbLine
 10
77.00152340745723
 20
225.1298389968632
 30
0.0
 11
49.50152340745723
 21
225.1298389968632
 31
0.0
  0
LINE
  5
1550
102
{ACAD_REACTORS
330
15D9
102
}
330
20
100
AcDbEntity
  8
STEMPEL
100
AcDbLine
 10
293.8882959552438
 20
221.7052360510624
 30
0.0
 11
256.0128461526786
 21
199.6722992914433
 31
0.0
  0
LINE
  5
1551
102
{ACAD_REACTORS
330
15D9
102
}
330
20
100
AcDbEntity
  8
STEMPEL
100
AcDbLine
 10
97.11475085967078
 20
221.7052360510622
 30
0.0
 11
134.9902006622359
 21
199.6722992914432
 31
0.0
  0
LINE
  5
1552
330
20
100
AcDbEntity
  8
STEMPEL
100
AcDbLine
 10
254.0015234074572
 20
197.1298389968632
 30
0.0
 11
137.0015234074573
 21
197.1298389968632
 31
0.0
  0
LINE
  5
1553
330
20
100
AcDbEntity
  8
STEMPEL
100
AcDbLine
 10
140.5015234074572
 20
218.1298389968631
 30
0.0
 11
140.5015234074572
 21
213.2092214403024
 31
0.0
  0
LINE
  5
1554
330
20
100
AcDbEntity
  8
STEMPEL
100
AcDbLine
 10
148.5015234074572
 20
218.1298389968632
 30
0.0
 11
148.5015234074572
 21
213.2092214403024
 31
0.0
  0
LINE
  5
1555
330
20
100
AcDbEntity
  8
HILF
100
AcDbLine
 10
147.5015234074572
 20
219.1298389968632
 30
0.0
 11
147.5015234074572
 21
213.2092214403024
 31
0.0
  0
LINE
  5
1556
330
20
100
AcDbEntity
  8
HILF
100
AcDbLine
 10
141.5015234074572
 20
219.1298389968631
 30
0.0
 11
141.5015234074572
 21
213.2092214403024
 31
0.0
  0
LINE
  5
1557
330
20
100
AcDbEntity
  8
STEMPEL
100
AcDbLine
 10
148.5015234074572
 20
218.1298389968631
 30
0.0
 11
147.5015234074572
 21
219.1298389968631
 31
0.0
  0
LINE
  5
1558
330
20
100
AcDbEntity
  8
STEMPEL
100
AcDbLine
 10
147.5015234074572
 20
219.1298389968631
 30
0.0
 11
141.5015234074572
 21
219.1298389968631
 31
0.0
  0
LINE
  5
1559
330
20
100
AcDbEntity
  8
STEMPEL
100
AcDbLine
 10
141.5015234074572
 20
219.1298389968631
 30
0.0
 11
140.5015234074572
 21
218.1298389968631
 31
0.0
  0
LINE
  5
155A
330
20
100
AcDbEntity
  8
STEMPEL
100
AcDbLine
 10
140.5015234074572
 20
218.1298389968631
 30
0.0
 11
148.5015234074572
 21
218.1298389968631
 31
0.0
  0
LINE
  5
155B
330
20
100
AcDbEntity
  8
STEMPEL
100
AcDbLine
 10
242.5015234074574
 20
218.1298389968632
 30
0.0
 11
250.5015234074573
 21
218.1298389968632
 31
0.0
  0
LINE
  5
155C
330
20
100
AcDbEntity
  8
STEMPEL
100
AcDbLine
 10
243.5015234074573
 20
219.1298389968632
 30
0.0
 11
242.5015234074574
 21
218.1298389968632
 31
0.0
  0
LINE
  5
155D
330
20
100
AcDbEntity
  8
STEMPEL
100
AcDbLine
 10
249.5015234074573
 20
219.1298389968632
 30
0.0
 11
243.5015234074573
 21
219.1298389968632
 31
0.0
  0
LINE
  5
155E
330
20
100
AcDbEntity
  8
STEMPEL
100
AcDbLine
 10
250.5015234074573
 20
218.1298389968632
 30
0.0
 11
249.5015234074573
 21
219.1298389968632
 31
0.0
  0
LINE
  5
155F
330
20
100
AcDbEntity
  8
HILF
100
AcDbLine
 10
243.5015234074572
 20
219.1298389968632
 30
0.0
 11
243.5015234074572
 21
213.2092214403025
 31
0.0
  0
LINE
  5
1560
330
20
100
AcDbEntity
  8
HILF
100
AcDbLine
 10
249.5015234074572
 20
219.1298389968633
 30
0.0
 11
249.5015234074572
 21
213.2092214403025
 31
0.0
  0
LINE
  5
1561
330
20
100
AcDbEntity
  8
STEMPEL
100
AcDbLine
 10
250.5015234074572
 20
218.1298389968633
 30
0.0
 11
250.5015234074572
 21
213.2092214403025
 31
0.0
  0
LINE
  5
1562
330
20
100
AcDbEntity
  8
STEMPEL
100
AcDbLine
 10
242.5015234074572
 20
218.1298389968632
 30
0.0
 11
242.5015234074573
 21
213.2092214403025
 31
0.0
  0
LINE
  5
1563
330
20
100
AcDbEntity
  8
STEMPEL
100
AcDbLine
 10
191.5015234074573
 20
218.1298389968631
 30
0.0
 11
199.5015234074573
 21
218.1298389968631
 31
0.0
  0
LINE
  5
1564
330
20
100
AcDbEntity
  8
STEMPEL
100
AcDbLine
 10
192.5015234074573
 20
219.1298389968631
 30
0.0
 11
191.5015234074573
 21
218.1298389968631
 31
0.0
  0
LINE
  5
1565
330
20
100
AcDbEntity
  8
STEMPEL
100
AcDbLine
 10
198.5015234074573
 20
219.1298389968631
 30
0.0
 11
192.5015234074573
 21
219.1298389968631
 31
0.0
  0
LINE
  5
1566
330
20
100
AcDbEntity
  8
STEMPEL
100
AcDbLine
 10
199.5015234074573
 20
218.1298389968631
 30
0.0
 11
198.5015234074573
 21
219.1298389968631
 31
0.0
  0
LINE
  5
1567
330
20
100
AcDbEntity
  8
HILF
100
AcDbLine
 10
192.5015234074572
 20
219.1298389968631
 30
0.0
 11
192.5015234074572
 21
213.2092214403024
 31
0.0
  0
LINE
  5
1568
330
20
100
AcDbEntity
  8
HILF
100
AcDbLine
 10
198.5015234074572
 20
219.1298389968632
 30
0.0
 11
198.5015234074572
 21
213.2092214403024
 31
0.0
  0
LINE
  5
1569
330
20
100
AcDbEntity
  8
STEMPEL
100
AcDbLine
 10
199.5015234074572
 20
218.1298389968632
 30
0.0
 11
199.5015234074572
 21
213.2092214403024
 31
0.0
  0
LINE
  5
156A
330
20
100
AcDbEntity
  8
STEMPEL
100
AcDbLine
 10
191.5015234074572
 20
218.1298389968631
 30
0.0
 11
191.5015234074572
 21
213.2092214403024
 31
0.0
  0
HATCH
  5
156B
330
20
100
AcDbEntity
  8
SCHRAFF
100
AcDbHatch
 10
0.0
 20
0.0
 30
0.0
210
0.0
220
0.0
230
1.0
  2
_USER
 70
     0
 71
     0
 91
        3
 92
        7
 72
     1
 73
     1
 93
        5
 10
258.1240595406394
 20
198.5866520357099
 42
0.0
 10
257.0185075252894
 20
197.9435294387333
 42
-0.0686551179814979
 10
255.5015234074572
 20
197.3203639775521
 42
0.0
 10
255.5015234074572
 20
194.5032070010515
 42
0.0
 10
257.9174386062421
 20
195.3512570470278
 42
0.2934265064481116
 97
        0
 92
        7
 72
     1
 73
     1
 93
        3
 10
257.9174386062421
 20
195.3512570470278
 42
0.0
 10
255.5015234074572
 20
194.5032070010515
 42
0.0
 10
255.5015234074572
 20
194.1298389968632
 42
0.2384167939012163
 97
        0
 92
        7
 72
     1
 73
     1
 93
        4
 10
135.5015234074572
 20
197.3203639775521
 42
-0.0686551179814928
 10
133.9845392896253
 20
197.9435294387333
 42
0.0
 10
132.878987274275
 20
198.5866520357097
 42
0.5718485723578022
 10
135.5015234074572
 20
194.1298389968632
 42
0.0
 97
        0
 75
     0
 76
     0
 52
0.0
 41
0.1
 77
     0
 78
     1
 53
0.0
 43
-0.4969266545018059
 44
8.442954619432583
 45
0.0
 46
0.1
 79
     0
 47
0.1747977489331403
 98
        3
 10
256.5064390242588
 20
196.8170121346246
 10
256.5064390242588
 20
194.7194387227277
 10
134.4113162961694
 20
196.1178209973256
  0
POINT
  5
156C
330
20
100
AcDbEntity
  8
DEFPOINTS
  6
ByBlock
 62
     0
100
AcDbPoint
 10
195.5015234074572
 20
165.1298389968633
 30
0.0
  0
ARC
  5
156D
330
20
100
AcDbEntity
  8
SCHRAFF
100
AcDbCircle
 10
255.5015234074572
 20
197.1298389968632
 30
0.0
 40
3.0
100
AcDbArc
 50
270.0
 51
29.05207512097188
  0
ARC
  5
156E
330
20
100
AcDbEntity
  8
SCHRAFF
100
AcDbCircle
 10
135.5015234074572
 20
197.1298389968632
 30
0.0
 40
3.0
100
AcDbArc
 50
150.9479248790281
 51
270.0
  0
ARC
  5
156F
330
20
100
AcDbEntity
  8
STEMPEL
100
AcDbCircle
 10
254.0015234074572
 20
203.1298389968632
 30
0.0
 40
6.0
100
AcDbArc
 50
270.0
 51
300.1874540748215
  0
ARC
  5
1570
330
20
100
AcDbEntity
  8
STEMPEL
100
AcDbCircle
 10
254.0015234074572
 20
203.1298389968632
 30
0.0
 40
4.0
100
AcDbArc
 50
270.0
 51
300.1874540748215
  0
HATCH
  5
1571
330
20
100
AcDbEntity
  8
SCHRAFF
100
AcDbHatch
 10
0.0
 20
0.0
 30
0.0
210
0.0
220
0.0
230
1.0
  2
_USER
 70
     0
 71
     0
 91
        4
 92
        7
 72
     1
 73
     1
 93
       12
 10
77.0015234074572
 20
227.1298389968632
 42
0.0
 10
49.50152340745723
 20
227.1298389968633
 42
0.0
 10
49.50152340745723
 20
225.1298389968632
 42
0.0
 10
77.00152340745723
 20
225.1298389968632
 42
-0.1324846866320371
 10
96.10908948705969
 20
219.9764661983525
 42
0.0
 10
133.9845392896253
 20
197.9435294387333
 42
0.1324846866320406
 10
137.0015234074573
 20
197.1298389968632
 42
0.0
 10
144.5015234074572
 20
197.1298389968632
 42
0.0
 10
144.5015234074572
 20
199.129838996863
 42
0.0
 10
137.0015234074573
 20
199.129838996863
 42
-0.1324846866320424
 10
134.9902006622359
 20
199.6722992914432
 42
0.0
 10
97.11475085967078
 20
221.7052360510622
 42
0.1324846866320406
 97
        0
 92
        7
 72
     0
 73
     1
 93
        4
 10
157.7015234074572
 20
199.129838996863
 10
144.5015234074572
 20
199.129838996863
 10
144.5015234074572
 20
197.1298389968632
 10
157.7015234074572
 20
197.1298389968632
 97
        0
 92
        7
 72
     0
 73
     1
 93
        4
 10
246.5015234074572
 20
199.1298389968632
 10
233.3015234074573
 20
199.1298389968632
 10
233.3015234074574
 20
197.1298389968632
 10
246.5015234074572
 20
197.1298389968632
 97
        0
 92
        7
 72
     1
 73
     1
 93
       12
 10
294.8939573278545
 20
219.9764661983523
 42
-0.1324846866320395
 10
314.0015234074572
 20
225.1298389968632
 42
0.0
 10
341.5015234074572
 20
225.1298389968631
 42
0.0
 10
341.5015234074572
 20
227.1298389968633
 42
0.0
 10
314.0015234074572
 20
227.1298389968633
 42
0.1324846866320392
 10
293.8882959552438
 20
221.7052360510624
 42
0.0
 10
256.0128461526786
 20
199.6722992914433
 42
-0.1324846866320424
 10
254.0015234074572
 20
199.1298389968632
 42
0.0
 10
246.5015234074572
 20
199.1298389968632
 42
0.0
 10
246.5015234074572
 20
197.1298389968632
 42
0.0
 10
254.0015234074572
 20
197.1298389968632
 42
0.1324846866320405
 10
257.0185075252893
 20
197.9435294387332
 42
0.0
 97
        0
 75
     0
 76
     0
 52
135.0
 41
2.0
 77
     0
 78
     1
 53
135.0
 43
-8.231124882292249
 44
1.670515901848801
 45
-1.414213562373095
 46
-1.414213562373094
 79
     0
 47
0.2470068222831111
 98
        4
 10
77.46394293191184
 20
226.4719224756894
 10
151.8621624657449
 20
198.066139435621
 10
240.5962531290393
 20
198.3131461418823
 10
251.2245714556444
 20
198.3131461418823
  0
LINE
  5
1572
102
{ACAD_REACTORS
330
15D9
102
}
330
20
100
AcDbEntity
  8
STEMPEL
100
AcDbLine
 10
104.0254249659509
 20
220.0407235364563
 30
0.0
 11
103.0015234074572
 21
218.2807780462134
 31
0.0
  0
LINE
  5
1573
102
{ACAD_REACTORS
330
15D9
102
}
330
20
100
AcDbEntity
  8
STEMPEL
100
AcDbLine
 10
129.9388094138202
 20
204.9245826085324
 30
0.0
 11
128.9330712237069
 21
203.1958574421611
 31
0.0
  0
HATCH
  5
1574
330
20
100
AcDbEntity
  8
SCHRAFF
100
AcDbHatch
 10
0.0
 20
0.0
 30
0.0
210
0.0
220
0.0
230
1.0
  2
_USER
 70
     0
 71
     0
 91
        4
 92
        7
 72
     1
 73
     1
 93
       12
 10
256.5015234074572
 20
203.2092214403024
 42
0.1327909774928471
 10
259.5247495606018
 20
204.0265480349118
 42
0.0
 10
283.5247495606018
 20
218.0265480349118
 42
0.2667502984552046
 10
286.5015234074572
 20
223.2092214403024
 42
0.0
 10
286.5015234074572
 20
225.2092214403025
 42
0.0
 10
284.5015234074572
 20
225.2092214403025
 42
0.0
 10
284.5015234074572
 20
223.2092214403024
 42
-0.2667502984552046
 10
282.5170075095536
 20
219.7541058367087
 42
0.0
 10
258.5170075095536
 20
205.7541058367087
 42
-0.1327909774928444
 10
256.5015234074572
 20
205.2092214403024
 42
0.0
 10
252.0015234074572
 20
205.2092214403025
 42
0.0
 10
252.0015234074572
 20
203.2092214403025
 42
0.0
 97
        0
 92
        7
 72
     0
 73
     1
 93
        4
 10
241.0015234074572
 20
203.2092214403024
 10
241.0015234074572
 20
205.2092214403025
 10
236.5015234074572
 20
205.2092214403025
 10
236.5015234074572
 20
203.2092214403025
 97
        0
 92
        7
 72
     0
 73
     1
 93
        4
 10
150.0015234074572
 20
205.2092214403024
 10
150.0015234074572
 20
203.2092214403025
 10
154.5015234074572
 20
203.2092214403025
 10
154.5015234074572
 20
205.2092214403024
 97
        0
 92
        7
 72
     1
 73
     1
 93
       12
 10
134.5015234074572
 20
205.2092214403024
 42
-0.1327909774928425
 10
132.4860393053609
 20
205.7541058367088
 42
0.0
 10
108.4860393053609
 20
219.7541058367088
 42
-0.2667502984552051
 10
106.5015234074572
 20
223.2092214403025
 42
0.0
 10
106.5015234074572
 20
225.2092214403025
 42
0.0
 10
104.5015234074572
 20
225.2092214403025
 42
0.0
 10
104.5015234074572
 20
223.2092214403025
 42
0.2667502984552038
 10
107.4782972543127
 20
218.0265480349119
 42
0.0
 10
131.4782972543127
 20
204.0265480349118
 42
0.1327909774928459
 10
134.5015234074573
 20
203.2092214403024
 42
0.0
 10
139.0015234074572
 20
203.2092214403024
 42
0.0
 10
139.0015234074572
 20
205.2092214403025
 42
0.0
 97
        0
 75
     0
 76
     0
 52
45.0
 41
2.0
 77
     0
 78
     1
 53
45.0
 43
-48.97238912856434
 44
-163.5154240838176
 45
-1.414213562373094
 46
1.414213562373095
 79
     0
 47
0.2375292043459171
 98
        4
 10
255.1773230456461
 20
203.7824284099949
 10
238.7784722851952
 20
204.0199579046166
 10
153.4569149077179
 20
204.2574873992382
 10
136.8203996061798
 20
204.2574873992382
  0
LINE
  5
1575
330
20
100
AcDbEntity
  8
STEMPEL
100
AcDbLine
 10
104.5015234074572
 20
225.2092214403025
 30
0.0
 11
286.5015234074572
 21
225.2092214403024
 31
0.0
  0
LINE
  5
1576
330
20
100
AcDbEntity
  8
STEMPEL
100
AcDbLine
 10
134.5015234074572
 20
203.2092214403024
 30
0.0
 11
140.5015234074572
 21
203.2092214403024
 31
0.0
  0
LINE
  5
1577
330
20
100
AcDbEntity
  8
STEMPEL
100
AcDbLine
 10
134.5015234074572
 20
205.2092214403024
 30
0.0
 11
256.5015234074572
 21
205.2092214403024
 31
0.0
  0
LINE
  5
1578
330
20
100
AcDbEntity
  8
STEMPEL
100
AcDbLine
 10
104.5015234074572
 20
225.2092214403025
 30
0.0
 11
104.5015234074572
 21
223.2092214403025
 31
0.0
  0
LINE
  5
1579
330
20
100
AcDbEntity
  8
STEMPEL
100
AcDbLine
 10
286.5015234074572
 20
225.2092214403024
 30
0.0
 11
286.5015234074572
 21
223.2092214403024
 31
0.0
  0
LINE
  5
157A
330
20
100
AcDbEntity
  8
STEMPEL
100
AcDbLine
 10
284.5015234074572
 20
225.2092214403024
 30
0.0
 11
284.5015234074572
 21
223.2092214403024
 31
0.0
  0
LINE
  5
157B
330
20
100
AcDbEntity
  8
STEMPEL
100
AcDbLine
 10
106.5015234074572
 20
225.2092214403025
 30
0.0
 11
106.5015234074572
 21
223.2092214403025
 31
0.0
  0
ARC
  5
157C
330
20
100
AcDbEntity
  8
STEMPEL
100
AcDbCircle
 10
280.5015234074572
 20
223.2092214403024
 30
0.0
 40
4.0
100
AcDbArc
 50
300.2564371635316
 51
0.0
  0
ARC
  5
157D
330
20
100
AcDbEntity
  8
STEMPEL
100
AcDbCircle
 10
256.5015234074572
 20
209.2092214403024
 30
0.0
 40
4.0
100
AcDbArc
 50
270.0
 51
300.2564371635316
  0
ARC
  5
157E
330
20
100
AcDbEntity
  8
STEMPEL
100
AcDbCircle
 10
134.5015234074572
 20
209.2092214403024
 30
0.0
 40
4.0
100
AcDbArc
 50
239.7435628364706
 51
270.0
  0
ARC
  5
157F
330
20
100
AcDbEntity
  8
STEMPEL
100
AcDbCircle
 10
110.5015234074572
 20
223.2092214403025
 30
0.0
 40
4.0
100
AcDbArc
 50
180.0
 51
239.7435628364706
  0
LINE
  5
1580
330
20
100
AcDbEntity
  8
STEMPEL
100
AcDbLine
 10
282.5170075095536
 20
219.7541058367087
 30
0.0
 11
258.5170075095536
 21
205.7541058367087
 31
0.0
  0
LINE
  5
1581
330
20
100
AcDbEntity
  8
STEMPEL
100
AcDbLine
 10
132.4860393053609
 20
205.7541058367087
 30
0.0
 11
108.4860393053609
 21
219.7541058367088
 31
0.0
  0
ARC
  5
1582
330
20
100
AcDbEntity
  8
STEMPEL
100
AcDbCircle
 10
110.5015234074572
 20
223.2092214403025
 30
0.0
 40
6.0
100
AcDbArc
 50
180.0
 51
239.7435628364706
  0
LINE
  5
1583
102
{ACAD_REACTORS
330
15D9
102
}
330
20
100
AcDbEntity
  8
STEMPEL
100
AcDbLine
 10
131.4782972543127
 20
204.0265480349118
 30
0.0
 11
104.0254249659509
 21
220.0407235364563
 31
0.0
  0
ARC
  5
1584
330
20
100
AcDbEntity
  8
STEMPEL
100
AcDbCircle
 10
134.5015234074572
 20
209.2092214403024
 30
0.0
 40
6.0
100
AcDbArc
 50
239.7435628364706
 51
270.0
  0
ARC
  5
1585
330
20
100
AcDbEntity
  8
STEMPEL
100
AcDbCircle
 10
256.5015234074572
 20
209.2092214403024
 30
0.0
 40
6.0
100
AcDbArc
 50
270.0
 51
300.2564371635316
  0
LINE
  5
1586
102
{ACAD_REACTORS
330
15D9
102
}
330
20
100
AcDbEntity
  8
STEMPEL
100
AcDbLine
 10
286.9776218489637
 20
220.0407235364563
 30
0.0
 11
259.5247495606018
 21
204.0265480349118
 31
0.0
  0
ARC
  5
1587
330
20
100
AcDbEntity
  8
STEMPEL
100
AcDbCircle
 10
280.5015234074572
 20
223.2092214403024
 30
0.0
 40
6.0
100
AcDbArc
 50
300.2564371635316
 51
0.0
  0
LINE
  5
1588
330
20
100
AcDbEntity
  8
STEMPEL
100
AcDbLine
 10
154.5015234074572
 20
205.2092214403024
 30
0.0
 11
154.5015234074572
 21
203.2092214403024
 31
0.0
  0
LINE
  5
1589
330
20
100
AcDbEntity
  8
STEMPEL
100
AcDbLine
 10
236.5015234074572
 20
205.2092214403024
 30
0.0
 11
236.5015234074572
 21
203.2092214403024
 31
0.0
  0
LINE
  5
158A
330
20
100
AcDbEntity
  8
STEMPEL
100
AcDbLine
 10
241.0015234074572
 20
205.2092214403024
 30
0.0
 11
241.0015234074572
 21
203.2092214403024
 31
0.0
  0
LINE
  5
158B
330
20
100
AcDbEntity
  8
STEMPEL
100
AcDbLine
 10
252.0015234074572
 20
205.2092214403024
 30
0.0
 11
252.0015234074572
 21
203.2092214403024
 31
0.0
  0
LINE
  5
158C
330
20
100
AcDbEntity
  8
STEMPEL
100
AcDbLine
 10
150.0015234074572
 20
205.2092214403024
 30
0.0
 11
150.0015234074572
 21
203.2092214403024
 31
0.0
  0
LINE
  5
158D
330
20
100
AcDbEntity
  8
STEMPEL
100
AcDbLine
 10
139.0015234074572
 20
205.2092214403024
 30
0.0
 11
139.0015234074572
 21
203.2092214403025
 31
0.0
  0
POINT
  5
158E
330
20
100
AcDbEntity
  8
DEFPOINTS
  6
ByBlock
 62
     0
100
AcDbPoint
 10
259.5247495606016
 20
204.0265480349116
 30
0.0
  0
POINT
  5
158F
330
20
100
AcDbEntity
  8
DEFPOINTS
  6
ByBlock
 62
     0
100
AcDbPoint
 10
283.5247495606016
 20
218.0265480349116
 30
0.0
  0
LINE
  5
1590
102
{ACAD_REACTORS
330
15D9
102
}
330
20
100
AcDbEntity
  8
STEMPEL
100
AcDbLine
 10
286.9776218489637
 20
220.0407235364563
 30
0.0
 11
288.0015234074573
 21
218.2807780462137
 31
0.0
  0
LINE
  5
1591
102
{ACAD_REACTORS
330
15D9
102
}
330
20
100
AcDbEntity
  8
STEMPEL
100
AcDbLine
 10
261.0642374010943
 20
204.9245826085326
 30
0.0
 11
262.0699755912077
 21
203.1958574421613
 31
0.0
  0
LINE
  5
1592
330
20
100
AcDbEntity
  8
STEMPEL
100
AcDbLine
 10
138.0015234074572
 20
213.2092214403024
 30
0.0
 11
151.0015234074572
 21
213.2092214403024
 31
0.0
  0
LINE
  5
1593
330
20
100
AcDbEntity
  8
STEMPEL
100
AcDbLine
 10
152.0070769069223
 20
206.7550814944129
 30
0.0
 11
152.0070769069223
 21
212.9397841921744
 31
0.0
  0
LINE
  5
1594
330
20
100
AcDbEntity
  8
STEMPEL
100
AcDbLine
 10
148.2543001571898
 20
206.7550814944129
 30
0.0
 11
148.2543001571898
 21
212.9397841921744
 31
0.0
  0
LINE
  5
1595
330
20
100
AcDbEntity
  8
STEMPEL
100
AcDbLine
 10
140.7487466577246
 20
206.7550814944129
 30
0.0
 11
140.7487466577246
 21
212.9397841921744
 31
0.0
  0
LINE
  5
1596
330
20
100
AcDbEntity
  8
HILF
100
AcDbLine
 10
153.0567354934526
 20
206.373037012774
 30
0.0
 11
135.9463113214618
 21
206.373037012774
 31
0.0
  0
LINE
  5
1597
330
20
100
AcDbEntity
  8
STEMPEL
100
AcDbLine
 10
152.8515234074572
 20
205.2092214403024
 30
0.0
 11
136.1515234074572
 21
205.2092214403024
 31
0.0
  0
LINE
  5
1598
330
20
100
AcDbEntity
  8
STEMPEL
100
AcDbLine
 10
136.9959699079921
 20
206.7550814944129
 30
0.0
 11
136.9959699079921
 21
212.9397841921744
 31
0.0
  0
LINE
  5
1599
330
20
100
AcDbEntity
  8
STEMPEL
100
AcDbLine
 10
138.0015234074572
 20
213.2092214403024
 30
0.0
 11
136.9959699079921
 21
212.9397841921744
 31
0.0
  0
LINE
  5
159A
330
20
100
AcDbEntity
  8
STEMPEL
100
AcDbLine
 10
152.0070769069223
 20
212.9397841921744
 30
0.0
 11
151.0015234074572
 21
213.2092214403024
 31
0.0
  0
LINE
  5
159B
330
20
100
AcDbEntity
  8
STEMPEL
100
AcDbLine
 10
153.0567354934526
 20
206.373037012774
 30
0.0
 11
152.0070769069223
 21
206.7550814944129
 31
0.0
  0
LINE
  5
159C
330
20
100
AcDbEntity
  8
STEMPEL
100
AcDbLine
 10
136.9959699079921
 20
206.7550814944129
 30
0.0
 11
135.9463113214618
 21
206.373037012774
 31
0.0
  0
ARC
  5
159D
330
20
100
AcDbEntity
  8
STEMPEL
100
AcDbCircle
 10
136.1515234074572
 20
205.8092214403024
 30
0.0
 40
0.5999999999999993
100
AcDbArc
 50
110.0000000000001
 51
270.0
  0
ARC
  5
159E
330
20
100
AcDbEntity
  8
STEMPEL
100
AcDbCircle
 10
152.8515234074572
 20
205.8092214403024
 30
0.0
 40
0.5999999999999999
100
AcDbArc
 50
270.0
 51
69.99999999999992
  0
ARC
  5
159F
330
20
100
AcDbEntity
  8
STEMPEL
100
AcDbCircle
 10
144.5015234074572
 20
186.9397841921751
 30
0.0
 40
26.26943724812735
100
AcDbArc
 50
81.78678929826196
 51
98.21321070173805
  0
ARC
  5
15A0
330
20
100
AcDbEntity
  8
STEMPEL
100
AcDbCircle
 10
138.8723582828583
 20
206.5408231602225
 30
0.0
 40
6.668398280079905
100
AcDbArc
 50
73.65710669401547
 51
106.3428933059845
  0
ARC
  5
15A1
330
20
100
AcDbEntity
  8
STEMPEL
100
AcDbCircle
 10
150.130688532056
 20
206.5408231602225
 30
0.0
 40
6.668398280079882
100
AcDbArc
 50
73.65710669401547
 51
106.3428933059845
  0
ARC
  5
15A2
330
20
100
AcDbEntity
  8
STEMPEL
100
AcDbCircle
 10
144.5015234074572
 20
187.6981062724247
 30
0.0
 40
19.42296676475576
100
AcDbArc
 50
78.85962783889116
 51
101.1403721611088
  0
ARC
  5
15A3
330
20
100
AcDbEntity
  8
STEMPEL
100
AcDbCircle
 10
138.8723582828583
 20
202.1265705869988
 30
0.0
 40
4.994391509822305
100
AcDbArc
 50
67.93247218100519
 51
112.0675278189948
  0
ARC
  5
15A4
330
20
100
AcDbEntity
  8
STEMPEL
100
AcDbCircle
 10
150.1306885320561
 20
202.1265705869988
 30
0.0
 40
4.994391509822305
100
AcDbArc
 50
67.93247218100519
 51
112.0675278189948
  0
ARC
  5
15A5
330
20
100
AcDbEntity
  8
STEMPEL
100
AcDbCircle
 10
201.1306885320562
 20
202.1265705869988
 30
0.0
 40
4.994391509822305
100
AcDbArc
 50
67.93247218100519
 51
112.0675278189948
  0
ARC
  5
15A6
330
20
100
AcDbEntity
  8
STEMPEL
100
AcDbCircle
 10
189.8723582828584
 20
202.1265705869988
 30
0.0
 40
4.994391509822305
100
AcDbArc
 50
67.93247218100519
 51
112.0675278189948
  0
ARC
  5
15A7
330
20
100
AcDbEntity
  8
STEMPEL
100
AcDbCircle
 10
195.5015234074572
 20
187.6981062724247
 30
0.0
 40
19.42296676475576
100
AcDbArc
 50
78.85962783889116
 51
101.1403721611088
  0
ARC
  5
15A8
330
20
100
AcDbEntity
  8
STEMPEL
100
AcDbCircle
 10
201.1306885320561
 20
206.5408231602225
 30
0.0
 40
6.668398280079882
100
AcDbArc
 50
73.65710669401547
 51
106.3428933059845
  0
ARC
  5
15A9
330
20
100
AcDbEntity
  8
STEMPEL
100
AcDbCircle
 10
189.8723582828584
 20
206.5408231602225
 30
0.0
 40
6.668398280079905
100
AcDbArc
 50
73.65710669401547
 51
106.3428933059845
  0
ARC
  5
15AA
330
20
100
AcDbEntity
  8
STEMPEL
100
AcDbCircle
 10
195.5015234074572
 20
186.9397841921751
 30
0.0
 40
26.26943724812735
100
AcDbArc
 50
81.78678929826196
 51
98.21321070173805
  0
ARC
  5
15AB
330
20
100
AcDbEntity
  8
STEMPEL
100
AcDbCircle
 10
203.8515234074573
 20
205.8092214403024
 30
0.0
 40
0.5999999999999999
100
AcDbArc
 50
270.0
 51
69.99999999999992
  0
ARC
  5
15AC
330
20
100
AcDbEntity
  8
STEMPEL
100
AcDbCircle
 10
187.1515234074572
 20
205.8092214403024
 30
0.0
 40
0.5999999999999993
100
AcDbArc
 50
110.0000000000001
 51
270.0
  0
LINE
  5
15AD
330
20
100
AcDbEntity
  8
STEMPEL
100
AcDbLine
 10
187.9959699079921
 20
206.7550814944129
 30
0.0
 11
186.9463113214619
 21
206.373037012774
 31
0.0
  0
LINE
  5
15AE
330
20
100
AcDbEntity
  8
STEMPEL
100
AcDbLine
 10
204.0567354934526
 20
206.373037012774
 30
0.0
 11
203.0070769069224
 21
206.7550814944129
 31
0.0
  0
LINE
  5
15AF
330
20
100
AcDbEntity
  8
STEMPEL
100
AcDbLine
 10
203.0070769069224
 20
212.9397841921744
 30
0.0
 11
202.0015234074572
 21
213.2092214403024
 31
0.0
  0
LINE
  5
15B0
330
20
100
AcDbEntity
  8
STEMPEL
100
AcDbLine
 10
189.0015234074573
 20
213.2092214403024
 30
0.0
 11
187.9959699079921
 21
212.9397841921744
 31
0.0
  0
LINE
  5
15B1
330
20
100
AcDbEntity
  8
STEMPEL
100
AcDbLine
 10
187.9959699079921
 20
206.7550814944129
 30
0.0
 11
187.9959699079921
 21
212.9397841921744
 31
0.0
  0
LINE
  5
15B2
330
20
100
AcDbEntity
  8
STEMPEL
100
AcDbLine
 10
203.8515234074573
 20
205.2092214403024
 30
0.0
 11
187.1515234074572
 21
205.2092214403024
 31
0.0
  0
LINE
  5
15B3
330
20
100
AcDbEntity
  8
HILF
100
AcDbLine
 10
204.0567354934526
 20
206.373037012774
 30
0.0
 11
186.9463113214619
 21
206.373037012774
 31
0.0
  0
LINE
  5
15B4
330
20
100
AcDbEntity
  8
STEMPEL
100
AcDbLine
 10
191.7487466577247
 20
206.7550814944129
 30
0.0
 11
191.7487466577247
 21
212.9397841921744
 31
0.0
  0
LINE
  5
15B5
330
20
100
AcDbEntity
  8
STEMPEL
100
AcDbLine
 10
199.2543001571898
 20
206.7550814944129
 30
0.0
 11
199.2543001571898
 21
212.9397841921744
 31
0.0
  0
LINE
  5
15B6
330
20
100
AcDbEntity
  8
STEMPEL
100
AcDbLine
 10
203.0070769069224
 20
206.7550814944129
 30
0.0
 11
203.0070769069224
 21
212.9397841921744
 31
0.0
  0
LINE
  5
15B7
330
20
100
AcDbEntity
  8
STEMPEL
100
AcDbLine
 10
189.0015234074573
 20
213.2092214403024
 30
0.0
 11
202.0015234074572
 21
213.2092214403024
 31
0.0
  0
ARC
  5
15B8
330
20
100
AcDbEntity
  8
STEMPEL
100
AcDbCircle
 10
252.1306885320561
 20
202.1265705869988
 30
0.0
 40
4.994391509822305
100
AcDbArc
 50
67.93247218100519
 51
112.0675278189948
  0
ARC
  5
15B9
330
20
100
AcDbEntity
  8
STEMPEL
100
AcDbCircle
 10
240.8723582828584
 20
202.1265705869988
 30
0.0
 40
4.994391509822305
100
AcDbArc
 50
67.93247218100519
 51
112.0675278189948
  0
ARC
  5
15BA
330
20
100
AcDbEntity
  8
STEMPEL
100
AcDbCircle
 10
246.5015234074572
 20
187.6981062724247
 30
0.0
 40
19.42296676475576
100
AcDbArc
 50
78.85962783889116
 51
101.1403721611088
  0
ARC
  5
15BB
330
20
100
AcDbEntity
  8
STEMPEL
100
AcDbCircle
 10
252.1306885320561
 20
206.5408231602225
 30
0.0
 40
6.668398280079882
100
AcDbArc
 50
73.65710669401547
 51
106.3428933059845
  0
ARC
  5
15BC
330
20
100
AcDbEntity
  8
STEMPEL
100
AcDbCircle
 10
240.8723582828584
 20
206.5408231602225
 30
0.0
 40
6.668398280079905
100
AcDbArc
 50
73.65710669401547
 51
106.3428933059845
  0
ARC
  5
15BD
330
20
100
AcDbEntity
  8
STEMPEL
100
AcDbCircle
 10
246.5015234074572
 20
186.9397841921751
 30
0.0
 40
26.26943724812735
100
AcDbArc
 50
81.78678929826196
 51
98.21321070173805
  0
ARC
  5
15BE
330
20
100
AcDbEntity
  8
STEMPEL
100
AcDbCircle
 10
254.8515234074573
 20
205.8092214403024
 30
0.0
 40
0.5999999999999999
100
AcDbArc
 50
270.0
 51
69.99999999999992
  0
ARC
  5
15BF
330
20
100
AcDbEntity
  8
STEMPEL
100
AcDbCircle
 10
238.1515234074572
 20
205.8092214403024
 30
0.0
 40
0.5999999999999993
100
AcDbArc
 50
110.0000000000001
 51
270.0
  0
LINE
  5
15C0
330
20
100
AcDbEntity
  8
STEMPEL
100
AcDbLine
 10
238.9959699079921
 20
206.7550814944129
 30
0.0
 11
237.9463113214618
 21
206.373037012774
 31
0.0
  0
LINE
  5
15C1
330
20
100
AcDbEntity
  8
STEMPEL
100
AcDbLine
 10
255.0567354934526
 20
206.373037012774
 30
0.0
 11
254.0070769069223
 21
206.7550814944129
 31
0.0
  0
LINE
  5
15C2
330
20
100
AcDbEntity
  8
STEMPEL
100
AcDbLine
 10
254.0070769069223
 20
212.9397841921744
 30
0.0
 11
253.0015234074572
 21
213.2092214403024
 31
0.0
  0
LINE
  5
15C3
330
20
100
AcDbEntity
  8
STEMPEL
100
AcDbLine
 10
240.0015234074572
 20
213.2092214403024
 30
0.0
 11
238.9959699079921
 21
212.9397841921744
 31
0.0
  0
LINE
  5
15C4
330
20
100
AcDbEntity
  8
STEMPEL
100
AcDbLine
 10
238.9959699079921
 20
206.7550814944129
 30
0.0
 11
238.9959699079921
 21
212.9397841921744
 31
0.0
  0
LINE
  5
15C5
330
20
100
AcDbEntity
  8
STEMPEL
100
AcDbLine
 10
254.8515234074573
 20
205.2092214403024
 30
0.0
 11
238.1515234074572
 21
205.2092214403024
 31
0.0
  0
LINE
  5
15C6
330
20
100
AcDbEntity
  8
HILF
100
AcDbLine
 10
255.0567354934526
 20
206.373037012774
 30
0.0
 11
237.9463113214618
 21
206.373037012774
 31
0.0
  0
LINE
  5
15C7
330
20
100
AcDbEntity
  8
STEMPEL
100
AcDbLine
 10
242.7487466577247
 20
206.7550814944129
 30
0.0
 11
242.7487466577247
 21
212.9397841921744
 31
0.0
  0
LINE
  5
15C8
330
20
100
AcDbEntity
  8
STEMPEL
100
AcDbLine
 10
250.2543001571898
 20
206.7550814944129
 30
0.0
 11
250.2543001571898
 21
212.9397841921744
 31
0.0
  0
LINE
  5
15C9
330
20
100
AcDbEntity
  8
STEMPEL
100
AcDbLine
 10
254.0070769069223
 20
206.7550814944129
 30
0.0
 11
254.0070769069223
 21
212.9397841921744
 31
0.0
  0
LINE
  5
15CA
330
20
100
AcDbEntity
  8
STEMPEL
100
AcDbLine
 10
240.0015234074572
 20
213.2092214403024
 30
0.0
 11
253.0015234074572
 21
213.2092214403024
 31
0.0
  0
LINE
  5
15CB
330
20
100
AcDbEntity
  8
HILF
100
AcDbLine
 10
243.5015234074573
 20
205.2092214403025
 30
0.0
 11
243.5015234074572
 21
199.1298389968634
 31
0.0
  0
LINE
  5
15CC
330
20
100
AcDbEntity
  8
STEMPEL
100
AcDbLine
 10
242.5015234074573
 20
205.2092214403024
 30
0.0
 11
242.5015234074572
 21
199.1298389968634
 31
0.0
  0
LINE
  5
15CD
330
20
100
AcDbEntity
  8
HILF
100
AcDbLine
 10
249.5015234074572
 20
205.2092214403024
 30
0.0
 11
249.5015234074572
 21
199.1298389968634
 31
0.0
  0
LINE
  5
15CE
330
20
100
AcDbEntity
  8
STEMPEL
100
AcDbLine
 10
250.5015234074572
 20
205.2092214403024
 30
0.0
 11
250.5015234074572
 21
199.1298389968634
 31
0.0
  0
LINE
  5
15CF
330
20
100
AcDbEntity
  8
STEMPEL
100
AcDbLine
 10
250.5015234074572
 20
203.2092214403024
 30
0.0
 11
256.5015234074572
 21
203.2092214403024
 31
0.0
  0
LINE
  5
15D0
330
20
100
AcDbEntity
  8
STEMPEL
100
AcDbLine
 10
191.5015234074572
 20
203.2092214403025
 30
0.0
 11
191.5015234074572
 21
199.1298389968633
 31
0.0
  0
LINE
  5
15D1
330
20
100
AcDbEntity
  8
HILF
100
AcDbLine
 10
192.5015234074572
 20
203.2092214403025
 30
0.0
 11
192.5015234074572
 21
199.1298389968633
 31
0.0
  0
LINE
  5
15D2
330
20
100
AcDbEntity
  8
HILF
100
AcDbLine
 10
198.5015234074572
 20
203.2092214403025
 30
0.0
 11
198.5015234074572
 21
199.1298389968633
 31
0.0
  0
LINE
  5
15D3
330
20
100
AcDbEntity
  8
STEMPEL
100
AcDbLine
 10
199.5015234074572
 20
203.2092214403024
 30
0.0
 11
199.5015234074572
 21
199.1298389968633
 31
0.0
  0
LINE
  5
15D4
330
20
100
AcDbEntity
  8
STEMPEL
100
AcDbLine
 10
140.5015234074572
 20
205.2092214403024
 30
0.0
 11
140.5015234074572
 21
199.1298389968633
 31
0.0
  0
LINE
  5
15D5
330
20
100
AcDbEntity
  8
HILF
100
AcDbLine
 10
141.5015234074572
 20
205.2092214403024
 30
0.0
 11
141.5015234074572
 21
199.1298389968633
 31
0.0
  0
LINE
  5
15D6
330
20
100
AcDbEntity
  8
HILF
100
AcDbLine
 10
147.5015234074572
 20
205.2092214403024
 30
0.0
 11
147.5015234074572
 21
199.1298389968633
 31
0.0
  0
LINE
  5
15D7
330
20
100
AcDbEntity
  8
STEMPEL
100
AcDbLine
 10
148.5015234074572
 20
205.2092214403024
 30
0.0
 11
148.5015234074572
 21
199.1298389968633
 31
0.0
  0
LINE
  5
15D8
330
20
100
AcDbEntity
  8
STEMPEL
100
AcDbLine
 10
148.5015234074572
 20
203.2092214403025
 30
0.0
 11
242.5015234074573
 21
203.2092214403024
 31
0.0
  0
HATCH
  5
15D9
330
20
100
AcDbEntity
  8
SCHRAFF
100
AcDbHatch
 10
0.0
 20
0.0
 30
0.0
210
0.0
220
0.0
230
1.0
  2
NET
 70
     0
 71
     1
 91
        2
 92
        7
 72
     0
 73
     1
 93
        4
 10
261.0642374010944
 20
204.9245826085325
 10
262.0699755912077
 20
203.1958574421613
 10
288.0015234074573
 20
218.2807780462137
 10
286.9776218489637
 20
220.0407235364562
 97
        4
330
1590
330
1586
330
1591
330
1550
 92
        7
 72
     0
 73
     1
 93
        4
 10
104.0254249659509
 20
220.0407235364562
 10
103.0015234074572
 20
218.2807780462135
 10
128.933071223707
 20
203.1958574421611
 10
129.9388094138203
 20
204.9245826085325
 97
        4
330
1572
330
1551
330
1573
330
1583
 75
     0
 76
     1
 52
45.0
 41
10.0
 77
     0
 78
     2
 53
45.0
 43
-8.231124882292249
 44
-4.002877198148922
 45
-0.8838834764831842
 46
0.8838834764831844
 79
     0
 53
135.0
 43
-8.231124882292249
 44
-4.002877198148922
 45
-0.8838834764831844
 46
-0.8838834764831842
 79
     0
 47
0.1923885238500694
 98
        2
 10
268.3359295735022
 20
208.0355341859489
 10
126.1055691685424
 20
206.4964265649433
  0
HATCH
  5
15DA
330
20
100
AcDbEntity
  8
SCHRAFF
100
AcDbHatch
 10
0.0
 20
0.0
 30
0.0
210
0.0
220
0.0
230
1.0
  2
_USER
 70
     0
 71
     1
 91
        2
 92
        7
 72
     0
 73
     1
 93
        6
 10
372.3469865284143
 20
182.6052322757026
 10
382.2874938472997
 20
181.2081850797412
 10
382.36629765394
 20
182.7118512857563
 10
372.4908921234341
 20
184.099749022038
 10
251.1785279845252
 20
190.4574606261339
 10
250.6986510840977
 20
188.9805513898176
 97
        6
330
15EA
330
15DF
330
15E2
330
15E0
330
15E3
330
15DD
 92
        7
 72
     0
 73
     1
 93
        6
 10
368.6703673176997
 20
111.1997929849543
 10
378.6367491609744
 20
111.5478267079698
 10
378.7155529676146
 20
113.0514929139848
 10
368.6834695914087
 20
112.7011648428824
 10
228.3043957308167
 20
120.058120361726
 10
227.8245188303893
 20
118.5812111254098
 97
        6
330
15EA
330
15DC
330
15E4
330
15E0
330
15E5
330
15DE
 75
     0
 76
     0
 52
135.0
 41
2.0
 77
     0
 78
     1
 53
135.0
 43
-0.4969266545017775
 44
8.44295461943247
 45
-1.414213562373095
 46
-1.414213562373094
 79
     0
 47
0.2203646824381419
 98
        2
 10
338.8192800880561
 20
185.0431885485818
 10
301.1102674993713
 20
115.187583449318
  0
LINE
  5
15DB
330
20
100
AcDbEntity
  8
MITTEL
100
AcDbLine
 10
383.4974120117209
 20
146.9728311281343
 30
0.0
 11
195.5015234074572
 21
156.8252781642255
 31
0.0
  0
LINE
  5
15DC
102
{ACAD_REACTORS
330
15E7
330
15DA
102
}
330
20
100
AcDbEntity
  8
STEMPEL
100
AcDbLine
 10
368.6703673176995
 20
111.1997929849543
 30
0.0
 11
227.8245188303893
 21
118.5812111254098
 31
0.0
  0
LINE
  5
15DD
102
{ACAD_REACTORS
330
15E7
330
15DA
102
}
330
20
100
AcDbEntity
  8
STEMPEL
100
AcDbLine
 10
372.4908921234342
 20
184.099749022038
 30
0.0
 11
251.1785279845252
 21
190.4574606261339
 31
0.0
  0
LINE
  5
15DE
102
{ACAD_REACTORS
330
15DA
102
}
330
20
100
AcDbEntity
  8
STEMPEL
100
AcDbLine
 10
368.6834695914088
 20
112.7011648428824
 30
0.0
 11
228.3043957308167
 21
120.058120361726
 31
0.0
  0
LINE
  5
15DF
102
{ACAD_REACTORS
330
15DA
102
}
330
20
100
AcDbEntity
  8
STEMPEL
100
AcDbLine
 10
372.3469865284138
 20
182.6052322757026
 30
0.0
 11
250.6986510840977
 21
188.9805513898177
 31
0.0
  0
LINE
  5
15E0
102
{ACAD_REACTORS
330
15DA
102
}
330
20
100
AcDbEntity
  8
STEMPEL
100
AcDbLine
 10
378.6367491609745
 20
111.5478267079698
 30
0.0
 11
382.36629765394
 21
182.7118512857563
 31
0.0
  0
LINE
  5
15E1
330
20
100
AcDbEntity
  8
HILF
100
AcDbLine
 10
368.7619735257727
 20
114.1991091450144
 30
0.0
 11
372.2684825940501
 21
181.1072879735707
 31
0.0
  0
LINE
  5
15E2
102
{ACAD_REACTORS
330
15DA
102
}
330
20
100
AcDbEntity
  8
STEMPEL
100
AcDbLine
 10
372.3469865284138
 20
182.6052322757026
 30
0.0
 11
382.2874938472997
 21
181.2081850797412
 31
0.0
  0
LINE
  5
15E3
102
{ACAD_REACTORS
330
15DA
102
}
330
20
100
AcDbEntity
  8
STEMPEL
100
AcDbLine
 10
372.4908921234342
 20
184.099749022038
 30
0.0
 11
382.36629765394
 21
182.7118512857563
 31
0.0
  0
LINE
  5
15E4
102
{ACAD_REACTORS
330
15DA
102
}
330
20
100
AcDbEntity
  8
STEMPEL
100
AcDbLine
 10
368.6703673176995
 20
111.1997929849543
 30
0.0
 11
378.6367491609745
 21
111.5478267079698
 31
0.0
  0
LINE
  5
15E5
102
{ACAD_REACTORS
330
15DA
102
}
330
20
100
AcDbEntity
  8
STEMPEL
100
AcDbLine
 10
368.6834695914088
 20
112.7011648428824
 30
0.0
 11
378.7155529676145
 21
113.0514929139848
 31
0.0
  0
HATCH
  5
15E6
330
20
100
AcDbEntity
  8
SCHRAFF
100
AcDbHatch
 10
0.0
 20
0.0
 30
0.0
210
0.0
220
0.0
230
1.0
  2
_USER
 70
     0
 71
     0
 91
        4
 92
        7
 72
     1
 73
     1
 93
        4
 10
255.5015234074572
 20
197.3203639775519
 42
-0.0632542239299175
 10
254.0015234074572
 20
197.129838996863
 42
0.0
 10
254.0015234074572
 20
190.3095137050919
 42
0.0
 10
255.5015234074572
 20
190.2309020361673
 42
0.0
 97
        0
 92
        7
 72
     0
 73
     1
 93
        4
 10
228.1652386798432
 20
119.6298389968631
 10
195.5015234074572
 20
119.6298389968631
 10
195.5015234074572
 20
118.129838996863
 10
227.6778591354939
 20
118.129838996863
 97
        0
 92
        7
 72
     0
 73
     1
 93
        4
 10
195.5015234074572
 20
119.6298389968631
 10
173.5015234074572
 20
119.6298389968631
 10
173.5015234074572
 20
118.129838996863
 10
195.5015234074572
 20
118.129838996863
 97
        0
 92
        7
 72
     1
 73
     1
 93
       10
 10
173.5015234074572
 20
119.6298389968631
 42
0.0
 10
166.6571132037454
 20
119.6298389968631
 42
-0.2149364488769867
 10
151.6730040070119
 20
126.3830857501097
 42
-0.1829859490764163
 10
137.0015234074572
 20
165.129838996863
 42
0.0
 10
137.0015234074572
 20
197.129838996863
 42
-0.0632542239299169
 10
135.5015234074572
 20
197.3203639775518
 42
0.0
 10
135.5015234074572
 20
165.129838996863
 42
0.1829859490764187
 10
150.5491958172573
 20
125.3895792566028
 42
0.2149364488769793
 10
166.6571132037453
 20
118.129838996863
 42
0.0
 10
173.5015234074572
 20
118.129838996863
 42
0.0
 97
        0
 75
     0
 76
     0
 52
45.0
 41
2.0
 77
     0
 78
     1
 53
45.0
 43
-0.4969266545017775
 44
8.44295461943247
 45
-1.414213562373094
 46
1.414213562373095
 79
     0
 47
0.2201117615907538
 98
        4
 10
254.5292223813822
 20
193.1921022355574
 10
197.4799560112123
 20
119.0144380160793
 10
187.1273859077355
 20
118.3541027657444
 10
169.5059903021988
 20
119.0144380160793
  0
HATCH
  5
15E7
330
20
100
AcDbEntity
  8
SCHRAFF
100
AcDbHatch
 10
0.0
 20
0.0
 30
0.0
210
0.0
220
0.0
230
1.0
  2
_USER
 70
     0
 71
     1
 91
        2
 92
        7
 72
     1
 73
     1
 93
        3
 10
255.5015234074572
 20
193.2309020361673
 42
0.0
 10
255.5015234074572
 20
190.2309020361673
 42
0.0
 10
258.4974120117209
 20
190.0738941674384
 42
0.4296339059668317
 97
        3
330
15E8
330
15DD
330
15EB
 92
        7
 72
     1
 73
     1
 93
        4
 10
227.6778591354939
 20
118.129838996863
 42
0.0
 10
224.8586693396747
 20
118.129838996863
 42
0.5064183768068924
 10
230.820407434653
 20
118.4242032566809
 42
0.0
 10
227.8245188303893
 20
118.5812111254098
 42
0.0
 97
        4
330
15DC
330
15EA
330
1601
330
1603
 75
     0
 76
     0
 52
0.0
 41
0.1
 77
     0
 78
     1
 53
0.0
 43
-0.4969266545017775
 44
8.44295461943247
 45
0.0
 46
0.1
 79
     0
 47
0.2201117615907538
 98
        2
 10
257.172433001942
 20
191.6513197515205
 10
228.0971296466189
 20
117.9138794987762
  0
LINE
  5
15E8
102
{ACAD_REACTORS
330
15E7
102
}
330
20
100
AcDbEntity
  8
STEMPEL
100
AcDbLine
 10
255.5015234074572
 20
197.1298389968629
 30
0.0
 11
255.5015234074572
 21
190.2309020361673
 31
0.0
  0
LINE
  5
15E9
330
20
100
AcDbEntity
  8
STEMPEL
100
AcDbLine
 10
254.0015234074572
 20
197.129838996863
 30
0.0
 11
254.0015234074572
 21
190.3095137050919
 31
0.0
  0
LINE
  5
15EA
102
{ACAD_REACTORS
330
15E7
330
15DA
102
}
330
20
100
AcDbEntity
  8
STEMPEL
100
AcDbLine
 10
227.6778591354939
 20
118.129838996863
 30
0.0
 11
251.1785279845252
 21
190.4574606261339
 31
0.0
  0
ARC
  5
15EB
102
{ACAD_REACTORS
330
15E7
102
}
330
20
100
AcDbEntity
  8
SCHRAFF
100
AcDbCircle
 10
255.5015234074572
 20
190.2309020361673
 30
0.0
 40
3.0
100
AcDbArc
 50
357.0000000000009
 51
90.0
  0
LINE
  5
15EC
330
20
100
AcDbEntity
  8
HILF
  6
Continuous
100
AcDbLine
 10
158.5381541739592
 20
166.6318332605272
 30
0.0
 11
232.4648926409555
 21
166.6318332605273
 31
0.0
  0
LINE
  5
15ED
330
20
100
AcDbEntity
  8
HILF
  6
Continuous
100
AcDbLine
 10
159.1585051078999
 20
149.2713318164006
 30
0.0
 11
231.8445417070149
 21
149.2713318164006
 31
0.0
  0
LINE
  5
15EE
330
20
100
AcDbEntity
  8
STEMPEL
100
AcDbLine
 10
234.6515234074574
 20
164.1320600791384
 30
0.0
 11
234.6515234074573
 21
151.9849138316878
 31
0.0
  0
ARC
  5
15EF
330
20
100
AcDbEntity
  8
STEMPEL
100
AcDbCircle
 10
212.5015234074574
 20
177.5020600791384
 30
0.0
 40
24.65009324312573
100
AcDbArc
 50
338.8168456069636
 51
0.1617474312572272
  0
ARC
  5
15F0
330
20
100
AcDbEntity
  8
STEMPEL
100
AcDbCircle
 10
247.0015234074574
 20
164.1320600791384
 30
0.0
 40
12.35
100
AcDbArc
 50
158.8168456069635
 51
180.0
  0
ARC
  5
15F1
330
20
100
AcDbEntity
  8
STEMPEL
100
AcDbCircle
 10
212.5015368832201
 20
186.6060296444136
 30
0.0
 40
24.65
100
AcDbArc
 50
359.938509729892
 51
25.27284846784136
  0
LINE
  5
15F2
330
20
100
AcDbEntity
  8
STEMPEL
100
AcDbLine
 10
231.7015234074574
 20
142.129838996863
 30
0.0
 11
159.3015234074572
 21
142.1298389968629
 31
0.0
  0
ARC
  5
15F3
330
20
100
AcDbEntity
  8
SCHRAFF
100
AcDbCircle
 10
235.2669207357338
 20
197.1298389968607
 30
0.0
 40
3.0
100
AcDbArc
 50
283.1583340709719
 51
0.0000000000455964
  0
HATCH
  5
15F4
330
20
100
AcDbEntity
  8
SCHRAFF
100
AcDbHatch
 10
0.0
 20
0.0
 30
0.0
210
0.0
220
0.0
230
1.0
  2
_USER
 70
     0
 71
     0
 91
        2
 92
        7
 72
     1
 73
     1
 93
        3
 10
156.2108855188771
 20
197.129838996863
 42
0.0
 10
152.7361260791808
 20
197.129838996863
 42
0.3484407057586429
 10
155.0531976318707
 20
194.2086048850759
 42
-0.0319012793698063
 97
        0
 92
        7
 72
     1
 73
     1
 93
        3
 10
238.2669207357338
 20
197.129838996863
 42
0.0
 10
234.7921612960377
 20
197.129838996863
 42
-0.0319012793698058
 10
235.9498491830439
 20
194.2086048850759
 42
0.3484407057586365
 97
        0
 75
     0
 76
     0
 52
45.0
 41
0.1
 77
     0
 78
     1
 53
45.0
 43
-17.19733986568204
 44
-414.4528764652815
 45
-0.0707106781186548
 46
0.0707106781186548
 79
     0
 47
0.1582009704743525
 98
        2
 10
154.6260412744562
 20
196.0281720222936
 10
237.2615591040015
 20
195.7117702646991
  0
LINE
  5
15F5
330
20
100
AcDbEntity
  8
STEMPEL
100
AcDbLine
 10
233.4515234074574
 20
164.1320600791384
 30
0.0
 11
233.4515234074573
 21
151.9849138316878
 31
0.0
  0
ARC
  5
15F6
330
20
100
AcDbEntity
  8
STEMPEL
100
AcDbCircle
 10
247.0015234074574
 20
164.1320600791384
 30
0.0
 40
13.55
100
AcDbArc
 50
158.8168456069635
 51
180.0
  0
ARC
  5
15F7
330
20
100
AcDbEntity
  8
STEMPEL
100
AcDbCircle
 10
212.5015234074574
 20
177.5020600791384
 30
0.0
 40
23.45009324312573
100
AcDbArc
 50
338.8168456069636
 51
0.1617474312572272
  0
ARC
  5
15F8
330
20
100
AcDbEntity
  8
STEMPEL
100
AcDbCircle
 10
212.5015368832201
 20
186.6060296444136
 30
0.0
 40
23.45
100
AcDbArc
 50
359.938509729892
 51
26.66521369030368
  0
ARC
  5
15F9
330
20
100
AcDbEntity
  8
STEMPEL
100
AcDbCircle
 10
223.0015234074572
 20
151.9849138316878
 30
0.0
 40
10.45
100
AcDbArc
 50
329.8986894531963
 51
0.0
  0
ARC
  5
15FA
330
20
100
AcDbEntity
  8
STEMPEL
100
AcDbCircle
 10
240.0123843030648
 20
141.5182906482489
 30
0.0
 40
9.530501894354083
100
AcDbArc
 50
146.7491407653441
 51
176.320946178152
  0
ARC
  5
15FB
330
20
100
AcDbEntity
  8
STEMPEL
100
AcDbCircle
 10
223.0015234074572
 20
151.9849138316878
 30
0.0
 40
11.65
100
AcDbArc
 50
329.8986894531963
 51
0.0
  0
ARC
  5
15FC
330
20
100
AcDbEntity
  8
STEMPEL
100
AcDbCircle
 10
240.0147342774055
 20
141.51591420009
 30
0.0
 40
8.335849004409556
100
AcDbArc
 50
146.2911624508145
 51
175.776413785827
  0
LINE
  5
15FD
330
20
100
AcDbEntity
  8
STEMPEL
100
AcDbLine
 10
235.951523378663
 20
186.580862929352
 30
0.0
 11
235.9515232082207
 21
177.5682601961284
 31
0.0
  0
LINE
  5
15FE
330
20
100
AcDbEntity
  8
STEMPEL
100
AcDbLine
 10
237.1515226875982
 20
186.5795750803937
 30
0.0
 11
237.151518426541
 21
177.5716478219072
 31
0.0
  0
HATCH
  5
15FF
330
20
100
AcDbEntity
  8
SCHRAFF
100
AcDbHatch
 10
0.0
 20
0.0
 30
0.0
210
0.0
220
0.0
230
1.0
  2
_USER
 70
     0
 71
     0
 91
        2
 92
        7
 72
     1
 73
     1
 93
       16
 10
155.0515234362517
 20
186.5808629293547
 42
-0.1171487858529494
 10
157.5455576337603
 20
197.129838996863
 42
0.0
 10
156.210885518877
 20
197.129838996863
 42
0.11045143102983
 10
153.8515241022997
 20
186.6324608878659
 42
0.0
 10
153.8515283883737
 20
177.5716478219072
 42
0.093404927192605
 10
155.517034927936
 20
168.5947380220022
 42
-0.0926930603363566
 10
156.3515234074574
 20
164.1320600791385
 42
0.0
 10
156.3515234074574
 20
151.9849138316878
 42
0.132102236232272
 10
157.9226430003328
 20
146.1420832044251
 42
-0.12936822565299
 10
159.3015234074572
 20
142.1298389968629
 42
0.0
 10
160.5015234074572
 20
142.1298389968629
 42
0.1297522284692522
 10
158.9608109392641
 20
146.7439198355596
 42
-0.1321022362322693
 10
157.5515234074574
 20
151.9849138316878
 42
0.0
 10
157.5515234074574
 20
164.1320600791384
 42
0.0926930603363547
 10
156.6359510270919
 20
169.0283585508633
 42
-0.0934049271926061
 10
155.051523606694
 20
177.5682601961284
 42
0.0
 97
        0
 92
        7
 72
     1
 73
     1
 93
       12
 10
237.151522712615
 20
186.6324608878614
 42
0.1104514310298751
 10
234.7921612960377
 20
197.129838996863
 42
0.0
 10
233.4574891811544
 20
197.129838996863
 42
-0.1171487858527633
 10
235.951523378663
 20
186.5808629293719
 42
0.0
 10
235.9515232082207
 20
177.5682601961284
 42
-0.0934049271926111
 10
234.3670957878226
 20
169.0283585508628
 42
0.0926930603363456
 10
233.4515234074574
 20
164.1320600791384
 42
0.0
 10
233.4515234074573
 20
154.836402940434
 42
0.0
 10
234.6515234074573
 20
154.7735136052942
 42
0.0
 10
234.6515234074574
 20
164.1320600791384
 42
-0.0926930603363639
 10
235.4860118869788
 20
168.5947380220025
 42
0.0934049271926023
 10
237.151518426541
 20
177.5716478219072
 42
0.0
 97
        0
 75
     0
 76
     0
 52
45.0
 41
2.0
 77
     0
 78
     1
 53
45.0
 43
-17.19733986568204
 44
-414.4528764652815
 45
-1.414213562373094
 46
1.414213562373095
 79
     0
 47
0.1938556153744621
 98
        2
 10
154.6412908309988
 20
183.1935314180035
 10
236.696443557494
 20
181.0611199286171
  0
HATCH
  5
1600
330
20
100
AcDbEntity
  8
SCHRAFF
100
AcDbHatch
 10
0.0
 20
0.0
 30
0.0
210
0.0
220
0.0
230
1.0
  2
_USER
 70
     0
 71
     0
 91
        1
 92
        7
 72
     1
 73
     1
 93
        8
 10
234.6515234074573
 20
151.9849138316878
 42
0.0
 10
234.6515234074574
 20
154.7735136052943
 42
0.0
 10
233.4515234074574
 20
154.8364029404341
 42
0.0
 10
233.4515234074573
 20
151.9849138316878
 42
-0.1321022362322732
 10
232.0422358756505
 20
146.7439198355594
 42
0.1297522284692459
 10
230.5015234074573
 20
142.129838996863
 42
0.0
 10
231.7015234074574
 20
142.129838996863
 42
-0.1293682256529992
 10
233.080403814582
 20
146.1420832044254
 42
0.1321022362322637
 97
        0
 75
     0
 76
     0
 52
45.0
 41
2.0
 77
     0
 78
     1
 53
45.0
 43
-17.19733986568204
 44
-414.4528764652815
 45
-1.414213562373094
 46
1.414213562373095
 79
     0
 47
0.1938556153744621
 98
        1
 10
234.1746535007909
 20
151.7889212242924
  0
LINE
  5
1601
102
{ACAD_REACTORS
330
15E7
102
}
330
20
100
AcDbEntity
  8
STEMPEL
100
AcDbLine
 10
166.6571132037454
 20
118.129838996863
 30
0.0
 11
227.6778591354939
 21
118.129838996863
 31
0.0
  0
LINE
  5
1602
330
20
100
AcDbEntity
  8
STEMPEL
100
AcDbLine
 10
166.6571132037454
 20
119.6298389968631
 30
0.0
 11
228.1652386798432
 21
119.6298389968631
 31
0.0
  0
ARC
  5
1603
102
{ACAD_REACTORS
330
15E7
102
}
330
20
100
AcDbEntity
  8
SCHRAFF
100
AcDbCircle
 10
227.7314895200371
 20
120.4653270293548
 30
0.0
 40
3.702377633171619
100
AcDbArc
 50
219.1097326270334
 51
326.5437004722597
  0
ARC
  5
1604
330
20
100
AcDbEntity
  8
STEMPEL
100
AcDbCircle
 10
195.5015234074572
 20
165.129838996863
 30
0.0
 40
58.5
100
AcDbArc
 50
180.0
 51
221.4784008302656
  0
ARC
  5
1605
330
20
100
AcDbEntity
  8
STEMPEL
100
AcDbCircle
 10
195.5015234074572
 20
165.129838996863
 30
0.0
 40
60.0
100
AcDbArc
 50
180.0
 51
221.4784008302656
  0
ARC
  5
1606
330
20
100
AcDbEntity
  8
STEMPEL
100
AcDbCircle
 10
166.6571132037454
 20
139.629838996863
 30
0.0
 40
20.0
100
AcDbArc
 50
221.4784008302656
 51
270.0
  0
ARC
  5
1607
330
20
100
AcDbEntity
  8
STEMPEL
100
AcDbCircle
 10
166.6571132037454
 20
139.629838996863
 30
0.0
 40
21.5
100
AcDbArc
 50
221.4784008302656
 51
270.0
  0
LINE
  5
1608
330
20
100
AcDbEntity
  8
STEMPEL
100
AcDbLine
 10
135.5015234074572
 20
197.1298389968632
 30
0.0
 11
135.5015234074572
 21
165.129838996863
 31
0.0
  0
LINE
  5
1609
330
20
100
AcDbEntity
  8
STEMPEL
100
AcDbLine
 10
137.0015234074572
 20
197.129838996863
 30
0.0
 11
137.0015234074572
 21
165.129838996863
 31
0.0
  0
LINE
  5
160A
330
20
100
AcDbEntity
  8
STEMPEL
100
AcDbLine
 10
156.3515234074574
 20
164.1320600791384
 30
0.0
 11
156.3515234074574
 21
151.9849138316878
 31
0.0
  0
ARC
  5
160B
330
20
100
AcDbEntity
  8
STEMPEL
100
AcDbCircle
 10
144.0015234074573
 20
164.1320600791384
 30
0.0
 40
12.35
100
AcDbArc
 50
0.0
 51
21.18315439303641
  0
ARC
  5
160C
330
20
100
AcDbEntity
  8
STEMPEL
100
AcDbCircle
 10
178.5015234074573
 20
177.5020600791384
 30
0.0
 40
24.65009324312573
100
AcDbArc
 50
179.8382525687427
 51
201.1831543930364
  0
ARC
  5
160D
330
20
100
AcDbEntity
  8
STEMPEL
100
AcDbCircle
 10
178.5015099316946
 20
186.6060296444136
 30
0.0
 40
24.65
100
AcDbArc
 50
154.7271515321586
 51
180.0614902701015
  0
ARC
  5
160E
330
20
100
AcDbEntity
  8
STEMPEL
100
AcDbCircle
 10
150.9883125375091
 20
141.51591420009
 30
0.0
 40
8.335849004409556
100
AcDbArc
 50
4.223586214172984
 51
33.70883754918547
  0
ARC
  5
160F
330
20
100
AcDbEntity
  8
STEMPEL
100
AcDbCircle
 10
168.0015234074575
 20
151.9849138316878
 30
0.0
 40
11.65
100
AcDbArc
 50
180.0
 51
210.1013105468037
  0
ARC
  5
1610
330
20
100
AcDbEntity
  8
STEMPEL
100
AcDbCircle
 10
150.9906625118498
 20
141.5182906482489
 30
0.0
 40
9.530501894354083
100
AcDbArc
 50
3.679053821848017
 51
33.25085923465591
  0
ARC
  5
1611
330
20
100
AcDbEntity
  8
STEMPEL
100
AcDbCircle
 10
168.0015234074575
 20
151.9849138316878
 30
0.0
 40
10.45
100
AcDbArc
 50
180.0
 51
210.1013105468037
  0
LINE
  5
1612
330
20
100
AcDbEntity
  8
STEMPEL
100
AcDbLine
 10
157.5515234074574
 20
164.1320600791384
 30
0.0
 11
157.5515234074574
 21
151.9849138316878
 31
0.0
  0
ARC
  5
1613
330
20
100
AcDbEntity
  8
STEMPEL
100
AcDbCircle
 10
144.0015234074573
 20
164.1320600791384
 30
0.0
 40
13.55
100
AcDbArc
 50
0.0
 51
21.18315439303641
  0
ARC
  5
1614
330
20
100
AcDbEntity
  8
STEMPEL
100
AcDbCircle
 10
178.5015234074573
 20
177.5020600791384
 30
0.0
 40
23.45009324312573
100
AcDbArc
 50
179.8382525687427
 51
201.1831543930364
  0
ARC
  5
1615
330
20
100
AcDbEntity
  8
STEMPEL
100
AcDbCircle
 10
178.5015099316946
 20
186.6060296444136
 30
0.0
 40
23.45
100
AcDbArc
 50
153.3347863096963
 51
180.0614902701015
  0
LINE
  5
1616
330
20
100
AcDbEntity
  8
STEMPEL
100
AcDbLine
 10
153.8515241273165
 20
186.5795750803965
 30
0.0
 11
153.8515283883737
 21
177.5716478219072
 31
0.0
  0
LINE
  5
1617
330
20
100
AcDbEntity
  8
STEMPEL
100
AcDbLine
 10
155.0515234362517
 20
186.5808629293547
 30
0.0
 11
155.051523606694
 21
177.5682601961284
 31
0.0
  0
ARC
  5
1618
330
20
100
AcDbEntity
  8
SCHRAFF
100
AcDbCircle
 10
155.7361260791808
 20
197.1298389968607
 30
0.0
 40
3.0
100
AcDbArc
 50
179.9999999999544
 51
256.8416659290281
  0
ENDSEC
  0
SECTION
  2
OBJECTS
  0
DICTIONARY
  5
C
330
0
100
AcDbDictionary
281
     1
  3
ACAD_CIP_PREVIOUS_PRODUCT_INFO
350
1454
  3
ACAD_COLOR
350
1B
  3
ACAD_DETAILVIEWSTYLE
350
1451
  3
ACAD_GROUP
350
D
  3
ACAD_LAYOUT
350
19
  3
ACAD_MATERIAL
350
1A
  3
ACAD_MLEADERSTYLE
350
144C
  3
ACAD_MLINESTYLE
350
16
  3
ACAD_PLOTSETTINGS
350
18
  3
ACAD_PLOTSTYLENAME
350
E
  3
ACAD_SCALELIST
350
143A
  3
ACAD_SECTIONVIEWSTYLE
350
144E
  3
ACAD_TABLESTYLE
350
1438
  3
ACAD_VISUALSTYLE
350
141F
  3
ACDB_RECOMPOSE_DATA
350
16CF
  3
AcDbVariableDictionary
350
72A
  3
AcDsDecomposeData
350
16D5
  0
DICTIONARY
  5
1633
330
8
100
AcDbDictionary
280
     1
281
     1
  0
DICTIONARY
  5
1457
330
2
100
AcDbDictionary
280
     1
281
     1
  3
ACAD_LAYERSTATES
360
1458
  0
DICTIONARY
  5
1620
330
10
100
AcDbDictionary
280
     1
281
     1
  3
ADSK_XREC_LAYER_RECONCILED
360
1621
  0
DICTIONARY
  5
1622
330
47
100
AcDbDictionary
280
     1
281
     1
  3
ADSK_XREC_LAYER_RECONCILED
360
1623
  0
DICTIONARY
  5
1624
330
48
100
AcDbDictionary
280
     1
281
     1
  3
ADSK_XREC_LAYER_RECONCILED
360
1625
  0
DICTIONARY
  5
1626
330
49
100
AcDbDictionary
280
     1
281
     1
  3
ADSK_XREC_LAYER_RECONCILED
360
1627
  0
DICTIONARY
  5
1628
330
4A
100
AcDbDictionary
280
     1
281
     1
  3
ADSK_XREC_LAYER_RECONCILED
360
1629
  0
DICTIONARY
  5
162A
330
4C
100
AcDbDictionary
280
     1
281
     1
  3
ADSK_XREC_LAYER_RECONCILED
360
162B
  0
DICTIONARY
  5
162C
330
4D
100
AcDbDictionary
280
     1
281
     1
  3
ADSK_XREC_LAYER_RECONCILED
360
162D
  0
DICTIONARY
  5
162E
330
4E
100
AcDbDictionary
280
     1
281
     1
  3
ADSK_XREC_LAYER_RECONCILED
360
162F
  0
DICTIONARY
  5
129A
330
128D
100
AcDbDictionary
280
     1
281
     1
  3
ACAD_DIMASSOC
360
12A4
  0
DICTIONARY
  5
1389
330
1388
100
AcDbDictionary
280
     1
281
     1
  3
ACAD_DIMASSOC
360
138A
  0
DICTIONARY
  5
138F
330
138E
100
AcDbDictionary
280
     1
281
     1
  3
ACAD_DIMASSOC
360
1390
  0
DICTIONARY
  5
1393
330
1392
100
AcDbDictionary
280
     1
281
     1
  3
ACAD_DIMASSOC
360
1394
  0
XRECORD
  5
1454
102
{ACAD_REACTORS
330
C
102
}
330
C
100
AcDbXrecord
280
     1
300
ACD
300
2013
300
ACD_F_S
  0
DICTIONARY
  5
1B
102
{ACAD_REACTORS
330
C
102
}
330
C
100
AcDbDictionary
281
     1
  0
DICTIONARY
  5
1451
102
{ACAD_REACTORS
330
C
102
}
330
C
100
AcDbDictionary
281
     1
  3
Imperial24
350
1452
  0
DICTIONARY
  5
D
102
{ACAD_REACTORS
330
C
102
}
330
C
100
AcDbDictionary
281
     1
  0
DICTIONARY
  5
19
102
{ACAD_REACTORS
330
C
102
}
330
C
100
AcDbDictionary
281
     1
  3
Layout1
350
1F
  3
Model
350
23
  0
DICTIONARY
  5
1A
102
{ACAD_REACTORS
330
C
102
}
330
C
100
AcDbDictionary
281
     1
  3
ByBlock
350
140F
  3
ByLayer
350
1407
  3
Global
350
1417
  0
DICTIONARY
  5
144C
102
{ACAD_REACTORS
330
C
102
}
330
C
100
AcDbDictionary
281
     1
  3
Standard
350
144D
  0
DICTIONARY
  5
16
102
{ACAD_REACTORS
330
C
102
}
330
C
100
AcDbDictionary
281
     1
  3
Standard
350
17
  0
DICTIONARY
  5
18
102
{ACAD_REACTORS
330
C
102
}
330
C
100
AcDbDictionary
281
     1
  0
ACDBDICTIONARYWDFLT
  5
E
102
{ACAD_REACTORS
330
C
102
}
330
C
100
AcDbDictionary
281
     1
  3
Normal
350
F
100
AcDbDictionaryWithDefault
340
F
  0
DICTIONARY
  5
143A
102
{ACAD_REACTORS
330
C
102
}
330
C
100
AcDbDictionary
281
     1
  3
A0
350
143B
  3
A1
350
143C
  3
A2
350
143D
  3
A3
350
143E
  3
A4
350
143F
  3
A5
350
1440
  3
A6
350
1441
  3
A7
350
1442
  3
A8
350
1443
  3
A9
350
1444
  3
B0
350
1445
  3
B1
350
1446
  3
B2
350
1447
  3
B3
350
1448
  3
B4
350
1449
  3
B5
350
144A
  3
B6
350
144B
  0
DICTIONARY
  5
144E
102
{ACAD_REACTORS
330
C
102
}
330
C
100
AcDbDictionary
281
     1
  3
Imperial24
350
1450
  0
DICTIONARY
  5
1438
102
{ACAD_REACTORS
330
C
102
}
330
C
100
AcDbDictionary
281
     1
  3
Standard
350
1439
  0
DICTIONARY
  5
141F
102
{ACAD_REACTORS
330
C
102
}
330
C
100
AcDbDictionary
281
     1
  3
2dWireframe
350
1425
  3
Basic
350
1424
  3
Brighten
350
142B
  3
ColorChange
350
142F
  3
Conceptual
350
1428
  3
Dim
350
142A
  3
EdgeColorOff
350
1437
  3
Facepattern
350
142E
  3
Flat
350
1420
  3
FlatWithEdges
350
1421
  3
Gouraud
350
1422
  3
GouraudWithEdges
350
1423
  3
Hidden
350
1427
  3
JitterOff
350
1435
  3
Linepattern
350
142D
  3
OverhangOff
350
1436
  3
Realistic
350
1429
  3
Shaded
350
1434
  3
Shaded with edges
350
1433
  3
Shades of Gray
350
1430
  3
Sketchy
350
1431
  3
Thicken
350
142C
  3
Wireframe
350
1426
  3
X-Ray
350
1432
  0
XRECORD
  5
16CF
102
{ACAD_REACTORS
330
C
102
}
330
C
100
AcDbXrecord
280
     1
 90
        1
330
1439
  0
DICTIONARY
  5
72A
102
{ACAD_REACTORS
330
C
102
}
330
C
100
AcDbDictionary
281
     1
  3
CANNOSCALE
350
1671
  3
CMLEADERSTYLE
350
166E
  3
CTABLESTYLE
350
166D
  3
CVIEWDETAILSTYLE
350
166F
  3
CVIEWSECTIONSTYLE
350
1670
  3
DIMASSOC
350
72C
  3
HIDETEXT
350
72B
  3
PROJECTNAME
350
72D
  3
XCLIPFRAME
350
16CD
  0
DICTIONARY
  5
16D5
102
{ACAD_REACTORS
330
C
102
}
330
C
100
AcDbDictionary
281
     1
  3
AcDsRecords
350
16D7
  3
AcDsSchemas
350
16D6
1001
ACAD
1070
     2
  0
DICTIONARY
  5
1458
102
{ACAD_REACTORS
330
1457
102
}
330
1457
100
AcDbDictionary
281
     1
  0
XRECORD
  5
1621
102
{ACAD_REACTORS
330
1620
102
}
330
1620
100
AcDbXrecord
280
     1
290
     1
  0
XRECORD
  5
1623
102
{ACAD_REACTORS
330
1622
102
}
330
1622
100
AcDbXrecord
280
     1
290
     1
  0
XRECORD
  5
1625
102
{ACAD_REACTORS
330
1624
102
}
330
1624
100
AcDbXrecord
280
     1
290
     1
  0
XRECORD
  5
1627
102
{ACAD_REACTORS
330
1626
102
}
330
1626
100
AcDbXrecord
280
     1
290
     1
  0
XRECORD
  5
1629
102
{ACAD_REACTORS
330
1628
102
}
330
1628
100
AcDbXrecord
280
     1
290
     1
  0
XRECORD
  5
162B
102
{ACAD_REACTORS
330
162A
102
}
330
162A
100
AcDbXrecord
280
     1
290
     1
  0
XRECORD
  5
162D
102
{ACAD_REACTORS
330
162C
102
}
330
162C
100
AcDbXrecord
280
     1
290
     1
  0
XRECORD
  5
162F
102
{ACAD_REACTORS
330
162E
102
}
330
162E
100
AcDbXrecord
280
     1
290
     1
  0
DIMASSOC
  5
12A4
102
{ACAD_REACTORS
330
129A
102
}
330
129A
100
AcDbDimAssoc
330
128D
 90
       12
 70
     0
 71
     0
  1
AcDbOsnapPointRef
 72
    13
331
D06
 73
     2
 91
        0
 40
0.0
 10
0.0
 20
0.0
 30
2.000000000000000E+50
 75
     0
  1
AcDbOsnapPointRef
 72
     1
331
D06
 73
     2
 91
        0
 40
1.0
 10
0.0
 20
0.0
 30
2.000000000000000E+50
 75
     0
  0
DIMASSOC
  5
138A
102
{ACAD_REACTORS
330
1389
102
}
330
1389
100
AcDbDimAssoc
330
1388
 90
        2
 70
     0
 71
     0
  1
AcDbOsnapPointRef
 72
    13
331
138C
 73
     2
 91
        0
 40
0.0
 10
0.0
 20
0.0
 30
2.000000000000000E+50
 75
     0
  0
DIMASSOC
  5
1390
102
{ACAD_REACTORS
330
138F
102
}
330
138F
100
AcDbDimAssoc
330
138E
 90
        2
 70
     0
 71
     0
  1
AcDbOsnapPointRef
 72
     1
331
138D
 73
     2
 91
        0
 40
4.712388980384689
 10
0.0
 20
0.0
 30
2.000000000000000E+50
 75
     0
  0
DIMASSOC
  5
1394
102
{ACAD_REACTORS
330
1393
102
}
330
1393
100
AcDbDimAssoc
330
1392
 90
        1
 70
     0
 71
     0
  1
AcDbOsnapPointRef
 72
     1
331
1397
 73
     2
 91
        0
 40
1.0
 10
0.0
 20
0.0
 30
2.000000000000000E+50
 75
     0
  0
ACDBDETAILVIEWSTYLE
  5
1452
102
{ACAD_REACTORS
330
1451
102
}
330
1451
100
AcDbModelDocViewStyle
 70
     0
  3
Imperial24
290
     0
100
AcDbDetailViewStyle
 70
     0
 71
     0
 90
        3
 71
     1
340
11
 62
   256
 40
0.24
340
0
 62
   256
 40
0.24
300

 40
0.36
280
     3
 71
     2
340
15
 90
       25
 62
   256
 71
     3
340
11
 62
   256
 40
0.24
 90
        1
 40
0.75
 90
        1
300
%<\AcVar ViewType \f "%tc1">% %<\AcVar ViewDetailId>%\PVARIA %<\AcVar ViewScale \f "%sn">%
 71
     4
340
15
 90
       25
 62
   256
340
15
 90
       25
 62
   256
280
     0
  0
LAYOUT
  5
1F
102
{ACAD_REACTORS
330
19
102
}
330
19
100
AcDbPlotSettings
  1

  2
RICOH Aficio 2027 PCL 6
  4

  6

 40
0.0
 41
0.0
 42
0.0
 43
0.0
 44
0.0
 45
0.0
 46
0.0
 47
0.0
 48
0.0
 49
0.0
140
0.0
141
0.0
142
1.0
143
1.0
 70
   688
 72
     0
 73
     0
 74
     5
  7
monochrome1.ctb
 75
    16
147
1.0
 76
     0
 77
     2
 78
   300
148
0.0
149
0.0
100
AcDbLayout
  1
Layout1
 70
     0
 71
     1
 10
0.0
 20
0.0
 11
12.0
 21
9.0
 12
0.0
 22
0.0
 32
0.0
 14
1.000000000000000E+20
 24
1.000000000000000E+20
 34
1.000000000000000E+20
 15
-1.000000000000000E+20
 25
-1.000000000000000E+20
 35
-1.000000000000000E+20
146
0.0
 13
0.0
 23
0.0
 33
0.0
 16
1.0
 26
0.0
 36
0.0
 17
0.0
 27
1.0
 37
0.0
 76
     0
330
1C
  0
LAYOUT
  5
23
102
{ACAD_REACTORS
330
19
102
}
330
19
100
AcDbPlotSettings
  1

  2
none_device
  4
Letter_(8.50_x_11.00_Inches)
  6

 40
6.349999904632568
 41
6.349999904632568
 42
6.350006103515625
 43
6.350006103515625
 44
215.8999938964844
 45
279.3999938964844
 46
0.0
 47
0.0
 48
0.0
 49
0.0
140
0.0
141
0.0
142
1.0
143
48.39692042072258
 70
 11952
 72
     0
 73
     1
 74
     0
  7
monochrome1.ctb
 75
     0
147
0.0206624717297471
 76
     0
 77
     2
 78
   300
148
1119.815053198427
149
25.92055206166703
100
AcDbLayout
  1
Model
 70
     1
 71
     0
 10
0.0
 20
0.0
 11
12.0
 21
9.0
 12
0.0
 22
0.0
 32
0.0
 14
0.0
 24
0.0
 34
0.0
 15
0.0
 25
0.0
 35
0.0
146
0.0
 13
0.0
 23
0.0
 33
0.0
 16
1.0
 26
0.0
 36
0.0
 17
0.0
 27
1.0
 37
0.0
 76
     0
330
20
331
13FC
1001
ACAD_PSEXT
1000
Kein
1000
Kein
1000
Nicht anwendbar
1000
Das Layout wird erst geplottet, wenn ein neuer Plotter-Konfigurationsname ausgewählt wird.
1070
     0
  0
MATERIAL
  5
140F
102
{ACAD_XDICTIONARY
360
1410
102
}
102
{ACAD_REACTORS
330
1A
102
}
330
1A
100
AcDbMaterial
  1
ByBlock
 72
     0
 43
0.0208333333333333
 43
0.0
 43
0.0
 43
0.0
 43
0.0
 43
0.0208333333333333
 43
0.0
 43
0.0
 43
0.0
 43
0.0
 43
1.0
 43
0.0
 43
0.0
 43
0.0
 43
0.0
 43
1.0
 77
     0
 47
0.0208333333333333
 47
0.0
 47
0.0
 47
0.0
 47
0.0
 47
0.0208333333333333
 47
0.0
 47
0.0
 47
0.0
 47
0.0
 47
1.0
 47
0.0
 47
0.0
 47
0.0
 47
0.0
 47
1.0
171
     0
 49
0.0208333333333333
 49
0.0
 49
0.0
 49
0.0
 49
0.0
 49
0.0208333333333333
 49
0.0
 49
0.0
 49
0.0
 49
0.0
 49
1.0
 49
0.0
 49
0.0
 49
0.0
 49
0.0
 49
1.0
175
     0
142
0.0208333333333333
142
0.0
142
0.0
142
0.0
142
0.0
142
0.0208333333333333
142
0.0
142
0.0
142
0.0
142
0.0
142
1.0
142
0.0
142
0.0
142
0.0
142
0.0
142
1.0
179
     0
144
0.0208333333333333
144
0.0
144
0.0
144
0.0
144
0.0
144
0.0208333333333333
144
0.0
144
0.0
144
0.0
144
0.0
144
1.0
144
0.0
144
0.0
144
0.0
144
0.0
144
1.0
147
0.0208333333333333
147
0.0
147
0.0
147
0.0
147
0.0
147
0.0208333333333333
147
0.0
147
0.0
147
0.0
147
0.0
147
1.0
147
0.0
147
0.0
147
0.0
147
0.0
147
1.0
  0
MATERIAL
  5
1407
102
{ACAD_XDICTIONARY
360
1408
102
}
102
{ACAD_REACTORS
330
1A
102
}
330
1A
100
AcDbMaterial
  1
ByLayer
 72
     0
 43
0.0208333333333333
 43
0.0
 43
0.0
 43
0.0
 43
0.0
 43
0.0208333333333333
 43
0.0
 43
0.0
 43
0.0
 43
0.0
 43
1.0
 43
0.0
 43
0.0
 43
0.0
 43
0.0
 43
1.0
 77
     0
 47
0.0208333333333333
 47
0.0
 47
0.0
 47
0.0
 47
0.0
 47
0.0208333333333333
 47
0.0
 47
0.0
 47
0.0
 47
0.0
 47
1.0
 47
0.0
 47
0.0
 47
0.0
 47
0.0
 47
1.0
171
     0
 49
0.0208333333333333
 49
0.0
 49
0.0
 49
0.0
 49
0.0
 49
0.0208333333333333
 49
0.0
 49
0.0
 49
0.0
 49
0.0
 49
1.0
 49
0.0
 49
0.0
 49
0.0
 49
0.0
 49
1.0
175
     0
142
0.0208333333333333
142
0.0
142
0.0
142
0.0
142
0.0
142
0.0208333333333333
142
0.0
142
0.0
142
0.0
142
0.0
142
1.0
142
0.0
142
0.0
142
0.0
142
0.0
142
1.0
179
     0
144
0.0208333333333333
144
0.0
144
0.0
144
0.0
144
0.0
144
0.0208333333333333
144
0.0
144
0.0
144
0.0
144
0.0
144
1.0
144
0.0
144
0.0
144
0.0
144
0.0
144
1.0
147
0.0208333333333333
147
0.0
147
0.0
147
0.0
147
0.0
147
0.0208333333333333
147
0.0
147
0.0
147
0.0
147
0.0
147
1.0
147
0.0
147
0.0
147
0.0
147
0.0
147
1.0
  0
MATERIAL
  5
1417
102
{ACAD_XDICTIONARY
360
1418
102
}
102
{ACAD_REACTORS
330
1A
102
}
330
1A
100
AcDbMaterial
  1
Global
 72
     0
 43
0.0208333333333333
 43
0.0
 43
0.0
 43
0.0
 43
0.0
 43
0.0208333333333333
 43
0.0
 43
0.0
 43
0.0
 43
0.0
 43
1.0
 43
0.0
 43
0.0
 43
0.0
 43
0.0
 43
1.0
 77
     0
 47
0.0208333333333333
 47
0.0
 47
0.0
 47
0.0
 47
0.0
 47
0.0208333333333333
 47
0.0
 47
0.0
 47
0.0
 47
0.0
 47
1.0
 47
0.0
 47
0.0
 47
0.0
 47
0.0
 47
1.0
171
     0
 49
0.0208333333333333
 49
0.0
 49
0.0
 49
0.0
 49
0.0
 49
0.0208333333333333
 49
0.0
 49
0.0
 49
0.0
 49
0.0
 49
1.0
 49
0.0
 49
0.0
 49
0.0
 49
0.0
 49
1.0
175
     0
142
0.0208333333333333
142
0.0
142
0.0
142
0.0
142
0.0
142
0.0208333333333333
142
0.0
142
0.0
142
0.0
142
0.0
142
1.0
142
0.0
142
0.0
142
0.0
142
0.0
142
1.0
179
     0
144
0.0208333333333333
144
0.0
144
0.0
144
0.0
144
0.0
144
0.0208333333333333
144
0.0
144
0.0
144
0.0
144
0.0
144
1.0
144
0.0
144
0.0
144
0.0
144
0.0
144
1.0
147
0.0208333333333333
147
0.0
147
0.0
147
0.0
147
0.0
147
0.0208333333333333
147
0.0
147
0.0
147
0.0
147
0.0
147
1.0
147
0.0
147
0.0
147
0.0
147
0.0
147
1.0
  0
MLEADERSTYLE
  5
144D
102
{ACAD_XDICTIONARY
360
170C
102
}
102
{ACAD_REACTORS
330
144C
102
}
330
144C
100
AcDbMLeaderStyle
170
     2
171
     1
172
     0
 90
        2
 40
0.0
 41
0.0
173
     1
 91
-1056964608
340
13
 92
       -2
290
     1
 42
0.09
291
     1
 43
0.36
  3
Standard
 44
0.18
300

342
11
174
     1
178
     6
175
     1
176
     0
 93
-1056964608
 45
0.18
292
     0
297
     0
 46
0.18
 94
-1056964608
 47
1.0
 49
1.0
140
1.0
293
     1
141
0.0
294
     1
177
     0
142
1.0
295
     0
296
     0
143
0.125
1001
ACAD_MLEADERVER
1070
     2
  0
MLINESTYLE
  5
17
102
{ACAD_REACTORS
330
16
102
}
330
16
100
AcDbMlineStyle
  2
STANDARD
 70
     0
  3

 62
   256
 51
90.0
 52
90.0
 71
     2
 49
0.5
 62
   256
  6
BYLAYER
 49
-0.5
 62
   256
  6
BYLAYER
  0
ACDBPLACEHOLDER
  5
F
102
{ACAD_REACTORS
330
E
102
}
330
E
  0
SCALE
  5
143B
102
{ACAD_REACTORS
330
143A
102
}
330
143A
100
AcDbScale
 70
     0
300
1:1
140
1.0
141
1.0
290
     1
  0
SCALE
  5
143C
102
{ACAD_REACTORS
330
143A
102
}
330
143A
100
AcDbScale
 70
     0
300
1/128" = 1'-0"
140
0.0078125
141
12.0
290
     0
  0
SCALE
  5
143D
102
{ACAD_REACTORS
330
143A
102
}
330
143A
100
AcDbScale
 70
     0
300
1/64" = 1'-0"
140
0.015625
141
12.0
290
     0
  0
SCALE
  5
143E
102
{ACAD_REACTORS
330
143A
102
}
330
143A
100
AcDbScale
 70
     0
300
1/32" = 1'-0"
140
0.03125
141
12.0
290
     0
  0
SCALE
  5
143F
102
{ACAD_REACTORS
330
143A
102
}
330
143A
100
AcDbScale
 70
     0
300
1/16" = 1'-0"
140
0.0625
141
12.0
290
     0
  0
SCALE
  5
1440
102
{ACAD_REACTORS
330
143A
102
}
330
143A
100
AcDbScale
 70
     0
300
3/32" = 1'-0"
140
0.09375
141
12.0
290
     0
  0
SCALE
  5
1441
102
{ACAD_REACTORS
330
143A
102
}
330
143A
100
AcDbScale
 70
     0
300
1/8" = 1'-0"
140
0.125
141
12.0
290
     0
  0
SCALE
  5
1442
102
{ACAD_REACTORS
330
143A
102
}
330
143A
100
AcDbScale
 70
     0
300
3/16" = 1'-0"
140
0.1875
141
12.0
290
     0
  0
SCALE
  5
1443
102
{ACAD_REACTORS
330
143A
102
}
330
143A
100
AcDbScale
 70
     0
300
1/4" = 1'-0"
140
0.25
141
12.0
290
     0
  0
SCALE
  5
1444
102
{ACAD_REACTORS
330
143A
102
}
330
143A
100
AcDbScale
 70
     0
300
3/8" = 1'-0"
140
0.375
141
12.0
290
     0
  0
SCALE
  5
1445
102
{ACAD_REACTORS
330
143A
102
}
330
143A
100
AcDbScale
 70
     0
300
1/2" = 1'-0"
140
0.5
141
12.0
290
     0
  0
SCALE
  5
1446
102
{ACAD_REACTORS
330
143A
102
}
330
143A
100
AcDbScale
 70
     0
300
3/4" = 1'-0"
140
0.75
141
12.0
290
     0
  0
SCALE
  5
1447
102
{ACAD_REACTORS
330
143A
102
}
330
143A
100
AcDbScale
 70
     0
300
1" = 1'-0"
140
1.0
141
12.0
290
     0
  0
SCALE
  5
1448
102
{ACAD_REACTORS
330
143A
102
}
330
143A
100
AcDbScale
 70
     0
300
1-1/2" = 1'-0"
140
1.5
141
12.0
290
     0
  0
SCALE
  5
1449
102
{ACAD_REACTORS
330
143A
102
}
330
143A
100
AcDbScale
 70
     0
300
3" = 1'-0"
140
3.0
141
12.0
290
     0
  0
SCALE
  5
144A
102
{ACAD_REACTORS
330
143A
102
}
330
143A
100
AcDbScale
 70
     0
300
6" = 1'-0"
140
6.0
141
12.0
290
     0
  0
SCALE
  5
144B
102
{ACAD_REACTORS
330
143A
102
}
330
143A
100
AcDbScale
 70
     0
300
1'-0" = 1'-0"
140
12.0
141
12.0
290
     0
  0
ACDBSECTIONVIEWSTYLE
  5
1450
102
{ACAD_REACTORS
330
144E
102
}
330
144E
100
AcDbModelDocViewStyle
 70
     0
  3
Imperial24
290
     0
100
AcDbSectionViewStyle
 70
     0
 71
     0
 90
       78
 71
     1
340
11
 62
   256
 40
0.24
340
0
340
0
 62
   256
 40
0.24
300
I, O, Q, S, X, Z
 40
0.48
 90
        3
 40
0.18
 90
        1
 71
     2
340
144F
 90
       25
 62
   256
340
15
 90
       50
 62
   256
 40
0.24
 40
0.0
 40
0.24
 71
     3
340
11
 62
   256
 40
0.24
 90
        1
 40
0.75
 90
        1
300
%<\AcVar ViewType \f "%tc1">% %<\AcVar ViewSectionStartId>%-%<\AcVar ViewSectionEndId>%\PVARIA %<\AcVar ViewScale \f "%sn">%
 71
     4
 62
   256
 62
   257
300
ANSI31
 40
1.0
 90
        0
290
     0
290
     0
 90
        6
 40
0.0
 40
1.570796326794896
 40
0.2617993877991494
 40
1.308996938995747
 40
-0.2617993877991494
 40
1.832595714594046
  0
TABLESTYLE
  5
1439
102
{ACAD_XDICTIONARY
360
1630
102
}
102
{ACAD_REACTORS
330
1438
102
}
330
1438
100
AcDbTableStyle
  3
Standard
 70
     0
 71
     0
 40
0.06
 41
0.06
280
     0
281
     0
  7
STANDARD
140
0.18
170
     2
 62
     0
 63
     7
283
     0
274
    -2
284
     1
 64
     0
275
    -2
285
     1
 65
     0
276
    -2
286
     1
 66
     0
277
    -2
287
     1
 67
     0
278
    -2
288
     1
 68
     0
279
    -2
289
     1
 69
     0
  7
STANDARD
140
0.25
170
     5
 62
     0
 63
     7
283
     0
274
    -2
284
     1
 64
     0
275
    -2
285
     1
 65
     0
276
    -2
286
     1
 66
     0
277
    -2
287
     1
 67
     0
278
    -2
288
     1
 68
     0
279
    -2
289
     1
 69
     0
  7
STANDARD
140
0.18
170
     5
 62
     0
 63
     7
283
     0
274
    -2
284
     1
 64
     0
275
    -2
285
     1
 65
     0
276
    -2
286
     1
 66
     0
277
    -2
287
     1
 67
     0
278
    -2
288
     1
 68
     0
279
    -2
289
     1
 69
     0
  0
VISUALSTYLE
  5
1425
102
{ACAD_XDICTIONARY
360
16E5
102
}
102
{ACAD_REACTORS
330
141F
102
}
330
141F
100
AcDbVisualStyle
  2
2dWireframe
 70
     4
 71
     0
 72
     2
 73
     0
 90
        0
 40
-0.6
 41
-30.0
 62
     5
 63
     7
421
 16777215
 74
     1
 91
        4
 64
     7
 65
   257
 75
     1
175
     1
 42
1.0
 92
        0
 66
   257
 43
1.0
 76
     1
 77
     6
 78
     2
 67
     7
 79
     5
170
     0
171
     0
290
     0
174
     0
 93
        1
 44
0.0
173
     0
291
     0
 45
0.0
1001
ACAD
1000
AcDbSavedByObjectVersion
1070
     0
  0
VISUALSTYLE
  5
1424
102
{ACAD_XDICTIONARY
360
16E3
102
}
102
{ACAD_REACTORS
330
141F
102
}
330
141F
100
AcDbVisualStyle
  2
Basic
 70
     7
 71
     1
 72
     0
 73
     1
 90
        0
 40
-0.6
 41
-30.0
 62
     5
 63
     7
421
 16777215
 74
     0
 91
        4
 64
     7
 65
   257
 75
     1
175
     1
 42
1.0
 92
        8
 66
     7
 43
1.0
 76
     1
 77
     6
 78
     2
 67
     7
 79
     5
170
     0
171
     0
290
     0
174
     0
 93
        1
 44
0.0
173
     0
291
     1
 45
0.0
1001
ACAD
1000
AcDbSavedByObjectVersion
1070
     0
  0
VISUALSTYLE
  5
142B
102
{ACAD_XDICTIONARY
360
16F1
102
}
102
{ACAD_REACTORS
330
141F
102
}
330
141F
100
AcDbVisualStyle
  2
Brighten
 70
    12
 71
     2
 72
     2
 73
     0
 90
        0
 40
-0.6
 41
-30.0
 62
     5
 63
     7
421
 16777215
 74
     1
 91
        4
 64
     7
 65
   257
 75
     1
175
     1
 42
1.0
 92
        8
 66
     7
 43
1.0
 76
     1
 77
     6
 78
     2
 67
     7
 79
     5
170
     0
171
     0
290
     0
174
     0
 93
        1
 44
50.0
173
     0
291
     1
 45
0.0
1001
ACAD
1000
AcDbSavedByObjectVersion
1070
     0
  0
VISUALSTYLE
  5
142F
102
{ACAD_XDICTIONARY
360
16F9
102
}
102
{ACAD_REACTORS
330
141F
102
}
330
141F
100
AcDbVisualStyle
  2
ColorChange
 70
    16
 71
     2
 72
     2
 73
     3
 90
        0
 40
-0.6
 41
-30.0
 62
     5
 63
     8
421
  8421504
 74
     1
 91
        4
 64
     7
 65
   257
 75
     1
175
     1
 42
1.0
 92
        8
 66
     8
424
  8421504
 43
1.0
 76
     1
 77
     6
 78
     2
 67
     7
 79
     5
170
     0
171
     0
290
     0
174
     0
 93
        1
 44
0.0
173
     0
291
     1
 45
0.0
1001
ACAD
1000
AcDbSavedByObjectVersion
1070
     0
  0
VISUALSTYLE
  5
1428
102
{ACAD_XDICTIONARY
360
16EB
102
}
102
{ACAD_REACTORS
330
141F
102
}
330
141F
100
AcDbVisualStyle
  2
Conceptual
 70
     9
 71
     3
 72
     2
 73
     0
 90
        0
 40
-0.6
 41
-30.0
 62
     5
 63
     7
421
 16777215
 74
     2
 91
        2
 64
     7
 65
   257
 75
     1
175
     1
 42
179.0
 92
        8
 66
     7
 43
1.0
 76
     1
 77
     6
 78
     2
 67
     7
 79
     3
170
     0
171
     0
290
     0
174
     0
 93
        1
 44
0.0
173
     0
291
     0
 45
0.0
1001
ACAD
1000
AcDbSavedByObjectVersion
1070
     0
  0
VISUALSTYLE
  5
142A
102
{ACAD_XDICTIONARY
360
16EF
102
}
102
{ACAD_REACTORS
330
141F
102
}
330
141F
100
AcDbVisualStyle
  2
Dim
 70
    11
 71
     2
 72
     2
 73
     0
 90
        0
 40
-0.6
 41
-30.0
 62
     5
 63
     7
421
 16777215
 74
     1
 91
        4
 64
     7
 65
   257
 75
     1
175
     1
 42
1.0
 92
        8
 66
     7
 43
1.0
 76
     1
 77
     6
 78
     2
 67
     7
 79
     5
170
     0
171
     0
290
     0
174
     0
 93
        1
 44
-50.0
173
     0
291
     1
 45
0.0
1001
ACAD
1000
AcDbSavedByObjectVersion
1070
     0
  0
VISUALSTYLE
  5
1437
102
{ACAD_XDICTIONARY
360
1709
102
}
102
{ACAD_REACTORS
330
141F
102
}
330
141F
100
AcDbVisualStyle
  2
EdgeColorOff
 70
    22
 71
     2
 72
     2
 73
     0
 90
        0
 40
-0.6
 41
-30.0
 62
     5
 63
     7
421
 16777215
 74
     1
 91
        4
 64
     7
 65
   257
 75
     1
175
     1
 42
1.0
 92
        8
 66
     7
 43
1.0
 76
     1
 77
     6
 78
     2
 67
     7
 79
     5
170
     0
171
     0
290
     0
174
     0
 93
        1
 44
0.0
173
     0
291
     1
 45
0.0
1001
ACAD
1000
AcDbSavedByObjectVersion
1070
     0
  0
VISUALSTYLE
  5
142E
102
{ACAD_XDICTIONARY
360
16F7
102
}
102
{ACAD_REACTORS
330
141F
102
}
330
141F
100
AcDbVisualStyle
  2
Facepattern
 70
    15
 71
     2
 72
     2
 73
     0
 90
        0
 40
-0.6
 41
-30.0
 62
     5
 63
     7
421
 16777215
 74
     1
 91
        4
 64
     7
 65
   257
 75
     1
175
     1
 42
1.0
 92
        8
 66
     7
 43
1.0
 76
     1
 77
     6
 78
     2
 67
     7
 79
     5
170
     0
171
     0
290
     0
174
     0
 93
        1
 44
0.0
173
     0
291
     1
 45
0.0
1001
ACAD
1000
AcDbSavedByObjectVersion
1070
     0
  0
VISUALSTYLE
  5
1420
102
{ACAD_XDICTIONARY
360
16DB
102
}
102
{ACAD_REACTORS
330
141F
102
}
330
141F
100
AcDbVisualStyle
  2
Flat
 70
     0
 71
     2
 72
     1
 73
     1
 90
        2
 40
-0.6
 41
30.0
 62
     5
 63
     7
421
 16777215
 74
     0
 91
        0
 64
     7
 65
   257
 75
     1
175
     1
 42
1.0
 92
        8
 66
     7
 43
1.0
 76
     1
 77
     6
 78
     2
 67
     7
 79
     5
170
     0
171
     0
290
     0
174
     0
 93
       13
 44
0.0
173
     0
291
     1
 45
0.0
1001
ACAD
1000
AcDbSavedByObjectVersion
1070
     0
  0
VISUALSTYLE
  5
1421
102
{ACAD_XDICTIONARY
360
16DD
102
}
102
{ACAD_REACTORS
330
141F
102
}
330
141F
100
AcDbVisualStyle
  2
FlatWithEdges
 70
     1
 71
     2
 72
     1
 73
     1
 90
        2
 40
-0.6
 41
30.0
 62
     5
 63
     7
421
 16777215
 74
     1
 91
        0
 64
     7
 65
   257
 75
     1
175
     1
 42
1.0
 92
        0
 66
   257
 43
1.0
 76
     1
 77
     6
 78
     2
 67
     7
 79
     5
170
     0
171
     0
290
     0
174
     0
 93
       13
 44
0.0
173
     0
291
     1
 45
0.0
1001
ACAD
1000
AcDbSavedByObjectVersion
1070
     0
  0
VISUALSTYLE
  5
1422
102
{ACAD_XDICTIONARY
360
16DF
102
}
102
{ACAD_REACTORS
330
141F
102
}
330
141F
100
AcDbVisualStyle
  2
Gouraud
 70
     2
 71
     2
 72
     2
 73
     1
 90
        2
 40
-0.6
 41
30.0
 62
     5
 63
     7
421
 16777215
 74
     0
 91
        0
 64
     7
 65
   257
 75
     1
175
     1
 42
1.0
 92
        0
 66
     7
 43
1.0
 76
     1
 77
     6
 78
     2
 67
     7
 79
     5
170
     0
171
     0
290
     0
174
     0
 93
       13
 44
0.0
173
     0
291
     1
 45
0.0
1001
ACAD
1000
AcDbSavedByObjectVersion
1070
     0
  0
VISUALSTYLE
  5
1423
102
{ACAD_XDICTIONARY
360
16E1
102
}
102
{ACAD_REACTORS
330
141F
102
}
330
141F
100
AcDbVisualStyle
  2
GouraudWithEdges
 70
     3
 71
     2
 72
     2
 73
     1
 90
        2
 40
-0.6
 41
30.0
 62
     5
 63
     7
421
 16777215
 74
     1
 91
        0
 64
     7
 65
   257
 75
     1
175
     1
 42
1.0
 92
        0
 66
   257
 43
1.0
 76
     1
 77
     6
 78
     2
 67
     7
 79
     5
170
     0
171
     0
290
     0
174
     0
 93
       13
 44
0.0
173
     0
291
     1
 45
0.0
1001
ACAD
1000
AcDbSavedByObjectVersion
1070
     0
  0
VISUALSTYLE
  5
1427
102
{ACAD_XDICTIONARY
360
16E9
102
}
102
{ACAD_REACTORS
330
141F
102
}
330
141F
100
AcDbVisualStyle
  2
Hidden
 70
     6
 71
     1
 72
     2
 73
     2
 90
        0
 40
-0.6
 41
-30.0
 62
     5
 63
     7
421
 16777215
 74
     2
 91
        2
 64
     7
 65
   257
 75
     2
175
     1
 42
40.0
 92
        0
 66
   257
 43
1.0
 76
     1
 77
     6
 78
     2
 67
     7
 79
     3
170
     0
171
     0
290
     0
174
     0
 93
        1
 44
0.0
173
     0
291
     0
 45
0.0
1001
ACAD
1000
AcDbSavedByObjectVersion
1070
     0
  0
VISUALSTYLE
  5
1435
102
{ACAD_XDICTIONARY
360
1705
102
}
102
{ACAD_REACTORS
330
141F
102
}
330
141F
100
AcDbVisualStyle
  2
JitterOff
 70
    20
 71
     2
 72
     2
 73
     0
 90
        0
 40
-0.6
 41
-30.0
 62
     5
 63
     7
421
 16777215
 74
     1
 91
        4
 64
     7
 65
   257
 75
     1
175
     1
 42
1.0
 92
       10
 66
     7
 43
1.0
 76
     1
 77
     6
 78
     2
 67
     7
 79
     5
170
     0
171
     0
290
     0
174
     0
 93
        1
 44
0.0
173
     0
291
     1
 45
0.0
1001
ACAD
1000
AcDbSavedByObjectVersion
1070
     0
  0
VISUALSTYLE
  5
142D
102
{ACAD_XDICTIONARY
360
16F5
102
}
102
{ACAD_REACTORS
330
141F
102
}
330
141F
100
AcDbVisualStyle
  2
Linepattern
 70
    14
 71
     2
 72
     2
 73
     0
 90
        0
 40
-0.6
 41
-30.0
 62
     5
 63
     7
421
 16777215
 74
     1
 91
        4
 64
     7
 65
   257
 75
     7
175
     7
 42
1.0
 92
        8
 66
     7
 43
1.0
 76
     1
 77
     6
 78
     2
 67
     7
 79
     5
170
     0
171
     0
290
     0
174
     0
 93
        1
 44
0.0
173
     0
291
     1
 45
0.0
1001
ACAD
1000
AcDbSavedByObjectVersion
1070
     0
  0
VISUALSTYLE
  5
1436
102
{ACAD_XDICTIONARY
360
1707
102
}
102
{ACAD_REACTORS
330
141F
102
}
330
141F
100
AcDbVisualStyle
  2
OverhangOff
 70
    21
 71
     2
 72
     2
 73
     0
 90
        0
 40
-0.6
 41
-30.0
 62
     5
 63
     7
421
 16777215
 74
     1
 91
        4
 64
     7
 65
   257
 75
     1
175
     1
 42
1.0
 92
        9
 66
     7
 43
1.0
 76
     1
 77
     6
 78
     2
 67
     7
 79
     5
170
     0
171
     0
290
     0
174
     0
 93
        1
 44
0.0
173
     0
291
     1
 45
0.0
1001
ACAD
1000
AcDbSavedByObjectVersion
1070
     0
  0
VISUALSTYLE
  5
1429
102
{ACAD_XDICTIONARY
360
16ED
102
}
102
{ACAD_REACTORS
330
141F
102
}
330
141F
100
AcDbVisualStyle
  2
Realistic
 70
     8
 71
     2
 72
     2
 73
     0
 90
        2
 40
-0.6
 41
30.0
 62
     5
 63
     7
421
 16777215
 74
     0
 91
        0
 64
     7
 65
   257
 75
     1
175
     1
 42
1.0
 92
        8
 66
   257
 43
1.0
 76
     1
 77
     6
 78
     2
 67
     7
 79
     3
170
     0
171
     0
290
     0
174
     0
 93
       13
 44
0.0
173
     0
291
     0
 45
0.0
1001
ACAD
1000
AcDbSavedByObjectVersion
1070
     0
  0
VISUALSTYLE
  5
1434
102
{ACAD_XDICTIONARY
360
1703
102
}
102
{ACAD_REACTORS
330
141F
102
}
330
141F
100
AcDbVisualStyle
  2
Shaded
 70
    27
 71
     2
 72
     2
 73
     1
 90
        2
 40
-0.6
 41
30.0
 62
     5
 63
     7
421
 16777215
 74
     0
 91
        4
 64
     7
 65
   257
 75
     1
175
     1
 42
1.0
 92
        8
 66
   257
 43
1.0
 76
     1
 77
     6
 78
     2
 67
     8
425
  7895160
 79
     3
170
     0
171
     0
290
     0
174
     0
 93
        5
 44
0.0
173
     0
291
     0
 45
0.0
1001
ACAD
1000
AcDbSavedByObjectVersion
1070
     0
  0
VISUALSTYLE
  5
1433
102
{ACAD_XDICTIONARY
360
1701
102
}
102
{ACAD_REACTORS
330
141F
102
}
330
141F
100
AcDbVisualStyle
  2
Shaded with edges
 70
    26
 71
     2
 72
     2
 73
     1
 90
        2
 40
-0.6
 41
30.0
 62
     5
 63
     7
421
 16777215
 74
     1
 91
       10
 64
     7
 65
   257
 75
     2
175
     1
 42
1.0
 92
        8
 66
   257
 43
1.0
 76
     1
 77
     6
 78
     2
 67
     7
 79
     3
170
     0
171
     0
290
     0
174
     0
 93
        5
 44
0.0
173
     0
291
     0
 45
0.0
1001
ACAD
1000
AcDbSavedByObjectVersion
1070
     0
  0
VISUALSTYLE
  5
1430
102
{ACAD_XDICTIONARY
360
16FB
102
}
102
{ACAD_REACTORS
330
141F
102
}
330
141F
100
AcDbVisualStyle
  2
Shades of Gray
 70
    23
 71
     2
 72
     2
 73
     3
 90
        0
 40
-0.6
 41
-30.0
 62
     5
 63
     7
421
 16777215
 74
     2
 91
        2
 64
     7
 65
     7
 75
     1
175
     1
 42
40.0
 92
        8
 66
     7
 43
1.0
 76
     1
 77
     6
 78
     2
 67
     7
 79
     3
170
     0
171
     0
290
     0
174
     0
 93
        1
 44
0.0
173
     0
291
     0
 45
0.0
1001
ACAD
1000
AcDbSavedByObjectVersion
1070
     0
  0
VISUALSTYLE
  5
1431
102
{ACAD_XDICTIONARY
360
16FD
102
}
102
{ACAD_REACTORS
330
141F
102
}
330
141F
100
AcDbVisualStyle
  2
Sketchy
 70
    24
 71
     1
 72
     2
 73
     2
 90
        0
 40
-0.6
 41
-30.0
 62
     5
 63
     7
421
 16777215
 74
     2
 91
        2
 64
     7
 65
     7
 75
     1
175
     1
 42
40.0
 92
       11
 66
     7
 43
1.0
 76
     1
 77
     6
 78
     2
 67
     7
 79
     6
170
     0
171
     0
290
     0
174
     0
 93
        1
 44
0.0
173
     0
291
     0
 45
0.0
1001
ACAD
1000
AcDbSavedByObjectVersion
1070
     0
  0
VISUALSTYLE
  5
142C
102
{ACAD_XDICTIONARY
360
16F3
102
}
102
{ACAD_REACTORS
330
141F
102
}
330
141F
100
AcDbVisualStyle
  2
Thicken
 70
    13
 71
     2
 72
     2
 73
     0
 90
        0
 40
-0.6
 41
-30.0
 62
     5
 63
     7
421
 16777215
 74
     1
 91
        4
 64
     7
 65
   257
 75
     1
175
     1
 42
1.0
 92
       12
 66
     7
 43
1.0
 76
     1
 77
     6
 78
     2
 67
     7
 79
     5
170
     0
171
     0
290
     0
174
     0
 93
        1
 44
0.0
173
     0
291
     1
 45
0.0
1001
ACAD
1000
AcDbSavedByObjectVersion
1070
     0
  0
VISUALSTYLE
  5
1426
102
{ACAD_XDICTIONARY
360
16E7
102
}
102
{ACAD_REACTORS
330
141F
102
}
330
141F
100
AcDbVisualStyle
  2
Wireframe
 70
     5
 71
     0
 72
     2
 73
     0
 90
        0
 40
-0.6
 41
-30.0
 62
     5
 63
     7
421
 16777215
 74
     1
 91
        4
 64
     7
 65
   257
 75
     1
175
     1
 42
1.0
 92
        0
 66
   257
 43
1.0
 76
     1
 77
     6
 78
     2
 67
     7
 79
     3
170
     0
171
     0
290
     0
174
     0
 93
        1
 44
0.0
173
     0
291
     0
 45
0.0
1001
ACAD
1000
AcDbSavedByObjectVersion
1070
     0
  0
VISUALSTYLE
  5
1432
102
{ACAD_XDICTIONARY
360
16FF
102
}
102
{ACAD_REACTORS
330
141F
102
}
330
141F
100
AcDbVisualStyle
  2
X-Ray
 70
    25
 71
     2
 72
     2
 73
     1
 90
        1
 40
0.5
 41
-30.0
 62
     5
 63
     7
421
 16777215
 74
     1
 91
        0
 64
     7
 65
   257
 75
     1
175
     1
 42
1.0
 92
        8
 66
     7
 43
1.0
 76
     1
 77
     6
 78
     2
 67
     7
 79
     3
170
     0
171
     0
290
     0
174
     0
 93
       13
 44
0.0
173
     0
291
     0
 45
0.0
1001
ACAD
1000
AcDbSavedByObjectVersion
1070
     0
  0
DICTIONARYVAR
  5
1671
102
{ACAD_REACTORS
330
72A
102
}
330
72A
100
DictionaryVariables
280
     0
  1
1:1
  0
DICTIONARYVAR
  5
166E
102
{ACAD_REACTORS
330
72A
102
}
330
72A
100
DictionaryVariables
280
     0
  1
STANDARD
  0
DICTIONARYVAR
  5
166D
102
{ACAD_REACTORS
330
72A
102
}
330
72A
100
DictionaryVariables
280
     0
  1
STANDARD
  0
DICTIONARYVAR
  5
166F
102
{ACAD_REACTORS
330
72A
102
}
330
72A
100
DictionaryVariables
280
     0
  1
Imperial24
  0
DICTIONARYVAR
  5
1670
102
{ACAD_REACTORS
330
72A
102
}
330
72A
100
DictionaryVariables
280
     0
  1
Imperial24
  0
DICTIONARYVAR
  5
72C
102
{ACAD_REACTORS
330
72A
102
}
330
72A
100
DictionaryVariables
280
     0
  1
2
  0
DICTIONARYVAR
  5
72B
102
{ACAD_REACTORS
330
72A
102
}
330
72A
100
DictionaryVariables
280
     0
  1
1
  0
DICTIONARYVAR
  5
72D
102
{ACAD_REACTORS
330
72A
102
}
330
72A
100
DictionaryVariables
280
     0
  1

  0
DICTIONARYVAR
  5
16CD
102
{ACAD_REACTORS
330
72A
102
}
330
72A
100
DictionaryVariables
280
     0
  1
2
  0
DICTIONARY
  5
16D7
102
{ACAD_REACTORS
330
16D5
102
}
330
16D5
100
AcDbDictionary
281
     1
  0
DICTIONARY
  5
16D6
102
{ACAD_REACTORS
330
16D5
102
}
330
16D5
100
AcDbDictionary
281
     1
  3
8796083756800
350
16D0
  3
8796083756816
350
16D1
  3
8796083756832
350
16D2
  3
8796083756848
350
16D3
  3
8796083756864
350
16D4
  0
DICTIONARY
  5
1410
330
140F
100
AcDbDictionary
280
     1
281
     1
  3
ACAD_XREC_ROUNDTRIP
360
16D9
  3
BUMPTILE
360
1412
  3
DIFFUSETILE
360
1411
  3
OPACITYTILE
360
1415
  3
REFLECTIONTILE
360
1414
  3
REFRACTIONTILE
360
1416
  3
SPECULARTILE
360
1413
  0
DICTIONARY
  5
1408
330
1407
100
AcDbDictionary
280
     1
281
     1
  3
ACAD_XREC_ROUNDTRIP
360
16D8
  3
BUMPTILE
360
140A
  3
DIFFUSETILE
360
1409
  3
OPACITYTILE
360
140D
  3
REFLECTIONTILE
360
140C
  3
REFRACTIONTILE
360
140E
  3
SPECULARTILE
360
140B
  0
DICTIONARY
  5
1418
330
1417
100
AcDbDictionary
280
     1
281
     1
  3
ACAD_XREC_ROUNDTRIP
360
16DA
  3
BUMPTILE
360
141A
  3
DIFFUSETILE
360
1419
  3
OPACITYTILE
360
141D
  3
REFLECTIONTILE
360
141C
  3
REFRACTIONTILE
360
141E
  3
SPECULARTILE
360
141B
  0
DICTIONARY
  5
170C
330
144D
100
AcDbDictionary
280
     1
281
     1
  3
ACAD_XREC_ROUNDTRIP
360
170D
  0
DICTIONARY
  5
1630
330
1439
100
AcDbDictionary
280
     1
281
     1
  3
ACAD_ROUNDTRIP_2008_TABLESTYLE_CELLSTYLEMAP
360
16CE
  3
ACAD_XREC_ROUNDTRIP
360
170B
  0
DICTIONARY
  5
16E5
330
1425
100
AcDbDictionary
280
     1
281
     1
  3
ACAD_XREC_ROUNDTRIP
360
16E6
  0
DICTIONARY
  5
16E3
330
1424
100
AcDbDictionary
280
     1
281
     1
  3
ACAD_XREC_ROUNDTRIP
360
16E4
  0
DICTIONARY
  5
16F1
330
142B
100
AcDbDictionary
280
     1
281
     1
  3
ACAD_XREC_ROUNDTRIP
360
16F2
  0
DICTIONARY
  5
16F9
330
142F
100
AcDbDictionary
280
     1
281
     1
  3
ACAD_XREC_ROUNDTRIP
360
16FA
  0
DICTIONARY
  5
16EB
330
1428
100
AcDbDictionary
280
     1
281
     1
  3
ACAD_XREC_ROUNDTRIP
360
16EC
  0
DICTIONARY
  5
16EF
330
142A
100
AcDbDictionary
280
     1
281
     1
  3
ACAD_XREC_ROUNDTRIP
360
16F0
  0
DICTIONARY
  5
1709
330
1437
100
AcDbDictionary
280
     1
281
     1
  3
ACAD_XREC_ROUNDTRIP
360
170A
  0
DICTIONARY
  5
16F7
330
142E
100
AcDbDictionary
280
     1
281
     1
  3
ACAD_XREC_ROUNDTRIP
360
16F8
  0
DICTIONARY
  5
16DB
330
1420
100
AcDbDictionary
280
     1
281
     1
  3
ACAD_XREC_ROUNDTRIP
360
16DC
  0
DICTIONARY
  5
16DD
330
1421
100
AcDbDictionary
280
     1
281
     1
  3
ACAD_XREC_ROUNDTRIP
360
16DE
  0
DICTIONARY
  5
16DF
330
1422
100
AcDbDictionary
280
     1
281
     1
  3
ACAD_XREC_ROUNDTRIP
360
16E0
  0
DICTIONARY
  5
16E1
330
1423
100
AcDbDictionary
280
     1
281
     1
  3
ACAD_XREC_ROUNDTRIP
360
16E2
  0
DICTIONARY
  5
16E9
330
1427
100
AcDbDictionary
280
     1
281
     1
  3
ACAD_XREC_ROUNDTRIP
360
16EA
  0
DICTIONARY
  5
1705
330
1435
100
AcDbDictionary
280
     1
281
     1
  3
ACAD_XREC_ROUNDTRIP
360
1706
  0
DICTIONARY
  5
16F5
330
142D
100
AcDbDictionary
280
     1
281
     1
  3
ACAD_XREC_ROUNDTRIP
360
16F6
  0
DICTIONARY
  5
1707
330
1436
100
AcDbDictionary
280
     1
281
     1
  3
ACAD_XREC_ROUNDTRIP
360
1708
  0
DICTIONARY
  5
16ED
330
1429
100
AcDbDictionary
280
     1
281
     1
  3
ACAD_XREC_ROUNDTRIP
360
16EE
  0
DICTIONARY
  5
1703
330
1434
100
AcDbDictionary
280
     1
281
     1
  3
ACAD_XREC_ROUNDTRIP
360
1704
  0
DICTIONARY
  5
1701
330
1433
100
AcDbDictionary
280
     1
281
     1
  3
ACAD_XREC_ROUNDTRIP
360
1702
  0
DICTIONARY
  5
16FB
330
1430
100
AcDbDictionary
280
     1
281
     1
  3
ACAD_XREC_ROUNDTRIP
360
16FC
  0
DICTIONARY
  5
16FD
330
1431
100
AcDbDictionary
280
     1
281
     1
  3
ACAD_XREC_ROUNDTRIP
360
16FE
  0
DICTIONARY
  5
16F3
330
142C
100
AcDbDictionary
280
     1
281
     1
  3
ACAD_XREC_ROUNDTRIP
360
16F4
  0
DICTIONARY
  5
16E7
330
1426
100
AcDbDictionary
280
     1
281
     1
  3
ACAD_XREC_ROUNDTRIP
360
16E8
  0
DICTIONARY
  5
16FF
330
1432
100
AcDbDictionary
280
     1
281
     1
  3
ACAD_XREC_ROUNDTRIP
360
1700
  0
XRECORD
  5
16D0
102
{ACAD_REACTORS
330
16D6
102
}
330
16D6
100
AcDbXrecord
280
     1
  1
AcDb_Thumbnail_Schema
102
{ATTRRECORD
341
16D1
  2
AcDbDs::TreatedAsObjectData
280
     1
291
     1
102
ATTRRECORD}
102
{ATTRRECORD
341
16D2
  2
AcDbDs::Legacy
280
     1
291
     1
102
ATTRRECORD}
  2
AcDbDs::ID
280
    10
 91
        8
102
{ATTRRECORD
341
16D3
  2
AcDs:Indexable
280
     1
291
     1
102
ATTRRECORD}
102
{ATTRRECORD
341
16D4
  2
AcDbDs::HandleAttribute
280
     7
282
     1
102
ATTRRECORD}
  2
Thumbnail_Data
280
    15
 91
        0
  0
XRECORD
  5
16D1
102
{ACAD_REACTORS
330
16D6
102
}
330
16D6
100
AcDbXrecord
280
     1
  1
AcDbDs::TreatedAsObjectDataSchema
  2
AcDbDs::TreatedAsObjectData
280
     1
 91
        0
  0
XRECORD
  5
16D2
102
{ACAD_REACTORS
330
16D6
102
}
330
16D6
100
AcDbXrecord
280
     1
  1
AcDbDs::LegacySchema
  2
AcDbDs::Legacy
280
     1
 91
        0
  0
XRECORD
  5
16D3
102
{ACAD_REACTORS
330
16D6
102
}
330
16D6
100
AcDbXrecord
280
     1
  1
AcDbDs::IndexedPropertySchema
  2
AcDs:Indexable
280
     1
 91
        0
  0
XRECORD
  5
16D4
102
{ACAD_REACTORS
330
16D6
102
}
330
16D6
100
AcDbXrecord
280
     1
  1
AcDbDs::HandleAttributeSchema
  2
AcDbDs::HandleAttribute
280
     7
 91
        1
284
     1
  0
XRECORD
  5
16D9
102
{ACAD_REACTORS
330
1410
102
}
330
1410
100
AcDbXrecord
280
     1
102
MATERIAL
148
0.0
149
0.0
149
0.0
 93
        0
 94
      127
282
     0
 72
     0
 77
     0
171
     0
175
     0
179
     0
273
     0
  0
XRECORD
  5
1412
102
{ACAD_REACTORS
330
1410
102
}
330
1410
100
AcDbXrecord
280
     1
270
     1
271
     1
  0
XRECORD
  5
1411
102
{ACAD_REACTORS
330
1410
102
}
330
1410
100
AcDbXrecord
280
     1
270
     1
271
     1
  0
XRECORD
  5
1415
102
{ACAD_REACTORS
330
1410
102
}
330
1410
100
AcDbXrecord
280
     1
270
     1
271
     1
  0
XRECORD
  5
1414
102
{ACAD_REACTORS
330
1410
102
}
330
1410
100
AcDbXrecord
280
     1
270
     1
271
     1
  0
XRECORD
  5
1416
102
{ACAD_REACTORS
330
1410
102
}
330
1410
100
AcDbXrecord
280
     1
270
     1
271
     1
  0
XRECORD
  5
1413
102
{ACAD_REACTORS
330
1410
102
}
330
1410
100
AcDbXrecord
280
     1
270
     1
271
     1
  0
XRECORD
  5
16D8
102
{ACAD_REACTORS
330
1408
102
}
330
1408
100
AcDbXrecord
280
     1
102
MATERIAL
148
0.0
149
0.0
149
0.0
 93
        0
 94
      127
282
     0
 72
     0
 77
     0
171
     0
175
     0
179
     0
273
     0
  0
XRECORD
  5
140A
102
{ACAD_REACTORS
330
1408
102
}
330
1408
100
AcDbXrecord
280
     1
270
     1
271
     1
  0
XRECORD
  5
1409
102
{ACAD_REACTORS
330
1408
102
}
330
1408
100
AcDbXrecord
280
     1
270
     1
271
     1
  0
XRECORD
  5
140D
102
{ACAD_REACTORS
330
1408
102
}
330
1408
100
AcDbXrecord
280
     1
270
     1
271
     1
  0
XRECORD
  5
140C
102
{ACAD_REACTORS
330
1408
102
}
330
1408
100
AcDbXrecord
280
     1
270
     1
271
     1
  0
XRECORD
  5
140E
102
{ACAD_REACTORS
330
1408
102
}
330
1408
100
AcDbXrecord
280
     1
270
     1
271
     1
  0
XRECORD
  5
140B
102
{ACAD_REACTORS
330
1408
102
}
330
1408
100
AcDbXrecord
280
     1
270
     1
271
     1
  0
XRECORD
  5
16DA
102
{ACAD_REACTORS
330
1418
102
}
330
1418
100
AcDbXrecord
280
     1
102
MATERIAL
148
0.0
149
0.0
149
0.0
 93
        0
 94
      127
282
     0
 72
     0
 77
     0
171
     0
175
     0
179
     0
273
     0
  0
XRECORD
  5
141A
102
{ACAD_REACTORS
330
1418
102
}
330
1418
100
AcDbXrecord
280
     1
270
     1
271
     1
  0
XRECORD
  5
1419
102
{ACAD_REACTORS
330
1418
102
}
330
1418
100
AcDbXrecord
280
     1
270
     1
271
     1
  0
XRECORD
  5
141D
102
{ACAD_REACTORS
330
1418
102
}
330
1418
100
AcDbXrecord
280
     1
270
     1
271
     1
  0
XRECORD
  5
141C
102
{ACAD_REACTORS
330
1418
102
}
330
1418
100
AcDbXrecord
280
     1
270
     1
271
     1
  0
XRECORD
  5
141E
102
{ACAD_REACTORS
330
1418
102
}
330
1418
100
AcDbXrecord
280
     1
270
     1
271
     1
  0
XRECORD
  5
141B
102
{ACAD_REACTORS
330
1418
102
}
330
1418
100
AcDbXrecord
280
     1
270
     1
271
     1
  0
XRECORD
  5
170D
102
{ACAD_REACTORS
330
170C
102
}
330
170C
100
AcDbXrecord
280
     1
102
ACAD_ROUNDTRIP_2012_MLEADER_STYLE
298
     1
  0
CELLSTYLEMAP
  5
16CE
102
{ACAD_REACTORS
330
1630
102
}
330
1630
100
AcDbCellStyleMap
 90
        3
300
CELLSTYLE
  1
TABLEFORMAT_BEGIN
 90
        5
170
     1
 91
        0
 92
    32768
 62
   257
 93
        1
300
CONTENTFORMAT
  1
CONTENTFORMAT_BEGIN
 90
        0
 91
        0
 92
      512
 93
        0
300

 40
0.0
140
1.0
 94
        5
 62
     0
340
11
144
0.25
309
CONTENTFORMAT_END
171
     0
 94
        0
309
TABLEFORMAT_END
  1
CELLSTYLE_BEGIN
 90
        1
 91
        1
300
_TITLE
309
CELLSTYLE_END
300
CELLSTYLE
  1
TABLEFORMAT_BEGIN
 90
        5
170
     1
 91
        0
 92
        0
 62
   257
 93
        1
300
CONTENTFORMAT
  1
CONTENTFORMAT_BEGIN
 90
        0
 91
        0
 92
      512
 93
        0
300

 40
0.0
140
1.0
 94
        5
 62
     0
340
11
144
0.18
309
CONTENTFORMAT_END
171
     0
 94
        0
309
TABLEFORMAT_END
  1
CELLSTYLE_BEGIN
 90
        2
 91
        1
300
_HEADER
309
CELLSTYLE_END
300
CELLSTYLE
  1
TABLEFORMAT_BEGIN
 90
        5
170
     1
 91
        0
 92
        0
 62
   257
 93
        1
300
CONTENTFORMAT
  1
CONTENTFORMAT_BEGIN
 90
        0
 91
        0
 92
      512
 93
        0
300

 40
0.0
140
1.0
 94
        2
 62
     0
340
11
144
0.18
309
CONTENTFORMAT_END
171
     0
 94
        0
309
TABLEFORMAT_END
  1
CELLSTYLE_BEGIN
 90
        3
 91
        2
300
_DATA
309
CELLSTYLE_END
  0
XRECORD
  5
170B
102
{ACAD_REACTORS
330
1630
102
}
330
1630
100
AcDbXrecord
280
     1
102
ACAD_ROUNDTRIP_PRE2007_TABLESTYLE
 90
      512
 91
        0
  1

 92
      512
 93
        0
  2

 94
      512
 95
        0
  3

  0
XRECORD
  5
16E6
102
{ACAD_REACTORS
330
16E5
102
}
330
16E5
100
AcDbXrecord
280
     1
102
RTVSPost2010Prop28
280
     1
102
RTVSPost2010PropOp28
 70
     1
102
RTVSPost2010Prop29
280
     1
102
RTVSPost2010PropOp29
 70
     1
102
RTVSPost2010Prop30
280
     0
102
RTVSPost2010PropOp30
 70
     1
102
RTVSPost2010Prop31
280
     0
102
RTVSPost2010PropOp31
 70
     1
102
RTVSPost2010Prop32
280
     0
102
RTVSPost2010PropOp32
 70
     1
102
RTVSPost2010Prop33
280
     0
102
RTVSPost2010PropOp33
 70
     1
102
RTVSPost2010Prop34
280
     0
102
RTVSPost2010PropOp34
 70
     1
102
RTVSPost2010Prop35
280
     0
102
RTVSPost2010PropOp35
 70
     1
102
RTVSPost2010Prop36
280
     0
102
RTVSPost2010PropOp36
 70
     1
102
RTVSPost2010Prop37
 90
       50
102
RTVSPost2010PropOp37
 70
     1
102
RTVSPost2010Prop38
140
0.0
102
RTVSPost2010PropOp38
 70
     1
102
RTVSPost2010Prop39
140
1.0
102
RTVSPost2010PropOp39
 70
     1
102
RTVSPost2010Prop40
 90
        0
102
RTVSPost2010PropOp40
 70
     1
102
RTVSPost2010Prop41ColorIndex
 90
       18
102
RTVSPost2010Prop41ColorRGB
 90
        0
102
RTVSPost2010PropOp41
 70
     1
102
RTVSPost2010Prop42
 90
       50
102
RTVSPost2010PropOp42
 70
     1
102
RTVSPost2010Prop43
 90
        3
102
RTVSPost2010PropOp43
 70
     1
102
RTVSPost2010Prop44ColorIndex
 90
        5
102
RTVSPost2010Prop44ColorRGB
 90
      255
102
RTVSPost2010PropOp44
 70
     1
102
RTVSPost2010Prop45
280
     0
102
RTVSPost2010PropOp45
 70
     1
102
RTVSPost2010Prop46
 90
       50
102
RTVSPost2010PropOp46
 70
     1
102
RTVSPost2010Prop47
 90
       50
102
RTVSPost2010PropOp47
 70
     1
102
RTVSPost2010Prop48
 90
       50
102
RTVSPost2010PropOp48
 70
     1
102
RTVSPost2010Prop49
280
     0
102
RTVSPost2010PropOp49
 70
     1
102
RTVSPost2010Prop50
 90
       50
102
RTVSPost2010PropOp50
 70
     1
102
RTVSPost2010Prop51ColorIndex
 90
      256
102
RTVSPost2010Prop51ColorRGB
 90
-16777216
102
RTVSPost2010PropOp51
 70
     0
102
RTVSPost2010Prop52
140
1.0
102
RTVSPost2010PropOp52
 70
     0
102
RTVSPost2010Prop53
 90
        2
102
RTVSPost2010PropOp53
 70
     1
102
RTVSPost2010Prop54
  1
strokes_ogs.tif
102
RTVSPost2010PropOp54
 70
     1
102
RTVSPost2010Prop55
280
     0
102
RTVSPost2010PropOp55
 70
     1
102
RTVSPost2010Prop56
140
1.0
102
RTVSPost2010PropOp56
 70
     1
102
RTVSPost2010Prop57
140
1.0
102
RTVSPost2010PropOp57
 70
     1
102
RTVSPropertyOp0
 70
     1
102
RTVSPropertyOp1
 70
     1
102
RTVSPropertyOp2
 70
     1
102
RTVSPropertyOp3
 70
     1
102
RTVSPropertyOp4
 70
     1
102
RTVSPropertyOp5
 70
     1
102
RTVSPropertyOp6
 70
     1
102
RTVSPropertyOp7
 70
     1
102
RTVSPropertyOp8
 70
     1
102
RTVSPropertyOp9
 70
     1
102
RTVSPropertyOp10
 70
     1
102
RTVSPropertyOp11
 70
     1
102
RTVSPropertyOp12
 70
     1
102
RTVSPropertyOp13
 70
     1
102
RTVSPropertyOp14
 70
     1
102
RTVSPropertyOp15
 70
     1
102
RTVSPropertyOp16
 70
     1
102
RTVSPropertyOp17
 70
     1
102
RTVSPropertyOp18
 70
     1
102
RTVSPropertyOp19
 70
     1
102
RTVSPropertyOp20
 70
     1
102
RTVSPropertyOp21
 70
     1
102
RTVSPropertyOp22
 70
     1
102
RTVSPropertyOp23
 70
     1
102
RTVSPropertyOp24
 70
     1
102
RTVSPropertyOp25
 70
     1
102
RTVSPropertyOp26
 70
     1
102
RTVSPropertyOp27
 70
     1
102
RTVSPropertyOp28
 70
     1
102
RTVSPropertyOp29
 70
     1
102
RTVSPropertyOp30
 70
     1
102
RTVSPropertyOp31
 70
     1
102
RTVSPropertyOp32
 70
     1
102
RTVSPropertyOp33
 70
     1
102
RTVSPropertyOp34
 70
     1
102
RTVSPropertyOp35
 70
     1
102
RTVSPropertyOp36
 70
     1
102
RTVSPropertyOp37
 70
     1
102
RTVSPropertyOp38
 70
     1
102
RTVSPropertyOp39
 70
     1
102
RTVSPropertyOp40
 70
     1
102
RTVSPropertyOp41
 70
     1
102
RTVSPropertyOp42
 70
     1
102
RTVSPropertyOp43
 70
     1
102
RTVSPropertyOp44
 70
     1
102
RTVSPropertyOp45
 70
     1
102
RTVSPropertyOp46
 70
     1
102
RTVSPropertyOp47
 70
     1
102
RTVSPropertyOp48
 70
     1
102
RTVSPropertyOp49
 70
     1
102
RTVSPropertyOp50
 70
     1
102
RTVSPropertyOp51
 70
     0
102
RTVSPropertyOp52
 70
     0
102
RTVSPropertyOp53
 70
     1
102
RTVSPropertyOp54
 70
     1
102
RTVSPropertyOp55
 70
     1
102
RTVSPropertyOp56
 70
     1
102
RTVSPropertyOp57
 70
     1
102
RTVSPropertyOp58
 70
     1
102
RTVSPropertyOp59
 70
     1
102
RTVSPropertyOp60
 70
     1
102
RTVSPropertyOp61
 70
     1
102
RTVSPropertyOp62
 70
     1
  0
XRECORD
  5
16E4
102
{ACAD_REACTORS
330
16E3
102
}
330
16E3
100
AcDbXrecord
280
     1
102
RTVSPost2010Prop28
280
     0
102
RTVSPost2010PropOp28
 70
     1
102
RTVSPost2010Prop29
280
     1
102
RTVSPost2010PropOp29
 70
     1
102
RTVSPost2010Prop30
280
     1
102
RTVSPost2010PropOp30
 70
     1
102
RTVSPost2010Prop31
280
     0
102
RTVSPost2010PropOp31
 70
     1
102
RTVSPost2010Prop32
280
     0
102
RTVSPost2010PropOp32
 70
     1
102
RTVSPost2010Prop33
280
     0
102
RTVSPost2010PropOp33
 70
     1
102
RTVSPost2010Prop34
280
     0
102
RTVSPost2010PropOp34
 70
     1
102
RTVSPost2010Prop35
280
     0
102
RTVSPost2010PropOp35
 70
     1
102
RTVSPost2010Prop36
280
     0
102
RTVSPost2010PropOp36
 70
     1
102
RTVSPost2010Prop37
 90
       50
102
RTVSPost2010PropOp37
 70
     1
102
RTVSPost2010Prop38
140
0.0
102
RTVSPost2010PropOp38
 70
     1
102
RTVSPost2010Prop39
140
1.0
102
RTVSPost2010PropOp39
 70
     1
102
RTVSPost2010Prop40
 90
        0
102
RTVSPost2010PropOp40
 70
     1
102
RTVSPost2010Prop41ColorIndex
 90
       18
102
RTVSPost2010Prop41ColorRGB
 90
        0
102
RTVSPost2010PropOp41
 70
     1
102
RTVSPost2010Prop42
 90
       50
102
RTVSPost2010PropOp42
 70
     1
102
RTVSPost2010Prop43
 90
        3
102
RTVSPost2010PropOp43
 70
     1
102
RTVSPost2010Prop44ColorIndex
 90
        5
102
RTVSPost2010Prop44ColorRGB
 90
      255
102
RTVSPost2010PropOp44
 70
     1
102
RTVSPost2010Prop45
280
     0
102
RTVSPost2010PropOp45
 70
     1
102
RTVSPost2010Prop46
 90
       50
102
RTVSPost2010PropOp46
 70
     1
102
RTVSPost2010Prop47
 90
       50
102
RTVSPost2010PropOp47
 70
     1
102
RTVSPost2010Prop48
 90
       50
102
RTVSPost2010PropOp48
 70
     1
102
RTVSPost2010Prop49
280
     0
102
RTVSPost2010PropOp49
 70
     1
102
RTVSPost2010Prop50
 90
       50
102
RTVSPost2010PropOp50
 70
     1
102
RTVSPost2010Prop51ColorIndex
 90
      256
102
RTVSPost2010Prop51ColorRGB
 90
-16777216
102
RTVSPost2010PropOp51
 70
     0
102
RTVSPost2010Prop52
140
1.0
102
RTVSPost2010PropOp52
 70
     0
102
RTVSPost2010Prop53
 90
        2
102
RTVSPost2010PropOp53
 70
     1
102
RTVSPost2010Prop54
  1
strokes_ogs.tif
102
RTVSPost2010PropOp54
 70
     1
102
RTVSPost2010Prop55
280
     0
102
RTVSPost2010PropOp55
 70
     1
102
RTVSPost2010Prop56
140
1.0
102
RTVSPost2010PropOp56
 70
     1
102
RTVSPost2010Prop57
140
1.0
102
RTVSPost2010PropOp57
 70
     1
102
RTVSPropertyOp0
 70
     1
102
RTVSPropertyOp1
 70
     1
102
RTVSPropertyOp2
 70
     1
102
RTVSPropertyOp3
 70
     1
102
RTVSPropertyOp4
 70
     1
102
RTVSPropertyOp5
 70
     1
102
RTVSPropertyOp6
 70
     1
102
RTVSPropertyOp7
 70
     1
102
RTVSPropertyOp8
 70
     1
102
RTVSPropertyOp9
 70
     1
102
RTVSPropertyOp10
 70
     1
102
RTVSPropertyOp11
 70
     1
102
RTVSPropertyOp12
 70
     1
102
RTVSPropertyOp13
 70
     1
102
RTVSPropertyOp14
 70
     1
102
RTVSPropertyOp15
 70
     1
102
RTVSPropertyOp16
 70
     1
102
RTVSPropertyOp17
 70
     1
102
RTVSPropertyOp18
 70
     1
102
RTVSPropertyOp19
 70
     1
102
RTVSPropertyOp20
 70
     1
102
RTVSPropertyOp21
 70
     1
102
RTVSPropertyOp22
 70
     1
102
RTVSPropertyOp23
 70
     1
102
RTVSPropertyOp24
 70
     1
102
RTVSPropertyOp25
 70
     1
102
RTVSPropertyOp26
 70
     1
102
RTVSPropertyOp27
 70
     1
102
RTVSPropertyOp28
 70
     1
102
RTVSPropertyOp29
 70
     1
102
RTVSPropertyOp30
 70
     1
102
RTVSPropertyOp31
 70
     1
102
RTVSPropertyOp32
 70
     1
102
RTVSPropertyOp33
 70
     1
102
RTVSPropertyOp34
 70
     1
102
RTVSPropertyOp35
 70
     1
102
RTVSPropertyOp36
 70
     1
102
RTVSPropertyOp37
 70
     1
102
RTVSPropertyOp38
 70
     1
102
RTVSPropertyOp39
 70
     1
102
RTVSPropertyOp40
 70
     1
102
RTVSPropertyOp41
 70
     1
102
RTVSPropertyOp42
 70
     1
102
RTVSPropertyOp43
 70
     1
102
RTVSPropertyOp44
 70
     1
102
RTVSPropertyOp45
 70
     1
102
RTVSPropertyOp46
 70
     1
102
RTVSPropertyOp47
 70
     1
102
RTVSPropertyOp48
 70
     1
102
RTVSPropertyOp49
 70
     1
102
RTVSPropertyOp50
 70
     1
102
RTVSPropertyOp51
 70
     0
102
RTVSPropertyOp52
 70
     0
102
RTVSPropertyOp53
 70
     1
102
RTVSPropertyOp54
 70
     1
102
RTVSPropertyOp55
 70
     1
102
RTVSPropertyOp56
 70
     1
102
RTVSPropertyOp57
 70
     1
102
RTVSPropertyOp58
 70
     1
102
RTVSPropertyOp59
 70
     1
102
RTVSPropertyOp60
 70
     1
102
RTVSPropertyOp61
 70
     1
102
RTVSPropertyOp62
 70
     1
  0
XRECORD
  5
16F2
102
{ACAD_REACTORS
330
16F1
102
}
330
16F1
100
AcDbXrecord
280
     1
102
RTVSPost2010Prop28
280
     0
102
RTVSPost2010PropOp28
 70
     1
102
RTVSPost2010Prop29
280
     1
102
RTVSPost2010PropOp29
 70
     1
102
RTVSPost2010Prop30
280
     1
102
RTVSPost2010PropOp30
 70
     1
102
RTVSPost2010Prop31
280
     0
102
RTVSPost2010PropOp31
 70
     1
102
RTVSPost2010Prop32
280
     0
102
RTVSPost2010PropOp32
 70
     1
102
RTVSPost2010Prop33
280
     0
102
RTVSPost2010PropOp33
 70
     1
102
RTVSPost2010Prop34
280
     0
102
RTVSPost2010PropOp34
 70
     1
102
RTVSPost2010Prop35
280
     0
102
RTVSPost2010PropOp35
 70
     1
102
RTVSPost2010Prop36
280
     0
102
RTVSPost2010PropOp36
 70
     1
102
RTVSPost2010Prop37
 90
       50
102
RTVSPost2010PropOp37
 70
     1
102
RTVSPost2010Prop38
140
0.0
102
RTVSPost2010PropOp38
 70
     1
102
RTVSPost2010Prop39
140
1.0
102
RTVSPost2010PropOp39
 70
     1
102
RTVSPost2010Prop40
 90
        0
102
RTVSPost2010PropOp40
 70
     1
102
RTVSPost2010Prop41ColorIndex
 90
       18
102
RTVSPost2010Prop41ColorRGB
 90
        0
102
RTVSPost2010PropOp41
 70
     1
102
RTVSPost2010Prop42
 90
       50
102
RTVSPost2010PropOp42
 70
     1
102
RTVSPost2010Prop43
 90
        3
102
RTVSPost2010PropOp43
 70
     1
102
RTVSPost2010Prop44ColorIndex
 90
        5
102
RTVSPost2010Prop44ColorRGB
 90
      255
102
RTVSPost2010PropOp44
 70
     1
102
RTVSPost2010Prop45
280
     0
102
RTVSPost2010PropOp45
 70
     1
102
RTVSPost2010Prop46
 90
       50
102
RTVSPost2010PropOp46
 70
     1
102
RTVSPost2010Prop47
 90
       50
102
RTVSPost2010PropOp47
 70
     1
102
RTVSPost2010Prop48
 90
       50
102
RTVSPost2010PropOp48
 70
     1
102
RTVSPost2010Prop49
280
     0
102
RTVSPost2010PropOp49
 70
     1
102
RTVSPost2010Prop50
 90
       50
102
RTVSPost2010PropOp50
 70
     1
102
RTVSPost2010Prop51ColorIndex
 90
      256
102
RTVSPost2010Prop51ColorRGB
 90
-16777216
102
RTVSPost2010PropOp51
 70
     0
102
RTVSPost2010Prop52
140
1.0
102
RTVSPost2010PropOp52
 70
     0
102
RTVSPost2010Prop53
 90
        2
102
RTVSPost2010PropOp53
 70
     1
102
RTVSPost2010Prop54
  1
strokes_ogs.tif
102
RTVSPost2010PropOp54
 70
     1
102
RTVSPost2010Prop55
280
     0
102
RTVSPost2010PropOp55
 70
     1
102
RTVSPost2010Prop56
140
1.0
102
RTVSPost2010PropOp56
 70
     1
102
RTVSPost2010Prop57
140
1.0
102
RTVSPost2010PropOp57
 70
     1
102
RTVSPropertyOp0
 70
     1
102
RTVSPropertyOp1
 70
     1
102
RTVSPropertyOp2
 70
     1
102
RTVSPropertyOp3
 70
     1
102
RTVSPropertyOp4
 70
     1
102
RTVSPropertyOp5
 70
     1
102
RTVSPropertyOp6
 70
     1
102
RTVSPropertyOp7
 70
     1
102
RTVSPropertyOp8
 70
     1
102
RTVSPropertyOp9
 70
     1
102
RTVSPropertyOp10
 70
     1
102
RTVSPropertyOp11
 70
     1
102
RTVSPropertyOp12
 70
     1
102
RTVSPropertyOp13
 70
     1
102
RTVSPropertyOp14
 70
     1
102
RTVSPropertyOp15
 70
     1
102
RTVSPropertyOp16
 70
     1
102
RTVSPropertyOp17
 70
     1
102
RTVSPropertyOp18
 70
     1
102
RTVSPropertyOp19
 70
     1
102
RTVSPropertyOp20
 70
     1
102
RTVSPropertyOp21
 70
     1
102
RTVSPropertyOp22
 70
     1
102
RTVSPropertyOp23
 70
     1
102
RTVSPropertyOp24
 70
     1
102
RTVSPropertyOp25
 70
     1
102
RTVSPropertyOp26
 70
     1
102
RTVSPropertyOp27
 70
     1
102
RTVSPropertyOp28
 70
     1
102
RTVSPropertyOp29
 70
     1
102
RTVSPropertyOp30
 70
     1
102
RTVSPropertyOp31
 70
     1
102
RTVSPropertyOp32
 70
     1
102
RTVSPropertyOp33
 70
     1
102
RTVSPropertyOp34
 70
     1
102
RTVSPropertyOp35
 70
     1
102
RTVSPropertyOp36
 70
     1
102
RTVSPropertyOp37
 70
     1
102
RTVSPropertyOp38
 70
     1
102
RTVSPropertyOp39
 70
     1
102
RTVSPropertyOp40
 70
     1
102
RTVSPropertyOp41
 70
     1
102
RTVSPropertyOp42
 70
     1
102
RTVSPropertyOp43
 70
     1
102
RTVSPropertyOp44
 70
     1
102
RTVSPropertyOp45
 70
     1
102
RTVSPropertyOp46
 70
     1
102
RTVSPropertyOp47
 70
     1
102
RTVSPropertyOp48
 70
     1
102
RTVSPropertyOp49
 70
     1
102
RTVSPropertyOp50
 70
     1
102
RTVSPropertyOp51
 70
     0
102
RTVSPropertyOp52
 70
     0
102
RTVSPropertyOp53
 70
     1
102
RTVSPropertyOp54
 70
     1
102
RTVSPropertyOp55
 70
     1
102
RTVSPropertyOp56
 70
     1
102
RTVSPropertyOp57
 70
     1
102
RTVSPropertyOp58
 70
     1
102
RTVSPropertyOp59
 70
     1
102
RTVSPropertyOp60
 70
     1
102
RTVSPropertyOp61
 70
     1
102
RTVSPropertyOp62
 70
     1
  0
XRECORD
  5
16FA
102
{ACAD_REACTORS
330
16F9
102
}
330
16F9
100
AcDbXrecord
280
     1
102
RTVSPost2010Prop28
280
     0
102
RTVSPost2010PropOp28
 70
     1
102
RTVSPost2010Prop29
280
     1
102
RTVSPost2010PropOp29
 70
     1
102
RTVSPost2010Prop30
280
     1
102
RTVSPost2010PropOp30
 70
     1
102
RTVSPost2010Prop31
280
     0
102
RTVSPost2010PropOp31
 70
     1
102
RTVSPost2010Prop32
280
     0
102
RTVSPost2010PropOp32
 70
     1
102
RTVSPost2010Prop33
280
     0
102
RTVSPost2010PropOp33
 70
     1
102
RTVSPost2010Prop34
280
     0
102
RTVSPost2010PropOp34
 70
     1
102
RTVSPost2010Prop35
280
     0
102
RTVSPost2010PropOp35
 70
     1
102
RTVSPost2010Prop36
280
     0
102
RTVSPost2010PropOp36
 70
     1
102
RTVSPost2010Prop37
 90
       50
102
RTVSPost2010PropOp37
 70
     1
102
RTVSPost2010Prop38
140
0.0
102
RTVSPost2010PropOp38
 70
     1
102
RTVSPost2010Prop39
140
1.0
102
RTVSPost2010PropOp39
 70
     1
102
RTVSPost2010Prop40
 90
        0
102
RTVSPost2010PropOp40
 70
     1
102
RTVSPost2010Prop41ColorIndex
 90
       18
102
RTVSPost2010Prop41ColorRGB
 90
        0
102
RTVSPost2010PropOp41
 70
     1
102
RTVSPost2010Prop42
 90
       50
102
RTVSPost2010PropOp42
 70
     1
102
RTVSPost2010Prop43
 90
        3
102
RTVSPost2010PropOp43
 70
     1
102
RTVSPost2010Prop44ColorIndex
 90
        5
102
RTVSPost2010Prop44ColorRGB
 90
      255
102
RTVSPost2010PropOp44
 70
     1
102
RTVSPost2010Prop45
280
     0
102
RTVSPost2010PropOp45
 70
     1
102
RTVSPost2010Prop46
 90
       50
102
RTVSPost2010PropOp46
 70
     1
102
RTVSPost2010Prop47
 90
       50
102
RTVSPost2010PropOp47
 70
     1
102
RTVSPost2010Prop48
 90
       50
102
RTVSPost2010PropOp48
 70
     1
102
RTVSPost2010Prop49
280
     0
102
RTVSPost2010PropOp49
 70
     1
102
RTVSPost2010Prop50
 90
       50
102
RTVSPost2010PropOp50
 70
     1
102
RTVSPost2010Prop51ColorIndex
 90
      256
102
RTVSPost2010Prop51ColorRGB
 90
-16777216
102
RTVSPost2010PropOp51
 70
     0
102
RTVSPost2010Prop52
140
1.0
102
RTVSPost2010PropOp52
 70
     0
102
RTVSPost2010Prop53
 90
        2
102
RTVSPost2010PropOp53
 70
     1
102
RTVSPost2010Prop54
  1
strokes_ogs.tif
102
RTVSPost2010PropOp54
 70
     1
102
RTVSPost2010Prop55
280
     0
102
RTVSPost2010PropOp55
 70
     1
102
RTVSPost2010Prop56
140
1.0
102
RTVSPost2010PropOp56
 70
     1
102
RTVSPost2010Prop57
140
1.0
102
RTVSPost2010PropOp57
 70
     1
102
RTVSPropertyOp0
 70
     1
102
RTVSPropertyOp1
 70
     1
102
RTVSPropertyOp2
 70
     1
102
RTVSPropertyOp3
 70
     1
102
RTVSPropertyOp4
 70
     1
102
RTVSPropertyOp5
 70
     1
102
RTVSPropertyOp6
 70
     1
102
RTVSPropertyOp7
 70
     1
102
RTVSPropertyOp8
 70
     1
102
RTVSPropertyOp9
 70
     1
102
RTVSPropertyOp10
 70
     1
102
RTVSPropertyOp11
 70
     1
102
RTVSPropertyOp12
 70
     1
102
RTVSPropertyOp13
 70
     1
102
RTVSPropertyOp14
 70
     1
102
RTVSPropertyOp15
 70
     1
102
RTVSPropertyOp16
 70
     1
102
RTVSPropertyOp17
 70
     1
102
RTVSPropertyOp18
 70
     1
102
RTVSPropertyOp19
 70
     1
102
RTVSPropertyOp20
 70
     1
102
RTVSPropertyOp21
 70
     1
102
RTVSPropertyOp22
 70
     1
102
RTVSPropertyOp23
 70
     1
102
RTVSPropertyOp24
 70
     1
102
RTVSPropertyOp25
 70
     1
102
RTVSPropertyOp26
 70
     1
102
RTVSPropertyOp27
 70
     1
102
RTVSPropertyOp28
 70
     1
102
RTVSPropertyOp29
 70
     1
102
RTVSPropertyOp30
 70
     1
102
RTVSPropertyOp31
 70
     1
102
RTVSPropertyOp32
 70
     1
102
RTVSPropertyOp33
 70
     1
102
RTVSPropertyOp34
 70
     1
102
RTVSPropertyOp35
 70
     1
102
RTVSPropertyOp36
 70
     1
102
RTVSPropertyOp37
 70
     1
102
RTVSPropertyOp38
 70
     1
102
RTVSPropertyOp39
 70
     1
102
RTVSPropertyOp40
 70
     1
102
RTVSPropertyOp41
 70
     1
102
RTVSPropertyOp42
 70
     1
102
RTVSPropertyOp43
 70
     1
102
RTVSPropertyOp44
 70
     1
102
RTVSPropertyOp45
 70
     1
102
RTVSPropertyOp46
 70
     1
102
RTVSPropertyOp47
 70
     1
102
RTVSPropertyOp48
 70
     1
102
RTVSPropertyOp49
 70
     1
102
RTVSPropertyOp50
 70
     1
102
RTVSPropertyOp51
 70
     0
102
RTVSPropertyOp52
 70
     0
102
RTVSPropertyOp53
 70
     1
102
RTVSPropertyOp54
 70
     1
102
RTVSPropertyOp55
 70
     1
102
RTVSPropertyOp56
 70
     1
102
RTVSPropertyOp57
 70
     1
102
RTVSPropertyOp58
 70
     1
102
RTVSPropertyOp59
 70
     1
102
RTVSPropertyOp60
 70
     1
102
RTVSPropertyOp61
 70
     1
102
RTVSPropertyOp62
 70
     1
  0
XRECORD
  5
16EC
102
{ACAD_REACTORS
330
16EB
102
}
330
16EB
100
AcDbXrecord
280
     1
102
RTVSPost2010Prop28
280
     0
102
RTVSPost2010PropOp28
 70
     1
102
RTVSPost2010Prop29
280
     1
102
RTVSPost2010PropOp29
 70
     1
102
RTVSPost2010Prop30
280
     1
102
RTVSPost2010PropOp30
 70
     1
102
RTVSPost2010Prop31
280
     0
102
RTVSPost2010PropOp31
 70
     1
102
RTVSPost2010Prop32
280
     0
102
RTVSPost2010PropOp32
 70
     1
102
RTVSPost2010Prop33
280
     0
102
RTVSPost2010PropOp33
 70
     1
102
RTVSPost2010Prop34
280
     0
102
RTVSPost2010PropOp34
 70
     1
102
RTVSPost2010Prop35
280
     0
102
RTVSPost2010PropOp35
 70
     1
102
RTVSPost2010Prop36
280
     0
102
RTVSPost2010PropOp36
 70
     1
102
RTVSPost2010Prop37
 90
       50
102
RTVSPost2010PropOp37
 70
     1
102
RTVSPost2010Prop38
140
0.0
102
RTVSPost2010PropOp38
 70
     1
102
RTVSPost2010Prop39
140
1.0
102
RTVSPost2010PropOp39
 70
     1
102
RTVSPost2010Prop40
 90
        0
102
RTVSPost2010PropOp40
 70
     1
102
RTVSPost2010Prop41ColorIndex
 90
       18
102
RTVSPost2010Prop41ColorRGB
 90
        0
102
RTVSPost2010PropOp41
 70
     1
102
RTVSPost2010Prop42
 90
       50
102
RTVSPost2010PropOp42
 70
     1
102
RTVSPost2010Prop43
 90
        3
102
RTVSPost2010PropOp43
 70
     1
102
RTVSPost2010Prop44ColorIndex
 90
        5
102
RTVSPost2010Prop44ColorRGB
 90
      255
102
RTVSPost2010PropOp44
 70
     1
102
RTVSPost2010Prop45
280
     0
102
RTVSPost2010PropOp45
 70
     1
102
RTVSPost2010Prop46
 90
       50
102
RTVSPost2010PropOp46
 70
     1
102
RTVSPost2010Prop47
 90
       50
102
RTVSPost2010PropOp47
 70
     1
102
RTVSPost2010Prop48
 90
       50
102
RTVSPost2010PropOp48
 70
     1
102
RTVSPost2010Prop49
280
     0
102
RTVSPost2010PropOp49
 70
     1
102
RTVSPost2010Prop50
 90
       50
102
RTVSPost2010PropOp50
 70
     1
102
RTVSPost2010Prop51ColorIndex
 90
      256
102
RTVSPost2010Prop51ColorRGB
 90
-16777216
102
RTVSPost2010PropOp51
 70
     0
102
RTVSPost2010Prop52
140
1.0
102
RTVSPost2010PropOp52
 70
     0
102
RTVSPost2010Prop53
 90
        2
102
RTVSPost2010PropOp53
 70
     1
102
RTVSPost2010Prop54
  1
strokes_ogs.tif
102
RTVSPost2010PropOp54
 70
     1
102
RTVSPost2010Prop55
280
     0
102
RTVSPost2010PropOp55
 70
     1
102
RTVSPost2010Prop56
140
1.0
102
RTVSPost2010PropOp56
 70
     1
102
RTVSPost2010Prop57
140
1.0
102
RTVSPost2010PropOp57
 70
     1
102
RTVSPropertyOp0
 70
     1
102
RTVSPropertyOp1
 70
     1
102
RTVSPropertyOp2
 70
     1
102
RTVSPropertyOp3
 70
     1
102
RTVSPropertyOp4
 70
     1
102
RTVSPropertyOp5
 70
     1
102
RTVSPropertyOp6
 70
     1
102
RTVSPropertyOp7
 70
     1
102
RTVSPropertyOp8
 70
     1
102
RTVSPropertyOp9
 70
     1
102
RTVSPropertyOp10
 70
     1
102
RTVSPropertyOp11
 70
     1
102
RTVSPropertyOp12
 70
     1
102
RTVSPropertyOp13
 70
     1
102
RTVSPropertyOp14
 70
     1
102
RTVSPropertyOp15
 70
     1
102
RTVSPropertyOp16
 70
     1
102
RTVSPropertyOp17
 70
     1
102
RTVSPropertyOp18
 70
     1
102
RTVSPropertyOp19
 70
     1
102
RTVSPropertyOp20
 70
     1
102
RTVSPropertyOp21
 70
     1
102
RTVSPropertyOp22
 70
     1
102
RTVSPropertyOp23
 70
     1
102
RTVSPropertyOp24
 70
     1
102
RTVSPropertyOp25
 70
     1
102
RTVSPropertyOp26
 70
     1
102
RTVSPropertyOp27
 70
     1
102
RTVSPropertyOp28
 70
     1
102
RTVSPropertyOp29
 70
     1
102
RTVSPropertyOp30
 70
     1
102
RTVSPropertyOp31
 70
     1
102
RTVSPropertyOp32
 70
     1
102
RTVSPropertyOp33
 70
     1
102
RTVSPropertyOp34
 70
     1
102
RTVSPropertyOp35
 70
     1
102
RTVSPropertyOp36
 70
     1
102
RTVSPropertyOp37
 70
     1
102
RTVSPropertyOp38
 70
     1
102
RTVSPropertyOp39
 70
     1
102
RTVSPropertyOp40
 70
     1
102
RTVSPropertyOp41
 70
     1
102
RTVSPropertyOp42
 70
     1
102
RTVSPropertyOp43
 70
     1
102
RTVSPropertyOp44
 70
     1
102
RTVSPropertyOp45
 70
     1
102
RTVSPropertyOp46
 70
     1
102
RTVSPropertyOp47
 70
     1
102
RTVSPropertyOp48
 70
     1
102
RTVSPropertyOp49
 70
     1
102
RTVSPropertyOp50
 70
     1
102
RTVSPropertyOp51
 70
     0
102
RTVSPropertyOp52
 70
     0
102
RTVSPropertyOp53
 70
     1
102
RTVSPropertyOp54
 70
     1
102
RTVSPropertyOp55
 70
     1
102
RTVSPropertyOp56
 70
     1
102
RTVSPropertyOp57
 70
     1
102
RTVSPropertyOp58
 70
     1
102
RTVSPropertyOp59
 70
     1
102
RTVSPropertyOp60
 70
     1
102
RTVSPropertyOp61
 70
     1
102
RTVSPropertyOp62
 70
     1
  0
XRECORD
  5
16F0
102
{ACAD_REACTORS
330
16EF
102
}
330
16EF
100
AcDbXrecord
280
     1
102
RTVSPost2010Prop28
280
     0
102
RTVSPost2010PropOp28
 70
     1
102
RTVSPost2010Prop29
280
     1
102
RTVSPost2010PropOp29
 70
     1
102
RTVSPost2010Prop30
280
     1
102
RTVSPost2010PropOp30
 70
     1
102
RTVSPost2010Prop31
280
     0
102
RTVSPost2010PropOp31
 70
     1
102
RTVSPost2010Prop32
280
     0
102
RTVSPost2010PropOp32
 70
     1
102
RTVSPost2010Prop33
280
     0
102
RTVSPost2010PropOp33
 70
     1
102
RTVSPost2010Prop34
280
     0
102
RTVSPost2010PropOp34
 70
     1
102
RTVSPost2010Prop35
280
     0
102
RTVSPost2010PropOp35
 70
     1
102
RTVSPost2010Prop36
280
     0
102
RTVSPost2010PropOp36
 70
     1
102
RTVSPost2010Prop37
 90
       50
102
RTVSPost2010PropOp37
 70
     1
102
RTVSPost2010Prop38
140
0.0
102
RTVSPost2010PropOp38
 70
     1
102
RTVSPost2010Prop39
140
1.0
102
RTVSPost2010PropOp39
 70
     1
102
RTVSPost2010Prop40
 90
        0
102
RTVSPost2010PropOp40
 70
     1
102
RTVSPost2010Prop41ColorIndex
 90
       18
102
RTVSPost2010Prop41ColorRGB
 90
        0
102
RTVSPost2010PropOp41
 70
     1
102
RTVSPost2010Prop42
 90
       50
102
RTVSPost2010PropOp42
 70
     1
102
RTVSPost2010Prop43
 90
        3
102
RTVSPost2010PropOp43
 70
     1
102
RTVSPost2010Prop44ColorIndex
 90
        5
102
RTVSPost2010Prop44ColorRGB
 90
      255
102
RTVSPost2010PropOp44
 70
     1
102
RTVSPost2010Prop45
280
     0
102
RTVSPost2010PropOp45
 70
     1
102
RTVSPost2010Prop46
 90
       50
102
RTVSPost2010PropOp46
 70
     1
102
RTVSPost2010Prop47
 90
       50
102
RTVSPost2010PropOp47
 70
     1
102
RTVSPost2010Prop48
 90
       50
102
RTVSPost2010PropOp48
 70
     1
102
RTVSPost2010Prop49
280
     0
102
RTVSPost2010PropOp49
 70
     1
102
RTVSPost2010Prop50
 90
       50
102
RTVSPost2010PropOp50
 70
     1
102
RTVSPost2010Prop51ColorIndex
 90
      256
102
RTVSPost2010Prop51ColorRGB
 90
-16777216
102
RTVSPost2010PropOp51
 70
     0
102
RTVSPost2010Prop52
140
1.0
102
RTVSPost2010PropOp52
 70
     0
102
RTVSPost2010Prop53
 90
        2
102
RTVSPost2010PropOp53
 70
     1
102
RTVSPost2010Prop54
  1
strokes_ogs.tif
102
RTVSPost2010PropOp54
 70
     1
102
RTVSPost2010Prop55
280
     0
102
RTVSPost2010PropOp55
 70
     1
102
RTVSPost2010Prop56
140
1.0
102
RTVSPost2010PropOp56
 70
     1
102
RTVSPost2010Prop57
140
1.0
102
RTVSPost2010PropOp57
 70
     1
102
RTVSPropertyOp0
 70
     1
102
RTVSPropertyOp1
 70
     1
102
RTVSPropertyOp2
 70
     1
102
RTVSPropertyOp3
 70
     1
102
RTVSPropertyOp4
 70
     1
102
RTVSPropertyOp5
 70
     1
102
RTVSPropertyOp6
 70
     1
102
RTVSPropertyOp7
 70
     1
102
RTVSPropertyOp8
 70
     1
102
RTVSPropertyOp9
 70
     1
102
RTVSPropertyOp10
 70
     1
102
RTVSPropertyOp11
 70
     1
102
RTVSPropertyOp12
 70
     1
102
RTVSPropertyOp13
 70
     1
102
RTVSPropertyOp14
 70
     1
102
RTVSPropertyOp15
 70
     1
102
RTVSPropertyOp16
 70
     1
102
RTVSPropertyOp17
 70
     1
102
RTVSPropertyOp18
 70
     1
102
RTVSPropertyOp19
 70
     1
102
RTVSPropertyOp20
 70
     1
102
RTVSPropertyOp21
 70
     1
102
RTVSPropertyOp22
 70
     1
102
RTVSPropertyOp23
 70
     1
102
RTVSPropertyOp24
 70
     1
102
RTVSPropertyOp25
 70
     1
102
RTVSPropertyOp26
 70
     1
102
RTVSPropertyOp27
 70
     1
102
RTVSPropertyOp28
 70
     1
102
RTVSPropertyOp29
 70
     1
102
RTVSPropertyOp30
 70
     1
102
RTVSPropertyOp31
 70
     1
102
RTVSPropertyOp32
 70
     1
102
RTVSPropertyOp33
 70
     1
102
RTVSPropertyOp34
 70
     1
102
RTVSPropertyOp35
 70
     1
102
RTVSPropertyOp36
 70
     1
102
RTVSPropertyOp37
 70
     1
102
RTVSPropertyOp38
 70
     1
102
RTVSPropertyOp39
 70
     1
102
RTVSPropertyOp40
 70
     1
102
RTVSPropertyOp41
 70
     1
102
RTVSPropertyOp42
 70
     1
102
RTVSPropertyOp43
 70
     1
102
RTVSPropertyOp44
 70
     1
102
RTVSPropertyOp45
 70
     1
102
RTVSPropertyOp46
 70
     1
102
RTVSPropertyOp47
 70
     1
102
RTVSPropertyOp48
 70
     1
102
RTVSPropertyOp49
 70
     1
102
RTVSPropertyOp50
 70
     1
102
RTVSPropertyOp51
 70
     0
102
RTVSPropertyOp52
 70
     0
102
RTVSPropertyOp53
 70
     1
102
RTVSPropertyOp54
 70
     1
102
RTVSPropertyOp55
 70
     1
102
RTVSPropertyOp56
 70
     1
102
RTVSPropertyOp57
 70
     1
102
RTVSPropertyOp58
 70
     1
102
RTVSPropertyOp59
 70
     1
102
RTVSPropertyOp60
 70
     1
102
RTVSPropertyOp61
 70
     1
102
RTVSPropertyOp62
 70
     1
  0
XRECORD
  5
170A
102
{ACAD_REACTORS
330
1709
102
}
330
1709
100
AcDbXrecord
280
     1
102
RTVSPost2010Prop28
280
     0
102
RTVSPost2010PropOp28
 70
     0
102
RTVSPost2010Prop29
280
     1
102
RTVSPost2010PropOp29
 70
     0
102
RTVSPost2010Prop30
280
     1
102
RTVSPost2010PropOp30
 70
     0
102
RTVSPost2010Prop31
280
     0
102
RTVSPost2010PropOp31
 70
     0
102
RTVSPost2010Prop32
280
     0
102
RTVSPost2010PropOp32
 70
     0
102
RTVSPost2010Prop33
280
     0
102
RTVSPost2010PropOp33
 70
     0
102
RTVSPost2010Prop34
280
     0
102
RTVSPost2010PropOp34
 70
     0
102
RTVSPost2010Prop35
280
     0
102
RTVSPost2010PropOp35
 70
     0
102
RTVSPost2010Prop36
280
     0
102
RTVSPost2010PropOp36
 70
     0
102
RTVSPost2010Prop37
 90
       50
102
RTVSPost2010PropOp37
 70
     0
102
RTVSPost2010Prop38
140
0.0
102
RTVSPost2010PropOp38
 70
     0
102
RTVSPost2010Prop39
140
1.0
102
RTVSPost2010PropOp39
 70
     0
102
RTVSPost2010Prop40
 90
        0
102
RTVSPost2010PropOp40
 70
     0
102
RTVSPost2010Prop41ColorIndex
 90
       18
102
RTVSPost2010Prop41ColorRGB
 90
        0
102
RTVSPost2010PropOp41
 70
     0
102
RTVSPost2010Prop42
 90
       50
102
RTVSPost2010PropOp42
 70
     0
102
RTVSPost2010Prop43
 90
        3
102
RTVSPost2010PropOp43
 70
     0
102
RTVSPost2010Prop44ColorIndex
 90
        5
102
RTVSPost2010Prop44ColorRGB
 90
      255
102
RTVSPost2010PropOp44
 70
     0
102
RTVSPost2010Prop45
280
     0
102
RTVSPost2010PropOp45
 70
     0
102
RTVSPost2010Prop46
 90
       50
102
RTVSPost2010PropOp46
 70
     0
102
RTVSPost2010Prop47
 90
       50
102
RTVSPost2010PropOp47
 70
     0
102
RTVSPost2010Prop48
 90
       50
102
RTVSPost2010PropOp48
 70
     0
102
RTVSPost2010Prop49
280
     0
102
RTVSPost2010PropOp49
 70
     0
102
RTVSPost2010Prop50
 90
       50
102
RTVSPost2010PropOp50
 70
     0
102
RTVSPost2010Prop51ColorIndex
 90
      256
102
RTVSPost2010Prop51ColorRGB
 90
-16777216
102
RTVSPost2010PropOp51
 70
     0
102
RTVSPost2010Prop52
140
1.0
102
RTVSPost2010PropOp52
 70
     0
102
RTVSPost2010Prop53
 90
        2
102
RTVSPost2010PropOp53
 70
     0
102
RTVSPost2010Prop54
  1
strokes_ogs.tif
102
RTVSPost2010PropOp54
 70
     0
102
RTVSPost2010Prop55
280
     0
102
RTVSPost2010PropOp55
 70
     0
102
RTVSPost2010Prop56
140
1.0
102
RTVSPost2010PropOp56
 70
     0
102
RTVSPost2010Prop57
140
1.0
102
RTVSPost2010PropOp57
 70
     0
102
RTVSPropertyOp0
 70
     0
102
RTVSPropertyOp1
 70
     0
102
RTVSPropertyOp2
 70
     0
102
RTVSPropertyOp3
 70
     0
102
RTVSPropertyOp4
 70
     0
102
RTVSPropertyOp5
 70
     0
102
RTVSPropertyOp6
 70
     0
102
RTVSPropertyOp7
 70
     0
102
RTVSPropertyOp8
 70
     0
102
RTVSPropertyOp9
 70
     0
102
RTVSPropertyOp10
 70
     0
102
RTVSPropertyOp11
 70
     0
102
RTVSPropertyOp12
 70
     0
102
RTVSPropertyOp13
 70
     0
102
RTVSPropertyOp14
 70
     2
102
RTVSPropertyOp15
 70
     0
102
RTVSPropertyOp16
 70
     0
102
RTVSPropertyOp17
 70
     0
102
RTVSPropertyOp18
 70
     0
102
RTVSPropertyOp19
 70
     0
102
RTVSPropertyOp20
 70
     0
102
RTVSPropertyOp21
 70
     0
102
RTVSPropertyOp22
 70
     0
102
RTVSPropertyOp23
 70
     0
102
RTVSPropertyOp24
 70
     0
102
RTVSPropertyOp25
 70
     0
102
RTVSPropertyOp26
 70
     0
102
RTVSPropertyOp27
 70
     0
102
RTVSPropertyOp28
 70
     0
102
RTVSPropertyOp29
 70
     0
102
RTVSPropertyOp30
 70
     0
102
RTVSPropertyOp31
 70
     0
102
RTVSPropertyOp32
 70
     0
102
RTVSPropertyOp33
 70
     0
102
RTVSPropertyOp34
 70
     0
102
RTVSPropertyOp35
 70
     0
102
RTVSPropertyOp36
 70
     0
102
RTVSPropertyOp37
 70
     0
102
RTVSPropertyOp38
 70
     0
102
RTVSPropertyOp39
 70
     0
102
RTVSPropertyOp40
 70
     0
102
RTVSPropertyOp41
 70
     0
102
RTVSPropertyOp42
 70
     0
102
RTVSPropertyOp43
 70
     0
102
RTVSPropertyOp44
 70
     0
102
RTVSPropertyOp45
 70
     0
102
RTVSPropertyOp46
 70
     0
102
RTVSPropertyOp47
 70
     0
102
RTVSPropertyOp48
 70
     0
102
RTVSPropertyOp49
 70
     0
102
RTVSPropertyOp50
 70
     0
102
RTVSPropertyOp51
 70
     0
102
RTVSPropertyOp52
 70
     0
102
RTVSPropertyOp53
 70
     0
102
RTVSPropertyOp54
 70
     0
102
RTVSPropertyOp55
 70
     0
102
RTVSPropertyOp56
 70
     0
102
RTVSPropertyOp57
 70
     0
102
RTVSPropertyOp58
 70
     0
102
RTVSPropertyOp59
 70
     0
102
RTVSPropertyOp60
 70
     0
102
RTVSPropertyOp61
 70
     0
102
RTVSPropertyOp62
 70
     0
  0
XRECORD
  5
16F8
102
{ACAD_REACTORS
330
16F7
102
}
330
16F7
100
AcDbXrecord
280
     1
102
RTVSPost2010Prop28
280
     0
102
RTVSPost2010PropOp28
 70
     1
102
RTVSPost2010Prop29
280
     1
102
RTVSPost2010PropOp29
 70
     1
102
RTVSPost2010Prop30
280
     1
102
RTVSPost2010PropOp30
 70
     1
102
RTVSPost2010Prop31
280
     0
102
RTVSPost2010PropOp31
 70
     1
102
RTVSPost2010Prop32
280
     0
102
RTVSPost2010PropOp32
 70
     1
102
RTVSPost2010Prop33
280
     0
102
RTVSPost2010PropOp33
 70
     1
102
RTVSPost2010Prop34
280
     0
102
RTVSPost2010PropOp34
 70
     1
102
RTVSPost2010Prop35
280
     0
102
RTVSPost2010PropOp35
 70
     1
102
RTVSPost2010Prop36
280
     0
102
RTVSPost2010PropOp36
 70
     1
102
RTVSPost2010Prop37
 90
       50
102
RTVSPost2010PropOp37
 70
     1
102
RTVSPost2010Prop38
140
0.0
102
RTVSPost2010PropOp38
 70
     1
102
RTVSPost2010Prop39
140
1.0
102
RTVSPost2010PropOp39
 70
     1
102
RTVSPost2010Prop40
 90
        0
102
RTVSPost2010PropOp40
 70
     1
102
RTVSPost2010Prop41ColorIndex
 90
       18
102
RTVSPost2010Prop41ColorRGB
 90
        0
102
RTVSPost2010PropOp41
 70
     1
102
RTVSPost2010Prop42
 90
       50
102
RTVSPost2010PropOp42
 70
     1
102
RTVSPost2010Prop43
 90
        3
102
RTVSPost2010PropOp43
 70
     1
102
RTVSPost2010Prop44ColorIndex
 90
        5
102
RTVSPost2010Prop44ColorRGB
 90
      255
102
RTVSPost2010PropOp44
 70
     1
102
RTVSPost2010Prop45
280
     0
102
RTVSPost2010PropOp45
 70
     1
102
RTVSPost2010Prop46
 90
       50
102
RTVSPost2010PropOp46
 70
     1
102
RTVSPost2010Prop47
 90
       50
102
RTVSPost2010PropOp47
 70
     1
102
RTVSPost2010Prop48
 90
       50
102
RTVSPost2010PropOp48
 70
     1
102
RTVSPost2010Prop49
280
     0
102
RTVSPost2010PropOp49
 70
     1
102
RTVSPost2010Prop50
 90
       50
102
RTVSPost2010PropOp50
 70
     1
102
RTVSPost2010Prop51ColorIndex
 90
      256
102
RTVSPost2010Prop51ColorRGB
 90
-16777216
102
RTVSPost2010PropOp51
 70
     0
102
RTVSPost2010Prop52
140
1.0
102
RTVSPost2010PropOp52
 70
     0
102
RTVSPost2010Prop53
 90
        2
102
RTVSPost2010PropOp53
 70
     1
102
RTVSPost2010Prop54
  1
strokes_ogs.tif
102
RTVSPost2010PropOp54
 70
     1
102
RTVSPost2010Prop55
280
     0
102
RTVSPost2010PropOp55
 70
     1
102
RTVSPost2010Prop56
140
1.0
102
RTVSPost2010PropOp56
 70
     1
102
RTVSPost2010Prop57
140
1.0
102
RTVSPost2010PropOp57
 70
     1
102
RTVSPropertyOp0
 70
     1
102
RTVSPropertyOp1
 70
     1
102
RTVSPropertyOp2
 70
     1
102
RTVSPropertyOp3
 70
     1
102
RTVSPropertyOp4
 70
     1
102
RTVSPropertyOp5
 70
     1
102
RTVSPropertyOp6
 70
     1
102
RTVSPropertyOp7
 70
     1
102
RTVSPropertyOp8
 70
     1
102
RTVSPropertyOp9
 70
     1
102
RTVSPropertyOp10
 70
     1
102
RTVSPropertyOp11
 70
     1
102
RTVSPropertyOp12
 70
     1
102
RTVSPropertyOp13
 70
     1
102
RTVSPropertyOp14
 70
     1
102
RTVSPropertyOp15
 70
     1
102
RTVSPropertyOp16
 70
     1
102
RTVSPropertyOp17
 70
     1
102
RTVSPropertyOp18
 70
     1
102
RTVSPropertyOp19
 70
     1
102
RTVSPropertyOp20
 70
     1
102
RTVSPropertyOp21
 70
     1
102
RTVSPropertyOp22
 70
     1
102
RTVSPropertyOp23
 70
     1
102
RTVSPropertyOp24
 70
     1
102
RTVSPropertyOp25
 70
     1
102
RTVSPropertyOp26
 70
     1
102
RTVSPropertyOp27
 70
     1
102
RTVSPropertyOp28
 70
     1
102
RTVSPropertyOp29
 70
     1
102
RTVSPropertyOp30
 70
     1
102
RTVSPropertyOp31
 70
     1
102
RTVSPropertyOp32
 70
     1
102
RTVSPropertyOp33
 70
     1
102
RTVSPropertyOp34
 70
     1
102
RTVSPropertyOp35
 70
     1
102
RTVSPropertyOp36
 70
     1
102
RTVSPropertyOp37
 70
     1
102
RTVSPropertyOp38
 70
     1
102
RTVSPropertyOp39
 70
     1
102
RTVSPropertyOp40
 70
     1
102
RTVSPropertyOp41
 70
     1
102
RTVSPropertyOp42
 70
     1
102
RTVSPropertyOp43
 70
     1
102
RTVSPropertyOp44
 70
     1
102
RTVSPropertyOp45
 70
     1
102
RTVSPropertyOp46
 70
     1
102
RTVSPropertyOp47
 70
     1
102
RTVSPropertyOp48
 70
     1
102
RTVSPropertyOp49
 70
     1
102
RTVSPropertyOp50
 70
     1
102
RTVSPropertyOp51
 70
     0
102
RTVSPropertyOp52
 70
     0
102
RTVSPropertyOp53
 70
     1
102
RTVSPropertyOp54
 70
     1
102
RTVSPropertyOp55
 70
     1
102
RTVSPropertyOp56
 70
     1
102
RTVSPropertyOp57
 70
     1
102
RTVSPropertyOp58
 70
     1
102
RTVSPropertyOp59
 70
     1
102
RTVSPropertyOp60
 70
     1
102
RTVSPropertyOp61
 70
     1
102
RTVSPropertyOp62
 70
     1
  0
XRECORD
  5
16DC
102
{ACAD_REACTORS
330
16DB
102
}
330
16DB
100
AcDbXrecord
280
     1
102
RTVSPost2010Prop28
280
     0
102
RTVSPost2010PropOp28
 70
     1
102
RTVSPost2010Prop29
280
     1
102
RTVSPost2010PropOp29
 70
     1
102
RTVSPost2010Prop30
280
     1
102
RTVSPost2010PropOp30
 70
     1
102
RTVSPost2010Prop31
280
     0
102
RTVSPost2010PropOp31
 70
     1
102
RTVSPost2010Prop32
280
     0
102
RTVSPost2010PropOp32
 70
     1
102
RTVSPost2010Prop33
280
     0
102
RTVSPost2010PropOp33
 70
     1
102
RTVSPost2010Prop34
280
     0
102
RTVSPost2010PropOp34
 70
     1
102
RTVSPost2010Prop35
280
     0
102
RTVSPost2010PropOp35
 70
     1
102
RTVSPost2010Prop36
280
     0
102
RTVSPost2010PropOp36
 70
     1
102
RTVSPost2010Prop37
 90
       50
102
RTVSPost2010PropOp37
 70
     1
102
RTVSPost2010Prop38
140
0.0
102
RTVSPost2010PropOp38
 70
     1
102
RTVSPost2010Prop39
140
1.0
102
RTVSPost2010PropOp39
 70
     1
102
RTVSPost2010Prop40
 90
        0
102
RTVSPost2010PropOp40
 70
     1
102
RTVSPost2010Prop41ColorIndex
 90
       18
102
RTVSPost2010Prop41ColorRGB
 90
        0
102
RTVSPost2010PropOp41
 70
     1
102
RTVSPost2010Prop42
 90
       50
102
RTVSPost2010PropOp42
 70
     1
102
RTVSPost2010Prop43
 90
        3
102
RTVSPost2010PropOp43
 70
     1
102
RTVSPost2010Prop44ColorIndex
 90
        5
102
RTVSPost2010Prop44ColorRGB
 90
      255
102
RTVSPost2010PropOp44
 70
     1
102
RTVSPost2010Prop45
280
     0
102
RTVSPost2010PropOp45
 70
     1
102
RTVSPost2010Prop46
 90
       50
102
RTVSPost2010PropOp46
 70
     1
102
RTVSPost2010Prop47
 90
       50
102
RTVSPost2010PropOp47
 70
     1
102
RTVSPost2010Prop48
 90
       50
102
RTVSPost2010PropOp48
 70
     1
102
RTVSPost2010Prop49
280
     0
102
RTVSPost2010PropOp49
 70
     1
102
RTVSPost2010Prop50
 90
       50
102
RTVSPost2010PropOp50
 70
     1
102
RTVSPost2010Prop51ColorIndex
 90
      256
102
RTVSPost2010Prop51ColorRGB
 90
-16777216
102
RTVSPost2010PropOp51
 70
     0
102
RTVSPost2010Prop52
140
1.0
102
RTVSPost2010PropOp52
 70
     0
102
RTVSPost2010Prop53
 90
        2
102
RTVSPost2010PropOp53
 70
     1
102
RTVSPost2010Prop54
  1
strokes_ogs.tif
102
RTVSPost2010PropOp54
 70
     1
102
RTVSPost2010Prop55
280
     0
102
RTVSPost2010PropOp55
 70
     1
102
RTVSPost2010Prop56
140
1.0
102
RTVSPost2010PropOp56
 70
     1
102
RTVSPost2010Prop57
140
1.0
102
RTVSPost2010PropOp57
 70
     1
102
RTVSPropertyOp0
 70
     1
102
RTVSPropertyOp1
 70
     1
102
RTVSPropertyOp2
 70
     1
102
RTVSPropertyOp3
 70
     1
102
RTVSPropertyOp4
 70
     1
102
RTVSPropertyOp5
 70
     1
102
RTVSPropertyOp6
 70
     1
102
RTVSPropertyOp7
 70
     1
102
RTVSPropertyOp8
 70
     1
102
RTVSPropertyOp9
 70
     1
102
RTVSPropertyOp10
 70
     1
102
RTVSPropertyOp11
 70
     1
102
RTVSPropertyOp12
 70
     1
102
RTVSPropertyOp13
 70
     1
102
RTVSPropertyOp14
 70
     1
102
RTVSPropertyOp15
 70
     1
102
RTVSPropertyOp16
 70
     1
102
RTVSPropertyOp17
 70
     1
102
RTVSPropertyOp18
 70
     1
102
RTVSPropertyOp19
 70
     1
102
RTVSPropertyOp20
 70
     1
102
RTVSPropertyOp21
 70
     1
102
RTVSPropertyOp22
 70
     1
102
RTVSPropertyOp23
 70
     1
102
RTVSPropertyOp24
 70
     1
102
RTVSPropertyOp25
 70
     1
102
RTVSPropertyOp26
 70
     1
102
RTVSPropertyOp27
 70
     1
102
RTVSPropertyOp28
 70
     1
102
RTVSPropertyOp29
 70
     1
102
RTVSPropertyOp30
 70
     1
102
RTVSPropertyOp31
 70
     1
102
RTVSPropertyOp32
 70
     1
102
RTVSPropertyOp33
 70
     1
102
RTVSPropertyOp34
 70
     1
102
RTVSPropertyOp35
 70
     1
102
RTVSPropertyOp36
 70
     1
102
RTVSPropertyOp37
 70
     1
102
RTVSPropertyOp38
 70
     1
102
RTVSPropertyOp39
 70
     1
102
RTVSPropertyOp40
 70
     1
102
RTVSPropertyOp41
 70
     1
102
RTVSPropertyOp42
 70
     1
102
RTVSPropertyOp43
 70
     1
102
RTVSPropertyOp44
 70
     1
102
RTVSPropertyOp45
 70
     1
102
RTVSPropertyOp46
 70
     1
102
RTVSPropertyOp47
 70
     1
102
RTVSPropertyOp48
 70
     1
102
RTVSPropertyOp49
 70
     1
102
RTVSPropertyOp50
 70
     1
102
RTVSPropertyOp51
 70
     0
102
RTVSPropertyOp52
 70
     0
102
RTVSPropertyOp53
 70
     1
102
RTVSPropertyOp54
 70
     1
102
RTVSPropertyOp55
 70
     1
102
RTVSPropertyOp56
 70
     1
102
RTVSPropertyOp57
 70
     1
102
RTVSPropertyOp58
 70
     1
102
RTVSPropertyOp59
 70
     1
102
RTVSPropertyOp60
 70
     1
102
RTVSPropertyOp61
 70
     1
102
RTVSPropertyOp62
 70
     1
  0
XRECORD
  5
16DE
102
{ACAD_REACTORS
330
16DD
102
}
330
16DD
100
AcDbXrecord
280
     1
102
RTVSPost2010Prop28
280
     0
102
RTVSPost2010PropOp28
 70
     1
102
RTVSPost2010Prop29
280
     1
102
RTVSPost2010PropOp29
 70
     1
102
RTVSPost2010Prop30
280
     1
102
RTVSPost2010PropOp30
 70
     1
102
RTVSPost2010Prop31
280
     0
102
RTVSPost2010PropOp31
 70
     1
102
RTVSPost2010Prop32
280
     0
102
RTVSPost2010PropOp32
 70
     1
102
RTVSPost2010Prop33
280
     0
102
RTVSPost2010PropOp33
 70
     1
102
RTVSPost2010Prop34
280
     0
102
RTVSPost2010PropOp34
 70
     1
102
RTVSPost2010Prop35
280
     0
102
RTVSPost2010PropOp35
 70
     1
102
RTVSPost2010Prop36
280
     0
102
RTVSPost2010PropOp36
 70
     1
102
RTVSPost2010Prop37
 90
       50
102
RTVSPost2010PropOp37
 70
     1
102
RTVSPost2010Prop38
140
0.0
102
RTVSPost2010PropOp38
 70
     1
102
RTVSPost2010Prop39
140
1.0
102
RTVSPost2010PropOp39
 70
     1
102
RTVSPost2010Prop40
 90
        0
102
RTVSPost2010PropOp40
 70
     1
102
RTVSPost2010Prop41ColorIndex
 90
       18
102
RTVSPost2010Prop41ColorRGB
 90
        0
102
RTVSPost2010PropOp41
 70
     1
102
RTVSPost2010Prop42
 90
       50
102
RTVSPost2010PropOp42
 70
     1
102
RTVSPost2010Prop43
 90
        3
102
RTVSPost2010PropOp43
 70
     1
102
RTVSPost2010Prop44ColorIndex
 90
        5
102
RTVSPost2010Prop44ColorRGB
 90
      255
102
RTVSPost2010PropOp44
 70
     1
102
RTVSPost2010Prop45
280
     0
102
RTVSPost2010PropOp45
 70
     1
102
RTVSPost2010Prop46
 90
       50
102
RTVSPost2010PropOp46
 70
     1
102
RTVSPost2010Prop47
 90
       50
102
RTVSPost2010PropOp47
 70
     1
102
RTVSPost2010Prop48
 90
       50
102
RTVSPost2010PropOp48
 70
     1
102
RTVSPost2010Prop49
280
     0
102
RTVSPost2010PropOp49
 70
     1
102
RTVSPost2010Prop50
 90
       50
102
RTVSPost2010PropOp50
 70
     1
102
RTVSPost2010Prop51ColorIndex
 90
      256
102
RTVSPost2010Prop51ColorRGB
 90
-16777216
102
RTVSPost2010PropOp51
 70
     0
102
RTVSPost2010Prop52
140
1.0
102
RTVSPost2010PropOp52
 70
     0
102
RTVSPost2010Prop53
 90
        2
102
RTVSPost2010PropOp53
 70
     1
102
RTVSPost2010Prop54
  1
strokes_ogs.tif
102
RTVSPost2010PropOp54
 70
     1
102
RTVSPost2010Prop55
280
     0
102
RTVSPost2010PropOp55
 70
     1
102
RTVSPost2010Prop56
140
1.0
102
RTVSPost2010PropOp56
 70
     1
102
RTVSPost2010Prop57
140
1.0
102
RTVSPost2010PropOp57
 70
     1
102
RTVSPropertyOp0
 70
     1
102
RTVSPropertyOp1
 70
     1
102
RTVSPropertyOp2
 70
     1
102
RTVSPropertyOp3
 70
     1
102
RTVSPropertyOp4
 70
     1
102
RTVSPropertyOp5
 70
     1
102
RTVSPropertyOp6
 70
     1
102
RTVSPropertyOp7
 70
     1
102
RTVSPropertyOp8
 70
     1
102
RTVSPropertyOp9
 70
     1
102
RTVSPropertyOp10
 70
     1
102
RTVSPropertyOp11
 70
     1
102
RTVSPropertyOp12
 70
     1
102
RTVSPropertyOp13
 70
     1
102
RTVSPropertyOp14
 70
     1
102
RTVSPropertyOp15
 70
     1
102
RTVSPropertyOp16
 70
     1
102
RTVSPropertyOp17
 70
     1
102
RTVSPropertyOp18
 70
     1
102
RTVSPropertyOp19
 70
     1
102
RTVSPropertyOp20
 70
     1
102
RTVSPropertyOp21
 70
     1
102
RTVSPropertyOp22
 70
     1
102
RTVSPropertyOp23
 70
     1
102
RTVSPropertyOp24
 70
     1
102
RTVSPropertyOp25
 70
     1
102
RTVSPropertyOp26
 70
     1
102
RTVSPropertyOp27
 70
     1
102
RTVSPropertyOp28
 70
     1
102
RTVSPropertyOp29
 70
     1
102
RTVSPropertyOp30
 70
     1
102
RTVSPropertyOp31
 70
     1
102
RTVSPropertyOp32
 70
     1
102
RTVSPropertyOp33
 70
     1
102
RTVSPropertyOp34
 70
     1
102
RTVSPropertyOp35
 70
     1
102
RTVSPropertyOp36
 70
     1
102
RTVSPropertyOp37
 70
     1
102
RTVSPropertyOp38
 70
     1
102
RTVSPropertyOp39
 70
     1
102
RTVSPropertyOp40
 70
     1
102
RTVSPropertyOp41
 70
     1
102
RTVSPropertyOp42
 70
     1
102
RTVSPropertyOp43
 70
     1
102
RTVSPropertyOp44
 70
     1
102
RTVSPropertyOp45
 70
     1
102
RTVSPropertyOp46
 70
     1
102
RTVSPropertyOp47
 70
     1
102
RTVSPropertyOp48
 70
     1
102
RTVSPropertyOp49
 70
     1
102
RTVSPropertyOp50
 70
     1
102
RTVSPropertyOp51
 70
     0
102
RTVSPropertyOp52
 70
     0
102
RTVSPropertyOp53
 70
     1
102
RTVSPropertyOp54
 70
     1
102
RTVSPropertyOp55
 70
     1
102
RTVSPropertyOp56
 70
     1
102
RTVSPropertyOp57
 70
     1
102
RTVSPropertyOp58
 70
     1
102
RTVSPropertyOp59
 70
     1
102
RTVSPropertyOp60
 70
     1
102
RTVSPropertyOp61
 70
     1
102
RTVSPropertyOp62
 70
     1
  0
XRECORD
  5
16E0
102
{ACAD_REACTORS
330
16DF
102
}
330
16DF
100
AcDbXrecord
280
     1
102
RTVSPost2010Prop28
280
     0
102
RTVSPost2010PropOp28
 70
     1
102
RTVSPost2010Prop29
280
     1
102
RTVSPost2010PropOp29
 70
     1
102
RTVSPost2010Prop30
280
     1
102
RTVSPost2010PropOp30
 70
     1
102
RTVSPost2010Prop31
280
     0
102
RTVSPost2010PropOp31
 70
     1
102
RTVSPost2010Prop32
280
     0
102
RTVSPost2010PropOp32
 70
     1
102
RTVSPost2010Prop33
280
     0
102
RTVSPost2010PropOp33
 70
     1
102
RTVSPost2010Prop34
280
     0
102
RTVSPost2010PropOp34
 70
     1
102
RTVSPost2010Prop35
280
     0
102
RTVSPost2010PropOp35
 70
     1
102
RTVSPost2010Prop36
280
     0
102
RTVSPost2010PropOp36
 70
     1
102
RTVSPost2010Prop37
 90
       50
102
RTVSPost2010PropOp37
 70
     1
102
RTVSPost2010Prop38
140
0.0
102
RTVSPost2010PropOp38
 70
     1
102
RTVSPost2010Prop39
140
1.0
102
RTVSPost2010PropOp39
 70
     1
102
RTVSPost2010Prop40
 90
        0
102
RTVSPost2010PropOp40
 70
     1
102
RTVSPost2010Prop41ColorIndex
 90
       18
102
RTVSPost2010Prop41ColorRGB
 90
        0
102
RTVSPost2010PropOp41
 70
     1
102
RTVSPost2010Prop42
 90
       50
102
RTVSPost2010PropOp42
 70
     1
102
RTVSPost2010Prop43
 90
        3
102
RTVSPost2010PropOp43
 70
     1
102
RTVSPost2010Prop44ColorIndex
 90
        5
102
RTVSPost2010Prop44ColorRGB
 90
      255
102
RTVSPost2010PropOp44
 70
     1
102
RTVSPost2010Prop45
280
     0
102
RTVSPost2010PropOp45
 70
     1
102
RTVSPost2010Prop46
 90
       50
102
RTVSPost2010PropOp46
 70
     1
102
RTVSPost2010Prop47
 90
       50
102
RTVSPost2010PropOp47
 70
     1
102
RTVSPost2010Prop48
 90
       50
102
RTVSPost2010PropOp48
 70
     1
102
RTVSPost2010Prop49
280
     0
102
RTVSPost2010PropOp49
 70
     1
102
RTVSPost2010Prop50
 90
       50
102
RTVSPost2010PropOp50
 70
     1
102
RTVSPost2010Prop51ColorIndex
 90
      256
102
RTVSPost2010Prop51ColorRGB
 90
-16777216
102
RTVSPost2010PropOp51
 70
     0
102
RTVSPost2010Prop52
140
1.0
102
RTVSPost2010PropOp52
 70
     0
102
RTVSPost2010Prop53
 90
        2
102
RTVSPost2010PropOp53
 70
     1
102
RTVSPost2010Prop54
  1
strokes_ogs.tif
102
RTVSPost2010PropOp54
 70
     1
102
RTVSPost2010Prop55
280
     0
102
RTVSPost2010PropOp55
 70
     1
102
RTVSPost2010Prop56
140
1.0
102
RTVSPost2010PropOp56
 70
     1
102
RTVSPost2010Prop57
140
1.0
102
RTVSPost2010PropOp57
 70
     1
102
RTVSPropertyOp0
 70
     1
102
RTVSPropertyOp1
 70
     1
102
RTVSPropertyOp2
 70
     1
102
RTVSPropertyOp3
 70
     1
102
RTVSPropertyOp4
 70
     1
102
RTVSPropertyOp5
 70
     1
102
RTVSPropertyOp6
 70
     1
102
RTVSPropertyOp7
 70
     1
102
RTVSPropertyOp8
 70
     1
102
RTVSPropertyOp9
 70
     1
102
RTVSPropertyOp10
 70
     1
102
RTVSPropertyOp11
 70
     1
102
RTVSPropertyOp12
 70
     1
102
RTVSPropertyOp13
 70
     1
102
RTVSPropertyOp14
 70
     1
102
RTVSPropertyOp15
 70
     1
102
RTVSPropertyOp16
 70
     1
102
RTVSPropertyOp17
 70
     1
102
RTVSPropertyOp18
 70
     1
102
RTVSPropertyOp19
 70
     1
102
RTVSPropertyOp20
 70
     1
102
RTVSPropertyOp21
 70
     1
102
RTVSPropertyOp22
 70
     1
102
RTVSPropertyOp23
 70
     1
102
RTVSPropertyOp24
 70
     1
102
RTVSPropertyOp25
 70
     1
102
RTVSPropertyOp26
 70
     1
102
RTVSPropertyOp27
 70
     1
102
RTVSPropertyOp28
 70
     1
102
RTVSPropertyOp29
 70
     1
102
RTVSPropertyOp30
 70
     1
102
RTVSPropertyOp31
 70
     1
102
RTVSPropertyOp32
 70
     1
102
RTVSPropertyOp33
 70
     1
102
RTVSPropertyOp34
 70
     1
102
RTVSPropertyOp35
 70
     1
102
RTVSPropertyOp36
 70
     1
102
RTVSPropertyOp37
 70
     1
102
RTVSPropertyOp38
 70
     1
102
RTVSPropertyOp39
 70
     1
102
RTVSPropertyOp40
 70
     1
102
RTVSPropertyOp41
 70
     1
102
RTVSPropertyOp42
 70
     1
102
RTVSPropertyOp43
 70
     1
102
RTVSPropertyOp44
 70
     1
102
RTVSPropertyOp45
 70
     1
102
RTVSPropertyOp46
 70
     1
102
RTVSPropertyOp47
 70
     1
102
RTVSPropertyOp48
 70
     1
102
RTVSPropertyOp49
 70
     1
102
RTVSPropertyOp50
 70
     1
102
RTVSPropertyOp51
 70
     0
102
RTVSPropertyOp52
 70
     0
102
RTVSPropertyOp53
 70
     1
102
RTVSPropertyOp54
 70
     1
102
RTVSPropertyOp55
 70
     1
102
RTVSPropertyOp56
 70
     1
102
RTVSPropertyOp57
 70
     1
102
RTVSPropertyOp58
 70
     1
102
RTVSPropertyOp59
 70
     1
102
RTVSPropertyOp60
 70
     1
102
RTVSPropertyOp61
 70
     1
102
RTVSPropertyOp62
 70
     1
  0
XRECORD
  5
16E2
102
{ACAD_REACTORS
330
16E1
102
}
330
16E1
100
AcDbXrecord
280
     1
102
RTVSPost2010Prop28
280
     0
102
RTVSPost2010PropOp28
 70
     1
102
RTVSPost2010Prop29
280
     1
102
RTVSPost2010PropOp29
 70
     1
102
RTVSPost2010Prop30
280
     1
102
RTVSPost2010PropOp30
 70
     1
102
RTVSPost2010Prop31
280
     0
102
RTVSPost2010PropOp31
 70
     1
102
RTVSPost2010Prop32
280
     0
102
RTVSPost2010PropOp32
 70
     1
102
RTVSPost2010Prop33
280
     0
102
RTVSPost2010PropOp33
 70
     1
102
RTVSPost2010Prop34
280
     0
102
RTVSPost2010PropOp34
 70
     1
102
RTVSPost2010Prop35
280
     0
102
RTVSPost2010PropOp35
 70
     1
102
RTVSPost2010Prop36
280
     0
102
RTVSPost2010PropOp36
 70
     1
102
RTVSPost2010Prop37
 90
       50
102
RTVSPost2010PropOp37
 70
     1
102
RTVSPost2010Prop38
140
0.0
102
RTVSPost2010PropOp38
 70
     1
102
RTVSPost2010Prop39
140
1.0
102
RTVSPost2010PropOp39
 70
     1
102
RTVSPost2010Prop40
 90
        0
102
RTVSPost2010PropOp40
 70
     1
102
RTVSPost2010Prop41ColorIndex
 90
       18
102
RTVSPost2010Prop41ColorRGB
 90
        0
102
RTVSPost2010PropOp41
 70
     1
102
RTVSPost2010Prop42
 90
       50
102
RTVSPost2010PropOp42
 70
     1
102
RTVSPost2010Prop43
 90
        3
102
RTVSPost2010PropOp43
 70
     1
102
RTVSPost2010Prop44ColorIndex
 90
        5
102
RTVSPost2010Prop44ColorRGB
 90
      255
102
RTVSPost2010PropOp44
 70
     1
102
RTVSPost2010Prop45
280
     0
102
RTVSPost2010PropOp45
 70
     1
102
RTVSPost2010Prop46
 90
       50
102
RTVSPost2010PropOp46
 70
     1
102
RTVSPost2010Prop47
 90
       50
102
RTVSPost2010PropOp47
 70
     1
102
RTVSPost2010Prop48
 90
       50
102
RTVSPost2010PropOp48
 70
     1
102
RTVSPost2010Prop49
280
     0
102
RTVSPost2010PropOp49
 70
     1
102
RTVSPost2010Prop50
 90
       50
102
RTVSPost2010PropOp50
 70
     1
102
RTVSPost2010Prop51ColorIndex
 90
      256
102
RTVSPost2010Prop51ColorRGB
 90
-16777216
102
RTVSPost2010PropOp51
 70
     0
102
RTVSPost2010Prop52
140
1.0
102
RTVSPost2010PropOp52
 70
     0
102
RTVSPost2010Prop53
 90
        2
102
RTVSPost2010PropOp53
 70
     1
102
RTVSPost2010Prop54
  1
strokes_ogs.tif
102
RTVSPost2010PropOp54
 70
     1
102
RTVSPost2010Prop55
280
     0
102
RTVSPost2010PropOp55
 70
     1
102
RTVSPost2010Prop56
140
1.0
102
RTVSPost2010PropOp56
 70
     1
102
RTVSPost2010Prop57
140
1.0
102
RTVSPost2010PropOp57
 70
     1
102
RTVSPropertyOp0
 70
     1
102
RTVSPropertyOp1
 70
     1
102
RTVSPropertyOp2
 70
     1
102
RTVSPropertyOp3
 70
     1
102
RTVSPropertyOp4
 70
     1
102
RTVSPropertyOp5
 70
     1
102
RTVSPropertyOp6
 70
     1
102
RTVSPropertyOp7
 70
     1
102
RTVSPropertyOp8
 70
     1
102
RTVSPropertyOp9
 70
     1
102
RTVSPropertyOp10
 70
     1
102
RTVSPropertyOp11
 70
     1
102
RTVSPropertyOp12
 70
     1
102
RTVSPropertyOp13
 70
     1
102
RTVSPropertyOp14
 70
     1
102
RTVSPropertyOp15
 70
     1
102
RTVSPropertyOp16
 70
     1
102
RTVSPropertyOp17
 70
     1
102
RTVSPropertyOp18
 70
     1
102
RTVSPropertyOp19
 70
     1
102
RTVSPropertyOp20
 70
     1
102
RTVSPropertyOp21
 70
     1
102
RTVSPropertyOp22
 70
     1
102
RTVSPropertyOp23
 70
     1
102
RTVSPropertyOp24
 70
     1
102
RTVSPropertyOp25
 70
     1
102
RTVSPropertyOp26
 70
     1
102
RTVSPropertyOp27
 70
     1
102
RTVSPropertyOp28
 70
     1
102
RTVSPropertyOp29
 70
     1
102
RTVSPropertyOp30
 70
     1
102
RTVSPropertyOp31
 70
     1
102
RTVSPropertyOp32
 70
     1
102
RTVSPropertyOp33
 70
     1
102
RTVSPropertyOp34
 70
     1
102
RTVSPropertyOp35
 70
     1
102
RTVSPropertyOp36
 70
     1
102
RTVSPropertyOp37
 70
     1
102
RTVSPropertyOp38
 70
     1
102
RTVSPropertyOp39
 70
     1
102
RTVSPropertyOp40
 70
     1
102
RTVSPropertyOp41
 70
     1
102
RTVSPropertyOp42
 70
     1
102
RTVSPropertyOp43
 70
     1
102
RTVSPropertyOp44
 70
     1
102
RTVSPropertyOp45
 70
     1
102
RTVSPropertyOp46
 70
     1
102
RTVSPropertyOp47
 70
     1
102
RTVSPropertyOp48
 70
     1
102
RTVSPropertyOp49
 70
     1
102
RTVSPropertyOp50
 70
     1
102
RTVSPropertyOp51
 70
     0
102
RTVSPropertyOp52
 70
     0
102
RTVSPropertyOp53
 70
     1
102
RTVSPropertyOp54
 70
     1
102
RTVSPropertyOp55
 70
     1
102
RTVSPropertyOp56
 70
     1
102
RTVSPropertyOp57
 70
     1
102
RTVSPropertyOp58
 70
     1
102
RTVSPropertyOp59
 70
     1
102
RTVSPropertyOp60
 70
     1
102
RTVSPropertyOp61
 70
     1
102
RTVSPropertyOp62
 70
     1
  0
XRECORD
  5
16EA
102
{ACAD_REACTORS
330
16E9
102
}
330
16E9
100
AcDbXrecord
280
     1
102
RTVSPost2010Prop28
280
     0
102
RTVSPost2010PropOp28
 70
     1
102
RTVSPost2010Prop29
280
     1
102
RTVSPost2010PropOp29
 70
     1
102
RTVSPost2010Prop30
280
     1
102
RTVSPost2010PropOp30
 70
     1
102
RTVSPost2010Prop31
280
     0
102
RTVSPost2010PropOp31
 70
     1
102
RTVSPost2010Prop32
280
     0
102
RTVSPost2010PropOp32
 70
     1
102
RTVSPost2010Prop33
280
     0
102
RTVSPost2010PropOp33
 70
     1
102
RTVSPost2010Prop34
280
     0
102
RTVSPost2010PropOp34
 70
     1
102
RTVSPost2010Prop35
280
     0
102
RTVSPost2010PropOp35
 70
     1
102
RTVSPost2010Prop36
280
     0
102
RTVSPost2010PropOp36
 70
     1
102
RTVSPost2010Prop37
 90
       50
102
RTVSPost2010PropOp37
 70
     1
102
RTVSPost2010Prop38
140
0.0
102
RTVSPost2010PropOp38
 70
     1
102
RTVSPost2010Prop39
140
1.0
102
RTVSPost2010PropOp39
 70
     1
102
RTVSPost2010Prop40
 90
        0
102
RTVSPost2010PropOp40
 70
     1
102
RTVSPost2010Prop41ColorIndex
 90
       18
102
RTVSPost2010Prop41ColorRGB
 90
        0
102
RTVSPost2010PropOp41
 70
     1
102
RTVSPost2010Prop42
 90
       50
102
RTVSPost2010PropOp42
 70
     1
102
RTVSPost2010Prop43
 90
        3
102
RTVSPost2010PropOp43
 70
     1
102
RTVSPost2010Prop44ColorIndex
 90
        5
102
RTVSPost2010Prop44ColorRGB
 90
      255
102
RTVSPost2010PropOp44
 70
     1
102
RTVSPost2010Prop45
280
     0
102
RTVSPost2010PropOp45
 70
     1
102
RTVSPost2010Prop46
 90
       50
102
RTVSPost2010PropOp46
 70
     1
102
RTVSPost2010Prop47
 90
       50
102
RTVSPost2010PropOp47
 70
     1
102
RTVSPost2010Prop48
 90
       50
102
RTVSPost2010PropOp48
 70
     1
102
RTVSPost2010Prop49
280
     0
102
RTVSPost2010PropOp49
 70
     1
102
RTVSPost2010Prop50
 90
       50
102
RTVSPost2010PropOp50
 70
     1
102
RTVSPost2010Prop51ColorIndex
 90
      256
102
RTVSPost2010Prop51ColorRGB
 90
-16777216
102
RTVSPost2010PropOp51
 70
     0
102
RTVSPost2010Prop52
140
1.0
102
RTVSPost2010PropOp52
 70
     0
102
RTVSPost2010Prop53
 90
        2
102
RTVSPost2010PropOp53
 70
     1
102
RTVSPost2010Prop54
  1
strokes_ogs.tif
102
RTVSPost2010PropOp54
 70
     1
102
RTVSPost2010Prop55
280
     0
102
RTVSPost2010PropOp55
 70
     1
102
RTVSPost2010Prop56
140
1.0
102
RTVSPost2010PropOp56
 70
     1
102
RTVSPost2010Prop57
140
1.0
102
RTVSPost2010PropOp57
 70
     1
102
RTVSPropertyOp0
 70
     1
102
RTVSPropertyOp1
 70
     1
102
RTVSPropertyOp2
 70
     1
102
RTVSPropertyOp3
 70
     1
102
RTVSPropertyOp4
 70
     1
102
RTVSPropertyOp5
 70
     1
102
RTVSPropertyOp6
 70
     1
102
RTVSPropertyOp7
 70
     1
102
RTVSPropertyOp8
 70
     1
102
RTVSPropertyOp9
 70
     1
102
RTVSPropertyOp10
 70
     1
102
RTVSPropertyOp11
 70
     1
102
RTVSPropertyOp12
 70
     1
102
RTVSPropertyOp13
 70
     1
102
RTVSPropertyOp14
 70
     1
102
RTVSPropertyOp15
 70
     1
102
RTVSPropertyOp16
 70
     1
102
RTVSPropertyOp17
 70
     1
102
RTVSPropertyOp18
 70
     1
102
RTVSPropertyOp19
 70
     1
102
RTVSPropertyOp20
 70
     1
102
RTVSPropertyOp21
 70
     1
102
RTVSPropertyOp22
 70
     1
102
RTVSPropertyOp23
 70
     1
102
RTVSPropertyOp24
 70
     1
102
RTVSPropertyOp25
 70
     1
102
RTVSPropertyOp26
 70
     1
102
RTVSPropertyOp27
 70
     1
102
RTVSPropertyOp28
 70
     1
102
RTVSPropertyOp29
 70
     1
102
RTVSPropertyOp30
 70
     1
102
RTVSPropertyOp31
 70
     1
102
RTVSPropertyOp32
 70
     1
102
RTVSPropertyOp33
 70
     1
102
RTVSPropertyOp34
 70
     1
102
RTVSPropertyOp35
 70
     1
102
RTVSPropertyOp36
 70
     1
102
RTVSPropertyOp37
 70
     1
102
RTVSPropertyOp38
 70
     1
102
RTVSPropertyOp39
 70
     1
102
RTVSPropertyOp40
 70
     1
102
RTVSPropertyOp41
 70
     1
102
RTVSPropertyOp42
 70
     1
102
RTVSPropertyOp43
 70
     1
102
RTVSPropertyOp44
 70
     1
102
RTVSPropertyOp45
 70
     1
102
RTVSPropertyOp46
 70
     1
102
RTVSPropertyOp47
 70
     1
102
RTVSPropertyOp48
 70
     1
102
RTVSPropertyOp49
 70
     1
102
RTVSPropertyOp50
 70
     1
102
RTVSPropertyOp51
 70
     0
102
RTVSPropertyOp52
 70
     0
102
RTVSPropertyOp53
 70
     1
102
RTVSPropertyOp54
 70
     1
102
RTVSPropertyOp55
 70
     1
102
RTVSPropertyOp56
 70
     1
102
RTVSPropertyOp57
 70
     1
102
RTVSPropertyOp58
 70
     1
102
RTVSPropertyOp59
 70
     1
102
RTVSPropertyOp60
 70
     1
102
RTVSPropertyOp61
 70
     1
102
RTVSPropertyOp62
 70
     1
  0
XRECORD
  5
1706
102
{ACAD_REACTORS
330
1705
102
}
330
1705
100
AcDbXrecord
280
     1
102
RTVSPost2010Prop28
280
     0
102
RTVSPost2010PropOp28
 70
     0
102
RTVSPost2010Prop29
280
     1
102
RTVSPost2010PropOp29
 70
     0
102
RTVSPost2010Prop30
280
     1
102
RTVSPost2010PropOp30
 70
     0
102
RTVSPost2010Prop31
280
     0
102
RTVSPost2010PropOp31
 70
     0
102
RTVSPost2010Prop32
280
     0
102
RTVSPost2010PropOp32
 70
     0
102
RTVSPost2010Prop33
280
     0
102
RTVSPost2010PropOp33
 70
     0
102
RTVSPost2010Prop34
280
     0
102
RTVSPost2010PropOp34
 70
     0
102
RTVSPost2010Prop35
280
     0
102
RTVSPost2010PropOp35
 70
     0
102
RTVSPost2010Prop36
280
     0
102
RTVSPost2010PropOp36
 70
     0
102
RTVSPost2010Prop37
 90
       50
102
RTVSPost2010PropOp37
 70
     0
102
RTVSPost2010Prop38
140
0.0
102
RTVSPost2010PropOp38
 70
     0
102
RTVSPost2010Prop39
140
1.0
102
RTVSPost2010PropOp39
 70
     0
102
RTVSPost2010Prop40
 90
        0
102
RTVSPost2010PropOp40
 70
     0
102
RTVSPost2010Prop41ColorIndex
 90
       18
102
RTVSPost2010Prop41ColorRGB
 90
        0
102
RTVSPost2010PropOp41
 70
     0
102
RTVSPost2010Prop42
 90
       50
102
RTVSPost2010PropOp42
 70
     0
102
RTVSPost2010Prop43
 90
        3
102
RTVSPost2010PropOp43
 70
     0
102
RTVSPost2010Prop44ColorIndex
 90
        5
102
RTVSPost2010Prop44ColorRGB
 90
      255
102
RTVSPost2010PropOp44
 70
     0
102
RTVSPost2010Prop45
280
     0
102
RTVSPost2010PropOp45
 70
     0
102
RTVSPost2010Prop46
 90
       50
102
RTVSPost2010PropOp46
 70
     0
102
RTVSPost2010Prop47
 90
       50
102
RTVSPost2010PropOp47
 70
     0
102
RTVSPost2010Prop48
 90
       50
102
RTVSPost2010PropOp48
 70
     0
102
RTVSPost2010Prop49
280
     0
102
RTVSPost2010PropOp49
 70
     0
102
RTVSPost2010Prop50
 90
       50
102
RTVSPost2010PropOp50
 70
     0
102
RTVSPost2010Prop51ColorIndex
 90
      256
102
RTVSPost2010Prop51ColorRGB
 90
-16777216
102
RTVSPost2010PropOp51
 70
     0
102
RTVSPost2010Prop52
140
1.0
102
RTVSPost2010PropOp52
 70
     0
102
RTVSPost2010Prop53
 90
        2
102
RTVSPost2010PropOp53
 70
     0
102
RTVSPost2010Prop54
  1
strokes_ogs.tif
102
RTVSPost2010PropOp54
 70
     0
102
RTVSPost2010Prop55
280
     0
102
RTVSPost2010PropOp55
 70
     0
102
RTVSPost2010Prop56
140
1.0
102
RTVSPost2010PropOp56
 70
     0
102
RTVSPost2010Prop57
140
1.0
102
RTVSPost2010PropOp57
 70
     0
102
RTVSPropertyOp0
 70
     0
102
RTVSPropertyOp1
 70
     0
102
RTVSPropertyOp2
 70
     0
102
RTVSPropertyOp3
 70
     0
102
RTVSPropertyOp4
 70
     0
102
RTVSPropertyOp5
 70
     0
102
RTVSPropertyOp6
 70
     0
102
RTVSPropertyOp7
 70
     0
102
RTVSPropertyOp8
 70
     0
102
RTVSPropertyOp9
 70
     0
102
RTVSPropertyOp10
 70
     0
102
RTVSPropertyOp11
 70
     0
102
RTVSPropertyOp12
 70
     0
102
RTVSPropertyOp13
 70
     0
102
RTVSPropertyOp14
 70
     2
102
RTVSPropertyOp15
 70
     0
102
RTVSPropertyOp16
 70
     0
102
RTVSPropertyOp17
 70
     0
102
RTVSPropertyOp18
 70
     0
102
RTVSPropertyOp19
 70
     0
102
RTVSPropertyOp20
 70
     0
102
RTVSPropertyOp21
 70
     0
102
RTVSPropertyOp22
 70
     0
102
RTVSPropertyOp23
 70
     0
102
RTVSPropertyOp24
 70
     0
102
RTVSPropertyOp25
 70
     0
102
RTVSPropertyOp26
 70
     0
102
RTVSPropertyOp27
 70
     0
102
RTVSPropertyOp28
 70
     0
102
RTVSPropertyOp29
 70
     0
102
RTVSPropertyOp30
 70
     0
102
RTVSPropertyOp31
 70
     0
102
RTVSPropertyOp32
 70
     0
102
RTVSPropertyOp33
 70
     0
102
RTVSPropertyOp34
 70
     0
102
RTVSPropertyOp35
 70
     0
102
RTVSPropertyOp36
 70
     0
102
RTVSPropertyOp37
 70
     0
102
RTVSPropertyOp38
 70
     0
102
RTVSPropertyOp39
 70
     0
102
RTVSPropertyOp40
 70
     0
102
RTVSPropertyOp41
 70
     0
102
RTVSPropertyOp42
 70
     0
102
RTVSPropertyOp43
 70
     0
102
RTVSPropertyOp44
 70
     0
102
RTVSPropertyOp45
 70
     0
102
RTVSPropertyOp46
 70
     0
102
RTVSPropertyOp47
 70
     0
102
RTVSPropertyOp48
 70
     0
102
RTVSPropertyOp49
 70
     0
102
RTVSPropertyOp50
 70
     0
102
RTVSPropertyOp51
 70
     0
102
RTVSPropertyOp52
 70
     0
102
RTVSPropertyOp53
 70
     0
102
RTVSPropertyOp54
 70
     0
102
RTVSPropertyOp55
 70
     0
102
RTVSPropertyOp56
 70
     0
102
RTVSPropertyOp57
 70
     0
102
RTVSPropertyOp58
 70
     0
102
RTVSPropertyOp59
 70
     0
102
RTVSPropertyOp60
 70
     0
102
RTVSPropertyOp61
 70
     0
102
RTVSPropertyOp62
 70
     0
  0
XRECORD
  5
16F6
102
{ACAD_REACTORS
330
16F5
102
}
330
16F5
100
AcDbXrecord
280
     1
102
RTVSPost2010Prop28
280
     0
102
RTVSPost2010PropOp28
 70
     1
102
RTVSPost2010Prop29
280
     1
102
RTVSPost2010PropOp29
 70
     1
102
RTVSPost2010Prop30
280
     1
102
RTVSPost2010PropOp30
 70
     1
102
RTVSPost2010Prop31
280
     0
102
RTVSPost2010PropOp31
 70
     1
102
RTVSPost2010Prop32
280
     0
102
RTVSPost2010PropOp32
 70
     1
102
RTVSPost2010Prop33
280
     0
102
RTVSPost2010PropOp33
 70
     1
102
RTVSPost2010Prop34
280
     0
102
RTVSPost2010PropOp34
 70
     1
102
RTVSPost2010Prop35
280
     0
102
RTVSPost2010PropOp35
 70
     1
102
RTVSPost2010Prop36
280
     0
102
RTVSPost2010PropOp36
 70
     1
102
RTVSPost2010Prop37
 90
       50
102
RTVSPost2010PropOp37
 70
     1
102
RTVSPost2010Prop38
140
0.0
102
RTVSPost2010PropOp38
 70
     1
102
RTVSPost2010Prop39
140
1.0
102
RTVSPost2010PropOp39
 70
     1
102
RTVSPost2010Prop40
 90
        0
102
RTVSPost2010PropOp40
 70
     1
102
RTVSPost2010Prop41ColorIndex
 90
       18
102
RTVSPost2010Prop41ColorRGB
 90
        0
102
RTVSPost2010PropOp41
 70
     1
102
RTVSPost2010Prop42
 90
       50
102
RTVSPost2010PropOp42
 70
     1
102
RTVSPost2010Prop43
 90
        3
102
RTVSPost2010PropOp43
 70
     1
102
RTVSPost2010Prop44ColorIndex
 90
        5
102
RTVSPost2010Prop44ColorRGB
 90
      255
102
RTVSPost2010PropOp44
 70
     1
102
RTVSPost2010Prop45
280
     0
102
RTVSPost2010PropOp45
 70
     1
102
RTVSPost2010Prop46
 90
       50
102
RTVSPost2010PropOp46
 70
     1
102
RTVSPost2010Prop47
 90
       50
102
RTVSPost2010PropOp47
 70
     1
102
RTVSPost2010Prop48
 90
       50
102
RTVSPost2010PropOp48
 70
     1
102
RTVSPost2010Prop49
280
     0
102
RTVSPost2010PropOp49
 70
     1
102
RTVSPost2010Prop50
 90
       50
102
RTVSPost2010PropOp50
 70
     1
102
RTVSPost2010Prop51ColorIndex
 90
      256
102
RTVSPost2010Prop51ColorRGB
 90
-16777216
102
RTVSPost2010PropOp51
 70
     0
102
RTVSPost2010Prop52
140
1.0
102
RTVSPost2010PropOp52
 70
     0
102
RTVSPost2010Prop53
 90
        2
102
RTVSPost2010PropOp53
 70
     1
102
RTVSPost2010Prop54
  1
strokes_ogs.tif
102
RTVSPost2010PropOp54
 70
     1
102
RTVSPost2010Prop55
280
     0
102
RTVSPost2010PropOp55
 70
     1
102
RTVSPost2010Prop56
140
1.0
102
RTVSPost2010PropOp56
 70
     1
102
RTVSPost2010Prop57
140
1.0
102
RTVSPost2010PropOp57
 70
     1
102
RTVSPropertyOp0
 70
     1
102
RTVSPropertyOp1
 70
     1
102
RTVSPropertyOp2
 70
     1
102
RTVSPropertyOp3
 70
     1
102
RTVSPropertyOp4
 70
     1
102
RTVSPropertyOp5
 70
     1
102
RTVSPropertyOp6
 70
     1
102
RTVSPropertyOp7
 70
     1
102
RTVSPropertyOp8
 70
     1
102
RTVSPropertyOp9
 70
     1
102
RTVSPropertyOp10
 70
     1
102
RTVSPropertyOp11
 70
     1
102
RTVSPropertyOp12
 70
     1
102
RTVSPropertyOp13
 70
     1
102
RTVSPropertyOp14
 70
     1
102
RTVSPropertyOp15
 70
     1
102
RTVSPropertyOp16
 70
     1
102
RTVSPropertyOp17
 70
     1
102
RTVSPropertyOp18
 70
     1
102
RTVSPropertyOp19
 70
     1
102
RTVSPropertyOp20
 70
     1
102
RTVSPropertyOp21
 70
     1
102
RTVSPropertyOp22
 70
     1
102
RTVSPropertyOp23
 70
     1
102
RTVSPropertyOp24
 70
     1
102
RTVSPropertyOp25
 70
     1
102
RTVSPropertyOp26
 70
     1
102
RTVSPropertyOp27
 70
     1
102
RTVSPropertyOp28
 70
     1
102
RTVSPropertyOp29
 70
     1
102
RTVSPropertyOp30
 70
     1
102
RTVSPropertyOp31
 70
     1
102
RTVSPropertyOp32
 70
     1
102
RTVSPropertyOp33
 70
     1
102
RTVSPropertyOp34
 70
     1
102
RTVSPropertyOp35
 70
     1
102
RTVSPropertyOp36
 70
     1
102
RTVSPropertyOp37
 70
     1
102
RTVSPropertyOp38
 70
     1
102
RTVSPropertyOp39
 70
     1
102
RTVSPropertyOp40
 70
     1
102
RTVSPropertyOp41
 70
     1
102
RTVSPropertyOp42
 70
     1
102
RTVSPropertyOp43
 70
     1
102
RTVSPropertyOp44
 70
     1
102
RTVSPropertyOp45
 70
     1
102
RTVSPropertyOp46
 70
     1
102
RTVSPropertyOp47
 70
     1
102
RTVSPropertyOp48
 70
     1
102
RTVSPropertyOp49
 70
     1
102
RTVSPropertyOp50
 70
     1
102
RTVSPropertyOp51
 70
     0
102
RTVSPropertyOp52
 70
     0
102
RTVSPropertyOp53
 70
     1
102
RTVSPropertyOp54
 70
     1
102
RTVSPropertyOp55
 70
     1
102
RTVSPropertyOp56
 70
     1
102
RTVSPropertyOp57
 70
     1
102
RTVSPropertyOp58
 70
     1
102
RTVSPropertyOp59
 70
     1
102
RTVSPropertyOp60
 70
     1
102
RTVSPropertyOp61
 70
     1
102
RTVSPropertyOp62
 70
     1
  0
XRECORD
  5
1708
102
{ACAD_REACTORS
330
1707
102
}
330
1707
100
AcDbXrecord
280
     1
102
RTVSPost2010Prop28
280
     0
102
RTVSPost2010PropOp28
 70
     0
102
RTVSPost2010Prop29
280
     1
102
RTVSPost2010PropOp29
 70
     0
102
RTVSPost2010Prop30
280
     1
102
RTVSPost2010PropOp30
 70
     0
102
RTVSPost2010Prop31
280
     0
102
RTVSPost2010PropOp31
 70
     0
102
RTVSPost2010Prop32
280
     0
102
RTVSPost2010PropOp32
 70
     0
102
RTVSPost2010Prop33
280
     0
102
RTVSPost2010PropOp33
 70
     0
102
RTVSPost2010Prop34
280
     0
102
RTVSPost2010PropOp34
 70
     0
102
RTVSPost2010Prop35
280
     0
102
RTVSPost2010PropOp35
 70
     0
102
RTVSPost2010Prop36
280
     0
102
RTVSPost2010PropOp36
 70
     0
102
RTVSPost2010Prop37
 90
       50
102
RTVSPost2010PropOp37
 70
     0
102
RTVSPost2010Prop38
140
0.0
102
RTVSPost2010PropOp38
 70
     0
102
RTVSPost2010Prop39
140
1.0
102
RTVSPost2010PropOp39
 70
     0
102
RTVSPost2010Prop40
 90
        0
102
RTVSPost2010PropOp40
 70
     0
102
RTVSPost2010Prop41ColorIndex
 90
       18
102
RTVSPost2010Prop41ColorRGB
 90
        0
102
RTVSPost2010PropOp41
 70
     0
102
RTVSPost2010Prop42
 90
       50
102
RTVSPost2010PropOp42
 70
     0
102
RTVSPost2010Prop43
 90
        3
102
RTVSPost2010PropOp43
 70
     0
102
RTVSPost2010Prop44ColorIndex
 90
        5
102
RTVSPost2010Prop44ColorRGB
 90
      255
102
RTVSPost2010PropOp44
 70
     0
102
RTVSPost2010Prop45
280
     0
102
RTVSPost2010PropOp45
 70
     0
102
RTVSPost2010Prop46
 90
       50
102
RTVSPost2010PropOp46
 70
     0
102
RTVSPost2010Prop47
 90
       50
102
RTVSPost2010PropOp47
 70
     0
102
RTVSPost2010Prop48
 90
       50
102
RTVSPost2010PropOp48
 70
     0
102
RTVSPost2010Prop49
280
     0
102
RTVSPost2010PropOp49
 70
     0
102
RTVSPost2010Prop50
 90
       50
102
RTVSPost2010PropOp50
 70
     0
102
RTVSPost2010Prop51ColorIndex
 90
      256
102
RTVSPost2010Prop51ColorRGB
 90
-16777216
102
RTVSPost2010PropOp51
 70
     0
102
RTVSPost2010Prop52
140
1.0
102
RTVSPost2010PropOp52
 70
     0
102
RTVSPost2010Prop53
 90
        2
102
RTVSPost2010PropOp53
 70
     0
102
RTVSPost2010Prop54
  1
strokes_ogs.tif
102
RTVSPost2010PropOp54
 70
     0
102
RTVSPost2010Prop55
280
     0
102
RTVSPost2010PropOp55
 70
     0
102
RTVSPost2010Prop56
140
1.0
102
RTVSPost2010PropOp56
 70
     0
102
RTVSPost2010Prop57
140
1.0
102
RTVSPost2010PropOp57
 70
     0
102
RTVSPropertyOp0
 70
     0
102
RTVSPropertyOp1
 70
     0
102
RTVSPropertyOp2
 70
     0
102
RTVSPropertyOp3
 70
     0
102
RTVSPropertyOp4
 70
     0
102
RTVSPropertyOp5
 70
     0
102
RTVSPropertyOp6
 70
     0
102
RTVSPropertyOp7
 70
     0
102
RTVSPropertyOp8
 70
     0
102
RTVSPropertyOp9
 70
     0
102
RTVSPropertyOp10
 70
     0
102
RTVSPropertyOp11
 70
     0
102
RTVSPropertyOp12
 70
     0
102
RTVSPropertyOp13
 70
     0
102
RTVSPropertyOp14
 70
     2
102
RTVSPropertyOp15
 70
     0
102
RTVSPropertyOp16
 70
     0
102
RTVSPropertyOp17
 70
     0
102
RTVSPropertyOp18
 70
     0
102
RTVSPropertyOp19
 70
     0
102
RTVSPropertyOp20
 70
     0
102
RTVSPropertyOp21
 70
     0
102
RTVSPropertyOp22
 70
     0
102
RTVSPropertyOp23
 70
     0
102
RTVSPropertyOp24
 70
     0
102
RTVSPropertyOp25
 70
     0
102
RTVSPropertyOp26
 70
     0
102
RTVSPropertyOp27
 70
     0
102
RTVSPropertyOp28
 70
     0
102
RTVSPropertyOp29
 70
     0
102
RTVSPropertyOp30
 70
     0
102
RTVSPropertyOp31
 70
     0
102
RTVSPropertyOp32
 70
     0
102
RTVSPropertyOp33
 70
     0
102
RTVSPropertyOp34
 70
     0
102
RTVSPropertyOp35
 70
     0
102
RTVSPropertyOp36
 70
     0
102
RTVSPropertyOp37
 70
     0
102
RTVSPropertyOp38
 70
     0
102
RTVSPropertyOp39
 70
     0
102
RTVSPropertyOp40
 70
     0
102
RTVSPropertyOp41
 70
     0
102
RTVSPropertyOp42
 70
     0
102
RTVSPropertyOp43
 70
     0
102
RTVSPropertyOp44
 70
     0
102
RTVSPropertyOp45
 70
     0
102
RTVSPropertyOp46
 70
     0
102
RTVSPropertyOp47
 70
     0
102
RTVSPropertyOp48
 70
     0
102
RTVSPropertyOp49
 70
     0
102
RTVSPropertyOp50
 70
     0
102
RTVSPropertyOp51
 70
     0
102
RTVSPropertyOp52
 70
     0
102
RTVSPropertyOp53
 70
     0
102
RTVSPropertyOp54
 70
     0
102
RTVSPropertyOp55
 70
     0
102
RTVSPropertyOp56
 70
     0
102
RTVSPropertyOp57
 70
     0
102
RTVSPropertyOp58
 70
     0
102
RTVSPropertyOp59
 70
     0
102
RTVSPropertyOp60
 70
     0
102
RTVSPropertyOp61
 70
     0
102
RTVSPropertyOp62
 70
     0
  0
XRECORD
  5
16EE
102
{ACAD_REACTORS
330
16ED
102
}
330
16ED
100
AcDbXrecord
280
     1
102
RTVSPost2010Prop28
280
     0
102
RTVSPost2010PropOp28
 70
     1
102
RTVSPost2010Prop29
280
     1
102
RTVSPost2010PropOp29
 70
     1
102
RTVSPost2010Prop30
280
     1
102
RTVSPost2010PropOp30
 70
     1
102
RTVSPost2010Prop31
280
     0
102
RTVSPost2010PropOp31
 70
     1
102
RTVSPost2010Prop32
280
     0
102
RTVSPost2010PropOp32
 70
     1
102
RTVSPost2010Prop33
280
     0
102
RTVSPost2010PropOp33
 70
     1
102
RTVSPost2010Prop34
280
     0
102
RTVSPost2010PropOp34
 70
     1
102
RTVSPost2010Prop35
280
     0
102
RTVSPost2010PropOp35
 70
     1
102
RTVSPost2010Prop36
280
     0
102
RTVSPost2010PropOp36
 70
     1
102
RTVSPost2010Prop37
 90
       50
102
RTVSPost2010PropOp37
 70
     1
102
RTVSPost2010Prop38
140
0.0
102
RTVSPost2010PropOp38
 70
     1
102
RTVSPost2010Prop39
140
1.0
102
RTVSPost2010PropOp39
 70
     1
102
RTVSPost2010Prop40
 90
        0
102
RTVSPost2010PropOp40
 70
     1
102
RTVSPost2010Prop41ColorIndex
 90
       18
102
RTVSPost2010Prop41ColorRGB
 90
        0
102
RTVSPost2010PropOp41
 70
     1
102
RTVSPost2010Prop42
 90
       50
102
RTVSPost2010PropOp42
 70
     1
102
RTVSPost2010Prop43
 90
        3
102
RTVSPost2010PropOp43
 70
     1
102
RTVSPost2010Prop44ColorIndex
 90
        5
102
RTVSPost2010Prop44ColorRGB
 90
      255
102
RTVSPost2010PropOp44
 70
     1
102
RTVSPost2010Prop45
280
     0
102
RTVSPost2010PropOp45
 70
     1
102
RTVSPost2010Prop46
 90
       50
102
RTVSPost2010PropOp46
 70
     1
102
RTVSPost2010Prop47
 90
       50
102
RTVSPost2010PropOp47
 70
     1
102
RTVSPost2010Prop48
 90
       50
102
RTVSPost2010PropOp48
 70
     1
102
RTVSPost2010Prop49
280
     0
102
RTVSPost2010PropOp49
 70
     1
102
RTVSPost2010Prop50
 90
       50
102
RTVSPost2010PropOp50
 70
     1
102
RTVSPost2010Prop51ColorIndex
 90
      256
102
RTVSPost2010Prop51ColorRGB
 90
-16777216
102
RTVSPost2010PropOp51
 70
     0
102
RTVSPost2010Prop52
140
1.0
102
RTVSPost2010PropOp52
 70
     0
102
RTVSPost2010Prop53
 90
        2
102
RTVSPost2010PropOp53
 70
     1
102
RTVSPost2010Prop54
  1
strokes_ogs.tif
102
RTVSPost2010PropOp54
 70
     1
102
RTVSPost2010Prop55
280
     0
102
RTVSPost2010PropOp55
 70
     1
102
RTVSPost2010Prop56
140
1.0
102
RTVSPost2010PropOp56
 70
     1
102
RTVSPost2010Prop57
140
1.0
102
RTVSPost2010PropOp57
 70
     1
102
RTVSPropertyOp0
 70
     1
102
RTVSPropertyOp1
 70
     1
102
RTVSPropertyOp2
 70
     1
102
RTVSPropertyOp3
 70
     1
102
RTVSPropertyOp4
 70
     1
102
RTVSPropertyOp5
 70
     1
102
RTVSPropertyOp6
 70
     1
102
RTVSPropertyOp7
 70
     1
102
RTVSPropertyOp8
 70
     1
102
RTVSPropertyOp9
 70
     1
102
RTVSPropertyOp10
 70
     1
102
RTVSPropertyOp11
 70
     1
102
RTVSPropertyOp12
 70
     1
102
RTVSPropertyOp13
 70
     1
102
RTVSPropertyOp14
 70
     1
102
RTVSPropertyOp15
 70
     1
102
RTVSPropertyOp16
 70
     1
102
RTVSPropertyOp17
 70
     1
102
RTVSPropertyOp18
 70
     1
102
RTVSPropertyOp19
 70
     1
102
RTVSPropertyOp20
 70
     1
102
RTVSPropertyOp21
 70
     1
102
RTVSPropertyOp22
 70
     1
102
RTVSPropertyOp23
 70
     1
102
RTVSPropertyOp24
 70
     1
102
RTVSPropertyOp25
 70
     1
102
RTVSPropertyOp26
 70
     1
102
RTVSPropertyOp27
 70
     1
102
RTVSPropertyOp28
 70
     1
102
RTVSPropertyOp29
 70
     1
102
RTVSPropertyOp30
 70
     1
102
RTVSPropertyOp31
 70
     1
102
RTVSPropertyOp32
 70
     1
102
RTVSPropertyOp33
 70
     1
102
RTVSPropertyOp34
 70
     1
102
RTVSPropertyOp35
 70
     1
102
RTVSPropertyOp36
 70
     1
102
RTVSPropertyOp37
 70
     1
102
RTVSPropertyOp38
 70
     1
102
RTVSPropertyOp39
 70
     1
102
RTVSPropertyOp40
 70
     1
102
RTVSPropertyOp41
 70
     1
102
RTVSPropertyOp42
 70
     1
102
RTVSPropertyOp43
 70
     1
102
RTVSPropertyOp44
 70
     1
102
RTVSPropertyOp45
 70
     1
102
RTVSPropertyOp46
 70
     1
102
RTVSPropertyOp47
 70
     1
102
RTVSPropertyOp48
 70
     1
102
RTVSPropertyOp49
 70
     1
102
RTVSPropertyOp50
 70
     1
102
RTVSPropertyOp51
 70
     0
102
RTVSPropertyOp52
 70
     0
102
RTVSPropertyOp53
 70
     1
102
RTVSPropertyOp54
 70
     1
102
RTVSPropertyOp55
 70
     1
102
RTVSPropertyOp56
 70
     1
102
RTVSPropertyOp57
 70
     1
102
RTVSPropertyOp58
 70
     1
102
RTVSPropertyOp59
 70
     1
102
RTVSPropertyOp60
 70
     1
102
RTVSPropertyOp61
 70
     1
102
RTVSPropertyOp62
 70
     1
  0
XRECORD
  5
1704
102
{ACAD_REACTORS
330
1703
102
}
330
1703
100
AcDbXrecord
280
     1
102
RTVSPost2010Prop28
280
     0
102
RTVSPost2010PropOp28
 70
     1
102
RTVSPost2010Prop29
280
     1
102
RTVSPost2010PropOp29
 70
     1
102
RTVSPost2010Prop30
280
     1
102
RTVSPost2010PropOp30
 70
     1
102
RTVSPost2010Prop31
280
     0
102
RTVSPost2010PropOp31
 70
     1
102
RTVSPost2010Prop32
280
     0
102
RTVSPost2010PropOp32
 70
     1
102
RTVSPost2010Prop33
280
     0
102
RTVSPost2010PropOp33
 70
     1
102
RTVSPost2010Prop34
280
     0
102
RTVSPost2010PropOp34
 70
     1
102
RTVSPost2010Prop35
280
     0
102
RTVSPost2010PropOp35
 70
     1
102
RTVSPost2010Prop36
280
     0
102
RTVSPost2010PropOp36
 70
     1
102
RTVSPost2010Prop37
 90
       50
102
RTVSPost2010PropOp37
 70
     1
102
RTVSPost2010Prop38
140
0.0
102
RTVSPost2010PropOp38
 70
     1
102
RTVSPost2010Prop39
140
1.0
102
RTVSPost2010PropOp39
 70
     1
102
RTVSPost2010Prop40
 90
        0
102
RTVSPost2010PropOp40
 70
     1
102
RTVSPost2010Prop41ColorIndex
 90
       18
102
RTVSPost2010Prop41ColorRGB
 90
        0
102
RTVSPost2010PropOp41
 70
     1
102
RTVSPost2010Prop42
 90
       50
102
RTVSPost2010PropOp42
 70
     1
102
RTVSPost2010Prop43
 90
        3
102
RTVSPost2010PropOp43
 70
     1
102
RTVSPost2010Prop44ColorIndex
 90
        5
102
RTVSPost2010Prop44ColorRGB
 90
      255
102
RTVSPost2010PropOp44
 70
     1
102
RTVSPost2010Prop45
280
     0
102
RTVSPost2010PropOp45
 70
     1
102
RTVSPost2010Prop46
 90
       50
102
RTVSPost2010PropOp46
 70
     1
102
RTVSPost2010Prop47
 90
       50
102
RTVSPost2010PropOp47
 70
     1
102
RTVSPost2010Prop48
 90
       50
102
RTVSPost2010PropOp48
 70
     1
102
RTVSPost2010Prop49
280
     0
102
RTVSPost2010PropOp49
 70
     1
102
RTVSPost2010Prop50
 90
       50
102
RTVSPost2010PropOp50
 70
     1
102
RTVSPost2010Prop51ColorIndex
 90
      256
102
RTVSPost2010Prop51ColorRGB
 90
-16777216
102
RTVSPost2010PropOp51
 70
     0
102
RTVSPost2010Prop52
140
1.0
102
RTVSPost2010PropOp52
 70
     0
102
RTVSPost2010Prop53
 90
        2
102
RTVSPost2010PropOp53
 70
     1
102
RTVSPost2010Prop54
  1
strokes_ogs.tif
102
RTVSPost2010PropOp54
 70
     1
102
RTVSPost2010Prop55
280
     0
102
RTVSPost2010PropOp55
 70
     1
102
RTVSPost2010Prop56
140
1.0
102
RTVSPost2010PropOp56
 70
     1
102
RTVSPost2010Prop57
140
1.0
102
RTVSPost2010PropOp57
 70
     1
102
RTVSPropertyOp0
 70
     1
102
RTVSPropertyOp1
 70
     1
102
RTVSPropertyOp2
 70
     1
102
RTVSPropertyOp3
 70
     1
102
RTVSPropertyOp4
 70
     1
102
RTVSPropertyOp5
 70
     1
102
RTVSPropertyOp6
 70
     1
102
RTVSPropertyOp7
 70
     1
102
RTVSPropertyOp8
 70
     1
102
RTVSPropertyOp9
 70
     1
102
RTVSPropertyOp10
 70
     1
102
RTVSPropertyOp11
 70
     1
102
RTVSPropertyOp12
 70
     1
102
RTVSPropertyOp13
 70
     1
102
RTVSPropertyOp14
 70
     1
102
RTVSPropertyOp15
 70
     1
102
RTVSPropertyOp16
 70
     1
102
RTVSPropertyOp17
 70
     1
102
RTVSPropertyOp18
 70
     1
102
RTVSPropertyOp19
 70
     1
102
RTVSPropertyOp20
 70
     1
102
RTVSPropertyOp21
 70
     1
102
RTVSPropertyOp22
 70
     1
102
RTVSPropertyOp23
 70
     1
102
RTVSPropertyOp24
 70
     1
102
RTVSPropertyOp25
 70
     1
102
RTVSPropertyOp26
 70
     1
102
RTVSPropertyOp27
 70
     1
102
RTVSPropertyOp28
 70
     1
102
RTVSPropertyOp29
 70
     1
102
RTVSPropertyOp30
 70
     1
102
RTVSPropertyOp31
 70
     1
102
RTVSPropertyOp32
 70
     1
102
RTVSPropertyOp33
 70
     1
102
RTVSPropertyOp34
 70
     1
102
RTVSPropertyOp35
 70
     1
102
RTVSPropertyOp36
 70
     1
102
RTVSPropertyOp37
 70
     1
102
RTVSPropertyOp38
 70
     1
102
RTVSPropertyOp39
 70
     1
102
RTVSPropertyOp40
 70
     1
102
RTVSPropertyOp41
 70
     1
102
RTVSPropertyOp42
 70
     1
102
RTVSPropertyOp43
 70
     1
102
RTVSPropertyOp44
 70
     1
102
RTVSPropertyOp45
 70
     1
102
RTVSPropertyOp46
 70
     1
102
RTVSPropertyOp47
 70
     1
102
RTVSPropertyOp48
 70
     1
102
RTVSPropertyOp49
 70
     1
102
RTVSPropertyOp50
 70
     1
102
RTVSPropertyOp51
 70
     0
102
RTVSPropertyOp52
 70
     0
102
RTVSPropertyOp53
 70
     1
102
RTVSPropertyOp54
 70
     1
102
RTVSPropertyOp55
 70
     1
102
RTVSPropertyOp56
 70
     1
102
RTVSPropertyOp57
 70
     1
102
RTVSPropertyOp58
 70
     1
102
RTVSPropertyOp59
 70
     1
102
RTVSPropertyOp60
 70
     1
102
RTVSPropertyOp61
 70
     1
102
RTVSPropertyOp62
 70
     1
  0
XRECORD
  5
1702
102
{ACAD_REACTORS
330
1701
102
}
330
1701
100
AcDbXrecord
280
     1
102
RTVSPost2010Prop28
280
     0
102
RTVSPost2010PropOp28
 70
     1
102
RTVSPost2010Prop29
280
     1
102
RTVSPost2010PropOp29
 70
     1
102
RTVSPost2010Prop30
280
     1
102
RTVSPost2010PropOp30
 70
     1
102
RTVSPost2010Prop31
280
     0
102
RTVSPost2010PropOp31
 70
     1
102
RTVSPost2010Prop32
280
     0
102
RTVSPost2010PropOp32
 70
     1
102
RTVSPost2010Prop33
280
     0
102
RTVSPost2010PropOp33
 70
     1
102
RTVSPost2010Prop34
280
     0
102
RTVSPost2010PropOp34
 70
     1
102
RTVSPost2010Prop35
280
     0
102
RTVSPost2010PropOp35
 70
     1
102
RTVSPost2010Prop36
280
     0
102
RTVSPost2010PropOp36
 70
     1
102
RTVSPost2010Prop37
 90
       50
102
RTVSPost2010PropOp37
 70
     1
102
RTVSPost2010Prop38
140
0.0
102
RTVSPost2010PropOp38
 70
     1
102
RTVSPost2010Prop39
140
1.0
102
RTVSPost2010PropOp39
 70
     1
102
RTVSPost2010Prop40
 90
        0
102
RTVSPost2010PropOp40
 70
     1
102
RTVSPost2010Prop41ColorIndex
 90
       18
102
RTVSPost2010Prop41ColorRGB
 90
        0
102
RTVSPost2010PropOp41
 70
     1
102
RTVSPost2010Prop42
 90
       50
102
RTVSPost2010PropOp42
 70
     1
102
RTVSPost2010Prop43
 90
        3
102
RTVSPost2010PropOp43
 70
     1
102
RTVSPost2010Prop44ColorIndex
 90
        5
102
RTVSPost2010Prop44ColorRGB
 90
      255
102
RTVSPost2010PropOp44
 70
     1
102
RTVSPost2010Prop45
280
     0
102
RTVSPost2010PropOp45
 70
     1
102
RTVSPost2010Prop46
 90
       50
102
RTVSPost2010PropOp46
 70
     1
102
RTVSPost2010Prop47
 90
       50
102
RTVSPost2010PropOp47
 70
     1
102
RTVSPost2010Prop48
 90
       50
102
RTVSPost2010PropOp48
 70
     1
102
RTVSPost2010Prop49
280
     0
102
RTVSPost2010PropOp49
 70
     1
102
RTVSPost2010Prop50
 90
       50
102
RTVSPost2010PropOp50
 70
     1
102
RTVSPost2010Prop51ColorIndex
 90
      256
102
RTVSPost2010Prop51ColorRGB
 90
-16777216
102
RTVSPost2010PropOp51
 70
     0
102
RTVSPost2010Prop52
140
1.0
102
RTVSPost2010PropOp52
 70
     0
102
RTVSPost2010Prop53
 90
        2
102
RTVSPost2010PropOp53
 70
     1
102
RTVSPost2010Prop54
  1
strokes_ogs.tif
102
RTVSPost2010PropOp54
 70
     1
102
RTVSPost2010Prop55
280
     0
102
RTVSPost2010PropOp55
 70
     1
102
RTVSPost2010Prop56
140
1.0
102
RTVSPost2010PropOp56
 70
     1
102
RTVSPost2010Prop57
140
1.0
102
RTVSPost2010PropOp57
 70
     1
102
RTVSPropertyOp0
 70
     1
102
RTVSPropertyOp1
 70
     1
102
RTVSPropertyOp2
 70
     1
102
RTVSPropertyOp3
 70
     1
102
RTVSPropertyOp4
 70
     1
102
RTVSPropertyOp5
 70
     1
102
RTVSPropertyOp6
 70
     1
102
RTVSPropertyOp7
 70
     1
102
RTVSPropertyOp8
 70
     1
102
RTVSPropertyOp9
 70
     1
102
RTVSPropertyOp10
 70
     1
102
RTVSPropertyOp11
 70
     1
102
RTVSPropertyOp12
 70
     1
102
RTVSPropertyOp13
 70
     1
102
RTVSPropertyOp14
 70
     1
102
RTVSPropertyOp15
 70
     1
102
RTVSPropertyOp16
 70
     1
102
RTVSPropertyOp17
 70
     1
102
RTVSPropertyOp18
 70
     1
102
RTVSPropertyOp19
 70
     1
102
RTVSPropertyOp20
 70
     1
102
RTVSPropertyOp21
 70
     1
102
RTVSPropertyOp22
 70
     1
102
RTVSPropertyOp23
 70
     1
102
RTVSPropertyOp24
 70
     1
102
RTVSPropertyOp25
 70
     1
102
RTVSPropertyOp26
 70
     1
102
RTVSPropertyOp27
 70
     1
102
RTVSPropertyOp28
 70
     1
102
RTVSPropertyOp29
 70
     1
102
RTVSPropertyOp30
 70
     1
102
RTVSPropertyOp31
 70
     1
102
RTVSPropertyOp32
 70
     1
102
RTVSPropertyOp33
 70
     1
102
RTVSPropertyOp34
 70
     1
102
RTVSPropertyOp35
 70
     1
102
RTVSPropertyOp36
 70
     1
102
RTVSPropertyOp37
 70
     1
102
RTVSPropertyOp38
 70
     1
102
RTVSPropertyOp39
 70
     1
102
RTVSPropertyOp40
 70
     1
102
RTVSPropertyOp41
 70
     1
102
RTVSPropertyOp42
 70
     1
102
RTVSPropertyOp43
 70
     1
102
RTVSPropertyOp44
 70
     1
102
RTVSPropertyOp45
 70
     1
102
RTVSPropertyOp46
 70
     1
102
RTVSPropertyOp47
 70
     1
102
RTVSPropertyOp48
 70
     1
102
RTVSPropertyOp49
 70
     1
102
RTVSPropertyOp50
 70
     1
102
RTVSPropertyOp51
 70
     0
102
RTVSPropertyOp52
 70
     0
102
RTVSPropertyOp53
 70
     1
102
RTVSPropertyOp54
 70
     1
102
RTVSPropertyOp55
 70
     1
102
RTVSPropertyOp56
 70
     1
102
RTVSPropertyOp57
 70
     1
102
RTVSPropertyOp58
 70
     1
102
RTVSPropertyOp59
 70
     1
102
RTVSPropertyOp60
 70
     1
102
RTVSPropertyOp61
 70
     1
102
RTVSPropertyOp62
 70
     1
  0
XRECORD
  5
16FC
102
{ACAD_REACTORS
330
16FB
102
}
330
16FB
100
AcDbXrecord
280
     1
102
RTVSPost2010Prop28
280
     0
102
RTVSPost2010PropOp28
 70
     1
102
RTVSPost2010Prop29
280
     1
102
RTVSPost2010PropOp29
 70
     1
102
RTVSPost2010Prop30
280
     1
102
RTVSPost2010PropOp30
 70
     1
102
RTVSPost2010Prop31
280
     0
102
RTVSPost2010PropOp31
 70
     1
102
RTVSPost2010Prop32
280
     0
102
RTVSPost2010PropOp32
 70
     1
102
RTVSPost2010Prop33
280
     0
102
RTVSPost2010PropOp33
 70
     1
102
RTVSPost2010Prop34
280
     0
102
RTVSPost2010PropOp34
 70
     1
102
RTVSPost2010Prop35
280
     0
102
RTVSPost2010PropOp35
 70
     1
102
RTVSPost2010Prop36
280
     0
102
RTVSPost2010PropOp36
 70
     1
102
RTVSPost2010Prop37
 90
       50
102
RTVSPost2010PropOp37
 70
     1
102
RTVSPost2010Prop38
140
0.0
102
RTVSPost2010PropOp38
 70
     1
102
RTVSPost2010Prop39
140
1.0
102
RTVSPost2010PropOp39
 70
     1
102
RTVSPost2010Prop40
 90
        0
102
RTVSPost2010PropOp40
 70
     1
102
RTVSPost2010Prop41ColorIndex
 90
       18
102
RTVSPost2010Prop41ColorRGB
 90
        0
102
RTVSPost2010PropOp41
 70
     1
102
RTVSPost2010Prop42
 90
       50
102
RTVSPost2010PropOp42
 70
     1
102
RTVSPost2010Prop43
 90
        3
102
RTVSPost2010PropOp43
 70
     1
102
RTVSPost2010Prop44ColorIndex
 90
        5
102
RTVSPost2010Prop44ColorRGB
 90
      255
102
RTVSPost2010PropOp44
 70
     1
102
RTVSPost2010Prop45
280
     0
102
RTVSPost2010PropOp45
 70
     1
102
RTVSPost2010Prop46
 90
       50
102
RTVSPost2010PropOp46
 70
     1
102
RTVSPost2010Prop47
 90
       50
102
RTVSPost2010PropOp47
 70
     1
102
RTVSPost2010Prop48
 90
       50
102
RTVSPost2010PropOp48
 70
     1
102
RTVSPost2010Prop49
280
     0
102
RTVSPost2010PropOp49
 70
     1
102
RTVSPost2010Prop50
 90
       50
102
RTVSPost2010PropOp50
 70
     1
102
RTVSPost2010Prop51ColorIndex
 90
      256
102
RTVSPost2010Prop51ColorRGB
 90
-16777216
102
RTVSPost2010PropOp51
 70
     0
102
RTVSPost2010Prop52
140
1.0
102
RTVSPost2010PropOp52
 70
     0
102
RTVSPost2010Prop53
 90
        2
102
RTVSPost2010PropOp53
 70
     1
102
RTVSPost2010Prop54
  1
strokes_ogs.tif
102
RTVSPost2010PropOp54
 70
     1
102
RTVSPost2010Prop55
280
     0
102
RTVSPost2010PropOp55
 70
     1
102
RTVSPost2010Prop56
140
1.0
102
RTVSPost2010PropOp56
 70
     1
102
RTVSPost2010Prop57
140
1.0
102
RTVSPost2010PropOp57
 70
     1
102
RTVSPropertyOp0
 70
     1
102
RTVSPropertyOp1
 70
     1
102
RTVSPropertyOp2
 70
     1
102
RTVSPropertyOp3
 70
     1
102
RTVSPropertyOp4
 70
     1
102
RTVSPropertyOp5
 70
     1
102
RTVSPropertyOp6
 70
     1
102
RTVSPropertyOp7
 70
     1
102
RTVSPropertyOp8
 70
     1
102
RTVSPropertyOp9
 70
     1
102
RTVSPropertyOp10
 70
     1
102
RTVSPropertyOp11
 70
     1
102
RTVSPropertyOp12
 70
     1
102
RTVSPropertyOp13
 70
     1
102
RTVSPropertyOp14
 70
     1
102
RTVSPropertyOp15
 70
     1
102
RTVSPropertyOp16
 70
     1
102
RTVSPropertyOp17
 70
     1
102
RTVSPropertyOp18
 70
     1
102
RTVSPropertyOp19
 70
     1
102
RTVSPropertyOp20
 70
     1
102
RTVSPropertyOp21
 70
     1
102
RTVSPropertyOp22
 70
     1
102
RTVSPropertyOp23
 70
     1
102
RTVSPropertyOp24
 70
     1
102
RTVSPropertyOp25
 70
     1
102
RTVSPropertyOp26
 70
     1
102
RTVSPropertyOp27
 70
     1
102
RTVSPropertyOp28
 70
     1
102
RTVSPropertyOp29
 70
     1
102
RTVSPropertyOp30
 70
     1
102
RTVSPropertyOp31
 70
     1
102
RTVSPropertyOp32
 70
     1
102
RTVSPropertyOp33
 70
     1
102
RTVSPropertyOp34
 70
     1
102
RTVSPropertyOp35
 70
     1
102
RTVSPropertyOp36
 70
     1
102
RTVSPropertyOp37
 70
     1
102
RTVSPropertyOp38
 70
     1
102
RTVSPropertyOp39
 70
     1
102
RTVSPropertyOp40
 70
     1
102
RTVSPropertyOp41
 70
     1
102
RTVSPropertyOp42
 70
     1
102
RTVSPropertyOp43
 70
     1
102
RTVSPropertyOp44
 70
     1
102
RTVSPropertyOp45
 70
     1
102
RTVSPropertyOp46
 70
     1
102
RTVSPropertyOp47
 70
     1
102
RTVSPropertyOp48
 70
     1
102
RTVSPropertyOp49
 70
     1
102
RTVSPropertyOp50
 70
     1
102
RTVSPropertyOp51
 70
     0
102
RTVSPropertyOp52
 70
     0
102
RTVSPropertyOp53
 70
     1
102
RTVSPropertyOp54
 70
     1
102
RTVSPropertyOp55
 70
     1
102
RTVSPropertyOp56
 70
     1
102
RTVSPropertyOp57
 70
     1
102
RTVSPropertyOp58
 70
     1
102
RTVSPropertyOp59
 70
     1
102
RTVSPropertyOp60
 70
     1
102
RTVSPropertyOp61
 70
     1
102
RTVSPropertyOp62
 70
     1
  0
XRECORD
  5
16FE
102
{ACAD_REACTORS
330
16FD
102
}
330
16FD
100
AcDbXrecord
280
     1
102
RTVSPost2010Prop28
280
     0
102
RTVSPost2010PropOp28
 70
     1
102
RTVSPost2010Prop29
280
     1
102
RTVSPost2010PropOp29
 70
     1
102
RTVSPost2010Prop30
280
     1
102
RTVSPost2010PropOp30
 70
     1
102
RTVSPost2010Prop31
280
     0
102
RTVSPost2010PropOp31
 70
     1
102
RTVSPost2010Prop32
280
     0
102
RTVSPost2010PropOp32
 70
     1
102
RTVSPost2010Prop33
280
     0
102
RTVSPost2010PropOp33
 70
     1
102
RTVSPost2010Prop34
280
     0
102
RTVSPost2010PropOp34
 70
     1
102
RTVSPost2010Prop35
280
     0
102
RTVSPost2010PropOp35
 70
     1
102
RTVSPost2010Prop36
280
     0
102
RTVSPost2010PropOp36
 70
     1
102
RTVSPost2010Prop37
 90
       50
102
RTVSPost2010PropOp37
 70
     1
102
RTVSPost2010Prop38
140
0.0
102
RTVSPost2010PropOp38
 70
     1
102
RTVSPost2010Prop39
140
1.0
102
RTVSPost2010PropOp39
 70
     1
102
RTVSPost2010Prop40
 90
        0
102
RTVSPost2010PropOp40
 70
     1
102
RTVSPost2010Prop41ColorIndex
 90
       18
102
RTVSPost2010Prop41ColorRGB
 90
        0
102
RTVSPost2010PropOp41
 70
     1
102
RTVSPost2010Prop42
 90
       50
102
RTVSPost2010PropOp42
 70
     1
102
RTVSPost2010Prop43
 90
        3
102
RTVSPost2010PropOp43
 70
     1
102
RTVSPost2010Prop44ColorIndex
 90
        5
102
RTVSPost2010Prop44ColorRGB
 90
      255
102
RTVSPost2010PropOp44
 70
     1
102
RTVSPost2010Prop45
280
     0
102
RTVSPost2010PropOp45
 70
     1
102
RTVSPost2010Prop46
 90
       50
102
RTVSPost2010PropOp46
 70
     1
102
RTVSPost2010Prop47
 90
       50
102
RTVSPost2010PropOp47
 70
     1
102
RTVSPost2010Prop48
 90
       50
102
RTVSPost2010PropOp48
 70
     1
102
RTVSPost2010Prop49
280
     0
102
RTVSPost2010PropOp49
 70
     1
102
RTVSPost2010Prop50
 90
       50
102
RTVSPost2010PropOp50
 70
     1
102
RTVSPost2010Prop51ColorIndex
 90
      256
102
RTVSPost2010Prop51ColorRGB
 90
-16777216
102
RTVSPost2010PropOp51
 70
     0
102
RTVSPost2010Prop52
140
1.0
102
RTVSPost2010PropOp52
 70
     0
102
RTVSPost2010Prop53
 90
        2
102
RTVSPost2010PropOp53
 70
     1
102
RTVSPost2010Prop54
  1
strokes_ogs.tif
102
RTVSPost2010PropOp54
 70
     1
102
RTVSPost2010Prop55
280
     0
102
RTVSPost2010PropOp55
 70
     1
102
RTVSPost2010Prop56
140
1.0
102
RTVSPost2010PropOp56
 70
     1
102
RTVSPost2010Prop57
140
1.0
102
RTVSPost2010PropOp57
 70
     1
102
RTVSPropertyOp0
 70
     1
102
RTVSPropertyOp1
 70
     1
102
RTVSPropertyOp2
 70
     1
102
RTVSPropertyOp3
 70
     1
102
RTVSPropertyOp4
 70
     1
102
RTVSPropertyOp5
 70
     1
102
RTVSPropertyOp6
 70
     1
102
RTVSPropertyOp7
 70
     1
102
RTVSPropertyOp8
 70
     1
102
RTVSPropertyOp9
 70
     1
102
RTVSPropertyOp10
 70
     1
102
RTVSPropertyOp11
 70
     1
102
RTVSPropertyOp12
 70
     1
102
RTVSPropertyOp13
 70
     1
102
RTVSPropertyOp14
 70
     1
102
RTVSPropertyOp15
 70
     1
102
RTVSPropertyOp16
 70
     1
102
RTVSPropertyOp17
 70
     1
102
RTVSPropertyOp18
 70
     1
102
RTVSPropertyOp19
 70
     1
102
RTVSPropertyOp20
 70
     1
102
RTVSPropertyOp21
 70
     1
102
RTVSPropertyOp22
 70
     1
102
RTVSPropertyOp23
 70
     1
102
RTVSPropertyOp24
 70
     1
102
RTVSPropertyOp25
 70
     1
102
RTVSPropertyOp26
 70
     1
102
RTVSPropertyOp27
 70
     1
102
RTVSPropertyOp28
 70
     1
102
RTVSPropertyOp29
 70
     1
102
RTVSPropertyOp30
 70
     1
102
RTVSPropertyOp31
 70
     1
102
RTVSPropertyOp32
 70
     1
102
RTVSPropertyOp33
 70
     1
102
RTVSPropertyOp34
 70
     1
102
RTVSPropertyOp35
 70
     1
102
RTVSPropertyOp36
 70
     1
102
RTVSPropertyOp37
 70
     1
102
RTVSPropertyOp38
 70
     1
102
RTVSPropertyOp39
 70
     1
102
RTVSPropertyOp40
 70
     1
102
RTVSPropertyOp41
 70
     1
102
RTVSPropertyOp42
 70
     1
102
RTVSPropertyOp43
 70
     1
102
RTVSPropertyOp44
 70
     1
102
RTVSPropertyOp45
 70
     1
102
RTVSPropertyOp46
 70
     1
102
RTVSPropertyOp47
 70
     1
102
RTVSPropertyOp48
 70
     1
102
RTVSPropertyOp49
 70
     1
102
RTVSPropertyOp50
 70
     1
102
RTVSPropertyOp51
 70
     0
102
RTVSPropertyOp52
 70
     0
102
RTVSPropertyOp53
 70
     1
102
RTVSPropertyOp54
 70
     1
102
RTVSPropertyOp55
 70
     1
102
RTVSPropertyOp56
 70
     1
102
RTVSPropertyOp57
 70
     1
102
RTVSPropertyOp58
 70
     1
102
RTVSPropertyOp59
 70
     1
102
RTVSPropertyOp60
 70
     1
102
RTVSPropertyOp61
 70
     1
102
RTVSPropertyOp62
 70
     1
  0
XRECORD
  5
16F4
102
{ACAD_REACTORS
330
16F3
102
}
330
16F3
100
AcDbXrecord
280
     1
102
RTVSPost2010Prop28
280
     0
102
RTVSPost2010PropOp28
 70
     1
102
RTVSPost2010Prop29
280
     1
102
RTVSPost2010PropOp29
 70
     1
102
RTVSPost2010Prop30
280
     1
102
RTVSPost2010PropOp30
 70
     1
102
RTVSPost2010Prop31
280
     0
102
RTVSPost2010PropOp31
 70
     1
102
RTVSPost2010Prop32
280
     0
102
RTVSPost2010PropOp32
 70
     1
102
RTVSPost2010Prop33
280
     0
102
RTVSPost2010PropOp33
 70
     1
102
RTVSPost2010Prop34
280
     0
102
RTVSPost2010PropOp34
 70
     1
102
RTVSPost2010Prop35
280
     0
102
RTVSPost2010PropOp35
 70
     1
102
RTVSPost2010Prop36
280
     0
102
RTVSPost2010PropOp36
 70
     1
102
RTVSPost2010Prop37
 90
       50
102
RTVSPost2010PropOp37
 70
     1
102
RTVSPost2010Prop38
140
0.0
102
RTVSPost2010PropOp38
 70
     1
102
RTVSPost2010Prop39
140
1.0
102
RTVSPost2010PropOp39
 70
     1
102
RTVSPost2010Prop40
 90
        0
102
RTVSPost2010PropOp40
 70
     1
102
RTVSPost2010Prop41ColorIndex
 90
       18
102
RTVSPost2010Prop41ColorRGB
 90
        0
102
RTVSPost2010PropOp41
 70
     1
102
RTVSPost2010Prop42
 90
       50
102
RTVSPost2010PropOp42
 70
     1
102
RTVSPost2010Prop43
 90
        3
102
RTVSPost2010PropOp43
 70
     1
102
RTVSPost2010Prop44ColorIndex
 90
        5
102
RTVSPost2010Prop44ColorRGB
 90
      255
102
RTVSPost2010PropOp44
 70
     1
102
RTVSPost2010Prop45
280
     0
102
RTVSPost2010PropOp45
 70
     1
102
RTVSPost2010Prop46
 90
       50
102
RTVSPost2010PropOp46
 70
     1
102
RTVSPost2010Prop47
 90
       50
102
RTVSPost2010PropOp47
 70
     1
102
RTVSPost2010Prop48
 90
       50
102
RTVSPost2010PropOp48
 70
     1
102
RTVSPost2010Prop49
280
     0
102
RTVSPost2010PropOp49
 70
     1
102
RTVSPost2010Prop50
 90
       50
102
RTVSPost2010PropOp50
 70
     1
102
RTVSPost2010Prop51ColorIndex
 90
      256
102
RTVSPost2010Prop51ColorRGB
 90
-16777216
102
RTVSPost2010PropOp51
 70
     0
102
RTVSPost2010Prop52
140
1.0
102
RTVSPost2010PropOp52
 70
     0
102
RTVSPost2010Prop53
 90
        2
102
RTVSPost2010PropOp53
 70
     1
102
RTVSPost2010Prop54
  1
strokes_ogs.tif
102
RTVSPost2010PropOp54
 70
     1
102
RTVSPost2010Prop55
280
     0
102
RTVSPost2010PropOp55
 70
     1
102
RTVSPost2010Prop56
140
1.0
102
RTVSPost2010PropOp56
 70
     1
102
RTVSPost2010Prop57
140
1.0
102
RTVSPost2010PropOp57
 70
     1
102
RTVSPropertyOp0
 70
     1
102
RTVSPropertyOp1
 70
     1
102
RTVSPropertyOp2
 70
     1
102
RTVSPropertyOp3
 70
     1
102
RTVSPropertyOp4
 70
     1
102
RTVSPropertyOp5
 70
     1
102
RTVSPropertyOp6
 70
     1
102
RTVSPropertyOp7
 70
     1
102
RTVSPropertyOp8
 70
     1
102
RTVSPropertyOp9
 70
     1
102
RTVSPropertyOp10
 70
     1
102
RTVSPropertyOp11
 70
     1
102
RTVSPropertyOp12
 70
     1
102
RTVSPropertyOp13
 70
     1
102
RTVSPropertyOp14
 70
     1
102
RTVSPropertyOp15
 70
     1
102
RTVSPropertyOp16
 70
     1
102
RTVSPropertyOp17
 70
     1
102
RTVSPropertyOp18
 70
     1
102
RTVSPropertyOp19
 70
     1
102
RTVSPropertyOp20
 70
     1
102
RTVSPropertyOp21
 70
     1
102
RTVSPropertyOp22
 70
     1
102
RTVSPropertyOp23
 70
     1
102
RTVSPropertyOp24
 70
     1
102
RTVSPropertyOp25
 70
     1
102
RTVSPropertyOp26
 70
     1
102
RTVSPropertyOp27
 70
     1
102
RTVSPropertyOp28
 70
     1
102
RTVSPropertyOp29
 70
     1
102
RTVSPropertyOp30
 70
     1
102
RTVSPropertyOp31
 70
     1
102
RTVSPropertyOp32
 70
     1
102
RTVSPropertyOp33
 70
     1
102
RTVSPropertyOp34
 70
     1
102
RTVSPropertyOp35
 70
     1
102
RTVSPropertyOp36
 70
     1
102
RTVSPropertyOp37
 70
     1
102
RTVSPropertyOp38
 70
     1
102
RTVSPropertyOp39
 70
     1
102
RTVSPropertyOp40
 70
     1
102
RTVSPropertyOp41
 70
     1
102
RTVSPropertyOp42
 70
     1
102
RTVSPropertyOp43
 70
     1
102
RTVSPropertyOp44
 70
     1
102
RTVSPropertyOp45
 70
     1
102
RTVSPropertyOp46
 70
     1
102
RTVSPropertyOp47
 70
     1
102
RTVSPropertyOp48
 70
     1
102
RTVSPropertyOp49
 70
     1
102
RTVSPropertyOp50
 70
     1
102
RTVSPropertyOp51
 70
     0
102
RTVSPropertyOp52
 70
     0
102
RTVSPropertyOp53
 70
     1
102
RTVSPropertyOp54
 70
     1
102
RTVSPropertyOp55
 70
     1
102
RTVSPropertyOp56
 70
     1
102
RTVSPropertyOp57
 70
     1
102
RTVSPropertyOp58
 70
     1
102
RTVSPropertyOp59
 70
     1
102
RTVSPropertyOp60
 70
     1
102
RTVSPropertyOp61
 70
     1
102
RTVSPropertyOp62
 70
     1
  0
XRECORD
  5
16E8
102
{ACAD_REACTORS
330
16E7
102
}
330
16E7
100
AcDbXrecord
280
     1
102
RTVSPost2010Prop28
280
     0
102
RTVSPost2010PropOp28
 70
     1
102
RTVSPost2010Prop29
280
     1
102
RTVSPost2010PropOp29
 70
     1
102
RTVSPost2010Prop30
280
     1
102
RTVSPost2010PropOp30
 70
     1
102
RTVSPost2010Prop31
280
     0
102
RTVSPost2010PropOp31
 70
     1
102
RTVSPost2010Prop32
280
     0
102
RTVSPost2010PropOp32
 70
     1
102
RTVSPost2010Prop33
280
     0
102
RTVSPost2010PropOp33
 70
     1
102
RTVSPost2010Prop34
280
     0
102
RTVSPost2010PropOp34
 70
     1
102
RTVSPost2010Prop35
280
     0
102
RTVSPost2010PropOp35
 70
     1
102
RTVSPost2010Prop36
280
     0
102
RTVSPost2010PropOp36
 70
     1
102
RTVSPost2010Prop37
 90
       50
102
RTVSPost2010PropOp37
 70
     1
102
RTVSPost2010Prop38
140
0.0
102
RTVSPost2010PropOp38
 70
     1
102
RTVSPost2010Prop39
140
1.0
102
RTVSPost2010PropOp39
 70
     1
102
RTVSPost2010Prop40
 90
        0
102
RTVSPost2010PropOp40
 70
     1
102
RTVSPost2010Prop41ColorIndex
 90
       18
102
RTVSPost2010Prop41ColorRGB
 90
        0
102
RTVSPost2010PropOp41
 70
     1
102
RTVSPost2010Prop42
 90
       50
102
RTVSPost2010PropOp42
 70
     1
102
RTVSPost2010Prop43
 90
        3
102
RTVSPost2010PropOp43
 70
     1
102
RTVSPost2010Prop44ColorIndex
 90
        5
102
RTVSPost2010Prop44ColorRGB
 90
      255
102
RTVSPost2010PropOp44
 70
     1
102
RTVSPost2010Prop45
280
     0
102
RTVSPost2010PropOp45
 70
     1
102
RTVSPost2010Prop46
 90
       50
102
RTVSPost2010PropOp46
 70
     1
102
RTVSPost2010Prop47
 90
       50
102
RTVSPost2010PropOp47
 70
     1
102
RTVSPost2010Prop48
 90
       50
102
RTVSPost2010PropOp48
 70
     1
102
RTVSPost2010Prop49
280
     0
102
RTVSPost2010PropOp49
 70
     1
102
RTVSPost2010Prop50
 90
       50
102
RTVSPost2010PropOp50
 70
     1
102
RTVSPost2010Prop51ColorIndex
 90
      256
102
RTVSPost2010Prop51ColorRGB
 90
-16777216
102
RTVSPost2010PropOp51
 70
     0
102
RTVSPost2010Prop52
140
1.0
102
RTVSPost2010PropOp52
 70
     0
102
RTVSPost2010Prop53
 90
        2
102
RTVSPost2010PropOp53
 70
     1
102
RTVSPost2010Prop54
  1
strokes_ogs.tif
102
RTVSPost2010PropOp54
 70
     1
102
RTVSPost2010Prop55
280
     0
102
RTVSPost2010PropOp55
 70
     1
102
RTVSPost2010Prop56
140
1.0
102
RTVSPost2010PropOp56
 70
     1
102
RTVSPost2010Prop57
140
1.0
102
RTVSPost2010PropOp57
 70
     1
102
RTVSPropertyOp0
 70
     1
102
RTVSPropertyOp1
 70
     1
102
RTVSPropertyOp2
 70
     1
102
RTVSPropertyOp3
 70
     1
102
RTVSPropertyOp4
 70
     1
102
RTVSPropertyOp5
 70
     1
102
RTVSPropertyOp6
 70
     1
102
RTVSPropertyOp7
 70
     1
102
RTVSPropertyOp8
 70
     1
102
RTVSPropertyOp9
 70
     1
102
RTVSPropertyOp10
 70
     1
102
RTVSPropertyOp11
 70
     1
102
RTVSPropertyOp12
 70
     1
102
RTVSPropertyOp13
 70
     1
102
RTVSPropertyOp14
 70
     1
102
RTVSPropertyOp15
 70
     1
102
RTVSPropertyOp16
 70
     1
102
RTVSPropertyOp17
 70
     1
102
RTVSPropertyOp18
 70
     1
102
RTVSPropertyOp19
 70
     1
102
RTVSPropertyOp20
 70
     1
102
RTVSPropertyOp21
 70
     1
102
RTVSPropertyOp22
 70
     1
102
RTVSPropertyOp23
 70
     1
102
RTVSPropertyOp24
 70
     1
102
RTVSPropertyOp25
 70
     1
102
RTVSPropertyOp26
 70
     1
102
RTVSPropertyOp27
 70
     1
102
RTVSPropertyOp28
 70
     1
102
RTVSPropertyOp29
 70
     1
102
RTVSPropertyOp30
 70
     1
102
RTVSPropertyOp31
 70
     1
102
RTVSPropertyOp32
 70
     1
102
RTVSPropertyOp33
 70
     1
102
RTVSPropertyOp34
 70
     1
102
RTVSPropertyOp35
 70
     1
102
RTVSPropertyOp36
 70
     1
102
RTVSPropertyOp37
 70
     1
102
RTVSPropertyOp38
 70
     1
102
RTVSPropertyOp39
 70
     1
102
RTVSPropertyOp40
 70
     1
102
RTVSPropertyOp41
 70
     1
102
RTVSPropertyOp42
 70
     1
102
RTVSPropertyOp43
 70
     1
102
RTVSPropertyOp44
 70
     1
102
RTVSPropertyOp45
 70
     1
102
RTVSPropertyOp46
 70
     1
102
RTVSPropertyOp47
 70
     1
102
RTVSPropertyOp48
 70
     1
102
RTVSPropertyOp49
 70
     1
102
RTVSPropertyOp50
 70
     1
102
RTVSPropertyOp51
 70
     0
102
RTVSPropertyOp52
 70
     0
102
RTVSPropertyOp53
 70
     1
102
RTVSPropertyOp54
 70
     1
102
RTVSPropertyOp55
 70
     1
102
RTVSPropertyOp56
 70
     1
102
RTVSPropertyOp57
 70
     1
102
RTVSPropertyOp58
 70
     1
102
RTVSPropertyOp59
 70
     1
102
RTVSPropertyOp60
 70
     1
102
RTVSPropertyOp61
 70
     1
102
RTVSPropertyOp62
 70
     1
  0
XRECORD
  5
1700
102
{ACAD_REACTORS
330
16FF
102
}
330
16FF
100
AcDbXrecord
280
     1
102
RTVSPost2010Prop28
280
     0
102
RTVSPost2010PropOp28
 70
     1
102
RTVSPost2010Prop29
280
     1
102
RTVSPost2010PropOp29
 70
     1
102
RTVSPost2010Prop30
280
     1
102
RTVSPost2010PropOp30
 70
     1
102
RTVSPost2010Prop31
280
     0
102
RTVSPost2010PropOp31
 70
     1
102
RTVSPost2010Prop32
280
     0
102
RTVSPost2010PropOp32
 70
     1
102
RTVSPost2010Prop33
280
     0
102
RTVSPost2010PropOp33
 70
     1
102
RTVSPost2010Prop34
280
     0
102
RTVSPost2010PropOp34
 70
     1
102
RTVSPost2010Prop35
280
     0
102
RTVSPost2010PropOp35
 70
     1
102
RTVSPost2010Prop36
280
     0
102
RTVSPost2010PropOp36
 70
     1
102
RTVSPost2010Prop37
 90
       50
102
RTVSPost2010PropOp37
 70
     1
102
RTVSPost2010Prop38
140
0.0
102
RTVSPost2010PropOp38
 70
     1
102
RTVSPost2010Prop39
140
1.0
102
RTVSPost2010PropOp39
 70
     1
102
RTVSPost2010Prop40
 90
        0
102
RTVSPost2010PropOp40
 70
     1
102
RTVSPost2010Prop41ColorIndex
 90
       18
102
RTVSPost2010Prop41ColorRGB
 90
        0
102
RTVSPost2010PropOp41
 70
     1
102
RTVSPost2010Prop42
 90
       50
102
RTVSPost2010PropOp42
 70
     1
102
RTVSPost2010Prop43
 90
        3
102
RTVSPost2010PropOp43
 70
     1
102
RTVSPost2010Prop44ColorIndex
 90
        5
102
RTVSPost2010Prop44ColorRGB
 90
      255
102
RTVSPost2010PropOp44
 70
     1
102
RTVSPost2010Prop45
280
     0
102
RTVSPost2010PropOp45
 70
     1
102
RTVSPost2010Prop46
 90
       50
102
RTVSPost2010PropOp46
 70
     1
102
RTVSPost2010Prop47
 90
       50
102
RTVSPost2010PropOp47
 70
     1
102
RTVSPost2010Prop48
 90
       50
102
RTVSPost2010PropOp48
 70
     1
102
RTVSPost2010Prop49
280
     0
102
RTVSPost2010PropOp49
 70
     1
102
RTVSPost2010Prop50
 90
       50
102
RTVSPost2010PropOp50
 70
     1
102
RTVSPost2010Prop51ColorIndex
 90
      256
102
RTVSPost2010Prop51ColorRGB
 90
-16777216
102
RTVSPost2010PropOp51
 70
     0
102
RTVSPost2010Prop52
140
1.0
102
RTVSPost2010PropOp52
 70
     0
102
RTVSPost2010Prop53
 90
        2
102
RTVSPost2010PropOp53
 70
     1
102
RTVSPost2010Prop54
  1
strokes_ogs.tif
102
RTVSPost2010PropOp54
 70
     1
102
RTVSPost2010Prop55
280
     0
102
RTVSPost2010PropOp55
 70
     1
102
RTVSPost2010Prop56
140
1.0
102
RTVSPost2010PropOp56
 70
     1
102
RTVSPost2010Prop57
140
1.0
102
RTVSPost2010PropOp57
 70
     1
102
RTVSPropertyOp0
 70
     1
102
RTVSPropertyOp1
 70
     1
102
RTVSPropertyOp2
 70
     1
102
RTVSPropertyOp3
 70
     1
102
RTVSPropertyOp4
 70
     1
102
RTVSPropertyOp5
 70
     1
102
RTVSPropertyOp6
 70
     1
102
RTVSPropertyOp7
 70
     1
102
RTVSPropertyOp8
 70
     1
102
RTVSPropertyOp9
 70
     1
102
RTVSPropertyOp10
 70
     1
102
RTVSPropertyOp11
 70
     1
102
RTVSPropertyOp12
 70
     1
102
RTVSPropertyOp13
 70
     1
102
RTVSPropertyOp14
 70
     1
102
RTVSPropertyOp15
 70
     1
102
RTVSPropertyOp16
 70
     1
102
RTVSPropertyOp17
 70
     1
102
RTVSPropertyOp18
 70
     1
102
RTVSPropertyOp19
 70
     1
102
RTVSPropertyOp20
 70
     1
102
RTVSPropertyOp21
 70
     1
102
RTVSPropertyOp22
 70
     1
102
RTVSPropertyOp23
 70
     1
102
RTVSPropertyOp24
 70
     1
102
RTVSPropertyOp25
 70
     1
102
RTVSPropertyOp26
 70
     1
102
RTVSPropertyOp27
 70
     1
102
RTVSPropertyOp28
 70
     1
102
RTVSPropertyOp29
 70
     1
102
RTVSPropertyOp30
 70
     1
102
RTVSPropertyOp31
 70
     1
102
RTVSPropertyOp32
 70
     1
102
RTVSPropertyOp33
 70
     1
102
RTVSPropertyOp34
 70
     1
102
RTVSPropertyOp35
 70
     1
102
RTVSPropertyOp36
 70
     1
102
RTVSPropertyOp37
 70
     1
102
RTVSPropertyOp38
 70
     1
102
RTVSPropertyOp39
 70
     1
102
RTVSPropertyOp40
 70
     1
102
RTVSPropertyOp41
 70
     1
102
RTVSPropertyOp42
 70
     1
102
RTVSPropertyOp43
 70
     1
102
RTVSPropertyOp44
 70
     1
102
RTVSPropertyOp45
 70
     1
102
RTVSPropertyOp46
 70
     1
102
RTVSPropertyOp47
 70
     1
102
RTVSPropertyOp48
 70
     1
102
RTVSPropertyOp49
 70
     1
102
RTVSPropertyOp50
 70
     1
102
RTVSPropertyOp51
 70
     0
102
RTVSPropertyOp52
 70
     0
102
RTVSPropertyOp53
 70
     1
102
RTVSPropertyOp54
 70
     1
102
RTVSPropertyOp55
 70
     1
102
RTVSPropertyOp56
 70
     1
102
RTVSPropertyOp57
 70
     1
102
RTVSPropertyOp58
 70
     1
102
RTVSPropertyOp59
 70
     1
102
RTVSPropertyOp60
 70
     1
102
RTVSPropertyOp61
 70
     1
102
RTVSPropertyOp62
 70
     1
  0
ENDSEC
  0
EOF
