  0
SECTION
  2
HEADER
  9
$ACADVER
  1
AC1018
  9
$ACADMAINTVER
 70
     2
  9
$DWGCODEPAGE
  3
ANSI_1252
  9
$INSBASE
 10
0.0
 20
0.0
 30
0.0
  9
$EXTMIN
 10
-0.0000000000001137
 20
-0.0000000000001137
 30
0.0
  9
$EXTMAX
 10
420.0
 20
594.0000000000002
 30
0.0
  9
$LIMMIN
 10
0.0
 20
0.0
  9
$LIMMAX
 10
419.9999999999999
 20
594.0
  9
$ORTHOMODE
 70
     1
  9
$REGENMODE
 70
     1
  9
$FILLMODE
 70
     1
  9
$QTEXTMODE
 70
     0
  9
$MIRRTEXT
 70
     1
  9
$LTSCALE
 40
20.0
  9
$ATTMODE
 70
     1
  9
$TEXTSIZE
 40
3.5
  9
$TRACEWID
 40
0.5
  9
$TEXTSTYLE
  7
STANDARD
  9
$CLAYER
  8
VOLL
  9
$CELTYPE
  6
ByLayer
  9
$CECOLOR
 62
   256
  9
$CELTSCALE
 40
1.0
  9
$DISPSILH
 70
     0
  9
$DIMSCALE
 40
2.0
  9
$DIMASZ
 40
3.5
  9
$DIMEXO
 40
1.0
  9
$DIMDLI
 40
7.0
  9
$DIMRND
 40
0.0
  9
$DIMDLE
 40
0.0
  9
$DIMEXE
 40
1.0
  9
$DIMTP
 40
0.0
  9
$DIMTM
 40
0.0
  9
$DIMTXT
 40
3.5
  9
$DIMCEN
 40
1.5
  9
$DIMTSZ
 40
0.0
  9
$DIMTOL
 70
     0
  9
$DIMLIM
 70
     0
  9
$DIMTIH
 70
     0
  9
$DIMTOH
 70
     0
  9
$DIMSE1
 70
     0
  9
$DIMSE2
 70
     0
  9
$DIMTAD
 70
     1
  9
$DIMZIN
 70
     8
  9
$DIMBLK
  1

  9
$DIMASO
 70
     1
  9
$DIMSHO
 70
     0
  9
$DIMPOST
  1

  9
$DIMAPOST
  1

  9
$DIMALT
 70
     0
  9
$DIMALTD
 70
     2
  9
$DIMALTF
 40
25.4
  9
$DIMLFAC
 40
1.0
  9
$DIMTOFL
 70
     1
  9
$DIMTVP
 40
0.0
  9
$DIMTIX
 70
     0
  9
$DIMSOXD
 70
     0
  9
$DIMSAH
 70
     0
  9
$DIMBLK1
  1

  9
$DIMBLK2
  1

  9
$DIMSTYLE
  2
Standard
  9
$DIMCLRD
 70
     0
  9
$DIMCLRE
 70
     0
  9
$DIMCLRT
 70
     1
  9
$DIMTFAC
 40
0.5142857142857144
  9
$DIMGAP
 40
1.5
  9
$DIMJUST
 70
     0
  9
$DIMSD1
 70
     0
  9
$DIMSD2
 70
     0
  9
$DIMTOLJ
 70
     1
  9
$DIMTZIN
 70
     8
  9
$DIMALTZ
 70
     8
  9
$DIMALTTZ
 70
     8
  9
$DIMUPT
 70
     0
  9
$DIMDEC
 70
     2
  9
$DIMTDEC
 70
     2
  9
$DIMALTU
 70
     2
  9
$DIMALTTD
 70
     2
  9
$DIMTXSTY
  7
STANDARD
  9
$DIMAUNIT
 70
     0
  9
$DIMADEC
 70
     2
  9
$DIMALTRND
 40
0.0
  9
$DIMAZIN
 70
     2
  9
$DIMDSEP
 70
    46
  9
$DIMATFIT
 70
     3
  9
$DIMFRAC
 70
     0
  9
$DIMLDRBLK
  1

  9
$DIMLUNIT
 70
     2
  9
$DIMLWD
 70
    -2
  9
$DIMLWE
 70
    -2
  9
$DIMTMOVE
 70
     0
  9
$LUNITS
 70
     2
  9
$LUPREC
 70
     2
  9
$SKETCHINC
 40
1.0
  9
$FILLETRAD
 40
13.2
  9
$AUNITS
 70
     0
  9
$AUPREC
 70
     0
  9
$MENU
  1
ACAD
  9
$ELEVATION
 40
0.0
  9
$PELEVATION
 40
0.0
  9
$THICKNESS
 40
0.0
  9
$LIMCHECK
 70
     0
  9
$CHAMFERA
 40
0.0
  9
$CHAMFERB
 40
0.0
  9
$CHAMFERC
 40
0.0
  9
$CHAMFERD
 40
0.0
  9
$SKPOLY
 70
     0
  9
$TDCREATE
 40
2455397.864709028
  9
$TDUCREATE
 40
2455397.781375695
  9
$TDUPDATE
 40
2456094.355384063
  9
$TDUUPDATE
 40
2456094.272050729
  9
$TDINDWG
 40
0.2148023611
  9
$TDUSRTIMER
 40
0.2148023611
  9
$USRTIMER
 70
     1
  9
$ANGBASE
 50
0.0
  9
$ANGDIR
 70
     0
  9
$PDMODE
 70
     0
  9
$PDSIZE
 40
0.0
  9
$PLINEWID
 40
0.0
  9
$SPLFRAME
 70
     0
  9
$SPLINETYPE
 70
     6
  9
$SPLINESEGS
 70
     8
  9
$HANDSEED
  5
16F5
  9
$SURFTAB1
 70
     6
  9
$SURFTAB2
 70
     6
  9
$SURFTYPE
 70
     6
  9
$SURFU
 70
     6
  9
$SURFV
 70
     6
  9
$UCSBASE
  2

  9
$UCSNAME
  2

  9
$UCSORG
 10
0.0
 20
0.0
 30
0.0
  9
$UCSXDIR
 10
1.0
 20
0.0
 30
0.0
  9
$UCSYDIR
 10
0.0
 20
1.0
 30
0.0
  9
$UCSORTHOREF
  2

  9
$UCSORTHOVIEW
 70
     0
  9
$UCSORGTOP
 10
0.0
 20
0.0
 30
0.0
  9
$UCSORGBOTTOM
 10
0.0
 20
0.0
 30
0.0
  9
$UCSORGLEFT
 10
0.0
 20
0.0
 30
0.0
  9
$UCSORGRIGHT
 10
0.0
 20
0.0
 30
0.0
  9
$UCSORGFRONT
 10
0.0
 20
0.0
 30
0.0
  9
$UCSORGBACK
 10
0.0
 20
0.0
 30
0.0
  9
$PUCSBASE
  2

  9
$PUCSNAME
  2

  9
$PUCSORG
 10
0.0
 20
0.0
 30
0.0
  9
$PUCSXDIR
 10
1.0
 20
0.0
 30
0.0
  9
$PUCSYDIR
 10
0.0
 20
1.0
 30
0.0
  9
$PUCSORTHOREF
  2

  9
$PUCSORTHOVIEW
 70
     0
  9
$PUCSORGTOP
 10
0.0
 20
0.0
 30
0.0
  9
$PUCSORGBOTTOM
 10
0.0
 20
0.0
 30
0.0
  9
$PUCSORGLEFT
 10
0.0
 20
0.0
 30
0.0
  9
$PUCSORGRIGHT
 10
0.0
 20
0.0
 30
0.0
  9
$PUCSORGFRONT
 10
0.0
 20
0.0
 30
0.0
  9
$PUCSORGBACK
 10
0.0
 20
0.0
 30
0.0
  9
$USERI1
 70
     0
  9
$USERI2
 70
     0
  9
$USERI3
 70
     0
  9
$USERI4
 70
     0
  9
$USERI5
 70
     0
  9
$USERR1
 40
0.0
  9
$USERR2
 40
0.0
  9
$USERR3
 40
0.0
  9
$USERR4
 40
0.0
  9
$USERR5
 40
0.0
  9
$WORLDVIEW
 70
     1
  9
$SHADEDGE
 70
     3
  9
$SHADEDIF
 70
    70
  9
$TILEMODE
 70
     1
  9
$MAXACTVP
 70
    16
  9
$PINSBASE
 10
0.0
 20
0.0
 30
0.0
  9
$PLIMCHECK
 70
     0
  9
$PEXTMIN
 10
1.000000000000000E+20
 20
1.000000000000000E+20
 30
1.000000000000000E+20
  9
$PEXTMAX
 10
-1.000000000000000E+20
 20
-1.000000000000000E+20
 30
-1.000000000000000E+20
  9
$PLIMMIN
 10
0.0
 20
0.0
  9
$PLIMMAX
 10
12.0
 20
9.0
  9
$UNITMODE
 70
     0
  9
$VISRETAIN
 70
     0
  9
$PLINEGEN
 70
     0
  9
$PSLTSCALE
 70
     0
  9
$TREEDEPTH
 70
  3020
  9
$CMLSTYLE
  2
Standard
  9
$CMLJUST
 70
     0
  9
$CMLSCALE
 40
1.0
  9
$PROXYGRAPHICS
 70
     1
  9
$MEASUREMENT
 70
     0
  9
$CELWEIGHT
370
    -1
  9
$ENDCAPS
280
     0
  9
$JOINSTYLE
280
     0
  9
$LWDISPLAY
290
     0
  9
$INSUNITS
 70
     0
  9
$HYPERLINKBASE
  1

  9
$STYLESHEET
  1
monochrome 1.ctb
  9
$XEDIT
290
     1
  9
$CEPSNTYPE
380
     0
  9
$PSTYLEMODE
290
     1
  9
$FINGERPRINTGUID
  2
{D68B0D02-A558-11D7-B632-000102183313}
  9
$VERSIONGUID
  2
{EEA053E7-D93B-422C-B2C9-13E009C7C511}
  9
$EXTNAMES
290
     1
  9
$PSVPSCALE
 40
0.0
  9
$OLESTARTUP
290
     0
  9
$SORTENTS
280
   127
  9
$INDEXCTL
280
     0
  9
$HIDETEXT
280
     0
  9
$XCLIPFRAME
290
     0
  9
$HALOGAP
280
     0
  9
$OBSCOLOR
 70
   257
  9
$OBSLTYPE
280
     0
  9
$INTERSECTIONDISPLAY
280
     0
  9
$INTERSECTIONCOLOR
 70
   257
  9
$DIMASSOC
280
     1
  9
$PROJECTNAME
  1

  0
ENDSEC
  0
SECTION
  2
CLASSES
  0
CLASS
  1
ACDBDICTIONARYWDFLT
  2
AcDbDictionaryWithDefault
  3
ObjectDBX Classes
 90
        0
 91
        1
280
     0
281
     0
  0
CLASS
  1
DICTIONARYVAR
  2
AcDbDictionaryVar
  3
ObjectDBX Classes
 90
        0
 91
        2
280
     0
281
     0
  0
ENDSEC
  0
SECTION
  2
TABLES
  0
TABLE
  2
VPORT
  5
8
330
0
100
AcDbSymbolTable
 70
     3
  0
VPORT
  5
16F4
330
8
100
AcDbSymbolTableRecord
100
AcDbViewportTableRecord
  2
*Active
 70
     0
 10
0.0
 20
0.0
 11
1.0
 21
1.0
 12
210.0
 22
297.0
 13
0.0
 23
0.0
 14
1.0
 24
1.0
 15
10.0
 25
10.0
 16
0.0
 26
0.0
 36
1.0
 17
0.0
 27
0.0
 37
0.0
 40
594.2933702130942
 41
1.374331550802138
 42
50.0
 43
0.0
 44
0.0
 50
0.0
 51
0.0
 71
     0
 72
  1500
 73
     1
 74
     0
 75
     0
 76
     0
 77
     0
 78
     0
281
     0
 65
     1
110
0.0
120
0.0
130
0.0
111
1.0
121
0.0
131
0.0
112
0.0
122
1.0
132
0.0
 79
     0
146
0.0
  0
ENDTAB
  0
TABLE
  2
LTYPE
  5
5
330
0
100
AcDbSymbolTable
 70
     2
  0
LTYPE
  5
13
330
5
100
AcDbSymbolTableRecord
100
AcDbLinetypeTableRecord
  2
ByBlock
 70
     0
  3

 72
    65
 73
     0
 40
0.0
  0
LTYPE
  5
14
330
5
100
AcDbSymbolTableRecord
100
AcDbLinetypeTableRecord
  2
ByLayer
 70
     0
  3

 72
    65
 73
     0
 40
0.0
  0
LTYPE
  5
15
330
5
100
AcDbSymbolTableRecord
100
AcDbLinetypeTableRecord
  2
Continuous
 70
     0
  3
Solid line
 72
    65
 73
     0
 40
0.0
  0
LTYPE
  5
25
330
5
100
AcDbSymbolTableRecord
100
AcDbLinetypeTableRecord
  2
STRICHPUNKT
 70
     0
  3
__ . __ . __ . __ . __ . __ . __ . __ . __ . __
 72
    65
 73
     4
 40
1.0
 49
0.5
 74
     0
 49
-0.25
 74
     0
 49
0.0
 74
     0
 49
-0.25
 74
     0
  0
ENDTAB
  0
TABLE
  2
LAYER
  5
2
330
0
100
AcDbSymbolTable
 70
     9
  0
LAYER
  5
10
330
2
100
AcDbSymbolTableRecord
100
AcDbLayerTableRecord
  2
0
 70
     0
 62
     7
  6
Continuous
370
    -3
390
F
  0
LAYER
  5
2A
330
2
100
AcDbSymbolTableRecord
100
AcDbLayerTableRecord
  2
VOLL
 70
     0
 62
     1
  6
Continuous
370
    -3
390
F
  0
LAYER
  5
2B
330
2
100
AcDbSymbolTableRecord
100
AcDbLayerTableRecord
  2
HILF
 70
     0
 62
     2
  6
Continuous
370
    -3
390
F
  0
LAYER
  5
2C
330
2
100
AcDbSymbolTableRecord
100
AcDbLayerTableRecord
  2
MITTEL
 70
     0
 62
     2
  6
STRICHPUNKT
370
    -3
390
F
  0
LAYER
  5
2F
330
2
100
AcDbSymbolTableRecord
100
AcDbLayerTableRecord
  2
BEM
 70
     0
 62
     7
  6
Continuous
370
    -3
390
F
  0
LAYER
  5
30
330
2
100
AcDbSymbolTableRecord
100
AcDbLayerTableRecord
  2
STEMPEL
 70
     0
 62
     3
  6
Continuous
370
    -3
390
F
  0
LAYER
  5
31
330
2
100
AcDbSymbolTableRecord
100
AcDbLayerTableRecord
  2
TEXT
 70
     0
 62
     7
  6
Continuous
370
    -3
390
F
  0
LAYER
  5
4E8
330
2
100
AcDbSymbolTableRecord
100
AcDbLayerTableRecord
  2
DEFPOINTS
 70
     0
 62
     7
  6
Continuous
290
     0
370
    -3
390
F
  0
LAYER
  5
4E9
330
2
100
AcDbSymbolTableRecord
100
AcDbLayerTableRecord
  2
SCHRAFF
 70
     0
 62
     7
  6
Continuous
370
    -3
390
F
  0
ENDTAB
  0
TABLE
  2
STYLE
  5
3
330
0
100
AcDbSymbolTable
 70
     2
  0
STYLE
  5
11
330
3
100
AcDbSymbolTableRecord
100
AcDbTextStyleTableRecord
  2
STANDARD
 70
     0
 40
0.0
 41
0.8
 50
0.0
 71
     0
 42
3.5
  3
simplex.shx
  4

  0
STYLE
  5
24
330
3
100
AcDbSymbolTableRecord
100
AcDbTextStyleTableRecord
  2
GREEKS
 70
     0
 40
0.0
 41
0.8
 50
0.0
 71
     0
 42
2.5
  3
SIMPLEX.shx
  4

  0
ENDTAB
  0
TABLE
  2
VIEW
  5
6
330
0
100
AcDbSymbolTable
 70
     0
  0
ENDTAB
  0
TABLE
  2
UCS
  5
7
330
0
100
AcDbSymbolTable
 70
     0
  0
ENDTAB
  0
TABLE
  2
APPID
  5
9
330
0
100
AcDbSymbolTable
 70
     1
  0
APPID
  5
12
330
9
100
AcDbSymbolTableRecord
100
AcDbRegAppTableRecord
  2
ACAD
 70
     0
  0
ENDTAB
  0
TABLE
  2
DIMSTYLE
  5
A
330
0
100
AcDbSymbolTable
 70
     1
100
AcDbDimStyleTable
 71
     1
340
9D
  0
DIMSTYLE
105
9D
102
{ACAD_REACTORS
330
DF8
330
116B
330
E84
102
}
330
A
100
AcDbSymbolTableRecord
100
AcDbDimStyleTableRecord
  2
Standard
 70
     0
340
11
  0
ENDTAB
  0
TABLE
  2
BLOCK_RECORD
  5
1
330
0
100
AcDbSymbolTable
 70
     4
  0
BLOCK_RECORD
  5
1E
102
{ACAD_XDICTIONARY
360
A0
102
}
330
1
100
AcDbSymbolTableRecord
100
AcDbBlockTableRecord
  2
*Model_Space
340
21
  0
BLOCK_RECORD
  5
1A
102
{ACAD_XDICTIONARY
360
A2
102
}
330
1
100
AcDbSymbolTableRecord
100
AcDbBlockTableRecord
  2
*Paper_Space
340
1D
  0
BLOCK_RECORD
  5
22
330
1
100
AcDbSymbolTableRecord
100
AcDbBlockTableRecord
  2
LOGO
340
0
102
{BLKREFS
331
9B
102
}
  0
BLOCK_RECORD
  5
ECC
330
1
100
AcDbSymbolTableRecord
100
AcDbBlockTableRecord
  2
*D1
340
0
  0
BLOCK_RECORD
  5
F00
330
1
100
AcDbSymbolTableRecord
100
AcDbBlockTableRecord
  2
*D2
340
0
  0
BLOCK_RECORD
  5
116C
330
1
100
AcDbSymbolTableRecord
100
AcDbBlockTableRecord
  2
*D3
340
0
  0
ENDTAB
  0
ENDSEC
  0
SECTION
  2
BLOCKS
  0
BLOCK
  5
35
330
1E
100
AcDbEntity
  8
0
100
AcDbBlockBegin
  2
*Model_Space
 70
     0
 10
0.0
 20
0.0
 30
0.0
  3
*Model_Space
  1

  0
ENDBLK
  5
36
330
1E
100
AcDbEntity
  8
0
100
AcDbBlockEnd
  0
BLOCK
  5
33
330
1A
100
AcDbEntity
 67
     1
  8
0
100
AcDbBlockBegin
  2
*Paper_Space
 70
     0
 10
0.0
 20
0.0
 30
0.0
  3
*Paper_Space
  1

  0
ENDBLK
  5
34
330
1A
100
AcDbEntity
 67
     1
  8
0
100
AcDbBlockEnd
  0
BLOCK
  5
37
330
22
100
AcDbEntity
  8
0
100
AcDbBlockBegin
  2
LOGO
 70
     0
 10
0.0
 20
0.0
 30
0.0
  3
LOGO
  1

  0
ARC
  5
38
330
22
100
AcDbEntity
  8
0
100
AcDbCircle
 10
11.59973089678112
 20
-9.271599258481501
 30
0.0
 40
4.5
100
AcDbArc
 50
270.0
 51
231.0575587310159
  0
LINE
  5
39
330
22
100
AcDbEntity
  8
0
100
AcDbLine
 10
3.599730896781125
 20
-4.771599258481529
 30
0.0
 11
3.599730896781153
 21
-11.77159925848133
 31
0.0
  0
LINE
  5
3A
330
22
100
AcDbEntity
  8
0
100
AcDbLine
 10
2.599730896781125
 20
-4.771599258481529
 30
0.0
 11
2.599730896781153
 21
-11.77159925848133
 31
0.0
  0
CIRCLE
  5
3B
330
22
100
AcDbEntity
  8
0
100
AcDbCircle
 10
11.59973089678112
 20
-9.271599258481501
 30
0.0
 40
3.5
  0
ARC
  5
3C
330
22
100
AcDbEntity
  8
0
100
AcDbCircle
 10
31.59973089678115
 20
-9.271599258481472
 30
0.0
 40
4.5
100
AcDbArc
 50
270.0
 51
231.0575587310182
  0
LINE
  5
3D
330
22
100
AcDbEntity
  8
0
100
AcDbLine
 10
17.59973089678112
 20
-4.771599258481472
 30
0.0
 11
17.59973089678115
 21
-13.77159925848147
 31
0.0
  0
ARC
  5
3E
330
22
100
AcDbEntity
  8
0
100
AcDbCircle
 10
22.59973089678116
 20
-7.271599258481472
 30
0.0
 40
2.5
100
AcDbArc
 50
293.1161887722295
 51
90.0
  0
CIRCLE
  5
3F
330
22
100
AcDbEntity
  8
0
100
AcDbCircle
 10
31.59973089678115
 20
-9.271599258481472
 30
0.0
 40
3.5
  0
ARC
  5
40
330
22
100
AcDbEntity
  8
0
100
AcDbCircle
 10
4.599730896781153
 20
-11.77159925848133
 30
0.0
 40
1.0
100
AcDbArc
 50
180.0
 51
270.0
  0
ARC
  5
41
330
22
100
AcDbEntity
  8
0
100
AcDbCircle
 10
4.599730896781153
 20
-11.77159925848133
 30
0.0
 40
2.0
100
AcDbArc
 50
179.9999999999992
 51
270.0
  0
LINE
  5
42
330
22
100
AcDbEntity
  8
0
100
AcDbLine
 10
11.59973089678115
 20
-13.77159925848144
 30
0.0
 11
4.599730896781153
 21
-13.77159925848147
 31
0.0
  0
LINE
  5
43
330
22
100
AcDbEntity
  8
0
100
AcDbLine
 10
8.771303772034769
 20
-12.77159925848136
 30
0.0
 11
4.599730896781153
 21
-12.77159925848133
 31
0.0
  0
LINE
  5
44
330
22
100
AcDbEntity
  8
0
100
AcDbLine
 10
31.59973089678115
 20
-13.77159925848147
 30
0.0
 11
23.6715276665056
 21
-13.77159925848144
 31
0.0
  0
LINE
  5
45
330
22
100
AcDbEntity
  8
0
100
AcDbLine
 10
23.56565672307022
 20
-9.51278021337896
 30
0.0
 11
24.4388546544846
 21
-12.77159925848144
 31
0.0
  0
LINE
  5
46
330
22
100
AcDbEntity
  8
0
100
AcDbLine
 10
22.59973089678116
 20
-9.771599258481472
 30
0.0
 11
18.59973089678112
 21
-9.771599258481472
 31
0.0
  0
LINE
  5
47
330
22
100
AcDbEntity
  8
0
100
AcDbLine
 10
18.59973089678115
 20
-13.77159925848144
 30
0.0
 11
17.59973089678115
 21
-13.77159925848144
 31
0.0
  0
LINE
  5
48
330
22
100
AcDbEntity
  8
0
100
AcDbLine
 10
18.59973089678115
 20
-9.771599258481472
 30
0.0
 11
18.59973089678115
 21
-13.77159925848144
 31
0.0
  0
LINE
  5
49
330
22
100
AcDbEntity
  8
0
100
AcDbLine
 10
22.59973089678116
 20
-9.771599258481472
 30
0.0
 11
23.67152766650562
 21
-13.77159925848147
 31
0.0
  0
ARC
  5
4A
330
22
100
AcDbEntity
  8
0
100
AcDbCircle
 10
22.59973089678116
 20
-7.271599258481472
 30
0.0
 40
2.5
100
AcDbArc
 50
270.0
 51
270.0000000000007
  0
LINE
  5
4B
330
22
100
AcDbEntity
  8
0
100
AcDbLine
 10
28.77130377203494
 20
-12.77159925848147
 30
0.0
 11
24.43885465448463
 21
-12.77159925848144
 31
0.0
  0
LINE
  5
4C
330
22
100
AcDbEntity
  8
0
100
AcDbLine
 10
3.599730896781125
 20
-4.771599258481472
 30
0.0
 11
2.599730896781125
 21
-4.771599258481472
 31
0.0
  0
LINE
  5
4D
330
22
100
AcDbEntity
  8
0
100
AcDbLine
 10
22.59973089678116
 20
-8.771599258481472
 30
0.0
 11
18.59973089678115
 21
-8.771599258481472
 31
0.0
  0
LINE
  5
4E
330
22
100
AcDbEntity
  8
0
100
AcDbLine
 10
22.59973089678116
 20
-5.771599258481472
 30
0.0
 11
18.59973089678115
 21
-5.771599258481472
 31
0.0
  0
LINE
  5
4F
330
22
100
AcDbEntity
  8
0
100
AcDbLine
 10
22.59973089678116
 20
-4.771599258481472
 30
0.0
 11
17.59973089678115
 21
-4.771599258481472
 31
0.0
  0
LINE
  5
50
330
22
100
AcDbEntity
  8
0
100
AcDbLine
 10
18.59973089678115
 20
-5.771599258481472
 30
0.0
 11
18.59973089678115
 21
-8.771599258481472
 31
0.0
  0
ARC
  5
51
330
22
100
AcDbEntity
  8
0
100
AcDbCircle
 10
22.59973089678116
 20
-7.271599258481472
 30
0.0
 40
1.5
100
AcDbArc
 50
270.0
 51
90.0
  0
ENDBLK
  5
52
330
22
100
AcDbEntity
  8
0
100
AcDbBlockEnd
  0
BLOCK
  5
ED7
330
ECC
100
AcDbEntity
  8
0
100
AcDbBlockBegin
  2
*D1
 70
     1
 10
0.0
 20
0.0
 30
0.0
  3
*D1
  1

  0
LINE
  5
16CB
330
ECC
100
AcDbEntity
  8
BEM
 62
     0
370
    -2
100
AcDbLine
 10
73.42343682469754
 20
446.9938426144674
 30
0.0
 11
73.42343682469754
 21
459.5766107755279
 31
0.0
  0
LINE
  5
16CC
330
ECC
100
AcDbEntity
  8
BEM
 62
     0
370
    -2
100
AcDbLine
 10
365.4234368246975
 20
446.9938426144674
 30
0.0
 11
365.4234368246975
 21
459.5766107755279
 31
0.0
  0
LINE
  5
16CD
330
ECC
100
AcDbEntity
  8
BEM
 62
     0
370
    -2
100
AcDbLine
 10
80.42343682469754
 20
457.576610775528
 30
0.0
 11
358.4234368246975
 21
457.576610775528
 31
0.0
  0
SOLID
  5
16CE
330
ECC
100
AcDbEntity
  8
BEM
 62
     0
100
AcDbTrace
 10
80.42343682469754
 20
458.7432774421946
 30
0.0
 11
80.42343682469754
 21
456.4099441088613
 31
0.0
 12
73.42343682469754
 22
457.576610775528
 32
0.0
 13
73.42343682469754
 23
457.576610775528
 33
0.0
  0
SOLID
  5
16CF
330
ECC
100
AcDbEntity
  8
BEM
 62
     0
100
AcDbTrace
 10
358.4234368246975
 20
458.7432774421946
 30
0.0
 11
358.4234368246975
 21
456.4099441088613
 31
0.0
 12
365.4234368246975
 22
457.576610775528
 32
0.0
 13
365.4234368246975
 23
457.576610775528
 33
0.0
  0
MTEXT
  5
16D0
330
ECC
100
AcDbEntity
  8
BEM
 62
     1
100
AcDbMText
 10
219.4234368246975
 20
464.0766107755279
 30
0.0
 40
7.0
 41
0.0
 71
     5
 72
     1
  1
\A1;%%C292
 73
     1
 44
1.0
  0
POINT
  5
16D1
330
ECC
100
AcDbEntity
  8
DEFPOINTS
 62
     0
100
AcDbPoint
 10
73.42343682469754
 20
444.9938426144674
 30
0.0
  0
POINT
  5
16D2
330
ECC
100
AcDbEntity
  8
DEFPOINTS
 62
     0
100
AcDbPoint
 10
365.4234368246975
 20
444.9938426144674
 30
0.0
  0
POINT
  5
16D3
330
ECC
100
AcDbEntity
  8
DEFPOINTS
 62
     0
100
AcDbPoint
 10
365.4234368246975
 20
457.576610775528
 30
0.0
  0
ENDBLK
  5
ED8
330
ECC
100
AcDbEntity
  8
0
100
AcDbBlockEnd
  0
BLOCK
  5
F0B
330
F00
100
AcDbEntity
  8
0
100
AcDbBlockBegin
  2
*D2
 70
     1
 10
0.0
 20
0.0
 30
0.0
  3
*D2
  1

  0
LINE
  5
16C2
330
F00
100
AcDbEntity
  8
BEM
 62
     0
370
    -2
100
AcDbLine
 10
192.9234368246976
 20
197.9938426144674
 30
0.0
 11
192.9234368246976
 21
174.9883075610571
 31
0.0
  0
LINE
  5
16C3
330
F00
100
AcDbEntity
  8
BEM
 62
     0
370
    -2
100
AcDbLine
 10
245.9234368246977
 20
197.9938426144674
 30
0.0
 11
245.9234368246977
 21
174.9883075610571
 31
0.0
  0
LINE
  5
16C4
330
F00
100
AcDbEntity
  8
BEM
 62
     0
370
    -2
100
AcDbLine
 10
199.9234368246976
 20
176.9883075610571
 30
0.0
 11
238.9234368246976
 21
176.9883075610571
 31
0.0
  0
SOLID
  5
16C5
330
F00
100
AcDbEntity
  8
BEM
 62
     0
100
AcDbTrace
 10
199.9234368246976
 20
178.1549742277238
 30
0.0
 11
199.9234368246976
 21
175.8216408943904
 31
0.0
 12
192.9234368246976
 22
176.9883075610571
 32
0.0
 13
192.9234368246976
 23
176.9883075610571
 33
0.0
  0
SOLID
  5
16C6
330
F00
100
AcDbEntity
  8
BEM
 62
     0
100
AcDbTrace
 10
238.9234368246976
 20
178.1549742277238
 30
0.0
 11
238.9234368246976
 21
175.8216408943904
 31
0.0
 12
245.9234368246977
 22
176.9883075610571
 32
0.0
 13
245.9234368246977
 23
176.9883075610571
 33
0.0
  0
MTEXT
  5
16C7
330
F00
100
AcDbEntity
  8
BEM
 62
     1
100
AcDbMText
 10
219.4234368246977
 20
183.4883075610571
 30
0.0
 40
7.0
 41
0.0
 71
     5
 72
     1
  1
\A1;%%C53
 73
     1
 44
1.0
  0
POINT
  5
16C8
330
F00
100
AcDbEntity
  8
DEFPOINTS
 62
     0
100
AcDbPoint
 10
192.9234368246976
 20
199.9938426144674
 30
0.0
  0
POINT
  5
16C9
330
F00
100
AcDbEntity
  8
DEFPOINTS
 62
     0
100
AcDbPoint
 10
245.9234368246977
 20
199.9938426144674
 30
0.0
  0
POINT
  5
16CA
330
F00
100
AcDbEntity
  8
DEFPOINTS
 62
     0
100
AcDbPoint
 10
245.9234368246977
 20
176.9883075610571
 30
0.0
  0
ENDBLK
  5
F0C
330
F00
100
AcDbEntity
  8
0
100
AcDbBlockEnd
  0
BLOCK
  5
1176
330
116C
100
AcDbEntity
  8
0
100
AcDbBlockBegin
  2
*D3
 70
     1
 10
0.0
 20
0.0
 30
0.0
  3
*D3
  1

  0
LINE
  5
16B9
330
116C
100
AcDbEntity
  8
BEM
 62
     0
370
    -2
100
AcDbLine
 10
71.42343682469754
 20
444.9938426144674
 30
0.0
 11
58.00732373122176
 21
444.9938426144674
 31
0.0
  0
LINE
  5
16BA
330
116C
100
AcDbEntity
  8
BEM
 62
     0
370
    -2
100
AcDbLine
 10
191.3608801423272
 20
194.9938426144675
 30
0.0
 11
58.00732373122169
 21
194.9938426144675
 31
0.0
  0
LINE
  5
16BB
330
116C
100
AcDbEntity
  8
BEM
 62
     0
370
    -2
100
AcDbLine
 10
60.00732373122175
 20
437.9938426144674
 30
0.0
 11
60.0073237312217
 21
201.9938426144676
 31
0.0
  0
SOLID
  5
16BC
330
116C
100
AcDbEntity
  8
BEM
 62
     0
100
AcDbTrace
 10
58.84065706455509
 20
437.9938426144674
 30
0.0
 11
61.17399039788843
 21
437.9938426144674
 31
0.0
 12
60.00732373122175
 22
444.9938426144674
 32
0.0
 13
60.00732373122175
 23
444.9938426144674
 33
0.0
  0
SOLID
  5
16BD
330
116C
100
AcDbEntity
  8
BEM
 62
     0
100
AcDbTrace
 10
58.84065706455504
 20
201.9938426144676
 30
0.0
 11
61.17399039788836
 21
201.9938426144676
 31
0.0
 12
60.0073237312217
 22
194.9938426144675
 32
0.0
 13
60.0073237312217
 23
194.9938426144675
 33
0.0
  0
MTEXT
  5
16BE
330
116C
100
AcDbEntity
  8
BEM
 62
     1
100
AcDbMText
 10
53.50732373122168
 20
319.9938426144675
 30
0.0
 40
7.0
 41
0.0
 71
     5
 72
     1
  1
\A1;250
 11
0.0000000000000001
 21
1.0
 31
0.0
 73
     1
 44
1.0
  0
POINT
  5
16BF
330
116C
100
AcDbEntity
  8
DEFPOINTS
 62
     0
100
AcDbPoint
 10
73.42343682469754
 20
444.9938426144674
 30
0.0
  0
POINT
  5
16C0
330
116C
100
AcDbEntity
  8
DEFPOINTS
 62
     0
100
AcDbPoint
 10
193.3608801423272
 20
194.9938426144675
 30
0.0
  0
POINT
  5
16C1
330
116C
100
AcDbEntity
  8
DEFPOINTS
 62
     0
100
AcDbPoint
 10
60.0073237312217
 20
194.9938426144675
 30
0.0
  0
ENDBLK
  5
1177
330
116C
100
AcDbEntity
  8
0
100
AcDbBlockEnd
  0
ENDSEC
  0
SECTION
  2
ENTITIES
  0
LINE
  5
57
330
1E
100
AcDbEntity
  8
STEMPEL
100
AcDbLine
 10
410.0
 20
110.0
 30
0.0
 11
39.99999999999997
 21
110.0
 31
0.0
  0
LINE
  5
58
330
1E
100
AcDbEntity
  8
STEMPEL
100
AcDbLine
 10
136.0000000000001
 20
109.9999999999999
 30
0.0
 11
136.0
 21
9.999999999999971
 31
0.0
  0
LINE
  5
59
330
1E
100
AcDbEntity
  8
STEMPEL
100
AcDbLine
 10
220.0
 20
110.0
 30
0.0
 11
220.0
 21
9.999999999999971
 31
0.0
  0
LINE
  5
5A
330
1E
100
AcDbEntity
  8
STEMPEL
100
AcDbLine
 10
332.0
 20
109.9999999999997
 30
0.0
 11
332.0
 21
40.0
 31
0.0
  0
LINE
  5
5B
330
1E
100
AcDbEntity
  8
STEMPEL
100
AcDbLine
 10
135.9999999999999
 20
29.99999999999997
 30
0.0
 11
39.99999999999997
 21
29.99999999999997
 31
0.0
  0
LINE
  5
5C
330
1E
100
AcDbEntity
  8
STEMPEL
100
AcDbLine
 10
410.0
 20
40.0
 30
0.0
 11
136.0000000000001
 21
39.99999999999997
 31
0.0
  0
LINE
  5
5D
330
1E
100
AcDbEntity
  8
STEMPEL
100
AcDbLine
 10
410.0
 20
80.0
 30
0.0
 11
136.0000000000001
 21
79.99999999999994
 31
0.0
  0
LINE
  5
5E
330
1E
100
AcDbEntity
  8
VOLL
100
AcDbLine
 10
54.00000000000009
 20
110.0
 30
0.0
 11
53.99999999999997
 21
9.999999999999971
 31
0.0
  0
LINE
  5
5F
330
1E
100
AcDbEntity
  8
VOLL
100
AcDbLine
 10
94.00000000000011
 20
109.9999999999999
 30
0.0
 11
94.0
 21
9.999999999999971
 31
0.0
  0
LINE
  5
60
330
1E
100
AcDbEntity
  8
VOLL
100
AcDbLine
 10
114.0000000000001
 20
109.9999999999999
 30
0.0
 11
114.0
 21
9.999999999999971
 31
0.0
  0
LINE
  5
61
330
1E
100
AcDbEntity
  8
VOLL
100
AcDbLine
 10
154.0000000000001
 20
79.99999999999994
 30
0.0
 11
154.0000000000001
 21
39.99999999999997
 31
0.0
  0
LINE
  5
62
330
1E
100
AcDbEntity
  8
VOLL
100
AcDbLine
 10
180.0000000000001
 20
109.9999999999998
 30
0.0
 11
180.0
 21
39.99999999999997
 31
0.0
  0
LINE
  5
63
330
1E
100
AcDbEntity
  8
HILF
100
AcDbLine
 10
40.00000000000008
 20
100.0
 30
0.0
 11
136.0000000000001
 21
100.0
 31
0.0
  0
LINE
  5
64
330
1E
100
AcDbEntity
  8
HILF
100
AcDbLine
 10
40.00000000000008
 20
90.00000000000005
 30
0.0
 11
136.0000000000001
 21
90.00000000000005
 31
0.0
  0
LINE
  5
65
330
1E
100
AcDbEntity
  8
HILF
100
AcDbLine
 10
40.00000000000008
 20
79.99999999999994
 30
0.0
 11
136.0000000000001
 21
79.99999999999994
 31
0.0
  0
LINE
  5
66
330
1E
100
AcDbEntity
  8
HILF
100
AcDbLine
 10
40.00000000000008
 20
69.99999999999994
 30
0.0
 11
136.0000000000001
 21
69.99999999999994
 31
0.0
  0
LINE
  5
67
330
1E
100
AcDbEntity
  8
HILF
100
AcDbLine
 10
40.00000000000008
 20
59.99999999999997
 30
0.0
 11
136.0000000000001
 21
59.99999999999997
 31
0.0
  0
LINE
  5
68
330
1E
100
AcDbEntity
  8
HILF
100
AcDbLine
 10
40.00000000000008
 20
49.99999999999997
 30
0.0
 11
136.0000000000001
 21
49.99999999999997
 31
0.0
  0
LINE
  5
69
330
1E
100
AcDbEntity
  8
HILF
100
AcDbLine
 10
40.00000000000008
 20
39.99999999999997
 30
0.0
 11
136.0000000000001
 21
39.99999999999997
 31
0.0
  0
LINE
  5
6A
330
1E
100
AcDbEntity
  8
HILF
100
AcDbLine
 10
136.0000000000001
 20
69.99999999999994
 30
0.0
 11
220.0
 21
69.99999999999994
 31
0.0
  0
LINE
  5
6B
330
1E
100
AcDbEntity
  8
HILF
100
AcDbLine
 10
136.0000000000001
 20
59.99999999999997
 30
0.0
 11
220.0
 21
59.99999999999997
 31
0.0
  0
LINE
  5
6C
330
1E
100
AcDbEntity
  8
HILF
100
AcDbLine
 10
136.0000000000001
 20
49.99999999999997
 30
0.0
 11
220.0
 21
49.99999999999997
 31
0.0
  0
LINE
  5
6D
330
1E
100
AcDbEntity
  8
HILF
100
AcDbLine
 10
224.7736801096948
 20
84.03758247564139
 30
0.0
 11
324.8353916556311
 21
84.03758247564139
 31
0.0
  0
LINE
  5
6E
330
1E
100
AcDbEntity
  8
HILF
100
AcDbLine
 10
224.7736801096948
 20
69.99999999999994
 30
0.0
 11
324.835391655631
 21
69.99999999999994
 31
0.0
  0
LINE
  5
6F
330
1E
100
AcDbEntity
  8
HILF
100
AcDbLine
 10
224.7736801096948
 20
59.99999999999997
 30
0.0
 11
324.835391655631
 21
59.99999999999997
 31
0.0
  0
LINE
  5
70
330
1E
100
AcDbEntity
  8
HILF
100
AcDbLine
 10
224.7736801096948
 20
49.99999999999997
 30
0.0
 11
324.835391655631
 21
49.99999999999997
 31
0.0
  0
LINE
  5
71
330
1E
100
AcDbEntity
  8
VOLL
100
AcDbLine
 10
332.0
 20
60.0
 30
0.0
 11
410.0
 21
60.0
 31
0.0
  0
LINE
  5
72
330
1E
100
AcDbEntity
  8
HILF
100
AcDbLine
 10
336.7238616296993
 20
83.77983636955827
 30
0.0
 11
404.8588839326728
 21
83.77983636955827
 31
0.0
  0
LINE
  5
73
330
1E
100
AcDbEntity
  8
HILF
100
AcDbLine
 10
223.4909699289885
 20
14.89398258028314
 30
0.0
 11
404.8588839326728
 21
14.89398258028314
 31
0.0
  0
TEXT
  5
74
330
1E
100
AcDbEntity
  8
TEXT
100
AcDbText
 10
63.86165979631819
 20
18.67381894984132
 30
0.0
 40
4.0
  1
Änderung
 41
0.8
  7
GREEKS
 72
     1
 11
74.60451693917534
 21
18.67381894984132
 31
0.0
100
AcDbText
  0
TEXT
  5
75
330
1E
100
AcDbEntity
  8
TEXT
100
AcDbText
 10
143.5163572150377
 20
102.4620895087088
 30
0.0
 40
5.0
  1
Maßstab
 41
0.8
  7
GREEKS
100
AcDbText
  0
TEXT
  5
76
330
1E
100
AcDbEntity
  8
TEXT
100
AcDbText
 10
184.2858954734051
 20
102.4184168434819
 30
0.0
 40
5.0
  1
Zul. Abw.
 41
0.8
  7
GREEKS
100
AcDbText
  0
TEXT
  5
77
330
1E
100
AcDbEntity
  8
TEXT
100
AcDbText
 10
224.877940380901
 20
102.5489328011779
 30
0.0
 40
5.0
  1
Benennung
 41
0.8
  7
GREEKS
100
AcDbText
  0
TEXT
  5
78
330
1E
100
AcDbEntity
  8
TEXT
100
AcDbText
 10
336.178754957634
 20
102.3132034537136
 30
0.0
 40
5.0
  1
Zeichnungs Nr.
 41
0.8
  7
GREEKS
100
AcDbText
  0
TEXT
  5
79
330
1E
100
AcDbEntity
  8
TEXT
100
AcDbText
 10
224.742238391136
 20
30.84560570193057
 30
0.0
 40
5.0
  1
Bauvorhaben
 41
0.8
  7
GREEKS
100
AcDbText
  0
TEXT
  5
7A
330
1E
100
AcDbEntity
  8
TEXT
100
AcDbText
 10
336.7238616296993
 20
73.1811823709997
 30
0.0
 40
5.0
  1
Ersatz für:
 41
0.8
  7
GREEKS
100
AcDbText
  0
TEXT
  5
7B
330
1E
100
AcDbEntity
  8
TEXT
100
AcDbText
 10
48.26641107045756
 20
13.65465846027192
 30
0.0
 40
4.0
  1
Index
 50
90.0
 41
0.8
  7
GREEKS
100
AcDbText
  0
TEXT
  5
7C
330
1E
100
AcDbEntity
  8
TEXT
100
AcDbText
 10
100.0934676075481
 20
18.6715626933981
 30
0.0
 40
4.0
  1
Tag
 41
0.8
  7
GREEKS
 72
     1
 11
103.8268009408814
 21
18.6715626933981
 31
0.0
100
AcDbText
  0
TEXT
  5
7D
330
1E
100
AcDbEntity
  8
TEXT
100
AcDbText
 10
119.0122744386592
 20
18.59324216966408
 30
0.0
 40
4.0
  1
Name
 41
0.8
  7
GREEKS
 72
     1
 11
125.3360839624688
 21
18.59324216966408
 31
0.0
100
AcDbText
  0
TEXT
  5
7E
330
1E
100
AcDbEntity
  8
TEXT
100
AcDbText
 10
162.3311673153651
 20
73.31880501229926
 30
0.0
 40
4.0
  1
Tag
 41
0.8
  7
GREEKS
100
AcDbText
  0
TEXT
  5
7F
330
1E
100
AcDbEntity
  8
TEXT
100
AcDbText
 10
192.4626584226295
 20
73.30961091915225
 30
0.0
 40
4.0
  1
Name
 41
0.8
  7
GREEKS
100
AcDbText
  0
TEXT
  5
80
330
1E
100
AcDbEntity
  8
TEXT
100
AcDbText
 10
137.5836127167615
 20
63.62990369617964
 30
0.0
 40
4.0
  1
Gez.
 41
0.8
  7
GREEKS
100
AcDbText
  0
TEXT
  5
81
330
1E
100
AcDbEntity
  8
TEXT
100
AcDbText
 10
137.5515086571672
 20
53.68926291428377
 30
0.0
 40
4.0
  1
Gepr.
 41
0.8
  7
GREEKS
100
AcDbText
  0
TEXT
  5
82
330
1E
100
AcDbEntity
  8
TEXT
100
AcDbText
 10
137.6006777387304
 20
43.52946389649807
 30
0.0
 40
4.0
  1
Norm.
 41
0.8
  7
GREEKS
100
AcDbText
  0
LINE
  5
83
330
1E
100
AcDbEntity
  8
STEMPEL
100
AcDbLine
 10
49.99999999999989
 20
10.0
 30
0.0
 11
410.0
 21
10.0
 31
0.0
  0
TEXT
  5
84
330
1E
100
AcDbEntity
  8
TEXT
100
AcDbText
 10
337.2400861497006
 20
52.07416177878602
 30
0.0
 40
5.0
  1
ersetzt durch:
 41
0.8
  7
GREEKS
100
AcDbText
  0
LINE
  5
85
330
1E
100
AcDbEntity
  8
STEMPEL
100
AcDbLine
 10
410.0
 20
10.0
 30
0.0
 11
39.99999999999989
 21
10.0
 31
0.0
  0
LINE
  5
86
330
1E
100
AcDbEntity
  8
STEMPEL
100
AcDbLine
 10
410.0
 20
10.0
 30
0.0
 11
410.0
 21
584.0
 31
0.0
  0
LINE
  5
87
330
1E
100
AcDbEntity
  8
STEMPEL
100
AcDbLine
 10
40.0
 20
10.0
 30
0.0
 11
39.99999999999989
 21
584.0
 31
0.0
  0
LINE
  5
88
330
1E
100
AcDbEntity
  8
STEMPEL
100
AcDbLine
 10
410.0
 20
584.0
 30
0.0
 11
39.99999999999989
 21
584.0
 31
0.0
  0
LINE
  5
89
330
1E
100
AcDbEntity
  8
HILF
100
AcDbLine
 10
0.0
 20
0.0
 30
0.0
 11
-0.0000000000001137
 21
594.0
 31
0.0
  0
LINE
  5
8A
330
1E
100
AcDbEntity
  8
HILF
100
AcDbLine
 10
419.9999999999999
 20
594.0000000000002
 30
0.0
 11
0.0
 21
594.0
 31
0.0
  0
LINE
  5
8B
330
1E
100
AcDbEntity
  8
HILF
100
AcDbLine
 10
420.0
 20
0.0
 30
0.0
 11
0.0
 21
0.0
 31
0.0
  0
LINE
  5
8C
330
1E
100
AcDbEntity
  8
HILF
100
AcDbLine
 10
31.08767135713856
 20
297.0
 30
0.0
 11
0.0000000000001137
 21
297.0
 31
0.0
  0
TEXT
  5
8D
330
1E
100
AcDbEntity
  8
TEXT
100
AcDbText
 10
138.622109822104
 20
73.14025471151666
 30
0.0
 40
4.0
  1
2012
 41
0.8
  7
GREEKS
100
AcDbText
  0
LINE
  5
8E
330
1E
100
AcDbEntity
  8
HILF
100
AcDbLine
 10
420.0
 20
-0.0000000000001137
 30
0.0
 11
419.9999999999999
 21
594.0
 31
0.0
  0
TEXT
  5
8F
330
1E
100
AcDbEntity
  8
VOLL
100
AcDbText
 10
78.07675471698113
 20
31.02594776470585
 30
0.0
 40
1.8
  1

  7
GREEKS
100
AcDbText
  0
TEXT
  5
90
330
1E
100
AcDbEntity
  8
TEXT
100
AcDbText
 10
41.85509950977674
 20
111.6719999999999
 30
0.0
 40
5.0
  1
Erstellt mit AUTOCAD 2004
 41
0.8
  7
GREEKS
100
AcDbText
  0
TEXT
  5
91
330
1E
100
AcDbEntity
  8
TEXT
100
AcDbText
 10
194.4216048581257
 20
63.0896391972351
 30
0.0
 40
4.0
  1
Koeh
 41
0.8
  7
GREEKS
 72
     1
 11
199.6787477152685
 21
63.0896391972351
 31
0.0
100
AcDbText
  0
TEXT
  5
92
330
1E
100
AcDbEntity
  8
TEXT
 62
     1
100
AcDbText
 10
347.2207675702764
 20
88.14901428913959
 30
0.0
 40
7.0
  1
19231050W
 41
0.8
  7
GREEKS
 72
     1
 11
370.1541009036097
 21
88.14901428913959
 31
0.0
100
AcDbText
  0
TEXT
  5
93
330
1E
100
AcDbEntity
  8
TEXT
 62
     1
100
AcDbText
 10
150.5006306481887
 20
88.14901428913959
 30
0.0
 40
7.0
  1
1:2
 41
0.8
  7
GREEKS
100
AcDbText
  0
TEXT
  5
94
330
1E
100
AcDbEntity
  8
TEXT
100
AcDbText
 10
160.7037590129979
 20
63.10765040825732
 30
0.0
 40
4.0
  1
15.06.
 41
0.8
  7
GREEKS
 72
     1
 11
167.4085209177598
 21
63.10765040825732
 31
0.0
100
AcDbText
  0
TEXT
  5
95
330
1E
100
AcDbEntity
  8
TEXT
 62
     1
100
AcDbText
 10
226.8935731057402
 20
87.41748789253779
 30
0.0
 40
7.0
  1
Grundeinheit DN50
 41
0.8
  7
GREEKS
100
AcDbText
  0
TEXT
  5
96
330
1E
100
AcDbEntity
  8
TEXT
100
AcDbText
 10
225.1296391125315
 20
71.50334417585288
 30
0.0
 40
5.0
  1

 41
0.8
  7
GREEKS
100
AcDbText
  0
TEXT
  5
98
330
1E
100
AcDbEntity
  8
TEXT
100
AcDbText
 10
225.1296391125315
 20
51.64011943042158
 30
0.0
 40
5.0
  1
EDV-Art.Nr. 19231.050X
 41
0.8
  7
GREEKS
100
AcDbText
  0
TEXT
  5
99
330
1E
100
AcDbEntity
  8
TEXT
100
AcDbText
 10
224.9837501577827
 20
42.62974153022632
 30
0.0
 40
4.0
  1
19231050W.DWG
 41
0.8
  7
GREEKS
100
AcDbText
  0
TEXT
  5
9A
330
1E
100
AcDbEntity
  8
TEXT
100
AcDbText
 10
182.626132208084
 20
90.76363841023022
 30
0.0
 40
4.0
  1
DIN EN1124-3
 41
0.8
  7
GREEKS
 72
     1
 11
199.6166083985602
 21
90.76363841023022
 31
0.0
100
AcDbText
  0
INSERT
  5
9B
330
1E
100
AcDbEntity
  8
STEMPEL
100
AcDbBlockReference
  2
LOGO
 10
140.9955485457794
 20
45.02105276448322
 30
0.0
 41
2.0
 42
2.0
 43
2.0
  0
TEXT
  5
118
330
1E
100
AcDbEntity
  8
BEM
100
AcDbText
 10
417.3022923857165
 20
10.16790107998849
 30
0.0
 40
4.0
  1
Diese Zeichnung ist urheberrechtlich geschützt und bleibt unser Eigentum. Sie darf weder ganz noch teilweise verfielfältigt und nicht an Dritte weitergegeben werden.
 50
90.0
 41
0.8
  7
GREEKS
100
AcDbText
  0
LINE
  5
5BF
330
1E
100
AcDbEntity
  8
TEXT
 62
     2
100
AcDbLine
 10
277.5002107742838
 20
231.8550599428677
 30
0.0
 11
245.6250239142152
 21
239.3936324451734
 31
0.0
  0
TEXT
  5
5D2
330
1E
100
AcDbEntity
  8
TEXT
 62
     1
100
AcDbText
 10
215.7529309821706
 20
389.0300646520456
 30
0.0
 40
7.0
  1
DN70
 50
90.0
 41
0.8
  7
GREEKS
100
AcDbText
  0
LINE
  5
630
330
1E
100
AcDbEntity
  8
TEXT
 62
     2
100
AcDbLine
 10
277.5002107742838
 20
231.8550599428677
 30
0.0
 11
382.5273647058901
 21
231.8550599428677
 31
0.0
  0
TEXT
  5
631
330
1E
100
AcDbEntity
  8
TEXT
 62
     1
100
AcDbText
 10
278.7728979970014
 20
222.4979058855668
 30
0.0
 40
7.0
  1

 41
0.8
  7
GREEKS
100
AcDbText
  0
TEXT
  5
632
330
1E
100
AcDbEntity
  8
TEXT
 62
     1
100
AcDbText
 10
278.7728979970014
 20
235.3851697562716
 30
0.0
 40
7.0
  1
Ablauftopf DN50
 41
0.8
  7
GREEKS
100
AcDbText
  0
TEXT
  5
948
330
1E
100
AcDbEntity
  8
TEXT
 62
     1
100
AcDbText
 10
234.6057658946468
 20
129.0783465745483
 30
0.0
 40
7.0
  1

 41
0.8
  7
GREEKS
100
AcDbText
  0
LINE
  5
DEF
330
1E
100
AcDbEntity
  8
MITTEL
100
AcDbLine
 10
219.4234368246974
 20
449.9938426144673
 30
0.0
 11
219.4234368246977
 21
189.9938426144674
 31
0.0
  0
LINE
  5
DF2
330
1E
100
AcDbEntity
  8
STEMPEL
100
AcDbLine
 10
172.4234368246975
 20
416.9938426144674
 30
0.0
 11
266.4234368246976
 21
416.9938426144674
 31
0.0
  0
DIMENSION
  5
DF8
330
1E
100
AcDbEntity
  8
BEM
100
AcDbDimension
  2
*D1
 10
365.4234368246975
 20
457.576610775528
 30
0.0
 11
219.4234368246975
 21
464.0766107755279
 31
0.0
 70
    32
  1
%%C<>
 71
     5
 42
292.0
  3
Standard
100
AcDbAlignedDimension
 13
73.42343682469754
 23
444.9938426144674
 33
0.0
 14
365.4234368246975
 24
444.9938426144674
 34
0.0
100
AcDbRotatedDimension
1001
ACAD
1000
DSTYLE
1002
{
1070
    40
1040
2.0
1070
    41
1040
3.5
1070
    42
1040
1.0
1070
    43
1040
7.0
1070
    44
1040
1.0
1070
    73
1070
     0
1070
    74
1070
     0
1070
    77
1070
     1
1070
    78
1070
     8
1070
    79
1070
     2
1070
   140
1040
3.5
1070
   141
1040
1.5
1070
   146
1040
0.5142857142857144
1070
   147
1040
1.5
1070
   172
1070
     1
1070
   178
1070
     1
1070
   179
1070
     2
1070
   271
1070
     2
1070
   272
1070
     2
1070
   284
1070
     8
1070
   285
1070
     8
1070
   286
1070
     8
1002
}
  0
LINE
  5
E10
102
{ACAD_REACTORS
330
14E6
102
}
330
1E
100
AcDbEntity
  8
STEMPEL
100
AcDbLine
 10
255.9234368246976
 20
355.0461158637263
 30
0.0
 11
255.9234368246976
 21
348.4622966183749
 31
0.0
  0
LINE
  5
E12
102
{ACAD_REACTORS
330
1285
330
14E6
102
}
330
1E
100
AcDbEntity
  8
STEMPEL
100
AcDbLine
 10
160.9234368246975
 20
414.9938426144674
 30
0.0
 11
277.9234368246975
 21
414.9938426144674
 31
0.0
  0
LINE
  5
E13
102
{ACAD_REACTORS
330
1285
102
}
330
1E
100
AcDbEntity
  8
STEMPEL
100
AcDbLine
 10
160.9234368246975
 20
416.9938426144674
 30
0.0
 11
277.9234368246975
 21
416.9938426144675
 31
0.0
  0
LINE
  5
E16
330
1E
100
AcDbEntity
  8
STEMPEL
100
AcDbLine
 10
171.4234368246975
 20
436.9938426144675
 30
0.0
 11
172.4234368246975
 21
435.9938426144675
 31
0.0
  0
LINE
  5
E17
330
1E
100
AcDbEntity
  8
STEMPEL
100
AcDbLine
 10
164.4234368246975
 20
435.9938426144675
 30
0.0
 11
165.4234368246975
 21
436.9938426144675
 31
0.0
  0
LINE
  5
E18
330
1E
100
AcDbEntity
  8
STEMPEL
100
AcDbLine
 10
164.4234368246975
 20
435.9938426144675
 30
0.0
 11
172.4234368246974
 21
435.9938426144675
 31
0.0
  0
LINE
  5
E19
330
1E
100
AcDbEntity
  8
STEMPEL
100
AcDbLine
 10
165.4234368246975
 20
436.9938426144675
 30
0.0
 11
171.4234368246975
 21
436.9938426144675
 31
0.0
  0
LINE
  5
E29
330
1E
100
AcDbEntity
  8
HILF
100
AcDbLine
 10
165.4234368246975
 20
436.9938426144675
 30
0.0
 11
165.4234368246975
 21
431.0523171229682
 31
0.0
  0
LINE
  5
E2A
330
1E
100
AcDbEntity
  8
STEMPEL
100
AcDbLine
 10
164.4234368246975
 20
435.9938426144675
 30
0.0
 11
164.4234368246975
 21
431.0523171229683
 31
0.0
  0
LINE
  5
E2B
330
1E
100
AcDbEntity
  8
HILF
100
AcDbLine
 10
171.4234368246975
 20
436.9938426144675
 30
0.0
 11
171.4234368246975
 21
431.0523171229682
 31
0.0
  0
LINE
  5
E2C
330
1E
100
AcDbEntity
  8
STEMPEL
100
AcDbLine
 10
172.4234368246975
 20
435.9938426144675
 30
0.0
 11
172.4234368246975
 21
431.0523171229683
 31
0.0
  0
LINE
  5
E2D
102
{ACAD_REACTORS
330
1285
102
}
330
1E
100
AcDbEntity
  8
MITTEL
100
AcDbLine
 10
168.4234368246974
 20
441.9938426144675
 30
0.0
 11
168.4234368246975
 21
414.9938426144674
 31
0.0
  0
LINE
  5
E2E
330
1E
100
AcDbEntity
  8
STEMPEL
100
AcDbLine
 10
273.4234368246975
 20
436.9938426144675
 30
0.0
 11
274.4234368246976
 21
435.9938426144675
 31
0.0
  0
LINE
  5
E2F
330
1E
100
AcDbEntity
  8
STEMPEL
100
AcDbLine
 10
266.4234368246976
 20
435.9938426144675
 30
0.0
 11
267.4234368246975
 21
436.9938426144675
 31
0.0
  0
LINE
  5
E30
330
1E
100
AcDbEntity
  8
STEMPEL
100
AcDbLine
 10
266.4234368246976
 20
435.9938426144675
 30
0.0
 11
274.4234368246976
 21
435.9938426144675
 31
0.0
  0
LINE
  5
E31
330
1E
100
AcDbEntity
  8
STEMPEL
100
AcDbLine
 10
267.4234368246975
 20
436.9938426144675
 30
0.0
 11
273.4234368246975
 21
436.9938426144675
 31
0.0
  0
LINE
  5
E41
330
1E
100
AcDbEntity
  8
HILF
100
AcDbLine
 10
267.4234368246975
 20
436.9938426144675
 30
0.0
 11
267.4234368246975
 21
431.0523171229683
 31
0.0
  0
LINE
  5
E42
330
1E
100
AcDbEntity
  8
STEMPEL
100
AcDbLine
 10
266.4234368246976
 20
435.9938426144675
 30
0.0
 11
266.4234368246976
 21
431.0523171229683
 31
0.0
  0
LINE
  5
E43
330
1E
100
AcDbEntity
  8
HILF
100
AcDbLine
 10
273.4234368246975
 20
436.9938426144675
 30
0.0
 11
273.4234368246975
 21
431.0523171229683
 31
0.0
  0
LINE
  5
E44
330
1E
100
AcDbEntity
  8
STEMPEL
100
AcDbLine
 10
274.4234368246976
 20
435.9938426144675
 30
0.0
 11
274.4234368246975
 21
431.0523171229683
 31
0.0
  0
LINE
  5
E45
102
{ACAD_REACTORS
330
1285
102
}
330
1E
100
AcDbEntity
  8
MITTEL
100
AcDbLine
 10
270.4234368246976
 20
441.9938426144675
 30
0.0
 11
270.4234368246976
 21
414.9938426144673
 31
0.0
  0
LINE
  5
E55
102
{ACAD_REACTORS
330
1285
330
1626
102
}
330
1E
100
AcDbEntity
  8
STEMPEL
100
AcDbLine
 10
317.810209372484
 20
439.5692396686666
 30
0.0
 11
279.9347595699189
 21
417.5363029090475
 31
0.0
  0
LINE
  5
E56
102
{ACAD_REACTORS
330
1285
102
}
330
1E
100
AcDbEntity
  8
STEMPEL
100
AcDbLine
 10
121.0366642769111
 20
439.5692396686666
 30
0.0
 11
158.9121140794761
 21
417.5363029090475
 31
0.0
  0
LINE
  5
E57
102
{ACAD_REACTORS
330
1285
102
}
330
1E
100
AcDbEntity
  8
STEMPEL
100
AcDbLine
 10
257.4234368246976
 20
416.9938426144674
 30
0.0
 11
257.4234368246976
 21
414.9938426144674
 31
0.0
  0
LINE
  5
E58
102
{ACAD_REACTORS
330
1285
102
}
330
1E
100
AcDbEntity
  8
STEMPEL
100
AcDbLine
 10
181.4234368246975
 20
416.9938426144674
 30
0.0
 11
181.4234368246975
 21
414.9938426144674
 31
0.0
  0
ARC
  5
E59
102
{ACAD_REACTORS
330
1285
102
}
330
1E
100
AcDbEntity
  8
STEMPEL
100
AcDbCircle
 10
160.9234368246975
 20
420.9938426144674
 30
0.0
 40
6.0
100
AcDbArc
 50
239.8125459251749
 51
270.0
  0
LINE
  5
E5A
102
{ACAD_REACTORS
330
1285
102
}
330
1E
100
AcDbEntity
  8
STEMPEL
100
AcDbLine
 10
120.0310029043004
 20
437.8404698159566
 30
0.0
 11
157.9064527068655
 21
415.8075330563375
 31
0.0
  0
ARC
  5
E5B
102
{ACAD_REACTORS
330
1285
102
}
330
1E
100
AcDbEntity
  8
STEMPEL
100
AcDbCircle
 10
100.9234368246975
 20
404.9938426144674
 30
0.0
 40
38.0
100
AcDbArc
 50
59.8125459251749
 51
90.0
  0
LINE
  5
E5C
102
{ACAD_REACTORS
330
1285
102
}
330
1E
100
AcDbEntity
  8
STEMPEL
100
AcDbLine
 10
337.9234368246975
 20
442.9938426144674
 30
0.0
 11
365.4234368246975
 21
442.9938426144674
 31
0.0
  0
ARC
  5
E5D
102
{ACAD_REACTORS
330
1285
102
}
330
1E
100
AcDbEntity
  8
STEMPEL
100
AcDbCircle
 10
277.9234368246975
 20
420.9938426144674
 30
0.0
 40
6.0
100
AcDbArc
 50
270.0
 51
300.1874540748251
  0
LINE
  5
E5E
102
{ACAD_REACTORS
330
1285
102
}
330
1E
100
AcDbEntity
  8
STEMPEL
100
AcDbLine
 10
318.8158707450947
 20
437.8404698159566
 30
0.0
 11
280.9404209425295
 21
415.8075330563375
 31
0.0
  0
ARC
  5
E5F
102
{ACAD_REACTORS
330
1285
102
}
330
1E
100
AcDbEntity
  8
STEMPEL
100
AcDbCircle
 10
337.9234368246975
 20
404.9938426144674
 30
0.0
 40
38.0
100
AcDbArc
 50
90.0
 51
120.1874540748251
  0
ARC
  5
E60
102
{ACAD_REACTORS
330
1285
102
}
330
1E
100
AcDbEntity
  8
STEMPEL
100
AcDbCircle
 10
100.9234368246975
 20
404.9938426144674
 30
0.0
 40
40.0
100
AcDbArc
 50
59.8125459251749
 51
90.0
  0
ARC
  5
E61
102
{ACAD_REACTORS
330
1285
102
}
330
1E
100
AcDbEntity
  8
STEMPEL
100
AcDbCircle
 10
337.9234368246975
 20
404.9938426144674
 30
0.0
 40
40.0
100
AcDbArc
 50
90.0
 51
120.1874540748251
  0
ARC
  5
E62
102
{ACAD_REACTORS
330
1285
102
}
330
1E
100
AcDbEntity
  8
STEMPEL
100
AcDbCircle
 10
277.9234368246975
 20
420.9938426144674
 30
0.0
 40
4.0
100
AcDbArc
 50
270.0
 51
300.1874540748251
  0
ARC
  5
E63
102
{ACAD_REACTORS
330
1285
102
}
330
1E
100
AcDbEntity
  8
STEMPEL
100
AcDbCircle
 10
160.9234368246975
 20
420.9938426144674
 30
0.0
 40
4.0
100
AcDbArc
 50
239.8125459251749
 51
270.0
  0
LINE
  5
E64
102
{ACAD_REACTORS
330
1285
102
}
330
1E
100
AcDbEntity
  8
STEMPEL
100
AcDbLine
 10
365.4234368246975
 20
444.9938426144674
 30
0.0
 11
365.4234368246975
 21
442.9938426144674
 31
0.0
  0
LINE
  5
E65
102
{ACAD_REACTORS
330
1285
102
}
330
1E
100
AcDbEntity
  8
STEMPEL
100
AcDbLine
 10
73.42343682469754
 20
444.9938426144674
 30
0.0
 11
73.42343682469754
 21
442.9938426144674
 31
0.0
  0
LINE
  5
E67
102
{ACAD_REACTORS
330
1285
102
}
330
1E
100
AcDbEntity
  8
STEMPEL
100
AcDbLine
 10
73.42343682469754
 20
442.9938426144674
 30
0.0
 11
100.9234368246975
 21
442.9938426144674
 31
0.0
  0
LINE
  5
E6A
102
{ACAD_REACTORS
330
1285
102
}
330
1E
100
AcDbEntity
  8
STEMPEL
100
AcDbLine
 10
73.42343682469754
 20
444.9938426144674
 30
0.0
 11
365.4234368246975
 21
444.9938426144674
 31
0.0
  0
LINE
  5
E72
330
1E
100
AcDbEntity
  8
STEMPEL
100
AcDbLine
 10
223.4234368246975
 20
435.9938426144675
 30
0.0
 11
223.4234368246975
 21
431.0523171229683
 31
0.0
  0
LINE
  5
E73
330
1E
100
AcDbEntity
  8
HILF
100
AcDbLine
 10
222.4234368246976
 20
436.9938426144675
 30
0.0
 11
222.4234368246976
 21
431.0523171229682
 31
0.0
  0
LINE
  5
E74
330
1E
100
AcDbEntity
  8
STEMPEL
100
AcDbLine
 10
215.4234368246975
 20
435.9938426144675
 30
0.0
 11
215.4234368246975
 21
431.0523171229683
 31
0.0
  0
LINE
  5
E75
330
1E
100
AcDbEntity
  8
HILF
100
AcDbLine
 10
216.4234368246976
 20
436.9938426144675
 30
0.0
 11
216.4234368246975
 21
431.0523171229682
 31
0.0
  0
LINE
  5
E76
330
1E
100
AcDbEntity
  8
STEMPEL
100
AcDbLine
 10
222.4234368246976
 20
436.9938426144675
 30
0.0
 11
223.4234368246975
 21
435.9938426144675
 31
0.0
  0
LINE
  5
E77
330
1E
100
AcDbEntity
  8
STEMPEL
100
AcDbLine
 10
215.4234368246975
 20
435.9938426144675
 30
0.0
 11
216.4234368246976
 21
436.9938426144675
 31
0.0
  0
LINE
  5
E78
330
1E
100
AcDbEntity
  8
STEMPEL
100
AcDbLine
 10
216.4234368246976
 20
436.9938426144675
 30
0.0
 11
222.4234368246976
 21
436.9938426144675
 31
0.0
  0
LINE
  5
E79
330
1E
100
AcDbEntity
  8
STEMPEL
100
AcDbLine
 10
215.4234368246975
 20
435.9938426144675
 30
0.0
 11
223.4234368246974
 21
435.9938426144675
 31
0.0
  0
DIMENSION
  5
E84
330
1E
100
AcDbEntity
  8
BEM
100
AcDbDimension
  2
*D2
 10
245.9234368246977
 20
176.9883075610571
 30
0.0
 11
219.4234368246977
 21
183.4883075610571
 31
0.0
 70
    32
  1
%%C<>
 71
     5
 42
53.00000000000003
  3
Standard
100
AcDbAlignedDimension
 13
192.9234368246976
 23
199.9938426144674
 33
0.0
 14
245.9234368246977
 24
199.9938426144674
 34
0.0
100
AcDbRotatedDimension
1001
ACAD
1000
DSTYLE
1002
{
1070
    40
1040
2.0
1070
    41
1040
3.5
1070
    42
1040
1.0
1070
    43
1040
7.0
1070
    44
1040
1.0
1070
    73
1070
     0
1070
    74
1070
     0
1070
    77
1070
     1
1070
    78
1070
     8
1070
    79
1070
     2
1070
   140
1040
3.5
1070
   141
1040
1.5
1070
   146
1040
0.5142857142857144
1070
   147
1040
1.5
1070
   172
1070
     1
1070
   178
1070
     1
1070
   179
1070
     2
1070
   271
1070
     2
1070
   272
1070
     2
1070
   284
1070
     8
1070
   285
1070
     8
1070
   286
1070
     8
1002
}
  0
LINE
  5
E8A
330
1E
100
AcDbEntity
  8
STEMPEL
100
AcDbLine
 10
193.3608801423272
 20
194.9938426144675
 30
0.0
 11
245.485993507068
 21
194.9938426144675
 31
0.0
  0
DIMENSION
  5
116B
330
1E
100
AcDbEntity
  8
BEM
100
AcDbDimension
  2
*D3
 10
60.0073237312217
 20
194.9938426144675
 30
0.0
 11
53.50732373122168
 21
319.9938426144675
 31
0.0
 70
    32
 71
     5
 42
249.9999999999999
  3
Standard
100
AcDbAlignedDimension
 13
73.42343682469754
 23
444.9938426144674
 33
0.0
 14
193.3608801423272
 24
194.9938426144675
 34
0.0
 50
90.0
100
AcDbRotatedDimension
1001
ACAD
1000
DSTYLE
1002
{
1070
    40
1040
2.0
1070
    41
1040
3.5
1070
    42
1040
1.0
1070
    43
1040
7.0
1070
    44
1040
1.0
1070
    73
1070
     0
1070
    74
1070
     0
1070
    77
1070
     1
1070
    78
1070
     8
1070
    79
1070
     2
1070
   140
1040
3.5
1070
   141
1040
1.5
1070
   146
1040
0.5142857142857144
1070
   147
1040
1.5
1070
   172
1070
     1
1070
   178
1070
     1
1070
   179
1070
     2
1070
   271
1070
     2
1070
   272
1070
     2
1070
   284
1070
     8
1070
   285
1070
     8
1070
   286
1070
     8
1002
}
  0
LINE
  5
11EB
102
{ACAD_REACTORS
330
14E6
102
}
330
1E
100
AcDbEntity
  8
STEMPEL
100
AcDbLine
 10
254.7234368246977
 20
355.0461158637263
 30
0.0
 11
254.7234368246977
 21
348.4622966183752
 31
0.0
  0
LINE
  5
11EF
102
{ACAD_REACTORS
330
14E6
102
}
330
1E
100
AcDbEntity
  8
STEMPEL
100
AcDbLine
 10
184.1234368246976
 20
355.0461158637262
 30
0.0
 11
184.1234368246976
 21
348.4622966183753
 31
0.0
  0
LINE
  5
1251
102
{ACAD_REACTORS
330
14E6
102
}
330
1E
100
AcDbEntity
  8
STEMPEL
100
AcDbLine
 10
182.9234368246976
 20
355.0461158637262
 30
0.0
 11
182.9234368246976
 21
348.4622966183752
 31
0.0
  0
HATCH
  5
1285
330
1E
100
AcDbEntity
  8
BEM
100
AcDbHatch
 10
0.0
 20
0.0
 30
0.0
210
0.0
220
0.0
230
1.0
  2
_USER
 70
     0
 71
     1
 91
        4
 92
        7
 72
     1
 73
     1
 93
       12
 10
337.9234368246975
 20
444.9938426144675
 42
0.1324846866320394
 10
317.8102093724841
 20
439.5692396686666
 42
0.0
 10
279.9347595699189
 20
417.5363029090475
 42
-0.1324846866320413
 10
277.9234368246975
 20
416.9938426144675
 42
0.0
 10
270.4234368246976
 20
416.9938426144675
 42
0.0
 10
270.4234368246976
 20
414.9938426144674
 42
0.0
 10
277.9234368246975
 20
414.9938426144674
 42
0.1324846866320368
 10
280.9404209425295
 20
415.8075330563375
 42
0.0
 10
318.8158707450947
 20
437.8404698159566
 42
-0.1324846866320403
 10
337.9234368246976
 20
442.9938426144674
 42
0.0
 10
365.4234368246975
 20
442.9938426144674
 42
0.0
 10
365.4234368246975
 20
444.9938426144674
 42
0.0
 97
       12
330
E6A
330
E61
330
E55
330
E62
330
E13
330
E45
330
E12
330
E5D
330
E5E
330
E5F
330
E5C
330
E64
 92
        7
 72
     1
 73
     1
 93
       12
 10
73.42343682469753
 20
444.9938426144675
 42
0.0
 10
73.42343682469753
 20
442.9938426144674
 42
0.0
 10
100.9234368246975
 20
442.9938426144674
 42
-0.1324846866320399
 10
120.0310029043004
 20
437.8404698159566
 42
0.0
 10
157.9064527068655
 20
415.8075330563375
 42
0.132484686632038
 10
160.9234368246974
 20
414.9938426144674
 42
0.0
 10
168.4234368246974
 20
414.9938426144673
 42
0.0
 10
168.4234368246975
 20
416.9938426144674
 42
0.0
 10
160.9234368246975
 20
416.9938426144674
 42
-0.1324846866320423
 10
158.9121140794761
 20
417.5363029090475
 42
0.0
 10
121.0366642769111
 20
439.5692396686666
 42
0.1324846866320404
 10
100.9234368246975
 20
444.9938426144674
 42
0.0
 97
       12
330
E65
330
E67
330
E5B
330
E5A
330
E59
330
E12
330
E2D
330
E13
330
E63
330
E56
330
E60
330
E6A
 92
        7
 72
     0
 73
     1
 93
        4
 10
181.4234368246975
 20
414.9938426144674
 10
181.4234368246975
 20
416.9938426144674
 10
168.4234368246975
 20
416.9938426144674
 10
168.4234368246975
 20
414.9938426144674
 97
        4
330
E13
330
E2D
330
E12
330
E58
 92
        7
 72
     0
 73
     1
 93
        4
 10
257.4234368246976
 20
416.9938426144675
 10
257.4234368246976
 20
414.9938426144674
 10
270.4234368246976
 20
414.9938426144673
 10
270.4234368246976
 20
416.9938426144675
 97
        4
330
E13
330
E57
330
E12
330
E45
 75
     0
 76
     0
 52
45.0
 41
2.0
 77
     0
 78
     1
 53
45.0
 43
-12.03918477251955
 44
0.0
 45
-1.414213562373094
 46
1.414213562373095
 79
     0
 47
0.3060430538636909
 98
        4
 10
344.0011995619375
 20
444.2107141066109
 10
83.16064602374899
 20
444.2107141066109
 10
176.8428169057056
 20
415.7487107363715
 10
262.2589126584226
 20
416.0547532726759
  0
ARC
  5
1286
330
1E
100
AcDbEntity
  8
BEM
100
AcDbCircle
 10
258.6587690686735
 20
414.9938426144674
 30
0.0
 40
3.0
100
AcDbArc
 50
291.8319587893881
 51
0.0
  0
ARC
  5
1287
330
1E
100
AcDbEntity
  8
BEM
100
AcDbCircle
 10
180.1881045807213
 20
414.9938426144673
 30
0.0
 40
3.0
100
AcDbArc
 50
180.0000000000001
 51
248.168041210612
  0
HATCH
  5
1290
330
1E
100
AcDbEntity
  8
BEM
100
AcDbHatch
 10
0.0
 20
0.0
 30
0.0
210
0.0
220
0.0
230
1.0
  2
_USER
 70
     0
 71
     0
 91
        2
 92
        7
 72
     1
 73
     1
 93
        3
 10
258.6587690686735
 20
414.9938426144673
 42
-0.0305161962876784
 10
259.774426091395
 20
412.2090069985553
 42
0.3065326142826381
 10
261.6587690686736
 20
414.9938426144674
 42
0.0
 97
        0
 92
        7
 72
     1
 73
     1
 93
        3
 10
177.1881045807213
 20
414.9938426144674
 42
0.3065326142826505
 10
179.0724475579999
 20
412.2090069985553
 42
-0.0305161962876796
 10
180.1881045807214
 20
414.9938426144674
 42
0.0
 97
        0
 75
     0
 76
     0
 52
0.0
 41
0.1
 77
     0
 78
     1
 53
0.0
 43
-12.03918477251955
 44
0.0
 45
0.0
 46
0.1
 79
     0
 47
0.1014887106367553
 98
        2
 10
260.2984692870978
 20
414.5544352295194
 10
179.1804188400983
 20
414.7574131329625
  0
LINE
  5
132D
102
{ACAD_REACTORS
330
14E6
102
}
330
1E
100
AcDbEntity
  8
STEMPEL
100
AcDbLine
 10
259.8234368246975
 20
404.4700600245429
 30
0.0
 11
259.8234368246975
 21
395.3638426144676
 31
0.0
  0
ARC
  5
132E
102
{ACAD_REACTORS
330
14E6
102
}
330
1E
100
AcDbEntity
  8
STEMPEL
100
AcDbCircle
 10
236.4234368246975
 20
404.4700600245429
 30
0.0
 40
23.4
100
AcDbArc
 50
0.0
 51
26.72663811086391
  0
ARC
  5
132F
102
{ACAD_REACTORS
330
14E6
102
}
330
1E
100
AcDbEntity
  8
STEMPEL
100
AcDbCircle
 10
236.4234368246975
 20
395.3638426144676
 30
0.0
 40
23.4
100
AcDbArc
 50
338.7004355745901
 51
0.0
  0
ARC
  5
1330
102
{ACAD_REACTORS
330
14E6
102
}
330
1E
100
AcDbEntity
  8
STEMPEL
100
AcDbCircle
 10
236.4234368246975
 20
404.4700600245429
 30
0.0
 40
24.6
100
AcDbArc
 50
0.0
 51
25.32777242177722
  0
LINE
  5
1331
102
{ACAD_REACTORS
330
14E6
102
}
330
1E
100
AcDbEntity
  8
STEMPEL
100
AcDbLine
 10
261.0234368246975
 20
404.4700600245429
 30
0.0
 11
261.0234368246975
 21
395.3638426144676
 31
0.0
  0
ARC
  5
1332
102
{ACAD_REACTORS
330
14E6
102
}
330
1E
100
AcDbEntity
  8
STEMPEL
100
AcDbCircle
 10
236.4234368246975
 20
395.3638426144676
 30
0.0
 40
24.6
100
AcDbArc
 50
338.7004355745901
 51
0.0
  0
LINE
  5
1333
102
{ACAD_REACTORS
330
14E6
102
}
330
1E
100
AcDbEntity
  8
STEMPEL
100
AcDbLine
 10
257.3234368246975
 20
382.0691068141593
 30
0.0
 11
257.3234368246975
 21
365.2186278445498
 31
0.0
  0
LINE
  5
1334
102
{ACAD_REACTORS
330
14E6
102
}
330
1E
100
AcDbEntity
  8
STEMPEL
100
AcDbLine
 10
258.5234368246975
 20
382.0691068141593
 30
0.0
 11
258.5234368246975
 21
365.2186278445499
 31
0.0
  0
ARC
  5
1335
102
{ACAD_REACTORS
330
14E6
102
}
330
1E
100
AcDbEntity
  8
STEMPEL
100
AcDbCircle
 10
270.5234368246975
 20
382.0691068141593
 30
0.0
 40
12.0
100
AcDbArc
 50
158.7004355745901
 51
180.0
  0
ARC
  5
1336
102
{ACAD_REACTORS
330
14E6
102
}
330
1E
100
AcDbEntity
  8
STEMPEL
100
AcDbCircle
 10
270.5234368246975
 20
382.0691068141593
 30
0.0
 40
13.2
100
AcDbArc
 50
158.7004355745901
 51
180.0
  0
ARC
  5
1337
102
{ACAD_REACTORS
330
14E6
102
}
330
1E
100
AcDbEntity
  8
STEMPEL
100
AcDbCircle
 10
265.5234368246975
 20
355.0461158637263
 30
0.0
 40
10.8
100
AcDbArc
 50
151.3253430949261
 51
180.0
  0
ARC
  5
1338
102
{ACAD_REACTORS
330
14E6
102
}
330
1E
100
AcDbEntity
  8
STEMPEL
100
AcDbCircle
 10
265.5234368246975
 20
355.0461158637263
 30
0.0
 40
9.600000000000001
100
AcDbArc
 50
151.3253430949261
 51
180.0
  0
ARC
  5
1339
102
{ACAD_REACTORS
330
14E6
102
}
330
1E
100
AcDbEntity
  8
STEMPEL
100
AcDbCircle
 10
246.9234368246975
 20
365.2186278445498
 30
0.0
 40
10.4
100
AcDbArc
 50
331.3253430949261
 51
0.0
  0
ARC
  5
133A
102
{ACAD_REACTORS
330
14E6
102
}
330
1E
100
AcDbEntity
  8
STEMPEL
100
AcDbCircle
 10
246.9234368246975
 20
365.2186278445498
 30
0.0
 40
11.6
100
AcDbArc
 50
331.3253430949261
 51
0.0
  0
ARC
  5
133B
102
{ACAD_REACTORS
330
14E6
102
}
330
1E
100
AcDbEntity
  8
STEMPEL
100
AcDbCircle
 10
191.9234368246975
 20
365.2186278445498
 30
0.0
 40
11.6
100
AcDbArc
 50
180.0
 51
208.6746569050739
  0
ARC
  5
133C
102
{ACAD_REACTORS
330
14E6
102
}
330
1E
100
AcDbEntity
  8
STEMPEL
100
AcDbCircle
 10
191.9234368246975
 20
365.2186278445498
 30
0.0
 40
10.4
100
AcDbArc
 50
180.0
 51
208.6746569050739
  0
ARC
  5
133D
102
{ACAD_REACTORS
330
14E6
102
}
330
1E
100
AcDbEntity
  8
STEMPEL
100
AcDbCircle
 10
173.3234368246975
 20
355.0461158637262
 30
0.0
 40
9.600000000000001
100
AcDbArc
 50
0.0
 51
28.67465690507389
  0
ARC
  5
133E
102
{ACAD_REACTORS
330
14E6
102
}
330
1E
100
AcDbEntity
  8
STEMPEL
100
AcDbCircle
 10
173.3234368246975
 20
355.0461158637262
 30
0.0
 40
10.8
100
AcDbArc
 50
0.0
 51
28.67465690507389
  0
ARC
  5
133F
102
{ACAD_REACTORS
330
14E6
102
}
330
1E
100
AcDbEntity
  8
STEMPEL
100
AcDbCircle
 10
168.3234368246975
 20
382.0691068141592
 30
0.0
 40
13.2
100
AcDbArc
 50
0.0
 51
21.29956442540992
  0
ARC
  5
1340
102
{ACAD_REACTORS
330
14E6
102
}
330
1E
100
AcDbEntity
  8
STEMPEL
100
AcDbCircle
 10
168.3234368246975
 20
382.0691068141592
 30
0.0
 40
12.0
100
AcDbArc
 50
0.0
 51
21.29956442540992
  0
LINE
  5
1341
102
{ACAD_REACTORS
330
14E6
102
}
330
1E
100
AcDbEntity
  8
STEMPEL
100
AcDbLine
 10
180.3234368246975
 20
382.0691068141592
 30
0.0
 11
180.3234368246975
 21
365.2186278445498
 31
0.0
  0
LINE
  5
1342
102
{ACAD_REACTORS
330
14E6
102
}
330
1E
100
AcDbEntity
  8
STEMPEL
100
AcDbLine
 10
181.5234368246975
 20
382.0691068141592
 30
0.0
 11
181.5234368246975
 21
365.2186278445498
 31
0.0
  0
ARC
  5
1343
102
{ACAD_REACTORS
330
14E6
102
}
330
1E
100
AcDbEntity
  8
STEMPEL
100
AcDbCircle
 10
202.4234368246975
 20
395.3638426144675
 30
0.0
 40
24.6
100
AcDbArc
 50
180.0
 51
201.2995644254099
  0
LINE
  5
1344
102
{ACAD_REACTORS
330
14E6
102
}
330
1E
100
AcDbEntity
  8
STEMPEL
100
AcDbLine
 10
177.8234368246975
 20
404.4700600245429
 30
0.0
 11
177.8234368246975
 21
395.3638426144674
 31
0.0
  0
ARC
  5
1345
102
{ACAD_REACTORS
330
14E6
102
}
330
1E
100
AcDbEntity
  8
STEMPEL
100
AcDbCircle
 10
202.4234368246975
 20
404.4700600245429
 30
0.0
 40
24.6
100
AcDbArc
 50
154.6722275782228
 51
180.0
  0
ARC
  5
1346
102
{ACAD_REACTORS
330
14E6
102
}
330
1E
100
AcDbEntity
  8
STEMPEL
100
AcDbCircle
 10
202.4234368246975
 20
395.3638426144675
 30
0.0
 40
23.4
100
AcDbArc
 50
180.0
 51
201.2995644254099
  0
ARC
  5
1347
102
{ACAD_REACTORS
330
14E6
102
}
330
1E
100
AcDbEntity
  8
STEMPEL
100
AcDbCircle
 10
202.4234368246975
 20
404.4700600245429
 30
0.0
 40
23.4
100
AcDbArc
 50
153.2733618891361
 51
180.0
  0
LINE
  5
1348
102
{ACAD_REACTORS
330
14E6
102
}
330
1E
100
AcDbEntity
  8
STEMPEL
100
AcDbLine
 10
179.0234368246975
 20
404.4700600245429
 30
0.0
 11
179.0234368246975
 21
395.3638426144674
 31
0.0
  0
LINE
  5
134E
330
1E
100
AcDbEntity
  8
HILF
  6
Continuous
100
AcDbLine
 10
256.295226564334
 20
384.2867706270231
 30
0.0
 11
182.551647085061
 21
384.286770627023
 31
0.0
  0
LINE
  5
134F
330
1E
100
AcDbEntity
  8
HILF
  6
Continuous
100
AcDbLine
 10
255.6634985662004
 20
362.3461166165967
 30
0.0
 11
183.1833750831946
 21
362.3461166165967
 31
0.0
  0
LINE
  5
1350
330
1E
100
AcDbEntity
  8
HILF
  6
Continuous
100
AcDbLine
 10
253.7612652885702
 20
357.4233665351358
 30
0.0
 11
185.0856083608248
 21
357.4233665351358
 31
0.0
  0
LINE
  5
13DF
330
1E
100
AcDbEntity
  8
STEMPEL
100
AcDbLine
 10
192.9234368246976
 20
319.3938426144675
 30
0.0
 11
192.9234368246976
 21
199.9938426144674
 31
0.0
  0
LINE
  5
13E1
330
1E
100
AcDbEntity
  8
HILF
100
AcDbLine
 10
194.9310764997843
 20
199.9938426144675
 30
0.0
 11
243.915797149611
 21
199.9938426144675
 31
0.0
  0
LINE
  5
13E2
330
1E
100
AcDbEntity
  8
STEMPEL
100
AcDbLine
 10
192.9234368246976
 20
199.9938426144674
 30
0.0
 11
193.3608801423272
 21
194.9938426144675
 31
0.0
  0
LINE
  5
13E3
330
1E
100
AcDbEntity
  8
STEMPEL
100
AcDbLine
 10
193.9234368246976
 20
200.0375035573764
 30
0.0
 11
194.3646999798706
 21
194.9938426144675
 31
0.0
  0
LINE
  5
13E4
330
1E
100
AcDbEntity
  8
STEMPEL
100
AcDbLine
 10
193.9234368246976
 20
319.3938426144675
 30
0.0
 11
193.9234368246976
 21
200.0375035573764
 31
0.0
  0
LINE
  5
13E6
330
1E
100
AcDbEntity
  8
STEMPEL
100
AcDbLine
 10
244.9234368246977
 20
319.3987731518428
 30
0.0
 11
244.9234368246977
 21
200.0375035573764
 31
0.0
  0
LINE
  5
13E7
330
1E
100
AcDbEntity
  8
STEMPEL
100
AcDbLine
 10
245.9234368246977
 20
319.3987731518428
 30
0.0
 11
245.9234368246977
 21
199.9938426144674
 31
0.0
  0
LINE
  5
13E9
330
1E
100
AcDbEntity
  8
STEMPEL
100
AcDbLine
 10
244.9234368246977
 20
200.0375035573764
 30
0.0
 11
244.4821736695246
 21
194.9938426144675
 31
0.0
  0
LINE
  5
13EA
330
1E
100
AcDbEntity
  8
STEMPEL
100
AcDbLine
 10
245.9234368246977
 20
199.9938426144674
 30
0.0
 11
245.485993507068
 21
194.9938426144675
 31
0.0
  0
LINE
  5
1423
102
{ACAD_REACTORS
330
14E6
102
}
330
1E
100
AcDbEntity
  8
STEMPEL
100
AcDbLine
 10
189.1344077584161
 20
334.9939478229972
 30
0.0
 11
249.7124658909791
 21
334.9939478229972
 31
0.0
  0
LINE
  5
1424
330
1E
100
AcDbEntity
  8
STEMPEL
100
AcDbLine
 10
192.5041686811235
 20
322.5381469365013
 30
0.0
 11
189.1135678062067
 21
335.0260092879346
 31
0.0
  0
ARC
  5
1426
330
1E
100
AcDbEntity
  8
STEMPEL
100
AcDbCircle
 10
180.9234368246976
 20
319.3938426144675
 30
0.0
 40
12.0
100
AcDbArc
 50
0.0
 51
15.19027385472237
  0
LINE
  5
1429
102
{ACAD_REACTORS
330
14B3
102
}
330
1E
100
AcDbEntity
  8
STEMPEL
100
AcDbLine
 10
246.3401698940876
 20
322.5337256577413
 30
0.0
 11
249.7124658909791
 21
334.9939478229972
 31
0.0
  0
ARC
  5
142A
330
1E
100
AcDbEntity
  8
STEMPEL
100
AcDbCircle
 10
257.9234368246976
 20
319.3987731518428
 30
0.0
 40
12.0
100
AcDbArc
 50
164.8559892772303
 51
180.0
  0
ARC
  5
142C
330
1E
100
AcDbEntity
  8
STEMPEL
100
AcDbCircle
 10
257.9234368246976
 20
319.3987731518428
 30
0.0
 40
13.0
100
AcDbArc
 50
164.8559892772303
 51
180.0
  0
LINE
  5
142D
330
1E
100
AcDbEntity
  8
STEMPEL
100
AcDbLine
 10
245.3748976498701
 20
322.7949716998995
 30
0.0
 11
248.6764887291053
 21
334.9939478229972
 31
0.0
  0
ARC
  5
142E
330
1E
100
AcDbEntity
  8
STEMPEL
100
AcDbCircle
 10
180.9234368246976
 20
319.3938426144675
 30
0.0
 40
13.0
100
AcDbArc
 50
0.0
 51
15.19027385472237
  0
LINE
  5
142F
330
1E
100
AcDbEntity
  8
STEMPEL
100
AcDbLine
 10
193.469229669159
 20
322.8001722966708
 30
0.0
 11
190.1584768113366
 21
334.9939478229972
 31
0.0
  0
LINE
  5
1430
330
1E
100
AcDbEntity
  8
HILF
100
AcDbLine
 10
244.0130228501537
 20
320.980033110488
 30
0.0
 11
194.833302953875
 21
320.9799145763793
 31
0.0
  0
LINE
  5
1448
102
{ACAD_REACTORS
330
14B3
330
14E6
102
}
330
1E
100
AcDbEntity
  8
STEMPEL
100
AcDbLine
 10
253.7908925598659
 20
341.2684503905154
 30
0.0
 11
249.7124658909791
 21
334.9939478229972
 31
0.0
  0
LINE
  5
144E
102
{ACAD_REACTORS
330
14E6
102
}
330
1E
100
AcDbEntity
  8
STEMPEL
100
AcDbLine
 10
185.0559810895291
 20
341.2684503905157
 30
0.0
 11
189.1344077584161
 21
334.9939478229972
 31
0.0
  0
LINE
  5
1452
102
{ACAD_REACTORS
330
14E6
102
}
330
1E
100
AcDbEntity
  8
STEMPEL
100
AcDbLine
 10
186.0621134290899
 20
341.9224364112304
 30
0.0
 11
190.5656310114413
 21
334.9939478229972
 31
0.0
  0
LINE
  5
1453
102
{ACAD_REACTORS
330
14E6
102
}
330
1E
100
AcDbEntity
  8
STEMPEL
100
AcDbLine
 10
252.7847602203053
 20
341.9224364112301
 30
0.0
 11
248.2812426379539
 21
334.9939478229972
 31
0.0
  0
TEXT
  5
14A5
330
1E
100
AcDbEntity
  8
TEXT
 62
     1
100
AcDbText
 10
215.7529309821706
 20
261.8165083686319
 30
0.0
 40
7.0
  1
DN50
 50
90.0
 41
0.8
  7
GREEKS
100
AcDbText
  0
ARC
  5
14A6
102
{ACAD_REACTORS
330
14E6
102
}
330
1E
100
AcDbEntity
  8
STEMPEL
100
AcDbCircle
 10
242.7234368246977
 20
348.4622966183752
 30
0.0
 40
12.0
100
AcDbArc
 50
326.9761324442033
 51
0.0
  0
ARC
  5
14A7
102
{ACAD_REACTORS
330
14E6
102
}
330
1E
100
AcDbEntity
  8
STEMPEL
100
AcDbCircle
 10
196.1234368246976
 20
348.4622966183753
 30
0.0
 40
12.0
100
AcDbArc
 50
179.9999999999998
 51
213.0238675557963
  0
ARC
  5
14A8
102
{ACAD_REACTORS
330
14E6
102
}
330
1E
100
AcDbEntity
  8
STEMPEL
100
AcDbCircle
 10
242.7234368246975
 20
348.4622966183749
 30
0.0
 40
13.2
100
AcDbArc
 50
326.9761324442033
 51
0.0
  0
ARC
  5
14A9
102
{ACAD_REACTORS
330
14E6
102
}
330
1E
100
AcDbEntity
  8
STEMPEL
100
AcDbCircle
 10
196.1234368246976
 20
348.4622966183751
 30
0.0
 40
13.2
100
AcDbArc
 50
179.9999999999998
 51
213.0238675557963
  0
LINE
  5
14AA
330
1E
100
AcDbEntity
  8
HILF
100
AcDbLine
 10
252.9707750338936
 20
345.0517160774182
 30
0.0
 11
185.8760986155017
 21
345.0517160774183
 31
0.0
  0
ARC
  5
14AE
102
{ACAD_REACTORS
330
14B3
102
}
330
1E
100
AcDbEntity
  8
SCHRAFF
100
AcDbCircle
 10
247.6856518026695
 20
335.8999038338533
 30
0.0
 40
3.999839226791049
100
AcDbArc
 50
288.1063325140736
 51
23.72578920735886
  0
HATCH
  5
14B3
330
1E
100
AcDbEntity
  8
SCHRAFF
100
AcDbHatch
 10
0.0
 20
0.0
 30
0.0
210
0.0
220
0.0
230
1.0
  2
_USER
 70
     0
 71
     1
 91
        1
 92
        7
 72
     1
 73
     1
 93
        3
 10
251.3474309427654
 20
337.5092786718991
 42
0.0
 10
249.7124658909791
 20
334.9939478229971
 42
0.0
 10
248.9287277645046
 20
332.0981310903448
 42
0.4432405744639671
 97
        3
330
1448
330
1429
330
14AE
 75
     0
 76
     0
 52
0.0
 41
0.1
 77
     0
 78
     1
 53
0.0
 43
-12.03918477251955
 44
0.0
 45
0.0
 46
0.1
 79
     0
 47
0.0338663164055397
 98
        1
 10
250.4380530145368
 20
334.4045602192964
  0
HATCH
  5
14E6
330
1E
100
AcDbEntity
  8
SCHRAFF
100
AcDbHatch
 10
0.0
 20
0.0
 30
0.0
210
0.0
220
0.0
230
1.0
  2
_USER
 70
     0
 71
     1
 91
        2
 92
        7
 72
     1
 73
     1
 93
       22
 10
258.5234368246975
 20
382.0691068141593
 42
-0.0932053832641477
 10
259.3431089558452
 20
386.4280365847525
 42
0.0932053832641367
 10
261.0234368246975
 20
395.3638426144676
 42
0.0
 10
261.0234368246975
 20
404.4700600245429
 42
0.1109653701492531
 10
258.6587690686735
 20
414.9938426144674
 42
0.0
 10
257.3234368246976
 20
414.9938426144674
 42
-0.1171484945869472
 10
259.8234368246975
 20
404.470060024543
 42
0.0
 10
259.8234368246975
 20
395.3638426144676
 42
-0.0932053832641468
 10
258.2250761689595
 20
386.8639295618109
 42
0.093205383264128
 10
257.3234368246975
 20
382.0691068141593
 42
0.0
 10
257.3234368246975
 20
365.2186278445498
 42
-0.1257737761160455
 10
256.0479651265844
 20
360.2283389482969
 42
0.1257737761160562
 10
254.7234368246977
 20
355.0461158637262
 42
0.0
 10
254.7234368246977
 20
348.4622966183752
 42
-0.1450994323300641
 10
252.7847602203054
 20
341.9224364112302
 42
0.0
 10
248.2812426379539
 20
334.9939478229972
 42
0.0
 10
249.7124658909791
 20
334.9939478229972
 42
0.0
 10
253.7908925598659
 20
341.2684503905154
 42
0.1450994323300657
 10
255.9234368246976
 20
348.4622966183749
 42
0.0
 10
255.9234368246976
 20
355.0461158637263
 42
-0.1257737761160446
 10
257.1007953152634
 20
359.6525363833444
 42
0.1257737761160551
 10
258.5234368246975
 20
365.2186278445499
 42
0.0
 97
       22
330
1335
330
1332
330
1331
330
1330
330
E12
330
132E
330
132D
330
132F
330
1336
330
1333
330
1339
330
1337
330
11EB
330
14A6
330
1453
330
1423
330
1448
330
14A8
330
E10
330
1338
330
133A
330
1334
 92
        7
 72
     1
 73
     1
 93
       22
 10
181.5234368246975
 20
382.0691068141592
 42
0.0932053832641409
 10
180.6217974804352
 20
386.8639295618114
 42
-0.0932053832641394
 10
179.0234368246975
 20
395.3638426144674
 42
0.0
 10
179.0234368246975
 20
404.4700600245429
 42
-0.1171484945869484
 10
181.5234368246975
 20
414.9938426144674
 42
0.0
 10
180.1881045807214
 20
414.9938426144674
 42
0.1109653701492537
 10
177.8234368246975
 20
404.4700600245429
 42
0.0
 10
177.8234368246975
 20
395.3638426144674
 42
0.0932053832641405
 10
179.50376469355
 20
386.4280365847521
 42
-0.0932053832641402
 10
180.3234368246975
 20
382.0691068141592
 42
0.0
 10
180.3234368246975
 20
365.2186278445498
 42
0.1257737761160508
 10
181.7460783341314
 20
359.6525363833444
 42
-0.1257737761160527
 10
182.9234368246976
 20
355.0461158637262
 42
0.0
 10
182.9234368246976
 20
348.4622966183752
 42
0.1450994323300668
 10
185.0559810895292
 20
341.2684503905156
 42
0.0
 10
189.1344077584161
 20
334.9939478229972
 42
0.0
 10
190.5656310114413
 20
334.9939478229971
 42
0.0
 10
186.0621134290899
 20
341.9224364112304
 42
-0.1450994323300642
 10
184.1234368246976
 20
348.4622966183753
 42
0.0
 10
184.1234368246976
 20
355.0461158637262
 42
0.1257737761160501
 10
182.7989085228107
 20
360.2283389482967
 42
-0.1257737761160518
 10
181.5234368246975
 20
365.2186278445498
 42
0.0
 97
       22
330
133F
330
1346
330
1348
330
1347
330
E12
330
1345
330
1344
330
1343
330
1340
330
1341
330
133B
330
133D
330
1251
330
14A9
330
144E
330
1423
330
1452
330
14A7
330
11EF
330
133E
330
133C
330
1342
 75
     0
 76
     0
 52
135.0
 41
2.0
 77
     0
 78
     1
 53
135.0
 43
-12.03918477251955
 44
0.0
 45
-1.414213562373095
 46
-1.414213562373094
 79
     0
 47
0.234305280529618
 98
        2
 10
257.7145223734337
 20
374.5995239780512
 10
181.3040886927501
 20
374.833829719194
  0
HATCH
  5
1501
330
1E
100
AcDbEntity
  8
SCHRAFF
100
AcDbHatch
 10
0.0
 20
0.0
 30
0.0
210
0.0
220
0.0
230
1.0
  2
_USER
 70
     0
 71
     0
 91
        2
 92
        7
 72
     1
 73
     1
 93
       10
 10
245.9234368246977
 20
319.3987731518428
 42
-0.0661745536307371
 10
246.3401698940877
 20
322.5337256577418
 42
0.0
 10
249.7124658909791
 20
334.9939478229972
 42
0.0
 10
248.6764887291053
 20
334.9939478229972
 42
0.0
 10
245.3748976498701
 20
322.7949716998995
 42
0.0661745536307224
 10
244.9234368246977
 20
319.3987731518431
 42
0.0
 10
244.9234368246976
 20
200.0375035573762
 42
0.0
 10
244.4821736695246
 20
194.9938426144674
 42
0.0
 10
245.485993507068
 20
194.9938426144674
 42
0.0
 10
245.9234368246977
 20
199.9938426144669
 42
0.0
 97
        0
 92
        7
 72
     1
 73
     1
 93
       10
 10
193.9234368246976
 20
319.3938426144675
 42
0.0663773012992471
 10
193.469229669159
 20
322.8001722966706
 42
0.0
 10
190.1584768113366
 20
334.9939478229972
 42
0.0
 10
189.122272869412
 20
334.9939478229972
 42
0.0
 10
192.5041686811235
 20
322.5381469365013
 42
-0.0663773012992539
 10
192.9234368246976
 20
319.3938426144673
 42
0.0
 10
192.9234368246976
 20
199.9938426144677
 42
0.0
 10
193.3608801423273
 20
194.9938426144675
 42
0.0
 10
194.3646999798706
 20
194.9938426144675
 42
0.0
 10
193.9234368246975
 20
200.0375035573764
 42
0.0
 97
        0
 75
     0
 76
     0
 52
45.0
 41
2.0
 77
     0
 78
     1
 53
45.0
 43
-12.03918477251955
 44
0.0
 45
-1.414213562373094
 46
1.414213562373095
 79
     0
 47
0.234305280529618
 98
        2
 10
245.526354440241
 20
310.1655722798591
 10
193.7266430435206
 20
313.2115399303152
  0
LINE
  5
15D4
102
{ACAD_REACTORS
330
1626
102
}
330
1E
100
AcDbEntity
  8
STEMPEL
100
AcDbLine
 10
310.9177754520867
 20
437.8735515165277
 30
0.0
 11
284.9862276614373
 21
422.7886309273676
 31
0.0
  0
LINE
  5
15D5
330
1E
100
AcDbEntity
  8
STEMPEL
100
AcDbLine
 10
127.9290981973082
 20
437.8735515165278
 30
0.0
 11
153.8606459879575
 21
422.7886309273675
 31
0.0
  0
HATCH
  5
15FA
330
1E
100
AcDbEntity
  8
SCHRAFF
100
AcDbHatch
 10
0.0
 20
0.0
 30
0.0
210
0.0
220
0.0
230
1.0
  2
_USER
 70
     0
 71
     0
 91
        4
 92
        7
 72
     1
 73
     1
 93
       12
 10
280.4234368246974
 20
421.0523171229683
 42
0.1327909774928473
 10
283.446662977842
 20
421.8696437175777
 42
0.0
 10
307.4466629778421
 20
435.8696437175777
 42
0.2667502984552007
 10
310.4234368246974
 20
441.0523171229683
 42
0.0
 10
310.4234368246974
 20
443.0523171229682
 42
0.0
 10
308.4234368246975
 20
443.0523171229682
 42
0.0
 10
308.4234368246975
 20
441.0523171229683
 42
-0.2667502984552046
 10
306.4389209267938
 20
437.5972015193745
 42
0.0
 10
282.4389209267938
 20
423.5972015193745
 42
-0.1327909774928444
 10
280.4234368246974
 20
423.0523171229682
 42
0.0
 10
275.9234368246975
 20
423.0523171229682
 42
0.0
 10
275.9234368246974
 20
421.0523171229683
 42
0.0
 97
        0
 92
        7
 72
     0
 73
     1
 93
        4
 10
264.9234368246975
 20
421.0523171229683
 10
264.9234368246975
 20
423.0523171229682
 10
260.4234368246974
 20
423.0523171229682
 10
260.4234368246975
 20
421.0523171229683
 97
        0
 92
        7
 72
     0
 73
     1
 93
        4
 10
173.9234368246974
 20
423.0523171229683
 10
173.9234368246974
 20
421.0523171229684
 10
178.4234368246974
 20
421.0523171229683
 10
178.4234368246974
 20
423.0523171229682
 97
        0
 92
        7
 72
     1
 73
     1
 93
       12
 10
158.4234368246974
 20
423.0523171229682
 42
-0.1327909774928438
 10
156.4079527226011
 20
423.5972015193746
 42
0.0
 10
132.4079527226012
 20
437.5972015193746
 42
-0.2667502984552084
 10
130.4234368246974
 20
441.0523171229684
 42
0.0
 10
130.4234368246974
 20
443.0523171229684
 42
0.0
 10
128.4234368246974
 20
443.0523171229684
 42
0.0
 10
128.4234368246974
 20
441.0523171229684
 42
0.2667502984552073
 10
131.4002106715529
 20
435.8696437175777
 42
0.0
 10
155.4002106715529
 20
421.8696437175777
 42
0.1327909774928451
 10
158.4234368246975
 20
421.0523171229683
 42
0.0
 10
162.9234368246975
 20
421.0523171229683
 42
0.0
 10
162.9234368246974
 20
423.0523171229682
 42
0.0
 97
        0
 75
     0
 76
     0
 52
135.0
 41
2.0
 77
     0
 78
     1
 53
135.0
 43
-12.03918477251955
 44
-123.2492099591267
 45
-1.414213562373095
 46
-1.414213562373094
 79
     0
 47
0.2375292043459171
 98
        4
 10
279.0992364628863
 20
421.6255240926607
 10
262.7003857024355
 20
421.8630535872824
 10
177.3788283249581
 20
422.1005830819041
 10
160.74231302342
 20
422.1005830819041
  0
LINE
  5
15FB
330
1E
100
AcDbEntity
  8
STEMPEL
100
AcDbLine
 10
128.4234368246974
 20
443.0523171229684
 30
0.0
 11
310.4234368246974
 21
443.0523171229682
 31
0.0
  0
LINE
  5
15FD
330
1E
100
AcDbEntity
  8
STEMPEL
100
AcDbLine
 10
158.4234368246974
 20
421.0523171229683
 30
0.0
 11
164.4234368246975
 21
421.0523171229683
 31
0.0
  0
LINE
  5
15FE
330
1E
100
AcDbEntity
  8
STEMPEL
100
AcDbLine
 10
158.4234368246974
 20
423.0523171229682
 30
0.0
 11
280.4234368246974
 21
423.0523171229682
 31
0.0
  0
LINE
  5
15FF
330
1E
100
AcDbEntity
  8
STEMPEL
100
AcDbLine
 10
128.4234368246974
 20
443.0523171229684
 30
0.0
 11
128.4234368246974
 21
441.0523171229684
 31
0.0
  0
LINE
  5
1600
330
1E
100
AcDbEntity
  8
STEMPEL
100
AcDbLine
 10
310.4234368246974
 20
443.0523171229682
 30
0.0
 11
310.4234368246974
 21
441.0523171229683
 31
0.0
  0
LINE
  5
1601
330
1E
100
AcDbEntity
  8
STEMPEL
100
AcDbLine
 10
308.4234368246975
 20
443.0523171229682
 30
0.0
 11
308.4234368246975
 21
441.0523171229683
 31
0.0
  0
LINE
  5
1602
330
1E
100
AcDbEntity
  8
STEMPEL
100
AcDbLine
 10
130.4234368246974
 20
443.0523171229684
 30
0.0
 11
130.4234368246974
 21
441.0523171229684
 31
0.0
  0
ARC
  5
1603
330
1E
100
AcDbEntity
  8
STEMPEL
100
AcDbCircle
 10
304.4234368246975
 20
441.0523171229683
 30
0.0
 40
4.0
100
AcDbArc
 50
300.2564371635316
 51
0.0
  0
ARC
  5
1604
330
1E
100
AcDbEntity
  8
STEMPEL
100
AcDbCircle
 10
280.4234368246974
 20
427.0523171229682
 30
0.0
 40
4.0
100
AcDbArc
 50
270.0
 51
300.2564371635316
  0
ARC
  5
1605
330
1E
100
AcDbEntity
  8
STEMPEL
100
AcDbCircle
 10
158.4234368246974
 20
427.0523171229682
 30
0.0
 40
4.0
100
AcDbArc
 50
239.7435628364698
 51
270.0
  0
ARC
  5
1606
330
1E
100
AcDbEntity
  8
STEMPEL
100
AcDbCircle
 10
134.4234368246974
 20
441.0523171229684
 30
0.0
 40
4.0
100
AcDbArc
 50
180.0
 51
239.7435628364698
  0
LINE
  5
1607
330
1E
100
AcDbEntity
  8
STEMPEL
100
AcDbLine
 10
306.4389209267938
 20
437.5972015193745
 30
0.0
 11
282.4389209267938
 21
423.5972015193745
 31
0.0
  0
LINE
  5
1608
330
1E
100
AcDbEntity
  8
STEMPEL
100
AcDbLine
 10
156.4079527226012
 20
423.5972015193745
 30
0.0
 11
132.4079527226012
 21
437.5972015193746
 31
0.0
  0
ARC
  5
1609
330
1E
100
AcDbEntity
  8
STEMPEL
100
AcDbCircle
 10
134.4234368246974
 20
441.0523171229684
 30
0.0
 40
6.0
100
AcDbArc
 50
180.0
 51
239.7435628364698
  0
LINE
  5
160A
330
1E
100
AcDbEntity
  8
STEMPEL
100
AcDbLine
 10
155.4002106715529
 20
421.8696437175777
 30
0.0
 11
131.4002106715529
 21
435.8696437175777
 31
0.0
  0
ARC
  5
160B
330
1E
100
AcDbEntity
  8
STEMPEL
100
AcDbCircle
 10
158.4234368246974
 20
427.0523171229682
 30
0.0
 40
6.0
100
AcDbArc
 50
239.7435628364698
 51
270.0
  0
ARC
  5
160C
330
1E
100
AcDbEntity
  8
STEMPEL
100
AcDbCircle
 10
280.4234368246974
 20
427.0523171229682
 30
0.0
 40
6.0
100
AcDbArc
 50
270.0
 51
300.2564371635316
  0
LINE
  5
160D
102
{ACAD_REACTORS
330
1626
102
}
330
1E
100
AcDbEntity
  8
STEMPEL
100
AcDbLine
 10
307.4466629778421
 20
435.8696437175777
 30
0.0
 11
283.446662977842
 21
421.8696437175777
 31
0.0
  0
ARC
  5
160E
330
1E
100
AcDbEntity
  8
STEMPEL
100
AcDbCircle
 10
304.4234368246975
 20
441.0523171229683
 30
0.0
 40
6.0
100
AcDbArc
 50
300.2564371635316
 51
0.0
  0
LINE
  5
160F
330
1E
100
AcDbEntity
  8
STEMPEL
100
AcDbLine
 10
178.4234368246974
 20
423.0523171229682
 30
0.0
 11
178.4234368246974
 21
421.0523171229683
 31
0.0
  0
LINE
  5
1610
330
1E
100
AcDbEntity
  8
STEMPEL
100
AcDbLine
 10
260.4234368246974
 20
423.0523171229682
 30
0.0
 11
260.4234368246974
 21
421.0523171229683
 31
0.0
  0
LINE
  5
1613
330
1E
100
AcDbEntity
  8
STEMPEL
100
AcDbLine
 10
264.9234368246975
 20
423.0523171229682
 30
0.0
 11
264.9234368246975
 21
421.0523171229683
 31
0.0
  0
LINE
  5
1614
330
1E
100
AcDbEntity
  8
STEMPEL
100
AcDbLine
 10
275.9234368246974
 20
423.0523171229682
 30
0.0
 11
275.9234368246974
 21
421.0523171229683
 31
0.0
  0
LINE
  5
1615
330
1E
100
AcDbEntity
  8
STEMPEL
100
AcDbLine
 10
173.9234368246974
 20
423.0523171229682
 30
0.0
 11
173.9234368246974
 21
421.0523171229683
 31
0.0
  0
LINE
  5
1616
330
1E
100
AcDbEntity
  8
STEMPEL
100
AcDbLine
 10
162.9234368246974
 20
423.0523171229682
 30
0.0
 11
162.9234368246974
 21
421.0523171229684
 31
0.0
  0
POINT
  5
1617
330
1E
100
AcDbEntity
  8
DEFPOINTS
  6
ByBlock
 62
     0
100
AcDbPoint
 10
283.4466629778418
 20
421.8696437175775
 30
0.0
  0
POINT
  5
1618
330
1E
100
AcDbEntity
  8
DEFPOINTS
  6
ByBlock
 62
     0
100
AcDbPoint
 10
307.4466629778418
 20
435.8696437175774
 30
0.0
  0
LINE
  5
1619
102
{ACAD_REACTORS
330
1626
102
}
330
1E
100
AcDbEntity
  8
STEMPEL
100
AcDbLine
 10
311.9234368246975
 20
436.1447816638178
 30
0.0
 11
310.9177754520867
 21
437.8735515165277
 31
0.0
  0
LINE
  5
161A
102
{ACAD_REACTORS
330
1626
102
}
330
1E
100
AcDbEntity
  8
STEMPEL
100
AcDbLine
 10
285.9918890340482
 20
421.0598610746574
 30
0.0
 11
284.9862276614373
 21
422.7886309273676
 31
0.0
  0
LINE
  5
161B
330
1E
100
AcDbEntity
  8
STEMPEL
100
AcDbLine
 10
126.9234368246975
 20
436.1447816638178
 30
0.0
 11
127.9290981973082
 21
437.8735515165278
 31
0.0
  0
LINE
  5
161C
330
1E
100
AcDbEntity
  8
STEMPEL
100
AcDbLine
 10
152.8549846153463
 20
421.0598610746568
 30
0.0
 11
153.8606459879575
 21
422.7886309273675
 31
0.0
  0
HATCH
  5
1626
330
1E
100
AcDbEntity
  8
SCHRAFF
100
AcDbHatch
 10
0.0
 20
0.0
 30
0.0
210
0.0
220
0.0
230
1.0
  2
NET
 70
     0
 71
     1
 91
        1
 92
        7
 72
     0
 73
     1
 93
        5
 10
284.9953086524524
 20
422.7730203611004
 10
285.9918890340481
 20
421.0598610746576
 10
311.9234368246975
 20
436.1447816638178
 10
310.9177754520867
 20
437.8735515165277
 10
297.9520015567111
 20
430.3310912219171
 97
        5
330
1619
330
15D4
330
160D
330
161A
330
E55
 75
     0
 76
     1
 52
75.0
 41
10.0
 77
     0
 78
     2
 53
75.0
 43
-12.03918477251955
 44
0.0
 45
-1.207407282861335
 46
0.3235238063781509
 79
     0
 53
165.0
 43
-12.03918477251955
 44
0.0
 45
-0.323523806378151
 46
-1.207407282861335
 79
     0
 47
0.2040341236788785
 98
        1
 10
291.4856149359561
 20
425.476115478952
  0
HATCH
  5
1627
330
1E
100
AcDbEntity
  8
SCHRAFF
100
AcDbHatch
 10
0.0
 20
0.0
 30
0.0
210
0.0
220
0.0
230
1.0
  2
NET
 70
     0
 71
     0
 91
        1
 92
        7
 72
     0
 73
     1
 93
        5
 10
153.8515649969425
 20
422.7730203611003
 10
152.8549846153469
 20
421.0598610746575
 10
126.9234368246975
 20
436.1447816638176
 10
127.9290981973083
 20
437.8735515165276
 10
140.8948720926703
 20
430.3310912219297
 97
        0
 75
     0
 76
     1
 52
75.0
 41
10.0
 77
     0
 78
     2
 53
105.0000000000001
 43
450.886058421915
 44
0.0000000000003979
 45
1.207407282861334
 46
0.3235238063781529
 79
     0
 53
15.00000000000009
 43
450.886058421915
 44
0.0000000000003979
 45
0.3235238063781527
 46
-1.207407282861334
 79
     0
 47
0.2040341236788785
 98
        1
 10
147.3612587134388
 20
425.476115478952
  0
LINE
  5
1658
330
1E
100
AcDbEntity
  8
STEMPEL
100
AcDbLine
 10
263.9234368246976
 20
431.0523171229682
 30
0.0
 11
276.9234368246975
 21
431.0523171229682
 31
0.0
  0
LINE
  5
165B
330
1E
100
AcDbEntity
  8
STEMPEL
100
AcDbLine
 10
277.9289903241627
 20
424.5981771770788
 30
0.0
 11
277.9289903241627
 21
430.7828798748403
 31
0.0
  0
LINE
  5
165C
330
1E
100
AcDbEntity
  8
STEMPEL
100
AcDbLine
 10
274.1762135744301
 20
424.5981771770788
 30
0.0
 11
274.1762135744301
 21
430.7828798748403
 31
0.0
  0
LINE
  5
165D
330
1E
100
AcDbEntity
  8
STEMPEL
100
AcDbLine
 10
266.670660074965
 20
424.5981771770788
 30
0.0
 11
266.670660074965
 21
430.7828798748403
 31
0.0
  0
LINE
  5
165E
330
1E
100
AcDbEntity
  8
HILF
100
AcDbLine
 10
278.9786489106929
 20
424.2161326954398
 30
0.0
 11
261.8682247387021
 21
424.2161326954398
 31
0.0
  0
LINE
  5
165F
330
1E
100
AcDbEntity
  8
STEMPEL
100
AcDbLine
 10
278.7734368246976
 20
423.0523171229682
 30
0.0
 11
262.0734368246975
 21
423.0523171229682
 31
0.0
  0
LINE
  5
1660
330
1E
100
AcDbEntity
  8
STEMPEL
100
AcDbLine
 10
262.9178833252324
 20
424.5981771770788
 30
0.0
 11
262.9178833252324
 21
430.7828798748403
 31
0.0
  0
LINE
  5
1661
330
1E
100
AcDbEntity
  8
STEMPEL
100
AcDbLine
 10
263.9234368246976
 20
431.0523171229682
 30
0.0
 11
262.9178833252324
 21
430.7828798748403
 31
0.0
  0
LINE
  5
1662
330
1E
100
AcDbEntity
  8
STEMPEL
100
AcDbLine
 10
277.9289903241627
 20
430.7828798748403
 30
0.0
 11
276.9234368246975
 21
431.0523171229682
 31
0.0
  0
LINE
  5
1669
330
1E
100
AcDbEntity
  8
STEMPEL
100
AcDbLine
 10
278.9786489106929
 20
424.2161326954398
 30
0.0
 11
277.9289903241627
 21
424.5981771770788
 31
0.0
  0
LINE
  5
166A
330
1E
100
AcDbEntity
  8
STEMPEL
100
AcDbLine
 10
262.9178833252324
 20
424.5981771770788
 30
0.0
 11
261.8682247387021
 21
424.2161326954398
 31
0.0
  0
ARC
  5
166B
330
1E
100
AcDbEntity
  8
STEMPEL
100
AcDbCircle
 10
262.0734368246975
 20
423.6523171229682
 30
0.0
 40
0.5999999999999993
100
AcDbArc
 50
109.9999999999995
 51
270.0
  0
ARC
  5
166C
330
1E
100
AcDbEntity
  8
STEMPEL
100
AcDbCircle
 10
278.7734368246976
 20
423.6523171229682
 30
0.0
 40
0.5999999999999999
100
AcDbArc
 50
270.0
 51
70.00000000000047
  0
ARC
  5
166E
330
1E
100
AcDbEntity
  8
STEMPEL
100
AcDbCircle
 10
270.4234368246976
 20
404.7828798748409
 30
0.0
 40
26.26943724812735
100
AcDbArc
 50
81.78678929826059
 51
98.2132107017394
  0
ARC
  5
166F
330
1E
100
AcDbEntity
  8
STEMPEL
100
AcDbCircle
 10
264.7942717000987
 20
424.3839188428884
 30
0.0
 40
6.668398280079905
100
AcDbArc
 50
73.65710669401657
 51
106.3428933059834
  0
ARC
  5
1670
330
1E
100
AcDbEntity
  8
STEMPEL
100
AcDbCircle
 10
276.0526019492964
 20
424.3839188428884
 30
0.0
 40
6.668398280079882
100
AcDbArc
 50
73.65710669401657
 51
106.3428933059834
  0
ARC
  5
1671
330
1E
100
AcDbEntity
  8
STEMPEL
100
AcDbCircle
 10
270.4234368246976
 20
405.5412019550905
 30
0.0
 40
19.42296676475576
100
AcDbArc
 50
78.85962783889116
 51
101.1403721611088
  0
ARC
  5
1672
330
1E
100
AcDbEntity
  8
STEMPEL
100
AcDbCircle
 10
264.7942717000987
 20
419.9696662696646
 30
0.0
 40
4.994391509822305
100
AcDbArc
 50
67.93247218100519
 51
112.0675278189948
  0
ARC
  5
1673
330
1E
100
AcDbEntity
  8
STEMPEL
100
AcDbCircle
 10
276.0526019492965
 20
419.9696662696646
 30
0.0
 40
4.994391509822305
100
AcDbArc
 50
67.93247218100519
 51
112.0675278189948
  0
ARC
  5
1674
330
1E
100
AcDbEntity
  8
STEMPEL
100
AcDbCircle
 10
174.0526019492963
 20
419.9696662696646
 30
0.0
 40
4.994391509822305
100
AcDbArc
 50
67.93247218100519
 51
112.0675278189948
  0
ARC
  5
1675
330
1E
100
AcDbEntity
  8
STEMPEL
100
AcDbCircle
 10
162.7942717000986
 20
419.9696662696646
 30
0.0
 40
4.994391509822305
100
AcDbArc
 50
67.93247218100519
 51
112.0675278189948
  0
ARC
  5
1676
330
1E
100
AcDbEntity
  8
STEMPEL
100
AcDbCircle
 10
168.4234368246974
 20
405.5412019550905
 30
0.0
 40
19.42296676475576
100
AcDbArc
 50
78.85962783889116
 51
101.1403721611088
  0
ARC
  5
1677
330
1E
100
AcDbEntity
  8
STEMPEL
100
AcDbCircle
 10
174.0526019492963
 20
424.3839188428884
 30
0.0
 40
6.668398280079882
100
AcDbArc
 50
73.65710669401657
 51
106.3428933059834
  0
ARC
  5
1678
330
1E
100
AcDbEntity
  8
STEMPEL
100
AcDbCircle
 10
162.7942717000985
 20
424.3839188428884
 30
0.0
 40
6.668398280079905
100
AcDbArc
 50
73.65710669401657
 51
106.3428933059834
  0
ARC
  5
1679
330
1E
100
AcDbEntity
  8
STEMPEL
100
AcDbCircle
 10
168.4234368246974
 20
404.7828798748409
 30
0.0
 40
26.26943724812735
100
AcDbArc
 50
81.78678929826059
 51
98.2132107017394
  0
ARC
  5
167A
330
1E
100
AcDbEntity
  8
STEMPEL
100
AcDbCircle
 10
176.7734368246975
 20
423.6523171229682
 30
0.0
 40
0.5999999999999999
100
AcDbArc
 50
270.0
 51
70.00000000000047
  0
ARC
  5
167B
330
1E
100
AcDbEntity
  8
STEMPEL
100
AcDbCircle
 10
160.0734368246974
 20
423.6523171229682
 30
0.0
 40
0.5999999999999993
100
AcDbArc
 50
109.9999999999995
 51
270.0
  0
LINE
  5
167C
330
1E
100
AcDbEntity
  8
STEMPEL
100
AcDbLine
 10
160.9178833252323
 20
424.5981771770788
 30
0.0
 11
159.868224738702
 21
424.2161326954398
 31
0.0
  0
LINE
  5
167D
330
1E
100
AcDbEntity
  8
STEMPEL
100
AcDbLine
 10
176.9786489106928
 20
424.2161326954398
 30
0.0
 11
175.9289903241626
 21
424.5981771770788
 31
0.0
  0
LINE
  5
167E
330
1E
100
AcDbEntity
  8
STEMPEL
100
AcDbLine
 10
175.9289903241626
 20
430.7828798748403
 30
0.0
 11
174.9234368246974
 21
431.0523171229682
 31
0.0
  0
LINE
  5
167F
330
1E
100
AcDbEntity
  8
STEMPEL
100
AcDbLine
 10
161.9234368246974
 20
431.0523171229682
 30
0.0
 11
160.9178833252323
 21
430.7828798748403
 31
0.0
  0
LINE
  5
1680
330
1E
100
AcDbEntity
  8
STEMPEL
100
AcDbLine
 10
160.9178833252323
 20
424.5981771770788
 30
0.0
 11
160.9178833252323
 21
430.7828798748403
 31
0.0
  0
LINE
  5
1681
330
1E
100
AcDbEntity
  8
STEMPEL
100
AcDbLine
 10
176.7734368246975
 20
423.0523171229682
 30
0.0
 11
160.0734368246974
 21
423.0523171229682
 31
0.0
  0
LINE
  5
1682
330
1E
100
AcDbEntity
  8
HILF
100
AcDbLine
 10
176.9786489106928
 20
424.2161326954398
 30
0.0
 11
159.868224738702
 21
424.2161326954398
 31
0.0
  0
LINE
  5
1683
330
1E
100
AcDbEntity
  8
STEMPEL
100
AcDbLine
 10
164.6706600749649
 20
424.5981771770788
 30
0.0
 11
164.6706600749649
 21
430.7828798748403
 31
0.0
  0
LINE
  5
1684
330
1E
100
AcDbEntity
  8
STEMPEL
100
AcDbLine
 10
172.17621357443
 20
424.5981771770788
 30
0.0
 11
172.17621357443
 21
430.7828798748403
 31
0.0
  0
LINE
  5
1685
330
1E
100
AcDbEntity
  8
STEMPEL
100
AcDbLine
 10
175.9289903241626
 20
424.5981771770788
 30
0.0
 11
175.9289903241626
 21
430.7828798748403
 31
0.0
  0
LINE
  5
1686
330
1E
100
AcDbEntity
  8
STEMPEL
100
AcDbLine
 10
161.9234368246974
 20
431.0523171229682
 30
0.0
 11
174.9234368246974
 21
431.0523171229682
 31
0.0
  0
ARC
  5
1687
330
1E
100
AcDbEntity
  8
STEMPEL
100
AcDbCircle
 10
225.0526019492964
 20
419.9696662696646
 30
0.0
 40
4.994391509822305
100
AcDbArc
 50
67.93247218100519
 51
112.0675278189948
  0
ARC
  5
1688
330
1E
100
AcDbEntity
  8
STEMPEL
100
AcDbCircle
 10
213.7942717000986
 20
419.9696662696646
 30
0.0
 40
4.994391509822305
100
AcDbArc
 50
67.93247218100519
 51
112.0675278189948
  0
ARC
  5
1689
330
1E
100
AcDbEntity
  8
STEMPEL
100
AcDbCircle
 10
219.4234368246975
 20
405.5412019550905
 30
0.0
 40
19.42296676475576
100
AcDbArc
 50
78.85962783889116
 51
101.1403721611088
  0
ARC
  5
168A
330
1E
100
AcDbEntity
  8
STEMPEL
100
AcDbCircle
 10
225.0526019492963
 20
424.3839188428884
 30
0.0
 40
6.668398280079882
100
AcDbArc
 50
73.65710669401657
 51
106.3428933059834
  0
ARC
  5
168B
330
1E
100
AcDbEntity
  8
STEMPEL
100
AcDbCircle
 10
213.7942717000986
 20
424.3839188428884
 30
0.0
 40
6.668398280079905
100
AcDbArc
 50
73.65710669401657
 51
106.3428933059834
  0
ARC
  5
168C
330
1E
100
AcDbEntity
  8
STEMPEL
100
AcDbCircle
 10
219.4234368246975
 20
404.7828798748409
 30
0.0
 40
26.26943724812735
100
AcDbArc
 50
81.78678929826059
 51
98.2132107017394
  0
ARC
  5
168D
330
1E
100
AcDbEntity
  8
STEMPEL
100
AcDbCircle
 10
227.7734368246975
 20
423.6523171229682
 30
0.0
 40
0.5999999999999999
100
AcDbArc
 50
270.0
 51
70.00000000000047
  0
ARC
  5
168E
330
1E
100
AcDbEntity
  8
STEMPEL
100
AcDbCircle
 10
211.0734368246975
 20
423.6523171229682
 30
0.0
 40
0.5999999999999993
100
AcDbArc
 50
109.9999999999995
 51
270.0
  0
LINE
  5
168F
330
1E
100
AcDbEntity
  8
STEMPEL
100
AcDbLine
 10
211.9178833252324
 20
424.5981771770788
 30
0.0
 11
210.8682247387021
 21
424.2161326954398
 31
0.0
  0
LINE
  5
1690
330
1E
100
AcDbEntity
  8
STEMPEL
100
AcDbLine
 10
227.9786489106929
 20
424.2161326954398
 30
0.0
 11
226.9289903241626
 21
424.5981771770788
 31
0.0
  0
LINE
  5
1691
330
1E
100
AcDbEntity
  8
STEMPEL
100
AcDbLine
 10
226.9289903241626
 20
430.7828798748403
 30
0.0
 11
225.9234368246975
 21
431.0523171229682
 31
0.0
  0
LINE
  5
1692
330
1E
100
AcDbEntity
  8
STEMPEL
100
AcDbLine
 10
212.9234368246975
 20
431.0523171229682
 30
0.0
 11
211.9178833252324
 21
430.7828798748403
 31
0.0
  0
LINE
  5
1693
330
1E
100
AcDbEntity
  8
STEMPEL
100
AcDbLine
 10
211.9178833252324
 20
424.5981771770788
 30
0.0
 11
211.9178833252324
 21
430.7828798748403
 31
0.0
  0
LINE
  5
1694
330
1E
100
AcDbEntity
  8
STEMPEL
100
AcDbLine
 10
227.7734368246975
 20
423.0523171229682
 30
0.0
 11
211.0734368246975
 21
423.0523171229682
 31
0.0
  0
LINE
  5
1695
330
1E
100
AcDbEntity
  8
HILF
100
AcDbLine
 10
227.9786489106929
 20
424.2161326954398
 30
0.0
 11
210.8682247387021
 21
424.2161326954398
 31
0.0
  0
LINE
  5
1696
330
1E
100
AcDbEntity
  8
STEMPEL
100
AcDbLine
 10
215.6706600749649
 20
424.5981771770788
 30
0.0
 11
215.6706600749649
 21
430.7828798748403
 31
0.0
  0
LINE
  5
1697
330
1E
100
AcDbEntity
  8
STEMPEL
100
AcDbLine
 10
223.17621357443
 20
424.5981771770788
 30
0.0
 11
223.17621357443
 21
430.7828798748403
 31
0.0
  0
LINE
  5
1698
330
1E
100
AcDbEntity
  8
STEMPEL
100
AcDbLine
 10
226.9289903241626
 20
424.5981771770788
 30
0.0
 11
226.9289903241626
 21
430.7828798748403
 31
0.0
  0
LINE
  5
1699
330
1E
100
AcDbEntity
  8
STEMPEL
100
AcDbLine
 10
212.9234368246975
 20
431.0523171229682
 30
0.0
 11
225.9234368246975
 21
431.0523171229682
 31
0.0
  0
LINE
  5
169A
330
1E
100
AcDbEntity
  8
HILF
100
AcDbLine
 10
267.4234368246975
 20
423.0523171229683
 30
0.0
 11
267.4234368246975
 21
416.9938426144675
 31
0.0
  0
LINE
  5
169B
330
1E
100
AcDbEntity
  8
STEMPEL
100
AcDbLine
 10
266.4234368246976
 20
423.0523171229682
 30
0.0
 11
266.4234368246976
 21
416.9938426144675
 31
0.0
  0
LINE
  5
169C
330
1E
100
AcDbEntity
  8
HILF
100
AcDbLine
 10
273.4234368246975
 20
423.0523171229683
 30
0.0
 11
273.4234368246975
 21
416.9938426144675
 31
0.0
  0
LINE
  5
169D
330
1E
100
AcDbEntity
  8
STEMPEL
100
AcDbLine
 10
274.4234368246975
 20
423.0523171229682
 30
0.0
 11
274.4234368246976
 21
416.9938426144675
 31
0.0
  0
LINE
  5
169E
330
1E
100
AcDbEntity
  8
STEMPEL
100
AcDbLine
 10
274.4234368246976
 20
421.0523171229684
 30
0.0
 11
280.4234368246974
 21
421.0523171229683
 31
0.0
  0
LINE
  5
169F
330
1E
100
AcDbEntity
  8
STEMPEL
100
AcDbLine
 10
215.4234368246975
 20
421.0523171229684
 30
0.0
 11
215.4234368246975
 21
416.9938426144674
 31
0.0
  0
LINE
  5
16A0
330
1E
100
AcDbEntity
  8
HILF
100
AcDbLine
 10
216.4234368246976
 20
421.0523171229684
 30
0.0
 11
216.4234368246976
 21
416.9938426144675
 31
0.0
  0
LINE
  5
16A1
330
1E
100
AcDbEntity
  8
HILF
100
AcDbLine
 10
222.4234368246976
 20
421.0523171229684
 30
0.0
 11
222.4234368246976
 21
416.9938426144675
 31
0.0
  0
LINE
  5
16A2
330
1E
100
AcDbEntity
  8
STEMPEL
100
AcDbLine
 10
223.4234368246975
 20
421.0523171229684
 30
0.0
 11
223.4234368246975
 21
416.9938426144674
 31
0.0
  0
LINE
  5
16A3
330
1E
100
AcDbEntity
  8
HILF
100
AcDbLine
 10
165.4234368246975
 20
423.0523171229683
 30
0.0
 11
165.4234368246975
 21
416.9938426144675
 31
0.0
  0
LINE
  5
16A4
330
1E
100
AcDbEntity
  8
STEMPEL
100
AcDbLine
 10
164.4234368246975
 20
423.0523171229683
 30
0.0
 11
164.4234368246975
 21
416.9938426144674
 31
0.0
  0
LINE
  5
16A5
330
1E
100
AcDbEntity
  8
HILF
100
AcDbLine
 10
171.4234368246975
 20
423.0523171229683
 30
0.0
 11
171.4234368246975
 21
416.9938426144675
 31
0.0
  0
LINE
  5
16A6
330
1E
100
AcDbEntity
  8
STEMPEL
100
AcDbLine
 10
172.4234368246975
 20
423.0523171229683
 30
0.0
 11
172.4234368246975
 21
416.9938426144674
 31
0.0
  0
LINE
  5
16A7
330
1E
100
AcDbEntity
  8
STEMPEL
100
AcDbLine
 10
172.4234368246975
 20
421.0523171229683
 30
0.0
 11
266.4234368246976
 21
421.0523171229684
 31
0.0
  0
TEXT
  5
16B1
330
1E
100
AcDbEntity
  8
TEXT
 62
     1
100
AcDbText
 10
157.6731295726835
 20
499.7231711531949
 30
0.0
 40
7.0
  1
Losflansch
 41
0.8
  7
GREEKS
100
AcDbText
  0
TEXT
  5
16B2
330
1E
100
AcDbEntity
  8
TEXT
 62
     1
100
AcDbText
 10
157.6731295726835
 20
486.83590728249
 30
0.0
 40
7.0
  1
EDV-Art.Nr. 19070.000X
 41
0.8
  7
GREEKS
100
AcDbText
  0
LINE
  5
16B3
330
1E
100
AcDbEntity
  8
TEXT
 62
     2
100
AcDbLine
 10
156.4004423499658
 20
496.1930613397909
 30
0.0
 11
262.3356229979071
 21
496.1930613397909
 31
0.0
  0
LINE
  5
16B4
330
1E
100
AcDbEntity
  8
TEXT
 62
     2
100
AcDbLine
 10
156.4004423499658
 20
496.1930613397909
 30
0.0
 11
143.6041981929518
 21
459.4652633312334
 31
0.0
  0
LINE
  5
16B5
330
1E
100
AcDbEntity
  8
TEXT
 62
     2
100
AcDbLine
 10
292.0805186197462
 20
381.4112186633877
 30
0.0
 11
287.0034056020374
 21
423.1281534041579
 31
0.0
  0
LINE
  5
16B6
330
1E
100
AcDbEntity
  8
TEXT
 62
     2
100
AcDbLine
 10
292.0805186197462
 20
381.4112186633877
 30
0.0
 11
399.060645889925
 21
381.4112186633877
 31
0.0
  0
TEXT
  5
16B7
330
1E
100
AcDbEntity
  8
TEXT
 62
     1
100
AcDbText
 10
293.3532058424638
 20
372.0540646060868
 30
0.0
 40
7.0
  1
EDV-Art.Nr. 19088.070X
 41
0.8
  7
GREEKS
100
AcDbText
  0
TEXT
  5
16B8
330
1E
100
AcDbEntity
  8
TEXT
 62
     1
100
AcDbText
 10
293.3532058424638
 20
384.9413284767916
 30
0.0
 40
7.0
  1
Flanschdichtring DN70
 41
0.8
  7
GREEKS
100
AcDbText
  0
LINE
  5
16E7
330
1E
100
AcDbEntity
  8
TEXT
 62
     2
100
AcDbLine
 10
142.2881563640926
 20
455.6879582198224
 30
0.0
 11
134.9665822129733
 21
434.6735657756469
 31
0.0
  0
TEXT
  5
16EC
330
1E
100
AcDbEntity
  8
TEXT
 62
     1
100
AcDbText
 10
278.7728979970014
 20
222.4979058855668
 30
0.0
 40
7.0
  1
EDV-Art.Nr. 19001.050X
 41
0.8
  7
GREEKS
100
AcDbText
  0
ENDSEC
  0
SECTION
  2
OBJECTS
  0
DICTIONARY
  5
C
330
0
100
AcDbDictionary
281
     1
  3
ACAD_COLOR
350
DF
  3
ACAD_GROUP
350
D
  3
ACAD_LAYOUT
350
19
  3
ACAD_MATERIAL
350
DE
  3
ACAD_MLINESTYLE
350
16
  3
ACAD_PLOTSETTINGS
350
18
  3
ACAD_PLOTSTYLENAME
350
E
  3
AcDbVariableDictionary
350
EA
  0
DICTIONARY
  5
A0
330
1E
100
AcDbDictionary
280
     1
281
     1
  3
ACAD_LAYOUTSELFREF
360
D4
  0
DICTIONARY
  5
A2
330
1A
100
AcDbDictionary
280
     1
281
     1
  3
ACAD_LAYOUTSELFREF
360
D3
  0
DICTIONARY
  5
DF
102
{ACAD_REACTORS
330
C
102
}
330
C
100
AcDbDictionary
281
     1
  0
DICTIONARY
  5
D
102
{ACAD_REACTORS
330
C
102
}
330
C
100
AcDbDictionary
281
     1
  0
DICTIONARY
  5
19
102
{ACAD_REACTORS
330
C
102
}
330
C
100
AcDbDictionary
281
     1
  3
Layout1
350
1D
  3
Model
350
21
  0
DICTIONARY
  5
DE
102
{ACAD_REACTORS
330
C
102
}
330
C
100
AcDbDictionary
281
     1
  0
DICTIONARY
  5
16
102
{ACAD_REACTORS
330
C
102
}
330
C
100
AcDbDictionary
281
     1
  3
Standard
350
17
  0
DICTIONARY
  5
18
102
{ACAD_REACTORS
330
C
102
}
330
C
100
AcDbDictionary
281
     1
  0
ACDBDICTIONARYWDFLT
  5
E
102
{ACAD_REACTORS
330
C
102
}
330
C
100
AcDbDictionary
281
     1
  3
Normal
350
F
100
AcDbDictionaryWithDefault
340
F
  0
DICTIONARY
  5
EA
102
{ACAD_REACTORS
330
C
102
}
330
C
100
AcDbDictionary
281
     1
  3
DIMASSOC
350
EB
  3
PROJECTNAME
350
EC
  0
XRECORD
  5
D4
102
{ACAD_REACTORS
330
A0
102
}
330
A0
100
AcDbXrecord
280
     1
340
1E
  0
XRECORD
  5
D3
102
{ACAD_REACTORS
330
A2
102
}
330
A2
100
AcDbXrecord
280
     1
340
1A
  0
LAYOUT
  5
1D
102
{ACAD_REACTORS
330
19
102
}
330
19
100
AcDbPlotSettings
  1

  2
\\NT_WORK01\HP LaserJet 5000 PCL 6
  4

  6

 40
0.0
 41
0.0
 42
0.0
 43
0.0
 44
0.0
 45
0.0
 46
0.0
 47
0.0
 48
0.0
 49
0.0
140
0.0
141
0.0
142
1.0
143
1.0
 70
   688
 72
     0
 73
     0
 74
     5
  7

 75
    16
147
1.0
 76
     0
 77
     2
 78
   300
148
0.0
149
0.0
100
AcDbLayout
  1
Layout1
 70
     0
 71
     1
 10
0.0
 20
0.0
 11
12.0
 21
9.0
 12
0.0
 22
0.0
 32
0.0
 14
1.000000000000000E+20
 24
1.000000000000000E+20
 34
1.000000000000000E+20
 15
-1.000000000000000E+20
 25
-1.000000000000000E+20
 35
-1.000000000000000E+20
146
0.0
 13
0.0
 23
0.0
 33
0.0
 16
1.0
 26
0.0
 36
0.0
 17
0.0
 27
1.0
 37
0.0
 76
     0
330
1A
  0
LAYOUT
  5
21
102
{ACAD_REACTORS
330
19
102
}
330
19
100
AcDbPlotSettings
  1

  2
none_device
  4
Letter_(8.50_x_11.00_Inches)
  6

 40
6.349999904632568
 41
6.349999904632568
 42
6.350006103515625
 43
6.350006103515625
 44
215.8999938964844
 45
279.3999938964844
 46
0.0
 47
0.0
 48
0.0
 49
0.0
140
0.0
141
0.0
142
1.0
143
1.0
 70
 11952
 72
     0
 73
     1
 74
     0
  7

 75
     0
147
1.0
 76
     0
 77
     2
 78
   300
148
2209.800000000001
149
0.0
100
AcDbLayout
  1
Model
 70
     1
 71
     0
 10
0.0
 20
0.0
 11
12.0
 21
9.0
 12
0.0
 22
0.0
 32
0.0
 14
0.0
 24
0.0
 34
0.0
 15
0.0
 25
0.0
 35
0.0
146
0.0
 13
0.0
 23
0.0
 33
0.0
 16
1.0
 26
0.0
 36
0.0
 17
0.0
 27
1.0
 37
0.0
 76
     0
330
1E
  0
MLINESTYLE
  5
17
102
{ACAD_REACTORS
330
16
102
}
330
16
100
AcDbMlineStyle
  2
STANDARD
 70
     0
  3

 62
   256
 51
90.0
 52
90.0
 71
     2
 49
0.5
 62
   256
  6
BYLAYER
 49
-0.5
 62
   256
  6
BYLAYER
  0
ACDBPLACEHOLDER
  5
F
102
{ACAD_REACTORS
330
E
102
}
330
E
  0
DICTIONARYVAR
  5
EB
102
{ACAD_REACTORS
330
EA
102
}
330
EA
100
DictionaryVariables
280
     0
  1
1
  0
DICTIONARYVAR
  5
EC
102
{ACAD_REACTORS
330
EA
102
}
330
EA
100
DictionaryVariables
280
     0
  1

  0
ENDSEC
  0
EOF
