  0
SECTION
  2
HEADER
  9
$ACADVER
  1
AC1018
  9
$ACADMAINTVER
 70
     2
  9
$DWGCODEPAGE
  3
ANSI_1252
  9
$INSBASE
 10
0.0
 20
0.0
 30
0.0
  9
$EXTMIN
 10
-0.0000000000001137
 20
-0.0000000000001137
 30
0.0
  9
$EXTMAX
 10
420.0
 20
594.0000000000002
 30
0.0
  9
$LIMMIN
 10
0.0
 20
0.0
  9
$LIMMAX
 10
419.9999999999999
 20
594.0
  9
$ORTHOMODE
 70
     1
  9
$REGENMODE
 70
     1
  9
$FILLMODE
 70
     1
  9
$QTEXTMODE
 70
     0
  9
$MIRRTEXT
 70
     1
  9
$LTSCALE
 40
20.0
  9
$ATTMODE
 70
     1
  9
$TEXTSIZE
 40
3.5
  9
$TRACEWID
 40
0.5
  9
$TEXTSTYLE
  7
STANDARD
  9
$CLAYER
  8
VOLL
  9
$CELTYPE
  6
ByLayer
  9
$CECOLOR
 62
   256
  9
$CELTSCALE
 40
1.0
  9
$DISPSILH
 70
     0
  9
$DIMSCALE
 40
2.0
  9
$DIMASZ
 40
3.5
  9
$DIMEXO
 40
1.0
  9
$DIMDLI
 40
7.0
  9
$DIMRND
 40
0.0
  9
$DIMDLE
 40
0.0
  9
$DIMEXE
 40
1.0
  9
$DIMTP
 40
0.0
  9
$DIMTM
 40
0.0
  9
$DIMTXT
 40
3.5
  9
$DIMCEN
 40
1.5
  9
$DIMTSZ
 40
0.0
  9
$DIMTOL
 70
     0
  9
$DIMLIM
 70
     0
  9
$DIMTIH
 70
     0
  9
$DIMTOH
 70
     0
  9
$DIMSE1
 70
     0
  9
$DIMSE2
 70
     0
  9
$DIMTAD
 70
     1
  9
$DIMZIN
 70
     8
  9
$DIMBLK
  1

  9
$DIMASO
 70
     1
  9
$DIMSHO
 70
     0
  9
$DIMPOST
  1

  9
$DIMAPOST
  1

  9
$DIMALT
 70
     0
  9
$DIMALTD
 70
     2
  9
$DIMALTF
 40
25.4
  9
$DIMLFAC
 40
1.0
  9
$DIMTOFL
 70
     1
  9
$DIMTVP
 40
0.0
  9
$DIMTIX
 70
     0
  9
$DIMSOXD
 70
     0
  9
$DIMSAH
 70
     0
  9
$DIMBLK1
  1

  9
$DIMBLK2
  1

  9
$DIMSTYLE
  2
Standard
  9
$DIMCLRD
 70
     0
  9
$DIMCLRE
 70
     0
  9
$DIMCLRT
 70
     1
  9
$DIMTFAC
 40
0.5142857142857144
  9
$DIMGAP
 40
1.5
  9
$DIMJUST
 70
     0
  9
$DIMSD1
 70
     0
  9
$DIMSD2
 70
     0
  9
$DIMTOLJ
 70
     1
  9
$DIMTZIN
 70
     8
  9
$DIMALTZ
 70
     8
  9
$DIMALTTZ
 70
     8
  9
$DIMUPT
 70
     0
  9
$DIMDEC
 70
     2
  9
$DIMTDEC
 70
     2
  9
$DIMALTU
 70
     2
  9
$DIMALTTD
 70
     2
  9
$DIMTXSTY
  7
STANDARD
  9
$DIMAUNIT
 70
     0
  9
$DIMADEC
 70
     2
  9
$DIMALTRND
 40
0.0
  9
$DIMAZIN
 70
     2
  9
$DIMDSEP
 70
    46
  9
$DIMATFIT
 70
     3
  9
$DIMFRAC
 70
     0
  9
$DIMLDRBLK
  1

  9
$DIMLUNIT
 70
     2
  9
$DIMLWD
 70
    -2
  9
$DIMLWE
 70
    -2
  9
$DIMTMOVE
 70
     0
  9
$LUNITS
 70
     2
  9
$LUPREC
 70
     2
  9
$SKETCHINC
 40
1.0
  9
$FILLETRAD
 40
13.2
  9
$AUNITS
 70
     0
  9
$AUPREC
 70
     0
  9
$MENU
  1
ACAD
  9
$ELEVATION
 40
0.0
  9
$PELEVATION
 40
0.0
  9
$THICKNESS
 40
0.0
  9
$LIMCHECK
 70
     0
  9
$CHAMFERA
 40
0.0
  9
$CHAMFERB
 40
0.0
  9
$CHAMFERC
 40
0.0
  9
$CHAMFERD
 40
0.0
  9
$SKPOLY
 70
     0
  9
$TDCREATE
 40
2455397.864709028
  9
$TDUCREATE
 40
2455397.781375695
  9
$TDUPDATE
 40
2456094.353976494
  9
$TDUUPDATE
 40
2456094.270643160
  9
$TDINDWG
 40
0.2373414699
  9
$TDUSRTIMER
 40
0.2373414699
  9
$USRTIMER
 70
     1
  9
$ANGBASE
 50
0.0
  9
$ANGDIR
 70
     0
  9
$PDMODE
 70
     0
  9
$PDSIZE
 40
0.0
  9
$PLINEWID
 40
0.0
  9
$SPLFRAME
 70
     0
  9
$SPLINETYPE
 70
     6
  9
$SPLINESEGS
 70
     8
  9
$HANDSEED
  5
1B0F
  9
$SURFTAB1
 70
     6
  9
$SURFTAB2
 70
     6
  9
$SURFTYPE
 70
     6
  9
$SURFU
 70
     6
  9
$SURFV
 70
     6
  9
$UCSBASE
  2

  9
$UCSNAME
  2

  9
$UCSORG
 10
0.0
 20
0.0
 30
0.0
  9
$UCSXDIR
 10
1.0
 20
0.0
 30
0.0
  9
$UCSYDIR
 10
0.0
 20
1.0
 30
0.0
  9
$UCSORTHOREF
  2

  9
$UCSORTHOVIEW
 70
     0
  9
$UCSORGTOP
 10
0.0
 20
0.0
 30
0.0
  9
$UCSORGBOTTOM
 10
0.0
 20
0.0
 30
0.0
  9
$UCSORGLEFT
 10
0.0
 20
0.0
 30
0.0
  9
$UCSORGRIGHT
 10
0.0
 20
0.0
 30
0.0
  9
$UCSORGFRONT
 10
0.0
 20
0.0
 30
0.0
  9
$UCSORGBACK
 10
0.0
 20
0.0
 30
0.0
  9
$PUCSBASE
  2

  9
$PUCSNAME
  2

  9
$PUCSORG
 10
0.0
 20
0.0
 30
0.0
  9
$PUCSXDIR
 10
1.0
 20
0.0
 30
0.0
  9
$PUCSYDIR
 10
0.0
 20
1.0
 30
0.0
  9
$PUCSORTHOREF
  2

  9
$PUCSORTHOVIEW
 70
     0
  9
$PUCSORGTOP
 10
0.0
 20
0.0
 30
0.0
  9
$PUCSORGBOTTOM
 10
0.0
 20
0.0
 30
0.0
  9
$PUCSORGLEFT
 10
0.0
 20
0.0
 30
0.0
  9
$PUCSORGRIGHT
 10
0.0
 20
0.0
 30
0.0
  9
$PUCSORGFRONT
 10
0.0
 20
0.0
 30
0.0
  9
$PUCSORGBACK
 10
0.0
 20
0.0
 30
0.0
  9
$USERI1
 70
     0
  9
$USERI2
 70
     0
  9
$USERI3
 70
     0
  9
$USERI4
 70
     0
  9
$USERI5
 70
     0
  9
$USERR1
 40
0.0
  9
$USERR2
 40
0.0
  9
$USERR3
 40
0.0
  9
$USERR4
 40
0.0
  9
$USERR5
 40
0.0
  9
$WORLDVIEW
 70
     1
  9
$SHADEDGE
 70
     3
  9
$SHADEDIF
 70
    70
  9
$TILEMODE
 70
     1
  9
$MAXACTVP
 70
    16
  9
$PINSBASE
 10
0.0
 20
0.0
 30
0.0
  9
$PLIMCHECK
 70
     0
  9
$PEXTMIN
 10
1.000000000000000E+20
 20
1.000000000000000E+20
 30
1.000000000000000E+20
  9
$PEXTMAX
 10
-1.000000000000000E+20
 20
-1.000000000000000E+20
 30
-1.000000000000000E+20
  9
$PLIMMIN
 10
0.0
 20
0.0
  9
$PLIMMAX
 10
12.0
 20
9.0
  9
$UNITMODE
 70
     0
  9
$VISRETAIN
 70
     0
  9
$PLINEGEN
 70
     0
  9
$PSLTSCALE
 70
     0
  9
$TREEDEPTH
 70
  3020
  9
$CMLSTYLE
  2
Standard
  9
$CMLJUST
 70
     0
  9
$CMLSCALE
 40
1.0
  9
$PROXYGRAPHICS
 70
     1
  9
$MEASUREMENT
 70
     0
  9
$CELWEIGHT
370
    -1
  9
$ENDCAPS
280
     0
  9
$JOINSTYLE
280
     0
  9
$LWDISPLAY
290
     0
  9
$INSUNITS
 70
     0
  9
$HYPERLINKBASE
  1

  9
$STYLESHEET
  1
monochrome 1.ctb
  9
$XEDIT
290
     1
  9
$CEPSNTYPE
380
     0
  9
$PSTYLEMODE
290
     1
  9
$FINGERPRINTGUID
  2
{D68B0D02-A558-11D7-B632-000102183313}
  9
$VERSIONGUID
  2
{C892BB23-53C6-4F2A-AC71-11699C14C84D}
  9
$EXTNAMES
290
     1
  9
$PSVPSCALE
 40
0.0
  9
$OLESTARTUP
290
     0
  9
$SORTENTS
280
   127
  9
$INDEXCTL
280
     0
  9
$HIDETEXT
280
     0
  9
$XCLIPFRAME
290
     0
  9
$HALOGAP
280
     0
  9
$OBSCOLOR
 70
   257
  9
$OBSLTYPE
280
     0
  9
$INTERSECTIONDISPLAY
280
     0
  9
$INTERSECTIONCOLOR
 70
   257
  9
$DIMASSOC
280
     1
  9
$PROJECTNAME
  1

  0
ENDSEC
  0
SECTION
  2
CLASSES
  0
CLASS
  1
ACDBDICTIONARYWDFLT
  2
AcDbDictionaryWithDefault
  3
ObjectDBX Classes
 90
        0
 91
        1
280
     0
281
     0
  0
CLASS
  1
DICTIONARYVAR
  2
AcDbDictionaryVar
  3
ObjectDBX Classes
 90
        0
 91
        2
280
     0
281
     0
  0
ENDSEC
  0
SECTION
  2
TABLES
  0
TABLE
  2
VPORT
  5
8
330
0
100
AcDbSymbolTable
 70
     3
  0
VPORT
  5
1B0E
330
8
100
AcDbSymbolTableRecord
100
AcDbViewportTableRecord
  2
*Active
 70
     0
 10
0.0
 20
0.0
 11
1.0
 21
1.0
 12
210.0
 22
297.0
 13
0.0
 23
0.0
 14
1.0
 24
1.0
 15
10.0
 25
10.0
 16
0.0
 26
0.0
 36
1.0
 17
0.0
 27
0.0
 37
0.0
 40
594.0
 41
1.374331550802138
 42
50.0
 43
0.0
 44
0.0
 50
0.0
 51
0.0
 71
     0
 72
  1500
 73
     1
 74
     0
 75
     0
 76
     0
 77
     0
 78
     0
281
     0
 65
     1
110
0.0
120
0.0
130
0.0
111
1.0
121
0.0
131
0.0
112
0.0
122
1.0
132
0.0
 79
     0
146
0.0
  0
ENDTAB
  0
TABLE
  2
LTYPE
  5
5
330
0
100
AcDbSymbolTable
 70
     2
  0
LTYPE
  5
13
330
5
100
AcDbSymbolTableRecord
100
AcDbLinetypeTableRecord
  2
ByBlock
 70
     0
  3

 72
    65
 73
     0
 40
0.0
  0
LTYPE
  5
14
330
5
100
AcDbSymbolTableRecord
100
AcDbLinetypeTableRecord
  2
ByLayer
 70
     0
  3

 72
    65
 73
     0
 40
0.0
  0
LTYPE
  5
15
330
5
100
AcDbSymbolTableRecord
100
AcDbLinetypeTableRecord
  2
Continuous
 70
     0
  3
Solid line
 72
    65
 73
     0
 40
0.0
  0
LTYPE
  5
25
330
5
100
AcDbSymbolTableRecord
100
AcDbLinetypeTableRecord
  2
STRICHPUNKT
 70
     0
  3
__ . __ . __ . __ . __ . __ . __ . __ . __ . __
 72
    65
 73
     4
 40
1.0
 49
0.5
 74
     0
 49
-0.25
 74
     0
 49
0.0
 74
     0
 49
-0.25
 74
     0
  0
ENDTAB
  0
TABLE
  2
LAYER
  5
2
330
0
100
AcDbSymbolTable
 70
     9
  0
LAYER
  5
10
330
2
100
AcDbSymbolTableRecord
100
AcDbLayerTableRecord
  2
0
 70
     0
 62
     7
  6
Continuous
370
    -3
390
F
  0
LAYER
  5
2A
330
2
100
AcDbSymbolTableRecord
100
AcDbLayerTableRecord
  2
VOLL
 70
     0
 62
     1
  6
Continuous
370
    -3
390
F
  0
LAYER
  5
2B
330
2
100
AcDbSymbolTableRecord
100
AcDbLayerTableRecord
  2
HILF
 70
     0
 62
     2
  6
Continuous
370
    -3
390
F
  0
LAYER
  5
2C
330
2
100
AcDbSymbolTableRecord
100
AcDbLayerTableRecord
  2
MITTEL
 70
     0
 62
     2
  6
STRICHPUNKT
370
    -3
390
F
  0
LAYER
  5
2F
330
2
100
AcDbSymbolTableRecord
100
AcDbLayerTableRecord
  2
BEM
 70
     0
 62
     7
  6
Continuous
370
    -3
390
F
  0
LAYER
  5
30
330
2
100
AcDbSymbolTableRecord
100
AcDbLayerTableRecord
  2
STEMPEL
 70
     0
 62
     3
  6
Continuous
370
    -3
390
F
  0
LAYER
  5
31
330
2
100
AcDbSymbolTableRecord
100
AcDbLayerTableRecord
  2
TEXT
 70
     0
 62
     7
  6
Continuous
370
    -3
390
F
  0
LAYER
  5
4E8
330
2
100
AcDbSymbolTableRecord
100
AcDbLayerTableRecord
  2
DEFPOINTS
 70
     0
 62
     7
  6
Continuous
290
     0
370
    -3
390
F
  0
LAYER
  5
4E9
330
2
100
AcDbSymbolTableRecord
100
AcDbLayerTableRecord
  2
SCHRAFF
 70
     0
 62
     7
  6
Continuous
370
    -3
390
F
  0
ENDTAB
  0
TABLE
  2
STYLE
  5
3
330
0
100
AcDbSymbolTable
 70
     2
  0
STYLE
  5
11
330
3
100
AcDbSymbolTableRecord
100
AcDbTextStyleTableRecord
  2
STANDARD
 70
     0
 40
0.0
 41
0.8
 50
0.0
 71
     0
 42
3.5
  3
simplex.shx
  4

  0
STYLE
  5
24
330
3
100
AcDbSymbolTableRecord
100
AcDbTextStyleTableRecord
  2
GREEKS
 70
     0
 40
0.0
 41
0.8
 50
0.0
 71
     0
 42
2.5
  3
SIMPLEX.shx
  4

  0
ENDTAB
  0
TABLE
  2
VIEW
  5
6
330
0
100
AcDbSymbolTable
 70
     0
  0
ENDTAB
  0
TABLE
  2
UCS
  5
7
330
0
100
AcDbSymbolTable
 70
     0
  0
ENDTAB
  0
TABLE
  2
APPID
  5
9
330
0
100
AcDbSymbolTable
 70
     1
  0
APPID
  5
12
330
9
100
AcDbSymbolTableRecord
100
AcDbRegAppTableRecord
  2
ACAD
 70
     0
  0
ENDTAB
  0
TABLE
  2
DIMSTYLE
  5
A
330
0
100
AcDbSymbolTable
 70
     1
100
AcDbDimStyleTable
 71
     1
340
9D
  0
DIMSTYLE
105
9D
102
{ACAD_REACTORS
330
DF8
330
116B
330
1941
330
17D7
330
19DF
330
1A79
330
1A8A
330
1A94
330
1A98
102
}
330
A
100
AcDbSymbolTableRecord
100
AcDbDimStyleTableRecord
  2
Standard
 70
     0
340
11
  0
ENDTAB
  0
TABLE
  2
BLOCK_RECORD
  5
1
330
0
100
AcDbSymbolTable
 70
    10
  0
BLOCK_RECORD
  5
1E
102
{ACAD_XDICTIONARY
360
A0
102
}
330
1
100
AcDbSymbolTableRecord
100
AcDbBlockTableRecord
  2
*Model_Space
340
21
  0
BLOCK_RECORD
  5
1A
102
{ACAD_XDICTIONARY
360
A2
102
}
330
1
100
AcDbSymbolTableRecord
100
AcDbBlockTableRecord
  2
*Paper_Space
340
1D
  0
BLOCK_RECORD
  5
22
330
1
100
AcDbSymbolTableRecord
100
AcDbBlockTableRecord
  2
LOGO
340
0
102
{BLKREFS
331
9B
102
}
  0
BLOCK_RECORD
  5
ECC
330
1
100
AcDbSymbolTableRecord
100
AcDbBlockTableRecord
  2
*D1
340
0
  0
BLOCK_RECORD
  5
116C
330
1
100
AcDbSymbolTableRecord
100
AcDbBlockTableRecord
  2
*D2
340
0
  0
BLOCK_RECORD
  5
188B
330
1
100
AcDbSymbolTableRecord
100
AcDbBlockTableRecord
  2
*D3
340
0
  0
BLOCK_RECORD
  5
1942
330
1
100
AcDbSymbolTableRecord
100
AcDbBlockTableRecord
  2
*D4
340
0
  0
BLOCK_RECORD
  5
19FC
330
1
100
AcDbSymbolTableRecord
100
AcDbBlockTableRecord
  2
*D5
340
0
  0
BLOCK_RECORD
  5
1A9D
330
1
100
AcDbSymbolTableRecord
100
AcDbBlockTableRecord
  2
*D6
340
0
  0
BLOCK_RECORD
  5
1AA9
330
1
100
AcDbSymbolTableRecord
100
AcDbBlockTableRecord
  2
*D7
340
0
  0
BLOCK_RECORD
  5
1AB5
330
1
100
AcDbSymbolTableRecord
100
AcDbBlockTableRecord
  2
*D8
340
0
  0
BLOCK_RECORD
  5
1AC1
330
1
100
AcDbSymbolTableRecord
100
AcDbBlockTableRecord
  2
*D9
340
0
  0
ENDTAB
  0
ENDSEC
  0
SECTION
  2
BLOCKS
  0
BLOCK
  5
35
330
1E
100
AcDbEntity
  8
0
100
AcDbBlockBegin
  2
*Model_Space
 70
     0
 10
0.0
 20
0.0
 30
0.0
  3
*Model_Space
  1

  0
ENDBLK
  5
36
330
1E
100
AcDbEntity
  8
0
100
AcDbBlockEnd
  0
BLOCK
  5
33
330
1A
100
AcDbEntity
 67
     1
  8
0
100
AcDbBlockBegin
  2
*Paper_Space
 70
     0
 10
0.0
 20
0.0
 30
0.0
  3
*Paper_Space
  1

  0
ENDBLK
  5
34
330
1A
100
AcDbEntity
 67
     1
  8
0
100
AcDbBlockEnd
  0
BLOCK
  5
37
330
22
100
AcDbEntity
  8
0
100
AcDbBlockBegin
  2
LOGO
 70
     0
 10
0.0
 20
0.0
 30
0.0
  3
LOGO
  1

  0
ARC
  5
38
330
22
100
AcDbEntity
  8
0
100
AcDbCircle
 10
11.59973089678112
 20
-9.271599258481501
 30
0.0
 40
4.5
100
AcDbArc
 50
270.0
 51
231.0575587310159
  0
LINE
  5
39
330
22
100
AcDbEntity
  8
0
100
AcDbLine
 10
3.599730896781125
 20
-4.771599258481529
 30
0.0
 11
3.599730896781153
 21
-11.77159925848133
 31
0.0
  0
LINE
  5
3A
330
22
100
AcDbEntity
  8
0
100
AcDbLine
 10
2.599730896781125
 20
-4.771599258481529
 30
0.0
 11
2.599730896781153
 21
-11.77159925848133
 31
0.0
  0
CIRCLE
  5
3B
330
22
100
AcDbEntity
  8
0
100
AcDbCircle
 10
11.59973089678112
 20
-9.271599258481501
 30
0.0
 40
3.5
  0
ARC
  5
3C
330
22
100
AcDbEntity
  8
0
100
AcDbCircle
 10
31.59973089678115
 20
-9.271599258481472
 30
0.0
 40
4.5
100
AcDbArc
 50
270.0
 51
231.0575587310182
  0
LINE
  5
3D
330
22
100
AcDbEntity
  8
0
100
AcDbLine
 10
17.59973089678112
 20
-4.771599258481472
 30
0.0
 11
17.59973089678115
 21
-13.77159925848147
 31
0.0
  0
ARC
  5
3E
330
22
100
AcDbEntity
  8
0
100
AcDbCircle
 10
22.59973089678116
 20
-7.271599258481472
 30
0.0
 40
2.5
100
AcDbArc
 50
293.1161887722295
 51
90.0
  0
CIRCLE
  5
3F
330
22
100
AcDbEntity
  8
0
100
AcDbCircle
 10
31.59973089678115
 20
-9.271599258481472
 30
0.0
 40
3.5
  0
ARC
  5
40
330
22
100
AcDbEntity
  8
0
100
AcDbCircle
 10
4.599730896781153
 20
-11.77159925848133
 30
0.0
 40
1.0
100
AcDbArc
 50
180.0
 51
270.0
  0
ARC
  5
41
330
22
100
AcDbEntity
  8
0
100
AcDbCircle
 10
4.599730896781153
 20
-11.77159925848133
 30
0.0
 40
2.0
100
AcDbArc
 50
179.9999999999992
 51
270.0
  0
LINE
  5
42
330
22
100
AcDbEntity
  8
0
100
AcDbLine
 10
11.59973089678115
 20
-13.77159925848144
 30
0.0
 11
4.599730896781153
 21
-13.77159925848147
 31
0.0
  0
LINE
  5
43
330
22
100
AcDbEntity
  8
0
100
AcDbLine
 10
8.771303772034769
 20
-12.77159925848136
 30
0.0
 11
4.599730896781153
 21
-12.77159925848133
 31
0.0
  0
LINE
  5
44
330
22
100
AcDbEntity
  8
0
100
AcDbLine
 10
31.59973089678115
 20
-13.77159925848147
 30
0.0
 11
23.6715276665056
 21
-13.77159925848144
 31
0.0
  0
LINE
  5
45
330
22
100
AcDbEntity
  8
0
100
AcDbLine
 10
23.56565672307022
 20
-9.51278021337896
 30
0.0
 11
24.4388546544846
 21
-12.77159925848144
 31
0.0
  0
LINE
  5
46
330
22
100
AcDbEntity
  8
0
100
AcDbLine
 10
22.59973089678116
 20
-9.771599258481472
 30
0.0
 11
18.59973089678112
 21
-9.771599258481472
 31
0.0
  0
LINE
  5
47
330
22
100
AcDbEntity
  8
0
100
AcDbLine
 10
18.59973089678115
 20
-13.77159925848144
 30
0.0
 11
17.59973089678115
 21
-13.77159925848144
 31
0.0
  0
LINE
  5
48
330
22
100
AcDbEntity
  8
0
100
AcDbLine
 10
18.59973089678115
 20
-9.771599258481472
 30
0.0
 11
18.59973089678115
 21
-13.77159925848144
 31
0.0
  0
LINE
  5
49
330
22
100
AcDbEntity
  8
0
100
AcDbLine
 10
22.59973089678116
 20
-9.771599258481472
 30
0.0
 11
23.67152766650562
 21
-13.77159925848147
 31
0.0
  0
ARC
  5
4A
330
22
100
AcDbEntity
  8
0
100
AcDbCircle
 10
22.59973089678116
 20
-7.271599258481472
 30
0.0
 40
2.5
100
AcDbArc
 50
270.0
 51
270.0000000000007
  0
LINE
  5
4B
330
22
100
AcDbEntity
  8
0
100
AcDbLine
 10
28.77130377203494
 20
-12.77159925848147
 30
0.0
 11
24.43885465448463
 21
-12.77159925848144
 31
0.0
  0
LINE
  5
4C
330
22
100
AcDbEntity
  8
0
100
AcDbLine
 10
3.599730896781125
 20
-4.771599258481472
 30
0.0
 11
2.599730896781125
 21
-4.771599258481472
 31
0.0
  0
LINE
  5
4D
330
22
100
AcDbEntity
  8
0
100
AcDbLine
 10
22.59973089678116
 20
-8.771599258481472
 30
0.0
 11
18.59973089678115
 21
-8.771599258481472
 31
0.0
  0
LINE
  5
4E
330
22
100
AcDbEntity
  8
0
100
AcDbLine
 10
22.59973089678116
 20
-5.771599258481472
 30
0.0
 11
18.59973089678115
 21
-5.771599258481472
 31
0.0
  0
LINE
  5
4F
330
22
100
AcDbEntity
  8
0
100
AcDbLine
 10
22.59973089678116
 20
-4.771599258481472
 30
0.0
 11
17.59973089678115
 21
-4.771599258481472
 31
0.0
  0
LINE
  5
50
330
22
100
AcDbEntity
  8
0
100
AcDbLine
 10
18.59973089678115
 20
-5.771599258481472
 30
0.0
 11
18.59973089678115
 21
-8.771599258481472
 31
0.0
  0
ARC
  5
51
330
22
100
AcDbEntity
  8
0
100
AcDbCircle
 10
22.59973089678116
 20
-7.271599258481472
 30
0.0
 40
1.5
100
AcDbArc
 50
270.0
 51
90.0
  0
ENDBLK
  5
52
330
22
100
AcDbEntity
  8
0
100
AcDbBlockEnd
  0
BLOCK
  5
ED7
330
ECC
100
AcDbEntity
  8
0
100
AcDbBlockBegin
  2
*D1
 70
     1
 10
0.0
 20
0.0
 30
0.0
  3
*D1
  1

  0
LINE
  5
1AF1
330
ECC
100
AcDbEntity
  8
BEM
 62
     0
370
    -2
100
AcDbLine
 10
73.42343682469754
 20
405.2318810056765
 30
0.0
 11
73.42343682469754
 21
431.5618407430226
 31
0.0
  0
LINE
  5
1AF2
330
ECC
100
AcDbEntity
  8
BEM
 62
     0
370
    -2
100
AcDbLine
 10
365.4234368246975
 20
405.2318810056765
 30
0.0
 11
365.4234368246975
 21
431.5618407430226
 31
0.0
  0
LINE
  5
1AF3
330
ECC
100
AcDbEntity
  8
BEM
 62
     0
370
    -2
100
AcDbLine
 10
80.42343682469754
 20
429.5618407430226
 30
0.0
 11
358.4234368246975
 21
429.5618407430226
 31
0.0
  0
SOLID
  5
1AF4
330
ECC
100
AcDbEntity
  8
BEM
 62
     0
100
AcDbTrace
 10
80.42343682469754
 20
430.7285074096893
 30
0.0
 11
80.42343682469754
 21
428.3951740763559
 31
0.0
 12
73.42343682469754
 22
429.5618407430226
 32
0.0
 13
73.42343682469754
 23
429.5618407430226
 33
0.0
  0
SOLID
  5
1AF5
330
ECC
100
AcDbEntity
  8
BEM
 62
     0
100
AcDbTrace
 10
358.4234368246975
 20
430.7285074096893
 30
0.0
 11
358.4234368246975
 21
428.3951740763559
 31
0.0
 12
365.4234368246975
 22
429.5618407430226
 32
0.0
 13
365.4234368246975
 23
429.5618407430226
 33
0.0
  0
MTEXT
  5
1AF6
330
ECC
100
AcDbEntity
  8
BEM
 62
     1
100
AcDbMText
 10
219.4234368246975
 20
436.0618407430226
 30
0.0
 40
7.0
 41
0.0
 71
     5
 72
     1
  1
\A1;%%C292
 73
     1
 44
1.0
  0
POINT
  5
1AF7
330
ECC
100
AcDbEntity
  8
DEFPOINTS
 62
     0
100
AcDbPoint
 10
73.42343682469754
 20
403.2318810056765
 30
0.0
  0
POINT
  5
1AF8
330
ECC
100
AcDbEntity
  8
DEFPOINTS
 62
     0
100
AcDbPoint
 10
365.4234368246975
 20
403.2318810056765
 30
0.0
  0
POINT
  5
1AF9
330
ECC
100
AcDbEntity
  8
DEFPOINTS
 62
     0
100
AcDbPoint
 10
365.4234368246975
 20
429.5618407430226
 30
0.0
  0
ENDBLK
  5
ED8
330
ECC
100
AcDbEntity
  8
0
100
AcDbBlockEnd
  0
BLOCK
  5
1176
330
116C
100
AcDbEntity
  8
0
100
AcDbBlockBegin
  2
*D2
 70
     1
 10
0.0
 20
0.0
 30
0.0
  3
*D2
  1

  0
LINE
  5
1A11
330
116C
100
AcDbEntity
  8
BEM
 62
     0
370
    -2
100
AcDbLine
 10
71.42343682469754
 20
403.2318810056765
 30
0.0
 11
62.99566687757858
 21
403.2318810056765
 31
0.0
  0
LINE
  5
1A12
330
116C
100
AcDbEntity
  8
BEM
 62
     0
370
    -2
100
AcDbLine
 10
181.535857469379
 20
153.2318810056766
 30
0.0
 11
62.99566687757852
 21
153.2318810056766
 31
0.0
  0
LINE
  5
1A13
330
116C
100
AcDbEntity
  8
BEM
 62
     0
370
    -2
100
AcDbLine
 10
64.99566687757857
 20
396.2318810056765
 30
0.0
 11
64.99566687757853
 21
160.2318810056766
 31
0.0
  0
SOLID
  5
1A14
330
116C
100
AcDbEntity
  8
BEM
 62
     0
100
AcDbTrace
 10
63.82900021091191
 20
396.2318810056765
 30
0.0
 11
66.16233354424524
 21
396.2318810056765
 31
0.0
 12
64.99566687757857
 22
403.2318810056765
 32
0.0
 13
64.99566687757857
 23
403.2318810056765
 33
0.0
  0
SOLID
  5
1A15
330
116C
100
AcDbEntity
  8
BEM
 62
     0
100
AcDbTrace
 10
63.82900021091185
 20
160.2318810056766
 30
0.0
 11
66.1623335442452
 21
160.2318810056766
 31
0.0
 12
64.99566687757852
 22
153.2318810056766
 32
0.0
 13
64.99566687757852
 23
153.2318810056766
 33
0.0
  0
MTEXT
  5
1A16
330
116C
100
AcDbEntity
  8
BEM
 62
     1
100
AcDbMText
 10
58.4956668775785
 20
278.2318810056766
 30
0.0
 40
7.0
 41
0.0
 71
     5
 72
     1
  1
\A1;250
 11
0.0000000000000001
 21
1.0
 31
0.0
 73
     1
 44
1.0
  0
POINT
  5
1A17
330
116C
100
AcDbEntity
  8
DEFPOINTS
 62
     0
100
AcDbPoint
 10
73.42343682469754
 20
403.2318810056765
 30
0.0
  0
POINT
  5
1A18
330
116C
100
AcDbEntity
  8
DEFPOINTS
 62
     0
100
AcDbPoint
 10
183.535857469379
 20
153.2318810056766
 30
0.0
  0
POINT
  5
1A19
330
116C
100
AcDbEntity
  8
DEFPOINTS
 62
     0
100
AcDbPoint
 10
64.99566687757852
 20
153.2318810056766
 30
0.0
  0
ENDBLK
  5
1177
330
116C
100
AcDbEntity
  8
0
100
AcDbBlockEnd
  0
BLOCK
  5
1895
330
188B
100
AcDbEntity
  8
0
100
AcDbBlockBegin
  2
*D3
 70
     1
 10
0.0
 20
0.0
 30
0.0
  3
*D3
  1

  0
LINE
  5
1961
330
188B
100
AcDbEntity
  8
BEM
 62
     0
370
    -2
100
AcDbLine
 10
168.9234368246975
 20
537.2318810056765
 30
0.0
 11
168.9234368246975
 21
547.5246814367253
 31
0.0
  0
LINE
  5
1962
330
188B
100
AcDbEntity
  8
BEM
 62
     0
370
    -2
100
AcDbLine
 10
269.9234368246974
 20
537.2318810056765
 30
0.0
 11
269.9234368246974
 21
547.5246814367253
 31
0.0
  0
LINE
  5
1963
330
188B
100
AcDbEntity
  8
BEM
 62
     0
370
    -2
100
AcDbLine
 10
175.9234368246975
 20
545.5246814367253
 30
0.0
 11
262.9234368246974
 21
545.5246814367253
 31
0.0
  0
SOLID
  5
1964
330
188B
100
AcDbEntity
  8
BEM
 62
     0
100
AcDbTrace
 10
175.9234368246975
 20
546.691348103392
 30
0.0
 11
175.9234368246975
 21
544.3580147700587
 31
0.0
 12
168.9234368246975
 22
545.5246814367253
 32
0.0
 13
168.9234368246975
 23
545.5246814367253
 33
0.0
  0
SOLID
  5
1965
330
188B
100
AcDbEntity
  8
BEM
 62
     0
100
AcDbTrace
 10
262.9234368246974
 20
546.691348103392
 30
0.0
 11
262.9234368246974
 21
544.3580147700587
 31
0.0
 12
269.9234368246974
 22
545.5246814367253
 32
0.0
 13
269.9234368246974
 23
545.5246814367253
 33
0.0
  0
MTEXT
  5
1966
330
188B
100
AcDbEntity
  8
BEM
 62
     1
100
AcDbMText
 10
220.8597939505704
 20
552.0246814367253
 30
0.0
 40
7.0
 41
0.0
 71
     5
 72
     1
  1
\A1;101
 73
     1
 44
1.0
  0
POINT
  5
1967
330
188B
100
AcDbEntity
  8
DEFPOINTS
 62
     0
100
AcDbPoint
 10
168.9234368246975
 20
535.2318810056765
 30
0.0
  0
POINT
  5
1968
330
188B
100
AcDbEntity
  8
DEFPOINTS
 62
     0
100
AcDbPoint
 10
269.9234368246974
 20
535.2318810056765
 30
0.0
  0
POINT
  5
1969
330
188B
100
AcDbEntity
  8
DEFPOINTS
 62
     0
100
AcDbPoint
 10
269.9234368246974
 20
545.5246814367253
 30
0.0
  0
ENDBLK
  5
1896
330
188B
100
AcDbEntity
  8
0
100
AcDbBlockEnd
  0
BLOCK
  5
194C
330
1942
100
AcDbEntity
  8
0
100
AcDbBlockBegin
  2
*D4
 70
     1
 10
0.0
 20
0.0
 30
0.0
  3
*D4
  1

  0
LINE
  5
1957
330
1942
100
AcDbEntity
  8
BEM
 62
     0
370
    -2
100
AcDbLine
 10
166.9234368246974
 20
535.2318810056765
 30
0.0
 11
62.9956668775786
 21
535.2318810056765
 31
0.0
  0
LINE
  5
1958
330
1942
100
AcDbEntity
  8
BEM
 62
     0
370
    -2
100
AcDbLine
 10
71.42343682469754
 20
403.2318810056765
 30
0.0
 11
62.99566687757858
 21
403.2318810056765
 31
0.0
  0
LINE
  5
1959
330
1942
100
AcDbEntity
  8
BEM
 62
     0
370
    -2
100
AcDbLine
 10
64.9956668775786
 20
528.2318810056765
 30
0.0
 11
64.99566687757857
 21
410.2318810056765
 31
0.0
  0
SOLID
  5
195A
330
1942
100
AcDbEntity
  8
BEM
 62
     0
100
AcDbTrace
 10
63.82900021091194
 20
528.2318810056765
 30
0.0
 11
66.16233354424527
 21
528.2318810056765
 31
0.0
 12
64.9956668775786
 22
535.2318810056765
 32
0.0
 13
64.9956668775786
 23
535.2318810056765
 33
0.0
  0
SOLID
  5
195B
330
1942
100
AcDbEntity
  8
BEM
 62
     0
100
AcDbTrace
 10
63.82900021091192
 20
410.2318810056765
 30
0.0
 11
66.16233354424524
 21
410.2318810056765
 31
0.0
 12
64.99566687757857
 22
403.2318810056765
 32
0.0
 13
64.99566687757857
 23
403.2318810056765
 33
0.0
  0
MTEXT
  5
195C
330
1942
100
AcDbEntity
  8
BEM
 62
     1
100
AcDbMText
 10
58.49566687757851
 20
469.2318810056765
 30
0.0
 40
7.0
 41
0.0
 71
     5
 72
     1
  1
\A1;min.10 - max.130
 11
0.0000000000000001
 21
1.0
 31
0.0
 73
     1
 44
1.0
  0
POINT
  5
195D
330
1942
100
AcDbEntity
  8
DEFPOINTS
 62
     0
100
AcDbPoint
 10
168.9234368246974
 20
535.2318810056765
 30
0.0
  0
POINT
  5
195E
330
1942
100
AcDbEntity
  8
DEFPOINTS
 62
     0
100
AcDbPoint
 10
73.42343682469754
 20
403.2318810056765
 30
0.0
  0
POINT
  5
195F
330
1942
100
AcDbEntity
  8
DEFPOINTS
 62
     0
100
AcDbPoint
 10
64.99566687757857
 20
403.2318810056765
 30
0.0
  0
ENDBLK
  5
194D
330
1942
100
AcDbEntity
  8
0
100
AcDbBlockEnd
  0
BLOCK
  5
1A06
330
19FC
100
AcDbEntity
  8
0
100
AcDbBlockBegin
  2
*D5
 70
     1
 10
0.0
 20
0.0
 30
0.0
  3
*D5
  1

  0
LINE
  5
1A08
330
19FC
100
AcDbEntity
  8
BEM
 62
     0
370
    -2
100
AcDbLine
 10
182.9234368246975
 20
158.2318810056766
 30
0.0
 11
182.9234368246975
 21
126.1081194143948
 31
0.0
  0
LINE
  5
1A09
330
19FC
100
AcDbEntity
  8
BEM
 62
     0
370
    -2
100
AcDbLine
 10
255.9234368246963
 20
158.2318810056766
 30
0.0
 11
255.9234368246963
 21
126.1081194143948
 31
0.0
  0
LINE
  5
1A0A
330
19FC
100
AcDbEntity
  8
BEM
 62
     0
370
    -2
100
AcDbLine
 10
189.9234368246976
 20
128.1081194143948
 30
0.0
 11
248.9234368246963
 21
128.1081194143948
 31
0.0
  0
SOLID
  5
1A0B
330
19FC
100
AcDbEntity
  8
BEM
 62
     0
100
AcDbTrace
 10
189.9234368246976
 20
129.2747860810615
 30
0.0
 11
189.9234368246976
 21
126.9414527477282
 31
0.0
 12
182.9234368246975
 22
128.1081194143948
 32
0.0
 13
182.9234368246975
 23
128.1081194143948
 33
0.0
  0
SOLID
  5
1A0C
330
19FC
100
AcDbEntity
  8
BEM
 62
     0
100
AcDbTrace
 10
248.9234368246963
 20
129.2747860810615
 30
0.0
 11
248.9234368246963
 21
126.9414527477282
 31
0.0
 12
255.9234368246963
 22
128.1081194143948
 32
0.0
 13
255.9234368246963
 23
128.1081194143948
 33
0.0
  0
MTEXT
  5
1A0D
330
19FC
100
AcDbEntity
  8
BEM
 62
     1
100
AcDbMText
 10
219.4234368246969
 20
134.6081194143948
 30
0.0
 40
7.0
 41
0.0
 71
     5
 72
     1
  1
\A1;%%c73
 73
     1
 44
1.0
  0
POINT
  5
1A0E
330
19FC
100
AcDbEntity
  8
DEFPOINTS
 62
     0
100
AcDbPoint
 10
182.9234368246975
 20
160.2318810056766
 30
0.0
  0
POINT
  5
1A0F
330
19FC
100
AcDbEntity
  8
DEFPOINTS
 62
     0
100
AcDbPoint
 10
255.9234368246963
 20
160.2318810056766
 30
0.0
  0
POINT
  5
1A10
330
19FC
100
AcDbEntity
  8
DEFPOINTS
 62
     0
100
AcDbPoint
 10
255.9234368246963
 20
128.1081194143948
 30
0.0
  0
ENDBLK
  5
1A07
330
19FC
100
AcDbEntity
  8
0
100
AcDbBlockEnd
  0
BLOCK
  5
1AA7
330
1A9D
100
AcDbEntity
  8
0
100
AcDbBlockBegin
  2
*D6
 70
     1
 10
0.0
 20
0.0
 30
0.0
  3
*D6
  1

  0
LINE
  5
1ACD
330
1A9D
100
AcDbEntity
  8
BEM
 62
     0
370
    -2
100
AcDbLine
 10
154.4258921901759
 20
214.0717142145521
 30
0.0
 11
154.4258921901759
 21
196.523215519809
 31
0.0
  0
LINE
  5
1ACE
330
1A9D
100
AcDbEntity
  8
BEM
 62
     0
370
    -2
100
AcDbLine
 10
284.4209814592193
 20
214.0717142145504
 30
0.0
 11
284.4209814592193
 21
196.523215519809
 31
0.0
  0
LINE
  5
1ACF
330
1A9D
100
AcDbEntity
  8
BEM
 62
     0
370
    -2
100
AcDbLine
 10
161.4258921901759
 20
198.523215519809
 30
0.0
 11
277.4209814592193
 21
198.523215519809
 31
0.0
  0
SOLID
  5
1AD0
330
1A9D
100
AcDbEntity
  8
BEM
 62
     0
100
AcDbTrace
 10
161.4258921901759
 20
199.6898821864757
 30
0.0
 11
161.4258921901759
 21
197.3565488531424
 31
0.0
 12
154.4258921901759
 22
198.523215519809
 32
0.0
 13
154.4258921901759
 23
198.523215519809
 33
0.0
  0
SOLID
  5
1AD1
330
1A9D
100
AcDbEntity
  8
BEM
 62
     0
100
AcDbTrace
 10
277.4209814592193
 20
199.6898821864757
 30
0.0
 11
277.4209814592193
 21
197.3565488531424
 31
0.0
 12
284.4209814592193
 22
198.523215519809
 32
0.0
 13
284.4209814592193
 23
198.523215519809
 33
0.0
  0
MTEXT
  5
1AD2
330
1A9D
100
AcDbEntity
  8
BEM
 62
     1
100
AcDbMText
 10
219.4234368246976
 20
205.0232155198091
 30
0.0
 40
7.0
 41
0.0
 71
     5
 72
     1
  1
\A1;%%c130
  7
GREEKS
 73
     1
 44
1.0
  0
POINT
  5
1AD3
330
1A9D
100
AcDbEntity
  8
DEFPOINTS
 62
     0
100
AcDbPoint
 10
154.4258921901759
 20
216.0717142145521
 30
0.0
  0
POINT
  5
1AD4
330
1A9D
100
AcDbEntity
  8
DEFPOINTS
 62
     0
100
AcDbPoint
 10
284.4209814592193
 20
216.0717142145504
 30
0.0
  0
POINT
  5
1AD5
330
1A9D
100
AcDbEntity
  8
DEFPOINTS
 62
     0
100
AcDbPoint
 10
284.4209814592193
 20
198.523215519809
 30
0.0
  0
ENDBLK
  5
1AA8
330
1A9D
100
AcDbEntity
  8
0
100
AcDbBlockEnd
  0
BLOCK
  5
1AB3
330
1AA9
100
AcDbEntity
  8
0
100
AcDbBlockBegin
  2
*D7
 70
     1
 10
0.0
 20
0.0
 30
0.0
  3
*D7
  1

  0
LINE
  5
1AD6
330
1AA9
100
AcDbEntity
  8
BEM
 62
     0
370
    -2
100
AcDbLine
 10
144.4234368246977
 20
378.0717142145521
 30
0.0
 11
144.4234368246977
 21
417.814649166737
 31
0.0
  0
LINE
  5
1AD7
330
1AA9
100
AcDbEntity
  8
BEM
 62
     0
370
    -2
100
AcDbLine
 10
294.4234368246979
 20
378.0717142145525
 30
0.0
 11
294.4234368246979
 21
417.814649166737
 31
0.0
  0
LINE
  5
1AD8
330
1AA9
100
AcDbEntity
  8
BEM
 62
     0
370
    -2
100
AcDbLine
 10
151.4234368246977
 20
415.8146491667371
 30
0.0
 11
287.4234368246979
 21
415.8146491667371
 31
0.0
  0
SOLID
  5
1AD9
330
1AA9
100
AcDbEntity
  8
BEM
 62
     0
100
AcDbTrace
 10
151.4234368246977
 20
416.9813158334037
 30
0.0
 11
151.4234368246977
 21
414.6479825000703
 31
0.0
 12
144.4234368246977
 22
415.8146491667371
 32
0.0
 13
144.4234368246977
 23
415.8146491667371
 33
0.0
  0
SOLID
  5
1ADA
330
1AA9
100
AcDbEntity
  8
BEM
 62
     0
100
AcDbTrace
 10
287.4234368246979
 20
416.9813158334037
 30
0.0
 11
287.4234368246979
 21
414.6479825000703
 31
0.0
 12
294.4234368246979
 22
415.8146491667371
 32
0.0
 13
294.4234368246979
 23
415.8146491667371
 33
0.0
  0
MTEXT
  5
1ADB
330
1AA9
100
AcDbEntity
  8
BEM
 62
     1
100
AcDbMText
 10
219.4234368246978
 20
422.314649166737
 30
0.0
 40
7.0
 41
0.0
 71
     5
 72
     1
  1
\A1;%%c150
  7
GREEKS
 73
     1
 44
1.0
  0
POINT
  5
1ADC
330
1AA9
100
AcDbEntity
  8
DEFPOINTS
 62
     0
100
AcDbPoint
 10
144.4234368246977
 20
376.0717142145521
 30
0.0
  0
POINT
  5
1ADD
330
1AA9
100
AcDbEntity
  8
DEFPOINTS
 62
     0
100
AcDbPoint
 10
294.4234368246979
 20
376.0717142145525
 30
0.0
  0
POINT
  5
1ADE
330
1AA9
100
AcDbEntity
  8
DEFPOINTS
 62
     0
100
AcDbPoint
 10
294.4234368246979
 20
415.8146491667371
 30
0.0
  0
ENDBLK
  5
1AB4
330
1AA9
100
AcDbEntity
  8
0
100
AcDbBlockEnd
  0
BLOCK
  5
1ABF
330
1AB5
100
AcDbEntity
  8
0
100
AcDbBlockBegin
  2
*D8
 70
     1
 10
0.0
 20
0.0
 30
0.0
  3
*D8
  1

  0
LINE
  5
1ADF
330
1AB5
100
AcDbEntity
  8
BEM
 62
     0
370
    -2
100
AcDbLine
 10
181.535857469379
 20
153.2318810056766
 30
0.0
 11
81.01283614670427
 21
153.2318810056766
 31
0.0
  0
LINE
  5
1AE0
330
1AB5
100
AcDbEntity
  8
BEM
 62
     0
370
    -2
100
AcDbLine
 10
152.4258921901759
 20
216.0717142145521
 30
0.0
 11
81.01283614670427
 21
216.0717142145521
 31
0.0
  0
LINE
  5
1AE1
330
1AB5
100
AcDbEntity
  8
BEM
 62
     0
370
    -2
100
AcDbLine
 10
83.01283614670428
 20
160.2318810056766
 30
0.0
 11
83.01283614670428
 21
209.0717142145521
 31
0.0
  0
SOLID
  5
1AE2
330
1AB5
100
AcDbEntity
  8
BEM
 62
     0
100
AcDbTrace
 10
81.8461694800376
 20
160.2318810056766
 30
0.0
 11
84.17950281337095
 21
160.2318810056766
 31
0.0
 12
83.01283614670426
 22
153.2318810056766
 32
0.0
 13
83.01283614670426
 23
153.2318810056766
 33
0.0
  0
SOLID
  5
1AE3
330
1AB5
100
AcDbEntity
  8
BEM
 62
     0
100
AcDbTrace
 10
81.8461694800376
 20
209.0717142145521
 30
0.0
 11
84.17950281337095
 21
209.0717142145521
 31
0.0
 12
83.01283614670428
 22
216.0717142145521
 32
0.0
 13
83.01283614670428
 23
216.0717142145521
 33
0.0
  0
MTEXT
  5
1AE4
330
1AB5
100
AcDbEntity
  8
BEM
 62
     1
100
AcDbMText
 10
76.51283614670425
 20
184.6517976101144
 30
0.0
 40
7.0
 41
0.0
 71
     5
 72
     1
  1
\A1;63
 11
0.0000000000000001
 21
1.0
 31
0.0
 73
     1
 44
1.0
  0
POINT
  5
1AE5
330
1AB5
100
AcDbEntity
  8
DEFPOINTS
 62
     0
100
AcDbPoint
 10
183.535857469379
 20
153.2318810056766
 30
0.0
  0
POINT
  5
1AE6
330
1AB5
100
AcDbEntity
  8
DEFPOINTS
 62
     0
100
AcDbPoint
 10
154.4258921901759
 20
216.0717142145521
 30
0.0
  0
POINT
  5
1AE7
330
1AB5
100
AcDbEntity
  8
DEFPOINTS
 62
     0
100
AcDbPoint
 10
83.01283614670428
 20
216.0717142145521
 30
0.0
  0
ENDBLK
  5
1AC0
330
1AB5
100
AcDbEntity
  8
0
100
AcDbBlockEnd
  0
BLOCK
  5
1ACB
330
1AC1
100
AcDbEntity
  8
0
100
AcDbBlockBegin
  2
*D9
 70
     1
 10
0.0
 20
0.0
 30
0.0
  3
*D9
  1

  0
LINE
  5
1AE8
330
1AC1
100
AcDbEntity
  8
BEM
 62
     0
370
    -2
100
AcDbLine
 10
142.4234368246977
 20
376.0717142145521
 30
0.0
 11
81.01283614670432
 21
376.0717142145522
 31
0.0
  0
LINE
  5
1AE9
330
1AC1
100
AcDbEntity
  8
BEM
 62
     0
370
    -2
100
AcDbLine
 10
152.4258921901759
 20
216.0717142145521
 30
0.0
 11
81.01283614670427
 21
216.0717142145521
 31
0.0
  0
LINE
  5
1AEA
330
1AC1
100
AcDbEntity
  8
BEM
 62
     0
370
    -2
100
AcDbLine
 10
83.01283614670431
 20
369.0717142145522
 30
0.0
 11
83.01283614670428
 21
223.0717142145521
 31
0.0
  0
SOLID
  5
1AEB
330
1AC1
100
AcDbEntity
  8
BEM
 62
     0
100
AcDbTrace
 10
81.84616948003764
 20
369.0717142145522
 30
0.0
 11
84.17950281337098
 21
369.0717142145522
 31
0.0
 12
83.01283614670431
 22
376.0717142145522
 32
0.0
 13
83.01283614670431
 23
376.0717142145522
 33
0.0
  0
SOLID
  5
1AEC
330
1AC1
100
AcDbEntity
  8
BEM
 62
     0
100
AcDbTrace
 10
81.8461694800376
 20
223.0717142145521
 30
0.0
 11
84.17950281337095
 21
223.0717142145521
 31
0.0
 12
83.01283614670428
 22
216.0717142145521
 32
0.0
 13
83.01283614670428
 23
216.0717142145521
 33
0.0
  0
MTEXT
  5
1AED
330
1AC1
100
AcDbEntity
  8
BEM
 62
     1
100
AcDbMText
 10
76.51283614670425
 20
296.0717142145521
 30
0.0
 40
7.0
 41
0.0
 71
     5
 72
     1
  1
\A1;160
  7
GREEKS
 11
0.0000000000000001
 21
1.0
 31
0.0
 73
     1
 44
1.0
  0
POINT
  5
1AEE
330
1AC1
100
AcDbEntity
  8
DEFPOINTS
 62
     0
100
AcDbPoint
 10
144.4234368246977
 20
376.0717142145521
 30
0.0
  0
POINT
  5
1AEF
330
1AC1
100
AcDbEntity
  8
DEFPOINTS
 62
     0
100
AcDbPoint
 10
154.4258921901759
 20
216.0717142145521
 30
0.0
  0
POINT
  5
1AF0
330
1AC1
100
AcDbEntity
  8
DEFPOINTS
 62
     0
100
AcDbPoint
 10
83.01283614670428
 20
216.0717142145521
 30
0.0
  0
ENDBLK
  5
1ACC
330
1AC1
100
AcDbEntity
  8
0
100
AcDbBlockEnd
  0
ENDSEC
  0
SECTION
  2
ENTITIES
  0
LINE
  5
57
330
1E
100
AcDbEntity
  8
STEMPEL
100
AcDbLine
 10
410.0
 20
110.0
 30
0.0
 11
39.99999999999997
 21
110.0
 31
0.0
  0
LINE
  5
58
330
1E
100
AcDbEntity
  8
STEMPEL
100
AcDbLine
 10
136.0000000000001
 20
109.9999999999999
 30
0.0
 11
136.0
 21
9.999999999999971
 31
0.0
  0
LINE
  5
59
330
1E
100
AcDbEntity
  8
STEMPEL
100
AcDbLine
 10
220.0
 20
110.0
 30
0.0
 11
220.0
 21
9.999999999999971
 31
0.0
  0
LINE
  5
5A
330
1E
100
AcDbEntity
  8
STEMPEL
100
AcDbLine
 10
332.0
 20
109.9999999999997
 30
0.0
 11
332.0
 21
40.0
 31
0.0
  0
LINE
  5
5B
330
1E
100
AcDbEntity
  8
STEMPEL
100
AcDbLine
 10
135.9999999999999
 20
29.99999999999997
 30
0.0
 11
39.99999999999997
 21
29.99999999999997
 31
0.0
  0
LINE
  5
5C
330
1E
100
AcDbEntity
  8
STEMPEL
100
AcDbLine
 10
410.0
 20
40.0
 30
0.0
 11
136.0000000000001
 21
39.99999999999997
 31
0.0
  0
LINE
  5
5D
330
1E
100
AcDbEntity
  8
STEMPEL
100
AcDbLine
 10
410.0
 20
80.0
 30
0.0
 11
136.0000000000001
 21
79.99999999999994
 31
0.0
  0
LINE
  5
5E
330
1E
100
AcDbEntity
  8
VOLL
100
AcDbLine
 10
54.00000000000009
 20
110.0
 30
0.0
 11
53.99999999999997
 21
9.999999999999971
 31
0.0
  0
LINE
  5
5F
330
1E
100
AcDbEntity
  8
VOLL
100
AcDbLine
 10
94.00000000000011
 20
109.9999999999999
 30
0.0
 11
94.0
 21
9.999999999999971
 31
0.0
  0
LINE
  5
60
330
1E
100
AcDbEntity
  8
VOLL
100
AcDbLine
 10
114.0000000000001
 20
109.9999999999999
 30
0.0
 11
114.0
 21
9.999999999999971
 31
0.0
  0
LINE
  5
61
330
1E
100
AcDbEntity
  8
VOLL
100
AcDbLine
 10
154.0000000000001
 20
79.99999999999994
 30
0.0
 11
154.0000000000001
 21
39.99999999999997
 31
0.0
  0
LINE
  5
62
330
1E
100
AcDbEntity
  8
VOLL
100
AcDbLine
 10
180.0000000000001
 20
109.9999999999998
 30
0.0
 11
180.0
 21
39.99999999999997
 31
0.0
  0
LINE
  5
63
330
1E
100
AcDbEntity
  8
HILF
100
AcDbLine
 10
40.00000000000008
 20
100.0
 30
0.0
 11
136.0000000000001
 21
100.0
 31
0.0
  0
LINE
  5
64
330
1E
100
AcDbEntity
  8
HILF
100
AcDbLine
 10
40.00000000000008
 20
90.00000000000005
 30
0.0
 11
136.0000000000001
 21
90.00000000000005
 31
0.0
  0
LINE
  5
65
330
1E
100
AcDbEntity
  8
HILF
100
AcDbLine
 10
40.00000000000008
 20
79.99999999999994
 30
0.0
 11
136.0000000000001
 21
79.99999999999994
 31
0.0
  0
LINE
  5
66
330
1E
100
AcDbEntity
  8
HILF
100
AcDbLine
 10
40.00000000000008
 20
69.99999999999994
 30
0.0
 11
136.0000000000001
 21
69.99999999999994
 31
0.0
  0
LINE
  5
67
330
1E
100
AcDbEntity
  8
HILF
100
AcDbLine
 10
40.00000000000008
 20
59.99999999999997
 30
0.0
 11
136.0000000000001
 21
59.99999999999997
 31
0.0
  0
LINE
  5
68
330
1E
100
AcDbEntity
  8
HILF
100
AcDbLine
 10
40.00000000000008
 20
49.99999999999997
 30
0.0
 11
136.0000000000001
 21
49.99999999999997
 31
0.0
  0
LINE
  5
69
330
1E
100
AcDbEntity
  8
HILF
100
AcDbLine
 10
40.00000000000008
 20
39.99999999999997
 30
0.0
 11
136.0000000000001
 21
39.99999999999997
 31
0.0
  0
LINE
  5
6A
330
1E
100
AcDbEntity
  8
HILF
100
AcDbLine
 10
136.0000000000001
 20
69.99999999999994
 30
0.0
 11
220.0
 21
69.99999999999994
 31
0.0
  0
LINE
  5
6B
330
1E
100
AcDbEntity
  8
HILF
100
AcDbLine
 10
136.0000000000001
 20
59.99999999999997
 30
0.0
 11
220.0
 21
59.99999999999997
 31
0.0
  0
LINE
  5
6C
330
1E
100
AcDbEntity
  8
HILF
100
AcDbLine
 10
136.0000000000001
 20
49.99999999999997
 30
0.0
 11
220.0
 21
49.99999999999997
 31
0.0
  0
LINE
  5
6D
330
1E
100
AcDbEntity
  8
HILF
100
AcDbLine
 10
224.7736801096948
 20
84.03758247564139
 30
0.0
 11
324.8353916556311
 21
84.03758247564139
 31
0.0
  0
LINE
  5
6E
330
1E
100
AcDbEntity
  8
HILF
100
AcDbLine
 10
224.7736801096948
 20
69.99999999999994
 30
0.0
 11
324.835391655631
 21
69.99999999999994
 31
0.0
  0
LINE
  5
6F
330
1E
100
AcDbEntity
  8
HILF
100
AcDbLine
 10
224.7736801096948
 20
59.99999999999997
 30
0.0
 11
324.835391655631
 21
59.99999999999997
 31
0.0
  0
LINE
  5
70
330
1E
100
AcDbEntity
  8
HILF
100
AcDbLine
 10
224.7736801096948
 20
49.99999999999997
 30
0.0
 11
324.835391655631
 21
49.99999999999997
 31
0.0
  0
LINE
  5
71
330
1E
100
AcDbEntity
  8
VOLL
100
AcDbLine
 10
332.0
 20
60.0
 30
0.0
 11
410.0
 21
60.0
 31
0.0
  0
LINE
  5
72
330
1E
100
AcDbEntity
  8
HILF
100
AcDbLine
 10
336.7238616296993
 20
83.77983636955827
 30
0.0
 11
404.8588839326728
 21
83.77983636955827
 31
0.0
  0
LINE
  5
73
330
1E
100
AcDbEntity
  8
HILF
100
AcDbLine
 10
223.4909699289885
 20
14.89398258028314
 30
0.0
 11
404.8588839326728
 21
14.89398258028314
 31
0.0
  0
TEXT
  5
74
330
1E
100
AcDbEntity
  8
TEXT
100
AcDbText
 10
63.86165979631819
 20
18.67381894984132
 30
0.0
 40
4.0
  1
Änderung
 41
0.8
  7
GREEKS
 72
     1
 11
74.60451693917534
 21
18.67381894984132
 31
0.0
100
AcDbText
  0
TEXT
  5
75
330
1E
100
AcDbEntity
  8
TEXT
100
AcDbText
 10
143.5163572150377
 20
102.4620895087088
 30
0.0
 40
5.0
  1
Maßstab
 41
0.8
  7
GREEKS
100
AcDbText
  0
TEXT
  5
76
330
1E
100
AcDbEntity
  8
TEXT
100
AcDbText
 10
184.2858954734051
 20
102.4184168434819
 30
0.0
 40
5.0
  1
Zul. Abw.
 41
0.8
  7
GREEKS
100
AcDbText
  0
TEXT
  5
77
330
1E
100
AcDbEntity
  8
TEXT
100
AcDbText
 10
224.877940380901
 20
102.5489328011779
 30
0.0
 40
5.0
  1
Benennung
 41
0.8
  7
GREEKS
100
AcDbText
  0
TEXT
  5
78
330
1E
100
AcDbEntity
  8
TEXT
100
AcDbText
 10
336.178754957634
 20
102.3132034537136
 30
0.0
 40
5.0
  1
Zeichnungs Nr.
 41
0.8
  7
GREEKS
100
AcDbText
  0
TEXT
  5
79
330
1E
100
AcDbEntity
  8
TEXT
100
AcDbText
 10
224.742238391136
 20
30.84560570193057
 30
0.0
 40
5.0
  1
Bauvorhaben
 41
0.8
  7
GREEKS
100
AcDbText
  0
TEXT
  5
7A
330
1E
100
AcDbEntity
  8
TEXT
100
AcDbText
 10
336.7238616296993
 20
73.1811823709997
 30
0.0
 40
5.0
  1
Ersatz für:
 41
0.8
  7
GREEKS
100
AcDbText
  0
TEXT
  5
7B
330
1E
100
AcDbEntity
  8
TEXT
100
AcDbText
 10
48.26641107045756
 20
13.65465846027192
 30
0.0
 40
4.0
  1
Index
 50
90.0
 41
0.8
  7
GREEKS
100
AcDbText
  0
TEXT
  5
7C
330
1E
100
AcDbEntity
  8
TEXT
100
AcDbText
 10
100.0934676075481
 20
18.6715626933981
 30
0.0
 40
4.0
  1
Tag
 41
0.8
  7
GREEKS
 72
     1
 11
103.8268009408814
 21
18.6715626933981
 31
0.0
100
AcDbText
  0
TEXT
  5
7D
330
1E
100
AcDbEntity
  8
TEXT
100
AcDbText
 10
119.0122744386592
 20
18.59324216966408
 30
0.0
 40
4.0
  1
Name
 41
0.8
  7
GREEKS
 72
     1
 11
125.3360839624688
 21
18.59324216966408
 31
0.0
100
AcDbText
  0
TEXT
  5
7E
330
1E
100
AcDbEntity
  8
TEXT
100
AcDbText
 10
162.3311673153651
 20
73.31880501229926
 30
0.0
 40
4.0
  1
Tag
 41
0.8
  7
GREEKS
100
AcDbText
  0
TEXT
  5
7F
330
1E
100
AcDbEntity
  8
TEXT
100
AcDbText
 10
192.4626584226295
 20
73.30961091915225
 30
0.0
 40
4.0
  1
Name
 41
0.8
  7
GREEKS
100
AcDbText
  0
TEXT
  5
80
330
1E
100
AcDbEntity
  8
TEXT
100
AcDbText
 10
137.5836127167615
 20
63.62990369617964
 30
0.0
 40
4.0
  1
Gez.
 41
0.8
  7
GREEKS
100
AcDbText
  0
TEXT
  5
81
330
1E
100
AcDbEntity
  8
TEXT
100
AcDbText
 10
137.5515086571672
 20
53.68926291428377
 30
0.0
 40
4.0
  1
Gepr.
 41
0.8
  7
GREEKS
100
AcDbText
  0
TEXT
  5
82
330
1E
100
AcDbEntity
  8
TEXT
100
AcDbText
 10
137.6006777387304
 20
43.52946389649807
 30
0.0
 40
4.0
  1
Norm.
 41
0.8
  7
GREEKS
100
AcDbText
  0
LINE
  5
83
330
1E
100
AcDbEntity
  8
STEMPEL
100
AcDbLine
 10
49.99999999999989
 20
10.0
 30
0.0
 11
410.0
 21
10.0
 31
0.0
  0
TEXT
  5
84
330
1E
100
AcDbEntity
  8
TEXT
100
AcDbText
 10
337.2400861497006
 20
52.07416177878602
 30
0.0
 40
5.0
  1
ersetzt durch:
 41
0.8
  7
GREEKS
100
AcDbText
  0
LINE
  5
85
330
1E
100
AcDbEntity
  8
STEMPEL
100
AcDbLine
 10
410.0
 20
10.0
 30
0.0
 11
39.99999999999989
 21
10.0
 31
0.0
  0
LINE
  5
86
330
1E
100
AcDbEntity
  8
STEMPEL
100
AcDbLine
 10
410.0
 20
10.0
 30
0.0
 11
410.0
 21
584.0
 31
0.0
  0
LINE
  5
87
330
1E
100
AcDbEntity
  8
STEMPEL
100
AcDbLine
 10
40.0
 20
10.0
 30
0.0
 11
39.99999999999989
 21
584.0
 31
0.0
  0
LINE
  5
88
330
1E
100
AcDbEntity
  8
STEMPEL
100
AcDbLine
 10
410.0
 20
584.0
 30
0.0
 11
39.99999999999989
 21
584.0
 31
0.0
  0
LINE
  5
89
330
1E
100
AcDbEntity
  8
HILF
100
AcDbLine
 10
0.0
 20
0.0
 30
0.0
 11
-0.0000000000001137
 21
594.0
 31
0.0
  0
LINE
  5
8A
330
1E
100
AcDbEntity
  8
HILF
100
AcDbLine
 10
419.9999999999999
 20
594.0000000000002
 30
0.0
 11
0.0
 21
594.0
 31
0.0
  0
LINE
  5
8B
330
1E
100
AcDbEntity
  8
HILF
100
AcDbLine
 10
420.0
 20
0.0
 30
0.0
 11
0.0
 21
0.0
 31
0.0
  0
LINE
  5
8C
330
1E
100
AcDbEntity
  8
HILF
100
AcDbLine
 10
31.08767135713856
 20
297.0
 30
0.0
 11
0.0000000000001137
 21
297.0
 31
0.0
  0
TEXT
  5
8D
330
1E
100
AcDbEntity
  8
TEXT
100
AcDbText
 10
138.622109822104
 20
73.14025471151666
 30
0.0
 40
4.0
  1
2012
 41
0.8
  7
GREEKS
100
AcDbText
  0
LINE
  5
8E
330
1E
100
AcDbEntity
  8
HILF
100
AcDbLine
 10
420.0
 20
-0.0000000000001137
 30
0.0
 11
419.9999999999999
 21
594.0
 31
0.0
  0
TEXT
  5
8F
330
1E
100
AcDbEntity
  8
VOLL
100
AcDbText
 10
78.07675471698113
 20
31.02594776470585
 30
0.0
 40
1.8
  1

  7
GREEKS
100
AcDbText
  0
TEXT
  5
90
330
1E
100
AcDbEntity
  8
TEXT
100
AcDbText
 10
41.85509950977674
 20
111.6719999999999
 30
0.0
 40
5.0
  1
Erstellt mit AUTOCAD 2004
 41
0.8
  7
GREEKS
100
AcDbText
  0
TEXT
  5
91
330
1E
100
AcDbEntity
  8
TEXT
100
AcDbText
 10
194.4216048581257
 20
63.0896391972351
 30
0.0
 40
4.0
  1
Koeh
 41
0.8
  7
GREEKS
 72
     1
 11
199.6787477152685
 21
63.0896391972351
 31
0.0
100
AcDbText
  0
TEXT
  5
92
330
1E
100
AcDbEntity
  8
TEXT
 62
     1
100
AcDbText
 10
347.2207675702764
 20
88.14901428913959
 30
0.0
 40
7.0
  1
19210070W
 41
0.8
  7
GREEKS
 72
     1
 11
370.1541009036097
 21
88.14901428913959
 31
0.0
100
AcDbText
  0
TEXT
  5
93
330
1E
100
AcDbEntity
  8
TEXT
 62
     1
100
AcDbText
 10
150.5006306481887
 20
88.14901428913959
 30
0.0
 40
7.0
  1
1:2
 41
0.8
  7
GREEKS
100
AcDbText
  0
TEXT
  5
94
330
1E
100
AcDbEntity
  8
TEXT
100
AcDbText
 10
160.7037590129979
 20
63.10765040825732
 30
0.0
 40
4.0
  1
15.06.
 41
0.8
  7
GREEKS
 72
     1
 11
167.4085209177598
 21
63.10765040825732
 31
0.0
100
AcDbText
  0
TEXT
  5
95
330
1E
100
AcDbEntity
  8
TEXT
 62
     1
100
AcDbText
 10
226.8935731057402
 20
87.41748789253779
 30
0.0
 40
7.0
  1
Kompletteinheit DN70
 41
0.8
  7
GREEKS
100
AcDbText
  0
TEXT
  5
96
330
1E
100
AcDbEntity
  8
TEXT
100
AcDbText
 10
225.1296391125315
 20
71.50334417585288
 30
0.0
 40
5.0
  1

 41
0.8
  7
GREEKS
100
AcDbText
  0
TEXT
  5
98
330
1E
100
AcDbEntity
  8
TEXT
100
AcDbText
 10
225.1296391125315
 20
51.64011943042158
 30
0.0
 40
5.0
  1
EDV-Art.Nr. 19210.070X
 41
0.8
  7
GREEKS
100
AcDbText
  0
TEXT
  5
99
330
1E
100
AcDbEntity
  8
TEXT
100
AcDbText
 10
224.9837501577827
 20
42.62974153022632
 30
0.0
 40
4.0
  1
19210070W.DWG
 41
0.8
  7
GREEKS
100
AcDbText
  0
TEXT
  5
9A
330
1E
100
AcDbEntity
  8
TEXT
100
AcDbText
 10
182.626132208084
 20
90.76363841023022
 30
0.0
 40
4.0
  1
DIN EN1124-3
 41
0.8
  7
GREEKS
 72
     1
 11
199.6166083985602
 21
90.76363841023022
 31
0.0
100
AcDbText
  0
INSERT
  5
9B
330
1E
100
AcDbEntity
  8
STEMPEL
100
AcDbBlockReference
  2
LOGO
 10
140.9955485457794
 20
45.02105276448322
 30
0.0
 41
2.0
 42
2.0
 43
2.0
  0
TEXT
  5
118
330
1E
100
AcDbEntity
  8
BEM
100
AcDbText
 10
417.3022923857165
 20
10.16790107998849
 30
0.0
 40
4.0
  1
Diese Zeichnung ist urheberrechtlich geschützt und bleibt unser Eigentum. Sie darf weder ganz noch teilweise verfielfältigt und nicht an Dritte weitergegeben werden.
 50
90.0
 41
0.8
  7
GREEKS
100
AcDbText
  0
TEXT
  5
632
330
1E
100
AcDbEntity
  8
TEXT
 62
     1
100
AcDbText
 10
278.7728979970014
 20
175.403694057579
 30
0.0
 40
7.0
  1
Ablauftopf DN70
 41
0.8
  7
GREEKS
100
AcDbText
  0
TEXT
  5
948
330
1E
100
AcDbEntity
  8
TEXT
 62
     1
100
AcDbText
 10
234.6057658946468
 20
129.0783465745483
 30
0.0
 40
7.0
  1

 41
0.8
  7
GREEKS
100
AcDbText
  0
LINE
  5
DEF
330
1E
100
AcDbEntity
  8
MITTEL
100
AcDbLine
 10
219.4234368246974
 20
540.2318810056765
 30
0.0
 11
219.4234368246975
 21
442.4579853490685
 31
0.0
  0
LINE
  5
DF2
330
1E
100
AcDbEntity
  8
STEMPEL
100
AcDbLine
 10
172.4234368246975
 20
375.2318810056765
 30
0.0
 11
181.4234368246974
 21
375.2318810056765
 31
0.0
  0
DIMENSION
  5
DF8
330
1E
100
AcDbEntity
  8
BEM
100
AcDbDimension
  2
*D1
 10
365.4234368246975
 20
429.5618407430226
 30
0.0
 11
219.4234368246975
 21
436.0618407430226
 31
0.0
 70
    32
  1
%%C<>
 71
     5
 42
292.0
  3
Standard
100
AcDbAlignedDimension
 13
73.42343682469754
 23
403.2318810056765
 33
0.0
 14
365.4234368246975
 24
403.2318810056765
 34
0.0
100
AcDbRotatedDimension
1001
ACAD
1000
DSTYLE
1002
{
1070
    40
1040
2.0
1070
    41
1040
3.5
1070
    42
1040
1.0
1070
    43
1040
7.0
1070
    44
1040
1.0
1070
    73
1070
     0
1070
    74
1070
     0
1070
    77
1070
     1
1070
    78
1070
     8
1070
    79
1070
     2
1070
   140
1040
3.5
1070
   141
1040
1.5
1070
   146
1040
0.5142857142857144
1070
   147
1040
1.5
1070
   172
1070
     1
1070
   178
1070
     1
1070
   179
1070
     2
1070
   271
1070
     2
1070
   272
1070
     2
1070
   284
1070
     8
1070
   285
1070
     8
1070
   286
1070
     8
1002
}
  0
LINE
  5
E12
102
{ACAD_REACTORS
330
1285
102
}
330
1E
100
AcDbEntity
  8
STEMPEL
100
AcDbLine
 10
160.9234368246975
 20
373.2318810056765
 30
0.0
 11
181.4234368246974
 21
373.2318810056767
 31
0.0
  0
LINE
  5
E13
102
{ACAD_REACTORS
330
1285
102
}
330
1E
100
AcDbEntity
  8
STEMPEL
100
AcDbLine
 10
160.9234368246975
 20
375.2318810056765
 30
0.0
 11
181.4234368246974
 21
375.2318810056766
 31
0.0
  0
LINE
  5
E16
330
1E
100
AcDbEntity
  8
STEMPEL
100
AcDbLine
 10
171.4234368246975
 20
395.2318810056766
 30
0.0
 11
172.4234368246975
 21
394.2318810056767
 31
0.0
  0
LINE
  5
E17
330
1E
100
AcDbEntity
  8
STEMPEL
100
AcDbLine
 10
164.4234368246975
 20
394.2318810056767
 30
0.0
 11
165.4234368246975
 21
395.2318810056766
 31
0.0
  0
LINE
  5
E18
330
1E
100
AcDbEntity
  8
STEMPEL
100
AcDbLine
 10
164.4234368246975
 20
394.2318810056767
 30
0.0
 11
172.4234368246974
 21
394.2318810056767
 31
0.0
  0
LINE
  5
E19
330
1E
100
AcDbEntity
  8
STEMPEL
100
AcDbLine
 10
165.4234368246975
 20
395.2318810056766
 30
0.0
 11
171.4234368246975
 21
395.2318810056766
 31
0.0
  0
LINE
  5
E29
330
1E
100
AcDbEntity
  8
HILF
100
AcDbLine
 10
165.4234368246975
 20
395.2318810056766
 30
0.0
 11
165.4234368246975
 21
389.2903555141774
 31
0.0
  0
LINE
  5
E2A
330
1E
100
AcDbEntity
  8
STEMPEL
100
AcDbLine
 10
164.4234368246975
 20
394.2318810056767
 30
0.0
 11
164.4234368246975
 21
389.2903555141775
 31
0.0
  0
LINE
  5
E2B
330
1E
100
AcDbEntity
  8
HILF
100
AcDbLine
 10
171.4234368246975
 20
395.2318810056766
 30
0.0
 11
171.4234368246975
 21
389.2903555141774
 31
0.0
  0
LINE
  5
E2C
330
1E
100
AcDbEntity
  8
STEMPEL
100
AcDbLine
 10
172.4234368246975
 20
394.2318810056767
 30
0.0
 11
172.4234368246975
 21
389.2903555141775
 31
0.0
  0
LINE
  5
E2D
102
{ACAD_REACTORS
330
1285
102
}
330
1E
100
AcDbEntity
  8
MITTEL
100
AcDbLine
 10
168.4234368246974
 20
400.2318810056766
 30
0.0
 11
168.4234368246975
 21
373.2318810056766
 31
0.0
  0
LINE
  5
E2E
330
1E
100
AcDbEntity
  8
STEMPEL
100
AcDbLine
 10
273.4234368246975
 20
395.2318810056766
 30
0.0
 11
274.4234368246976
 21
394.2318810056767
 31
0.0
  0
LINE
  5
E2F
330
1E
100
AcDbEntity
  8
STEMPEL
100
AcDbLine
 10
266.4234368246976
 20
394.2318810056767
 30
0.0
 11
267.4234368246975
 21
395.2318810056766
 31
0.0
  0
LINE
  5
E30
330
1E
100
AcDbEntity
  8
STEMPEL
100
AcDbLine
 10
266.4234368246976
 20
394.2318810056767
 30
0.0
 11
274.4234368246976
 21
394.2318810056767
 31
0.0
  0
LINE
  5
E31
330
1E
100
AcDbEntity
  8
STEMPEL
100
AcDbLine
 10
267.4234368246975
 20
395.2318810056766
 30
0.0
 11
273.4234368246975
 21
395.2318810056766
 31
0.0
  0
LINE
  5
E41
330
1E
100
AcDbEntity
  8
HILF
100
AcDbLine
 10
267.4234368246975
 20
395.2318810056766
 30
0.0
 11
267.4234368246975
 21
389.2903555141775
 31
0.0
  0
LINE
  5
E42
330
1E
100
AcDbEntity
  8
STEMPEL
100
AcDbLine
 10
266.4234368246976
 20
394.2318810056767
 30
0.0
 11
266.4234368246976
 21
389.2903555141775
 31
0.0
  0
LINE
  5
E43
330
1E
100
AcDbEntity
  8
HILF
100
AcDbLine
 10
273.4234368246975
 20
395.2318810056766
 30
0.0
 11
273.4234368246975
 21
389.2903555141775
 31
0.0
  0
LINE
  5
E44
330
1E
100
AcDbEntity
  8
STEMPEL
100
AcDbLine
 10
274.4234368246976
 20
394.2318810056767
 30
0.0
 11
274.4234368246976
 21
389.2903555141775
 31
0.0
  0
LINE
  5
E45
102
{ACAD_REACTORS
330
1285
102
}
330
1E
100
AcDbEntity
  8
MITTEL
100
AcDbLine
 10
270.4234368246976
 20
400.2318810056766
 30
0.0
 11
270.4234368246976
 21
373.2318810056764
 31
0.0
  0
LINE
  5
E55
102
{ACAD_REACTORS
330
1285
330
1626
102
}
330
1E
100
AcDbEntity
  8
STEMPEL
100
AcDbLine
 10
317.810209372484
 20
397.8072780598757
 30
0.0
 11
279.9347595699189
 21
375.7743413002566
 31
0.0
  0
LINE
  5
E56
102
{ACAD_REACTORS
330
1285
102
}
330
1E
100
AcDbEntity
  8
STEMPEL
100
AcDbLine
 10
121.0366642769111
 20
397.8072780598757
 30
0.0
 11
158.9121140794761
 21
375.7743413002566
 31
0.0
  0
LINE
  5
E57
102
{ACAD_REACTORS
330
1285
102
}
330
1E
100
AcDbEntity
  8
STEMPEL
100
AcDbLine
 10
257.4234368246976
 20
375.2318810056765
 30
0.0
 11
257.4234368246976
 21
373.2318810056765
 31
0.0
  0
LINE
  5
E58
102
{ACAD_REACTORS
330
1285
102
}
330
1E
100
AcDbEntity
  8
STEMPEL
100
AcDbLine
 10
181.4234368246975
 20
375.2318810056765
 30
0.0
 11
181.4234368246975
 21
373.2318810056765
 31
0.0
  0
ARC
  5
E59
102
{ACAD_REACTORS
330
1285
102
}
330
1E
100
AcDbEntity
  8
STEMPEL
100
AcDbCircle
 10
160.9234368246975
 20
379.2318810056765
 30
0.0
 40
6.0
100
AcDbArc
 50
239.8125459251749
 51
270.0
  0
LINE
  5
E5A
102
{ACAD_REACTORS
330
1285
102
}
330
1E
100
AcDbEntity
  8
STEMPEL
100
AcDbLine
 10
120.0310029043004
 20
396.0785082071657
 30
0.0
 11
157.9064527068655
 21
374.0455714475467
 31
0.0
  0
ARC
  5
E5B
102
{ACAD_REACTORS
330
1285
102
}
330
1E
100
AcDbEntity
  8
STEMPEL
100
AcDbCircle
 10
100.9234368246975
 20
363.2318810056765
 30
0.0
 40
38.0
100
AcDbArc
 50
59.8125459251749
 51
90.0
  0
LINE
  5
E5C
102
{ACAD_REACTORS
330
1285
102
}
330
1E
100
AcDbEntity
  8
STEMPEL
100
AcDbLine
 10
337.9234368246975
 20
401.2318810056765
 30
0.0
 11
365.4234368246975
 21
401.2318810056765
 31
0.0
  0
ARC
  5
E5D
102
{ACAD_REACTORS
330
1285
102
}
330
1E
100
AcDbEntity
  8
STEMPEL
100
AcDbCircle
 10
277.9234368246975
 20
379.2318810056765
 30
0.0
 40
6.0
100
AcDbArc
 50
270.0
 51
300.1874540748251
  0
LINE
  5
E5E
102
{ACAD_REACTORS
330
1285
102
}
330
1E
100
AcDbEntity
  8
STEMPEL
100
AcDbLine
 10
318.8158707450947
 20
396.0785082071657
 30
0.0
 11
280.9404209425295
 21
374.0455714475467
 31
0.0
  0
ARC
  5
E5F
102
{ACAD_REACTORS
330
1285
102
}
330
1E
100
AcDbEntity
  8
STEMPEL
100
AcDbCircle
 10
337.9234368246975
 20
363.2318810056765
 30
0.0
 40
38.0
100
AcDbArc
 50
90.0
 51
120.1874540748251
  0
ARC
  5
E60
102
{ACAD_REACTORS
330
1285
102
}
330
1E
100
AcDbEntity
  8
STEMPEL
100
AcDbCircle
 10
100.9234368246975
 20
363.2318810056765
 30
0.0
 40
40.0
100
AcDbArc
 50
59.8125459251749
 51
90.0
  0
ARC
  5
E61
102
{ACAD_REACTORS
330
1285
102
}
330
1E
100
AcDbEntity
  8
STEMPEL
100
AcDbCircle
 10
337.9234368246975
 20
363.2318810056765
 30
0.0
 40
40.0
100
AcDbArc
 50
90.0
 51
120.1874540748251
  0
ARC
  5
E62
102
{ACAD_REACTORS
330
1285
102
}
330
1E
100
AcDbEntity
  8
STEMPEL
100
AcDbCircle
 10
277.9234368246975
 20
379.2318810056765
 30
0.0
 40
4.0
100
AcDbArc
 50
270.0
 51
300.1874540748251
  0
ARC
  5
E63
102
{ACAD_REACTORS
330
1285
102
}
330
1E
100
AcDbEntity
  8
STEMPEL
100
AcDbCircle
 10
160.9234368246975
 20
379.2318810056765
 30
0.0
 40
4.0
100
AcDbArc
 50
239.8125459251749
 51
270.0
  0
LINE
  5
E64
102
{ACAD_REACTORS
330
1285
102
}
330
1E
100
AcDbEntity
  8
STEMPEL
100
AcDbLine
 10
365.4234368246975
 20
403.2318810056765
 30
0.0
 11
365.4234368246975
 21
401.2318810056765
 31
0.0
  0
LINE
  5
E65
102
{ACAD_REACTORS
330
1285
102
}
330
1E
100
AcDbEntity
  8
STEMPEL
100
AcDbLine
 10
73.42343682469754
 20
403.2318810056765
 30
0.0
 11
73.42343682469754
 21
401.2318810056765
 31
0.0
  0
LINE
  5
E67
102
{ACAD_REACTORS
330
1285
102
}
330
1E
100
AcDbEntity
  8
STEMPEL
100
AcDbLine
 10
73.42343682469754
 20
401.2318810056765
 30
0.0
 11
100.9234368246975
 21
401.2318810056765
 31
0.0
  0
LINE
  5
E6A
102
{ACAD_REACTORS
330
1285
102
}
330
1E
100
AcDbEntity
  8
STEMPEL
100
AcDbLine
 10
73.42343682469754
 20
403.2318810056765
 30
0.0
 11
182.9234368246974
 21
403.2318810056765
 31
0.0
  0
DIMENSION
  5
116B
330
1E
100
AcDbEntity
  8
BEM
100
AcDbDimension
  2
*D2
 10
64.99566687757852
 20
153.2318810056766
 30
0.0
 11
58.4956668775785
 21
278.2318810056766
 31
0.0
 70
    32
 71
     5
 42
249.9999999999999
  3
Standard
100
AcDbAlignedDimension
 13
73.42343682469754
 23
403.2318810056765
 33
0.0
 14
183.535857469379
 24
153.2318810056766
 34
0.0
 50
90.0
100
AcDbRotatedDimension
1001
ACAD
1000
DSTYLE
1002
{
1070
    40
1040
2.0
1070
    41
1040
3.5
1070
    42
1040
1.0
1070
    43
1040
7.0
1070
    44
1040
1.0
1070
    73
1070
     0
1070
    74
1070
     0
1070
    77
1070
     1
1070
    78
1070
     8
1070
    79
1070
     2
1070
   140
1040
3.5
1070
   141
1040
1.5
1070
   146
1040
0.5142857142857144
1070
   147
1040
1.5
1070
   172
1070
     1
1070
   178
1070
     1
1070
   179
1070
     2
1070
   271
1070
     2
1070
   272
1070
     2
1070
   284
1070
     8
1070
   285
1070
     8
1070
   286
1070
     8
1002
}
  0
HATCH
  5
1285
330
1E
100
AcDbEntity
  8
BEM
100
AcDbHatch
 10
0.0
 20
0.0
 30
0.0
210
0.0
220
0.0
230
1.0
  2
_USER
 70
     0
 71
     1
 91
        4
 92
        7
 72
     1
 73
     1
 93
       12
 10
337.9234368246975
 20
403.2318810056765
 42
0.1324846866320394
 10
317.8102093724841
 20
397.8072780598757
 42
0.0
 10
279.9347595699189
 20
375.7743413002566
 42
-0.1324846866320413
 10
277.9234368246975
 20
375.2318810056766
 42
0.0
 10
270.4234368246976
 20
375.2318810056767
 42
0.0
 10
270.4234368246976
 20
373.2318810056765
 42
0.0
 10
277.9234368246975
 20
373.2318810056765
 42
0.1324846866320368
 10
280.9404209425295
 20
374.0455714475467
 42
0.0
 10
318.8158707450947
 20
396.0785082071657
 42
-0.1324846866320403
 10
337.9234368246976
 20
401.2318810056765
 42
0.0
 10
365.4234368246975
 20
401.2318810056765
 42
0.0
 10
365.4234368246975
 20
403.2318810056765
 42
0.0
 97
       12
330
E6A
330
E61
330
E55
330
E62
330
E13
330
E45
330
E12
330
E5D
330
E5E
330
E5F
330
E5C
330
E64
 92
        7
 72
     1
 73
     1
 93
       12
 10
73.42343682469753
 20
403.2318810056765
 42
0.0
 10
73.42343682469754
 20
401.2318810056765
 42
0.0
 10
100.9234368246975
 20
401.2318810056765
 42
-0.1324846866320399
 10
120.0310029043004
 20
396.0785082071657
 42
0.0
 10
157.9064527068655
 20
374.0455714475467
 42
0.132484686632038
 10
160.9234368246974
 20
373.2318810056765
 42
0.0
 10
168.4234368246975
 20
373.2318810056765
 42
0.0
 10
168.4234368246976
 20
375.2318810056766
 42
0.0
 10
160.9234368246975
 20
375.2318810056765
 42
-0.1324846866320423
 10
158.9121140794761
 20
375.7743413002566
 42
0.0
 10
121.0366642769111
 20
397.8072780598757
 42
0.1324846866320404
 10
100.9234368246975
 20
403.2318810056765
 42
0.0
 97
       12
330
E65
330
E67
330
E5B
330
E5A
330
E59
330
E12
330
E2D
330
E13
330
E63
330
E56
330
E60
330
E6A
 92
        7
 72
     0
 73
     1
 93
        4
 10
181.4234368246975
 20
373.2318810056765
 10
181.4234368246975
 20
375.2318810056766
 10
168.4234368246975
 20
375.2318810056766
 10
168.4234368246975
 20
373.2318810056766
 97
        4
330
E13
330
E2D
330
E12
330
E58
 92
        7
 72
     0
 73
     1
 93
        4
 10
257.4234368246976
 20
375.2318810056766
 10
257.4234368246976
 20
373.2318810056765
 10
270.4234368246976
 20
373.2318810056765
 10
270.4234368246976
 20
375.2318810056767
 97
        4
330
E13
330
E57
330
E12
330
E45
 75
     0
 76
     0
 52
45.0
 41
2.0
 77
     0
 78
     1
 53
45.0
 43
-12.03918477251955
 44
-41.76196160879089
 45
-1.414213562373094
 46
1.414213562373095
 79
     0
 47
0.3060430538636909
 98
        4
 10
344.0011995619375
 20
402.4487524978201
 10
83.16064602374899
 20
402.4487524978201
 10
176.8428169057056
 20
373.9867491275806
 10
262.2589126584226
 20
374.292791663885
  0
LINE
  5
15D4
102
{ACAD_REACTORS
330
1626
102
}
330
1E
100
AcDbEntity
  8
STEMPEL
100
AcDbLine
 10
310.9177754520867
 20
396.1115899077368
 30
0.0
 11
284.9862276614374
 21
381.0266693185767
 31
0.0
  0
LINE
  5
15D5
330
1E
100
AcDbEntity
  8
STEMPEL
100
AcDbLine
 10
127.9290981973082
 20
396.1115899077369
 30
0.0
 11
153.8606459879576
 21
381.0266693185767
 31
0.0
  0
HATCH
  5
15FA
330
1E
100
AcDbEntity
  8
SCHRAFF
100
AcDbHatch
 10
0.0
 20
0.0
 30
0.0
210
0.0
220
0.0
230
1.0
  2
_USER
 70
     0
 71
     0
 91
        4
 92
        7
 72
     1
 73
     1
 93
       12
 10
280.4234368246974
 20
379.2903555141774
 42
0.1327909774928473
 10
283.446662977842
 20
380.1076821087868
 42
0.0
 10
307.4466629778421
 20
394.1076821087868
 42
0.2667502984552007
 10
310.4234368246974
 20
399.2903555141774
 42
0.0
 10
310.4234368246973
 20
401.2903555141773
 42
0.0
 10
308.4234368246975
 20
401.2903555141773
 42
0.0
 10
308.4234368246975
 20
399.2903555141774
 42
-0.2667502984552046
 10
306.4389209267938
 20
395.8352399105836
 42
0.0
 10
282.4389209267938
 20
381.8352399105837
 42
-0.1327909774928444
 10
280.4234368246974
 20
381.2903555141774
 42
0.0
 10
275.9234368246975
 20
381.2903555141774
 42
0.0
 10
275.9234368246974
 20
379.2903555141774
 42
0.0
 97
        0
 92
        7
 72
     0
 73
     1
 93
        4
 10
264.9234368246975
 20
379.2903555141774
 10
264.9234368246975
 20
381.2903555141774
 10
260.4234368246974
 20
381.2903555141774
 10
260.4234368246975
 20
379.2903555141774
 97
        0
 92
        7
 72
     0
 73
     1
 93
        4
 10
173.9234368246974
 20
381.2903555141775
 10
173.9234368246974
 20
379.2903555141775
 10
178.4234368246974
 20
379.2903555141774
 10
178.4234368246974
 20
381.2903555141774
 97
        0
 92
        7
 72
     1
 73
     1
 93
       12
 10
158.4234368246974
 20
381.2903555141774
 42
-0.1327909774928438
 10
156.407952722601
 20
381.8352399105837
 42
0.0
 10
132.4079527226011
 20
395.8352399105838
 42
-0.2667502984552084
 10
130.4234368246974
 20
399.2903555141775
 42
0.0
 10
130.4234368246974
 20
401.2903555141774
 42
0.0
 10
128.4234368246974
 20
401.2903555141774
 42
0.0
 10
128.4234368246974
 20
399.2903555141775
 42
0.2667502984552073
 10
131.4002106715529
 20
394.1076821087868
 42
0.0
 10
155.4002106715529
 20
380.1076821087868
 42
0.1327909774928451
 10
158.4234368246975
 20
379.2903555141774
 42
0.0
 10
162.9234368246975
 20
379.2903555141774
 42
0.0
 10
162.9234368246974
 20
381.2903555141774
 42
0.0
 97
        0
 75
     0
 76
     0
 52
135.0
 41
2.0
 77
     0
 78
     1
 53
135.0
 43
-12.03918477251955
 44
-165.0111715679176
 45
-1.414213562373095
 46
-1.414213562373094
 79
     0
 47
0.2375292043459171
 98
        4
 10
279.0992364628863
 20
379.8635624838699
 10
262.7003857024355
 20
380.1010919784915
 10
177.3788283249581
 20
380.3386214731132
 10
160.74231302342
 20
380.3386214731132
  0
LINE
  5
15FB
330
1E
100
AcDbEntity
  8
STEMPEL
100
AcDbLine
 10
128.4234368246974
 20
401.2903555141774
 30
0.0
 11
183.4234368246974
 21
401.2903555141774
 31
0.0
  0
LINE
  5
15FD
330
1E
100
AcDbEntity
  8
STEMPEL
100
AcDbLine
 10
158.4234368246974
 20
379.2903555141774
 30
0.0
 11
164.4234368246975
 21
379.2903555141774
 31
0.0
  0
LINE
  5
15FE
330
1E
100
AcDbEntity
  8
STEMPEL
100
AcDbLine
 10
158.4234368246974
 20
381.2903555141774
 30
0.0
 11
179.4234368246974
 21
381.2903555141774
 31
0.0
  0
LINE
  5
15FF
330
1E
100
AcDbEntity
  8
STEMPEL
100
AcDbLine
 10
128.4234368246974
 20
401.2903555141774
 30
0.0
 11
128.4234368246974
 21
399.2903555141775
 31
0.0
  0
LINE
  5
1600
330
1E
100
AcDbEntity
  8
STEMPEL
100
AcDbLine
 10
310.4234368246974
 20
401.2903555141773
 30
0.0
 11
310.4234368246974
 21
399.2903555141774
 31
0.0
  0
LINE
  5
1601
330
1E
100
AcDbEntity
  8
STEMPEL
100
AcDbLine
 10
308.4234368246975
 20
401.2903555141773
 30
0.0
 11
308.4234368246975
 21
399.2903555141774
 31
0.0
  0
LINE
  5
1602
330
1E
100
AcDbEntity
  8
STEMPEL
100
AcDbLine
 10
130.4234368246974
 20
401.2903555141774
 30
0.0
 11
130.4234368246974
 21
399.2903555141775
 31
0.0
  0
ARC
  5
1603
330
1E
100
AcDbEntity
  8
STEMPEL
100
AcDbCircle
 10
304.4234368246975
 20
399.2903555141774
 30
0.0
 40
4.0
100
AcDbArc
 50
300.2564371635316
 51
0.0
  0
ARC
  5
1604
330
1E
100
AcDbEntity
  8
STEMPEL
100
AcDbCircle
 10
280.4234368246974
 20
385.2903555141774
 30
0.0
 40
4.0
100
AcDbArc
 50
270.0
 51
300.2564371635316
  0
ARC
  5
1605
330
1E
100
AcDbEntity
  8
STEMPEL
100
AcDbCircle
 10
158.4234368246974
 20
385.2903555141774
 30
0.0
 40
4.0
100
AcDbArc
 50
239.7435628364698
 51
270.0
  0
ARC
  5
1606
330
1E
100
AcDbEntity
  8
STEMPEL
100
AcDbCircle
 10
134.4234368246974
 20
399.2903555141775
 30
0.0
 40
4.0
100
AcDbArc
 50
180.0
 51
239.7435628364698
  0
LINE
  5
1607
330
1E
100
AcDbEntity
  8
STEMPEL
100
AcDbLine
 10
306.4389209267938
 20
395.8352399105836
 30
0.0
 11
282.4389209267938
 21
381.8352399105837
 31
0.0
  0
LINE
  5
1608
330
1E
100
AcDbEntity
  8
STEMPEL
100
AcDbLine
 10
156.4079527226011
 20
381.8352399105837
 30
0.0
 11
132.4079527226011
 21
395.8352399105838
 31
0.0
  0
ARC
  5
1609
330
1E
100
AcDbEntity
  8
STEMPEL
100
AcDbCircle
 10
134.4234368246974
 20
399.2903555141775
 30
0.0
 40
6.0
100
AcDbArc
 50
180.0
 51
239.7435628364698
  0
LINE
  5
160A
330
1E
100
AcDbEntity
  8
STEMPEL
100
AcDbLine
 10
155.4002106715529
 20
380.1076821087868
 30
0.0
 11
131.4002106715529
 21
394.1076821087868
 31
0.0
  0
ARC
  5
160B
330
1E
100
AcDbEntity
  8
STEMPEL
100
AcDbCircle
 10
158.4234368246974
 20
385.2903555141774
 30
0.0
 40
6.0
100
AcDbArc
 50
239.7435628364698
 51
270.0
  0
ARC
  5
160C
330
1E
100
AcDbEntity
  8
STEMPEL
100
AcDbCircle
 10
280.4234368246974
 20
385.2903555141774
 30
0.0
 40
6.0
100
AcDbArc
 50
270.0
 51
300.2564371635316
  0
LINE
  5
160D
102
{ACAD_REACTORS
330
1626
102
}
330
1E
100
AcDbEntity
  8
STEMPEL
100
AcDbLine
 10
307.4466629778421
 20
394.1076821087868
 30
0.0
 11
283.446662977842
 21
380.1076821087868
 31
0.0
  0
ARC
  5
160E
330
1E
100
AcDbEntity
  8
STEMPEL
100
AcDbCircle
 10
304.4234368246975
 20
399.2903555141774
 30
0.0
 40
6.0
100
AcDbArc
 50
300.2564371635316
 51
0.0
  0
LINE
  5
160F
330
1E
100
AcDbEntity
  8
STEMPEL
100
AcDbLine
 10
178.4234368246974
 20
381.2903555141774
 30
0.0
 11
178.4234368246974
 21
379.2903555141774
 31
0.0
  0
LINE
  5
1610
330
1E
100
AcDbEntity
  8
STEMPEL
100
AcDbLine
 10
260.4234368246974
 20
381.2903555141774
 30
0.0
 11
260.4234368246974
 21
379.2903555141774
 31
0.0
  0
LINE
  5
1613
330
1E
100
AcDbEntity
  8
STEMPEL
100
AcDbLine
 10
264.9234368246975
 20
381.2903555141774
 30
0.0
 11
264.9234368246975
 21
379.2903555141774
 31
0.0
  0
LINE
  5
1614
330
1E
100
AcDbEntity
  8
STEMPEL
100
AcDbLine
 10
275.9234368246974
 20
381.2903555141774
 30
0.0
 11
275.9234368246974
 21
379.2903555141774
 31
0.0
  0
LINE
  5
1615
330
1E
100
AcDbEntity
  8
STEMPEL
100
AcDbLine
 10
173.9234368246974
 20
381.2903555141774
 30
0.0
 11
173.9234368246974
 21
379.2903555141774
 31
0.0
  0
LINE
  5
1616
330
1E
100
AcDbEntity
  8
STEMPEL
100
AcDbLine
 10
162.9234368246974
 20
381.2903555141774
 30
0.0
 11
162.9234368246974
 21
379.2903555141775
 31
0.0
  0
POINT
  5
1617
330
1E
100
AcDbEntity
  8
DEFPOINTS
  6
ByBlock
 62
     0
100
AcDbPoint
 10
283.4466629778418
 20
380.1076821087866
 30
0.0
  0
POINT
  5
1618
330
1E
100
AcDbEntity
  8
DEFPOINTS
  6
ByBlock
 62
     0
100
AcDbPoint
 10
307.4466629778418
 20
394.1076821087866
 30
0.0
  0
LINE
  5
1619
102
{ACAD_REACTORS
330
1626
102
}
330
1E
100
AcDbEntity
  8
STEMPEL
100
AcDbLine
 10
311.9234368246976
 20
394.3828200550269
 30
0.0
 11
310.9177754520867
 21
396.1115899077368
 31
0.0
  0
LINE
  5
161A
102
{ACAD_REACTORS
330
1626
102
}
330
1E
100
AcDbEntity
  8
STEMPEL
100
AcDbLine
 10
285.9918890340482
 20
379.2978994658665
 30
0.0
 11
284.9862276614374
 21
381.0266693185767
 31
0.0
  0
LINE
  5
161B
330
1E
100
AcDbEntity
  8
STEMPEL
100
AcDbLine
 10
126.9234368246975
 20
394.3828200550269
 30
0.0
 11
127.9290981973082
 21
396.1115899077369
 31
0.0
  0
LINE
  5
161C
330
1E
100
AcDbEntity
  8
STEMPEL
100
AcDbLine
 10
152.8549846153463
 20
379.297899465866
 30
0.0
 11
153.8606459879576
 21
381.0266693185767
 31
0.0
  0
HATCH
  5
1626
330
1E
100
AcDbEntity
  8
SCHRAFF
100
AcDbHatch
 10
0.0
 20
0.0
 30
0.0
210
0.0
220
0.0
230
1.0
  2
NET
 70
     0
 71
     1
 91
        1
 92
        7
 72
     0
 73
     1
 93
        5
 10
284.9953086524524
 20
381.0110587523096
 10
285.9918890340481
 20
379.2978994658668
 10
311.9234368246975
 20
394.3828200550269
 10
310.9177754520867
 20
396.1115899077368
 10
297.9520015566906
 20
388.5691296131084
 97
        5
330
1619
330
15D4
330
160D
330
161A
330
E55
 75
     0
 76
     1
 52
75.0
 41
10.0
 77
     0
 78
     2
 53
75.0
 43
-12.03918477251955
 44
-41.76196160879089
 45
-1.207407282861335
 46
0.3235238063781509
 79
     0
 53
165.0
 43
-12.03918477251955
 44
-41.76196160879089
 45
-0.323523806378151
 46
-1.207407282861335
 79
     0
 47
0.2040341236788785
 98
        1
 10
291.4856149359561
 20
383.7141538701612
  0
HATCH
  5
1627
330
1E
100
AcDbEntity
  8
SCHRAFF
100
AcDbHatch
 10
0.0
 20
0.0
 30
0.0
210
0.0
220
0.0
230
1.0
  2
NET
 70
     0
 71
     0
 91
        1
 92
        7
 72
     0
 73
     1
 93
        5
 10
153.8515649969424
 20
381.0110587523095
 10
152.8549846153469
 20
379.2978994658666
 10
126.9234368246975
 20
394.3828200550268
 10
127.9290981973083
 20
396.1115899077368
 10
140.8948720926703
 20
388.5691296131388
 97
        0
 75
     0
 76
     1
 52
75.0
 41
10.0
 77
     0
 78
     2
 53
105.0000000000001
 43
450.886058421915
 44
-41.7619616087905
 45
1.207407282861334
 46
0.3235238063781529
 79
     0
 53
15.00000000000009
 43
450.886058421915
 44
-41.7619616087905
 45
0.3235238063781527
 46
-1.207407282861334
 79
     0
 47
0.2040341236788785
 98
        1
 10
147.3612587134388
 20
383.7141538701611
  0
LINE
  5
1658
330
1E
100
AcDbEntity
  8
STEMPEL
100
AcDbLine
 10
263.9234368246976
 20
389.2903555141774
 30
0.0
 11
276.9234368246975
 21
389.2903555141774
 31
0.0
  0
LINE
  5
165B
330
1E
100
AcDbEntity
  8
STEMPEL
100
AcDbLine
 10
277.9289903241627
 20
382.8362155682879
 30
0.0
 11
277.9289903241627
 21
389.0209182660494
 31
0.0
  0
LINE
  5
165C
330
1E
100
AcDbEntity
  8
STEMPEL
100
AcDbLine
 10
274.1762135744301
 20
382.8362155682879
 30
0.0
 11
274.1762135744301
 21
389.0209182660494
 31
0.0
  0
LINE
  5
165D
330
1E
100
AcDbEntity
  8
STEMPEL
100
AcDbLine
 10
266.670660074965
 20
382.8362155682879
 30
0.0
 11
266.670660074965
 21
389.0209182660494
 31
0.0
  0
LINE
  5
165E
330
1E
100
AcDbEntity
  8
HILF
100
AcDbLine
 10
278.978648910693
 20
382.454171086649
 30
0.0
 11
261.8682247387021
 21
382.454171086649
 31
0.0
  0
LINE
  5
165F
330
1E
100
AcDbEntity
  8
STEMPEL
100
AcDbLine
 10
278.7734368246976
 20
381.2903555141774
 30
0.0
 11
262.0734368246975
 21
381.2903555141774
 31
0.0
  0
LINE
  5
1660
330
1E
100
AcDbEntity
  8
STEMPEL
100
AcDbLine
 10
262.9178833252324
 20
382.8362155682879
 30
0.0
 11
262.9178833252324
 21
389.0209182660494
 31
0.0
  0
LINE
  5
1661
330
1E
100
AcDbEntity
  8
STEMPEL
100
AcDbLine
 10
263.9234368246976
 20
389.2903555141774
 30
0.0
 11
262.9178833252324
 21
389.0209182660494
 31
0.0
  0
LINE
  5
1662
330
1E
100
AcDbEntity
  8
STEMPEL
100
AcDbLine
 10
277.9289903241627
 20
389.0209182660494
 30
0.0
 11
276.9234368246975
 21
389.2903555141774
 31
0.0
  0
LINE
  5
1669
330
1E
100
AcDbEntity
  8
STEMPEL
100
AcDbLine
 10
278.978648910693
 20
382.454171086649
 30
0.0
 11
277.9289903241627
 21
382.8362155682879
 31
0.0
  0
LINE
  5
166A
330
1E
100
AcDbEntity
  8
STEMPEL
100
AcDbLine
 10
262.9178833252324
 20
382.8362155682879
 30
0.0
 11
261.8682247387021
 21
382.454171086649
 31
0.0
  0
ARC
  5
166B
330
1E
100
AcDbEntity
  8
STEMPEL
100
AcDbCircle
 10
262.0734368246975
 20
381.8903555141774
 30
0.0
 40
0.5999999999999993
100
AcDbArc
 50
109.9999999999995
 51
270.0
  0
ARC
  5
166C
330
1E
100
AcDbEntity
  8
STEMPEL
100
AcDbCircle
 10
278.7734368246976
 20
381.8903555141774
 30
0.0
 40
0.5999999999999999
100
AcDbArc
 50
270.0
 51
70.00000000000047
  0
ARC
  5
166E
330
1E
100
AcDbEntity
  8
STEMPEL
100
AcDbCircle
 10
270.4234368246976
 20
363.0209182660501
 30
0.0
 40
26.26943724812735
100
AcDbArc
 50
81.78678929826059
 51
98.2132107017394
  0
ARC
  5
166F
330
1E
100
AcDbEntity
  8
STEMPEL
100
AcDbCircle
 10
264.7942717000987
 20
382.6219572340975
 30
0.0
 40
6.668398280079905
100
AcDbArc
 50
73.65710669401657
 51
106.3428933059834
  0
ARC
  5
1670
330
1E
100
AcDbEntity
  8
STEMPEL
100
AcDbCircle
 10
276.0526019492963
 20
382.6219572340975
 30
0.0
 40
6.668398280079882
100
AcDbArc
 50
73.65710669401657
 51
106.3428933059834
  0
ARC
  5
1671
330
1E
100
AcDbEntity
  8
STEMPEL
100
AcDbCircle
 10
270.4234368246976
 20
363.7792403462997
 30
0.0
 40
19.42296676475576
100
AcDbArc
 50
78.85962783889116
 51
101.1403721611088
  0
ARC
  5
1672
330
1E
100
AcDbEntity
  8
STEMPEL
100
AcDbCircle
 10
264.7942717000987
 20
378.2077046608737
 30
0.0
 40
4.994391509822305
100
AcDbArc
 50
67.93247218100519
 51
112.0675278189948
  0
ARC
  5
1673
330
1E
100
AcDbEntity
  8
STEMPEL
100
AcDbCircle
 10
276.0526019492965
 20
378.2077046608737
 30
0.0
 40
4.994391509822305
100
AcDbArc
 50
67.93247218100519
 51
112.0675278189948
  0
ARC
  5
1674
330
1E
100
AcDbEntity
  8
STEMPEL
100
AcDbCircle
 10
174.0526019492963
 20
378.2077046608737
 30
0.0
 40
4.994391509822305
100
AcDbArc
 50
67.93247218100519
 51
112.0675278189948
  0
ARC
  5
1675
330
1E
100
AcDbEntity
  8
STEMPEL
100
AcDbCircle
 10
162.7942717000986
 20
378.2077046608737
 30
0.0
 40
4.994391509822305
100
AcDbArc
 50
67.93247218100519
 51
112.0675278189948
  0
ARC
  5
1676
330
1E
100
AcDbEntity
  8
STEMPEL
100
AcDbCircle
 10
168.4234368246974
 20
363.7792403462997
 30
0.0
 40
19.42296676475576
100
AcDbArc
 50
78.85962783889116
 51
101.1403721611088
  0
ARC
  5
1677
330
1E
100
AcDbEntity
  8
STEMPEL
100
AcDbCircle
 10
174.0526019492963
 20
382.6219572340975
 30
0.0
 40
6.668398280079882
100
AcDbArc
 50
73.65710669401657
 51
106.3428933059834
  0
ARC
  5
1678
330
1E
100
AcDbEntity
  8
STEMPEL
100
AcDbCircle
 10
162.7942717000985
 20
382.6219572340975
 30
0.0
 40
6.668398280079905
100
AcDbArc
 50
73.65710669401657
 51
106.3428933059834
  0
ARC
  5
1679
330
1E
100
AcDbEntity
  8
STEMPEL
100
AcDbCircle
 10
168.4234368246974
 20
363.0209182660501
 30
0.0
 40
26.26943724812735
100
AcDbArc
 50
81.78678929826059
 51
98.2132107017394
  0
ARC
  5
167A
330
1E
100
AcDbEntity
  8
STEMPEL
100
AcDbCircle
 10
176.7734368246974
 20
381.8903555141774
 30
0.0
 40
0.5999999999999999
100
AcDbArc
 50
270.0
 51
70.00000000000047
  0
ARC
  5
167B
330
1E
100
AcDbEntity
  8
STEMPEL
100
AcDbCircle
 10
160.0734368246974
 20
381.8903555141774
 30
0.0
 40
0.5999999999999993
100
AcDbArc
 50
109.9999999999995
 51
270.0
  0
LINE
  5
167C
330
1E
100
AcDbEntity
  8
STEMPEL
100
AcDbLine
 10
160.9178833252323
 20
382.8362155682879
 30
0.0
 11
159.868224738702
 21
382.454171086649
 31
0.0
  0
LINE
  5
167D
330
1E
100
AcDbEntity
  8
STEMPEL
100
AcDbLine
 10
176.9786489106929
 20
382.454171086649
 30
0.0
 11
175.9289903241625
 21
382.8362155682879
 31
0.0
  0
LINE
  5
167E
330
1E
100
AcDbEntity
  8
STEMPEL
100
AcDbLine
 10
175.9289903241625
 20
389.0209182660494
 30
0.0
 11
174.9234368246974
 21
389.2903555141774
 31
0.0
  0
LINE
  5
167F
330
1E
100
AcDbEntity
  8
STEMPEL
100
AcDbLine
 10
161.9234368246974
 20
389.2903555141774
 30
0.0
 11
160.9178833252323
 21
389.0209182660494
 31
0.0
  0
LINE
  5
1680
330
1E
100
AcDbEntity
  8
STEMPEL
100
AcDbLine
 10
160.9178833252323
 20
382.8362155682879
 30
0.0
 11
160.9178833252323
 21
389.0209182660494
 31
0.0
  0
LINE
  5
1681
330
1E
100
AcDbEntity
  8
STEMPEL
100
AcDbLine
 10
176.7734368246974
 20
381.2903555141774
 30
0.0
 11
160.0734368246974
 21
381.2903555141774
 31
0.0
  0
LINE
  5
1682
330
1E
100
AcDbEntity
  8
HILF
100
AcDbLine
 10
176.9786489106929
 20
382.454171086649
 30
0.0
 11
159.868224738702
 21
382.454171086649
 31
0.0
  0
LINE
  5
1683
330
1E
100
AcDbEntity
  8
STEMPEL
100
AcDbLine
 10
164.6706600749648
 20
382.8362155682879
 30
0.0
 11
164.6706600749648
 21
389.0209182660494
 31
0.0
  0
LINE
  5
1684
330
1E
100
AcDbEntity
  8
STEMPEL
100
AcDbLine
 10
172.17621357443
 20
382.8362155682879
 30
0.0
 11
172.17621357443
 21
389.0209182660494
 31
0.0
  0
LINE
  5
1685
330
1E
100
AcDbEntity
  8
STEMPEL
100
AcDbLine
 10
175.9289903241625
 20
382.8362155682879
 30
0.0
 11
175.9289903241625
 21
389.0209182660494
 31
0.0
  0
LINE
  5
1686
330
1E
100
AcDbEntity
  8
STEMPEL
100
AcDbLine
 10
161.9234368246974
 20
389.2903555141774
 30
0.0
 11
174.9234368246974
 21
389.2903555141774
 31
0.0
  0
ARC
  5
1687
330
1E
100
AcDbEntity
  8
STEMPEL
100
AcDbCircle
 10
225.0526019492963
 20
378.2077046608737
 30
0.0
 40
4.994391509822305
100
AcDbArc
 50
67.93247218100519
 51
68.00120158759894
  0
ARC
  5
1688
330
1E
100
AcDbEntity
  8
STEMPEL
100
AcDbCircle
 10
213.7942717000986
 20
378.2077046608737
 30
0.0
 40
4.994391509822305
100
AcDbArc
 50
111.9987984124025
 51
112.0675278189948
  0
ARC
  5
168D
330
1E
100
AcDbEntity
  8
STEMPEL
100
AcDbCircle
 10
227.7734368246974
 20
381.8903555141774
 30
0.0
 40
0.5999999999999999
100
AcDbArc
 50
270.0
 51
70.00000000000047
  0
ARC
  5
168E
330
1E
100
AcDbEntity
  8
STEMPEL
100
AcDbCircle
 10
211.0734368246974
 20
381.8903555141774
 30
0.0
 40
0.5999999999999993
100
AcDbArc
 50
109.9999999999995
 51
270.0
  0
LINE
  5
168F
330
1E
100
AcDbEntity
  8
STEMPEL
100
AcDbLine
 10
211.9178833252324
 20
382.8362155682879
 30
0.0
 11
210.8682247387021
 21
382.454171086649
 31
0.0
  0
LINE
  5
1690
330
1E
100
AcDbEntity
  8
STEMPEL
100
AcDbLine
 10
227.9786489106929
 20
382.454171086649
 30
0.0
 11
226.9289903241627
 21
382.8362155682879
 31
0.0
  0
LINE
  5
1693
330
1E
100
AcDbEntity
  8
STEMPEL
100
AcDbLine
 10
211.9178833252324
 20
382.8362155682879
 30
0.0
 11
211.9178833252324
 21
385.2318810056766
 31
0.0
  0
LINE
  5
1694
330
1E
100
AcDbEntity
  8
STEMPEL
100
AcDbLine
 10
227.7734368246974
 20
381.2903555141774
 30
0.0
 11
226.9234368246975
 21
381.2903555141774
 31
0.0
  0
LINE
  5
1695
330
1E
100
AcDbEntity
  8
HILF
100
AcDbLine
 10
227.9786489106929
 20
382.454171086649
 30
0.0
 11
226.9234368246975
 21
382.454171086649
 31
0.0
  0
LINE
  5
1698
330
1E
100
AcDbEntity
  8
STEMPEL
100
AcDbLine
 10
226.9289903241627
 20
382.8362155682879
 30
0.0
 11
226.9289903241627
 21
385.2318810056766
 31
0.0
  0
LINE
  5
169A
330
1E
100
AcDbEntity
  8
HILF
100
AcDbLine
 10
267.4234368246975
 20
381.2903555141775
 30
0.0
 11
267.4234368246975
 21
375.2318810056767
 31
0.0
  0
LINE
  5
169B
330
1E
100
AcDbEntity
  8
STEMPEL
100
AcDbLine
 10
266.4234368246976
 20
381.2903555141773
 30
0.0
 11
266.4234368246976
 21
375.2318810056766
 31
0.0
  0
LINE
  5
169C
330
1E
100
AcDbEntity
  8
HILF
100
AcDbLine
 10
273.4234368246975
 20
381.2903555141775
 30
0.0
 11
273.4234368246975
 21
375.2318810056767
 31
0.0
  0
LINE
  5
169D
330
1E
100
AcDbEntity
  8
STEMPEL
100
AcDbLine
 10
274.4234368246976
 20
381.2903555141773
 30
0.0
 11
274.4234368246976
 21
375.2318810056766
 31
0.0
  0
LINE
  5
169E
330
1E
100
AcDbEntity
  8
STEMPEL
100
AcDbLine
 10
274.4234368246976
 20
379.2903555141775
 30
0.0
 11
280.4234368246974
 21
379.2903555141774
 31
0.0
  0
LINE
  5
16A3
330
1E
100
AcDbEntity
  8
HILF
100
AcDbLine
 10
165.4234368246975
 20
381.2903555141775
 30
0.0
 11
165.4234368246975
 21
375.2318810056766
 31
0.0
  0
LINE
  5
16A4
330
1E
100
AcDbEntity
  8
STEMPEL
100
AcDbLine
 10
164.4234368246975
 20
381.2903555141775
 30
0.0
 11
164.4234368246975
 21
375.2318810056765
 31
0.0
  0
LINE
  5
16A5
330
1E
100
AcDbEntity
  8
HILF
100
AcDbLine
 10
171.4234368246975
 20
381.2903555141775
 30
0.0
 11
171.4234368246975
 21
375.2318810056766
 31
0.0
  0
LINE
  5
16A6
330
1E
100
AcDbEntity
  8
STEMPEL
100
AcDbLine
 10
172.4234368246975
 20
381.2903555141775
 30
0.0
 11
172.4234368246975
 21
375.2318810056765
 31
0.0
  0
LINE
  5
16A7
330
1E
100
AcDbEntity
  8
STEMPEL
100
AcDbLine
 10
172.4234368246975
 20
379.2903555141774
 30
0.0
 11
179.4234368246974
 21
379.2903555141774
 31
0.0
  0
TEXT
  5
16B1
330
1E
100
AcDbEntity
  8
TEXT
 62
     1
100
AcDbText
 10
294.3981524647014
 20
451.0291022072969
 30
0.0
 40
7.0
  1
Losflansch
 41
0.8
  7
GREEKS
100
AcDbText
  0
TEXT
  5
16B2
330
1E
100
AcDbEntity
  8
TEXT
 62
     1
100
AcDbText
 10
294.3981524647014
 20
438.1418383365922
 30
0.0
 40
7.0
  1
EDV-Art.Nr. 19070.000X
 41
0.8
  7
GREEKS
100
AcDbText
  0
LINE
  5
16B3
330
1E
100
AcDbEntity
  8
TEXT
 62
     2
100
AcDbLine
 10
293.1254652419837
 20
447.498992393893
 30
0.0
 11
399.060645889925
 21
447.4989923938931
 31
0.0
  0
LINE
  5
16B5
330
1E
100
AcDbEntity
  8
TEXT
 62
     2
100
AcDbLine
 10
300.8775628097563
 20
339.6492570545968
 30
0.0
 11
287.0034056020374
 21
381.3661917953671
 31
0.0
  0
LINE
  5
16B6
330
1E
100
AcDbEntity
  8
TEXT
 62
     2
100
AcDbLine
 10
300.8775628097563
 20
339.6492570545968
 30
0.0
 11
407.8576900799352
 21
339.6492570545968
 31
0.0
  0
TEXT
  5
16B7
330
1E
100
AcDbEntity
  8
TEXT
 62
     1
100
AcDbText
 10
302.150250032474
 20
330.2921029972958
 30
0.0
 40
7.0
  1
EDV-Art.Nr. 19088.070X
 41
0.8
  7
GREEKS
100
AcDbText
  0
TEXT
  5
16B8
330
1E
100
AcDbEntity
  8
TEXT
 62
     1
100
AcDbText
 10
302.150250032474
 20
343.1793668680007
 30
0.0
 40
7.0
  1
Flanschdichtring DN70
 41
0.8
  7
GREEKS
100
AcDbText
  0
LINE
  5
17CA
330
1E
100
AcDbEntity
  8
TEXT
 62
     2
100
AcDbLine
 10
293.9799864293513
 20
472.8904874322605
 30
0.0
 11
396.0805146767922
 21
472.8904874322605
 31
0.0
  0
TEXT
  5
17CB
330
1E
100
AcDbEntity
  8
TEXT
 62
     1
100
AcDbText
 10
294.9901925767432
 20
476.11735421312
 30
0.0
 40
7.0
  1
Entwässerungsring
 41
0.8
  7
GREEKS
100
AcDbText
  0
TEXT
  5
17CC
330
1E
100
AcDbEntity
  8
TEXT
 62
     1
100
AcDbText
 10
294.9901925767432
 20
463.6266705364103
 30
0.0
 40
7.0
  1
EDV-Art.Nr.19098.000X
 41
0.8
  7
GREEKS
100
AcDbText
  0
LINE
  5
17CD
330
1E
100
AcDbEntity
  8
TEXT
 62
     2
100
AcDbLine
 10
258.4212911471122
 20
393.1430219397701
 30
0.0
 11
267.7158876666998
 21
413.9880082175049
 31
0.0
  0
LINE
  5
17CE
330
1E
100
AcDbEntity
  8
TEXT
 62
     2
100
AcDbLine
 10
295.3193070778178
 20
562.5534553393443
 30
0.0
 11
400.8414410434085
 21
562.5534553393443
 31
0.0
  0
LINE
  5
17CF
330
1E
100
AcDbEntity
  8
TEXT
 62
     2
100
AcDbLine
 10
293.9799864293513
 20
510.961826355805
 30
0.0
 11
395.3572769855158
 21
510.961826355805
 31
0.0
  0
TEXT
  5
17D0
330
1E
100
AcDbEntity
  8
TEXT
 62
     1
100
AcDbText
 10
297.4468595530794
 20
565.476038625591
 30
0.0
 40
7.0
  1
Edelstahlsieb
 41
0.8
  7
GREEKS
100
AcDbText
  0
TEXT
  5
17D1
330
1E
100
AcDbEntity
  8
TEXT
 62
     1
100
AcDbText
 10
297.4468595530794
 20
553.1492113297068
 30
0.0
 40
7.0
  1
EDV-Art-Nr.15096.000X
 41
0.8
  7
GREEKS
100
AcDbText
  0
TEXT
  5
17D2
330
1E
100
AcDbEntity
  8
TEXT
 62
     1
100
AcDbText
 10
295.6267319479172
 20
513.81664059786
 30
0.0
 40
7.0
  1
Siebaufnahme
 41
0.8
  7
GREEKS
100
AcDbText
  0
TEXT
  5
17D3
330
1E
100
AcDbEntity
  8
TEXT
 62
     1
100
AcDbText
 10
295.6267319479172
 20
502.2702047251759
 30
0.0
 40
7.0
  1
EDV-Art.Nr.15094.000X
 41
0.8
  7
GREEKS
100
AcDbText
  0
LINE
  5
17D4
330
1E
100
AcDbEntity
  8
TEXT
 62
     2
100
AcDbLine
 10
253.4000264720395
 20
494.268407646801
 30
0.0
 11
293.9799864293513
 21
510.961826355805
 31
0.0
  0
LINE
  5
17D5
330
1E
100
AcDbEntity
  8
TEXT
 62
     2
100
AcDbLine
 10
259.0015978297143
 20
534.6773715039023
 30
0.0
 11
295.3193070778178
 21
562.5534553393443
 31
0.0
  0
DIMENSION
  5
17D7
330
1E
100
AcDbEntity
  8
BEM
100
AcDbDimension
  2
*D3
 10
269.9234368246974
 20
545.5246814367253
 30
0.0
 11
220.8597939505704
 21
545.5246814367253
 31
0.0
 70
   160
  1
<>
 71
     5
 42
100.9999999999999
  3
Standard
100
AcDbAlignedDimension
 13
168.9234368246975
 23
535.2318810056765
 33
0.0
 14
269.9234368246974
 24
535.2318810056765
 34
0.0
100
AcDbRotatedDimension
1001
ACAD
1000
DSTYLE
1002
{
1070
    40
1040
2.0
1070
    41
1040
3.5
1070
    42
1040
1.0
1070
    43
1040
7.0
1070
    44
1040
1.0
1070
    73
1070
     0
1070
    74
1070
     0
1070
    77
1070
     1
1070
    78
1070
     8
1070
    79
1070
     2
1070
   140
1040
3.5
1070
   141
1040
1.5
1070
   146
1040
0.5142857142857144
1070
   147
1040
1.5
1070
   172
1070
     1
1070
   178
1070
     1
1070
   179
1070
     2
1070
   271
1070
     2
1070
   272
1070
     2
1070
   284
1070
     8
1070
   285
1070
     8
1070
   286
1070
     8
1002
}
  0
LWPOLYLINE
  5
17D8
330
1E
100
AcDbEntity
  8
BEM
 62
     1
100
AcDbPolyline
 90
        4
 70
     1
 43
0.0
 10
206.0752354224747
 20
555.5273918487229
 10
206.0752354224747
 20
548.527391848723
 10
213.0752354224747
 20
548.527391848723
 10
213.0752354224747
 20
555.5273918487229
  0
LINE
  5
17D9
330
1E
100
AcDbEntity
  8
STEMPEL
100
AcDbLine
 10
266.4234368246974
 20
529.2318810056765
 30
0.0
 11
266.4234368246974
 21
532.7318810056765
 31
0.0
  0
LINE
  5
17DA
330
1E
100
AcDbEntity
  8
STEMPEL
100
AcDbLine
 10
172.4234368246974
 20
529.2318810056765
 30
0.0
 11
172.4234368246974
 21
532.7318810056765
 31
0.0
  0
ARC
  5
17DB
330
1E
100
AcDbEntity
  8
STEMPEL
100
AcDbCircle
 10
263.9234368246974
 20
532.7318810056765
 30
0.0
 40
2.5
100
AcDbArc
 50
0.0
 51
90.0
  0
ARC
  5
17DC
330
1E
100
AcDbEntity
  8
STEMPEL
100
AcDbCircle
 10
174.9234368246974
 20
532.7318810056765
 30
0.0
 40
2.5
100
AcDbArc
 50
90.0
 51
180.0
  0
LINE
  5
17DD
330
1E
100
AcDbEntity
  8
STEMPEL
100
AcDbLine
 10
213.7310486692722
 20
531.2318810056764
 30
0.0
 11
213.7310486692722
 21
531.7318810056765
 31
0.0
  0
LINE
  5
17DE
330
1E
100
AcDbEntity
  8
STEMPEL
100
AcDbLine
 10
205.2813012009664
 20
531.2318810056764
 30
0.0
 11
205.2813012009664
 21
531.7318810056765
 31
0.0
  0
ARC
  5
17DF
330
1E
100
AcDbEntity
  8
STEMPEL
100
AcDbCircle
 10
174.9234368246974
 20
532.7318810056765
 30
0.0
 40
1.25
100
AcDbArc
 50
90.0
 51
180.0
  0
LINE
  5
17E0
330
1E
100
AcDbEntity
  8
STEMPEL
100
AcDbLine
 10
221.6158249801226
 20
533.9818810056765
 30
0.0
 11
217.2310486692722
 21
533.9818810056765
 31
0.0
  0
LINE
  5
17E1
330
1E
100
AcDbEntity
  8
STEMPEL
100
AcDbLine
 10
173.6734368246974
 20
529.2318810056765
 30
0.0
 11
173.6734368246974
 21
532.7318810056765
 31
0.0
  0
ARC
  5
17E2
330
1E
100
AcDbEntity
  8
STEMPEL
100
AcDbCircle
 10
263.9234368246974
 20
532.7318810056765
 30
0.0
 40
1.25
100
AcDbArc
 50
0.0
 51
90.0
  0
LINE
  5
17E3
330
1E
100
AcDbEntity
  8
STEMPEL
100
AcDbLine
 10
265.1734368246974
 20
529.2318810056765
 30
0.0
 11
265.1734368246974
 21
532.7318810056765
 31
0.0
  0
LINE
  5
17E4
330
1E
100
AcDbEntity
  8
STEMPEL
100
AcDbLine
 10
261.6500962275844
 20
531.2318810056765
 30
0.0
 11
177.1967774218103
 21
531.2318810056765
 31
0.0
  0
LINE
  5
17E5
330
1E
100
AcDbEntity
  8
STEMPEL
100
AcDbLine
 10
196.7960198267278
 20
531.2318810056764
 30
0.0
 11
196.7960198267278
 21
531.7318810056765
 31
0.0
  0
LINE
  5
17E6
330
1E
100
AcDbEntity
  8
STEMPEL
100
AcDbLine
 10
186.8965248901162
 20
531.2318810056765
 30
0.0
 11
186.8965248901162
 21
531.7318810056765
 31
0.0
  0
LINE
  5
17E7
330
1E
100
AcDbEntity
  8
STEMPEL
100
AcDbLine
 10
177.1967774218103
 20
531.2318810056764
 30
0.0
 11
177.1967774218103
 21
531.7318810056765
 31
0.0
  0
ARC
  5
17E8
330
1E
100
AcDbEntity
  8
STEMPEL
100
AcDbCircle
 10
174.9467774218103
 20
531.7318810056765
 30
0.0
 40
2.25
100
AcDbArc
 50
0.0
 51
90.0
  0
ARC
  5
17E9
330
1E
100
AcDbEntity
  8
STEMPEL
100
AcDbCircle
 10
183.3965248901162
 20
531.7318810056765
 30
0.0
 40
2.25
100
AcDbArc
 50
0.0
 51
90.0
  0
LINE
  5
17EA
330
1E
100
AcDbEntity
  8
STEMPEL
100
AcDbLine
 10
185.6465248901162
 20
531.2318810056764
 30
0.0
 11
185.6465248901162
 21
531.7318810056765
 31
0.0
  0
LINE
  5
17EB
330
1E
100
AcDbEntity
  8
STEMPEL
100
AcDbLine
 10
204.0313012009664
 20
531.2318810056764
 30
0.0
 11
204.0313012009664
 21
531.7318810056765
 31
0.0
  0
ARC
  5
17EC
330
1E
100
AcDbEntity
  8
STEMPEL
100
AcDbCircle
 10
201.7813012009664
 20
531.7318810056765
 30
0.0
 40
2.25
100
AcDbArc
 50
0.0
 51
90.0
  0
ARC
  5
17ED
330
1E
100
AcDbEntity
  8
STEMPEL
100
AcDbCircle
 10
200.2960198267278
 20
531.7318810056765
 30
0.0
 40
2.25
100
AcDbArc
 50
90.0
 51
180.0
  0
LINE
  5
17EE
330
1E
100
AcDbEntity
  8
STEMPEL
100
AcDbLine
 10
198.0460198267278
 20
531.2318810056764
 30
0.0
 11
198.0460198267278
 21
531.7318810056765
 31
0.0
  0
LINE
  5
17EF
330
1E
100
AcDbEntity
  8
STEMPEL
100
AcDbLine
 10
214.9810486692723
 20
531.2318810056764
 30
0.0
 11
214.9810486692723
 21
531.7318810056765
 31
0.0
  0
ARC
  5
17F0
330
1E
100
AcDbEntity
  8
STEMPEL
100
AcDbCircle
 10
217.2310486692722
 20
531.7318810056765
 30
0.0
 40
2.25
100
AcDbArc
 50
90.0
 51
180.0
  0
LINE
  5
17F1
330
1E
100
AcDbEntity
  8
STEMPEL
100
AcDbLine
 10
201.7813012009664
 20
533.9818810056765
 30
0.0
 11
200.2960198267278
 21
533.9818810056765
 31
0.0
  0
LINE
  5
17F2
330
1E
100
AcDbEntity
  8
STEMPEL
100
AcDbLine
 10
183.3965248901162
 20
533.9818810056765
 30
0.0
 11
174.9234368246974
 21
533.9818810056765
 31
0.0
  0
ARC
  5
17F3
330
1E
100
AcDbEntity
  8
STEMPEL
100
AcDbCircle
 10
183.3965248901162
 20
531.7318810056765
 30
0.0
 40
3.5
100
AcDbArc
 50
0.0
 51
90.0
  0
ARC
  5
17F4
330
1E
100
AcDbEntity
  8
STEMPEL
100
AcDbCircle
 10
200.2960198267278
 20
531.7318810056765
 30
0.0
 40
3.5
100
AcDbArc
 50
90.0
 51
180.0
  0
ARC
  5
17F5
330
1E
100
AcDbEntity
  8
STEMPEL
100
AcDbCircle
 10
201.7813012009664
 20
531.7318810056765
 30
0.0
 40
3.5
100
AcDbArc
 50
0.0
 51
90.0
  0
ARC
  5
17F6
330
1E
100
AcDbEntity
  8
STEMPEL
100
AcDbCircle
 10
217.2310486692722
 20
531.7318810056765
 30
0.0
 40
3.5
100
AcDbArc
 50
90.0
 51
180.0
  0
ARC
  5
17F7
330
1E
100
AcDbEntity
  8
STEMPEL
100
AcDbCircle
 10
221.6158249801226
 20
531.7318810056765
 30
0.0
 40
3.5
100
AcDbArc
 50
0.0
 51
90.0
  0
ARC
  5
17F8
330
1E
100
AcDbEntity
  8
STEMPEL
100
AcDbCircle
 10
237.0655724484285
 20
531.7318810056764
 30
0.0
 40
3.5
100
AcDbArc
 50
90.0
 51
180.0
  0
ARC
  5
17F9
330
1E
100
AcDbEntity
  8
STEMPEL
100
AcDbCircle
 10
238.550853822667
 20
531.7318810056764
 30
0.0
 40
3.5
100
AcDbArc
 50
0.0
 51
90.0
  0
ARC
  5
17FA
330
1E
100
AcDbEntity
  8
STEMPEL
100
AcDbCircle
 10
255.4503487592787
 20
531.7318810056764
 30
0.0
 40
3.5
100
AcDbArc
 50
90.0
 51
180.0
  0
LINE
  5
17FB
330
1E
100
AcDbEntity
  8
STEMPEL
100
AcDbLine
 10
255.4503487592787
 20
533.9818810056764
 30
0.0
 11
263.9234368246974
 21
533.9818810056764
 31
0.0
  0
LINE
  5
17FC
330
1E
100
AcDbEntity
  8
STEMPEL
100
AcDbLine
 10
237.0655724484285
 20
533.9818810056764
 30
0.0
 11
238.550853822667
 21
533.9818810056764
 31
0.0
  0
ARC
  5
17FD
330
1E
100
AcDbEntity
  8
STEMPEL
100
AcDbCircle
 10
221.6158249801226
 20
531.7318810056765
 30
0.0
 40
2.25
100
AcDbArc
 50
0.0
 51
90.0
  0
LINE
  5
17FE
330
1E
100
AcDbEntity
  8
STEMPEL
100
AcDbLine
 10
223.8658249801226
 20
531.2318810056764
 30
0.0
 11
223.8658249801226
 21
531.7318810056765
 31
0.0
  0
LINE
  5
17FF
330
1E
100
AcDbEntity
  8
STEMPEL
100
AcDbLine
 10
240.800853822667
 20
531.2318810056764
 30
0.0
 11
240.800853822667
 21
531.7318810056764
 31
0.0
  0
ARC
  5
1800
330
1E
100
AcDbEntity
  8
STEMPEL
100
AcDbCircle
 10
238.550853822667
 20
531.7318810056764
 30
0.0
 40
2.25
100
AcDbArc
 50
0.0
 51
90.0
  0
ARC
  5
1801
330
1E
100
AcDbEntity
  8
STEMPEL
100
AcDbCircle
 10
237.0655724484285
 20
531.7318810056764
 30
0.0
 40
2.25
100
AcDbArc
 50
90.0
 51
180.0
  0
LINE
  5
1802
330
1E
100
AcDbEntity
  8
STEMPEL
100
AcDbLine
 10
234.8155724484285
 20
531.2318810056764
 30
0.0
 11
234.8155724484285
 21
531.7318810056764
 31
0.0
  0
LINE
  5
1803
330
1E
100
AcDbEntity
  8
STEMPEL
100
AcDbLine
 10
253.2003487592787
 20
531.2318810056764
 30
0.0
 11
253.2003487592787
 21
531.7318810056764
 31
0.0
  0
ARC
  5
1804
330
1E
100
AcDbEntity
  8
STEMPEL
100
AcDbCircle
 10
255.4503487592787
 20
531.7318810056764
 30
0.0
 40
2.25
100
AcDbArc
 50
90.0
 51
180.0
  0
ARC
  5
1805
330
1E
100
AcDbEntity
  8
STEMPEL
100
AcDbCircle
 10
263.9000962275844
 20
531.7318810056764
 30
0.0
 40
2.25
100
AcDbArc
 50
90.0
 51
180.0
  0
LINE
  5
1806
330
1E
100
AcDbEntity
  8
STEMPEL
100
AcDbLine
 10
261.6500962275844
 20
531.2318810056764
 30
0.0
 11
261.6500962275844
 21
531.7318810056764
 31
0.0
  0
LINE
  5
1807
330
1E
100
AcDbEntity
  8
STEMPEL
100
AcDbLine
 10
251.9503487592786
 20
531.2318810056764
 30
0.0
 11
251.9503487592786
 21
531.7318810056764
 31
0.0
  0
LINE
  5
1808
330
1E
100
AcDbEntity
  8
STEMPEL
100
AcDbLine
 10
242.050853822667
 20
531.2318810056764
 30
0.0
 11
242.050853822667
 21
531.7318810056764
 31
0.0
  0
LINE
  5
1809
330
1E
100
AcDbEntity
  8
STEMPEL
100
AcDbLine
 10
233.5655724484285
 20
531.2318810056764
 30
0.0
 11
233.5655724484285
 21
531.7318810056764
 31
0.0
  0
LINE
  5
180A
330
1E
100
AcDbEntity
  8
STEMPEL
100
AcDbLine
 10
225.1158249801226
 20
531.2318810056764
 30
0.0
 11
225.1158249801226
 21
531.7318810056765
 31
0.0
  0
HATCH
  5
180B
330
1E
100
AcDbEntity
  8
SCHRAFF
100
AcDbHatch
 10
0.0
 20
0.0
 30
0.0
210
0.0
220
0.0
230
1.0
  2
_USER
 70
     0
 71
     0
 91
        6
 92
        7
 72
     1
 73
     1
 93
       12
 10
183.3965248901162
 20
535.2318810056765
 42
0.0
 10
174.9234368246974
 20
535.2318810056765
 42
0.4142135623730951
 10
172.4234368246974
 20
532.7318810056765
 42
0.0
 10
172.4234368246974
 20
529.2318810056765
 42
0.0
 10
173.6734368246974
 20
529.2318810056765
 42
0.0
 10
173.6734368246974
 20
532.7318810056765
 42
-0.4142135623730951
 10
174.9234368246974
 20
533.9818810056765
 42
0.0
 10
183.3965248901162
 20
533.9818810056765
 42
-0.4142135623730934
 10
185.6465248901162
 20
531.7318810056765
 42
0.0
 10
185.6465248901162
 20
531.2318810056765
 42
0.0
 10
186.8965248901162
 20
531.2318810056765
 42
0.0
 10
186.8965248901162
 20
531.7318810056765
 42
0.4142135623730964
 97
        0
 92
        7
 72
     1
 73
     1
 93
       12
 10
201.7813012009664
 20
535.2318810056765
 42
0.0
 10
200.2960198267278
 20
535.2318810056765
 42
0.4142135623730951
 10
196.7960198267278
 20
531.7318810056765
 42
0.0
 10
196.7960198267278
 20
531.2318810056765
 42
0.0
 10
198.0460198267278
 20
531.2318810056765
 42
0.0
 10
198.0460198267278
 20
531.7318810056765
 42
-0.4142135623730934
 10
200.2960198267278
 20
533.9818810056765
 42
0.0
 10
201.7813012009664
 20
533.9818810056765
 42
-0.4142135623730934
 10
204.0313012009664
 20
531.7318810056765
 42
0.0
 10
204.0313012009664
 20
531.2318810056765
 42
0.0
 10
205.2813012009664
 20
531.2318810056764
 42
0.0
 10
205.2813012009664
 20
531.7318810056765
 42
0.4142135623730964
 97
        0
 92
        7
 72
     1
 73
     1
 93
        8
 10
219.4234368246974
 20
535.2318810056765
 42
0.0
 10
217.2310486692722
 20
535.2318810056765
 42
0.4142135623731023
 10
213.7310486692722
 20
531.7318810056765
 42
0.0
 10
213.7310486692722
 20
531.2318810056765
 42
0.0
 10
214.9810486692723
 20
531.2318810056765
 42
0.0
 10
214.9810486692723
 20
531.7318810056765
 42
-0.4142135623730934
 10
217.2310486692722
 20
533.9818810056765
 42
0.0
 10
219.4234368246974
 20
533.9818810056765
 42
0.0
 97
        0
 92
        7
 72
     1
 73
     1
 93
        8
 10
221.6158249801226
 20
535.2318810056765
 42
0.0
 10
219.4234368246974
 20
535.2318810056765
 42
0.0
 10
219.4234368246974
 20
533.9818810056765
 42
0.0
 10
221.6158249801226
 20
533.9818810056765
 42
-0.4142135623730934
 10
223.8658249801226
 20
531.7318810056765
 42
0.0
 10
223.8658249801226
 20
531.2318810056765
 42
0.0
 10
225.1158249801226
 20
531.2318810056765
 42
0.0
 10
225.1158249801226
 20
531.7318810056765
 42
0.4142135623730975
 97
        0
 92
        7
 72
     1
 73
     1
 93
       12
 10
238.550853822667
 20
535.2318810056765
 42
0.0
 10
237.0655724484285
 20
535.2318810056765
 42
0.4142135623730985
 10
233.5655724484285
 20
531.7318810056764
 42
0.0
 10
233.5655724484285
 20
531.2318810056765
 42
0.0
 10
234.8155724484284
 20
531.2318810056765
 42
0.0
 10
234.8155724484285
 20
531.7318810056764
 42
-0.4142135623730951
 10
237.0655724484285
 20
533.9818810056764
 42
0.0
 10
238.550853822667
 20
533.9818810056764
 42
-0.4142135623730951
 10
240.800853822667
 20
531.7318810056764
 42
0.0
 10
240.800853822667
 20
531.2318810056765
 42
0.0
 10
242.050853822667
 20
531.2318810056765
 42
0.0
 10
242.050853822667
 20
531.7318810056764
 42
0.4142135623730999
 97
        0
 92
        7
 72
     1
 73
     1
 93
       12
 10
263.9234368246974
 20
535.2318810056765
 42
0.0
 10
255.4503487592787
 20
535.2318810056765
 42
0.4142135623731022
 10
251.9503487592786
 20
531.7318810056764
 42
0.0
 10
251.9503487592786
 20
531.2318810056765
 42
0.0
 10
253.2003487592787
 20
531.2318810056766
 42
0.0
 10
253.2003487592787
 20
531.7318810056764
 42
-0.4142135623730951
 10
255.4503487592787
 20
533.9818810056764
 42
0.0
 10
263.9234368246974
 20
533.9818810056764
 42
-0.4142135623730432
 10
265.1734368246974
 20
532.7318810056765
 42
0.0
 10
265.1734368246974
 20
529.2318810056765
 42
0.0
 10
266.4234368246974
 20
529.2318810056764
 42
0.0
 10
266.4234368246974
 20
532.7318810056765
 42
0.4142135623730964
 97
        0
 75
     0
 76
     0
 52
45.0
 41
2.0
 77
     0
 78
     1
 53
45.0
 43
108.7102880538163
 44
283.8821921147488
 45
-1.414213562373094
 46
1.414213562373095
 79
     0
 47
0.19196931903384
 98
        6
 10
181.753532071238
 20
534.5573084723765
 10
199.4277137335667
 20
534.5573084723765
 10
218.2545601832609
 20
534.3653392200885
 10
220.9441090953299
 20
534.3653392200885
 10
237.6577369940325
 20
534.7492777246645
 10
257.2530261836135
 20
534.7492777246645
  0
LINE
  5
180C
330
1E
100
AcDbEntity
  8
STEMPEL
100
AcDbLine
 10
255.9234368246973
 20
398.2318810056765
 30
0.0
 11
259.4234368246974
 21
398.2318810056765
 31
0.0
  0
LINE
  5
180D
330
1E
100
AcDbEntity
  8
STEMPEL
100
AcDbLine
 10
266.1234368246974
 20
533.9193152143803
 30
0.0
 11
266.1234368246974
 21
535.2318810056765
 31
0.0
  0
LINE
  5
180E
102
{ACAD_REACTORS
330
1866
102
}
330
1E
100
AcDbEntity
  8
STEMPEL
100
AcDbLine
 10
266.9234368246973
 20
535.2318810056765
 30
0.0
 11
266.9234368246973
 21
529.2318810056765
 31
0.0
  0
LINE
  5
180F
102
{ACAD_REACTORS
330
1866
102
}
330
1E
100
AcDbEntity
  8
STEMPEL
100
AcDbLine
 10
269.9234368246973
 20
535.2318810056765
 30
0.0
 11
269.9234368246973
 21
526.2318810056765
 31
0.0
  0
LINE
  5
1810
102
{ACAD_REACTORS
330
1866
102
}
330
1E
100
AcDbEntity
  8
STEMPEL
100
AcDbLine
 10
255.4234368246973
 20
504.2318810056765
 30
0.0
 11
255.9234368246973
 21
504.2318810056766
 31
0.0
  0
LINE
  5
1811
102
{ACAD_REACTORS
330
1866
102
}
330
1E
100
AcDbEntity
  8
STEMPEL
100
AcDbLine
 10
255.4234368246973
 20
507.2318810056767
 30
0.0
 11
255.9234368246973
 21
507.2318810056766
 31
0.0
  0
LINE
  5
1812
102
{ACAD_REACTORS
330
1866
102
}
330
1E
100
AcDbEntity
  8
STEMPEL
100
AcDbLine
 10
255.4234368246973
 20
507.2318810056767
 30
0.0
 11
255.4234368246973
 21
504.2318810056766
 31
0.0
  0
LINE
  5
1813
102
{ACAD_REACTORS
330
1866
102
}
330
1E
100
AcDbEntity
  8
STEMPEL
100
AcDbLine
 10
255.9234368246973
 20
519.2318810056766
 30
0.0
 11
255.9234368246973
 21
507.2318810056766
 31
0.0
  0
LINE
  5
1814
102
{ACAD_REACTORS
330
1866
102
}
330
1E
100
AcDbEntity
  8
STEMPEL
100
AcDbLine
 10
255.9234368246973
 20
519.2318810056766
 30
0.0
 11
262.9234368246972
 21
526.2318810056765
 31
0.0
  0
LINE
  5
1815
102
{ACAD_REACTORS
330
1866
102
}
330
1E
100
AcDbEntity
  8
STEMPEL
100
AcDbLine
 10
261.4234368246973
 20
529.2318810056765
 30
0.0
 11
251.4234368246973
 21
519.2318810056765
 31
0.0
  0
LINE
  5
1816
102
{ACAD_REACTORS
330
1866
102
}
330
1E
100
AcDbEntity
  8
STEMPEL
100
AcDbLine
 10
262.9234368246972
 20
526.2318810056765
 30
0.0
 11
269.9234368246973
 21
526.2318810056765
 31
0.0
  0
LINE
  5
1817
102
{ACAD_REACTORS
330
1866
102
}
330
1E
100
AcDbEntity
  8
STEMPEL
100
AcDbLine
 10
255.4234368246973
 20
492.2318810056766
 30
0.0
 11
255.9234368246973
 21
492.2318810056766
 31
0.0
  0
LINE
  5
1818
102
{ACAD_REACTORS
330
1866
102
}
330
1E
100
AcDbEntity
  8
STEMPEL
100
AcDbLine
 10
255.4234368246973
 20
489.2318810056766
 30
0.0
 11
255.9234368246973
 21
489.2318810056766
 31
0.0
  0
LINE
  5
1819
102
{ACAD_REACTORS
330
1866
102
}
330
1E
100
AcDbEntity
  8
STEMPEL
100
AcDbLine
 10
255.4234368246973
 20
489.2318810056766
 30
0.0
 11
255.4234368246973
 21
492.2318810056766
 31
0.0
  0
LINE
  5
181A
102
{ACAD_REACTORS
330
1866
102
}
330
1E
100
AcDbEntity
  8
STEMPEL
100
AcDbLine
 10
255.4234368246973
 20
477.2318810056766
 30
0.0
 11
255.9234368246973
 21
477.2318810056766
 31
0.0
  0
LINE
  5
181B
102
{ACAD_REACTORS
330
1866
102
}
330
1E
100
AcDbEntity
  8
STEMPEL
100
AcDbLine
 10
255.4234368246973
 20
474.2318810056767
 30
0.0
 11
255.9234368246973
 21
474.2318810056766
 31
0.0
  0
LINE
  5
181C
102
{ACAD_REACTORS
330
1866
102
}
330
1E
100
AcDbEntity
  8
STEMPEL
100
AcDbLine
 10
255.4234368246973
 20
477.2318810056767
 30
0.0
 11
255.4234368246973
 21
474.2318810056767
 31
0.0
  0
LINE
  5
181D
102
{ACAD_REACTORS
330
1866
102
}
330
1E
100
AcDbEntity
  8
STEMPEL
100
AcDbLine
 10
255.4234368246973
 20
462.2318810056767
 30
0.0
 11
255.9234368246973
 21
462.2318810056766
 31
0.0
  0
LINE
  5
181E
102
{ACAD_REACTORS
330
1866
102
}
330
1E
100
AcDbEntity
  8
STEMPEL
100
AcDbLine
 10
255.4234368246973
 20
459.2318810056767
 30
0.0
 11
255.9234368246973
 21
459.2318810056766
 31
0.0
  0
LINE
  5
181F
102
{ACAD_REACTORS
330
1866
102
}
330
1E
100
AcDbEntity
  8
STEMPEL
100
AcDbLine
 10
255.4234368246973
 20
462.2318810056767
 30
0.0
 11
255.4234368246973
 21
459.2318810056766
 31
0.0
  0
LINE
  5
1820
102
{ACAD_REACTORS
330
1866
102
}
330
1E
100
AcDbEntity
  8
STEMPEL
100
AcDbLine
 10
255.9234368246973
 20
474.2318810056766
 30
0.0
 11
255.9234368246973
 21
462.2318810056766
 31
0.0
  0
LINE
  5
1821
102
{ACAD_REACTORS
330
1866
102
}
330
1E
100
AcDbEntity
  8
STEMPEL
100
AcDbLine
 10
255.9234368246973
 20
489.2318810056766
 30
0.0
 11
255.9234368246973
 21
477.2318810056766
 31
0.0
  0
LINE
  5
1822
102
{ACAD_REACTORS
330
1866
102
}
330
1E
100
AcDbEntity
  8
STEMPEL
100
AcDbLine
 10
255.4234368246973
 20
447.2318810056767
 30
0.0
 11
255.9234368246973
 21
447.2318810056767
 31
0.0
  0
LINE
  5
1823
102
{ACAD_REACTORS
330
1866
102
}
330
1E
100
AcDbEntity
  8
STEMPEL
100
AcDbLine
 10
255.4234368246973
 20
444.2318810056766
 30
0.0
 11
255.9234368246973
 21
444.2318810056766
 31
0.0
  0
LINE
  5
1824
102
{ACAD_REACTORS
330
1866
102
}
330
1E
100
AcDbEntity
  8
STEMPEL
100
AcDbLine
 10
255.4234368246973
 20
447.2318810056767
 30
0.0
 11
255.4234368246973
 21
444.2318810056766
 31
0.0
  0
LINE
  5
1825
102
{ACAD_REACTORS
330
1866
102
}
330
1E
100
AcDbEntity
  8
STEMPEL
100
AcDbLine
 10
255.4234368246973
 20
429.2318810056766
 30
0.0
 11
255.9234368246973
 21
429.2318810056766
 31
0.0
  0
LINE
  5
1826
102
{ACAD_REACTORS
330
1866
102
}
330
1E
100
AcDbEntity
  8
STEMPEL
100
AcDbLine
 10
255.4234368246973
 20
432.2318810056766
 30
0.0
 11
255.9234368246973
 21
432.2318810056766
 31
0.0
  0
LINE
  5
1827
102
{ACAD_REACTORS
330
1866
102
}
330
1E
100
AcDbEntity
  8
STEMPEL
100
AcDbLine
 10
255.4234368246973
 20
432.2318810056766
 30
0.0
 11
255.4234368246973
 21
429.2318810056766
 31
0.0
  0
LINE
  5
1828
102
{ACAD_REACTORS
330
1866
102
}
330
1E
100
AcDbEntity
  8
STEMPEL
100
AcDbLine
 10
255.4234368246973
 20
414.2318810056766
 30
0.0
 11
255.9234368246973
 21
414.2318810056766
 31
0.0
  0
LINE
  5
1829
102
{ACAD_REACTORS
330
1866
102
}
330
1E
100
AcDbEntity
  8
STEMPEL
100
AcDbLine
 10
255.4234368246973
 20
417.2318810056766
 30
0.0
 11
255.9234368246973
 21
417.2318810056766
 31
0.0
  0
LINE
  5
182A
102
{ACAD_REACTORS
330
1866
102
}
330
1E
100
AcDbEntity
  8
STEMPEL
100
AcDbLine
 10
255.4234368246973
 20
417.2318810056766
 30
0.0
 11
255.4234368246973
 21
414.2318810056766
 31
0.0
  0
LINE
  5
182B
102
{ACAD_REACTORS
330
1866
102
}
330
1E
100
AcDbEntity
  8
STEMPEL
100
AcDbLine
 10
255.9234368246973
 20
429.2318810056767
 30
0.0
 11
255.9234368246973
 21
417.2318810056766
 31
0.0
  0
LINE
  5
182C
102
{ACAD_REACTORS
330
1866
102
}
330
1E
100
AcDbEntity
  8
STEMPEL
100
AcDbLine
 10
255.9234368246973
 20
444.2318810056766
 30
0.0
 11
255.9234368246973
 21
432.2318810056767
 31
0.0
  0
LINE
  5
182D
102
{ACAD_REACTORS
330
1866
102
}
330
1E
100
AcDbEntity
  8
STEMPEL
100
AcDbLine
 10
255.9234368246973
 20
459.2318810056767
 30
0.0
 11
255.9234368246973
 21
447.2318810056767
 31
0.0
  0
LINE
  5
182E
102
{ACAD_REACTORS
330
1866
102
}
330
1E
100
AcDbEntity
  8
STEMPEL
100
AcDbLine
 10
255.4234368246973
 20
402.2318810056766
 30
0.0
 11
255.9234368246973
 21
402.2318810056766
 31
0.0
  0
LINE
  5
182F
102
{ACAD_REACTORS
330
1866
102
}
330
1E
100
AcDbEntity
  8
STEMPEL
100
AcDbLine
 10
255.4234368246973
 20
399.2318810056767
 30
0.0
 11
255.9234368246973
 21
399.2318810056767
 31
0.0
  0
LINE
  5
1830
102
{ACAD_REACTORS
330
1866
102
}
330
1E
100
AcDbEntity
  8
STEMPEL
100
AcDbLine
 10
255.4234368246973
 20
402.2318810056766
 30
0.0
 11
255.4234368246973
 21
399.2318810056767
 31
0.0
  0
LINE
  5
1831
102
{ACAD_REACTORS
330
1866
102
}
330
1E
100
AcDbEntity
  8
STEMPEL
100
AcDbLine
 10
253.9234368246973
 20
385.2318810056766
 30
0.0
 11
255.9234368246973
 21
385.2318810056766
 31
0.0
  0
LINE
  5
1832
102
{ACAD_REACTORS
330
1866
102
}
330
1E
100
AcDbEntity
  8
STEMPEL
100
AcDbLine
 10
255.9234368246973
 20
399.2318810056767
 30
0.0
 11
255.9234368246973
 21
385.2318810056766
 31
0.0
  0
LINE
  5
1833
102
{ACAD_REACTORS
330
1866
102
}
330
1E
100
AcDbEntity
  8
STEMPEL
100
AcDbLine
 10
255.9234368246973
 20
414.2318810056766
 30
0.0
 11
255.9234368246973
 21
402.2318810056765
 31
0.0
  0
LINE
  5
1834
102
{ACAD_REACTORS
330
1866
102
}
330
1E
100
AcDbEntity
  8
STEMPEL
100
AcDbLine
 10
255.9234368246973
 20
504.2318810056765
 30
0.0
 11
255.9234368246973
 21
492.2318810056765
 31
0.0
  0
LINE
  5
1835
102
{ACAD_REACTORS
330
1866
102
}
330
1E
100
AcDbEntity
  8
STEMPEL
100
AcDbLine
 10
251.4234368246973
 20
519.2318810056765
 30
0.0
 11
253.9234368246973
 21
385.2318810056766
 31
0.0
  0
LINE
  5
1836
330
1E
100
AcDbEntity
  8
STEMPEL
100
AcDbLine
 10
188.6734368246974
 20
529.2318810056765
 30
0.0
 11
188.6734368246974
 21
531.2318810056765
 31
0.0
  0
LINE
  5
1837
102
{ACAD_REACTORS
330
1866
102
}
330
1E
100
AcDbEntity
  8
STEMPEL
100
AcDbLine
 10
183.4234368246974
 20
507.2318810056767
 30
0.0
 11
183.4234368246974
 21
504.2318810056766
 31
0.0
  0
LINE
  5
1838
102
{ACAD_REACTORS
330
1866
102
}
330
1E
100
AcDbEntity
  8
STEMPEL
100
AcDbLine
 10
183.4234368246974
 20
507.2318810056767
 30
0.0
 11
182.9234368246974
 21
507.2318810056766
 31
0.0
  0
LINE
  5
1839
102
{ACAD_REACTORS
330
1866
102
}
330
1E
100
AcDbEntity
  8
STEMPEL
100
AcDbLine
 10
183.4234368246974
 20
504.2318810056765
 30
0.0
 11
182.9234368246974
 21
504.2318810056766
 31
0.0
  0
LINE
  5
183A
102
{ACAD_REACTORS
330
1866
102
}
330
1E
100
AcDbEntity
  8
STEMPEL
100
AcDbLine
 10
182.9234368246974
 20
519.2318810056766
 30
0.0
 11
182.9234368246974
 21
507.2318810056766
 31
0.0
  0
LINE
  5
183B
330
1E
100
AcDbEntity
  8
MITTEL
100
AcDbLine
 10
184.4234368246974
 20
524.2318810056765
 30
0.0
 11
184.4234368246974
 21
538.7318810056765
 31
0.0
  0
LINE
  5
183C
330
1E
100
AcDbEntity
  8
STEMPEL
100
AcDbLine
 10
180.1734368246974
 20
529.2318810056765
 30
0.0
 11
180.1734368246974
 21
531.2318810056765
 31
0.0
  0
LINE
  5
183D
330
1E
100
AcDbEntity
  8
STEMPEL
100
AcDbLine
 10
172.7234368246974
 20
533.9193152143804
 30
0.0
 11
172.7234368246974
 21
535.2318810056765
 31
0.0
  0
LINE
  5
183E
102
{ACAD_REACTORS
330
1866
102
}
330
1E
100
AcDbEntity
  8
STEMPEL
100
AcDbLine
 10
171.9234368246974
 20
535.2318810056765
 30
0.0
 11
171.9234368246974
 21
529.2318810056765
 31
0.0
  0
LINE
  5
183F
102
{ACAD_REACTORS
330
1866
102
}
330
1E
100
AcDbEntity
  8
STEMPEL
100
AcDbLine
 10
175.9234368246975
 20
526.2318810056765
 30
0.0
 11
168.9234368246974
 21
526.2318810056765
 31
0.0
  0
LINE
  5
1840
102
{ACAD_REACTORS
330
1866
102
}
330
1E
100
AcDbEntity
  8
STEMPEL
100
AcDbLine
 10
168.9234368246974
 20
535.2318810056765
 30
0.0
 11
168.9234368246974
 21
526.2318810056765
 31
0.0
  0
LINE
  5
1841
102
{ACAD_REACTORS
330
1866
102
}
330
1E
100
AcDbEntity
  8
STEMPEL
100
AcDbLine
 10
177.4234368246974
 20
529.2318810056765
 30
0.0
 11
187.4234368246974
 21
519.2318810056765
 31
0.0
  0
LINE
  5
1842
102
{ACAD_REACTORS
330
1866
102
}
330
1E
100
AcDbEntity
  8
STEMPEL
100
AcDbLine
 10
182.9234368246974
 20
519.2318810056766
 30
0.0
 11
175.9234368246975
 21
526.2318810056765
 31
0.0
  0
LINE
  5
1843
102
{ACAD_REACTORS
330
1866
102
}
330
1E
100
AcDbEntity
  8
STEMPEL
100
AcDbLine
 10
183.4234368246974
 20
489.2318810056766
 30
0.0
 11
183.4234368246974
 21
492.2318810056766
 31
0.0
  0
LINE
  5
1844
102
{ACAD_REACTORS
330
1866
102
}
330
1E
100
AcDbEntity
  8
STEMPEL
100
AcDbLine
 10
183.4234368246974
 20
489.2318810056766
 30
0.0
 11
182.9234368246974
 21
489.2318810056766
 31
0.0
  0
LINE
  5
1845
102
{ACAD_REACTORS
330
1866
102
}
330
1E
100
AcDbEntity
  8
STEMPEL
100
AcDbLine
 10
183.4234368246974
 20
492.2318810056766
 30
0.0
 11
182.9234368246974
 21
492.2318810056766
 31
0.0
  0
LINE
  5
1846
102
{ACAD_REACTORS
330
1866
102
}
330
1E
100
AcDbEntity
  8
STEMPEL
100
AcDbLine
 10
183.4234368246974
 20
477.2318810056767
 30
0.0
 11
183.4234368246974
 21
474.2318810056767
 31
0.0
  0
LINE
  5
1847
102
{ACAD_REACTORS
330
1866
102
}
330
1E
100
AcDbEntity
  8
STEMPEL
100
AcDbLine
 10
183.4234368246974
 20
474.2318810056767
 30
0.0
 11
182.9234368246974
 21
474.2318810056766
 31
0.0
  0
LINE
  5
1848
102
{ACAD_REACTORS
330
1866
102
}
330
1E
100
AcDbEntity
  8
STEMPEL
100
AcDbLine
 10
183.4234368246974
 20
477.2318810056766
 30
0.0
 11
182.9234368246974
 21
477.2318810056766
 31
0.0
  0
LINE
  5
1849
102
{ACAD_REACTORS
330
1866
102
}
330
1E
100
AcDbEntity
  8
STEMPEL
100
AcDbLine
 10
183.4234368246974
 20
462.2318810056767
 30
0.0
 11
183.4234368246974
 21
459.2318810056766
 31
0.0
  0
LINE
  5
184A
102
{ACAD_REACTORS
330
1866
102
}
330
1E
100
AcDbEntity
  8
STEMPEL
100
AcDbLine
 10
183.4234368246974
 20
459.2318810056767
 30
0.0
 11
182.9234368246974
 21
459.2318810056766
 31
0.0
  0
LINE
  5
184B
102
{ACAD_REACTORS
330
1866
102
}
330
1E
100
AcDbEntity
  8
STEMPEL
100
AcDbLine
 10
183.4234368246974
 20
462.2318810056767
 30
0.0
 11
182.9234368246974
 21
462.2318810056766
 31
0.0
  0
LINE
  5
184C
102
{ACAD_REACTORS
330
1866
102
}
330
1E
100
AcDbEntity
  8
STEMPEL
100
AcDbLine
 10
182.9234368246974
 20
474.2318810056766
 30
0.0
 11
182.9234368246974
 21
462.2318810056766
 31
0.0
  0
LINE
  5
184D
102
{ACAD_REACTORS
330
1866
102
}
330
1E
100
AcDbEntity
  8
STEMPEL
100
AcDbLine
 10
182.9234368246974
 20
489.2318810056766
 30
0.0
 11
182.9234368246974
 21
477.2318810056766
 31
0.0
  0
LINE
  5
184E
102
{ACAD_REACTORS
330
1866
102
}
330
1E
100
AcDbEntity
  8
STEMPEL
100
AcDbLine
 10
183.4234368246974
 20
447.2318810056767
 30
0.0
 11
182.9234368246974
 21
447.2318810056767
 31
0.0
  0
LINE
  5
184F
102
{ACAD_REACTORS
330
1866
102
}
330
1E
100
AcDbEntity
  8
STEMPEL
100
AcDbLine
 10
183.4234368246974
 20
444.2318810056766
 30
0.0
 11
182.9234368246974
 21
444.2318810056766
 31
0.0
  0
LINE
  5
1850
102
{ACAD_REACTORS
330
1866
102
}
330
1E
100
AcDbEntity
  8
STEMPEL
100
AcDbLine
 10
183.4234368246974
 20
447.2318810056767
 30
0.0
 11
183.4234368246974
 21
444.2318810056766
 31
0.0
  0
LINE
  5
1851
102
{ACAD_REACTORS
330
1866
102
}
330
1E
100
AcDbEntity
  8
STEMPEL
100
AcDbLine
 10
183.4234368246974
 20
432.2318810056766
 30
0.0
 11
183.4234368246974
 21
429.2318810056766
 31
0.0
  0
LINE
  5
1852
102
{ACAD_REACTORS
330
1866
102
}
330
1E
100
AcDbEntity
  8
STEMPEL
100
AcDbLine
 10
183.4234368246974
 20
432.2318810056766
 30
0.0
 11
182.9234368246974
 21
432.2318810056766
 31
0.0
  0
LINE
  5
1853
102
{ACAD_REACTORS
330
1866
102
}
330
1E
100
AcDbEntity
  8
STEMPEL
100
AcDbLine
 10
183.4234368246974
 20
429.2318810056766
 30
0.0
 11
182.9234368246974
 21
429.2318810056766
 31
0.0
  0
LINE
  5
1854
102
{ACAD_REACTORS
330
1866
102
}
330
1E
100
AcDbEntity
  8
STEMPEL
100
AcDbLine
 10
183.4234368246974
 20
417.2318810056766
 30
0.0
 11
183.4234368246974
 21
414.2318810056766
 31
0.0
  0
LINE
  5
1855
102
{ACAD_REACTORS
330
1866
102
}
330
1E
100
AcDbEntity
  8
STEMPEL
100
AcDbLine
 10
183.4234368246974
 20
414.2318810056766
 30
0.0
 11
182.9234368246974
 21
414.2318810056766
 31
0.0
  0
LINE
  5
1856
102
{ACAD_REACTORS
330
1866
102
}
330
1E
100
AcDbEntity
  8
STEMPEL
100
AcDbLine
 10
183.4234368246974
 20
417.2318810056766
 30
0.0
 11
182.9234368246974
 21
417.2318810056766
 31
0.0
  0
LINE
  5
1857
102
{ACAD_REACTORS
330
1866
102
}
330
1E
100
AcDbEntity
  8
STEMPEL
100
AcDbLine
 10
182.9234368246974
 20
429.2318810056767
 30
0.0
 11
182.9234368246974
 21
417.2318810056766
 31
0.0
  0
LINE
  5
1858
102
{ACAD_REACTORS
330
1866
102
}
330
1E
100
AcDbEntity
  8
STEMPEL
100
AcDbLine
 10
182.9234368246974
 20
444.2318810056766
 30
0.0
 11
182.9234368246974
 21
432.2318810056767
 31
0.0
  0
LINE
  5
1859
102
{ACAD_REACTORS
330
1866
102
}
330
1E
100
AcDbEntity
  8
STEMPEL
100
AcDbLine
 10
182.9234368246974
 20
459.2318810056767
 30
0.0
 11
182.9234368246974
 21
447.2318810056767
 31
0.0
  0
LINE
  5
185A
102
{ACAD_REACTORS
330
1866
102
}
330
1E
100
AcDbEntity
  8
STEMPEL
100
AcDbLine
 10
183.4234368246974
 20
402.2318810056766
 30
0.0
 11
182.9234368246974
 21
402.2318810056766
 31
0.0
  0
LINE
  5
185B
102
{ACAD_REACTORS
330
1866
102
}
330
1E
100
AcDbEntity
  8
STEMPEL
100
AcDbLine
 10
183.4234368246974
 20
399.2318810056767
 30
0.0
 11
182.9234368246974
 21
399.2318810056767
 31
0.0
  0
LINE
  5
185C
102
{ACAD_REACTORS
330
1866
102
}
330
1E
100
AcDbEntity
  8
STEMPEL
100
AcDbLine
 10
183.4234368246974
 20
402.2318810056766
 30
0.0
 11
183.4234368246974
 21
399.2318810056767
 31
0.0
  0
LINE
  5
185D
102
{ACAD_REACTORS
330
1866
102
}
330
1E
100
AcDbEntity
  8
STEMPEL
100
AcDbLine
 10
184.9234368246974
 20
385.2318810056766
 30
0.0
 11
182.9234368246974
 21
385.2318810056766
 31
0.0
  0
LINE
  5
185E
102
{ACAD_REACTORS
330
1866
102
}
330
1E
100
AcDbEntity
  8
STEMPEL
100
AcDbLine
 10
182.9234368246974
 20
399.2318810056767
 30
0.0
 11
182.9234368246974
 21
385.2318810056766
 31
0.0
  0
LINE
  5
185F
102
{ACAD_REACTORS
330
1866
102
}
330
1E
100
AcDbEntity
  8
STEMPEL
100
AcDbLine
 10
182.9234368246974
 20
414.2318810056766
 30
0.0
 11
182.9234368246974
 21
402.2318810056765
 31
0.0
  0
LINE
  5
1860
102
{ACAD_REACTORS
330
1866
102
}
330
1E
100
AcDbEntity
  8
STEMPEL
100
AcDbLine
 10
187.4234368246974
 20
519.2318810056765
 30
0.0
 11
184.9234368246974
 21
385.2318810056766
 31
0.0
  0
LINE
  5
1861
102
{ACAD_REACTORS
330
1866
102
}
330
1E
100
AcDbEntity
  8
STEMPEL
100
AcDbLine
 10
182.9234368246974
 20
504.2318810056765
 30
0.0
 11
182.9234368246974
 21
492.2318810056765
 31
0.0
  0
LINE
  5
1862
330
1E
100
AcDbEntity
  8
STEMPEL
100
AcDbLine
 10
184.9234368246974
 20
385.2318810056766
 30
0.0
 11
253.9234368246973
 21
385.2318810056766
 31
0.0
  0
LINE
  5
1863
102
{ACAD_REACTORS
330
1866
102
}
330
1E
100
AcDbEntity
  8
STEMPEL
100
AcDbLine
 10
171.9234368246974
 20
529.2318810056765
 30
0.0
 11
266.9234368246973
 21
529.2318810056765
 31
0.0
  0
LINE
  5
1864
102
{ACAD_REACTORS
330
1866
102
}
330
1E
100
AcDbEntity
  8
STEMPEL
100
AcDbLine
 10
168.9234368246974
 20
535.2318810056765
 30
0.0
 11
269.9234368246973
 21
535.2318810056765
 31
0.0
  0
LINE
  5
1865
330
1E
100
AcDbEntity
  8
STEMPEL
100
AcDbLine
 10
187.4234368246973
 20
519.2318810056765
 30
0.0
 11
251.4234368246973
 21
519.2318810056765
 31
0.0
  0
HATCH
  5
1866
330
1E
100
AcDbEntity
  8
SCHRAFF
100
AcDbHatch
 10
0.0
 20
0.0
 30
0.0
210
0.0
220
0.0
230
1.0
  2
NET
 70
     0
 71
     1
 91
        2
 92
        7
 72
     0
 73
     1
 93
       42
 10
266.923436824697
 20
529.2318810056766
 10
261.4234368246974
 20
529.2318810056766
 10
251.4234368246974
 20
519.2318810056765
 10
253.9234368246973
 20
385.2318810056766
 10
255.9234368246973
 20
385.2318810056766
 10
255.9234368246973
 20
399.2318810056766
 10
255.4234368246973
 20
399.2318810056767
 10
255.4234368246973
 20
402.2318810056765
 10
255.9234368246973
 20
402.2318810056766
 10
255.9234368246973
 20
414.2318810056766
 10
255.4234368246973
 20
414.2318810056766
 10
255.4234368246973
 20
417.2318810056766
 10
255.9234368246973
 20
417.2318810056766
 10
255.9234368246973
 20
429.2318810056766
 10
255.4234368246973
 20
429.2318810056766
 10
255.4234368246973
 20
432.2318810056767
 10
255.9234368246973
 20
432.2318810056765
 10
255.9234368246973
 20
444.2318810056766
 10
255.4234368246973
 20
444.2318810056765
 10
255.4234368246973
 20
447.2318810056767
 10
255.9234368246973
 20
447.2318810056767
 10
255.9234368246973
 20
459.2318810056766
 10
255.4234368246973
 20
459.2318810056768
 10
255.4234368246973
 20
462.2318810056767
 10
255.9234368246973
 20
462.2318810056766
 10
255.9234368246973
 20
474.2318810056765
 10
255.4234368246973
 20
474.2318810056768
 10
255.4234368246973
 20
477.2318810056766
 10
255.9234368246973
 20
477.2318810056765
 10
255.9234368246973
 20
489.2318810056766
 10
255.4234368246973
 20
489.2318810056766
 10
255.4234368246973
 20
492.2318810056767
 10
255.9234368246973
 20
492.2318810056767
 10
255.9234368246973
 20
504.2318810056767
 10
255.4234368246973
 20
504.2318810056764
 10
255.4234368246973
 20
507.2318810056768
 10
255.9234368246973
 20
507.2318810056765
 10
255.9234368246973
 20
519.2318810056765
 10
262.9234368246972
 20
526.2318810056765
 10
269.9234368246973
 20
526.2318810056765
 10
269.9234368246973
 20
535.2318810056765
 10
266.9234368246973
 20
535.2318810056765
 97
       42
330
1864
330
180E
330
1863
330
1815
330
1835
330
1831
330
1832
330
182F
330
1830
330
182E
330
1833
330
1828
330
182A
330
1829
330
182B
330
1825
330
1827
330
1826
330
182C
330
1823
330
1824
330
1822
330
182D
330
181E
330
181F
330
181D
330
1820
330
181B
330
181C
330
181A
330
1821
330
1818
330
1819
330
1817
330
1834
330
1810
330
1812
330
1811
330
1813
330
1814
330
1816
330
180F
 92
        7
 72
     0
 73
     1
 93
       42
 10
182.9234368246974
 20
507.2318810056766
 10
183.4234368246974
 20
507.2318810056767
 10
183.4234368246974
 20
504.2318810056766
 10
182.9234368246974
 20
504.2318810056766
 10
182.9234368246974
 20
492.2318810056766
 10
183.4234368246974
 20
492.2318810056766
 10
183.4234368246974
 20
489.2318810056766
 10
182.9234368246974
 20
489.2318810056766
 10
182.9234368246974
 20
477.2318810056766
 10
183.4234368246974
 20
477.2318810056765
 10
183.4234368246974
 20
474.2318810056767
 10
182.9234368246974
 20
474.2318810056766
 10
182.9234368246974
 20
462.2318810056766
 10
183.4234368246974
 20
462.2318810056767
 10
183.4234368246974
 20
459.2318810056768
 10
182.9234368246974
 20
459.2318810056766
 10
182.9234368246974
 20
447.2318810056766
 10
183.4234368246974
 20
447.2318810056766
 10
183.4234368246974
 20
444.2318810056765
 10
182.9234368246974
 20
444.2318810056766
 10
182.9234368246974
 20
432.2318810056766
 10
183.4234368246974
 20
432.2318810056765
 10
183.4234368246974
 20
429.2318810056766
 10
182.9234368246974
 20
429.2318810056767
 10
182.9234368246974
 20
417.2318810056767
 10
183.4234368246974
 20
417.2318810056766
 10
183.4234368246973
 20
414.2318810056766
 10
182.9234368246974
 20
414.2318810056767
 10
182.9234368246974
 20
402.2318810056766
 10
183.4234368246974
 20
402.2318810056766
 10
183.4234368246974
 20
399.2318810056767
 10
182.9234368246974
 20
399.2318810056766
 10
182.9234368246974
 20
385.2318810056766
 10
184.9234368246974
 20
385.2318810056766
 10
187.4234368246974
 20
519.2318810056766
 10
177.4234368246974
 20
529.2318810056765
 10
171.9234368246974
 20
529.2318810056765
 10
171.9234368246974
 20
535.2318810056765
 10
168.9234368246974
 20
535.2318810056765
 10
168.9234368246974
 20
526.2318810056765
 10
175.9234368246974
 20
526.2318810056765
 10
182.9234368246974
 20
519.2318810056766
 97
       42
330
1841
330
1863
330
183E
330
1864
330
1840
330
183F
330
1842
330
183A
330
1838
330
1837
330
1839
330
1861
330
1845
330
1843
330
1844
330
184D
330
1848
330
1846
330
1847
330
184C
330
184B
330
1849
330
184A
330
1859
330
184E
330
1850
330
184F
330
1858
330
1852
330
1851
330
1853
330
1857
330
1856
330
1854
330
1855
330
185F
330
185A
330
185C
330
185B
330
185E
330
185D
330
1860
 75
     0
 76
     1
 52
45.0
 41
15.0
 77
     0
 78
     2
 53
45.0
 43
-5.576563175302567
 44
21.64904262639476
 45
-1.325825214724776
 46
1.325825214724776
 79
     0
 53
135.0
 43
-5.576563175302567
 44
21.64904262639476
 45
-1.325825214724776
 46
-1.325825214724776
 79
     0
 47
0.33477438141283
 98
        2
 10
268.006076367655
 20
529.1094918020403
 10
184.9233078426981
 20
510.3621271921752
  0
HATCH
  5
1867
330
1E
100
AcDbEntity
  8
SCHRAFF
100
AcDbHatch
 10
0.0
 20
0.0
 30
0.0
210
0.0
220
0.0
230
1.0
  2
NET
 70
     0
 71
     0
 91
        2
 92
        7
 72
     0
 73
     1
 93
        8
 10
256.1234368246975
 20
385.2318810056766
 10
253.4234368246974
 20
385.2318810056766
 10
253.4234368246974
 20
370.2318810056766
 10
257.4234368246974
 20
370.2318810056766
 10
257.4234368246974
 20
375.2318810056765
 10
259.4234368246974
 20
375.2318810056765
 10
259.4234368246974
 20
398.2318810056765
 10
256.1234368246975
 20
398.2318810056765
 97
        0
 92
        7
 72
     0
 73
     1
 93
        8
 10
179.4234368246974
 20
375.2318810056766
 10
181.4234368246974
 20
375.2318810056765
 10
181.4234368246974
 20
370.2318810056766
 10
185.4234368246974
 20
370.2318810056766
 10
185.4234368246974
 20
385.2318810056766
 10
182.7234368246974
 20
385.2318810056766
 10
182.7234368246974
 20
398.2318810056765
 10
179.4234368246974
 20
398.2318810056765
 97
        0
 75
     0
 76
     1
 52
45.0
 41
20.0
 77
     0
 78
     2
 53
45.0
 43
106.9234368246974
 44
143.6890477543339
 45
-1.767766952966368
 46
1.767766952966368
 79
     0
 53
135.0
 43
106.9234368246974
 44
143.6890477543339
 45
-1.767766952966368
 46
-1.767766952966368
 79
     0
 47
0.1980523569326961
 98
        2
 10
257.587172126916
 20
395.6074922265709
 10
180.6990857247314
 20
395.4094401435778
  0
LINE
  5
1868
330
1E
100
AcDbEntity
  8
STEMPEL
100
AcDbLine
 10
179.4234368246974
 20
398.2318810056765
 30
0.0
 11
182.9234368246974
 21
398.2318810056766
 31
0.0
  0
LINE
  5
1869
330
1E
100
AcDbEntity
  8
STEMPEL
100
AcDbLine
 10
211.9234368246974
 20
370.2318810056766
 30
0.0
 11
226.9234368246974
 21
370.2318810056766
 31
0.0
  0
LINE
  5
186A
330
1E
100
AcDbEntity
  8
STEMPEL
100
AcDbLine
 10
259.4234368246974
 20
398.2318810056765
 30
0.0
 11
259.4234368246974
 21
375.2318810056765
 31
0.0
  0
LINE
  5
186B
330
1E
100
AcDbEntity
  8
STEMPEL
100
AcDbLine
 10
226.9234368246974
 20
385.2318810056766
 30
0.0
 11
226.9234368246974
 21
370.2318810056766
 31
0.0
  0
LINE
  5
186C
330
1E
100
AcDbEntity
  8
STEMPEL
100
AcDbLine
 10
253.4234368246974
 20
385.2318810056766
 30
0.0
 11
253.4234368246974
 21
370.2318810056766
 31
0.0
  0
LINE
  5
186D
330
1E
100
AcDbEntity
  8
STEMPEL
100
AcDbLine
 10
257.4234368246974
 20
375.2318810056765
 30
0.0
 11
259.4234368246974
 21
375.2318810056765
 31
0.0
  0
LINE
  5
186E
330
1E
100
AcDbEntity
  8
STEMPEL
100
AcDbLine
 10
257.4234368246974
 20
375.2318810056765
 30
0.0
 11
257.4234368246974
 21
370.2318810056766
 31
0.0
  0
LINE
  5
186F
330
1E
100
AcDbEntity
  8
STEMPEL
100
AcDbLine
 10
256.1234368246975
 20
398.2318810056765
 30
0.0
 11
256.1234368246975
 21
385.2318810056766
 31
0.0
  0
LINE
  5
1870
330
1E
100
AcDbEntity
  8
STEMPEL
100
AcDbLine
 10
253.4234368246974
 20
385.2318810056766
 30
0.0
 11
256.1234368246975
 21
385.2318810056766
 31
0.0
  0
LINE
  5
1872
330
1E
100
AcDbEntity
  8
STEMPEL
100
AcDbLine
 10
211.9234368246974
 20
385.2318810056766
 30
0.0
 11
226.9234368246974
 21
385.2318810056766
 31
0.0
  0
LINE
  5
1873
330
1E
100
AcDbEntity
  8
STEMPEL
100
AcDbLine
 10
255.9234368246973
 20
390.2318810056765
 30
0.0
 11
256.1234368246975
 21
390.2318810056765
 31
0.0
  0
LINE
  5
1874
330
1E
100
AcDbEntity
  8
STEMPEL
100
AcDbLine
 10
181.4234368246974
 20
375.2318810056765
 30
0.0
 11
181.4234368246974
 21
370.2318810056766
 31
0.0
  0
LINE
  5
1875
330
1E
100
AcDbEntity
  8
STEMPEL
100
AcDbLine
 10
185.4234368246974
 20
385.2318810056766
 30
0.0
 11
185.4234368246974
 21
370.2318810056766
 31
0.0
  0
LINE
  5
1876
330
1E
100
AcDbEntity
  8
STEMPEL
100
AcDbLine
 10
211.9234368246974
 20
385.2318810056766
 30
0.0
 11
211.9234368246974
 21
370.2318810056766
 31
0.0
  0
LINE
  5
1877
330
1E
100
AcDbEntity
  8
STEMPEL
100
AcDbLine
 10
182.9234368246974
 20
390.2318810056765
 30
0.0
 11
182.7234368246974
 21
390.2318810056765
 31
0.0
  0
LINE
  5
1878
330
1E
100
AcDbEntity
  8
STEMPEL
100
AcDbLine
 10
182.7234368246974
 20
398.2318810056765
 30
0.0
 11
182.7234368246974
 21
385.2318810056766
 31
0.0
  0
LINE
  5
1879
330
1E
100
AcDbEntity
  8
STEMPEL
100
AcDbLine
 10
179.4234368246974
 20
398.2318810056765
 30
0.0
 11
179.4234368246974
 21
375.2318810056765
 31
0.0
  0
LINE
  5
187A
330
1E
100
AcDbEntity
  8
STEMPEL
100
AcDbLine
 10
185.4234368246974
 20
385.2318810056766
 30
0.0
 11
182.7234368246974
 21
385.2318810056766
 31
0.0
  0
LINE
  5
187B
330
1E
100
AcDbEntity
  8
STEMPEL
100
AcDbLine
 10
181.4234368246974
 20
375.2318810056765
 30
0.0
 11
179.4234368246974
 21
375.2318810056765
 31
0.0
  0
LINE
  5
187C
330
1E
100
AcDbEntity
  8
STEMPEL
100
AcDbLine
 10
253.4234368246974
 20
370.2318810056766
 30
0.0
 11
257.4234368246974
 21
370.2318810056766
 31
0.0
  0
LINE
  5
187D
330
1E
100
AcDbEntity
  8
STEMPEL
100
AcDbLine
 10
185.4234368246974
 20
370.2318810056766
 30
0.0
 11
181.4234368246974
 21
370.2318810056766
 31
0.0
  0
DIMENSION
  5
1941
330
1E
100
AcDbEntity
  8
BEM
100
AcDbDimension
  2
*D4
 10
64.99566687757857
 20
403.2318810056765
 30
0.0
 11
58.49566687757851
 21
469.2318810056765
 31
0.0
 70
    32
  1
min.10 - max.130
 71
     5
 42
132.0
  3
Standard
100
AcDbAlignedDimension
 13
168.9234368246974
 23
535.2318810056765
 33
0.0
 14
73.42343682469754
 24
403.2318810056765
 34
0.0
 50
90.0
100
AcDbRotatedDimension
1001
ACAD
1000
DSTYLE
1002
{
1070
    40
1040
2.0
1070
    41
1040
3.5
1070
    42
1040
1.0
1070
    43
1040
7.0
1070
    44
1040
1.0
1070
    73
1070
     0
1070
    74
1070
     0
1070
    77
1070
     1
1070
    78
1070
     8
1070
    79
1070
     2
1070
   140
1040
3.5
1070
   141
1040
1.5
1070
   146
1040
0.5142857142857144
1070
   147
1040
1.5
1070
   172
1070
     1
1070
   178
1070
     1
1070
   179
1070
     2
1070
   271
1070
     2
1070
   272
1070
     2
1070
   284
1070
     8
1070
   285
1070
     8
1070
   286
1070
     8
1002
}
  0
LINE
  5
196C
330
1E
100
AcDbEntity
  8
TEXT
 62
     2
100
AcDbLine
 10
293.1254652419837
 20
447.498992393893
 30
0.0
 11
291.406850760557
 21
431.5503288686143
 31
0.0
  0
LINE
  5
196D
330
1E
100
AcDbEntity
  8
TEXT
 62
     2
100
AcDbLine
 10
269.3448540169826
 20
417.6412901159691
 30
0.0
 11
273.8456397939788
 21
427.7351997937905
 31
0.0
  0
LINE
  5
196E
330
1E
100
AcDbEntity
  8
STEMPEL
100
AcDbLine
 10
259.4234368246974
 20
381.2903555141774
 30
0.0
 11
280.4234368246974
 21
381.2903555141774
 31
0.0
  0
LINE
  5
196F
330
1E
100
AcDbEntity
  8
STEMPEL
100
AcDbLine
 10
259.4234368246974
 20
379.2903555141776
 30
0.0
 11
266.4234368246976
 21
379.2903555141775
 31
0.0
  0
LINE
  5
1970
330
1E
100
AcDbEntity
  8
STEMPEL
100
AcDbLine
 10
257.4234368246974
 20
373.2318810056765
 30
0.0
 11
277.9234368246975
 21
373.2318810056765
 31
0.0
  0
LINE
  5
1971
330
1E
100
AcDbEntity
  8
STEMPEL
100
AcDbLine
 10
257.4234368246974
 20
375.2318810056767
 30
0.0
 11
277.9234368246975
 21
375.2318810056766
 31
0.0
  0
LINE
  5
1972
330
1E
100
AcDbEntity
  8
STEMPEL
100
AcDbLine
 10
257.4234368246974
 20
375.2318810056765
 30
0.0
 11
266.4234368246976
 21
375.2318810056765
 31
0.0
  0
LINE
  5
1973
330
1E
100
AcDbEntity
  8
STEMPEL
100
AcDbLine
 10
185.4234368246974
 20
379.2903555141775
 30
0.0
 11
211.9234368246974
 21
379.2903555141775
 31
0.0
  0
LINE
  5
1974
330
1E
100
AcDbEntity
  8
STEMPEL
100
AcDbLine
 10
185.4234368246974
 20
381.2903555141775
 30
0.0
 11
211.9234368246974
 21
381.2903555141775
 31
0.0
  0
LINE
  5
1975
330
1E
100
AcDbEntity
  8
STEMPEL
100
AcDbLine
 10
185.4234368246974
 20
375.2318810056765
 30
0.0
 11
211.9234368246974
 21
375.2318810056766
 31
0.0
  0
LINE
  5
1976
330
1E
100
AcDbEntity
  8
STEMPEL
100
AcDbLine
 10
185.4234368246974
 20
375.2318810056765
 30
0.0
 11
211.9234368246974
 21
375.2318810056766
 31
0.0
  0
LINE
  5
1977
330
1E
100
AcDbEntity
  8
STEMPEL
100
AcDbLine
 10
185.4234368246974
 20
373.2318810056766
 30
0.0
 11
211.9234368246974
 21
373.2318810056766
 31
0.0
  0
LINE
  5
1978
330
1E
100
AcDbEntity
  8
STEMPEL
100
AcDbLine
 10
226.9234368246974
 20
373.2318810056767
 30
0.0
 11
253.4234368246975
 21
373.2318810056766
 31
0.0
  0
LINE
  5
1979
330
1E
100
AcDbEntity
  8
STEMPEL
100
AcDbLine
 10
226.9234368246974
 20
375.2318810056765
 30
0.0
 11
253.4234368246974
 21
375.2318810056765
 31
0.0
  0
LINE
  5
197A
330
1E
100
AcDbEntity
  8
STEMPEL
100
AcDbLine
 10
226.9234368246974
 20
375.2318810056766
 30
0.0
 11
253.4234368246975
 21
375.2318810056767
 31
0.0
  0
LINE
  5
197B
330
1E
100
AcDbEntity
  8
STEMPEL
100
AcDbLine
 10
226.9234368246974
 20
379.2903555141775
 30
0.0
 11
253.4234368246974
 21
379.2903555141775
 31
0.0
  0
LINE
  5
197C
330
1E
100
AcDbEntity
  8
STEMPEL
100
AcDbLine
 10
226.9234368246975
 20
381.2903555141774
 30
0.0
 11
253.4234368246974
 21
381.2903555141774
 31
0.0
  0
LINE
  5
197D
330
1E
100
AcDbEntity
  8
STEMPEL
100
AcDbLine
 10
211.9234368246974
 20
381.2903555141774
 30
0.0
 11
211.0734368246974
 21
381.2903555141774
 31
0.0
  0
LINE
  5
197E
330
1E
100
AcDbEntity
  8
HILF
100
AcDbLine
 10
211.9234368246974
 20
382.454171086649
 30
0.0
 11
210.8682247387021
 21
382.454171086649
 31
0.0
  0
LINE
  5
1980
330
1E
100
AcDbEntity
  8
STEMPEL
100
AcDbLine
 10
255.9234368246973
 20
403.2318810056765
 30
0.0
 11
365.4234368246975
 21
403.2318810056765
 31
0.0
  0
LINE
  5
1981
330
1E
100
AcDbEntity
  8
STEMPEL
100
AcDbLine
 10
255.4234368246973
 20
401.2903555141774
 30
0.0
 11
310.4234368246974
 21
401.2903555141773
 31
0.0
  0
TEXT
  5
1982
330
1E
100
AcDbEntity
  8
TEXT
100
AcDbText
 10
225.1296391125315
 20
71.64011943042154
 30
0.0
 40
5.0
  1
einteilig mit Wärmedämmung
 41
0.8
  7
GREEKS
100
AcDbText
  0
LINE
  5
1983
330
1E
100
AcDbEntity
  8
MITTEL
100
AcDbLine
 10
219.4234368246975
 20
413.7060279566535
 30
0.0
 11
219.4234368246976
 21
211.6135963211188
 31
0.0
  0
LINE
  5
19C9
330
1E
100
AcDbEntity
  8
STEMPEL
100
AcDbLine
 10
254.7234368246977
 20
160.2842741371659
 30
0.0
 11
254.1064323749643
 21
153.2318810056765
 31
0.0
  0
LINE
  5
19CA
330
1E
100
AcDbEntity
  8
STEMPEL
100
AcDbLine
 10
255.9234368246977
 20
160.2318810056766
 30
0.0
 11
255.3110161800163
 21
153.2318810056766
 31
0.0
  0
LINE
  5
19CB
330
1E
100
AcDbEntity
  8
STEMPEL
100
AcDbLine
 10
184.1234368246976
 20
313.2841542549353
 30
0.0
 11
184.1234368246976
 21
160.2842741371659
 31
0.0
  0
LINE
  5
19CC
330
1E
100
AcDbEntity
  8
STEMPEL
100
AcDbLine
 10
182.9234368246976
 20
313.2841542549353
 30
0.0
 11
182.9234368246975
 21
160.2318810056766
 31
0.0
  0
ARC
  5
19CD
330
1E
100
AcDbEntity
  8
BEM
100
AcDbCircle
 10
180.1881045807213
 20
373.2318810056764
 30
0.0
 40
3.0
100
AcDbArc
 50
180.0
 51
248.1680412106124
  0
ARC
  5
19CE
330
1E
100
AcDbEntity
  8
STEMPEL
100
AcDbCircle
 10
191.9234368246975
 20
323.4566662357589
 30
0.0
 40
11.6
100
AcDbArc
 50
180.0
 51
208.6746569050739
  0
ARC
  5
19CF
330
1E
100
AcDbEntity
  8
STEMPEL
100
AcDbCircle
 10
191.9234368246975
 20
323.4566662357589
 30
0.0
 40
10.4
100
AcDbArc
 50
180.0
 51
208.6746569050739
  0
ARC
  5
19D0
330
1E
100
AcDbEntity
  8
STEMPEL
100
AcDbCircle
 10
173.3234368246975
 20
313.2841542549353
 30
0.0
 40
9.600000000000001
100
AcDbArc
 50
0.0
 51
28.67465690507389
  0
ARC
  5
19D1
330
1E
100
AcDbEntity
  8
STEMPEL
100
AcDbCircle
 10
173.3234368246975
 20
313.2841542549353
 30
0.0
 40
10.8
100
AcDbArc
 50
0.0
 51
28.67465690507389
  0
ARC
  5
19D2
330
1E
100
AcDbEntity
  8
STEMPEL
100
AcDbCircle
 10
168.3234368246975
 20
340.3071452053683
 30
0.0
 40
13.2
100
AcDbArc
 50
0.0
 51
21.29956442541051
  0
ARC
  5
19D3
330
1E
100
AcDbEntity
  8
STEMPEL
100
AcDbCircle
 10
168.3234368246975
 20
340.3071452053683
 30
0.0
 40
12.0
100
AcDbArc
 50
0.0
 51
21.29956442541051
  0
LINE
  5
19D4
330
1E
100
AcDbEntity
  8
STEMPEL
100
AcDbLine
 10
180.3234368246975
 20
340.3071452053683
 30
0.0
 11
180.3234368246975
 21
323.4566662357589
 31
0.0
  0
LINE
  5
19D5
330
1E
100
AcDbEntity
  8
STEMPEL
100
AcDbLine
 10
181.5234368246975
 20
340.3071452053683
 30
0.0
 11
181.5234368246975
 21
323.4566662357589
 31
0.0
  0
ARC
  5
19D6
330
1E
100
AcDbEntity
  8
STEMPEL
100
AcDbCircle
 10
202.4234368246975
 20
353.6018810056765
 30
0.0
 40
24.6
100
AcDbArc
 50
180.0
 51
201.2995644254105
  0
LINE
  5
19D7
330
1E
100
AcDbEntity
  8
STEMPEL
100
AcDbLine
 10
177.8234368246975
 20
362.708098415752
 30
0.0
 11
177.8234368246975
 21
353.6018810056765
 31
0.0
  0
ARC
  5
19D8
330
1E
100
AcDbEntity
  8
STEMPEL
100
AcDbCircle
 10
202.4234368246975
 20
362.708098415752
 30
0.0
 40
24.6
100
AcDbArc
 50
154.6722275782228
 51
180.0
  0
ARC
  5
19D9
330
1E
100
AcDbEntity
  8
STEMPEL
100
AcDbCircle
 10
202.4234368246975
 20
353.6018810056765
 30
0.0
 40
23.4
100
AcDbArc
 50
180.0
 51
201.2995644254105
  0
ARC
  5
19DA
330
1E
100
AcDbEntity
  8
STEMPEL
100
AcDbCircle
 10
202.4234368246975
 20
362.708098415752
 30
0.0
 40
23.4
100
AcDbArc
 50
153.2733618891353
 51
180.0
  0
LINE
  5
19DB
330
1E
100
AcDbEntity
  8
STEMPEL
100
AcDbLine
 10
179.0234368246975
 20
362.708098415752
 30
0.0
 11
179.0234368246975
 21
353.6018810056765
 31
0.0
  0
LINE
  5
19DC
330
1E
100
AcDbEntity
  8
HILF
100
AcDbLine
 10
185.3326044348016
 20
160.2318810056766
 30
0.0
 11
253.5142692145937
 21
160.2318810056766
 31
0.0
  0
LINE
  5
19DD
330
1E
100
AcDbEntity
  8
STEMPEL
100
AcDbLine
 10
182.9234368246975
 20
160.2318810056766
 30
0.0
 11
183.535857469379
 21
153.2318810056766
 31
0.0
  0
LINE
  5
19DE
330
1E
100
AcDbEntity
  8
STEMPEL
100
AcDbLine
 10
184.1234368246976
 20
160.2842741371659
 30
0.0
 11
184.740441274431
 21
153.2318810056765
 31
0.0
  0
DIMENSION
  5
19DF
330
1E
100
AcDbEntity
  8
BEM
100
AcDbDimension
  2
*D5
 10
255.9234368246963
 20
128.1081194143948
 30
0.0
 11
219.4234368246969
 21
134.6081194143948
 31
0.0
 70
    32
  1
%%c<>
 71
     5
 42
72.99999999999872
  3
Standard
100
AcDbAlignedDimension
 13
182.9234368246975
 23
160.2318810056766
 33
0.0
 14
255.9234368246963
 24
160.2318810056766
 34
0.0
100
AcDbRotatedDimension
1001
ACAD
1000
DSTYLE
1002
{
1070
    40
1040
2.0
1070
    41
1040
3.5
1070
    42
1040
1.0
1070
    43
1040
7.0
1070
    44
1040
1.0
1070
    73
1070
     0
1070
    74
1070
     0
1070
    77
1070
     1
1070
    78
1070
     8
1070
    79
1070
     2
1070
   140
1040
3.5
1070
   141
1040
1.5
1070
   146
1040
0.5142857142857144
1070
   147
1040
1.5
1070
   172
1070
     1
1070
   178
1070
     1
1070
   179
1070
     2
1070
   271
1070
     2
1070
   272
1070
     2
1070
   284
1070
     8
1070
   285
1070
     8
1070
   286
1070
     8
1002
}
  0
TEXT
  5
19E0
330
1E
100
AcDbEntity
  8
TEXT
 62
     1
100
AcDbText
 10
215.7529309821706
 20
269.7203242882491
 30
0.0
 40
7.0
  1
DN70
 50
90.0
 41
0.8
  7
GREEKS
100
AcDbText
  0
LINE
  5
19E1
330
1E
100
AcDbEntity
  8
STEMPEL
100
AcDbLine
 10
255.9234368246976
 20
313.2841542549354
 30
0.0
 11
255.9234368246963
 21
160.2318810056766
 31
0.0
  0
LINE
  5
19E2
330
1E
100
AcDbEntity
  8
STEMPEL
100
AcDbLine
 10
254.7234368246977
 20
313.2841542549354
 30
0.0
 11
254.7234368246977
 21
160.284274137167
 31
0.0
  0
ARC
  5
19E3
330
1E
100
AcDbEntity
  8
BEM
100
AcDbCircle
 10
258.6587690686735
 20
373.2318810056765
 30
0.0
 40
3.0
100
AcDbArc
 50
291.8319587893876
 51
0.0
  0
HATCH
  5
19E4
330
1E
100
AcDbEntity
  8
BEM
100
AcDbHatch
 10
0.0
 20
0.0
 30
0.0
210
0.0
220
0.0
230
1.0
  2
_USER
 70
     0
 71
     0
 91
        2
 92
        7
 72
     1
 73
     1
 93
        3
 10
258.6587690686735
 20
373.2318810056764
 42
-0.0305161962876784
 10
259.774426091395
 20
370.4470453897644
 42
0.3065326142826381
 10
261.6587690686736
 20
373.2318810056765
 42
0.0
 97
        0
 92
        7
 72
     1
 73
     1
 93
        3
 10
177.1881045807213
 20
373.2318810056765
 42
0.3065326142826505
 10
179.0724475579999
 20
370.4470453897644
 42
-0.0305161962876796
 10
180.1881045807214
 20
373.2318810056765
 42
0.0
 97
        0
 75
     0
 76
     0
 52
0.0
 41
0.1
 77
     0
 78
     1
 53
0.0
 43
-12.03918477251955
 44
-41.76196160879093
 45
0.0
 46
0.1
 79
     0
 47
0.1014887106367553
 98
        2
 10
260.2984692870978
 20
372.7924736207285
 10
179.1804188400983
 20
372.9954515241716
  0
LINE
  5
19E5
330
1E
100
AcDbEntity
  8
STEMPEL
100
AcDbLine
 10
259.8234368246975
 20
362.708098415752
 30
0.0
 11
259.8234368246975
 21
353.6018810056767
 31
0.0
  0
ARC
  5
19E6
330
1E
100
AcDbEntity
  8
STEMPEL
100
AcDbCircle
 10
236.4234368246975
 20
362.708098415752
 30
0.0
 40
23.4
100
AcDbArc
 50
0.0
 51
26.72663811086465
  0
ARC
  5
19E7
330
1E
100
AcDbEntity
  8
STEMPEL
100
AcDbCircle
 10
236.4234368246975
 20
353.6018810056767
 30
0.0
 40
23.4
100
AcDbArc
 50
338.7004355745895
 51
0.0
  0
ARC
  5
19E8
330
1E
100
AcDbEntity
  8
STEMPEL
100
AcDbCircle
 10
236.4234368246975
 20
362.708098415752
 30
0.0
 40
24.6
100
AcDbArc
 50
0.0
 51
25.32777242177722
  0
LINE
  5
19E9
330
1E
100
AcDbEntity
  8
STEMPEL
100
AcDbLine
 10
261.0234368246975
 20
362.708098415752
 30
0.0
 11
261.0234368246975
 21
353.6018810056767
 31
0.0
  0
ARC
  5
19EA
330
1E
100
AcDbEntity
  8
STEMPEL
100
AcDbCircle
 10
236.4234368246975
 20
353.6018810056767
 30
0.0
 40
24.6
100
AcDbArc
 50
338.7004355745895
 51
0.0
  0
LINE
  5
19EB
330
1E
100
AcDbEntity
  8
STEMPEL
100
AcDbLine
 10
257.3234368246975
 20
340.3071452053683
 30
0.0
 11
257.3234368246975
 21
323.4566662357589
 31
0.0
  0
LINE
  5
19EC
330
1E
100
AcDbEntity
  8
STEMPEL
100
AcDbLine
 10
258.5234368246975
 20
340.3071452053683
 30
0.0
 11
258.5234368246975
 21
323.4566662357589
 31
0.0
  0
ARC
  5
19ED
330
1E
100
AcDbEntity
  8
STEMPEL
100
AcDbCircle
 10
270.5234368246975
 20
340.3071452053684
 30
0.0
 40
12.0
100
AcDbArc
 50
158.7004355745895
 51
180.0
  0
ARC
  5
19EE
330
1E
100
AcDbEntity
  8
STEMPEL
100
AcDbCircle
 10
270.5234368246975
 20
340.3071452053684
 30
0.0
 40
13.2
100
AcDbArc
 50
158.7004355745895
 51
180.0
  0
ARC
  5
19EF
330
1E
100
AcDbEntity
  8
STEMPEL
100
AcDbCircle
 10
265.5234368246975
 20
313.2841542549354
 30
0.0
 40
10.8
100
AcDbArc
 50
151.3253430949261
 51
180.0
  0
ARC
  5
19F0
330
1E
100
AcDbEntity
  8
STEMPEL
100
AcDbCircle
 10
265.5234368246975
 20
313.2841542549354
 30
0.0
 40
9.600000000000001
100
AcDbArc
 50
151.3253430949261
 51
180.0
  0
ARC
  5
19F1
330
1E
100
AcDbEntity
  8
STEMPEL
100
AcDbCircle
 10
246.9234368246975
 20
323.4566662357589
 30
0.0
 40
10.4
100
AcDbArc
 50
331.3253430949261
 51
0.0
  0
ARC
  5
19F2
330
1E
100
AcDbEntity
  8
STEMPEL
100
AcDbCircle
 10
246.9234368246975
 20
323.4566662357589
 30
0.0
 40
11.6
100
AcDbArc
 50
331.3253430949261
 51
0.0
  0
LINE
  5
19F3
330
1E
100
AcDbEntity
  8
HILF
  6
Continuous
100
AcDbLine
 10
256.295226564334
 20
342.5248090182322
 30
0.0
 11
182.551647085061
 21
342.5248090182321
 31
0.0
  0
LINE
  5
19F4
330
1E
100
AcDbEntity
  8
HILF
  6
Continuous
100
AcDbLine
 10
255.6634985662004
 20
320.5841550078058
 30
0.0
 11
183.1833750831946
 21
320.5841550078058
 31
0.0
  0
LINE
  5
19F5
330
1E
100
AcDbEntity
  8
HILF
  6
Continuous
100
AcDbLine
 10
253.7612652885702
 20
315.6614049263449
 30
0.0
 11
185.0856083608248
 21
315.6614049263449
 31
0.0
  0
HATCH
  5
19F6
330
1E
100
AcDbEntity
  8
SCHRAFF
100
AcDbHatch
 10
0.0
 20
0.0
 30
0.0
210
0.0
220
0.0
230
1.0
  2
_USER
 70
     0
 71
     0
 91
        2
 92
        7
 72
     1
 73
     1
 93
       20
 10
255.9234368246976
 20
313.2841542549354
 42
-0.1257737761160444
 10
257.1007953152634
 20
317.8905747745535
 42
0.1257737761160551
 10
258.5234368246975
 20
323.4566662357589
 42
0.0
 10
258.5234368246975
 20
340.3071452053683
 42
-0.0932053832641477
 10
259.3431089558452
 20
344.6660749759616
 42
0.0932053832641367
 10
261.0234368246975
 20
353.6018810056767
 42
0.0
 10
261.0234368246975
 20
362.708098415752
 42
0.1109653701492531
 10
258.6587690686735
 20
373.2318810056765
 42
0.0
 10
257.3234368246976
 20
373.2318810056765
 42
-0.1171484945869472
 10
259.8234368246975
 20
362.7080984157522
 42
0.0
 10
259.8234368246975
 20
353.6018810056767
 42
-0.0932053832641468
 10
258.2250761689595
 20
345.10196795302
 42
0.093205383264128
 10
257.3234368246975
 20
340.3071452053684
 42
0.0
 10
257.3234368246975
 20
323.4566662357589
 42
-0.1257737761160455
 10
256.0479651265844
 20
318.466377339506
 42
0.1257737761160562
 10
254.7234368246977
 20
313.2841542549353
 42
0.0
 10
254.7234368246977
 20
160.2842741371674
 42
0.0
 10
254.1064323749642
 20
153.2318810056766
 42
0.0
 10
255.3110161800163
 20
153.2318810056766
 42
0.0
 10
255.9234368246963
 20
160.2318810056593
 42
0.0
 97
        0
 92
        7
 72
     1
 73
     1
 93
       20
 10
184.1234368246976
 20
313.2841542549353
 42
0.1257737761160501
 10
182.7989085228107
 20
318.4663773395058
 42
-0.1257737761160518
 10
181.5234368246975
 20
323.4566662357589
 42
0.0
 10
181.5234368246975
 20
340.3071452053683
 42
0.0932053832641409
 10
180.6217974804352
 20
345.1019679530205
 42
-0.0932053832641394
 10
179.0234368246975
 20
353.6018810056765
 42
0.0
 10
179.0234368246975
 20
362.708098415752
 42
-0.1171484945869484
 10
181.5234368246975
 20
373.2318810056765
 42
0.0
 10
180.1881045807214
 20
373.2318810056765
 42
0.1109653701492537
 10
177.8234368246975
 20
362.708098415752
 42
0.0
 10
177.8234368246975
 20
353.6018810056765
 42
0.0932053832641405
 10
179.50376469355
 20
344.6660749759611
 42
-0.0932053832641402
 10
180.3234368246975
 20
340.3071452053683
 42
0.0
 10
180.3234368246975
 20
323.4566662357589
 42
0.1257737761160508
 10
181.7460783341314
 20
317.8905747745536
 42
-0.1257737761160527
 10
182.9234368246976
 20
313.2841542549353
 42
0.0
 10
182.9234368246975
 20
160.2318810056766
 42
0.0
 10
183.535857469379
 20
153.2318810056766
 42
0.0
 10
184.740441274431
 20
153.2318810056766
 42
0.0
 10
184.1234368246976
 20
160.2842741371659
 42
0.0
 97
        0
 75
     0
 76
     0
 52
135.0
 41
2.0
 77
     0
 78
     1
 53
135.0
 43
-12.03918477251955
 44
-41.76196160879093
 45
-1.414213562373095
 46
-1.414213562373094
 79
     0
 47
0.3506939688898622
 98
        2
 10
255.0635712201433
 20
293.1608422512397
 10
183.4996674865906
 20
303.3309680606158
  0
LINE
  5
19FA
330
1E
100
AcDbEntity
  8
TEXT
 62
     2
100
AcDbLine
 10
277.5002107742838
 20
171.8735842441751
 30
0.0
 11
255.3937307350677
 21
178.9588102812756
 31
0.0
  0
LINE
  5
19FB
330
1E
100
AcDbEntity
  8
STEMPEL
100
AcDbLine
 10
183.535857469379
 20
153.2318810056766
 30
0.0
 11
255.3110161800163
 21
153.2318810056766
 31
0.0
  0
HATCH
  5
1A78
330
1E
100
AcDbEntity
  8
SCHRAFF
100
AcDbHatch
 10
0.0
 20
0.0
 30
0.0
210
0.0
220
0.0
230
1.0
  2
HONEY
 70
     0
 71
     0
 91
        2
 92
        7
 72
     1
 73
     1
 93
       12
 10
272.9234368246975
 20
312.0717142145522
 42
0.0
 10
266.9234368246977
 20
306.0717142145524
 42
0.0
 10
266.9234368246976
 20
240.0717142145504
 42
0.0
 10
255.9234368246968
 20
225.1117142145506
 42
0.0
 10
255.9234368246968
 20
218.0717142145507
 42
0.0
 10
261.9234368246979
 20
218.0717142145507
 42
0.0
 10
261.9234368246979
 20
216.0717142145507
 42
0.0
 10
281.6050831605947
 20
216.0717142145504
 42
0.3960474615044482
 10
284.5992408960434
 20
218.8845793560849
 42
0.0
 10
294.4234368246977
 20
376.0717142145523
 42
0.0
 10
284.423436824698
 20
376.0717142145525
 42
0.0
 10
272.9234368246977
 20
366.0717142145522
 42
0.0
 97
        0
 92
        7
 72
     1
 73
     1
 93
       12
 10
165.9234368246977
 20
366.0717142145522
 42
0.0
 10
154.4234368246977
 20
376.0717142145522
 42
0.0
 10
144.4234368246977
 20
376.0717142145521
 42
0.0
 10
154.2476327533518
 20
218.8845793560866
 42
0.3960474615044429
 10
157.2417904888004
 20
216.0717142145521
 42
0.0
 10
176.9234368246979
 20
216.0717142145518
 42
0.0
 10
176.9234368246979
 20
218.0717142145518
 42
0.0
 10
182.9234368246975
 20
218.0717142145518
 42
0.0
 10
182.9234368246975
 20
225.1117142145522
 42
0.0
 10
171.9234368246979
 20
240.0717142145502
 42
0.0
 10
171.9234368246974
 20
306.071714214552
 42
0.0
 10
165.9234368246979
 20
312.0717142145517
 42
0.0
 97
        0
 75
     0
 76
     1
 52
0.0
 41
30.0
 77
     0
 78
     3
 53
0.0
 43
0.0
 44
-41.76196160879093
 45
5.625
 46
3.247595249999999
 79
     2
 49
3.75
 49
-7.5
 53
120.0
 43
0.0
 44
-41.76196160879093
 45
-5.624999987709673
 46
3.247595271287468
 79
     2
 49
3.749999999999999
 49
-7.499999999999998
 53
60.0
 43
0.0
 44
-41.76196160879093
 45
0.0000000122903263
 46
6.495190521287468
 79
     2
 49
-7.5
 49
3.75
 47
0.3960763832002043
 98
        2
 10
279.4449426167548
 20
337.667606176482
 10
157.8084806203515
 20
328.1617722572096
  0
DIMENSION
  5
1A79
330
1E
100
AcDbEntity
  8
BEM
100
AcDbDimension
  2
*D6
 10
284.4209814592193
 20
198.523215519809
 30
0.0
 11
219.4234368246976
 21
205.0232155198091
 31
0.0
 70
    32
  1
%%c<>
 71
     5
 42
129.9950892690433
  3
Standard
100
AcDbAlignedDimension
 13
154.4258921901759
 23
216.0717142145521
 33
0.0
 14
284.4209814592193
 24
216.0717142145504
 34
0.0
100
AcDbRotatedDimension
1001
ACAD
1000
DSTYLE
1002
{
1070
    40
1040
2.0
1070
    41
1040
3.5
1070
    42
1040
1.0
1070
    43
1040
7.0
1070
    44
1040
1.0
1070
    73
1070
     0
1070
    74
1070
     0
1070
    77
1070
     1
1070
    78
1070
     8
1070
    79
1070
     2
1070
   140
1040
3.5
1070
   141
1040
1.5
1070
   146
1040
0.5
1070
   147
1040
1.5
1070
   172
1070
     1
1070
   178
1070
     1
1070
   179
1070
     2
1070
   271
1070
     2
1070
   272
1070
     2
1070
   284
1070
     8
1070
   285
1070
     8
1070
   286
1070
     8
1070
   340
1005
24
1002
}
  0
LINE
  5
1A7A
330
1E
100
AcDbEntity
  8
TEXT
 62
     2
100
AcDbLine
 10
300.1431514719242
 20
292.7601133209571
 30
0.0
 11
282.5612057409998
 21
300.8125629566013
 31
0.0
  0
LINE
  5
1A7B
330
1E
100
AcDbEntity
  8
TEXT
 62
     2
100
AcDbLine
 10
300.1431514719242
 20
292.7601133209571
 30
0.0
 11
407.1232787421029
 21
292.7601133209571
 31
0.0
  0
TEXT
  5
1A7C
330
1E
100
AcDbEntity
  8
TEXT
 62
     1
100
AcDbText
 10
301.4158386946418
 20
283.4029592636562
 30
0.0
 40
7.0
  1
EDV-Art.Nr. 19842.070X
 41
0.8
  7
GREEKS
100
AcDbText
  0
TEXT
  5
1A7D
330
1E
100
AcDbEntity
  8
TEXT
 62
     1
100
AcDbText
 10
301.4158386946418
 20
296.290223134361
 30
0.0
 40
7.0
  1
Wärmedämmung DN70
 41
0.8
  7
GREEKS
100
AcDbText
  0
LINE
  5
1A7E
330
1E
100
AcDbEntity
  8
STEMPEL
100
AcDbLine
 10
272.9234368246974
 20
312.071714214552
 30
0.0
 11
272.9234368246977
 21
366.0717142145522
 31
0.0
  0
LINE
  5
1A7F
330
1E
100
AcDbEntity
  8
STEMPEL
100
AcDbLine
 10
294.4234368246977
 20
376.0717142145521
 30
0.0
 11
284.5992408960434
 21
218.8845793560849
 31
0.0
  0
LINE
  5
1A80
330
1E
100
AcDbEntity
  8
STEMPEL
100
AcDbLine
 10
272.9234368246972
 20
312.0717142145522
 30
0.0
 11
255.9234368246976
 21
312.0717142145522
 31
0.0
  0
LINE
  5
1A81
330
1E
100
AcDbEntity
  8
STEMPEL
100
AcDbLine
 10
281.6050831605947
 20
216.0717142145504
 30
0.0
 11
255.9234368246968
 21
216.0717142145508
 31
0.0
  0
LINE
  5
1A82
330
1E
100
AcDbEntity
  8
STEMPEL
100
AcDbLine
 10
266.9234368246977
 20
306.0717142145524
 30
0.0
 11
266.9234368246977
 21
240.0717142145505
 31
0.0
  0
LINE
  5
1A83
330
1E
100
AcDbEntity
  8
STEMPEL
100
AcDbLine
 10
255.9234368246968
 20
225.1117142145506
 30
0.0
 11
266.9234368246977
 21
240.0717142145505
 31
0.0
  0
LINE
  5
1A84
330
1E
100
AcDbEntity
  8
STEMPEL
100
AcDbLine
 10
266.9234368246977
 20
240.0717142145504
 30
0.0
 11
255.923436824697
 21
240.0717142145507
 31
0.0
  0
LINE
  5
1A85
330
1E
100
AcDbEntity
  8
STEMPEL
100
AcDbLine
 10
266.9234368246977
 20
306.0717142145524
 30
0.0
 11
255.9234368246976
 21
306.0717142145524
 31
0.0
  0
LINE
  5
1A86
330
1E
100
AcDbEntity
  8
STEMPEL
100
AcDbLine
 10
266.9234368246977
 20
306.0717142145524
 30
0.0
 11
272.9234368246974
 21
312.0717142145522
 31
0.0
  0
ARC
  5
1A87
330
1E
100
AcDbEntity
  8
STEMPEL
100
AcDbCircle
 10
281.6050831605947
 20
219.0717142145504
 30
0.0
 40
3.0
100
AcDbArc
 50
270.0
 51
356.4236656250018
  0
LINE
  5
1A88
330
1E
100
AcDbEntity
  8
STEMPEL
100
AcDbLine
 10
284.4234368246977
 20
376.0717142145522
 30
0.0
 11
272.9234368246977
 21
366.0717142145522
 31
0.0
  0
LINE
  5
1A89
330
1E
100
AcDbEntity
  8
STEMPEL
100
AcDbLine
 10
272.9234368246979
 20
366.0717142145523
 30
0.0
 11
260.7923943066674
 21
366.0717142145523
 31
0.0
  0
DIMENSION
  5
1A8A
330
1E
100
AcDbEntity
  8
BEM
100
AcDbDimension
  2
*D7
 10
294.4234368246979
 20
415.8146491667371
 30
0.0
 11
219.4234368246978
 21
422.314649166737
 31
0.0
 70
    32
  1
%%c<>
 71
     5
 42
150.0000000000002
  3
Standard
100
AcDbAlignedDimension
 13
144.4234368246977
 23
376.0717142145521
 33
0.0
 14
294.4234368246979
 24
376.0717142145525
 34
0.0
100
AcDbRotatedDimension
1001
ACAD
1000
DSTYLE
1002
{
1070
    40
1040
2.0
1070
    41
1040
3.5
1070
    42
1040
1.0
1070
    43
1040
7.0
1070
    44
1040
1.0
1070
    73
1070
     0
1070
    74
1070
     0
1070
    77
1070
     1
1070
    78
1070
     8
1070
    79
1070
     2
1070
   140
1040
3.5
1070
   141
1040
1.5
1070
   146
1040
0.5
1070
   147
1040
1.5
1070
   172
1070
     1
1070
   178
1070
     1
1070
   179
1070
     2
1070
   271
1070
     2
1070
   272
1070
     2
1070
   284
1070
     8
1070
   285
1070
     8
1070
   286
1070
     8
1070
   340
1005
24
1002
}
  0
LINE
  5
1A8B
330
1E
100
AcDbEntity
  8
STEMPEL
100
AcDbLine
 10
294.4234368246979
 20
376.0717142145525
 30
0.0
 11
284.4234368246976
 21
376.0717142145524
 31
0.0
  0
LINE
  5
1A8C
330
1E
100
AcDbEntity
  8
STEMPEL
100
AcDbLine
 10
182.9234368246975
 20
312.071714214552
 30
0.0
 11
165.9234368246979
 21
312.071714214552
 31
0.0
  0
LINE
  5
1A8D
330
1E
100
AcDbEntity
  8
STEMPEL
100
AcDbLine
 10
182.9234368246975
 20
306.0717142145522
 30
0.0
 11
171.9234368246974
 21
306.0717142145522
 31
0.0
  0
LINE
  5
1A8E
330
1E
100
AcDbEntity
  8
STEMPEL
100
AcDbLine
 10
178.0544793427275
 20
366.0717142145522
 30
0.0
 11
165.9234368246977
 21
366.0717142145522
 31
0.0
  0
LINE
  5
1A8F
330
1E
100
AcDbEntity
  8
STEMPEL
100
AcDbLine
 10
154.4234368246977
 20
376.0717142145522
 30
0.0
 11
165.9234368246977
 21
366.0717142145522
 31
0.0
  0
LINE
  5
1A90
330
1E
100
AcDbEntity
  8
STEMPEL
100
AcDbLine
 10
165.9234368246979
 20
312.071714214552
 30
0.0
 11
165.9234368246977
 21
366.0717142145522
 31
0.0
  0
LINE
  5
1A91
330
1E
100
AcDbEntity
  8
STEMPEL
100
AcDbLine
 10
144.4234368246977
 20
376.0717142145521
 30
0.0
 11
154.2476327533518
 21
218.8845793560866
 31
0.0
  0
LINE
  5
1A92
330
1E
100
AcDbEntity
  8
STEMPEL
100
AcDbLine
 10
171.9234368246974
 20
306.0717142145521
 30
0.0
 11
171.9234368246979
 21
240.0717142145502
 31
0.0
  0
LINE
  5
1A93
330
1E
100
AcDbEntity
  8
STEMPEL
100
AcDbLine
 10
171.9234368246974
 20
306.0717142145521
 30
0.0
 11
165.9234368246976
 21
312.0717142145519
 31
0.0
  0
DIMENSION
  5
1A94
330
1E
100
AcDbEntity
  8
BEM
100
AcDbDimension
  2
*D8
 10
83.01283614670428
 20
216.0717142145521
 30
0.0
 11
76.51283614670425
 21
184.6517976101144
 31
0.0
 70
    32
  1
63
 71
     5
 42
62.83983320887549
  3
Standard
100
AcDbAlignedDimension
 13
183.535857469379
 23
153.2318810056766
 33
0.0
 14
154.4258921901759
 24
216.0717142145521
 34
0.0
 50
90.0
100
AcDbRotatedDimension
1001
ACAD
1000
DSTYLE
1002
{
1070
    40
1040
2.0
1070
    41
1040
3.5
1070
    42
1040
1.0
1070
    43
1040
7.0
1070
    44
1040
1.0
1070
    73
1070
     0
1070
    74
1070
     0
1070
    77
1070
     1
1070
    78
1070
     8
1070
    79
1070
     2
1070
   140
1040
3.5
1070
   141
1040
1.5
1070
   146
1040
0.5142857142857144
1070
   147
1040
1.5
1070
   172
1070
     1
1070
   178
1070
     1
1070
   179
1070
     2
1070
   271
1070
     2
1070
   272
1070
     2
1070
   284
1070
     8
1070
   285
1070
     8
1070
   286
1070
     8
1002
}
  0
LINE
  5
1A95
330
1E
100
AcDbEntity
  8
STEMPEL
100
AcDbLine
 10
182.9234368246976
 20
240.0717142145519
 30
0.0
 11
171.9234368246979
 21
240.071714214552
 31
0.0
  0
LINE
  5
1A96
330
1E
100
AcDbEntity
  8
STEMPEL
100
AcDbLine
 10
182.9234368246976
 20
218.0717142145518
 30
0.0
 11
176.9234368246979
 21
218.0717142145518
 31
0.0
  0
LINE
  5
1A97
330
1E
100
AcDbEntity
  8
STEMPEL
100
AcDbLine
 10
182.9234368246975
 20
216.0717142145518
 30
0.0
 11
157.2417904888004
 21
216.0717142145521
 31
0.0
  0
DIMENSION
  5
1A98
330
1E
100
AcDbEntity
  8
BEM
100
AcDbDimension
  2
*D9
 10
83.01283614670428
 20
216.0717142145521
 30
0.0
 11
76.51283614670425
 21
296.0717142145521
 31
0.0
 70
    32
 71
     5
 42
160.0
  3
Standard
100
AcDbAlignedDimension
 13
144.4234368246977
 23
376.0717142145521
 33
0.0
 14
154.4258921901759
 24
216.0717142145521
 34
0.0
 50
90.0
100
AcDbRotatedDimension
1001
ACAD
1000
DSTYLE
1002
{
1070
    40
1040
2.0
1070
    41
1040
3.5
1070
    42
1040
1.0
1070
    43
1040
7.0
1070
    44
1040
1.0
1070
    73
1070
     0
1070
    74
1070
     0
1070
    77
1070
     1
1070
    78
1070
     8
1070
    79
1070
     2
1070
   140
1040
3.5
1070
   141
1040
1.5
1070
   146
1040
0.5
1070
   147
1040
1.5
1070
   172
1070
     1
1070
   178
1070
     1
1070
   179
1070
     2
1070
   271
1070
     2
1070
   272
1070
     2
1070
   284
1070
     8
1070
   285
1070
     8
1070
   286
1070
     8
1070
   340
1005
24
1002
}
  0
LINE
  5
1A99
330
1E
100
AcDbEntity
  8
STEMPEL
100
AcDbLine
 10
182.9234368246975
 20
225.1117142145522
 30
0.0
 11
171.9234368246979
 21
240.0717142145502
 31
0.0
  0
LINE
  5
1A9A
330
1E
100
AcDbEntity
  8
STEMPEL
100
AcDbLine
 10
176.9234368246979
 20
218.0717142145518
 30
0.0
 11
176.9234368246979
 21
216.0717142145518
 31
0.0
  0
ARC
  5
1A9B
330
1E
100
AcDbEntity
  8
STEMPEL
100
AcDbCircle
 10
157.2417904888004
 20
219.0717142145521
 30
0.0
 40
3.0
100
AcDbArc
 50
183.5763343749981
 51
270.0
  0
LINE
  5
1A9C
330
1E
100
AcDbEntity
  8
STEMPEL
100
AcDbLine
 10
154.4234368246978
 20
376.0717142145522
 30
0.0
 11
144.4234368246979
 21
376.0717142145522
 31
0.0
  0
LINE
  5
1AFE
330
1E
100
AcDbEntity
  8
TEXT
 62
     2
100
AcDbLine
 10
289.422516711181
 20
413.135799945886
 30
0.0
 11
286.1977193575447
 21
383.2098284809772
 31
0.0
  0
LINE
  5
1AFF
330
1E
100
AcDbEntity
  8
TEXT
 62
     2
100
AcDbLine
 10
290.9782951661187
 20
427.573352617431
 30
0.0
 11
290.0652337841803
 21
419.10018489085
 31
0.0
  0
LINE
  5
1B00
330
1E
100
AcDbEntity
  8
TEXT
 62
     2
100
AcDbLine
 10
275.4746061442615
 20
431.3884816922547
 30
0.0
 11
293.9799864293513
 21
472.8904874322605
 31
0.0
  0
LINE
  5
1B01
330
1E
100
AcDbEntity
  8
MITTEL
100
AcDbLine
 10
219.4234368246976
 20
194.9783883454481
 30
0.0
 11
219.4234368246977
 21
148.2318810056765
 31
0.0
  0
TEXT
  5
1B06
330
1E
100
AcDbEntity
  8
TEXT
 62
     1
100
AcDbText
 10
278.7728979970014
 20
162.5164301868742
 30
0.0
 40
7.0
  1
EDV-Art.Nr. 19001.070X
 41
0.8
  7
GREEKS
100
AcDbText
  0
LINE
  5
1B07
330
1E
100
AcDbEntity
  8
TEXT
 62
     2
100
AcDbLine
 10
277.5002107742838
 20
171.8735842441751
 30
0.0
 11
384.4803380444627
 21
171.8735842441751
 31
0.0
  0
ENDSEC
  0
SECTION
  2
OBJECTS
  0
DICTIONARY
  5
C
330
0
100
AcDbDictionary
281
     1
  3
ACAD_COLOR
350
DF
  3
ACAD_GROUP
350
D
  3
ACAD_LAYOUT
350
19
  3
ACAD_MATERIAL
350
DE
  3
ACAD_MLINESTYLE
350
16
  3
ACAD_PLOTSETTINGS
350
18
  3
ACAD_PLOTSTYLENAME
350
E
  3
AcDbVariableDictionary
350
EA
  0
DICTIONARY
  5
A0
330
1E
100
AcDbDictionary
280
     1
281
     1
  3
ACAD_LAYOUTSELFREF
360
D4
  0
DICTIONARY
  5
A2
330
1A
100
AcDbDictionary
280
     1
281
     1
  3
ACAD_LAYOUTSELFREF
360
D3
  0
DICTIONARY
  5
DF
102
{ACAD_REACTORS
330
C
102
}
330
C
100
AcDbDictionary
281
     1
  0
DICTIONARY
  5
D
102
{ACAD_REACTORS
330
C
102
}
330
C
100
AcDbDictionary
281
     1
  0
DICTIONARY
  5
19
102
{ACAD_REACTORS
330
C
102
}
330
C
100
AcDbDictionary
281
     1
  3
Layout1
350
1D
  3
Model
350
21
  0
DICTIONARY
  5
DE
102
{ACAD_REACTORS
330
C
102
}
330
C
100
AcDbDictionary
281
     1
  0
DICTIONARY
  5
16
102
{ACAD_REACTORS
330
C
102
}
330
C
100
AcDbDictionary
281
     1
  3
Standard
350
17
  0
DICTIONARY
  5
18
102
{ACAD_REACTORS
330
C
102
}
330
C
100
AcDbDictionary
281
     1
  0
ACDBDICTIONARYWDFLT
  5
E
102
{ACAD_REACTORS
330
C
102
}
330
C
100
AcDbDictionary
281
     1
  3
Normal
350
F
100
AcDbDictionaryWithDefault
340
F
  0
DICTIONARY
  5
EA
102
{ACAD_REACTORS
330
C
102
}
330
C
100
AcDbDictionary
281
     1
  3
DIMASSOC
350
EB
  3
PROJECTNAME
350
EC
  0
XRECORD
  5
D4
102
{ACAD_REACTORS
330
A0
102
}
330
A0
100
AcDbXrecord
280
     1
340
1E
  0
XRECORD
  5
D3
102
{ACAD_REACTORS
330
A2
102
}
330
A2
100
AcDbXrecord
280
     1
340
1A
  0
LAYOUT
  5
1D
102
{ACAD_REACTORS
330
19
102
}
330
19
100
AcDbPlotSettings
  1

  2
\\NT_WORK01\HP LaserJet 5000 PCL 6
  4

  6

 40
0.0
 41
0.0
 42
0.0
 43
0.0
 44
0.0
 45
0.0
 46
0.0
 47
0.0
 48
0.0
 49
0.0
140
0.0
141
0.0
142
1.0
143
1.0
 70
   688
 72
     0
 73
     0
 74
     5
  7

 75
    16
147
1.0
 76
     0
 77
     2
 78
   300
148
0.0
149
0.0
100
AcDbLayout
  1
Layout1
 70
     0
 71
     1
 10
0.0
 20
0.0
 11
12.0
 21
9.0
 12
0.0
 22
0.0
 32
0.0
 14
1.000000000000000E+20
 24
1.000000000000000E+20
 34
1.000000000000000E+20
 15
-1.000000000000000E+20
 25
-1.000000000000000E+20
 35
-1.000000000000000E+20
146
0.0
 13
0.0
 23
0.0
 33
0.0
 16
1.0
 26
0.0
 36
0.0
 17
0.0
 27
1.0
 37
0.0
 76
     0
330
1A
  0
LAYOUT
  5
21
102
{ACAD_REACTORS
330
19
102
}
330
19
100
AcDbPlotSettings
  1

  2
none_device
  4
Letter_(8.50_x_11.00_Inches)
  6

 40
6.349999904632568
 41
6.349999904632568
 42
6.350006103515625
 43
6.350006103515625
 44
215.8999938964844
 45
279.3999938964844
 46
0.0
 47
0.0
 48
0.0
 49
0.0
140
0.0
141
0.0
142
1.0
143
1.0
 70
 11952
 72
     0
 73
     1
 74
     0
  7

 75
     0
147
1.0
 76
     0
 77
     2
 78
   300
148
2209.800000000001
149
0.0
100
AcDbLayout
  1
Model
 70
     1
 71
     0
 10
0.0
 20
0.0
 11
12.0
 21
9.0
 12
0.0
 22
0.0
 32
0.0
 14
0.0
 24
0.0
 34
0.0
 15
0.0
 25
0.0
 35
0.0
146
0.0
 13
0.0
 23
0.0
 33
0.0
 16
1.0
 26
0.0
 36
0.0
 17
0.0
 27
1.0
 37
0.0
 76
     0
330
1E
  0
MLINESTYLE
  5
17
102
{ACAD_REACTORS
330
16
102
}
330
16
100
AcDbMlineStyle
  2
STANDARD
 70
     0
  3

 62
   256
 51
90.0
 52
90.0
 71
     2
 49
0.5
 62
   256
  6
BYLAYER
 49
-0.5
 62
   256
  6
BYLAYER
  0
ACDBPLACEHOLDER
  5
F
102
{ACAD_REACTORS
330
E
102
}
330
E
  0
DICTIONARYVAR
  5
EB
102
{ACAD_REACTORS
330
EA
102
}
330
EA
100
DictionaryVariables
280
     0
  1
1
  0
DICTIONARYVAR
  5
EC
102
{ACAD_REACTORS
330
EA
102
}
330
EA
100
DictionaryVariables
280
     0
  1

  0
ENDSEC
  0
EOF
