  0
SECTION
  2
HEADER
  9
$ACADVER
  1
AC1018
  9
$ACADMAINTVER
 70
     2
  9
$DWGCODEPAGE
  3
ANSI_1252
  9
$INSBASE
 10
0.0
 20
0.0
 30
0.0
  9
$EXTMIN
 10
-0.0031957397357587
 20
-0.0045196890552006
 30
-0.0000000000000129
  9
$EXTMAX
 10
210.003207964225
 20
297.004536977975
 30
0.0000000000000023
  9
$LIMMIN
 10
0.0
 20
0.0
  9
$LIMMAX
 10
210.0
 20
297.0
  9
$ORTHOMODE
 70
     0
  9
$REGENMODE
 70
     1
  9
$FILLMODE
 70
     1
  9
$QTEXTMODE
 70
     0
  9
$MIRRTEXT
 70
     1
  9
$LTSCALE
 40
10.0
  9
$ATTMODE
 70
     1
  9
$TEXTSIZE
 40
3.5
  9
$TRACEWID
 40
0.5
  9
$TEXTSTYLE
  7
STANDARD
  9
$CLAYER
  8
STEMPEL
  9
$CELTYPE
  6
ByLayer
  9
$CECOLOR
 62
   256
  9
$CELTSCALE
 40
1.0
  9
$DISPSILH
 70
     0
  9
$DIMSCALE
 40
1.0
  9
$DIMASZ
 40
3.5
  9
$DIMEXO
 40
1.0
  9
$DIMDLI
 40
7.0
  9
$DIMRND
 40
0.0
  9
$DIMDLE
 40
0.0
  9
$DIMEXE
 40
1.0
  9
$DIMTP
 40
0.0
  9
$DIMTM
 40
0.0
  9
$DIMTXT
 40
3.5
  9
$DIMCEN
 40
1.5
  9
$DIMTSZ
 40
0.0
  9
$DIMTOL
 70
     0
  9
$DIMLIM
 70
     0
  9
$DIMTIH
 70
     0
  9
$DIMTOH
 70
     0
  9
$DIMSE1
 70
     0
  9
$DIMSE2
 70
     0
  9
$DIMTAD
 70
     1
  9
$DIMZIN
 70
     8
  9
$DIMBLK
  1

  9
$DIMASO
 70
     1
  9
$DIMSHO
 70
     0
  9
$DIMPOST
  1

  9
$DIMAPOST
  1

  9
$DIMALT
 70
     0
  9
$DIMALTD
 70
     2
  9
$DIMALTF
 40
25.4
  9
$DIMLFAC
 40
1.0
  9
$DIMTOFL
 70
     1
  9
$DIMTVP
 40
0.0
  9
$DIMTIX
 70
     0
  9
$DIMSOXD
 70
     0
  9
$DIMSAH
 70
     0
  9
$DIMBLK1
  1

  9
$DIMBLK2
  1

  9
$DIMSTYLE
  2
Standard
  9
$DIMCLRD
 70
     0
  9
$DIMCLRE
 70
     0
  9
$DIMCLRT
 70
     1
  9
$DIMTFAC
 40
0.5142857142857144
  9
$DIMGAP
 40
1.5
  9
$DIMJUST
 70
     0
  9
$DIMSD1
 70
     0
  9
$DIMSD2
 70
     0
  9
$DIMTOLJ
 70
     1
  9
$DIMTZIN
 70
     8
  9
$DIMALTZ
 70
     8
  9
$DIMALTTZ
 70
     8
  9
$DIMUPT
 70
     0
  9
$DIMDEC
 70
     2
  9
$DIMTDEC
 70
     2
  9
$DIMALTU
 70
     2
  9
$DIMALTTD
 70
     2
  9
$DIMTXSTY
  7
STANDARD
  9
$DIMAUNIT
 70
     0
  9
$DIMADEC
 70
     2
  9
$DIMALTRND
 40
0.0
  9
$DIMAZIN
 70
     2
  9
$DIMDSEP
 70
    46
  9
$DIMATFIT
 70
     3
  9
$DIMFRAC
 70
     0
  9
$DIMLDRBLK
  1

  9
$DIMLUNIT
 70
     2
  9
$DIMLWD
 70
    -2
  9
$DIMLWE
 70
    -2
  9
$DIMTMOVE
 70
     0
  9
$LUNITS
 70
     2
  9
$LUPREC
 70
     2
  9
$SKETCHINC
 40
1.0
  9
$FILLETRAD
 40
0.0
  9
$AUNITS
 70
     0
  9
$AUPREC
 70
     0
  9
$MENU
  1
ACAD
  9
$ELEVATION
 40
0.0
  9
$PELEVATION
 40
0.0
  9
$THICKNESS
 40
0.0
  9
$LIMCHECK
 70
     0
  9
$CHAMFERA
 40
0.0
  9
$CHAMFERB
 40
0.0
  9
$CHAMFERC
 40
0.0
  9
$CHAMFERD
 40
0.0
  9
$SKPOLY
 70
     0
  9
$TDCREATE
 40
2455397.864709028
  9
$TDUCREATE
 40
2455397.781375695
  9
$TDUPDATE
 40
2455469.562386644
  9
$TDUUPDATE
 40
2455469.479053310
  9
$TDINDWG
 40
0.0331467593
  9
$TDUSRTIMER
 40
0.0331467593
  9
$USRTIMER
 70
     1
  9
$ANGBASE
 50
0.0
  9
$ANGDIR
 70
     0
  9
$PDMODE
 70
     0
  9
$PDSIZE
 40
0.0
  9
$PLINEWID
 40
0.0
  9
$SPLFRAME
 70
     0
  9
$SPLINETYPE
 70
     6
  9
$SPLINESEGS
 70
     8
  9
$HANDSEED
  5
664
  9
$SURFTAB1
 70
     6
  9
$SURFTAB2
 70
     6
  9
$SURFTYPE
 70
     6
  9
$SURFU
 70
     6
  9
$SURFV
 70
     6
  9
$UCSBASE
  2

  9
$UCSNAME
  2

  9
$UCSORG
 10
0.0
 20
0.0
 30
0.0
  9
$UCSXDIR
 10
1.0
 20
0.0
 30
0.0
  9
$UCSYDIR
 10
0.0
 20
1.0
 30
0.0
  9
$UCSORTHOREF
  2

  9
$UCSORTHOVIEW
 70
     0
  9
$UCSORGTOP
 10
0.0
 20
0.0
 30
0.0
  9
$UCSORGBOTTOM
 10
0.0
 20
0.0
 30
0.0
  9
$UCSORGLEFT
 10
0.0
 20
0.0
 30
0.0
  9
$UCSORGRIGHT
 10
0.0
 20
0.0
 30
0.0
  9
$UCSORGFRONT
 10
0.0
 20
0.0
 30
0.0
  9
$UCSORGBACK
 10
0.0
 20
0.0
 30
0.0
  9
$PUCSBASE
  2

  9
$PUCSNAME
  2

  9
$PUCSORG
 10
0.0
 20
0.0
 30
0.0
  9
$PUCSXDIR
 10
1.0
 20
0.0
 30
0.0
  9
$PUCSYDIR
 10
0.0
 20
1.0
 30
0.0
  9
$PUCSORTHOREF
  2

  9
$PUCSORTHOVIEW
 70
     0
  9
$PUCSORGTOP
 10
0.0
 20
0.0
 30
0.0
  9
$PUCSORGBOTTOM
 10
0.0
 20
0.0
 30
0.0
  9
$PUCSORGLEFT
 10
0.0
 20
0.0
 30
0.0
  9
$PUCSORGRIGHT
 10
0.0
 20
0.0
 30
0.0
  9
$PUCSORGFRONT
 10
0.0
 20
0.0
 30
0.0
  9
$PUCSORGBACK
 10
0.0
 20
0.0
 30
0.0
  9
$USERI1
 70
     0
  9
$USERI2
 70
     0
  9
$USERI3
 70
     0
  9
$USERI4
 70
     0
  9
$USERI5
 70
     0
  9
$USERR1
 40
0.0
  9
$USERR2
 40
0.0
  9
$USERR3
 40
0.0
  9
$USERR4
 40
0.0
  9
$USERR5
 40
0.0
  9
$WORLDVIEW
 70
     1
  9
$SHADEDGE
 70
     3
  9
$SHADEDIF
 70
    70
  9
$TILEMODE
 70
     1
  9
$MAXACTVP
 70
    16
  9
$PINSBASE
 10
0.0
 20
0.0
 30
0.0
  9
$PLIMCHECK
 70
     0
  9
$PEXTMIN
 10
1.000000000000000E+20
 20
1.000000000000000E+20
 30
1.000000000000000E+20
  9
$PEXTMAX
 10
-1.000000000000000E+20
 20
-1.000000000000000E+20
 30
-1.000000000000000E+20
  9
$PLIMMIN
 10
0.0
 20
0.0
  9
$PLIMMAX
 10
12.0
 20
9.0
  9
$UNITMODE
 70
     0
  9
$VISRETAIN
 70
     0
  9
$PLINEGEN
 70
     0
  9
$PSLTSCALE
 70
     0
  9
$TREEDEPTH
 70
  3020
  9
$CMLSTYLE
  2
Standard
  9
$CMLJUST
 70
     0
  9
$CMLSCALE
 40
1.0
  9
$PROXYGRAPHICS
 70
     1
  9
$MEASUREMENT
 70
     0
  9
$CELWEIGHT
370
    -1
  9
$ENDCAPS
280
     0
  9
$JOINSTYLE
280
     0
  9
$LWDISPLAY
290
     0
  9
$INSUNITS
 70
     0
  9
$HYPERLINKBASE
  1

  9
$STYLESHEET
  1
monochrome 1.ctb
  9
$XEDIT
290
     1
  9
$CEPSNTYPE
380
     0
  9
$PSTYLEMODE
290
     1
  9
$FINGERPRINTGUID
  2
{D68B0D02-A558-11D7-B632-000102183313}
  9
$VERSIONGUID
  2
{2C154DEC-F9E0-4B09-9A11-60BA9450DE4B}
  9
$EXTNAMES
290
     1
  9
$PSVPSCALE
 40
0.0
  9
$OLESTARTUP
290
     0
  9
$SORTENTS
280
   127
  9
$INDEXCTL
280
     0
  9
$HIDETEXT
280
     0
  9
$XCLIPFRAME
290
     0
  9
$HALOGAP
280
     0
  9
$OBSCOLOR
 70
   257
  9
$OBSLTYPE
280
     0
  9
$INTERSECTIONDISPLAY
280
     0
  9
$INTERSECTIONCOLOR
 70
   257
  9
$DIMASSOC
280
     1
  9
$PROJECTNAME
  1

  0
ENDSEC
  0
SECTION
  2
CLASSES
  0
CLASS
  1
ACDBDICTIONARYWDFLT
  2
AcDbDictionaryWithDefault
  3
ObjectDBX Classes
 90
        0
 91
        1
280
     0
281
     0
  0
CLASS
  1
DICTIONARYVAR
  2
AcDbDictionaryVar
  3
ObjectDBX Classes
 90
        0
 91
        2
280
     0
281
     0
  0
ENDSEC
  0
SECTION
  2
TABLES
  0
TABLE
  2
VPORT
  5
8
330
0
100
AcDbSymbolTable
 70
     2
  0
VPORT
  5
663
330
8
100
AcDbSymbolTableRecord
100
AcDbViewportTableRecord
  2
*Active
 70
     0
 10
0.0
 20
0.0
 11
1.0
 21
1.0
 12
105.0000061122446
 22
148.5000086444599
 13
0.0
 23
0.0
 14
1.0
 24
1.0
 15
10.0
 25
10.0
 16
0.0
 26
0.0
 36
1.0
 17
0.0
 27
0.0
 37
0.0
 40
299.4075147289443
 41
1.336927223719676
 42
50.0
 43
0.0
 44
0.0
 50
0.0
 51
0.0
 71
     0
 72
  1500
 73
     1
 74
     0
 75
     0
 76
     0
 77
     0
 78
     0
281
     0
 65
     1
110
0.0
120
0.0
130
0.0
111
1.0
121
0.0
131
0.0
112
0.0
122
1.0
132
0.0
 79
     0
146
0.0
  0
ENDTAB
  0
TABLE
  2
LTYPE
  5
5
330
0
100
AcDbSymbolTable
 70
     2
  0
LTYPE
  5
13
330
5
100
AcDbSymbolTableRecord
100
AcDbLinetypeTableRecord
  2
ByBlock
 70
     0
  3

 72
    65
 73
     0
 40
0.0
  0
LTYPE
  5
14
330
5
100
AcDbSymbolTableRecord
100
AcDbLinetypeTableRecord
  2
ByLayer
 70
     0
  3

 72
    65
 73
     0
 40
0.0
  0
LTYPE
  5
15
330
5
100
AcDbSymbolTableRecord
100
AcDbLinetypeTableRecord
  2
Continuous
 70
     0
  3
Solid line
 72
    65
 73
     0
 40
0.0
  0
LTYPE
  5
25
330
5
100
AcDbSymbolTableRecord
100
AcDbLinetypeTableRecord
  2
STRICHPUNKT
 70
     0
  3
__ . __ . __ . __ . __ . __ . __ . __ . __ . __
 72
    65
 73
     4
 40
1.0
 49
0.5
 74
     0
 49
-0.25
 74
     0
 49
0.0
 74
     0
 49
-0.25
 74
     0
  0
ENDTAB
  0
TABLE
  2
LAYER
  5
2
330
0
100
AcDbSymbolTable
 70
     9
  0
LAYER
  5
10
330
2
100
AcDbSymbolTableRecord
100
AcDbLayerTableRecord
  2
0
 70
     0
 62
     7
  6
Continuous
370
    -3
390
F
  0
LAYER
  5
2A
330
2
100
AcDbSymbolTableRecord
100
AcDbLayerTableRecord
  2
VOLL
 70
     0
 62
     1
  6
Continuous
370
    -3
390
F
  0
LAYER
  5
2B
330
2
100
AcDbSymbolTableRecord
100
AcDbLayerTableRecord
  2
HILF
 70
     0
 62
     2
  6
Continuous
370
    -3
390
F
  0
LAYER
  5
2C
330
2
100
AcDbSymbolTableRecord
100
AcDbLayerTableRecord
  2
MITTEL
 70
     0
 62
     2
  6
STRICHPUNKT
370
    -3
390
F
  0
LAYER
  5
2F
330
2
100
AcDbSymbolTableRecord
100
AcDbLayerTableRecord
  2
BEM
 70
     0
 62
     7
  6
Continuous
370
    -3
390
F
  0
LAYER
  5
30
330
2
100
AcDbSymbolTableRecord
100
AcDbLayerTableRecord
  2
STEMPEL
 70
     0
 62
     3
  6
Continuous
370
    -3
390
F
  0
LAYER
  5
31
330
2
100
AcDbSymbolTableRecord
100
AcDbLayerTableRecord
  2
TEXT
 70
     0
 62
     7
  6
Continuous
370
    -3
390
F
  0
LAYER
  5
1E9
330
2
100
AcDbSymbolTableRecord
100
AcDbLayerTableRecord
  2
DEFPOINTS
 70
     0
 62
     7
  6
Continuous
290
     0
370
    -3
390
F
  0
LAYER
  5
409
330
2
100
AcDbSymbolTableRecord
100
AcDbLayerTableRecord
  2
SCHRAFF
 70
     0
 62
     7
  6
Continuous
370
    -3
390
F
  0
ENDTAB
  0
TABLE
  2
STYLE
  5
3
330
0
100
AcDbSymbolTable
 70
     2
  0
STYLE
  5
11
330
3
100
AcDbSymbolTableRecord
100
AcDbTextStyleTableRecord
  2
STANDARD
 70
     0
 40
0.0
 41
0.8
 50
0.0
 71
     0
 42
3.5
  3
simplex.shx
  4

  0
STYLE
  5
24
330
3
100
AcDbSymbolTableRecord
100
AcDbTextStyleTableRecord
  2
GREEKS
 70
     0
 40
0.0
 41
0.8
 50
0.0
 71
     0
 42
2.5
  3
SIMPLEX.shx
  4

  0
ENDTAB
  0
TABLE
  2
VIEW
  5
6
330
0
100
AcDbSymbolTable
 70
     0
  0
ENDTAB
  0
TABLE
  2
UCS
  5
7
330
0
100
AcDbSymbolTable
 70
     0
  0
ENDTAB
  0
TABLE
  2
APPID
  5
9
330
0
100
AcDbSymbolTable
 70
     1
  0
APPID
  5
12
330
9
100
AcDbSymbolTableRecord
100
AcDbRegAppTableRecord
  2
ACAD
 70
     0
  0
ENDTAB
  0
TABLE
  2
DIMSTYLE
  5
A
330
0
100
AcDbSymbolTable
 70
     1
100
AcDbDimStyleTable
 71
     1
340
9D
  0
DIMSTYLE
105
9D
102
{ACAD_REACTORS
330
235
330
5C7
330
601
102
}
330
A
100
AcDbSymbolTableRecord
100
AcDbDimStyleTableRecord
  2
Standard
 70
     0
340
11
  0
ENDTAB
  0
TABLE
  2
BLOCK_RECORD
  5
1
330
0
100
AcDbSymbolTable
 70
     4
  0
BLOCK_RECORD
  5
1E
102
{ACAD_XDICTIONARY
360
A0
102
}
330
1
100
AcDbSymbolTableRecord
100
AcDbBlockTableRecord
  2
*Model_Space
340
21
  0
BLOCK_RECORD
  5
1A
102
{ACAD_XDICTIONARY
360
A2
102
}
330
1
100
AcDbSymbolTableRecord
100
AcDbBlockTableRecord
  2
*Paper_Space
340
1D
  0
BLOCK_RECORD
  5
22
330
1
100
AcDbSymbolTableRecord
100
AcDbBlockTableRecord
  2
LOGO
340
0
102
{BLKREFS
331
9B
102
}
  0
BLOCK_RECORD
  5
299
330
1
100
AcDbSymbolTableRecord
100
AcDbBlockTableRecord
  2
*D1
340
0
  0
BLOCK_RECORD
  5
5C8
330
1
100
AcDbSymbolTableRecord
100
AcDbBlockTableRecord
  2
*D2
340
0
  0
BLOCK_RECORD
  5
602
330
1
100
AcDbSymbolTableRecord
100
AcDbBlockTableRecord
  2
*D3
340
0
  0
ENDTAB
  0
ENDSEC
  0
SECTION
  2
BLOCKS
  0
BLOCK
  5
35
330
1E
100
AcDbEntity
  8
0
100
AcDbBlockBegin
  2
*Model_Space
 70
     0
 10
0.0
 20
0.0
 30
0.0
  3
*Model_Space
  1

  0
ENDBLK
  5
36
330
1E
100
AcDbEntity
  8
0
100
AcDbBlockEnd
  0
BLOCK
  5
33
330
1A
100
AcDbEntity
 67
     1
  8
0
100
AcDbBlockBegin
  2
*Paper_Space
 70
     0
 10
0.0
 20
0.0
 30
0.0
  3
*Paper_Space
  1

  0
ENDBLK
  5
34
330
1A
100
AcDbEntity
 67
     1
  8
0
100
AcDbBlockEnd
  0
BLOCK
  5
37
330
22
100
AcDbEntity
  8
0
100
AcDbBlockBegin
  2
LOGO
 70
     0
 10
0.0
 20
0.0
 30
0.0
  3
LOGO
  1

  0
ARC
  5
38
330
22
100
AcDbEntity
  8
0
100
AcDbCircle
 10
11.59973089678112
 20
-9.271599258481501
 30
0.0
 40
4.5
100
AcDbArc
 50
270.0
 51
231.0575587310159
  0
LINE
  5
39
330
22
100
AcDbEntity
  8
0
100
AcDbLine
 10
3.599730896781125
 20
-4.771599258481529
 30
0.0
 11
3.599730896781153
 21
-11.77159925848133
 31
0.0
  0
LINE
  5
3A
330
22
100
AcDbEntity
  8
0
100
AcDbLine
 10
2.599730896781125
 20
-4.771599258481529
 30
0.0
 11
2.599730896781153
 21
-11.77159925848133
 31
0.0
  0
CIRCLE
  5
3B
330
22
100
AcDbEntity
  8
0
100
AcDbCircle
 10
11.59973089678112
 20
-9.271599258481501
 30
0.0
 40
3.5
  0
ARC
  5
3C
330
22
100
AcDbEntity
  8
0
100
AcDbCircle
 10
31.59973089678115
 20
-9.271599258481472
 30
0.0
 40
4.5
100
AcDbArc
 50
270.0
 51
231.0575587310182
  0
LINE
  5
3D
330
22
100
AcDbEntity
  8
0
100
AcDbLine
 10
17.59973089678112
 20
-4.771599258481472
 30
0.0
 11
17.59973089678115
 21
-13.77159925848147
 31
0.0
  0
ARC
  5
3E
330
22
100
AcDbEntity
  8
0
100
AcDbCircle
 10
22.59973089678116
 20
-7.271599258481472
 30
0.0
 40
2.5
100
AcDbArc
 50
293.1161887722295
 51
90.0
  0
CIRCLE
  5
3F
330
22
100
AcDbEntity
  8
0
100
AcDbCircle
 10
31.59973089678115
 20
-9.271599258481472
 30
0.0
 40
3.5
  0
ARC
  5
40
330
22
100
AcDbEntity
  8
0
100
AcDbCircle
 10
4.599730896781153
 20
-11.77159925848133
 30
0.0
 40
1.0
100
AcDbArc
 50
180.0
 51
270.0
  0
ARC
  5
41
330
22
100
AcDbEntity
  8
0
100
AcDbCircle
 10
4.599730896781153
 20
-11.77159925848133
 30
0.0
 40
2.0
100
AcDbArc
 50
179.9999999999992
 51
270.0
  0
LINE
  5
42
330
22
100
AcDbEntity
  8
0
100
AcDbLine
 10
11.59973089678115
 20
-13.77159925848144
 30
0.0
 11
4.599730896781153
 21
-13.77159925848147
 31
0.0
  0
LINE
  5
43
330
22
100
AcDbEntity
  8
0
100
AcDbLine
 10
8.771303772034769
 20
-12.77159925848136
 30
0.0
 11
4.599730896781153
 21
-12.77159925848133
 31
0.0
  0
LINE
  5
44
330
22
100
AcDbEntity
  8
0
100
AcDbLine
 10
31.59973089678115
 20
-13.77159925848147
 30
0.0
 11
23.6715276665056
 21
-13.77159925848144
 31
0.0
  0
LINE
  5
45
330
22
100
AcDbEntity
  8
0
100
AcDbLine
 10
23.56565672307022
 20
-9.51278021337896
 30
0.0
 11
24.4388546544846
 21
-12.77159925848144
 31
0.0
  0
LINE
  5
46
330
22
100
AcDbEntity
  8
0
100
AcDbLine
 10
22.59973089678116
 20
-9.771599258481472
 30
0.0
 11
18.59973089678112
 21
-9.771599258481472
 31
0.0
  0
LINE
  5
47
330
22
100
AcDbEntity
  8
0
100
AcDbLine
 10
18.59973089678115
 20
-13.77159925848144
 30
0.0
 11
17.59973089678115
 21
-13.77159925848144
 31
0.0
  0
LINE
  5
48
330
22
100
AcDbEntity
  8
0
100
AcDbLine
 10
18.59973089678115
 20
-9.771599258481472
 30
0.0
 11
18.59973089678115
 21
-13.77159925848144
 31
0.0
  0
LINE
  5
49
330
22
100
AcDbEntity
  8
0
100
AcDbLine
 10
22.59973089678116
 20
-9.771599258481472
 30
0.0
 11
23.67152766650562
 21
-13.77159925848147
 31
0.0
  0
ARC
  5
4A
330
22
100
AcDbEntity
  8
0
100
AcDbCircle
 10
22.59973089678116
 20
-7.271599258481472
 30
0.0
 40
2.5
100
AcDbArc
 50
270.0
 51
270.0000000000007
  0
LINE
  5
4B
330
22
100
AcDbEntity
  8
0
100
AcDbLine
 10
28.77130377203494
 20
-12.77159925848147
 30
0.0
 11
24.43885465448463
 21
-12.77159925848144
 31
0.0
  0
LINE
  5
4C
330
22
100
AcDbEntity
  8
0
100
AcDbLine
 10
3.599730896781125
 20
-4.771599258481472
 30
0.0
 11
2.599730896781125
 21
-4.771599258481472
 31
0.0
  0
LINE
  5
4D
330
22
100
AcDbEntity
  8
0
100
AcDbLine
 10
22.59973089678116
 20
-8.771599258481472
 30
0.0
 11
18.59973089678115
 21
-8.771599258481472
 31
0.0
  0
LINE
  5
4E
330
22
100
AcDbEntity
  8
0
100
AcDbLine
 10
22.59973089678116
 20
-5.771599258481472
 30
0.0
 11
18.59973089678115
 21
-5.771599258481472
 31
0.0
  0
LINE
  5
4F
330
22
100
AcDbEntity
  8
0
100
AcDbLine
 10
22.59973089678116
 20
-4.771599258481472
 30
0.0
 11
17.59973089678115
 21
-4.771599258481472
 31
0.0
  0
LINE
  5
50
330
22
100
AcDbEntity
  8
0
100
AcDbLine
 10
18.59973089678115
 20
-5.771599258481472
 30
0.0
 11
18.59973089678115
 21
-8.771599258481472
 31
0.0
  0
ARC
  5
51
330
22
100
AcDbEntity
  8
0
100
AcDbCircle
 10
22.59973089678116
 20
-7.271599258481472
 30
0.0
 40
1.5
100
AcDbArc
 50
270.0
 51
90.0
  0
ENDBLK
  5
52
330
22
100
AcDbEntity
  8
0
100
AcDbBlockEnd
  0
BLOCK
  5
2A4
330
299
100
AcDbEntity
  8
0
100
AcDbBlockBegin
  2
*D1
 70
     1
 10
0.0
 20
0.0
 30
0.0
  3
*D1
  1

  0
LINE
  5
645
330
299
100
AcDbEntity
  8
BEM
 62
     0
370
    -2
100
AcDbLine
 10
59.52580953562821
 20
87.97233685868619
 30
0.0
 11
59.52580953562821
 21
73.98972450692065
 31
0.0
  0
LINE
  5
646
330
299
100
AcDbEntity
  8
BEM
 62
     0
370
    -2
100
AcDbLine
 10
135.5258095356282
 20
87.97233685868619
 30
0.0
 11
135.5258095356282
 21
73.98972450692065
 31
0.0
  0
LINE
  5
647
330
299
100
AcDbEntity
  8
BEM
 62
     0
370
    -2
100
AcDbLine
 10
63.02580953562821
 20
74.98972450692065
 30
0.0
 11
132.0258095356282
 21
74.98972450692065
 31
0.0
  0
SOLID
  5
648
330
299
100
AcDbEntity
  8
BEM
 62
     0
100
AcDbTrace
 10
63.02580953562821
 20
75.57305784025398
 30
0.0
 11
63.02580953562821
 21
74.40639117358732
 31
0.0
 12
59.52580953562821
 22
74.98972450692065
 32
0.0
 13
59.52580953562821
 23
74.98972450692065
 33
0.0
  0
SOLID
  5
649
330
299
100
AcDbEntity
  8
BEM
 62
     0
100
AcDbTrace
 10
132.0258095356282
 20
75.57305784025398
 30
0.0
 11
132.0258095356282
 21
74.40639117358732
 31
0.0
 12
135.5258095356282
 22
74.98972450692065
 32
0.0
 13
135.5258095356282
 23
74.98972450692065
 33
0.0
  0
MTEXT
  5
64A
330
299
100
AcDbEntity
  8
BEM
 62
     1
100
AcDbMText
 10
97.52580953562821
 20
78.23972450692065
 30
0.0
 40
3.5
 41
0.0
 71
     5
 72
     1
  1
\A1;76
 73
     1
 44
1.0
  0
POINT
  5
64B
330
299
100
AcDbEntity
  8
DEFPOINTS
 62
     0
100
AcDbPoint
 10
59.52580953562821
 20
88.97233685868618
 30
0.0
  0
POINT
  5
64C
330
299
100
AcDbEntity
  8
DEFPOINTS
 62
     0
100
AcDbPoint
 10
135.5258095356282
 20
88.97233685868618
 30
0.0
  0
POINT
  5
64D
330
299
100
AcDbEntity
  8
DEFPOINTS
 62
     0
100
AcDbPoint
 10
135.5258095356282
 20
74.98972450692065
 30
0.0
  0
ENDBLK
  5
2A5
330
299
100
AcDbEntity
  8
0
100
AcDbBlockEnd
  0
BLOCK
  5
5D2
330
5C8
100
AcDbEntity
  8
0
100
AcDbBlockBegin
  2
*D2
 70
     1
 10
0.0
 20
0.0
 30
0.0
  3
*D2
  1

  0
LINE
  5
63C
330
5C8
100
AcDbEntity
  8
BEM
 62
     0
370
    -2
100
AcDbLine
 10
47.02580953562836
 20
254.9723368586862
 30
0.0
 11
47.02580953562836
 21
265.265137289735
 31
0.0
  0
LINE
  5
63D
330
5C8
100
AcDbEntity
  8
BEM
 62
     0
370
    -2
100
AcDbLine
 10
148.0258095356282
 20
254.9723368586862
 30
0.0
 11
148.0258095356282
 21
265.265137289735
 31
0.0
  0
LINE
  5
63E
330
5C8
100
AcDbEntity
  8
BEM
 62
     0
370
    -2
100
AcDbLine
 10
50.52580953562835
 20
264.265137289735
 30
0.0
 11
144.5258095356282
 21
264.265137289735
 31
0.0
  0
SOLID
  5
63F
330
5C8
100
AcDbEntity
  8
BEM
 62
     0
100
AcDbTrace
 10
50.52580953562835
 20
264.8484706230683
 30
0.0
 11
50.52580953562835
 21
263.6818039564017
 31
0.0
 12
47.02580953562836
 22
264.265137289735
 32
0.0
 13
47.02580953562836
 23
264.265137289735
 33
0.0
  0
SOLID
  5
640
330
5C8
100
AcDbEntity
  8
BEM
 62
     0
100
AcDbTrace
 10
144.5258095356282
 20
264.8484706230683
 30
0.0
 11
144.5258095356282
 21
263.6818039564017
 31
0.0
 12
148.0258095356282
 22
264.265137289735
 32
0.0
 13
148.0258095356282
 23
264.265137289735
 33
0.0
  0
MTEXT
  5
641
330
5C8
100
AcDbEntity
  8
BEM
 62
     1
100
AcDbMText
 10
98.96216666150122
 20
267.515137289735
 30
0.0
 40
3.5
 41
0.0
 71
     5
 72
     1
  1
\A1;101
 73
     1
 44
1.0
  0
POINT
  5
642
330
5C8
100
AcDbEntity
  8
DEFPOINTS
 62
     0
100
AcDbPoint
 10
47.02580953562836
 20
253.9723368586862
 30
0.0
  0
POINT
  5
643
330
5C8
100
AcDbEntity
  8
DEFPOINTS
 62
     0
100
AcDbPoint
 10
148.0258095356282
 20
253.9723368586862
 30
0.0
  0
POINT
  5
644
330
5C8
100
AcDbEntity
  8
DEFPOINTS
 62
     0
100
AcDbPoint
 10
148.0258095356282
 20
264.265137289735
 30
0.0
  0
ENDBLK
  5
5D3
330
5C8
100
AcDbEntity
  8
0
100
AcDbBlockEnd
  0
BLOCK
  5
60C
330
602
100
AcDbEntity
  8
0
100
AcDbBlockBegin
  2
*D3
 70
     1
 10
0.0
 20
0.0
 30
0.0
  3
*D3
  1

  0
LINE
  5
633
330
602
100
AcDbEntity
  8
BEM
 62
     0
370
    -2
100
AcDbLine
 10
46.02580953562821
 20
253.9723368586862
 30
0.0
 11
34.16061435965506
 21
253.9723368586862
 31
0.0
  0
LINE
  5
634
330
602
100
AcDbEntity
  8
BEM
 62
     0
370
    -2
100
AcDbLine
 10
58.52580953562821
 20
88.97233685868618
 30
0.0
 11
34.16061435965503
 21
88.97233685868618
 31
0.0
  0
LINE
  5
635
330
602
100
AcDbEntity
  8
BEM
 62
     0
370
    -2
100
AcDbLine
 10
35.16061435965506
 20
250.4723368586862
 30
0.0
 11
35.16061435965503
 21
92.4723368586862
 31
0.0
  0
SOLID
  5
636
330
602
100
AcDbEntity
  8
BEM
 62
     0
100
AcDbTrace
 10
34.57728102632173
 20
250.4723368586862
 30
0.0
 11
35.7439476929884
 21
250.4723368586862
 31
0.0
 12
35.16061435965506
 22
253.9723368586862
 32
0.0
 13
35.16061435965506
 23
253.9723368586862
 33
0.0
  0
SOLID
  5
637
330
602
100
AcDbEntity
  8
BEM
 62
     0
100
AcDbTrace
 10
34.57728102632169
 20
92.4723368586862
 30
0.0
 11
35.74394769298836
 21
92.4723368586862
 31
0.0
 12
35.16061435965503
 22
88.97233685868618
 32
0.0
 13
35.16061435965503
 23
88.97233685868618
 33
0.0
  0
MTEXT
  5
638
330
602
100
AcDbEntity
  8
BEM
 62
     1
100
AcDbMText
 10
31.91061435965502
 20
171.4723368586862
 30
0.0
 40
3.5
 41
0.0
 71
     5
 72
     1
  1
\A1;165
 11
0.0000000000000001
 21
1.0
 31
0.0
 73
     1
 44
1.0
  0
POINT
  5
639
330
602
100
AcDbEntity
  8
DEFPOINTS
 62
     0
100
AcDbPoint
 10
47.02580953562821
 20
253.9723368586862
 30
0.0
  0
POINT
  5
63A
330
602
100
AcDbEntity
  8
DEFPOINTS
 62
     0
100
AcDbPoint
 10
59.52580953562821
 20
88.97233685868618
 30
0.0
  0
POINT
  5
63B
330
602
100
AcDbEntity
  8
DEFPOINTS
 62
     0
100
AcDbPoint
 10
35.16061435965503
 20
88.97233685868618
 30
0.0
  0
ENDBLK
  5
60D
330
602
100
AcDbEntity
  8
0
100
AcDbBlockEnd
  0
ENDSEC
  0
SECTION
  2
ENTITIES
  0
LINE
  5
57
330
1E
100
AcDbEntity
  8
STEMPEL
100
AcDbLine
 10
205.0
 20
55.00000000000003
 30
0.0
 11
19.99999999999998
 21
55.0
 31
0.0
  0
LINE
  5
58
330
1E
100
AcDbEntity
  8
STEMPEL
100
AcDbLine
 10
68.00000000000006
 20
54.99999999999997
 30
0.0
 11
68.0
 21
4.999999999999985
 31
0.0
  0
LINE
  5
59
330
1E
100
AcDbEntity
  8
STEMPEL
100
AcDbLine
 10
110.0
 20
55.00000000000003
 30
0.0
 11
110.0
 21
4.999999999999985
 31
0.0
  0
LINE
  5
5A
330
1E
100
AcDbEntity
  8
STEMPEL
100
AcDbLine
 10
166.0
 20
54.99999999999989
 30
0.0
 11
166.0
 21
20.0
 31
0.0
  0
LINE
  5
5B
330
1E
100
AcDbEntity
  8
STEMPEL
100
AcDbLine
 10
67.99999999999994
 20
14.99999999999998
 30
0.0
 11
19.99999999999998
 21
14.99999999999998
 31
0.0
  0
LINE
  5
5C
330
1E
100
AcDbEntity
  8
STEMPEL
100
AcDbLine
 10
205.0
 20
20.0
 30
0.0
 11
68.00000000000006
 21
19.99999999999998
 31
0.0
  0
LINE
  5
5D
330
1E
100
AcDbEntity
  8
STEMPEL
100
AcDbLine
 10
205.0
 20
40.0
 30
0.0
 11
68.00000000000006
 21
39.99999999999997
 31
0.0
  0
LINE
  5
5E
330
1E
100
AcDbEntity
  8
VOLL
100
AcDbLine
 10
27.00000000000005
 20
55.00000000000003
 30
0.0
 11
26.99999999999999
 21
4.999999999999985
 31
0.0
  0
LINE
  5
5F
330
1E
100
AcDbEntity
  8
VOLL
100
AcDbLine
 10
47.00000000000005
 20
54.99999999999997
 30
0.0
 11
47.0
 21
4.999999999999985
 31
0.0
  0
LINE
  5
60
330
1E
100
AcDbEntity
  8
VOLL
100
AcDbLine
 10
57.00000000000006
 20
54.99999999999997
 30
0.0
 11
57.0
 21
4.999999999999985
 31
0.0
  0
LINE
  5
61
330
1E
100
AcDbEntity
  8
VOLL
100
AcDbLine
 10
77.00000000000006
 20
39.99999999999997
 30
0.0
 11
77.00000000000006
 21
19.99999999999998
 31
0.0
  0
LINE
  5
62
330
1E
100
AcDbEntity
  8
VOLL
100
AcDbLine
 10
90.00000000000005
 20
54.99999999999992
 30
0.0
 11
90.0
 21
19.99999999999998
 31
0.0
  0
LINE
  5
63
330
1E
100
AcDbEntity
  8
HILF
100
AcDbLine
 10
20.00000000000004
 20
50.00000000000003
 30
0.0
 11
68.00000000000006
 21
50.00000000000003
 31
0.0
  0
LINE
  5
64
330
1E
100
AcDbEntity
  8
HILF
100
AcDbLine
 10
20.00000000000004
 20
45.00000000000002
 30
0.0
 11
68.00000000000006
 21
45.00000000000002
 31
0.0
  0
LINE
  5
65
330
1E
100
AcDbEntity
  8
HILF
100
AcDbLine
 10
20.00000000000004
 20
39.99999999999997
 30
0.0
 11
68.00000000000006
 21
39.99999999999997
 31
0.0
  0
LINE
  5
66
330
1E
100
AcDbEntity
  8
HILF
100
AcDbLine
 10
20.00000000000004
 20
34.99999999999997
 30
0.0
 11
68.00000000000006
 21
34.99999999999997
 31
0.0
  0
LINE
  5
67
330
1E
100
AcDbEntity
  8
HILF
100
AcDbLine
 10
20.00000000000004
 20
29.99999999999999
 30
0.0
 11
68.00000000000006
 21
29.99999999999999
 31
0.0
  0
LINE
  5
68
330
1E
100
AcDbEntity
  8
HILF
100
AcDbLine
 10
20.00000000000004
 20
24.99999999999999
 30
0.0
 11
68.00000000000006
 21
24.99999999999999
 31
0.0
  0
LINE
  5
69
330
1E
100
AcDbEntity
  8
HILF
100
AcDbLine
 10
20.00000000000004
 20
19.99999999999998
 30
0.0
 11
68.00000000000006
 21
19.99999999999998
 31
0.0
  0
LINE
  5
6A
330
1E
100
AcDbEntity
  8
HILF
100
AcDbLine
 10
68.00000000000006
 20
34.99999999999997
 30
0.0
 11
110.0
 21
34.99999999999997
 31
0.0
  0
LINE
  5
6B
330
1E
100
AcDbEntity
  8
HILF
100
AcDbLine
 10
68.00000000000006
 20
29.99999999999999
 30
0.0
 11
110.0
 21
29.99999999999999
 31
0.0
  0
LINE
  5
6C
330
1E
100
AcDbEntity
  8
HILF
100
AcDbLine
 10
68.00000000000006
 20
24.99999999999999
 30
0.0
 11
110.0
 21
24.99999999999999
 31
0.0
  0
LINE
  5
6D
330
1E
100
AcDbEntity
  8
HILF
100
AcDbLine
 10
112.3868400548474
 20
42.01879123782069
 30
0.0
 11
162.4176958278155
 21
42.01879123782069
 31
0.0
  0
LINE
  5
6E
330
1E
100
AcDbEntity
  8
HILF
100
AcDbLine
 10
112.3868400548474
 20
34.99999999999997
 30
0.0
 11
162.4176958278155
 21
34.99999999999997
 31
0.0
  0
LINE
  5
6F
330
1E
100
AcDbEntity
  8
HILF
100
AcDbLine
 10
112.3868400548474
 20
29.99999999999999
 30
0.0
 11
162.4176958278155
 21
29.99999999999999
 31
0.0
  0
LINE
  5
70
330
1E
100
AcDbEntity
  8
HILF
100
AcDbLine
 10
112.3868400548474
 20
24.99999999999999
 30
0.0
 11
162.4176958278155
 21
24.99999999999999
 31
0.0
  0
LINE
  5
71
330
1E
100
AcDbEntity
  8
VOLL
100
AcDbLine
 10
166.0
 20
30.0
 30
0.0
 11
205.0
 21
30.0
 31
0.0
  0
LINE
  5
72
330
1E
100
AcDbEntity
  8
HILF
100
AcDbLine
 10
168.3619308148496
 20
41.88991818477913
 30
0.0
 11
202.4294419663364
 21
41.88991818477913
 31
0.0
  0
LINE
  5
73
330
1E
100
AcDbEntity
  8
HILF
100
AcDbLine
 10
111.7454849644942
 20
7.446991290141568
 30
0.0
 11
202.4294419663364
 21
7.446991290141568
 31
0.0
  0
TEXT
  5
74
330
1E
100
AcDbEntity
  8
TEXT
100
AcDbText
 10
31.9308298981591
 20
9.336909474920659
 30
0.0
 40
2.0
  1
Änderung
 41
0.8
  7
GREEKS
 72
     1
 11
37.30225846958767
 21
9.336909474920659
 31
0.0
100
AcDbText
  0
TEXT
  5
75
330
1E
100
AcDbEntity
  8
TEXT
100
AcDbText
 10
71.75817860751886
 20
51.23104475435443
 30
0.0
 40
2.5
  1
Maßstab
 41
0.8
  7
GREEKS
100
AcDbText
  0
TEXT
  5
76
330
1E
100
AcDbEntity
  8
TEXT
100
AcDbText
 10
92.14294773670257
 20
51.20920842174095
 30
0.0
 40
2.5
  1
Zul. Abw.
 41
0.8
  7
GREEKS
100
AcDbText
  0
TEXT
  5
77
330
1E
100
AcDbEntity
  8
TEXT
100
AcDbText
 10
112.4389701904505
 20
51.27446640058898
 30
0.0
 40
2.5
  1
Benennung
 41
0.8
  7
GREEKS
100
AcDbText
  0
TEXT
  5
78
330
1E
100
AcDbEntity
  8
TEXT
100
AcDbText
 10
168.089377478817
 20
51.15660172685682
 30
0.0
 40
2.5
  1
Zeichnungs Nr.
 41
0.8
  7
GREEKS
100
AcDbText
  0
TEXT
  5
79
330
1E
100
AcDbEntity
  8
TEXT
100
AcDbText
 10
112.371119195568
 20
15.42280285096528
 30
0.0
 40
2.5
  1
Bauvorhaben
 41
0.8
  7
GREEKS
100
AcDbText
  0
TEXT
  5
7A
330
1E
100
AcDbEntity
  8
TEXT
100
AcDbText
 10
168.3619308148496
 20
36.59059118549985
 30
0.0
 40
2.5
  1
Ersatz für:
 41
0.8
  7
GREEKS
100
AcDbText
  0
TEXT
  5
7B
330
1E
100
AcDbEntity
  8
TEXT
100
AcDbText
 10
24.13320553522878
 20
6.827329230135958
 30
0.0
 40
2.0
  1
Index
 50
90.0
 41
0.8
  7
GREEKS
100
AcDbText
  0
TEXT
  5
7C
330
1E
100
AcDbEntity
  8
TEXT
100
AcDbText
 10
50.04673380377405
 20
9.33578134669905
 30
0.0
 40
2.0
  1
Tag
 41
0.8
  7
GREEKS
 72
     1
 11
51.91340047044072
 21
9.33578134669905
 31
0.0
100
AcDbText
  0
TEXT
  5
7D
330
1E
100
AcDbEntity
  8
TEXT
100
AcDbText
 10
59.50613721932963
 20
9.29662108483204
 30
0.0
 40
2.0
  1
Name
 41
0.8
  7
GREEKS
 72
     1
 11
62.66804198123439
 21
9.29662108483204
 31
0.0
100
AcDbText
  0
TEXT
  5
7E
330
1E
100
AcDbEntity
  8
TEXT
100
AcDbText
 10
81.16558365768254
 20
36.65940250614963
 30
0.0
 40
2.0
  1
Tag
 41
0.8
  7
GREEKS
100
AcDbText
  0
TEXT
  5
7F
330
1E
100
AcDbEntity
  8
TEXT
100
AcDbText
 10
96.23132921131475
 20
36.65480545957612
 30
0.0
 40
2.0
  1
Name
 41
0.8
  7
GREEKS
100
AcDbText
  0
TEXT
  5
80
330
1E
100
AcDbEntity
  8
TEXT
100
AcDbText
 10
68.79180635838077
 20
31.81495184808982
 30
0.0
 40
2.0
  1
Gez.
 41
0.8
  7
GREEKS
100
AcDbText
  0
TEXT
  5
81
330
1E
100
AcDbEntity
  8
TEXT
100
AcDbText
 10
68.77575432858361
 20
26.84463145714189
 30
0.0
 40
2.0
  1
Gepr.
 41
0.8
  7
GREEKS
100
AcDbText
  0
TEXT
  5
82
330
1E
100
AcDbEntity
  8
TEXT
100
AcDbText
 10
68.80033886936519
 20
21.76473194824904
 30
0.0
 40
2.0
  1
Norm.
 41
0.8
  7
GREEKS
100
AcDbText
  0
LINE
  5
83
330
1E
100
AcDbEntity
  8
STEMPEL
100
AcDbLine
 10
24.99999999999995
 20
5.0
 30
0.0
 11
205.0
 21
5.0
 31
0.0
  0
TEXT
  5
84
330
1E
100
AcDbEntity
  8
TEXT
100
AcDbText
 10
168.6200430748503
 20
26.03708088939301
 30
0.0
 40
2.5
  1
ersetzt durch:
 41
0.8
  7
GREEKS
100
AcDbText
  0
LINE
  5
85
330
1E
100
AcDbEntity
  8
STEMPEL
100
AcDbLine
 10
205.0
 20
5.0
 30
0.0
 11
19.99999999999994
 21
5.0
 31
0.0
  0
LINE
  5
86
330
1E
100
AcDbEntity
  8
STEMPEL
100
AcDbLine
 10
205.0
 20
5.0
 30
0.0
 11
205.0
 21
292.0
 31
0.0
  0
LINE
  5
87
330
1E
100
AcDbEntity
  8
STEMPEL
100
AcDbLine
 10
20.0
 20
5.0
 30
0.0
 11
19.99999999999994
 21
292.0
 31
0.0
  0
LINE
  5
88
330
1E
100
AcDbEntity
  8
STEMPEL
100
AcDbLine
 10
205.0
 20
292.0
 30
0.0
 11
19.99999999999994
 21
292.0
 31
0.0
  0
LINE
  5
89
330
1E
100
AcDbEntity
  8
HILF
100
AcDbLine
 10
0.0
 20
0.0
 30
0.0
 11
-0.0000000000000568
 21
297.0
 31
0.0
  0
LINE
  5
8A
330
1E
100
AcDbEntity
  8
HILF
100
AcDbLine
 10
210.0
 20
297.0000000000001
 30
0.0
 11
0.0
 21
297.0
 31
0.0
  0
LINE
  5
8B
330
1E
100
AcDbEntity
  8
HILF
100
AcDbLine
 10
210.0
 20
0.0
 30
0.0
 11
0.0
 21
0.0
 31
0.0
  0
LINE
  5
8C
330
1E
100
AcDbEntity
  8
HILF
100
AcDbLine
 10
15.54383567856928
 20
148.5
 30
0.0
 11
0.0000000000000568
 21
148.5
 31
0.0
  0
TEXT
  5
8D
330
1E
100
AcDbEntity
  8
TEXT
100
AcDbText
 10
69.31105491105199
 20
36.57012735575833
 30
0.0
 40
2.0
  1
2008
 41
0.8
  7
GREEKS
100
AcDbText
  0
LINE
  5
8E
330
1E
100
AcDbEntity
  8
HILF
100
AcDbLine
 10
210.0
 20
-0.0000000000000568
 30
0.0
 11
210.0
 21
297.0
 31
0.0
  0
TEXT
  5
8F
330
1E
100
AcDbEntity
  8
VOLL
100
AcDbText
 10
78.07675471698113
 20
31.02594776470585
 30
0.0
 40
1.8
  1

  7
GREEKS
100
AcDbText
  0
TEXT
  5
90
330
1E
100
AcDbEntity
  8
TEXT
100
AcDbText
 10
20.92754975488837
 20
55.83599999999997
 30
0.0
 40
2.5
  1
Erstellt mit AUTOCAD 2004
 41
0.8
  7
GREEKS
100
AcDbText
  0
TEXT
  5
91
330
1E
100
AcDbEntity
  8
TEXT
100
AcDbText
 10
97.21080242906285
 20
31.54481959861755
 30
0.0
 40
2.0
  1
Koeh
 41
0.8
  7
GREEKS
 72
     1
 11
99.83937385763429
 21
31.54481959861755
 31
0.0
100
AcDbText
  0
TEXT
  5
92
330
1E
100
AcDbEntity
  8
TEXT
 62
     1
100
AcDbText
 10
173.6488155198129
 20
44.07450714456979
 30
0.0
 40
3.5
  1
19083000W
 41
0.8
  7
GREEKS
 72
     1
 11
185.3821488531462
 21
44.07450714456979
 31
0.0
100
AcDbText
  0
TEXT
  5
93
330
1E
100
AcDbEntity
  8
TEXT
 62
     1
100
AcDbText
 10
75.25031532409435
 20
44.07450714456979
 30
0.0
 40
3.5
  1
1:1
 41
0.8
  7
GREEKS
100
AcDbText
  0
TEXT
  5
94
330
1E
100
AcDbEntity
  8
TEXT
100
AcDbText
 10
80.35187950649897
 20
31.55382520412866
 30
0.0
 40
2.0
  1
12.06.
 41
0.8
  7
GREEKS
 72
     1
 11
83.70426045887993
 21
31.55382520412866
 31
0.0
100
AcDbText
  0
TEXT
  5
95
330
1E
100
AcDbEntity
  8
TEXT
 62
     1
100
AcDbText
 10
113.4467865528701
 20
43.70874394626889
 30
0.0
 40
3.5
  1
Siebeinheit
 41
0.8
  7
GREEKS
100
AcDbText
  0
TEXT
  5
96
330
1E
100
AcDbEntity
  8
TEXT
100
AcDbText
 10
112.5648195562657
 20
35.75167208792644
 30
0.0
 40
2.5
  1
für DN50/DN70
 41
0.8
  7
GREEKS
100
AcDbText
  0
TEXT
  5
98
330
1E
100
AcDbEntity
  8
TEXT
100
AcDbText
 10
112.5648195562657
 20
25.82005971521079
 30
0.0
 40
2.5
  1
EDV-Art.Nr. 19083.000X
 41
0.8
  7
GREEKS
100
AcDbText
  0
TEXT
  5
99
330
1E
100
AcDbEntity
  8
TEXT
100
AcDbText
 10
112.4918750788913
 20
21.31487076511316
 30
0.0
 40
2.0
  1
19083000W.DWG
 41
0.8
  7
GREEKS
100
AcDbText
  0
TEXT
  5
9A
330
1E
100
AcDbEntity
  8
TEXT
100
AcDbText
 10
92.6083041992801
 20
45.38181920511511
 30
0.0
 40
2.0
  1
DIN 16901 f
 41
0.8
  7
GREEKS
 72
     1
 11
99.80830419928011
 21
45.38181920511511
 31
0.0
100
AcDbText
  0
INSERT
  5
9B
330
1E
100
AcDbEntity
  8
STEMPEL
100
AcDbBlockReference
  2
LOGO
 10
70.4977742728897
 20
22.51052638224161
 30
0.0
  0
TEXT
  5
118
330
1E
100
AcDbEntity
  8
BEM
100
AcDbText
 10
208.6511461928583
 20
5.083950539994247
 30
0.0
 40
2.0
  1
Diese Zeichnung ist urheberrechtlich geschützt und bleibt unser Eigentum. Sie darf weder ganz noch teilweise verfielfältigt und nicht an Dritte weitergegeben werden.
 50
90.0
 41
0.8
  7
GREEKS
100
AcDbText
  0
DIMENSION
  5
235
330
1E
100
AcDbEntity
  8
BEM
100
AcDbDimension
  2
*D1
 10
135.5258095356282
 20
74.98972450692065
 30
0.0
 11
97.52580953562821
 21
78.23972450692065
 31
0.0
 70
    32
  1
76
 71
     5
 42
76.0
  3
Standard
100
AcDbAlignedDimension
 13
59.52580953562821
 23
88.97233685868618
 33
0.0
 14
135.5258095356282
 24
88.97233685868618
 34
0.0
100
AcDbRotatedDimension
1001
ACAD
1000
DSTYLE
1002
{
1070
    41
1040
3.5
1070
    42
1040
1.0
1070
    43
1040
7.0
1070
    44
1040
1.0
1070
    73
1070
     0
1070
    74
1070
     0
1070
    77
1070
     1
1070
    78
1070
     8
1070
    79
1070
     2
1070
   140
1040
3.5
1070
   141
1040
1.5
1070
   146
1040
0.5142857142857144
1070
   147
1040
1.5
1070
   172
1070
     1
1070
   178
1070
     1
1070
   179
1070
     2
1070
   271
1070
     2
1070
   272
1070
     2
1070
   284
1070
     8
1070
   285
1070
     8
1070
   286
1070
     8
1002
}
  0
LINE
  5
23A
330
1E
100
AcDbEntity
  8
STEMPEL
100
AcDbLine
 10
63.52580953562821
 20
88.97233685868618
 30
0.0
 11
59.52580953562821
 21
88.97233685868618
 31
0.0
  0
LINE
  5
23B
330
1E
100
AcDbEntity
  8
STEMPEL
100
AcDbLine
 10
131.5258095356282
 20
88.97233685868618
 30
0.0
 11
135.5258095356282
 21
88.97233685868618
 31
0.0
  0
LINE
  5
23D
330
1E
100
AcDbEntity
  8
STEMPEL
100
AcDbLine
 10
59.52580953562821
 20
93.97233685868618
 30
0.0
 11
57.52580953562824
 21
93.97233685868616
 31
0.0
  0
LINE
  5
23E
330
1E
100
AcDbEntity
  8
STEMPEL
100
AcDbLine
 10
63.52580953562824
 20
103.9723368586862
 30
0.0
 11
60.82580953562819
 21
103.9723368586862
 31
0.0
  0
LINE
  5
23F
330
1E
100
AcDbEntity
  8
STEMPEL
100
AcDbLine
 10
57.52580953562824
 20
116.9723368586861
 30
0.0
 11
57.52580953562824
 21
93.97233685868616
 31
0.0
  0
LINE
  5
240
330
1E
100
AcDbEntity
  8
STEMPEL
100
AcDbLine
 10
60.82580953562819
 20
116.9723368586861
 30
0.0
 11
60.82580953562819
 21
103.9723368586862
 31
0.0
  0
LINE
  5
243
330
1E
100
AcDbEntity
  8
STEMPEL
100
AcDbLine
 10
61.02580953562821
 20
108.9723368586861
 30
0.0
 11
60.82580953562819
 21
108.9723368586861
 31
0.0
  0
LINE
  5
246
330
1E
100
AcDbEntity
  8
STEMPEL
100
AcDbLine
 10
90.02580953562823
 20
103.9723368586863
 30
0.0
 11
90.02580953562821
 21
88.97233685868616
 31
0.0
  0
LINE
  5
247
330
1E
100
AcDbEntity
  8
STEMPEL
100
AcDbLine
 10
63.52580953562821
 20
103.9723368586862
 30
0.0
 11
63.52580953562821
 21
88.97233685868618
 31
0.0
  0
LINE
  5
248
330
1E
100
AcDbEntity
  8
STEMPEL
100
AcDbLine
 10
59.52580953562821
 20
93.97233685868616
 30
0.0
 11
59.52580953562821
 21
88.97233685868618
 31
0.0
  0
LINE
  5
24B
330
1E
100
AcDbEntity
  8
STEMPEL
100
AcDbLine
 10
134.0258095356281
 20
108.9723368586861
 30
0.0
 11
134.2258095356282
 21
108.9723368586861
 31
0.0
  0
LINE
  5
24D
330
1E
100
AcDbEntity
  8
STEMPEL
100
AcDbLine
 10
90.02580953562821
 20
103.9723368586862
 30
0.0
 11
105.0258095356282
 21
103.9723368586862
 31
0.0
  0
LINE
  5
24E
330
1E
100
AcDbEntity
  8
MITTEL
100
AcDbLine
 10
97.52580953562821
 20
260.0096882356238
 30
0.0
 11
97.52580953562821
 21
85.00416439044242
 31
0.0
  0
LINE
  5
24F
330
1E
100
AcDbEntity
  8
STEMPEL
100
AcDbLine
 10
131.5258095356282
 20
103.9723368586862
 30
0.0
 11
134.2258095356282
 21
103.9723368586862
 31
0.0
  0
LINE
  5
250
330
1E
100
AcDbEntity
  8
STEMPEL
100
AcDbLine
 10
134.2258095356282
 20
116.9723368586861
 30
0.0
 11
134.2258095356282
 21
103.9723368586862
 31
0.0
  0
LINE
  5
251
330
1E
100
AcDbEntity
  8
STEMPEL
100
AcDbLine
 10
135.5258095356282
 20
93.97233685868616
 30
0.0
 11
135.5258095356282
 21
88.97233685868618
 31
0.0
  0
LINE
  5
252
330
1E
100
AcDbEntity
  8
STEMPEL
100
AcDbLine
 10
135.5258095356282
 20
93.97233685868618
 30
0.0
 11
137.5258095356282
 21
93.97233685868616
 31
0.0
  0
LINE
  5
253
330
1E
100
AcDbEntity
  8
STEMPEL
100
AcDbLine
 10
131.5258095356282
 20
103.9723368586862
 30
0.0
 11
131.5258095356282
 21
88.97233685868618
 31
0.0
  0
LINE
  5
26A
330
1E
100
AcDbEntity
  8
STEMPEL
100
AcDbLine
 10
105.0258095356282
 20
103.9723368586862
 30
0.0
 11
105.0258095356282
 21
88.97233685868616
 31
0.0
  0
LINE
  5
26F
330
1E
100
AcDbEntity
  8
STEMPEL
100
AcDbLine
 10
137.5258095356282
 20
116.9723368586861
 30
0.0
 11
137.5258095356282
 21
93.97233685868616
 31
0.0
  0
LINE
  5
270
330
1E
100
AcDbEntity
  8
STEMPEL
100
AcDbLine
 10
90.02580953562819
 20
88.97233685868616
 30
0.0
 11
105.0258095356282
 21
88.97233685868616
 31
0.0
  0
LINE
  5
271
330
1E
100
AcDbEntity
  8
STEMPEL
100
AcDbLine
 10
57.52580953562824
 20
116.9723368586862
 30
0.0
 11
61.02580953562821
 21
116.9723368586862
 31
0.0
  0
HATCH
  5
408
330
1E
100
AcDbEntity
  8
SCHRAFF
100
AcDbHatch
 10
0.0
 20
0.0
 30
0.0
210
0.0
220
0.0
230
1.0
  2
NET
 70
     0
 71
     0
 91
        2
 92
        7
 72
     0
 73
     1
 93
        8
 10
134.2258095356282
 20
103.9723368586862
 10
131.5258095356282
 20
103.9723368586861
 10
131.5258095356282
 20
88.97233685868618
 10
135.5258095356282
 20
88.97233685868622
 10
135.5258095356282
 20
93.97233685868618
 10
137.5258095356282
 20
93.97233685868616
 10
137.5258095356282
 20
116.9723368586862
 10
134.2258095356282
 20
116.9723368586862
 97
        0
 92
        7
 72
     0
 73
     1
 93
        8
 10
57.52580953562824
 20
93.97233685868622
 10
59.52580953562821
 20
93.97233685868618
 10
59.52580953562822
 20
88.97233685868618
 10
63.52580953562821
 20
88.97233685868622
 10
63.52580953562821
 20
103.9723368586862
 10
60.82580953562819
 20
103.9723368586862
 10
60.82580953562818
 20
116.9723368586861
 10
57.52580953562824
 20
116.9723368586861
 97
        0
 75
     0
 76
     1
 52
45.0
 41
20.0
 77
     0
 78
     2
 53
45.0
 43
-14.97419046437176
 44
-137.5704963926564
 45
-1.767766952966368
 46
1.767766952966368
 79
     0
 53
135.0
 43
-14.97419046437176
 44
-137.5704963926564
 45
-1.767766952966368
 46
-1.767766952966368
 79
     0
 47
0.1980523569326961
 98
        2
 10
135.6895448378468
 20
114.3479480795805
 10
58.8014584356622
 20
114.1498959965873
  0
HATCH
  5
4E0
330
1E
100
AcDbEntity
  8
SCHRAFF
100
AcDbHatch
 10
0.0
 20
0.0
 30
0.0
210
0.0
220
0.0
230
1.0
  2
NET
 70
     0
 71
     1
 91
        2
 92
        7
 72
     0
 73
     1
 93
       42
 10
145.0258095356279
 20
247.9723368586861
 10
139.5258095356282
 20
247.9723368586862
 10
129.5258095356281
 20
237.9723368586861
 10
132.0258095356281
 20
103.9723368586863
 10
134.0258095356281
 20
103.9723368586863
 10
134.0258095356281
 20
117.9723368586863
 10
133.5258095356281
 20
117.9723368586863
 10
133.5258095356281
 20
120.9723368586863
 10
134.0258095356281
 20
120.9723368586862
 10
134.0258095356281
 20
132.9723368586863
 10
133.5258095356281
 20
132.9723368586863
 10
133.5258095356281
 20
135.9723368586863
 10
134.0258095356281
 20
135.9723368586863
 10
134.0258095356281
 20
147.9723368586862
 10
133.5258095356281
 20
147.9723368586862
 10
133.5258095356281
 20
150.9723368586862
 10
134.0258095356281
 20
150.9723368586862
 10
134.0258095356281
 20
162.9723368586863
 10
133.5258095356281
 20
162.9723368586863
 10
133.5258095356281
 20
165.9723368586863
 10
134.0258095356281
 20
165.9723368586863
 10
134.0258095356281
 20
177.9723368586862
 10
133.5258095356281
 20
177.9723368586863
 10
133.5258095356281
 20
180.9723368586863
 10
134.0258095356281
 20
180.9723368586863
 10
134.0258095356281
 20
192.9723368586863
 10
133.5258095356281
 20
192.9723368586863
 10
133.5258095356281
 20
195.9723368586862
 10
134.0258095356281
 20
195.9723368586863
 10
134.0258095356281
 20
207.9723368586863
 10
133.5258095356281
 20
207.9723368586863
 10
133.5258095356281
 20
210.9723368586863
 10
134.0258095356281
 20
210.9723368586863
 10
134.0258095356281
 20
222.9723368586863
 10
133.5258095356281
 20
222.9723368586863
 10
133.5258095356281
 20
225.9723368586863
 10
134.0258095356281
 20
225.9723368586863
 10
134.0258095356281
 20
237.9723368586863
 10
141.025809535628
 20
244.9723368586862
 10
148.0258095356282
 20
244.9723368586862
 10
148.0258095356281
 20
253.9723368586862
 10
145.0258095356281
 20
253.9723368586862
 97
       42
330
4E2
330
53F
330
4E3
330
537
330
514
330
519
330
518
330
51B
330
51A
330
51C
330
517
330
522
330
520
330
521
330
51F
330
525
330
523
330
524
330
51E
330
527
330
526
330
528
330
51D
330
52C
330
52B
330
52D
330
52A
330
52F
330
52E
330
530
330
529
330
532
330
531
330
533
330
515
330
53C
330
53A
330
53B
330
539
330
538
330
534
330
53E
 92
        7
 72
     0
 73
     1
 93
       42
 10
61.02580953562827
 20
225.9723368586863
 10
61.52580953562828
 20
225.9723368586864
 10
61.52580953562827
 20
222.9723368586862
 10
61.02580953562827
 20
222.9723368586863
 10
61.02580953562827
 20
210.9723368586863
 10
61.52580953562827
 20
210.9723368586863
 10
61.52580953562827
 20
207.9723368586863
 10
61.02580953562827
 20
207.9723368586863
 10
61.02580953562826
 20
195.9723368586862
 10
61.52580953562827
 20
195.9723368586862
 10
61.52580953562826
 20
192.9723368586863
 10
61.02580953562827
 20
192.9723368586862
 10
61.02580953562827
 20
180.9723368586863
 10
61.52580953562828
 20
180.9723368586863
 10
61.52580953562827
 20
177.9723368586863
 10
61.02580953562827
 20
177.9723368586863
 10
61.02580953562826
 20
165.9723368586863
 10
61.52580953562827
 20
165.9723368586863
 10
61.52580953562827
 20
162.9723368586863
 10
61.02580953562826
 20
162.9723368586863
 10
61.02580953562821
 20
150.9723368586862
 10
61.52580953562827
 20
150.9723368586862
 10
61.52580953562827
 20
147.9723368586862
 10
61.02580953562821
 20
147.9723368586862
 10
61.02580953562821
 20
135.9723368586863
 10
61.52580953562826
 20
135.9723368586863
 10
61.52580953562827
 20
132.9723368586863
 10
61.02580953562821
 20
132.9723368586863
 10
61.0258095356282
 20
120.9723368586862
 10
61.52580953562827
 20
120.9723368586863
 10
61.52580953562827
 20
117.9723368586863
 10
61.02580953562821
 20
117.9723368586863
 10
61.02580953562821
 20
103.9723368586863
 10
63.0258095356282
 20
103.9723368586863
 10
65.52580953562823
 20
237.9723368586861
 10
55.52580953562821
 20
247.9723368586862
 10
50.02580953562818
 20
247.9723368586861
 10
50.0258095356282
 20
253.9723368586862
 10
47.02580953562821
 20
253.9723368586862
 10
47.02580953562821
 20
244.9723368586861
 10
54.02580953562839
 20
244.9723368586862
 10
61.02580953562827
 20
237.9723368586863
 97
       42
330
506
330
4E3
330
509
330
4E2
330
507
330
508
330
505
330
50D
330
50F
330
510
330
50E
330
4E5
330
501
330
503
330
502
330
4F9
330
4FE
330
500
330
4FF
330
4FA
330
4FB
330
4FD
330
4FC
330
4ED
330
4F8
330
4F6
330
4F7
330
4EE
330
4F4
330
4F5
330
4F3
330
4EF
330
4F0
330
4F2
330
4F1
330
4E7
330
4EC
330
4EA
330
4EB
330
4E8
330
4E9
330
4E6
 75
     0
 76
     1
 52
45.0
 41
15.0
 77
     0
 78
     2
 53
45.0
 43
-127.4741904643717
 44
-259.6105015205956
 45
-1.325825214724776
 46
1.325825214724776
 79
     0
 53
135.0
 43
-127.4741904643717
 44
-259.6105015205956
 45
-1.325825214724776
 46
-1.325825214724776
 79
     0
 47
0.33477438141283
 98
        2
 10
146.1084490785859
 20
247.84994765505
 10
63.02568055362897
 20
229.1025830451849
  0
LINE
  5
4E1
330
1E
100
AcDbEntity
  8
STEMPEL
100
AcDbLine
 10
65.52580953562816
 20
237.9723368586862
 30
0.0
 11
129.5258095356281
 21
237.9723368586862
 31
0.0
  0
LINE
  5
4E2
102
{ACAD_REACTORS
330
4E0
102
}
330
1E
100
AcDbEntity
  8
STEMPEL
100
AcDbLine
 10
47.02580953562821
 20
253.9723368586862
 30
0.0
 11
148.0258095356281
 21
253.9723368586862
 31
0.0
  0
LINE
  5
4E3
102
{ACAD_REACTORS
330
4E0
102
}
330
1E
100
AcDbEntity
  8
STEMPEL
100
AcDbLine
 10
50.02580953562818
 20
247.9723368586862
 30
0.0
 11
145.0258095356281
 21
247.9723368586861
 31
0.0
  0
LINE
  5
4E4
330
1E
100
AcDbEntity
  8
STEMPEL
100
AcDbLine
 10
63.02580953562821
 20
103.9723368586862
 30
0.0
 11
132.0258095356281
 21
103.9723368586863
 31
0.0
  0
LINE
  5
4E5
102
{ACAD_REACTORS
330
4E0
102
}
330
1E
100
AcDbEntity
  8
STEMPEL
100
AcDbLine
 10
61.02580953562827
 20
222.9723368586862
 30
0.0
 11
61.02580953562827
 21
210.9723368586862
 31
0.0
  0
LINE
  5
4E6
102
{ACAD_REACTORS
330
4E0
102
}
330
1E
100
AcDbEntity
  8
STEMPEL
100
AcDbLine
 10
65.52580953562821
 20
237.9723368586862
 30
0.0
 11
63.02580953562821
 21
103.9723368586863
 31
0.0
  0
LINE
  5
4E7
102
{ACAD_REACTORS
330
4E0
102
}
330
1E
100
AcDbEntity
  8
STEMPEL
100
AcDbLine
 10
61.02580953562821
 20
132.9723368586863
 30
0.0
 11
61.02580953562821
 21
120.9723368586862
 31
0.0
  0
LINE
  5
4E8
102
{ACAD_REACTORS
330
4E0
102
}
330
1E
100
AcDbEntity
  8
STEMPEL
100
AcDbLine
 10
61.02580953562821
 20
117.9723368586863
 30
0.0
 11
61.02580953562821
 21
103.9723368586863
 31
0.0
  0
LINE
  5
4E9
102
{ACAD_REACTORS
330
4E0
102
}
330
1E
100
AcDbEntity
  8
STEMPEL
100
AcDbLine
 10
63.02580953562821
 20
103.9723368586863
 30
0.0
 11
61.02580953562821
 21
103.9723368586863
 31
0.0
  0
LINE
  5
4EA
102
{ACAD_REACTORS
330
4E0
102
}
330
1E
100
AcDbEntity
  8
STEMPEL
100
AcDbLine
 10
61.52580953562827
 20
120.9723368586863
 30
0.0
 11
61.52580953562827
 21
117.9723368586863
 31
0.0
  0
LINE
  5
4EB
102
{ACAD_REACTORS
330
4E0
102
}
330
1E
100
AcDbEntity
  8
STEMPEL
100
AcDbLine
 10
61.52580953562827
 20
117.9723368586863
 30
0.0
 11
61.02580953562821
 21
117.9723368586863
 31
0.0
  0
LINE
  5
4EC
102
{ACAD_REACTORS
330
4E0
102
}
330
1E
100
AcDbEntity
  8
STEMPEL
100
AcDbLine
 10
61.52580953562827
 20
120.9723368586863
 30
0.0
 11
61.02580953562821
 21
120.9723368586863
 31
0.0
  0
LINE
  5
4ED
102
{ACAD_REACTORS
330
4E0
102
}
330
1E
100
AcDbEntity
  8
STEMPEL
100
AcDbLine
 10
61.02580953562827
 20
177.9723368586863
 30
0.0
 11
61.02580953562827
 21
165.9723368586863
 31
0.0
  0
LINE
  5
4EE
102
{ACAD_REACTORS
330
4E0
102
}
330
1E
100
AcDbEntity
  8
STEMPEL
100
AcDbLine
 10
61.02580953562827
 20
162.9723368586863
 30
0.0
 11
61.02580953562821
 21
150.9723368586863
 31
0.0
  0
LINE
  5
4EF
102
{ACAD_REACTORS
330
4E0
102
}
330
1E
100
AcDbEntity
  8
STEMPEL
100
AcDbLine
 10
61.02580953562821
 20
147.9723368586863
 30
0.0
 11
61.02580953562821
 21
135.9723368586863
 31
0.0
  0
LINE
  5
4F0
102
{ACAD_REACTORS
330
4E0
102
}
330
1E
100
AcDbEntity
  8
STEMPEL
100
AcDbLine
 10
61.52580953562827
 20
135.9723368586863
 30
0.0
 11
61.02580953562821
 21
135.9723368586863
 31
0.0
  0
LINE
  5
4F1
102
{ACAD_REACTORS
330
4E0
102
}
330
1E
100
AcDbEntity
  8
STEMPEL
100
AcDbLine
 10
61.52580953562827
 20
132.9723368586863
 30
0.0
 11
61.02580953562821
 21
132.9723368586863
 31
0.0
  0
LINE
  5
4F2
102
{ACAD_REACTORS
330
4E0
102
}
330
1E
100
AcDbEntity
  8
STEMPEL
100
AcDbLine
 10
61.52580953562827
 20
135.9723368586862
 30
0.0
 11
61.52580953562827
 21
132.9723368586863
 31
0.0
  0
LINE
  5
4F3
102
{ACAD_REACTORS
330
4E0
102
}
330
1E
100
AcDbEntity
  8
STEMPEL
100
AcDbLine
 10
61.52580953562827
 20
147.9723368586862
 30
0.0
 11
61.02580953562821
 21
147.9723368586862
 31
0.0
  0
LINE
  5
4F4
102
{ACAD_REACTORS
330
4E0
102
}
330
1E
100
AcDbEntity
  8
STEMPEL
100
AcDbLine
 10
61.52580953562827
 20
150.9723368586862
 30
0.0
 11
61.02580953562821
 21
150.9723368586862
 31
0.0
  0
LINE
  5
4F5
102
{ACAD_REACTORS
330
4E0
102
}
330
1E
100
AcDbEntity
  8
STEMPEL
100
AcDbLine
 10
61.52580953562827
 20
150.9723368586862
 30
0.0
 11
61.52580953562827
 21
147.9723368586862
 31
0.0
  0
LINE
  5
4F6
102
{ACAD_REACTORS
330
4E0
102
}
330
1E
100
AcDbEntity
  8
STEMPEL
100
AcDbLine
 10
61.52580953562827
 20
165.9723368586863
 30
0.0
 11
61.52580953562827
 21
162.9723368586863
 31
0.0
  0
LINE
  5
4F7
102
{ACAD_REACTORS
330
4E0
102
}
330
1E
100
AcDbEntity
  8
STEMPEL
100
AcDbLine
 10
61.52580953562827
 20
162.9723368586863
 30
0.0
 11
61.02580953562821
 21
162.9723368586863
 31
0.0
  0
LINE
  5
4F8
102
{ACAD_REACTORS
330
4E0
102
}
330
1E
100
AcDbEntity
  8
STEMPEL
100
AcDbLine
 10
61.52580953562827
 20
165.9723368586863
 30
0.0
 11
61.02580953562821
 21
165.9723368586863
 31
0.0
  0
LINE
  5
4F9
102
{ACAD_REACTORS
330
4E0
102
}
330
1E
100
AcDbEntity
  8
STEMPEL
100
AcDbLine
 10
61.02580953562827
 20
207.9723368586863
 30
0.0
 11
61.02580953562827
 21
195.9723368586863
 31
0.0
  0
LINE
  5
4FA
102
{ACAD_REACTORS
330
4E0
102
}
330
1E
100
AcDbEntity
  8
STEMPEL
100
AcDbLine
 10
61.02580953562827
 20
192.9723368586863
 30
0.0
 11
61.02580953562827
 21
180.9723368586863
 31
0.0
  0
LINE
  5
4FB
102
{ACAD_REACTORS
330
4E0
102
}
330
1E
100
AcDbEntity
  8
STEMPEL
100
AcDbLine
 10
61.52580953562827
 20
180.9723368586863
 30
0.0
 11
61.02580953562821
 21
180.9723368586863
 31
0.0
  0
LINE
  5
4FC
102
{ACAD_REACTORS
330
4E0
102
}
330
1E
100
AcDbEntity
  8
STEMPEL
100
AcDbLine
 10
61.52580953562827
 20
177.9723368586863
 30
0.0
 11
61.02580953562821
 21
177.9723368586862
 31
0.0
  0
LINE
  5
4FD
102
{ACAD_REACTORS
330
4E0
102
}
330
1E
100
AcDbEntity
  8
STEMPEL
100
AcDbLine
 10
61.52580953562827
 20
180.9723368586863
 30
0.0
 11
61.52580953562827
 21
177.9723368586862
 31
0.0
  0
LINE
  5
4FE
102
{ACAD_REACTORS
330
4E0
102
}
330
1E
100
AcDbEntity
  8
STEMPEL
100
AcDbLine
 10
61.52580953562827
 20
195.9723368586863
 30
0.0
 11
61.02580953562821
 21
195.9723368586863
 31
0.0
  0
LINE
  5
4FF
102
{ACAD_REACTORS
330
4E0
102
}
330
1E
100
AcDbEntity
  8
STEMPEL
100
AcDbLine
 10
61.52580953562827
 20
192.9723368586863
 30
0.0
 11
61.02580953562821
 21
192.9723368586863
 31
0.0
  0
LINE
  5
500
102
{ACAD_REACTORS
330
4E0
102
}
330
1E
100
AcDbEntity
  8
STEMPEL
100
AcDbLine
 10
61.52580953562827
 20
195.9723368586863
 30
0.0
 11
61.52580953562827
 21
192.9723368586863
 31
0.0
  0
LINE
  5
501
102
{ACAD_REACTORS
330
4E0
102
}
330
1E
100
AcDbEntity
  8
STEMPEL
100
AcDbLine
 10
61.52580953562827
 20
210.9723368586863
 30
0.0
 11
61.02580953562821
 21
210.9723368586863
 31
0.0
  0
LINE
  5
502
102
{ACAD_REACTORS
330
4E0
102
}
330
1E
100
AcDbEntity
  8
STEMPEL
100
AcDbLine
 10
61.52580953562827
 20
207.9723368586863
 30
0.0
 11
61.02580953562821
 21
207.9723368586863
 31
0.0
  0
LINE
  5
503
102
{ACAD_REACTORS
330
4E0
102
}
330
1E
100
AcDbEntity
  8
STEMPEL
100
AcDbLine
 10
61.52580953562827
 20
207.9723368586863
 30
0.0
 11
61.52580953562827
 21
210.9723368586863
 31
0.0
  0
LINE
  5
505
102
{ACAD_REACTORS
330
4E0
102
}
330
1E
100
AcDbEntity
  8
STEMPEL
100
AcDbLine
 10
61.02580953562827
 20
237.9723368586863
 30
0.0
 11
54.02580953562838
 21
244.9723368586862
 31
0.0
  0
LINE
  5
506
102
{ACAD_REACTORS
330
4E0
102
}
330
1E
100
AcDbEntity
  8
STEMPEL
100
AcDbLine
 10
55.52580953562821
 20
247.9723368586862
 30
0.0
 11
65.52580953562821
 21
237.9723368586862
 31
0.0
  0
LINE
  5
507
102
{ACAD_REACTORS
330
4E0
102
}
330
1E
100
AcDbEntity
  8
STEMPEL
100
AcDbLine
 10
47.02580953562821
 20
253.9723368586862
 30
0.0
 11
47.02580953562821
 21
244.9723368586861
 31
0.0
  0
LINE
  5
508
102
{ACAD_REACTORS
330
4E0
102
}
330
1E
100
AcDbEntity
  8
STEMPEL
100
AcDbLine
 10
54.02580953562838
 20
244.9723368586862
 30
0.0
 11
47.02580953562821
 21
244.9723368586861
 31
0.0
  0
LINE
  5
509
102
{ACAD_REACTORS
330
4E0
102
}
330
1E
100
AcDbEntity
  8
STEMPEL
100
AcDbLine
 10
50.02580953562821
 20
253.9723368586862
 30
0.0
 11
50.02580953562818
 21
247.9723368586862
 31
0.0
  0
LINE
  5
50A
330
1E
100
AcDbEntity
  8
STEMPEL
100
AcDbLine
 10
50.82580953562825
 20
252.65977106739
 30
0.0
 11
50.82580953562825
 21
253.9723368586862
 31
0.0
  0
LINE
  5
50B
330
1E
100
AcDbEntity
  8
STEMPEL
100
AcDbLine
 10
58.27580953562824
 20
247.9723368586861
 30
0.0
 11
58.27580953562822
 21
249.9723368586861
 31
0.0
  0
LINE
  5
50C
330
1E
100
AcDbEntity
  8
MITTEL
100
AcDbLine
 10
62.52580953562818
 20
242.9723368586861
 30
0.0
 11
62.52580953562824
 21
257.4723368586862
 31
0.0
  0
LINE
  5
50D
102
{ACAD_REACTORS
330
4E0
102
}
330
1E
100
AcDbEntity
  8
STEMPEL
100
AcDbLine
 10
61.02580953562827
 20
237.9723368586863
 30
0.0
 11
61.02580953562827
 21
225.9723368586863
 31
0.0
  0
LINE
  5
50E
102
{ACAD_REACTORS
330
4E0
102
}
330
1E
100
AcDbEntity
  8
STEMPEL
100
AcDbLine
 10
61.52580953562827
 20
222.9723368586862
 30
0.0
 11
61.02580953562821
 21
222.9723368586863
 31
0.0
  0
LINE
  5
50F
102
{ACAD_REACTORS
330
4E0
102
}
330
1E
100
AcDbEntity
  8
STEMPEL
100
AcDbLine
 10
61.52580953562827
 20
225.9723368586863
 30
0.0
 11
61.02580953562821
 21
225.9723368586863
 31
0.0
  0
LINE
  5
510
102
{ACAD_REACTORS
330
4E0
102
}
330
1E
100
AcDbEntity
  8
STEMPEL
100
AcDbLine
 10
61.52580953562827
 20
225.9723368586863
 30
0.0
 11
61.52580953562827
 21
222.9723368586863
 31
0.0
  0
LINE
  5
512
330
1E
100
AcDbEntity
  8
STEMPEL
100
AcDbLine
 10
66.77580953562818
 20
247.9723368586861
 30
0.0
 11
66.77580953562818
 21
249.9723368586861
 31
0.0
  0
LINE
  5
514
102
{ACAD_REACTORS
330
4E0
102
}
330
1E
100
AcDbEntity
  8
STEMPEL
100
AcDbLine
 10
129.5258095356281
 20
237.9723368586862
 30
0.0
 11
132.0258095356281
 21
103.9723368586863
 31
0.0
  0
LINE
  5
515
102
{ACAD_REACTORS
330
4E0
102
}
330
1E
100
AcDbEntity
  8
STEMPEL
100
AcDbLine
 10
134.0258095356281
 20
222.9723368586862
 30
0.0
 11
134.0258095356281
 21
210.9723368586862
 31
0.0
  0
LINE
  5
517
102
{ACAD_REACTORS
330
4E0
102
}
330
1E
100
AcDbEntity
  8
STEMPEL
100
AcDbLine
 10
134.0258095356281
 20
132.9723368586863
 30
0.0
 11
134.0258095356281
 21
120.9723368586862
 31
0.0
  0
LINE
  5
518
102
{ACAD_REACTORS
330
4E0
102
}
330
1E
100
AcDbEntity
  8
STEMPEL
100
AcDbLine
 10
134.0258095356281
 20
117.9723368586863
 30
0.0
 11
134.0258095356281
 21
103.9723368586863
 31
0.0
  0
LINE
  5
519
102
{ACAD_REACTORS
330
4E0
102
}
330
1E
100
AcDbEntity
  8
STEMPEL
100
AcDbLine
 10
132.0258095356281
 20
103.9723368586863
 30
0.0
 11
134.0258095356281
 21
103.9723368586863
 31
0.0
  0
LINE
  5
51A
102
{ACAD_REACTORS
330
4E0
102
}
330
1E
100
AcDbEntity
  8
STEMPEL
100
AcDbLine
 10
133.5258095356281
 20
120.9723368586863
 30
0.0
 11
133.5258095356281
 21
117.9723368586863
 31
0.0
  0
LINE
  5
51B
102
{ACAD_REACTORS
330
4E0
102
}
330
1E
100
AcDbEntity
  8
STEMPEL
100
AcDbLine
 10
133.5258095356281
 20
117.9723368586863
 30
0.0
 11
134.0258095356281
 21
117.9723368586863
 31
0.0
  0
LINE
  5
51C
102
{ACAD_REACTORS
330
4E0
102
}
330
1E
100
AcDbEntity
  8
STEMPEL
100
AcDbLine
 10
133.5258095356281
 20
120.9723368586863
 30
0.0
 11
134.0258095356281
 21
120.9723368586863
 31
0.0
  0
LINE
  5
51D
102
{ACAD_REACTORS
330
4E0
102
}
330
1E
100
AcDbEntity
  8
STEMPEL
100
AcDbLine
 10
134.0258095356281
 20
177.9723368586863
 30
0.0
 11
134.0258095356281
 21
165.9723368586863
 31
0.0
  0
LINE
  5
51E
102
{ACAD_REACTORS
330
4E0
102
}
330
1E
100
AcDbEntity
  8
STEMPEL
100
AcDbLine
 10
134.0258095356281
 20
162.9723368586863
 30
0.0
 11
134.0258095356281
 21
150.9723368586863
 31
0.0
  0
LINE
  5
51F
102
{ACAD_REACTORS
330
4E0
102
}
330
1E
100
AcDbEntity
  8
STEMPEL
100
AcDbLine
 10
134.0258095356281
 20
147.9723368586863
 30
0.0
 11
134.0258095356281
 21
135.9723368586863
 31
0.0
  0
LINE
  5
520
102
{ACAD_REACTORS
330
4E0
102
}
330
1E
100
AcDbEntity
  8
STEMPEL
100
AcDbLine
 10
133.5258095356281
 20
135.9723368586862
 30
0.0
 11
133.5258095356281
 21
132.9723368586863
 31
0.0
  0
LINE
  5
521
102
{ACAD_REACTORS
330
4E0
102
}
330
1E
100
AcDbEntity
  8
STEMPEL
100
AcDbLine
 10
133.5258095356281
 20
135.9723368586863
 30
0.0
 11
134.0258095356281
 21
135.9723368586863
 31
0.0
  0
LINE
  5
522
102
{ACAD_REACTORS
330
4E0
102
}
330
1E
100
AcDbEntity
  8
STEMPEL
100
AcDbLine
 10
133.5258095356281
 20
132.9723368586863
 30
0.0
 11
134.0258095356281
 21
132.9723368586863
 31
0.0
  0
LINE
  5
523
102
{ACAD_REACTORS
330
4E0
102
}
330
1E
100
AcDbEntity
  8
STEMPEL
100
AcDbLine
 10
133.5258095356281
 20
150.9723368586862
 30
0.0
 11
133.5258095356281
 21
147.9723368586862
 31
0.0
  0
LINE
  5
524
102
{ACAD_REACTORS
330
4E0
102
}
330
1E
100
AcDbEntity
  8
STEMPEL
100
AcDbLine
 10
133.5258095356281
 20
150.9723368586862
 30
0.0
 11
134.0258095356281
 21
150.9723368586862
 31
0.0
  0
LINE
  5
525
102
{ACAD_REACTORS
330
4E0
102
}
330
1E
100
AcDbEntity
  8
STEMPEL
100
AcDbLine
 10
133.5258095356281
 20
147.9723368586862
 30
0.0
 11
134.0258095356281
 21
147.9723368586862
 31
0.0
  0
LINE
  5
526
102
{ACAD_REACTORS
330
4E0
102
}
330
1E
100
AcDbEntity
  8
STEMPEL
100
AcDbLine
 10
133.5258095356281
 20
165.9723368586863
 30
0.0
 11
133.5258095356281
 21
162.9723368586863
 31
0.0
  0
LINE
  5
527
102
{ACAD_REACTORS
330
4E0
102
}
330
1E
100
AcDbEntity
  8
STEMPEL
100
AcDbLine
 10
133.5258095356281
 20
162.9723368586863
 30
0.0
 11
134.0258095356281
 21
162.9723368586863
 31
0.0
  0
LINE
  5
528
102
{ACAD_REACTORS
330
4E0
102
}
330
1E
100
AcDbEntity
  8
STEMPEL
100
AcDbLine
 10
133.5258095356281
 20
165.9723368586863
 30
0.0
 11
134.0258095356281
 21
165.9723368586863
 31
0.0
  0
LINE
  5
529
102
{ACAD_REACTORS
330
4E0
102
}
330
1E
100
AcDbEntity
  8
STEMPEL
100
AcDbLine
 10
134.0258095356281
 20
207.9723368586863
 30
0.0
 11
134.0258095356281
 21
195.9723368586863
 31
0.0
  0
LINE
  5
52A
102
{ACAD_REACTORS
330
4E0
102
}
330
1E
100
AcDbEntity
  8
STEMPEL
100
AcDbLine
 10
134.0258095356281
 20
192.9723368586863
 30
0.0
 11
134.0258095356281
 21
180.9723368586863
 31
0.0
  0
LINE
  5
52B
102
{ACAD_REACTORS
330
4E0
102
}
330
1E
100
AcDbEntity
  8
STEMPEL
100
AcDbLine
 10
133.5258095356281
 20
180.9723368586863
 30
0.0
 11
133.5258095356281
 21
177.9723368586862
 31
0.0
  0
LINE
  5
52C
102
{ACAD_REACTORS
330
4E0
102
}
330
1E
100
AcDbEntity
  8
STEMPEL
100
AcDbLine
 10
133.5258095356281
 20
177.9723368586863
 30
0.0
 11
134.0258095356281
 21
177.9723368586862
 31
0.0
  0
LINE
  5
52D
102
{ACAD_REACTORS
330
4E0
102
}
330
1E
100
AcDbEntity
  8
STEMPEL
100
AcDbLine
 10
133.5258095356281
 20
180.9723368586863
 30
0.0
 11
134.0258095356281
 21
180.9723368586863
 31
0.0
  0
LINE
  5
52E
102
{ACAD_REACTORS
330
4E0
102
}
330
1E
100
AcDbEntity
  8
STEMPEL
100
AcDbLine
 10
133.5258095356281
 20
195.9723368586863
 30
0.0
 11
133.5258095356281
 21
192.9723368586863
 31
0.0
  0
LINE
  5
52F
102
{ACAD_REACTORS
330
4E0
102
}
330
1E
100
AcDbEntity
  8
STEMPEL
100
AcDbLine
 10
133.5258095356281
 20
192.9723368586863
 30
0.0
 11
134.0258095356281
 21
192.9723368586863
 31
0.0
  0
LINE
  5
530
102
{ACAD_REACTORS
330
4E0
102
}
330
1E
100
AcDbEntity
  8
STEMPEL
100
AcDbLine
 10
133.5258095356281
 20
195.9723368586863
 30
0.0
 11
134.0258095356281
 21
195.9723368586863
 31
0.0
  0
LINE
  5
531
102
{ACAD_REACTORS
330
4E0
102
}
330
1E
100
AcDbEntity
  8
STEMPEL
100
AcDbLine
 10
133.5258095356281
 20
207.9723368586863
 30
0.0
 11
133.5258095356281
 21
210.9723368586863
 31
0.0
  0
LINE
  5
532
102
{ACAD_REACTORS
330
4E0
102
}
330
1E
100
AcDbEntity
  8
STEMPEL
100
AcDbLine
 10
133.5258095356281
 20
207.9723368586863
 30
0.0
 11
134.0258095356281
 21
207.9723368586863
 31
0.0
  0
LINE
  5
533
102
{ACAD_REACTORS
330
4E0
102
}
330
1E
100
AcDbEntity
  8
STEMPEL
100
AcDbLine
 10
133.5258095356281
 20
210.9723368586863
 30
0.0
 11
134.0258095356281
 21
210.9723368586863
 31
0.0
  0
LINE
  5
534
102
{ACAD_REACTORS
330
4E0
102
}
330
1E
100
AcDbEntity
  8
STEMPEL
100
AcDbLine
 10
141.025809535628
 20
244.9723368586862
 30
0.0
 11
148.0258095356281
 21
244.9723368586862
 31
0.0
  0
LINE
  5
537
102
{ACAD_REACTORS
330
4E0
102
}
330
1E
100
AcDbEntity
  8
STEMPEL
100
AcDbLine
 10
139.5258095356281
 20
247.9723368586862
 30
0.0
 11
129.5258095356281
 21
237.9723368586862
 31
0.0
  0
LINE
  5
538
102
{ACAD_REACTORS
330
4E0
102
}
330
1E
100
AcDbEntity
  8
STEMPEL
100
AcDbLine
 10
134.0258095356281
 20
237.9723368586863
 30
0.0
 11
141.025809535628
 21
244.9723368586862
 31
0.0
  0
LINE
  5
539
102
{ACAD_REACTORS
330
4E0
102
}
330
1E
100
AcDbEntity
  8
STEMPEL
100
AcDbLine
 10
134.0258095356281
 20
237.9723368586863
 30
0.0
 11
134.0258095356281
 21
225.9723368586863
 31
0.0
  0
LINE
  5
53A
102
{ACAD_REACTORS
330
4E0
102
}
330
1E
100
AcDbEntity
  8
STEMPEL
100
AcDbLine
 10
133.5258095356281
 20
225.9723368586863
 30
0.0
 11
133.5258095356281
 21
222.9723368586863
 31
0.0
  0
LINE
  5
53B
102
{ACAD_REACTORS
330
4E0
102
}
330
1E
100
AcDbEntity
  8
STEMPEL
100
AcDbLine
 10
133.5258095356281
 20
225.9723368586863
 30
0.0
 11
134.0258095356281
 21
225.9723368586863
 31
0.0
  0
LINE
  5
53C
102
{ACAD_REACTORS
330
4E0
102
}
330
1E
100
AcDbEntity
  8
STEMPEL
100
AcDbLine
 10
133.5258095356281
 20
222.9723368586862
 30
0.0
 11
134.0258095356281
 21
222.9723368586863
 31
0.0
  0
LINE
  5
53E
102
{ACAD_REACTORS
330
4E0
102
}
330
1E
100
AcDbEntity
  8
STEMPEL
100
AcDbLine
 10
148.0258095356281
 20
253.9723368586862
 30
0.0
 11
148.0258095356281
 21
244.9723368586862
 31
0.0
  0
LINE
  5
53F
102
{ACAD_REACTORS
330
4E0
102
}
330
1E
100
AcDbEntity
  8
STEMPEL
100
AcDbLine
 10
145.0258095356281
 20
253.9723368586862
 30
0.0
 11
145.0258095356281
 21
247.9723368586861
 31
0.0
  0
LINE
  5
540
330
1E
100
AcDbEntity
  8
STEMPEL
100
AcDbLine
 10
144.2258095356282
 20
252.6597710673899
 30
0.0
 11
144.2258095356282
 21
253.9723368586862
 31
0.0
  0
LINE
  5
541
330
1E
100
AcDbEntity
  8
STEMPEL
100
AcDbLine
 10
134.0258095356281
 20
116.9723368586861
 30
0.0
 11
137.5258095356282
 21
116.9723368586861
 31
0.0
  0
HATCH
  5
57D
330
1E
100
AcDbEntity
  8
SCHRAFF
100
AcDbHatch
 10
0.0
 20
0.0
 30
0.0
210
0.0
220
0.0
230
1.0
  2
_USER
 70
     0
 71
     0
 91
        6
 92
        7
 72
     1
 73
     1
 93
       12
 10
61.49889760104696
 20
253.9723368586861
 42
0.0
 10
53.02580953562818
 20
253.9723368586861
 42
0.4142135623730951
 10
50.52580953562818
 20
251.4723368586861
 42
0.0
 10
50.52580953562818
 20
247.9723368586861
 42
0.0
 10
51.77580953562818
 20
247.9723368586861
 42
0.0
 10
51.77580953562818
 20
251.4723368586861
 42
-0.4142135623730951
 10
53.02580953562818
 20
252.7223368586861
 42
0.0
 10
61.49889760104698
 20
252.7223368586861
 42
-0.4142135623730934
 10
63.74889760104696
 20
250.4723368586861
 42
0.0
 10
63.74889760104697
 20
249.9723368586861
 42
0.0
 10
64.99889760104697
 20
249.9723368586861
 42
0.0
 10
64.99889760104697
 20
250.4723368586861
 42
0.4142135623730964
 97
        0
 92
        7
 72
     1
 73
     1
 93
       12
 10
79.88367391189718
 20
253.9723368586861
 42
0.0
 10
78.39839253765863
 20
253.9723368586861
 42
0.4142135623730951
 10
74.89839253765864
 20
250.4723368586861
 42
0.0
 10
74.89839253765864
 20
249.9723368586861
 42
0.0
 10
76.14839253765862
 20
249.9723368586861
 42
0.0
 10
76.14839253765865
 20
250.4723368586861
 42
-0.4142135623730934
 10
78.39839253765863
 20
252.7223368586861
 42
0.0
 10
79.88367391189719
 20
252.7223368586861
 42
-0.4142135623730934
 10
82.13367391189718
 20
250.4723368586861
 42
0.0
 10
82.13367391189718
 20
249.9723368586861
 42
0.0
 10
83.38367391189718
 20
249.9723368586861
 42
0.0
 10
83.38367391189718
 20
250.4723368586861
 42
0.4142135623730964
 97
        0
 92
        7
 72
     1
 73
     1
 93
        8
 10
97.52580953562823
 20
253.9723368586862
 42
0.0
 10
95.33342138020305
 20
253.9723368586862
 42
0.4142135623731023
 10
91.83342138020305
 20
250.4723368586861
 42
0.0
 10
91.83342138020305
 20
249.9723368586861
 42
0.0
 10
93.08342138020304
 20
249.9723368586861
 42
0.0
 10
93.08342138020305
 20
250.4723368586861
 42
-0.4142135623730934
 10
95.33342138020305
 20
252.7223368586861
 42
0.0
 10
97.52580953562823
 20
252.7223368586861
 42
0.0
 97
        0
 92
        7
 72
     1
 73
     1
 93
        8
 10
99.71819769105341
 20
253.9723368586861
 42
0.0
 10
97.52580953562819
 20
253.9723368586861
 42
0.0
 10
97.52580953562819
 20
252.7223368586861
 42
0.0
 10
99.71819769105341
 20
252.7223368586861
 42
-0.4142135623730934
 10
101.9681976910534
 20
250.4723368586861
 42
0.0
 10
101.9681976910534
 20
249.9723368586861
 42
0.0
 10
103.2181976910534
 20
249.9723368586861
 42
0.0
 10
103.2181976910534
 20
250.4723368586861
 42
0.4142135623730975
 97
        0
 92
        7
 72
     1
 73
     1
 93
       12
 10
116.6532265335978
 20
253.9723368586861
 42
0.0
 10
115.1679451593592
 20
253.9723368586861
 42
0.4142135623730985
 10
111.6679451593592
 20
250.4723368586861
 42
0.0
 10
111.6679451593592
 20
249.9723368586861
 42
0.0
 10
112.9179451593592
 20
249.9723368586861
 42
0.0
 10
112.9179451593593
 20
250.4723368586861
 42
-0.4142135623730951
 10
115.1679451593593
 20
252.7223368586861
 42
0.0
 10
116.6532265335978
 20
252.7223368586861
 42
-0.4142135623730951
 10
118.9032265335978
 20
250.4723368586861
 42
0.0
 10
118.9032265335978
 20
249.9723368586861
 42
0.0
 10
120.1532265335978
 20
249.9723368586861
 42
0.0
 10
120.1532265335978
 20
250.4723368586861
 42
0.4142135623730999
 97
        0
 92
        7
 72
     1
 73
     1
 93
       12
 10
142.0258095356282
 20
253.9723368586861
 42
0.0
 10
133.5527214702094
 20
253.9723368586861
 42
0.4142135623731022
 10
130.0527214702094
 20
250.472336858686
 42
0.0
 10
130.0527214702094
 20
249.9723368586861
 42
0.0
 10
131.3027214702095
 20
249.9723368586863
 42
0.0
 10
131.3027214702095
 20
250.472336858686
 42
-0.4142135623730951
 10
133.5527214702095
 20
252.722336858686
 42
0.0
 10
142.0258095356283
 20
252.722336858686
 42
-0.4142135623730432
 10
143.2758095356282
 20
251.4723368586861
 42
0.0
 10
143.2758095356282
 20
247.9723368586861
 42
0.0
 10
144.5258095356282
 20
247.9723368586861
 42
0.0
 10
144.5258095356282
 20
251.4723368586861
 42
0.4142135623730964
 97
        0
 75
     0
 76
     0
 52
45.0
 41
2.0
 77
     0
 78
     1
 53
45.0
 43
-13.18733923525292
 44
2.62264796775841
 45
-1.414213562373094
 46
1.414213562373095
 79
     0
 47
0.19196931903384
 98
        6
 10
59.85590478216886
 20
253.2977643253861
 10
77.53008644449756
 20
253.2977643253861
 10
96.35693289419169
 20
253.1057950730982
 10
99.04648180626077
 20
253.1057950730982
 10
115.7601097049632
 20
253.4897335776742
 10
135.3553988945443
 20
253.4897335776742
  0
LINE
  5
57E
330
1E
100
AcDbEntity
  8
STEMPEL
100
AcDbLine
 10
103.2181976910534
 20
249.9723368586861
 30
0.0
 11
103.2181976910534
 21
250.4723368586861
 31
0.0
  0
LINE
  5
57F
330
1E
100
AcDbEntity
  8
STEMPEL
100
AcDbLine
 10
111.6679451593592
 20
249.972336858686
 30
0.0
 11
111.6679451593592
 21
250.4723368586861
 31
0.0
  0
LINE
  5
580
330
1E
100
AcDbEntity
  8
STEMPEL
100
AcDbLine
 10
120.1532265335978
 20
249.972336858686
 30
0.0
 11
120.1532265335978
 21
250.4723368586861
 31
0.0
  0
LINE
  5
581
330
1E
100
AcDbEntity
  8
STEMPEL
100
AcDbLine
 10
130.0527214702094
 20
249.972336858686
 30
0.0
 11
130.0527214702094
 21
250.472336858686
 31
0.0
  0
LINE
  5
582
330
1E
100
AcDbEntity
  8
STEMPEL
100
AcDbLine
 10
139.7524689385152
 20
249.972336858686
 30
0.0
 11
139.7524689385152
 21
250.472336858686
 31
0.0
  0
ARC
  5
583
330
1E
100
AcDbEntity
  8
STEMPEL
100
AcDbCircle
 10
142.0024689385153
 20
250.472336858686
 30
0.0
 40
2.25
100
AcDbArc
 50
90.0
 51
180.0
  0
ARC
  5
584
330
1E
100
AcDbEntity
  8
STEMPEL
100
AcDbCircle
 10
133.5527214702094
 20
250.472336858686
 30
0.0
 40
2.25
100
AcDbArc
 50
90.0
 51
180.0
  0
LINE
  5
585
330
1E
100
AcDbEntity
  8
STEMPEL
100
AcDbLine
 10
131.3027214702094
 20
249.972336858686
 30
0.0
 11
131.3027214702095
 21
250.472336858686
 31
0.0
  0
LINE
  5
586
330
1E
100
AcDbEntity
  8
STEMPEL
100
AcDbLine
 10
112.9179451593592
 20
249.972336858686
 30
0.0
 11
112.9179451593593
 21
250.4723368586861
 31
0.0
  0
ARC
  5
587
330
1E
100
AcDbEntity
  8
STEMPEL
100
AcDbCircle
 10
115.1679451593592
 20
250.4723368586861
 30
0.0
 40
2.25
100
AcDbArc
 50
90.0
 51
180.0
  0
ARC
  5
588
330
1E
100
AcDbEntity
  8
STEMPEL
100
AcDbCircle
 10
116.6532265335978
 20
250.4723368586861
 30
0.0
 40
2.25
100
AcDbArc
 50
0.0
 51
90.0
  0
LINE
  5
589
330
1E
100
AcDbEntity
  8
STEMPEL
100
AcDbLine
 10
118.9032265335978
 20
249.972336858686
 30
0.0
 11
118.9032265335978
 21
250.4723368586861
 31
0.0
  0
LINE
  5
58A
330
1E
100
AcDbEntity
  8
STEMPEL
100
AcDbLine
 10
101.9681976910534
 20
249.9723368586861
 30
0.0
 11
101.9681976910534
 21
250.4723368586861
 31
0.0
  0
ARC
  5
58B
330
1E
100
AcDbEntity
  8
STEMPEL
100
AcDbCircle
 10
99.71819769105341
 20
250.4723368586861
 30
0.0
 40
2.25
100
AcDbArc
 50
0.0
 51
90.0
  0
LINE
  5
58C
330
1E
100
AcDbEntity
  8
STEMPEL
100
AcDbLine
 10
115.1679451593593
 20
252.7223368586861
 30
0.0
 11
116.6532265335978
 21
252.7223368586861
 31
0.0
  0
LINE
  5
58D
330
1E
100
AcDbEntity
  8
STEMPEL
100
AcDbLine
 10
133.5527214702095
 20
252.722336858686
 30
0.0
 11
142.0258095356283
 21
252.722336858686
 31
0.0
  0
ARC
  5
58E
330
1E
100
AcDbEntity
  8
STEMPEL
100
AcDbCircle
 10
133.5527214702094
 20
250.472336858686
 30
0.0
 40
3.5
100
AcDbArc
 50
90.0
 51
180.0
  0
ARC
  5
58F
330
1E
100
AcDbEntity
  8
STEMPEL
100
AcDbCircle
 10
116.6532265335978
 20
250.4723368586861
 30
0.0
 40
3.5
100
AcDbArc
 50
0.0
 51
90.0
  0
ARC
  5
590
330
1E
100
AcDbEntity
  8
STEMPEL
100
AcDbCircle
 10
115.1679451593592
 20
250.4723368586861
 30
0.0
 40
3.5
100
AcDbArc
 50
90.0
 51
180.0
  0
ARC
  5
591
330
1E
100
AcDbEntity
  8
STEMPEL
100
AcDbCircle
 10
99.71819769105341
 20
250.4723368586861
 30
0.0
 40
3.5
100
AcDbArc
 50
0.0
 51
90.0
  0
ARC
  5
592
330
1E
100
AcDbEntity
  8
STEMPEL
100
AcDbCircle
 10
95.33342138020305
 20
250.4723368586861
 30
0.0
 40
3.5
100
AcDbArc
 50
90.0
 51
180.0
  0
ARC
  5
593
330
1E
100
AcDbEntity
  8
STEMPEL
100
AcDbCircle
 10
79.88367391189719
 20
250.4723368586861
 30
0.0
 40
3.5
100
AcDbArc
 50
0.0
 51
90.0
  0
ARC
  5
594
330
1E
100
AcDbEntity
  8
STEMPEL
100
AcDbCircle
 10
78.39839253765863
 20
250.4723368586861
 30
0.0
 40
3.5
100
AcDbArc
 50
90.0
 51
180.0
  0
ARC
  5
595
330
1E
100
AcDbEntity
  8
STEMPEL
100
AcDbCircle
 10
61.49889760104698
 20
250.4723368586861
 30
0.0
 40
3.5
100
AcDbArc
 50
0.0
 51
90.0
  0
LINE
  5
596
330
1E
100
AcDbEntity
  8
STEMPEL
100
AcDbLine
 10
61.49889760104698
 20
252.7223368586861
 30
0.0
 11
53.02580953562818
 21
252.7223368586861
 31
0.0
  0
LINE
  5
597
330
1E
100
AcDbEntity
  8
STEMPEL
100
AcDbLine
 10
79.88367391189719
 20
252.7223368586861
 30
0.0
 11
78.39839253765863
 21
252.7223368586861
 31
0.0
  0
ARC
  5
598
330
1E
100
AcDbEntity
  8
STEMPEL
100
AcDbCircle
 10
95.33342138020305
 20
250.4723368586861
 30
0.0
 40
2.25
100
AcDbArc
 50
90.0
 51
180.0
  0
LINE
  5
599
330
1E
100
AcDbEntity
  8
STEMPEL
100
AcDbLine
 10
93.08342138020305
 20
249.9723368586861
 30
0.0
 11
93.08342138020305
 21
250.4723368586861
 31
0.0
  0
LINE
  5
59A
330
1E
100
AcDbEntity
  8
STEMPEL
100
AcDbLine
 10
76.14839253765864
 20
249.9723368586861
 30
0.0
 11
76.14839253765865
 21
250.4723368586861
 31
0.0
  0
ARC
  5
59B
330
1E
100
AcDbEntity
  8
STEMPEL
100
AcDbCircle
 10
78.39839253765863
 20
250.4723368586861
 30
0.0
 40
2.25
100
AcDbArc
 50
90.0
 51
180.0
  0
ARC
  5
59C
330
1E
100
AcDbEntity
  8
STEMPEL
100
AcDbCircle
 10
79.88367391189719
 20
250.4723368586861
 30
0.0
 40
2.25
100
AcDbArc
 50
0.0
 51
90.0
  0
LINE
  5
59D
330
1E
100
AcDbEntity
  8
STEMPEL
100
AcDbLine
 10
82.13367391189718
 20
249.9723368586861
 30
0.0
 11
82.13367391189718
 21
250.4723368586861
 31
0.0
  0
LINE
  5
59E
330
1E
100
AcDbEntity
  8
STEMPEL
100
AcDbLine
 10
63.74889760104697
 20
249.9723368586861
 30
0.0
 11
63.74889760104696
 21
250.4723368586861
 31
0.0
  0
ARC
  5
59F
330
1E
100
AcDbEntity
  8
STEMPEL
100
AcDbCircle
 10
61.49889760104698
 20
250.4723368586861
 30
0.0
 40
2.25
100
AcDbArc
 50
0.0
 51
90.0
  0
ARC
  5
5A0
330
1E
100
AcDbEntity
  8
STEMPEL
100
AcDbCircle
 10
53.04915013274118
 20
250.4723368586861
 30
0.0
 40
2.25
100
AcDbArc
 50
0.0
 51
90.0
  0
LINE
  5
5A1
330
1E
100
AcDbEntity
  8
STEMPEL
100
AcDbLine
 10
55.29915013274117
 20
249.9723368586861
 30
0.0
 11
55.29915013274116
 21
250.4723368586861
 31
0.0
  0
LINE
  5
5A2
330
1E
100
AcDbEntity
  8
STEMPEL
100
AcDbLine
 10
64.99889760104697
 20
249.9723368586861
 30
0.0
 11
64.99889760104697
 21
250.4723368586861
 31
0.0
  0
LINE
  5
5A3
330
1E
100
AcDbEntity
  8
STEMPEL
100
AcDbLine
 10
74.89839253765864
 20
249.9723368586861
 30
0.0
 11
74.89839253765864
 21
250.4723368586861
 31
0.0
  0
LINE
  5
5A4
330
1E
100
AcDbEntity
  8
STEMPEL
100
AcDbLine
 10
139.7524689385152
 20
249.9723368586861
 30
0.0
 11
55.29915013274117
 21
249.9723368586861
 31
0.0
  0
LINE
  5
5A5
330
1E
100
AcDbEntity
  8
STEMPEL
100
AcDbLine
 10
143.2758095356282
 20
247.9723368586861
 30
0.0
 11
143.2758095356282
 21
251.4723368586861
 31
0.0
  0
ARC
  5
5A6
330
1E
100
AcDbEntity
  8
STEMPEL
100
AcDbCircle
 10
142.0258095356282
 20
251.4723368586861
 30
0.0
 40
1.25
100
AcDbArc
 50
0.0
 51
90.0
  0
LINE
  5
5A7
330
1E
100
AcDbEntity
  8
STEMPEL
100
AcDbLine
 10
51.77580953562818
 20
247.9723368586861
 30
0.0
 11
51.77580953562818
 21
251.4723368586861
 31
0.0
  0
LINE
  5
5A8
330
1E
100
AcDbEntity
  8
STEMPEL
100
AcDbLine
 10
99.71819769105341
 20
252.7223368586861
 30
0.0
 11
95.33342138020305
 21
252.7223368586861
 31
0.0
  0
ARC
  5
5A9
330
1E
100
AcDbEntity
  8
STEMPEL
100
AcDbCircle
 10
53.02580953562818
 20
251.4723368586861
 30
0.0
 40
1.25
100
AcDbArc
 50
90.0
 51
180.0
  0
LINE
  5
5AA
330
1E
100
AcDbEntity
  8
STEMPEL
100
AcDbLine
 10
83.38367391189718
 20
249.9723368586861
 30
0.0
 11
83.38367391189718
 21
250.4723368586861
 31
0.0
  0
LINE
  5
5AB
330
1E
100
AcDbEntity
  8
STEMPEL
100
AcDbLine
 10
91.83342138020305
 20
249.9723368586861
 30
0.0
 11
91.83342138020305
 21
250.4723368586861
 31
0.0
  0
ARC
  5
5AC
330
1E
100
AcDbEntity
  8
STEMPEL
100
AcDbCircle
 10
53.02580953562818
 20
251.4723368586861
 30
0.0
 40
2.5
100
AcDbArc
 50
90.0
 51
180.0
  0
ARC
  5
5AD
330
1E
100
AcDbEntity
  8
STEMPEL
100
AcDbCircle
 10
142.0258095356282
 20
251.4723368586861
 30
0.0
 40
2.5
100
AcDbArc
 50
0.0
 51
90.0
  0
LINE
  5
5AE
330
1E
100
AcDbEntity
  8
STEMPEL
100
AcDbLine
 10
50.52580953562818
 20
247.9723368586861
 30
0.0
 11
50.52580953562818
 21
251.4723368586861
 31
0.0
  0
LINE
  5
5AF
330
1E
100
AcDbEntity
  8
STEMPEL
100
AcDbLine
 10
144.5258095356282
 20
247.9723368586861
 30
0.0
 11
144.5258095356282
 21
251.4723368586861
 31
0.0
  0
LWPOLYLINE
  5
5C6
330
1E
100
AcDbEntity
  8
BEM
 62
     1
100
AcDbPolyline
 90
        4
 70
     1
 43
0.0
 10
91.90020780131193
 20
269.2664924957338
 10
91.90020780131193
 20
265.7664924957337
 10
95.40020780131193
 20
265.7664924957337
 10
95.40020780131193
 20
269.2664924957338
  0
DIMENSION
  5
5C7
330
1E
100
AcDbEntity
  8
BEM
100
AcDbDimension
  2
*D2
 10
148.0258095356282
 20
264.265137289735
 30
0.0
 11
98.96216666150122
 21
264.265137289735
 31
0.0
 70
   160
  1
<>
 71
     5
 42
100.9999999999999
  3
Standard
100
AcDbAlignedDimension
 13
47.02580953562836
 23
253.9723368586862
 33
0.0
 14
148.0258095356282
 24
253.9723368586862
 34
0.0
100
AcDbRotatedDimension
1001
ACAD
1000
DSTYLE
1002
{
1070
    41
1040
3.5
1070
    42
1040
1.0
1070
    43
1040
7.0
1070
    44
1040
1.0
1070
    73
1070
     0
1070
    74
1070
     0
1070
    77
1070
     1
1070
    78
1070
     8
1070
    79
1070
     2
1070
   140
1040
3.5
1070
   141
1040
1.5
1070
   146
1040
0.5142857142857144
1070
   147
1040
1.5
1070
   172
1070
     1
1070
   178
1070
     1
1070
   179
1070
     2
1070
   271
1070
     2
1070
   272
1070
     2
1070
   284
1070
     8
1070
   285
1070
     8
1070
   286
1070
     8
1002
}
  0
DIMENSION
  5
601
330
1E
100
AcDbEntity
  8
BEM
100
AcDbDimension
  2
*D3
 10
35.16061435965503
 20
88.97233685868618
 30
0.0
 11
31.91061435965502
 21
171.4723368586862
 31
0.0
 70
    32
 71
     5
 42
165.0
  3
Standard
100
AcDbAlignedDimension
 13
47.02580953562821
 23
253.9723368586862
 33
0.0
 14
59.52580953562821
 24
88.97233685868618
 34
0.0
 50
90.0
100
AcDbRotatedDimension
1001
ACAD
1000
DSTYLE
1002
{
1070
    41
1040
3.5
1070
    42
1040
1.0
1070
    43
1040
7.0
1070
    44
1040
1.0
1070
    73
1070
     0
1070
    74
1070
     0
1070
    77
1070
     1
1070
    78
1070
     8
1070
    79
1070
     2
1070
   140
1040
3.5
1070
   141
1040
1.5
1070
   146
1040
0.5142857142857144
1070
   147
1040
1.5
1070
   172
1070
     1
1070
   178
1070
     1
1070
   179
1070
     2
1070
   271
1070
     2
1070
   272
1070
     2
1070
   284
1070
     8
1070
   285
1070
     8
1070
   286
1070
     8
1002
}
  0
LINE
  5
61E
330
1E
100
AcDbEntity
  8
TEXT
 62
     2
100
AcDbLine
 10
137.1039705406451
 20
253.417827356912
 30
0.0
 11
149.2016927208262
 21
230.9939681343646
 31
0.0
  0
LINE
  5
61F
330
1E
100
AcDbEntity
  8
TEXT
 62
     2
100
AcDbLine
 10
131.5023991829702
 20
191.2122224300807
 30
0.0
 11
147.8623720723597
 21
184.5712490974464
 31
0.0
  0
TEXT
  5
620
330
1E
100
AcDbEntity
  8
TEXT
 62
     1
100
AcDbText
 10
148.6857448316426
 20
180.2254382821318
 30
0.0
 40
3.5
  1
EDV-Art.Nr.15094.000X
 41
0.8
  7
GREEKS
100
AcDbText
  0
TEXT
  5
621
330
1E
100
AcDbEntity
  8
TEXT
 62
     1
100
AcDbText
 10
148.6857448316426
 20
185.9986562184739
 30
0.0
 40
3.5
  1
Siebaufnahme
 41
0.8
  7
GREEKS
100
AcDbText
  0
TEXT
  5
622
330
1E
100
AcDbEntity
  8
TEXT
 62
     1
100
AcDbText
 10
150.265468958457
 20
226.2918461295459
 30
0.0
 40
3.5
  1
EDV-Art-Nr.15096.000X
 41
0.8
  7
GREEKS
100
AcDbText
  0
TEXT
  5
623
330
1E
100
AcDbEntity
  8
TEXT
 62
     1
100
AcDbText
 10
150.265468958457
 20
232.455259777488
 30
0.0
 40
3.5
  1
Edelstahlsieb
 41
0.8
  7
GREEKS
100
AcDbText
  0
LINE
  5
624
330
1E
100
AcDbEntity
  8
TEXT
 62
     2
100
AcDbLine
 10
147.8623720723597
 20
184.5712490974464
 30
0.0
 11
198.551017350442
 21
184.5712490974464
 31
0.0
  0
LINE
  5
625
330
1E
100
AcDbEntity
  8
TEXT
 62
     2
100
AcDbLine
 10
149.2016927208262
 20
230.9939681343646
 30
0.0
 11
201.9627597036216
 21
230.9939681343646
 31
0.0
  0
LINE
  5
626
330
1E
100
AcDbEntity
  8
TEXT
 62
     2
100
AcDbLine
 10
136.5236638580431
 20
111.8834777927796
 30
0.0
 11
149.9059746020244
 21
123.4754635765186
 31
0.0
  0
TEXT
  5
627
330
1E
100
AcDbEntity
  8
TEXT
 62
     1
100
AcDbText
 10
150.4110776757203
 20
118.8435551285935
 30
0.0
 40
3.5
  1
EDV-Art.Nr.19098.000X
 41
0.8
  7
GREEKS
100
AcDbText
  0
TEXT
  5
628
330
1E
100
AcDbEntity
  8
TEXT
 62
     1
100
AcDbText
 10
150.4110776757203
 20
125.0888969669484
 30
0.0
 40
3.5
  1
Entwässerungsring
 41
0.8
  7
GREEKS
100
AcDbText
  0
LINE
  5
629
330
1E
100
AcDbEntity
  8
TEXT
 62
     2
100
AcDbLine
 10
149.9059746020244
 20
123.4754635765186
 30
0.0
 11
200.9562387257449
 21
123.4754635765186
 31
0.0
  0
ENDSEC
  0
SECTION
  2
OBJECTS
  0
DICTIONARY
  5
C
330
0
100
AcDbDictionary
281
     1
  3
ACAD_COLOR
350
DF
  3
ACAD_GROUP
350
D
  3
ACAD_LAYOUT
350
19
  3
ACAD_MATERIAL
350
DE
  3
ACAD_MLINESTYLE
350
16
  3
ACAD_PLOTSETTINGS
350
18
  3
ACAD_PLOTSTYLENAME
350
E
  3
AcDbVariableDictionary
350
EA
  0
DICTIONARY
  5
A0
330
1E
100
AcDbDictionary
280
     1
281
     1
  3
ACAD_LAYOUTSELFREF
360
D4
  0
DICTIONARY
  5
A2
330
1A
100
AcDbDictionary
280
     1
281
     1
  3
ACAD_LAYOUTSELFREF
360
D3
  0
DICTIONARY
  5
DF
102
{ACAD_REACTORS
330
C
102
}
330
C
100
AcDbDictionary
281
     1
  0
DICTIONARY
  5
D
102
{ACAD_REACTORS
330
C
102
}
330
C
100
AcDbDictionary
281
     1
  0
DICTIONARY
  5
19
102
{ACAD_REACTORS
330
C
102
}
330
C
100
AcDbDictionary
281
     1
  3
Layout1
350
1D
  3
Model
350
21
  0
DICTIONARY
  5
DE
102
{ACAD_REACTORS
330
C
102
}
330
C
100
AcDbDictionary
281
     1
  0
DICTIONARY
  5
16
102
{ACAD_REACTORS
330
C
102
}
330
C
100
AcDbDictionary
281
     1
  3
Standard
350
17
  0
DICTIONARY
  5
18
102
{ACAD_REACTORS
330
C
102
}
330
C
100
AcDbDictionary
281
     1
  0
ACDBDICTIONARYWDFLT
  5
E
102
{ACAD_REACTORS
330
C
102
}
330
C
100
AcDbDictionary
281
     1
  3
Normal
350
F
100
AcDbDictionaryWithDefault
340
F
  0
DICTIONARY
  5
EA
102
{ACAD_REACTORS
330
C
102
}
330
C
100
AcDbDictionary
281
     1
  3
DIMASSOC
350
EB
  3
PROJECTNAME
350
EC
  0
XRECORD
  5
D4
102
{ACAD_REACTORS
330
A0
102
}
330
A0
100
AcDbXrecord
280
     1
340
1E
  0
XRECORD
  5
D3
102
{ACAD_REACTORS
330
A2
102
}
330
A2
100
AcDbXrecord
280
     1
340
1A
  0
LAYOUT
  5
1D
102
{ACAD_REACTORS
330
19
102
}
330
19
100
AcDbPlotSettings
  1

  2
\\NT_WORK01\HP LaserJet 5000 PCL 6
  4

  6

 40
0.0
 41
0.0
 42
0.0
 43
0.0
 44
0.0
 45
0.0
 46
0.0
 47
0.0
 48
0.0
 49
0.0
140
0.0
141
0.0
142
1.0
143
1.0
 70
   688
 72
     0
 73
     0
 74
     5
  7

 75
    16
147
1.0
 76
     0
 77
     2
 78
   300
148
0.0
149
0.0
100
AcDbLayout
  1
Layout1
 70
     0
 71
     1
 10
0.0
 20
0.0
 11
12.0
 21
9.0
 12
0.0
 22
0.0
 32
0.0
 14
1.000000000000000E+20
 24
1.000000000000000E+20
 34
1.000000000000000E+20
 15
-1.000000000000000E+20
 25
-1.000000000000000E+20
 35
-1.000000000000000E+20
146
0.0
 13
0.0
 23
0.0
 33
0.0
 16
1.0
 26
0.0
 36
0.0
 17
0.0
 27
1.0
 37
0.0
 76
     0
330
1A
  0
LAYOUT
  5
21
102
{ACAD_REACTORS
330
19
102
}
330
19
100
AcDbPlotSettings
  1

  2
none_device
  4
Letter_(8.50_x_11.00_Inches)
  6

 40
6.349999904632568
 41
6.349999904632568
 42
6.350006103515625
 43
6.350006103515625
 44
215.8999938964844
 45
279.3999938964844
 46
0.0
 47
0.0
 48
0.0
 49
0.0
140
0.0
141
0.0
142
1.0
143
1.0
 70
 11952
 72
     0
 73
     1
 74
     0
  7

 75
     0
147
1.0
 76
     0
 77
     2
 78
   300
148
1135.475281806579
149
30.57521748831097
100
AcDbLayout
  1
Model
 70
     1
 71
     0
 10
0.0
 20
0.0
 11
12.0
 21
9.0
 12
0.0
 22
0.0
 32
0.0
 14
0.0
 24
0.0
 34
0.0
 15
0.0
 25
0.0
 35
0.0
146
0.0
 13
0.0
 23
0.0
 33
0.0
 16
1.0
 26
0.0
 36
0.0
 17
0.0
 27
1.0
 37
0.0
 76
     0
330
1E
  0
MLINESTYLE
  5
17
102
{ACAD_REACTORS
330
16
102
}
330
16
100
AcDbMlineStyle
  2
STANDARD
 70
     0
  3

 62
   256
 51
90.0
 52
90.0
 71
     2
 49
0.5
 62
   256
  6
BYLAYER
 49
-0.5
 62
   256
  6
BYLAYER
  0
ACDBPLACEHOLDER
  5
F
102
{ACAD_REACTORS
330
E
102
}
330
E
  0
DICTIONARYVAR
  5
EB
102
{ACAD_REACTORS
330
EA
102
}
330
EA
100
DictionaryVariables
280
     0
  1
1
  0
DICTIONARYVAR
  5
EC
102
{ACAD_REACTORS
330
EA
102
}
330
EA
100
DictionaryVariables
280
     0
  1

  0
ENDSEC
  0
EOF
