  0
SECTION
  2
HEADER
  9
$ACADVER
  1
AC1018
  9
$ACADMAINTVER
 70
     2
  9
$DWGCODEPAGE
  3
ANSI_1252
  9
$INSBASE
 10
0.0
 20
0.0
 30
0.0
  9
$EXTMIN
 10
-0.0064041928749248
 20
-0.0090573584946014
 30
-0.0000000000112498
  9
$EXTMAX
 10
420.0064100605654
 20
594.0090656570857
 30
0.0000000000002956
  9
$LIMMIN
 10
0.0
 20
0.0
  9
$LIMMAX
 10
419.9999999999999
 20
594.0
  9
$ORTHOMODE
 70
     1
  9
$REGENMODE
 70
     1
  9
$FILLMODE
 70
     1
  9
$QTEXTMODE
 70
     0
  9
$MIRRTEXT
 70
     1
  9
$LTSCALE
 40
20.0
  9
$ATTMODE
 70
     1
  9
$TEXTSIZE
 40
3.5
  9
$TRACEWID
 40
0.5
  9
$TEXTSTYLE
  7
STANDARD
  9
$CLAYER
  8
BEM
  9
$CELTYPE
  6
ByLayer
  9
$CECOLOR
 62
   256
  9
$CELTSCALE
 40
1.0
  9
$DISPSILH
 70
     0
  9
$DIMSCALE
 40
2.0
  9
$DIMASZ
 40
3.5
  9
$DIMEXO
 40
1.0
  9
$DIMDLI
 40
7.0
  9
$DIMRND
 40
0.0
  9
$DIMDLE
 40
0.0
  9
$DIMEXE
 40
1.0
  9
$DIMTP
 40
0.0
  9
$DIMTM
 40
0.0
  9
$DIMTXT
 40
3.5
  9
$DIMCEN
 40
1.5
  9
$DIMTSZ
 40
0.0
  9
$DIMTOL
 70
     0
  9
$DIMLIM
 70
     0
  9
$DIMTIH
 70
     0
  9
$DIMTOH
 70
     0
  9
$DIMSE1
 70
     0
  9
$DIMSE2
 70
     0
  9
$DIMTAD
 70
     1
  9
$DIMZIN
 70
     8
  9
$DIMBLK
  1

  9
$DIMASO
 70
     1
  9
$DIMSHO
 70
     0
  9
$DIMPOST
  1

  9
$DIMAPOST
  1

  9
$DIMALT
 70
     0
  9
$DIMALTD
 70
     2
  9
$DIMALTF
 40
25.4
  9
$DIMLFAC
 40
1.0
  9
$DIMTOFL
 70
     1
  9
$DIMTVP
 40
0.0
  9
$DIMTIX
 70
     0
  9
$DIMSOXD
 70
     0
  9
$DIMSAH
 70
     0
  9
$DIMBLK1
  1

  9
$DIMBLK2
  1

  9
$DIMSTYLE
  2
Standard
  9
$DIMCLRD
 70
     0
  9
$DIMCLRE
 70
     0
  9
$DIMCLRT
 70
     1
  9
$DIMTFAC
 40
0.5142857142857144
  9
$DIMGAP
 40
1.5
  9
$DIMJUST
 70
     0
  9
$DIMSD1
 70
     0
  9
$DIMSD2
 70
     0
  9
$DIMTOLJ
 70
     1
  9
$DIMTZIN
 70
     8
  9
$DIMALTZ
 70
     8
  9
$DIMALTTZ
 70
     8
  9
$DIMUPT
 70
     0
  9
$DIMDEC
 70
     2
  9
$DIMTDEC
 70
     2
  9
$DIMALTU
 70
     2
  9
$DIMALTTD
 70
     2
  9
$DIMTXSTY
  7
STANDARD
  9
$DIMAUNIT
 70
     0
  9
$DIMADEC
 70
     2
  9
$DIMALTRND
 40
0.0
  9
$DIMAZIN
 70
     2
  9
$DIMDSEP
 70
    46
  9
$DIMATFIT
 70
     3
  9
$DIMFRAC
 70
     0
  9
$DIMLDRBLK
  1

  9
$DIMLUNIT
 70
     2
  9
$DIMLWD
 70
    -2
  9
$DIMLWE
 70
    -2
  9
$DIMTMOVE
 70
     0
  9
$LUNITS
 70
     2
  9
$LUPREC
 70
     2
  9
$SKETCHINC
 40
1.0
  9
$FILLETRAD
 40
0.0
  9
$AUNITS
 70
     0
  9
$AUPREC
 70
     0
  9
$MENU
  1
ACAD
  9
$ELEVATION
 40
0.0
  9
$PELEVATION
 40
0.0
  9
$THICKNESS
 40
0.0
  9
$LIMCHECK
 70
     0
  9
$CHAMFERA
 40
0.0
  9
$CHAMFERB
 40
0.0
  9
$CHAMFERC
 40
0.0
  9
$CHAMFERD
 40
0.0
  9
$SKPOLY
 70
     0
  9
$TDCREATE
 40
2455397.864709028
  9
$TDUCREATE
 40
2455397.781375695
  9
$TDUPDATE
 40
2455469.450903206
  9
$TDUUPDATE
 40
2455469.367569873
  9
$TDINDWG
 40
0.0416927431
  9
$TDUSRTIMER
 40
0.0416927431
  9
$USRTIMER
 70
     1
  9
$ANGBASE
 50
0.0
  9
$ANGDIR
 70
     0
  9
$PDMODE
 70
     0
  9
$PDSIZE
 40
0.0
  9
$PLINEWID
 40
0.0
  9
$SPLFRAME
 70
     0
  9
$SPLINETYPE
 70
     6
  9
$SPLINESEGS
 70
     8
  9
$HANDSEED
  5
A60
  9
$SURFTAB1
 70
     6
  9
$SURFTAB2
 70
     6
  9
$SURFTYPE
 70
     6
  9
$SURFU
 70
     6
  9
$SURFV
 70
     6
  9
$UCSBASE
  2

  9
$UCSNAME
  2

  9
$UCSORG
 10
0.0
 20
0.0
 30
0.0
  9
$UCSXDIR
 10
1.0
 20
0.0
 30
0.0
  9
$UCSYDIR
 10
0.0
 20
1.0
 30
0.0
  9
$UCSORTHOREF
  2

  9
$UCSORTHOVIEW
 70
     0
  9
$UCSORGTOP
 10
0.0
 20
0.0
 30
0.0
  9
$UCSORGBOTTOM
 10
0.0
 20
0.0
 30
0.0
  9
$UCSORGLEFT
 10
0.0
 20
0.0
 30
0.0
  9
$UCSORGRIGHT
 10
0.0
 20
0.0
 30
0.0
  9
$UCSORGFRONT
 10
0.0
 20
0.0
 30
0.0
  9
$UCSORGBACK
 10
0.0
 20
0.0
 30
0.0
  9
$PUCSBASE
  2

  9
$PUCSNAME
  2

  9
$PUCSORG
 10
0.0
 20
0.0
 30
0.0
  9
$PUCSXDIR
 10
1.0
 20
0.0
 30
0.0
  9
$PUCSYDIR
 10
0.0
 20
1.0
 30
0.0
  9
$PUCSORTHOREF
  2

  9
$PUCSORTHOVIEW
 70
     0
  9
$PUCSORGTOP
 10
0.0
 20
0.0
 30
0.0
  9
$PUCSORGBOTTOM
 10
0.0
 20
0.0
 30
0.0
  9
$PUCSORGLEFT
 10
0.0
 20
0.0
 30
0.0
  9
$PUCSORGRIGHT
 10
0.0
 20
0.0
 30
0.0
  9
$PUCSORGFRONT
 10
0.0
 20
0.0
 30
0.0
  9
$PUCSORGBACK
 10
0.0
 20
0.0
 30
0.0
  9
$USERI1
 70
     0
  9
$USERI2
 70
     0
  9
$USERI3
 70
     0
  9
$USERI4
 70
     0
  9
$USERI5
 70
     0
  9
$USERR1
 40
0.0
  9
$USERR2
 40
0.0
  9
$USERR3
 40
0.0
  9
$USERR4
 40
0.0
  9
$USERR5
 40
0.0
  9
$WORLDVIEW
 70
     1
  9
$SHADEDGE
 70
     3
  9
$SHADEDIF
 70
    70
  9
$TILEMODE
 70
     1
  9
$MAXACTVP
 70
    16
  9
$PINSBASE
 10
0.0
 20
0.0
 30
0.0
  9
$PLIMCHECK
 70
     0
  9
$PEXTMIN
 10
1.000000000000000E+20
 20
1.000000000000000E+20
 30
1.000000000000000E+20
  9
$PEXTMAX
 10
-1.000000000000000E+20
 20
-1.000000000000000E+20
 30
-1.000000000000000E+20
  9
$PLIMMIN
 10
0.0
 20
0.0
  9
$PLIMMAX
 10
12.0
 20
9.0
  9
$UNITMODE
 70
     0
  9
$VISRETAIN
 70
     0
  9
$PLINEGEN
 70
     0
  9
$PSLTSCALE
 70
     0
  9
$TREEDEPTH
 70
  3020
  9
$CMLSTYLE
  2
Standard
  9
$CMLJUST
 70
     0
  9
$CMLSCALE
 40
1.0
  9
$PROXYGRAPHICS
 70
     1
  9
$MEASUREMENT
 70
     0
  9
$CELWEIGHT
370
    -1
  9
$ENDCAPS
280
     0
  9
$JOINSTYLE
280
     0
  9
$LWDISPLAY
290
     0
  9
$INSUNITS
 70
     0
  9
$HYPERLINKBASE
  1

  9
$STYLESHEET
  1
monochrome 1.ctb
  9
$XEDIT
290
     1
  9
$CEPSNTYPE
380
     0
  9
$PSTYLEMODE
290
     1
  9
$FINGERPRINTGUID
  2
{D68B0D02-A558-11D7-B632-000102183313}
  9
$VERSIONGUID
  2
{3CDA8CB5-9325-474C-A1CA-4192AF6DAE71}
  9
$EXTNAMES
290
     1
  9
$PSVPSCALE
 40
0.0
  9
$OLESTARTUP
290
     0
  9
$SORTENTS
280
   127
  9
$INDEXCTL
280
     0
  9
$HIDETEXT
280
     0
  9
$XCLIPFRAME
290
     0
  9
$HALOGAP
280
     0
  9
$OBSCOLOR
 70
   257
  9
$OBSLTYPE
280
     0
  9
$INTERSECTIONDISPLAY
280
     0
  9
$INTERSECTIONCOLOR
 70
   257
  9
$DIMASSOC
280
     1
  9
$PROJECTNAME
  1

  0
ENDSEC
  0
SECTION
  2
CLASSES
  0
CLASS
  1
ACDBDICTIONARYWDFLT
  2
AcDbDictionaryWithDefault
  3
ObjectDBX Classes
 90
        0
 91
        1
280
     0
281
     0
  0
CLASS
  1
DICTIONARYVAR
  2
AcDbDictionaryVar
  3
ObjectDBX Classes
 90
        0
 91
        2
280
     0
281
     0
  0
ENDSEC
  0
SECTION
  2
TABLES
  0
TABLE
  2
VPORT
  5
8
330
0
100
AcDbSymbolTable
 70
     2
  0
VPORT
  5
A5F
330
8
100
AcDbSymbolTableRecord
100
AcDbViewportTableRecord
  2
*Active
 70
     0
 10
0.0
 20
0.0
 11
1.0
 21
1.0
 12
210.0000029338453
 22
297.0000041492956
 13
0.0
 23
0.0
 14
1.0
 24
1.0
 15
10.0
 25
10.0
 16
0.0
 26
0.0
 36
1.0
 17
0.0
 27
0.0
 37
0.0
 40
598.8150392175905
 41
1.336927223719676
 42
50.0
 43
0.0
 44
0.0
 50
0.0
 51
0.0
 71
     0
 72
  1500
 73
     1
 74
     0
 75
     0
 76
     0
 77
     0
 78
     0
281
     0
 65
     1
110
0.0
120
0.0
130
0.0
111
1.0
121
0.0
131
0.0
112
0.0
122
1.0
132
0.0
 79
     0
146
0.0
  0
ENDTAB
  0
TABLE
  2
LTYPE
  5
5
330
0
100
AcDbSymbolTable
 70
     2
  0
LTYPE
  5
13
330
5
100
AcDbSymbolTableRecord
100
AcDbLinetypeTableRecord
  2
ByBlock
 70
     0
  3

 72
    65
 73
     0
 40
0.0
  0
LTYPE
  5
14
330
5
100
AcDbSymbolTableRecord
100
AcDbLinetypeTableRecord
  2
ByLayer
 70
     0
  3

 72
    65
 73
     0
 40
0.0
  0
LTYPE
  5
15
330
5
100
AcDbSymbolTableRecord
100
AcDbLinetypeTableRecord
  2
Continuous
 70
     0
  3
Solid line
 72
    65
 73
     0
 40
0.0
  0
LTYPE
  5
25
330
5
100
AcDbSymbolTableRecord
100
AcDbLinetypeTableRecord
  2
STRICHPUNKT
 70
     0
  3
__ . __ . __ . __ . __ . __ . __ . __ . __ . __
 72
    65
 73
     4
 40
1.0
 49
0.5
 74
     0
 49
-0.25
 74
     0
 49
0.0
 74
     0
 49
-0.25
 74
     0
  0
ENDTAB
  0
TABLE
  2
LAYER
  5
2
330
0
100
AcDbSymbolTable
 70
     9
  0
LAYER
  5
10
330
2
100
AcDbSymbolTableRecord
100
AcDbLayerTableRecord
  2
0
 70
     0
 62
     7
  6
Continuous
370
    -3
390
F
  0
LAYER
  5
2A
330
2
100
AcDbSymbolTableRecord
100
AcDbLayerTableRecord
  2
VOLL
 70
     0
 62
     1
  6
Continuous
370
    -3
390
F
  0
LAYER
  5
2B
330
2
100
AcDbSymbolTableRecord
100
AcDbLayerTableRecord
  2
HILF
 70
     0
 62
     2
  6
Continuous
370
    -3
390
F
  0
LAYER
  5
2C
330
2
100
AcDbSymbolTableRecord
100
AcDbLayerTableRecord
  2
MITTEL
 70
     0
 62
     2
  6
STRICHPUNKT
370
    -3
390
F
  0
LAYER
  5
2F
330
2
100
AcDbSymbolTableRecord
100
AcDbLayerTableRecord
  2
BEM
 70
     0
 62
     7
  6
Continuous
370
    -3
390
F
  0
LAYER
  5
30
330
2
100
AcDbSymbolTableRecord
100
AcDbLayerTableRecord
  2
STEMPEL
 70
     0
 62
     3
  6
Continuous
370
    -3
390
F
  0
LAYER
  5
31
330
2
100
AcDbSymbolTableRecord
100
AcDbLayerTableRecord
  2
TEXT
 70
     0
 62
     7
  6
Continuous
370
    -3
390
F
  0
LAYER
  5
34D
330
2
100
AcDbSymbolTableRecord
100
AcDbLayerTableRecord
  2
SCHRAFF
 70
     0
 62
     7
  6
Continuous
370
    -3
390
F
  0
LAYER
  5
34E
330
2
100
AcDbSymbolTableRecord
100
AcDbLayerTableRecord
  2
DEFPOINTS
 70
     0
 62
     7
  6
Continuous
290
     0
370
    -3
390
F
  0
ENDTAB
  0
TABLE
  2
STYLE
  5
3
330
0
100
AcDbSymbolTable
 70
     2
  0
STYLE
  5
11
330
3
100
AcDbSymbolTableRecord
100
AcDbTextStyleTableRecord
  2
STANDARD
 70
     0
 40
0.0
 41
0.8
 50
0.0
 71
     0
 42
3.5
  3
simplex.shx
  4

  0
STYLE
  5
24
330
3
100
AcDbSymbolTableRecord
100
AcDbTextStyleTableRecord
  2
GREEKS
 70
     0
 40
0.0
 41
0.8
 50
0.0
 71
     0
 42
2.5
  3
SIMPLEX.shx
  4

  0
ENDTAB
  0
TABLE
  2
VIEW
  5
6
330
0
100
AcDbSymbolTable
 70
     0
  0
ENDTAB
  0
TABLE
  2
UCS
  5
7
330
0
100
AcDbSymbolTable
 70
     0
  0
ENDTAB
  0
TABLE
  2
APPID
  5
9
330
0
100
AcDbSymbolTable
 70
     1
  0
APPID
  5
12
330
9
100
AcDbSymbolTableRecord
100
AcDbRegAppTableRecord
  2
ACAD
 70
     0
  0
ENDTAB
  0
TABLE
  2
DIMSTYLE
  5
A
330
0
100
AcDbSymbolTable
 70
     1
100
AcDbDimStyleTable
 71
     1
340
9D
  0
DIMSTYLE
105
9D
102
{ACAD_REACTORS
330
3F7
330
97E
330
9B2
330
9BF
330
9CC
102
}
330
A
100
AcDbSymbolTableRecord
100
AcDbDimStyleTableRecord
  2
Standard
 70
     0
340
11
  0
ENDTAB
  0
TABLE
  2
BLOCK_RECORD
  5
1
330
0
100
AcDbSymbolTable
 70
     6
  0
BLOCK_RECORD
  5
1E
102
{ACAD_XDICTIONARY
360
A0
102
}
330
1
100
AcDbSymbolTableRecord
100
AcDbBlockTableRecord
  2
*Model_Space
340
21
  0
BLOCK_RECORD
  5
1A
102
{ACAD_XDICTIONARY
360
A2
102
}
330
1
100
AcDbSymbolTableRecord
100
AcDbBlockTableRecord
  2
*Paper_Space
340
1D
  0
BLOCK_RECORD
  5
22
330
1
100
AcDbSymbolTableRecord
100
AcDbBlockTableRecord
  2
LOGO
340
0
102
{BLKREFS
331
9B
102
}
  0
BLOCK_RECORD
  5
49E
330
1
100
AcDbSymbolTableRecord
100
AcDbBlockTableRecord
  2
*D1
340
0
  0
BLOCK_RECORD
  5
97F
330
1
100
AcDbSymbolTableRecord
100
AcDbBlockTableRecord
  2
*D2
340
0
  0
BLOCK_RECORD
  5
9B3
330
1
100
AcDbSymbolTableRecord
100
AcDbBlockTableRecord
  2
*D3
340
0
  0
BLOCK_RECORD
  5
9C0
330
1
100
AcDbSymbolTableRecord
100
AcDbBlockTableRecord
  2
*D4
340
0
  0
BLOCK_RECORD
  5
9CD
330
1
100
AcDbSymbolTableRecord
100
AcDbBlockTableRecord
  2
*D5
340
0
  0
ENDTAB
  0
ENDSEC
  0
SECTION
  2
BLOCKS
  0
BLOCK
  5
35
330
1E
100
AcDbEntity
  8
0
100
AcDbBlockBegin
  2
*Model_Space
 70
     0
 10
0.0
 20
0.0
 30
0.0
  3
*Model_Space
  1

  0
ENDBLK
  5
36
330
1E
100
AcDbEntity
  8
0
100
AcDbBlockEnd
  0
BLOCK
  5
33
330
1A
100
AcDbEntity
 67
     1
  8
0
100
AcDbBlockBegin
  2
*Paper_Space
 70
     0
 10
0.0
 20
0.0
 30
0.0
  3
*Paper_Space
  1

  0
ENDBLK
  5
34
330
1A
100
AcDbEntity
 67
     1
  8
0
100
AcDbBlockEnd
  0
BLOCK
  5
37
330
22
100
AcDbEntity
  8
0
100
AcDbBlockBegin
  2
LOGO
 70
     0
 10
0.0
 20
0.0
 30
0.0
  3
LOGO
  1

  0
ARC
  5
38
330
22
100
AcDbEntity
  8
0
100
AcDbCircle
 10
11.59973089678112
 20
-9.271599258481501
 30
0.0
 40
4.5
100
AcDbArc
 50
270.0
 51
231.0575587310159
  0
LINE
  5
39
330
22
100
AcDbEntity
  8
0
100
AcDbLine
 10
3.599730896781125
 20
-4.771599258481529
 30
0.0
 11
3.599730896781153
 21
-11.77159925848133
 31
0.0
  0
LINE
  5
3A
330
22
100
AcDbEntity
  8
0
100
AcDbLine
 10
2.599730896781125
 20
-4.771599258481529
 30
0.0
 11
2.599730896781153
 21
-11.77159925848133
 31
0.0
  0
CIRCLE
  5
3B
330
22
100
AcDbEntity
  8
0
100
AcDbCircle
 10
11.59973089678112
 20
-9.271599258481501
 30
0.0
 40
3.5
  0
ARC
  5
3C
330
22
100
AcDbEntity
  8
0
100
AcDbCircle
 10
31.59973089678115
 20
-9.271599258481472
 30
0.0
 40
4.5
100
AcDbArc
 50
270.0
 51
231.0575587310182
  0
LINE
  5
3D
330
22
100
AcDbEntity
  8
0
100
AcDbLine
 10
17.59973089678112
 20
-4.771599258481472
 30
0.0
 11
17.59973089678115
 21
-13.77159925848147
 31
0.0
  0
ARC
  5
3E
330
22
100
AcDbEntity
  8
0
100
AcDbCircle
 10
22.59973089678116
 20
-7.271599258481472
 30
0.0
 40
2.5
100
AcDbArc
 50
293.1161887722295
 51
90.0
  0
CIRCLE
  5
3F
330
22
100
AcDbEntity
  8
0
100
AcDbCircle
 10
31.59973089678115
 20
-9.271599258481472
 30
0.0
 40
3.5
  0
ARC
  5
40
330
22
100
AcDbEntity
  8
0
100
AcDbCircle
 10
4.599730896781153
 20
-11.77159925848133
 30
0.0
 40
1.0
100
AcDbArc
 50
180.0
 51
270.0
  0
ARC
  5
41
330
22
100
AcDbEntity
  8
0
100
AcDbCircle
 10
4.599730896781153
 20
-11.77159925848133
 30
0.0
 40
2.0
100
AcDbArc
 50
179.9999999999992
 51
270.0
  0
LINE
  5
42
330
22
100
AcDbEntity
  8
0
100
AcDbLine
 10
11.59973089678115
 20
-13.77159925848144
 30
0.0
 11
4.599730896781153
 21
-13.77159925848147
 31
0.0
  0
LINE
  5
43
330
22
100
AcDbEntity
  8
0
100
AcDbLine
 10
8.771303772034769
 20
-12.77159925848136
 30
0.0
 11
4.599730896781153
 21
-12.77159925848133
 31
0.0
  0
LINE
  5
44
330
22
100
AcDbEntity
  8
0
100
AcDbLine
 10
31.59973089678115
 20
-13.77159925848147
 30
0.0
 11
23.6715276665056
 21
-13.77159925848144
 31
0.0
  0
LINE
  5
45
330
22
100
AcDbEntity
  8
0
100
AcDbLine
 10
23.56565672307022
 20
-9.51278021337896
 30
0.0
 11
24.4388546544846
 21
-12.77159925848144
 31
0.0
  0
LINE
  5
46
330
22
100
AcDbEntity
  8
0
100
AcDbLine
 10
22.59973089678116
 20
-9.771599258481472
 30
0.0
 11
18.59973089678112
 21
-9.771599258481472
 31
0.0
  0
LINE
  5
47
330
22
100
AcDbEntity
  8
0
100
AcDbLine
 10
18.59973089678115
 20
-13.77159925848144
 30
0.0
 11
17.59973089678115
 21
-13.77159925848144
 31
0.0
  0
LINE
  5
48
330
22
100
AcDbEntity
  8
0
100
AcDbLine
 10
18.59973089678115
 20
-9.771599258481472
 30
0.0
 11
18.59973089678115
 21
-13.77159925848144
 31
0.0
  0
LINE
  5
49
330
22
100
AcDbEntity
  8
0
100
AcDbLine
 10
22.59973089678116
 20
-9.771599258481472
 30
0.0
 11
23.67152766650562
 21
-13.77159925848147
 31
0.0
  0
ARC
  5
4A
330
22
100
AcDbEntity
  8
0
100
AcDbCircle
 10
22.59973089678116
 20
-7.271599258481472
 30
0.0
 40
2.5
100
AcDbArc
 50
270.0
 51
270.0000000000007
  0
LINE
  5
4B
330
22
100
AcDbEntity
  8
0
100
AcDbLine
 10
28.77130377203494
 20
-12.77159925848147
 30
0.0
 11
24.43885465448463
 21
-12.77159925848144
 31
0.0
  0
LINE
  5
4C
330
22
100
AcDbEntity
  8
0
100
AcDbLine
 10
3.599730896781125
 20
-4.771599258481472
 30
0.0
 11
2.599730896781125
 21
-4.771599258481472
 31
0.0
  0
LINE
  5
4D
330
22
100
AcDbEntity
  8
0
100
AcDbLine
 10
22.59973089678116
 20
-8.771599258481472
 30
0.0
 11
18.59973089678115
 21
-8.771599258481472
 31
0.0
  0
LINE
  5
4E
330
22
100
AcDbEntity
  8
0
100
AcDbLine
 10
22.59973089678116
 20
-5.771599258481472
 30
0.0
 11
18.59973089678115
 21
-5.771599258481472
 31
0.0
  0
LINE
  5
4F
330
22
100
AcDbEntity
  8
0
100
AcDbLine
 10
22.59973089678116
 20
-4.771599258481472
 30
0.0
 11
17.59973089678115
 21
-4.771599258481472
 31
0.0
  0
LINE
  5
50
330
22
100
AcDbEntity
  8
0
100
AcDbLine
 10
18.59973089678115
 20
-5.771599258481472
 30
0.0
 11
18.59973089678115
 21
-8.771599258481472
 31
0.0
  0
ARC
  5
51
330
22
100
AcDbEntity
  8
0
100
AcDbCircle
 10
22.59973089678116
 20
-7.271599258481472
 30
0.0
 40
1.5
100
AcDbArc
 50
270.0
 51
90.0
  0
ENDBLK
  5
52
330
22
100
AcDbEntity
  8
0
100
AcDbBlockEnd
  0
BLOCK
  5
4A9
330
49E
100
AcDbEntity
  8
0
100
AcDbBlockBegin
  2
*D1
 70
     1
 10
0.0
 20
0.0
 30
0.0
  3
*D1
  1

  0
LINE
  5
A11
330
49E
100
AcDbEntity
  8
BEM
 62
     0
370
    -2
100
AcDbLine
 10
185.232776877715
 20
256.5882943789994
 30
0.0
 11
185.232776877715
 21
228.3810245877973
 31
0.0
  0
LINE
  5
A12
330
49E
100
AcDbEntity
  8
BEM
 62
     0
370
    -2
100
AcDbLine
 10
287.232776877715
 20
256.5882943789997
 30
0.0
 11
287.232776877715
 21
228.3810245877973
 31
0.0
  0
LINE
  5
A13
330
49E
100
AcDbEntity
  8
BEM
 62
     0
370
    -2
100
AcDbLine
 10
192.232776877715
 20
230.3810245877973
 30
0.0
 11
280.232776877715
 21
230.3810245877973
 31
0.0
  0
SOLID
  5
A14
330
49E
100
AcDbEntity
  8
BEM
 62
     0
100
AcDbTrace
 10
192.232776877715
 20
231.547691254464
 30
0.0
 11
192.232776877715
 21
229.2143579211306
 31
0.0
 12
185.232776877715
 22
230.3810245877973
 32
0.0
 13
185.232776877715
 23
230.3810245877973
 33
0.0
  0
SOLID
  5
A15
330
49E
100
AcDbEntity
  8
BEM
 62
     0
100
AcDbTrace
 10
280.232776877715
 20
231.547691254464
 30
0.0
 11
280.232776877715
 21
229.2143579211306
 31
0.0
 12
287.232776877715
 22
230.3810245877973
 32
0.0
 13
287.232776877715
 23
230.3810245877973
 33
0.0
  0
MTEXT
  5
A16
330
49E
100
AcDbEntity
  8
BEM
 62
     1
100
AcDbMText
 10
236.232776877715
 20
236.8810245877973
 30
0.0
 40
7.0
 41
0.0
 71
     5
 72
     1
  1
\A1;%%c102
 73
     1
 44
1.0
  0
POINT
  5
A17
330
49E
100
AcDbEntity
  8
DEFPOINTS
 62
     0
100
AcDbPoint
 10
185.232776877715
 20
258.5882943789994
 30
0.0
  0
POINT
  5
A18
330
49E
100
AcDbEntity
  8
DEFPOINTS
 62
     0
100
AcDbPoint
 10
287.232776877715
 20
258.5882943789997
 30
0.0
  0
POINT
  5
A19
330
49E
100
AcDbEntity
  8
DEFPOINTS
 62
     0
100
AcDbPoint
 10
287.232776877715
 20
230.3810245877973
 30
0.0
  0
ENDBLK
  5
4AA
330
49E
100
AcDbEntity
  8
0
100
AcDbBlockEnd
  0
BLOCK
  5
989
330
97F
100
AcDbEntity
  8
0
100
AcDbBlockBegin
  2
*D2
 70
     1
 10
0.0
 20
0.0
 30
0.0
  3
*D2
  1

  0
LINE
  5
A08
330
97F
100
AcDbEntity
  8
BEM
 62
     0
370
    -2
100
AcDbLine
 10
135.732776877715
 20
403.9749129353992
 30
0.0
 11
135.732776877715
 21
415.7274226109175
 31
0.0
  0
LINE
  5
A09
330
97F
100
AcDbEntity
  8
BEM
 62
     0
370
    -2
100
AcDbLine
 10
336.732776877715
 20
403.9749129353992
 30
0.0
 11
336.732776877715
 21
415.7274226109175
 31
0.0
  0
LINE
  5
A0A
330
97F
100
AcDbEntity
  8
BEM
 62
     0
370
    -2
100
AcDbLine
 10
142.732776877715
 20
413.7274226109175
 30
0.0
 11
329.732776877715
 21
413.7274226109175
 31
0.0
  0
SOLID
  5
A0B
330
97F
100
AcDbEntity
  8
BEM
 62
     0
100
AcDbTrace
 10
142.732776877715
 20
414.8940892775842
 30
0.0
 11
142.732776877715
 21
412.5607559442508
 31
0.0
 12
135.732776877715
 22
413.7274226109175
 32
0.0
 13
135.732776877715
 23
413.7274226109175
 33
0.0
  0
SOLID
  5
A0C
330
97F
100
AcDbEntity
  8
BEM
 62
     0
100
AcDbTrace
 10
329.732776877715
 20
414.8940892775842
 30
0.0
 11
329.732776877715
 21
412.5607559442508
 31
0.0
 12
336.732776877715
 22
413.7274226109175
 32
0.0
 13
336.732776877715
 23
413.7274226109175
 33
0.0
  0
MTEXT
  5
A0D
330
97F
100
AcDbEntity
  8
BEM
 62
     1
100
AcDbMText
 10
236.7005408533732
 20
420.2274226109175
 30
0.0
 40
7.0
 41
0.0
 71
     5
 72
     1
  1
\A1;201
 73
     1
 44
1.0
  0
POINT
  5
A0E
330
97F
100
AcDbEntity
  8
DEFPOINTS
 62
     0
100
AcDbPoint
 10
135.732776877715
 20
401.9749129353993
 30
0.0
  0
POINT
  5
A0F
330
97F
100
AcDbEntity
  8
DEFPOINTS
 62
     0
100
AcDbPoint
 10
336.732776877715
 20
401.9749129353993
 30
0.0
  0
POINT
  5
A10
330
97F
100
AcDbEntity
  8
DEFPOINTS
 62
     0
100
AcDbPoint
 10
336.732776877715
 20
413.7274226109175
 30
0.0
  0
ENDBLK
  5
98A
330
97F
100
AcDbEntity
  8
0
100
AcDbBlockEnd
  0
BLOCK
  5
9BD
330
9B3
100
AcDbEntity
  8
0
100
AcDbBlockBegin
  2
*D3
 70
     1
 10
0.0
 20
0.0
 30
0.0
  3
*D3
  1

  0
LINE
  5
9FF
330
9B3
100
AcDbEntity
  8
BEM
 62
     0
370
    -2
100
AcDbLine
 10
184.5451068306038
 20
248.9749129353992
 30
0.0
 11
120.6191105760258
 21
248.9749129353992
 31
0.0
  0
LINE
  5
A00
330
9B3
100
AcDbEntity
  8
BEM
 62
     0
370
    -2
100
AcDbLine
 10
163.8930309155593
 20
368.9749129353993
 30
0.0
 11
120.6191105760258
 21
368.9749129353994
 31
0.0
  0
LINE
  5
A01
330
9B3
100
AcDbEntity
  8
BEM
 62
     0
370
    -2
100
AcDbLine
 10
122.6191105760258
 20
255.9749129353992
 30
0.0
 11
122.6191105760258
 21
361.9749129353993
 31
0.0
  0
SOLID
  5
A02
330
9B3
100
AcDbEntity
  8
BEM
 62
     0
100
AcDbTrace
 10
121.4524439093591
 20
255.9749129353992
 30
0.0
 11
123.7857772426925
 21
255.9749129353992
 31
0.0
 12
122.6191105760258
 22
248.9749129353992
 32
0.0
 13
122.6191105760258
 23
248.9749129353992
 33
0.0
  0
SOLID
  5
A03
330
9B3
100
AcDbEntity
  8
BEM
 62
     0
100
AcDbTrace
 10
121.4524439093591
 20
361.9749129353993
 30
0.0
 11
123.7857772426925
 21
361.9749129353993
 31
0.0
 12
122.6191105760258
 22
368.9749129353994
 32
0.0
 13
122.6191105760258
 23
368.9749129353994
 33
0.0
  0
MTEXT
  5
A04
330
9B3
100
AcDbEntity
  8
BEM
 62
     1
100
AcDbMText
 10
116.1191105760257
 20
308.9749129353993
 30
0.0
 40
7.0
 41
0.0
 71
     5
 72
     1
  1
\A1;120
 11
0.0000000000000001
 21
1.0
 31
0.0
 73
     1
 44
1.0
  0
POINT
  5
A05
330
9B3
100
AcDbEntity
  8
DEFPOINTS
 62
     0
100
AcDbPoint
 10
186.5451068306038
 20
248.9749129353992
 30
0.0
  0
POINT
  5
A06
330
9B3
100
AcDbEntity
  8
DEFPOINTS
 62
     0
100
AcDbPoint
 10
165.8930309155593
 20
368.9749129353993
 30
0.0
  0
POINT
  5
A07
330
9B3
100
AcDbEntity
  8
DEFPOINTS
 62
     0
100
AcDbPoint
 10
122.6191105760258
 20
368.9749129353994
 30
0.0
  0
ENDBLK
  5
9BE
330
9B3
100
AcDbEntity
  8
0
100
AcDbBlockEnd
  0
BLOCK
  5
9CA
330
9C0
100
AcDbEntity
  8
0
100
AcDbBlockBegin
  2
*D4
 70
     1
 10
0.0
 20
0.0
 30
0.0
  3
*D4
  1

  0
LINE
  5
9F6
330
9C0
100
AcDbEntity
  8
BEM
 62
     0
370
    -2
100
AcDbLine
 10
163.8930309155593
 20
368.9749129353993
 30
0.0
 11
120.6191105760258
 21
368.9749129353994
 31
0.0
  0
LINE
  5
9F7
330
9C0
100
AcDbEntity
  8
BEM
 62
     0
370
    -2
100
AcDbLine
 10
133.732776877715
 20
401.9749129353993
 30
0.0
 11
120.6191105760258
 21
401.9749129353993
 31
0.0
  0
LINE
  5
9F8
330
9C0
100
AcDbEntity
  8
BEM
 62
     0
370
    -2
100
AcDbLine
 10
122.6191105760258
 20
375.9749129353993
 30
0.0
 11
122.6191105760258
 21
394.9749129353993
 31
0.0
  0
SOLID
  5
9F9
330
9C0
100
AcDbEntity
  8
BEM
 62
     0
100
AcDbTrace
 10
121.4524439093592
 20
375.9749129353993
 30
0.0
 11
123.7857772426925
 21
375.9749129353993
 31
0.0
 12
122.6191105760258
 22
368.9749129353994
 32
0.0
 13
122.6191105760258
 23
368.9749129353994
 33
0.0
  0
SOLID
  5
9FA
330
9C0
100
AcDbEntity
  8
BEM
 62
     0
100
AcDbTrace
 10
121.4524439093592
 20
394.9749129353993
 30
0.0
 11
123.7857772426925
 21
394.9749129353993
 31
0.0
 12
122.6191105760258
 22
401.9749129353993
 32
0.0
 13
122.6191105760258
 23
401.9749129353993
 33
0.0
  0
MTEXT
  5
9FB
330
9C0
100
AcDbEntity
  8
BEM
 62
     1
100
AcDbMText
 10
116.1191105760258
 20
385.4749129353994
 30
0.0
 40
7.0
 41
0.0
 71
     5
 72
     1
  1
\A1;33
 11
0.0000000000000001
 21
1.0
 31
0.0
 73
     1
 44
1.0
  0
POINT
  5
9FC
330
9C0
100
AcDbEntity
  8
DEFPOINTS
 62
     0
100
AcDbPoint
 10
165.8930309155593
 20
368.9749129353993
 30
0.0
  0
POINT
  5
9FD
330
9C0
100
AcDbEntity
  8
DEFPOINTS
 62
     0
100
AcDbPoint
 10
135.732776877715
 20
401.9749129353993
 30
0.0
  0
POINT
  5
9FE
330
9C0
100
AcDbEntity
  8
DEFPOINTS
 62
     0
100
AcDbPoint
 10
122.6191105760258
 20
401.9749129353993
 30
0.0
  0
ENDBLK
  5
9CB
330
9C0
100
AcDbEntity
  8
0
100
AcDbBlockEnd
  0
BLOCK
  5
9D7
330
9CD
100
AcDbEntity
  8
0
100
AcDbBlockBegin
  2
*D5
 70
     1
 10
0.0
 20
0.0
 30
0.0
  3
*D5
  1

  0
LINE
  5
9ED
330
9CD
100
AcDbEntity
  8
BEM
 62
     0
370
    -2
100
AcDbLine
 10
184.5451068306038
 20
248.9749129353992
 30
0.0
 11
106.1163171170478
 21
248.9749129353992
 31
0.0
  0
LINE
  5
9EE
330
9CD
100
AcDbEntity
  8
BEM
 62
     0
370
    -2
100
AcDbLine
 10
133.732776877715
 20
401.9749129353993
 30
0.0
 11
106.1163171170478
 21
401.9749129353993
 31
0.0
  0
LINE
  5
9EF
330
9CD
100
AcDbEntity
  8
BEM
 62
     0
370
    -2
100
AcDbLine
 10
108.1163171170478
 20
255.9749129353992
 30
0.0
 11
108.1163171170478
 21
394.9749129353993
 31
0.0
  0
SOLID
  5
9F0
330
9CD
100
AcDbEntity
  8
BEM
 62
     0
100
AcDbTrace
 10
106.9496504503811
 20
255.9749129353992
 30
0.0
 11
109.2829837837145
 21
255.9749129353992
 31
0.0
 12
108.1163171170478
 22
248.9749129353992
 32
0.0
 13
108.1163171170478
 23
248.9749129353992
 33
0.0
  0
SOLID
  5
9F1
330
9CD
100
AcDbEntity
  8
BEM
 62
     0
100
AcDbTrace
 10
106.9496504503812
 20
394.9749129353993
 30
0.0
 11
109.2829837837145
 21
394.9749129353993
 31
0.0
 12
108.1163171170478
 22
401.9749129353993
 32
0.0
 13
108.1163171170478
 23
401.9749129353993
 33
0.0
  0
MTEXT
  5
9F2
330
9CD
100
AcDbEntity
  8
BEM
 62
     1
100
AcDbMText
 10
101.6163171170478
 20
325.4749129353993
 30
0.0
 40
7.0
 41
0.0
 71
     5
 72
     1
  1
\A1;153
 11
0.0000000000000001
 21
1.0
 31
0.0
 73
     1
 44
1.0
  0
POINT
  5
9F3
330
9CD
100
AcDbEntity
  8
DEFPOINTS
 62
     0
100
AcDbPoint
 10
186.5451068306038
 20
248.9749129353992
 30
0.0
  0
POINT
  5
9F4
330
9CD
100
AcDbEntity
  8
DEFPOINTS
 62
     0
100
AcDbPoint
 10
135.732776877715
 20
401.9749129353993
 30
0.0
  0
POINT
  5
9F5
330
9CD
100
AcDbEntity
  8
DEFPOINTS
 62
     0
100
AcDbPoint
 10
108.1163171170478
 20
401.9749129353993
 30
0.0
  0
ENDBLK
  5
9D8
330
9CD
100
AcDbEntity
  8
0
100
AcDbBlockEnd
  0
ENDSEC
  0
SECTION
  2
ENTITIES
  0
LINE
  5
57
330
1E
100
AcDbEntity
  8
STEMPEL
100
AcDbLine
 10
410.0
 20
110.0
 30
0.0
 11
39.99999999999997
 21
110.0
 31
0.0
  0
LINE
  5
58
330
1E
100
AcDbEntity
  8
STEMPEL
100
AcDbLine
 10
136.0000000000001
 20
109.9999999999999
 30
0.0
 11
136.0
 21
9.999999999999971
 31
0.0
  0
LINE
  5
59
330
1E
100
AcDbEntity
  8
STEMPEL
100
AcDbLine
 10
220.0
 20
110.0
 30
0.0
 11
220.0
 21
9.999999999999971
 31
0.0
  0
LINE
  5
5A
330
1E
100
AcDbEntity
  8
STEMPEL
100
AcDbLine
 10
332.0
 20
109.9999999999997
 30
0.0
 11
332.0
 21
40.0
 31
0.0
  0
LINE
  5
5B
330
1E
100
AcDbEntity
  8
STEMPEL
100
AcDbLine
 10
135.9999999999999
 20
29.99999999999997
 30
0.0
 11
39.99999999999997
 21
29.99999999999997
 31
0.0
  0
LINE
  5
5C
330
1E
100
AcDbEntity
  8
STEMPEL
100
AcDbLine
 10
410.0
 20
40.0
 30
0.0
 11
136.0000000000001
 21
39.99999999999997
 31
0.0
  0
LINE
  5
5D
330
1E
100
AcDbEntity
  8
STEMPEL
100
AcDbLine
 10
410.0
 20
80.0
 30
0.0
 11
136.0000000000001
 21
79.99999999999994
 31
0.0
  0
LINE
  5
5E
330
1E
100
AcDbEntity
  8
VOLL
100
AcDbLine
 10
54.00000000000009
 20
110.0
 30
0.0
 11
53.99999999999997
 21
9.999999999999971
 31
0.0
  0
LINE
  5
5F
330
1E
100
AcDbEntity
  8
VOLL
100
AcDbLine
 10
94.00000000000011
 20
109.9999999999999
 30
0.0
 11
94.0
 21
9.999999999999971
 31
0.0
  0
LINE
  5
60
330
1E
100
AcDbEntity
  8
VOLL
100
AcDbLine
 10
114.0000000000001
 20
109.9999999999999
 30
0.0
 11
114.0
 21
9.999999999999971
 31
0.0
  0
LINE
  5
61
330
1E
100
AcDbEntity
  8
VOLL
100
AcDbLine
 10
154.0000000000001
 20
79.99999999999994
 30
0.0
 11
154.0000000000001
 21
39.99999999999997
 31
0.0
  0
LINE
  5
62
330
1E
100
AcDbEntity
  8
VOLL
100
AcDbLine
 10
180.0000000000001
 20
109.9999999999998
 30
0.0
 11
180.0
 21
39.99999999999997
 31
0.0
  0
LINE
  5
63
330
1E
100
AcDbEntity
  8
HILF
100
AcDbLine
 10
40.00000000000008
 20
100.0
 30
0.0
 11
136.0000000000001
 21
100.0
 31
0.0
  0
LINE
  5
64
330
1E
100
AcDbEntity
  8
HILF
100
AcDbLine
 10
40.00000000000008
 20
90.00000000000005
 30
0.0
 11
136.0000000000001
 21
90.00000000000005
 31
0.0
  0
LINE
  5
65
330
1E
100
AcDbEntity
  8
HILF
100
AcDbLine
 10
40.00000000000008
 20
79.99999999999994
 30
0.0
 11
136.0000000000001
 21
79.99999999999994
 31
0.0
  0
LINE
  5
66
330
1E
100
AcDbEntity
  8
HILF
100
AcDbLine
 10
40.00000000000008
 20
69.99999999999994
 30
0.0
 11
136.0000000000001
 21
69.99999999999994
 31
0.0
  0
LINE
  5
67
330
1E
100
AcDbEntity
  8
HILF
100
AcDbLine
 10
40.00000000000008
 20
59.99999999999997
 30
0.0
 11
136.0000000000001
 21
59.99999999999997
 31
0.0
  0
LINE
  5
68
330
1E
100
AcDbEntity
  8
HILF
100
AcDbLine
 10
40.00000000000008
 20
49.99999999999997
 30
0.0
 11
136.0000000000001
 21
49.99999999999997
 31
0.0
  0
LINE
  5
69
330
1E
100
AcDbEntity
  8
HILF
100
AcDbLine
 10
40.00000000000008
 20
39.99999999999997
 30
0.0
 11
136.0000000000001
 21
39.99999999999997
 31
0.0
  0
LINE
  5
6A
330
1E
100
AcDbEntity
  8
HILF
100
AcDbLine
 10
136.0000000000001
 20
69.99999999999994
 30
0.0
 11
220.0
 21
69.99999999999994
 31
0.0
  0
LINE
  5
6B
330
1E
100
AcDbEntity
  8
HILF
100
AcDbLine
 10
136.0000000000001
 20
59.99999999999997
 30
0.0
 11
220.0
 21
59.99999999999997
 31
0.0
  0
LINE
  5
6C
330
1E
100
AcDbEntity
  8
HILF
100
AcDbLine
 10
136.0000000000001
 20
49.99999999999997
 30
0.0
 11
220.0
 21
49.99999999999997
 31
0.0
  0
LINE
  5
6D
330
1E
100
AcDbEntity
  8
HILF
100
AcDbLine
 10
224.7736801096948
 20
84.03758247564139
 30
0.0
 11
324.8353916556311
 21
84.03758247564139
 31
0.0
  0
LINE
  5
6E
330
1E
100
AcDbEntity
  8
HILF
100
AcDbLine
 10
224.7736801096948
 20
69.99999999999994
 30
0.0
 11
324.835391655631
 21
69.99999999999994
 31
0.0
  0
LINE
  5
6F
330
1E
100
AcDbEntity
  8
HILF
100
AcDbLine
 10
224.7736801096948
 20
59.99999999999997
 30
0.0
 11
324.835391655631
 21
59.99999999999997
 31
0.0
  0
LINE
  5
70
330
1E
100
AcDbEntity
  8
HILF
100
AcDbLine
 10
224.7736801096948
 20
49.99999999999997
 30
0.0
 11
324.835391655631
 21
49.99999999999997
 31
0.0
  0
LINE
  5
71
330
1E
100
AcDbEntity
  8
VOLL
100
AcDbLine
 10
332.0
 20
60.0
 30
0.0
 11
410.0
 21
60.0
 31
0.0
  0
LINE
  5
72
330
1E
100
AcDbEntity
  8
HILF
100
AcDbLine
 10
336.7238616296993
 20
83.77983636955827
 30
0.0
 11
404.8588839326728
 21
83.77983636955827
 31
0.0
  0
LINE
  5
73
330
1E
100
AcDbEntity
  8
HILF
100
AcDbLine
 10
223.4909699289885
 20
14.89398258028314
 30
0.0
 11
404.8588839326728
 21
14.89398258028314
 31
0.0
  0
TEXT
  5
74
330
1E
100
AcDbEntity
  8
TEXT
100
AcDbText
 10
63.86165979631819
 20
18.67381894984132
 30
0.0
 40
4.0
  1
Änderung
 41
0.8
  7
GREEKS
 72
     1
 11
74.60451693917534
 21
18.67381894984132
 31
0.0
100
AcDbText
  0
TEXT
  5
75
330
1E
100
AcDbEntity
  8
TEXT
100
AcDbText
 10
143.5163572150377
 20
102.4620895087088
 30
0.0
 40
5.0
  1
Maßstab
 41
0.8
  7
GREEKS
100
AcDbText
  0
TEXT
  5
76
330
1E
100
AcDbEntity
  8
TEXT
100
AcDbText
 10
184.2858954734051
 20
102.4184168434819
 30
0.0
 40
5.0
  1
Zul. Abw.
 41
0.8
  7
GREEKS
100
AcDbText
  0
TEXT
  5
77
330
1E
100
AcDbEntity
  8
TEXT
100
AcDbText
 10
224.877940380901
 20
102.5489328011779
 30
0.0
 40
5.0
  1
Benennung
 41
0.8
  7
GREEKS
100
AcDbText
  0
TEXT
  5
78
330
1E
100
AcDbEntity
  8
TEXT
100
AcDbText
 10
336.178754957634
 20
102.3132034537136
 30
0.0
 40
5.0
  1
Zeichnungs Nr.
 41
0.8
  7
GREEKS
100
AcDbText
  0
TEXT
  5
79
330
1E
100
AcDbEntity
  8
TEXT
100
AcDbText
 10
224.742238391136
 20
30.84560570193057
 30
0.0
 40
5.0
  1
Bauvorhaben
 41
0.8
  7
GREEKS
100
AcDbText
  0
TEXT
  5
7A
330
1E
100
AcDbEntity
  8
TEXT
100
AcDbText
 10
336.7238616296993
 20
73.1811823709997
 30
0.0
 40
5.0
  1
Ersatz für:
 41
0.8
  7
GREEKS
100
AcDbText
  0
TEXT
  5
7B
330
1E
100
AcDbEntity
  8
TEXT
100
AcDbText
 10
48.26641107045756
 20
13.65465846027192
 30
0.0
 40
4.0
  1
Index
 50
90.0
 41
0.8
  7
GREEKS
100
AcDbText
  0
TEXT
  5
7C
330
1E
100
AcDbEntity
  8
TEXT
100
AcDbText
 10
100.0934676075481
 20
18.6715626933981
 30
0.0
 40
4.0
  1
Tag
 41
0.8
  7
GREEKS
 72
     1
 11
103.8268009408814
 21
18.6715626933981
 31
0.0
100
AcDbText
  0
TEXT
  5
7D
330
1E
100
AcDbEntity
  8
TEXT
100
AcDbText
 10
119.0122744386592
 20
18.59324216966408
 30
0.0
 40
4.0
  1
Name
 41
0.8
  7
GREEKS
 72
     1
 11
125.3360839624688
 21
18.59324216966408
 31
0.0
100
AcDbText
  0
TEXT
  5
7E
330
1E
100
AcDbEntity
  8
TEXT
100
AcDbText
 10
162.3311673153651
 20
73.31880501229926
 30
0.0
 40
4.0
  1
Tag
 41
0.8
  7
GREEKS
100
AcDbText
  0
TEXT
  5
7F
330
1E
100
AcDbEntity
  8
TEXT
100
AcDbText
 10
192.4626584226295
 20
73.30961091915225
 30
0.0
 40
4.0
  1
Name
 41
0.8
  7
GREEKS
100
AcDbText
  0
TEXT
  5
80
330
1E
100
AcDbEntity
  8
TEXT
100
AcDbText
 10
137.5836127167615
 20
63.62990369617964
 30
0.0
 40
4.0
  1
Gez.
 41
0.8
  7
GREEKS
100
AcDbText
  0
TEXT
  5
81
330
1E
100
AcDbEntity
  8
TEXT
100
AcDbText
 10
137.5515086571672
 20
53.68926291428377
 30
0.0
 40
4.0
  1
Gepr.
 41
0.8
  7
GREEKS
100
AcDbText
  0
TEXT
  5
82
330
1E
100
AcDbEntity
  8
TEXT
100
AcDbText
 10
137.6006777387304
 20
43.52946389649807
 30
0.0
 40
4.0
  1
Norm.
 41
0.8
  7
GREEKS
100
AcDbText
  0
LINE
  5
83
330
1E
100
AcDbEntity
  8
STEMPEL
100
AcDbLine
 10
49.99999999999989
 20
10.0
 30
0.0
 11
410.0
 21
10.0
 31
0.0
  0
TEXT
  5
84
330
1E
100
AcDbEntity
  8
TEXT
100
AcDbText
 10
337.2400861497006
 20
52.07416177878602
 30
0.0
 40
5.0
  1
ersetzt durch:
 41
0.8
  7
GREEKS
100
AcDbText
  0
LINE
  5
85
330
1E
100
AcDbEntity
  8
STEMPEL
100
AcDbLine
 10
410.0
 20
10.0
 30
0.0
 11
39.99999999999989
 21
10.0
 31
0.0
  0
LINE
  5
86
330
1E
100
AcDbEntity
  8
STEMPEL
100
AcDbLine
 10
410.0
 20
10.0
 30
0.0
 11
410.0
 21
584.0
 31
0.0
  0
LINE
  5
87
330
1E
100
AcDbEntity
  8
STEMPEL
100
AcDbLine
 10
40.0
 20
10.0
 30
0.0
 11
39.99999999999989
 21
584.0
 31
0.0
  0
LINE
  5
88
330
1E
100
AcDbEntity
  8
STEMPEL
100
AcDbLine
 10
410.0
 20
584.0
 30
0.0
 11
39.99999999999989
 21
584.0
 31
0.0
  0
LINE
  5
89
330
1E
100
AcDbEntity
  8
HILF
100
AcDbLine
 10
0.0
 20
0.0
 30
0.0
 11
-0.0000000000001137
 21
594.0
 31
0.0
  0
LINE
  5
8A
330
1E
100
AcDbEntity
  8
HILF
100
AcDbLine
 10
419.9999999999999
 20
594.0000000000002
 30
0.0
 11
0.0
 21
594.0
 31
0.0
  0
LINE
  5
8B
330
1E
100
AcDbEntity
  8
HILF
100
AcDbLine
 10
420.0
 20
0.0
 30
0.0
 11
0.0
 21
0.0
 31
0.0
  0
LINE
  5
8C
330
1E
100
AcDbEntity
  8
HILF
100
AcDbLine
 10
31.08767135713856
 20
297.0
 30
0.0
 11
0.0000000000001137
 21
297.0
 31
0.0
  0
TEXT
  5
8D
330
1E
100
AcDbEntity
  8
TEXT
100
AcDbText
 10
138.622109822104
 20
73.14025471151666
 30
0.0
 40
4.0
  1
2008
 41
0.8
  7
GREEKS
100
AcDbText
  0
LINE
  5
8E
330
1E
100
AcDbEntity
  8
HILF
100
AcDbLine
 10
420.0
 20
-0.0000000000001137
 30
0.0
 11
419.9999999999999
 21
594.0
 31
0.0
  0
TEXT
  5
8F
330
1E
100
AcDbEntity
  8
VOLL
100
AcDbText
 10
78.07675471698113
 20
31.02594776470585
 30
0.0
 40
1.8
  1

  7
GREEKS
100
AcDbText
  0
TEXT
  5
90
330
1E
100
AcDbEntity
  8
TEXT
100
AcDbText
 10
41.85509950977674
 20
111.6719999999999
 30
0.0
 40
5.0
  1
Erstellt mit AUTOCAD 2004
 41
0.8
  7
GREEKS
100
AcDbText
  0
TEXT
  5
91
330
1E
100
AcDbEntity
  8
TEXT
100
AcDbText
 10
194.4216048581257
 20
63.0896391972351
 30
0.0
 40
4.0
  1
Koeh
 41
0.8
  7
GREEKS
 72
     1
 11
199.6787477152685
 21
63.0896391972351
 31
0.0
100
AcDbText
  0
TEXT
  5
92
330
1E
100
AcDbEntity
  8
TEXT
 62
     1
100
AcDbText
 10
346.5977733115953
 20
88.14901428913959
 30
0.0
 40
7.0
  1
18620100W
 41
0.8
  7
GREEKS
 72
     1
 11
369.5311066449286
 21
88.14901428913959
 31
0.0
100
AcDbText
  0
TEXT
  5
93
330
1E
100
AcDbEntity
  8
TEXT
 62
     1
100
AcDbText
 10
150.5006306481887
 20
88.14901428913959
 30
0.0
 40
7.0
  1
1:2
 41
0.8
  7
GREEKS
100
AcDbText
  0
TEXT
  5
94
330
1E
100
AcDbEntity
  8
TEXT
100
AcDbText
 10
161.0085209177598
 20
63.10765040825732
 30
0.0
 40
4.0
  1
11.06.
 41
0.8
  7
GREEKS
 72
     1
 11
167.4085209177598
 21
63.10765040825732
 31
0.0
100
AcDbText
  0
TEXT
  5
95
330
1E
100
AcDbEntity
  8
TEXT
 62
     1
100
AcDbText
 10
226.8935731057402
 20
87.41748789253779
 30
0.0
 40
7.0
  1
Siebaufnahme DN100
 41
0.8
  7
GREEKS
100
AcDbText
  0
TEXT
  5
98
330
1E
100
AcDbEntity
  8
TEXT
100
AcDbText
 10
225.1296391125315
 20
51.64011943042158
 30
0.0
 40
5.0
  1
EDV-Art.Nr. 18620.100X
 41
0.8
  7
GREEKS
100
AcDbText
  0
TEXT
  5
99
330
1E
100
AcDbEntity
  8
TEXT
100
AcDbText
 10
224.9837501577827
 20
42.62974153022632
 30
0.0
 40
4.0
  1
18620100W.DWG
 41
0.8
  7
GREEKS
100
AcDbText
  0
TEXT
  5
9A
330
1E
100
AcDbEntity
  8
TEXT
100
AcDbText
 10
182.626132208084
 20
90.76363841023022
 30
0.0
 40
4.0
  1
DIN EN1123-2
 41
0.8
  7
GREEKS
 72
     1
 11
199.6166083985602
 21
90.76363841023022
 31
0.0
100
AcDbText
  0
INSERT
  5
9B
330
1E
100
AcDbEntity
  8
STEMPEL
100
AcDbBlockReference
  2
LOGO
 10
140.9955485457794
 20
45.02105276448322
 30
0.0
 41
2.0
 42
2.0
 43
2.0
  0
TEXT
  5
118
330
1E
100
AcDbEntity
  8
BEM
100
AcDbText
 10
417.3022923857165
 20
10.16790107998849
 30
0.0
 40
4.0
  1
Diese Zeichnung ist urheberrechtlich geschützt und bleibt unser Eigentum. Sie darf weder ganz noch teilweise verfielfältigt und nicht an Dritte weitergegeben werden.
 50
90.0
 41
0.8
  7
GREEKS
100
AcDbText
  0
LINE
  5
3B1
102
{ACAD_REACTORS
330
79C
102
}
330
1E
100
AcDbEntity
  8
STEMPEL
  6
Continuous
100
AcDbLine
 10
336.732776877715
 20
401.9749129353993
 30
0.0
 11
336.732776877715
 21
387.9749129353993
 31
0.0
  0
LINE
  5
3B2
102
{ACAD_REACTORS
330
79C
102
}
330
1E
100
AcDbEntity
  8
STEMPEL
  6
Continuous
100
AcDbLine
 10
332.732776877715
 20
401.9749129353991
 30
0.0
 11
332.732776877715
 21
387.9749129353993
 31
0.0
  0
ARC
  5
3B3
102
{ACAD_REACTORS
330
79C
102
}
330
1E
100
AcDbEntity
  8
STEMPEL
  6
Continuous
100
AcDbCircle
 10
319.8515790312321
 20
375.9749129353992
 30
0.0
 40
4.0
100
AcDbArc
 50
90.00000000000081
 51
150.0
  0
LINE
  5
3B4
102
{ACAD_REACTORS
330
79C
102
}
330
1E
100
AcDbEntity
  8
STEMPEL
  6
Continuous
100
AcDbLine
 10
328.732776877715
 20
379.9749129353993
 30
0.0
 11
319.851579031232
 21
379.9749129353992
 31
0.0
  0
LINE
  5
3B5
102
{ACAD_REACTORS
330
79C
102
}
330
1E
100
AcDbEntity
  8
STEMPEL
  6
Continuous
100
AcDbLine
 10
312.9233758009565
 20
379.9749129353992
 30
0.0
 11
310.0366244550083
 21
374.9749129353993
 31
0.0
  0
ARC
  5
3B6
102
{ACAD_REACTORS
330
79C
102
}
330
1E
100
AcDbEntity
  8
STEMPEL
  6
Continuous
100
AcDbCircle
 10
306.5725228398707
 20
376.9749129353993
 30
0.0
 40
8.0
100
AcDbArc
 50
270.0
 51
330.0000000000001
  0
ARC
  5
3B7
102
{ACAD_REACTORS
330
79C
102
}
330
1E
100
AcDbEntity
  8
STEMPEL
  6
Continuous
100
AcDbCircle
 10
306.5725228398707
 20
376.9749129353993
 30
0.0
 40
4.0
100
AcDbArc
 50
270.0
 51
330.0000000000001
  0
LINE
  5
3B8
102
{ACAD_REACTORS
330
79C
102
}
330
1E
100
AcDbEntity
  8
STEMPEL
  6
Continuous
100
AcDbLine
 10
316.3874774160943
 20
377.9749129353992
 30
0.0
 11
313.5007260701461
 21
372.9749129353993
 31
0.0
  0
ARC
  5
3B9
102
{ACAD_REACTORS
330
79C
102
}
330
1E
100
AcDbEntity
  8
STEMPEL
  6
Continuous
100
AcDbCircle
 10
319.8515790312321
 20
375.9749129353992
 30
0.0
 40
8.0
100
AcDbArc
 50
90.00000000000081
 51
150.0
  0
ARC
  5
3BC
102
{ACAD_REACTORS
330
79C
102
}
330
1E
100
AcDbEntity
  8
STEMPEL
  6
Continuous
100
AcDbCircle
 10
328.732776877715
 20
387.9749129353993
 30
0.0
 40
8.0
100
AcDbArc
 50
269.9999999999996
 51
0.0
  0
ARC
  5
3BD
102
{ACAD_REACTORS
330
79C
102
}
330
1E
100
AcDbEntity
  8
STEMPEL
  6
Continuous
100
AcDbCircle
 10
328.732776877715
 20
387.9749129353993
 30
0.0
 40
4.0
100
AcDbArc
 50
270.0
 51
0.0
  0
LINE
  5
3BF
102
{ACAD_REACTORS
330
79C
102
}
330
1E
100
AcDbEntity
  8
STEMPEL
  6
Continuous
100
AcDbLine
 10
285.232776877715
 20
372.9749129353992
 30
0.0
 11
285.232776877715
 21
368.9749129353992
 31
0.0
  0
LINE
  5
3C2
102
{ACAD_REACTORS
330
76E
102
}
330
1E
100
AcDbEntity
  8
STEMPEL
100
AcDbLine
 10
285.232776877715
 20
258.6756162648172
 30
0.0
 11
283.9128072497394
 21
248.9749129353992
 31
0.0
  0
LINE
  5
3C3
102
{ACAD_REACTORS
330
76E
102
}
330
1E
100
AcDbEntity
  8
STEMPEL
100
AcDbLine
 10
287.232776877715
 20
258.5882943789993
 30
0.0
 11
285.9204469248261
 21
248.9749129353992
 31
0.0
  0
LINE
  5
3C5
102
{ACAD_REACTORS
330
754
330
76E
102
}
330
1E
100
AcDbEntity
  8
STEMPEL
  6
Continuous
100
AcDbLine
 10
287.232776877715
 20
368.9749129353992
 30
0.0
 11
287.232776877715
 21
258.5882943789993
 31
0.0
  0
LINE
  5
3C6
102
{ACAD_REACTORS
330
76E
102
}
330
1E
100
AcDbEntity
  8
STEMPEL
  6
Continuous
100
AcDbLine
 10
285.232776877715
 20
368.9749129353992
 30
0.0
 11
285.232776877715
 21
258.6756162648172
 31
0.0
  0
LINE
  5
3D8
102
{ACAD_REACTORS
330
79C
102
}
330
1E
100
AcDbEntity
  8
STEMPEL
  6
Continuous
100
AcDbLine
 10
187.232776877715
 20
368.9749129353992
 30
0.0
 11
187.232776877715
 21
372.9749129353992
 31
0.0
  0
ARC
  5
3DA
102
{ACAD_REACTORS
330
79C
102
}
330
1E
100
AcDbEntity
  8
STEMPEL
  6
Continuous
100
AcDbCircle
 10
165.8930309155593
 20
376.9749129353993
 30
0.0
 40
4.0
100
AcDbArc
 50
210.0000000000001
 51
270.0
  0
ARC
  5
3DB
102
{ACAD_REACTORS
330
79C
102
}
330
1E
100
AcDbEntity
  8
STEMPEL
  6
Continuous
100
AcDbCircle
 10
152.613974724198
 20
375.9749129353992
 30
0.0
 40
4.0
100
AcDbArc
 50
29.99999999999993
 51
89.9999999999992
  0
LINE
  5
3DC
102
{ACAD_REACTORS
330
79C
102
}
330
1E
100
AcDbEntity
  8
STEMPEL
  6
Continuous
100
AcDbLine
 10
156.0780763393358
 20
377.9749129353992
 30
0.0
 11
158.9648276852838
 21
372.9749129353993
 31
0.0
  0
ARC
  5
3DD
102
{ACAD_REACTORS
330
79C
102
}
330
1E
100
AcDbEntity
  8
STEMPEL
  6
Continuous
100
AcDbCircle
 10
152.613974724198
 20
375.9749129353992
 30
0.0
 40
8.0
100
AcDbArc
 50
30.00000000000014
 51
89.9999999999992
  0
ARC
  5
3DE
102
{ACAD_REACTORS
330
79C
102
}
330
1E
100
AcDbEntity
  8
STEMPEL
  6
Continuous
100
AcDbCircle
 10
165.8930309155593
 20
376.9749129353993
 30
0.0
 40
8.0
100
AcDbArc
 50
210.0000000000001
 51
270.0
  0
LINE
  5
3DF
102
{ACAD_REACTORS
330
79C
102
}
330
1E
100
AcDbEntity
  8
STEMPEL
  6
Continuous
100
AcDbLine
 10
159.5421779544735
 20
379.9749129353992
 30
0.0
 11
162.4289293004216
 21
374.9749129353993
 31
0.0
  0
ARC
  5
3E1
102
{ACAD_REACTORS
330
79C
102
}
330
1E
100
AcDbEntity
  8
STEMPEL
  6
Continuous
100
AcDbCircle
 10
143.732776877715
 20
387.9749129353993
 30
0.0
 40
4.0
100
AcDbArc
 50
180.0
 51
270.0
  0
LINE
  5
3E2
102
{ACAD_REACTORS
330
79C
102
}
330
1E
100
AcDbEntity
  8
STEMPEL
  6
Continuous
100
AcDbLine
 10
139.732776877715
 20
387.9749129353993
 30
0.0
 11
139.732776877715
 21
401.9749129353993
 31
0.0
  0
LINE
  5
3E3
102
{ACAD_REACTORS
330
79C
102
}
330
1E
100
AcDbEntity
  8
STEMPEL
  6
Continuous
100
AcDbLine
 10
135.732776877715
 20
401.9749129353993
 30
0.0
 11
135.732776877715
 21
387.9749129353993
 31
0.0
  0
LINE
  5
3E4
102
{ACAD_REACTORS
330
79C
102
}
330
1E
100
AcDbEntity
  8
STEMPEL
  6
Continuous
100
AcDbLine
 10
143.7327768777149
 20
379.9749129353993
 30
0.0
 11
152.613974724198
 21
379.9749129353992
 31
0.0
  0
ARC
  5
3E7
102
{ACAD_REACTORS
330
79C
102
}
330
1E
100
AcDbEntity
  8
STEMPEL
  6
Continuous
100
AcDbCircle
 10
143.732776877715
 20
387.9749129353993
 30
0.0
 40
8.0
100
AcDbArc
 50
180.0
 51
269.9999999999992
  0
LINE
  5
3E9
102
{ACAD_REACTORS
330
76E
102
}
330
1E
100
AcDbEntity
  8
STEMPEL
100
AcDbLine
 10
185.232776877715
 20
258.5882943789995
 30
0.0
 11
186.5451068306038
 21
248.9749129353992
 31
0.0
  0
LINE
  5
3EA
102
{ACAD_REACTORS
330
76E
102
}
330
1E
100
AcDbEntity
  8
STEMPEL
100
AcDbLine
 10
187.232776877715
 20
258.6756162648164
 30
0.0
 11
188.5527465056905
 21
248.9749129353992
 31
0.0
  0
LINE
  5
3ED
102
{ACAD_REACTORS
330
754
330
76E
102
}
330
1E
100
AcDbEntity
  8
STEMPEL
  6
Continuous
100
AcDbLine
 10
185.232776877715
 20
368.9749129353992
 30
0.0
 11
185.232776877715
 21
258.5882943789995
 31
0.0
  0
LINE
  5
3EE
102
{ACAD_REACTORS
330
76E
102
}
330
1E
100
AcDbEntity
  8
STEMPEL
  6
Continuous
100
AcDbLine
 10
187.232776877715
 20
368.9749129353992
 30
0.0
 11
187.232776877715
 21
258.6756162648164
 31
0.0
  0
DIMENSION
  5
3F7
330
1E
100
AcDbEntity
  8
BEM
100
AcDbDimension
  2
*D1
 10
287.232776877715
 20
230.3810245877973
 30
0.0
 11
236.232776877715
 21
236.8810245877973
 31
0.0
 70
    32
  1
%%c<>
 71
     5
 42
102.0
  3
Standard
100
AcDbAlignedDimension
 13
185.232776877715
 23
258.5882943789994
 33
0.0
 14
287.232776877715
 24
258.5882943789997
 34
0.0
100
AcDbRotatedDimension
1001
ACAD
1000
DSTYLE
1002
{
1070
    40
1040
2.0
1070
    41
1040
3.5
1070
    42
1040
1.0
1070
    43
1040
7.0
1070
    44
1040
1.0
1070
    73
1070
     0
1070
    74
1070
     0
1070
    77
1070
     1
1070
    78
1070
     8
1070
    79
1070
     2
1070
   140
1040
3.5
1070
   141
1040
1.5
1070
   146
1040
0.5142857142857144
1070
   147
1040
1.5
1070
   172
1070
     1
1070
   178
1070
     1
1070
   179
1070
     2
1070
   271
1070
     2
1070
   272
1070
     2
1070
   284
1070
     8
1070
   285
1070
     8
1070
   286
1070
     8
1002
}
  0
LINE
  5
3F8
102
{ACAD_REACTORS
330
754
330
76E
330
79C
102
}
330
1E
100
AcDbEntity
  8
STEMPEL
  6
Continuous
100
AcDbLine
 10
306.5725228398707
 20
368.9749129353992
 30
0.0
 11
165.8930309155593
 21
368.9749129353992
 31
0.0
  0
LINE
  5
3FA
102
{ACAD_REACTORS
330
79C
102
}
330
1E
100
AcDbEntity
  8
STEMPEL
  6
Continuous
100
AcDbLine
 10
328.732776877715
 20
383.9749129353993
 30
0.0
 11
143.732776877715
 21
383.974912935397
 31
0.0
  0
LINE
  5
3FB
102
{ACAD_REACTORS
330
79C
102
}
330
1E
100
AcDbEntity
  8
STEMPEL
  6
Continuous
100
AcDbLine
 10
306.5725228398707
 20
372.9749129353992
 30
0.0
 11
165.8930309155593
 21
372.9749129353992
 31
0.0
  0
LINE
  5
3FD
102
{ACAD_REACTORS
330
76E
102
}
330
1E
100
AcDbEntity
  8
STEMPEL
100
AcDbLine
 10
186.5451068306038
 20
248.9749129353992
 30
0.0
 11
285.9204469248261
 21
248.9749129353992
 31
0.0
  0
LINE
  5
3FF
102
{ACAD_REACTORS
330
79C
102
}
330
1E
100
AcDbEntity
  8
STEMPEL
  6
Continuous
100
AcDbLine
 10
336.732776877715
 20
401.9749129353993
 30
0.0
 11
135.732776877715
 21
401.9749129353993
 31
0.0
  0
LINE
  5
400
330
1E
100
AcDbEntity
  8
HILF
100
AcDbLine
 10
190.244236390345
 20
258.6756162648167
 30
0.0
 11
282.2213173650849
 21
258.6756162648175
 31
0.0
  0
TEXT
  5
681
330
1E
100
AcDbEntity
  8
TEXT
 62
     1
100
AcDbText
 10
274.6057658946467
 20
119.8714802567256
 30
0.0
 40
7.0
  1
und innen beschichtet
 41
0.8
  7
GREEKS
100
AcDbText
  0
TEXT
  5
682
330
1E
100
AcDbEntity
  8
TEXT
 62
     1
100
AcDbText
 10
226.6560484572488
 20
130.593592071729
 30
0.0
 40
7.0
  1
Werkstoff: E195 EN10305 feuerverzinkt
 41
0.8
  7
GREEKS
100
AcDbText
  0
ARC
  5
744
102
{ACAD_REACTORS
330
754
102
}
330
1E
100
AcDbEntity
  8
SCHRAFF
100
AcDbCircle
 10
287.232776877715
 20
368.9749129353992
 30
0.0
 40
4.0
100
AcDbArc
 50
270.0
 51
0.0
  0
ARC
  5
745
102
{ACAD_REACTORS
330
754
102
}
330
1E
100
AcDbEntity
  8
SCHRAFF
100
AcDbCircle
 10
185.232776877715
 20
368.9749129353992
 30
0.0
 40
4.0
100
AcDbArc
 50
180.0
 51
270.0
  0
HATCH
  5
754
330
1E
100
AcDbEntity
  8
SCHRAFF
100
AcDbHatch
 10
0.0
 20
0.0
 30
0.0
210
0.0
220
0.0
230
1.0
  2
_USER
 70
     0
 71
     1
 91
        2
 92
        7
 72
     1
 73
     1
 93
        3
 10
287.232776877715
 20
368.9749129353991
 42
0.0
 10
287.232776877715
 20
364.9749129353992
 42
0.4142135623730951
 10
291.232776877715
 20
368.9749129353992
 42
0.0
 97
        3
330
3F8
330
3C5
330
744
 92
        7
 72
     1
 73
     1
 93
        3
 10
185.232776877715
 20
368.9749129353991
 42
0.0
 10
181.232776877715
 20
368.9749129353991
 42
0.4142135623730888
 10
185.232776877715
 20
364.9749129353992
 42
0.0
 97
        3
330
3F8
330
745
330
3ED
 75
     0
 76
     0
 52
0.0
 41
0.1
 77
     0
 78
     1
 53
0.0
 43
23.82676449789551
 44
-130.9654543816095
 45
0.0
 46
0.1
 79
     0
 47
0.2046760829870156
 98
        2
 10
289.8020992111455
 20
368.0244139761708
 10
183.7005159754549
 20
367.4103863721391
  0
HATCH
  5
76E
330
1E
100
AcDbEntity
  8
SCHRAFF
100
AcDbHatch
 10
0.0
 20
0.0
 30
0.0
210
0.0
220
0.0
230
1.0
  2
_USER
 70
     0
 71
     1
 91
        2
 92
        7
 72
     0
 73
     1
 93
        6
 10
287.2327768777149
 20
368.9749129353991
 10
285.232776877715
 20
368.9749129353991
 10
285.232776877715
 20
258.6756162648172
 10
283.9128072497395
 20
248.9749129353992
 10
285.9204469248261
 20
248.9749129353992
 10
287.232776877715
 20
258.5882943789993
 97
        6
330
3F8
330
3C6
330
3C2
330
3FD
330
3C3
330
3C5
 92
        7
 72
     0
 73
     1
 93
        6
 10
185.2327768777149
 20
258.5882943789995
 10
186.5451068306038
 20
248.9749129353992
 10
188.5527465056905
 20
248.9749129353992
 10
187.232776877715
 20
258.6756162648166
 10
187.2327768777149
 20
368.9749129353991
 10
185.232776877715
 20
368.9749129353991
 97
        6
330
3F8
330
3ED
330
3E9
330
3FD
330
3EA
330
3EE
 75
     0
 76
     0
 52
45.0
 41
2.0
 77
     0
 78
     1
 53
45.0
 43
23.82676449789551
 44
-130.9654543816095
 45
-1.414213562373094
 46
1.414213562373095
 79
     0
 47
0.4572790702026418
 98
        2
 10
286.3332615915851
 20
354.0754276040957
 10
186.1141733681297
 20
343.100731122101
  0
HATCH
  5
79C
330
1E
100
AcDbEntity
  8
SCHRAFF
100
AcDbHatch
 10
0.0
 20
0.0
 30
0.0
210
0.0
220
0.0
230
1.0
  2
_USER
 70
     0
 71
     1
 91
        2
 92
        7
 72
     1
 73
     1
 93
       16
 10
285.232776877715
 20
372.9749129353992
 42
0.0
 10
285.232776877715
 20
368.9749129353992
 42
0.0
 10
306.5725228398707
 20
368.9749129353992
 42
0.2679491924311233
 10
313.5007260701461
 20
372.9749129353993
 42
0.0
 10
316.3874774160943
 20
377.9749129353992
 42
-0.2679491924311191
 10
319.851579031232
 20
379.9749129353992
 42
0.0
 10
328.732776877715
 20
379.9749129353993
 42
0.4142135623730951
 10
336.732776877715
 20
387.9749129353993
 42
0.0
 10
336.732776877715
 20
401.9749129353993
 42
0.0
 10
332.732776877715
 20
401.9749129353993
 42
0.0
 10
332.732776877715
 20
387.9749129353993
 42
-0.4142135623730909
 10
328.732776877715
 20
383.9749129353993
 42
0.0
 10
319.851579031232
 20
383.9749129353992
 42
0.2679491924311188
 10
312.9233758009565
 20
379.9749129353993
 42
0.0
 10
310.0366244550083
 20
374.9749129353993
 42
-0.2679491924311275
 10
306.5725228398706
 20
372.9749129353992
 42
0.0
 97
       16
330
3B8
330
3B3
330
3B4
330
3BC
330
3B1
330
3FF
330
3B2
330
3BD
330
3FA
330
3B9
330
3B5
330
3B7
330
3FB
330
3BF
330
3F8
330
3B6
 92
        7
 72
     1
 73
     1
 93
       16
 10
187.232776877715
 20
368.9749129353992
 42
0.0
 10
187.232776877715
 20
372.9749129353992
 42
0.0
 10
165.8930309155593
 20
372.9749129353992
 42
-0.2679491924311207
 10
162.4289293004216
 20
374.9749129353993
 42
0.0
 10
159.5421779544735
 20
379.9749129353992
 42
0.2679491924310832
 10
152.6139747241979
 20
383.9749129353971
 42
0.0
 10
143.732776877715
 20
383.974912935397
 42
-0.4142135623730951
 10
139.732776877715
 20
387.974912935397
 42
0.0
 10
139.732776877715
 20
401.9749129353993
 42
0.0
 10
135.732776877715
 20
401.9749129353993
 42
0.0
 10
135.732776877715
 20
387.9749129353993
 42
0.4142135623730909
 10
143.7327768777149
 20
379.9749129353993
 42
0.0
 10
152.613974724198
 20
379.9749129353992
 42
-0.2679491924311248
 10
156.0780763393358
 20
377.9749129353992
 42
0.0
 10
158.9648276852838
 20
372.9749129353993
 42
0.2679491924311232
 10
165.8930309155593
 20
368.9749129353992
 42
0.0
 97
       16
330
3FB
330
3DA
330
3DF
330
3DD
330
3FA
330
3E1
330
3E2
330
3FF
330
3E3
330
3E7
330
3E4
330
3DB
330
3DC
330
3DE
330
3F8
330
3D8
 75
     0
 76
     0
 52
135.0
 41
5.0
 77
     0
 78
     1
 53
135.0
 43
23.82676449789551
 44
-130.9654543816095
 45
-3.535533905932737
 46
-3.535533905932737
 79
     0
 47
0.4572790702026418
 98
        2
 10
291.8247182804412
 20
371.4520332706872
 10
180.1650956942949
 20
370.0801960210835
  0
TEXT
  5
79D
330
1E
100
AcDbEntity
  8
VOLL
100
AcDbText
 10
230.7292628026316
 20
289.6653552766836
 30
0.0
 40
7.0
  1
DN100
 50
90.0
 41
0.8
  7
GREEKS
100
AcDbText
  0
LINE
  5
7E0
330
1E
100
AcDbEntity
  8
MITTEL
100
AcDbLine
 10
236.232776877715
 20
406.974912935399
 30
0.0
 11
236.232776877715
 21
243.9749129353992
 31
0.0
  0
LINE
  5
90A
330
1E
100
AcDbEntity
  8
STEMPEL
100
AcDbLine
 10
329.732776877715
 20
401.9749129353992
 30
0.0
 11
329.4679951700564
 21
396.9225769791563
 31
0.0
  0
POINT
  5
90B
330
1E
100
AcDbEntity
  8
DEFPOINTS
  6
ByBlock
 62
     0
100
AcDbPoint
 10
329.732776877715
 20
401.9749129353992
 30
0.0
  0
POINT
  5
90C
330
1E
100
AcDbEntity
  8
DEFPOINTS
  6
ByBlock
 62
     0
100
AcDbPoint
 10
329.732776877715
 20
401.9749129353992
 30
0.0
  0
POINT
  5
90D
330
1E
100
AcDbEntity
  8
DEFPOINTS
  6
ByBlock
 62
     0
100
AcDbPoint
 10
329.732776877715
 20
401.9749129353992
 30
0.0
  0
LINE
  5
90E
330
1E
100
AcDbEntity
  8
STEMPEL
100
AcDbLine
 10
328.469365635302
 20
395.9749129353992
 30
0.0
 11
328.232776877715
 21
395.9749129353992
 31
0.0
  0
POINT
  5
90F
330
1E
100
AcDbEntity
  8
DEFPOINTS
  6
ByBlock
 62
     0
100
AcDbPoint
 10
328.469365635302
 20
395.9749129353992
 30
0.0
  0
ARC
  5
910
330
1E
100
AcDbEntity
  8
STEMPEL
100
AcDbCircle
 10
326.6549189596035
 20
384.9749129353993
 30
0.0
 40
1.0
100
AcDbArc
 50
270.0
 51
357.0000000000009
  0
POINT
  5
911
330
1E
100
AcDbEntity
  8
DEFPOINTS
  6
ByBlock
 62
     0
100
AcDbPoint
 10
326.6549189596035
 20
383.9749129353992
 30
0.0
  0
LINE
  5
912
330
1E
100
AcDbEntity
  8
STEMPEL
100
AcDbLine
 10
328.232776877715
 20
395.9749129353992
 30
0.0
 11
327.6535484943581
 21
384.9225769791563
 31
0.0
  0
ARC
  5
913
330
1E
100
AcDbEntity
  8
STEMPEL
100
AcDbCircle
 10
328.469365635302
 20
396.9749129353992
 30
0.0
 40
1.0
100
AcDbArc
 50
270.0
 51
357.0000000000009
  0
ARC
  5
914
330
1E
100
AcDbEntity
  8
STEMPEL
100
AcDbCircle
 10
316.6250814715247
 20
384.9749129353993
 30
0.0
 40
1.0
100
AcDbArc
 50
182.9999999999991
 51
270.0
  0
POINT
  5
915
330
1E
100
AcDbEntity
  8
DEFPOINTS
  6
ByBlock
 62
     0
100
AcDbPoint
 10
315.6264519367701
 20
384.9225769791563
 30
0.0
  0
ARC
  5
916
330
1E
100
AcDbEntity
  8
STEMPEL
100
AcDbCircle
 10
302.8404722839054
 20
384.9749129353993
 30
0.0
 40
1.0
100
AcDbArc
 50
270.0
 51
357.0000000000009
  0
ARC
  5
917
330
1E
100
AcDbEntity
  8
STEMPEL
100
AcDbCircle
 10
295.6250814715245
 20
384.9749129353993
 30
0.0
 40
1.0
100
AcDbArc
 50
182.9999999999991
 51
270.0
  0
LINE
  5
918
330
1E
100
AcDbEntity
  8
STEMPEL
100
AcDbLine
 10
293.732776877715
 20
401.9749129353992
 30
0.0
 11
294.6264519367696
 21
384.9225769791563
 31
0.0
  0
LINE
  5
919
330
1E
100
AcDbEntity
  8
STEMPEL
100
AcDbLine
 10
304.732776877715
 20
401.9749129353992
 30
0.0
 11
303.8391018186603
 21
384.9225769791563
 31
0.0
  0
LINE
  5
91A
330
1E
100
AcDbEntity
  8
STEMPEL
100
AcDbLine
 10
314.732776877715
 20
401.9749129353992
 30
0.0
 11
315.6264519367701
 21
384.9225769791563
 31
0.0
  0
ARC
  5
91B
330
1E
100
AcDbEntity
  8
STEMPEL
100
AcDbCircle
 10
281.8404722839055
 20
384.9749129353993
 30
0.0
 40
1.0
100
AcDbArc
 50
270.0
 51
357.0000000000009
  0
ARC
  5
91C
330
1E
100
AcDbEntity
  8
STEMPEL
100
AcDbCircle
 10
274.6250814715245
 20
384.9749129353993
 30
0.0
 40
1.0
100
AcDbArc
 50
182.9999999999991
 51
270.0
  0
ARC
  5
91D
330
1E
100
AcDbEntity
  8
STEMPEL
100
AcDbCircle
 10
260.8404722839055
 20
384.9749129353993
 30
0.0
 40
1.0
100
AcDbArc
 50
270.0
 51
357.0000000000009
  0
LINE
  5
91E
330
1E
100
AcDbEntity
  8
STEMPEL
100
AcDbLine
 10
262.732776877715
 20
401.9749129353992
 30
0.0
 11
261.8391018186604
 21
384.9225769791563
 31
0.0
  0
LINE
  5
91F
330
1E
100
AcDbEntity
  8
STEMPEL
100
AcDbLine
 10
283.732776877715
 20
401.9749129353992
 30
0.0
 11
282.8391018186603
 21
384.9225769791563
 31
0.0
  0
LINE
  5
920
330
1E
100
AcDbEntity
  8
STEMPEL
100
AcDbLine
 10
272.732776877715
 20
401.9749129353992
 30
0.0
 11
273.6264519367697
 21
384.9225769791563
 31
0.0
  0
ARC
  5
921
330
1E
100
AcDbEntity
  8
STEMPEL
100
AcDbCircle
 10
253.6250814715245
 20
384.9749129353993
 30
0.0
 40
1.0
100
AcDbArc
 50
182.9999999999991
 51
270.0
  0
ARC
  5
922
330
1E
100
AcDbEntity
  8
STEMPEL
100
AcDbCircle
 10
239.8404722839055
 20
384.9749129353993
 30
0.0
 40
1.0
100
AcDbArc
 50
270.0
 51
357.0000000000009
  0
ARC
  5
923
330
1E
100
AcDbEntity
  8
STEMPEL
100
AcDbCircle
 10
232.6250814715245
 20
384.9749129353993
 30
0.0
 40
1.0
100
AcDbArc
 50
182.9999999999991
 51
270.0
  0
LINE
  5
924
330
1E
100
AcDbEntity
  8
STEMPEL
100
AcDbLine
 10
230.732776877715
 20
401.9749129353992
 30
0.0
 11
231.6264519367697
 21
384.9225769791563
 31
0.0
  0
LINE
  5
925
330
1E
100
AcDbEntity
  8
STEMPEL
100
AcDbLine
 10
241.732776877715
 20
401.9749129353992
 30
0.0
 11
240.8391018186604
 21
384.9225769791563
 31
0.0
  0
LINE
  5
926
330
1E
100
AcDbEntity
  8
STEMPEL
100
AcDbLine
 10
251.732776877715
 20
401.9749129353992
 30
0.0
 11
252.6264519367697
 21
384.9225769791563
 31
0.0
  0
ARC
  5
927
330
1E
100
AcDbEntity
  8
STEMPEL
100
AcDbCircle
 10
218.8404722839055
 20
384.9749129353993
 30
0.0
 40
1.0
100
AcDbArc
 50
270.0
 51
357.0000000000009
  0
ARC
  5
928
330
1E
100
AcDbEntity
  8
STEMPEL
100
AcDbCircle
 10
211.6250814715245
 20
384.9749129353993
 30
0.0
 40
1.0
100
AcDbArc
 50
182.9999999999991
 51
270.0
  0
ARC
  5
929
330
1E
100
AcDbEntity
  8
STEMPEL
100
AcDbCircle
 10
197.8404722839055
 20
384.9749129353993
 30
0.0
 40
1.0
100
AcDbArc
 50
270.0
 51
357.0000000000009
  0
ARC
  5
92A
330
1E
100
AcDbEntity
  8
STEMPEL
100
AcDbCircle
 10
190.6250814715245
 20
384.9749129353993
 30
0.0
 40
1.0
100
AcDbArc
 50
182.9999999999991
 51
270.0
  0
LINE
  5
92B
330
1E
100
AcDbEntity
  8
STEMPEL
100
AcDbLine
 10
199.732776877715
 20
401.9749129353992
 30
0.0
 11
198.8391018186604
 21
384.9225769791563
 31
0.0
  0
LINE
  5
92C
330
1E
100
AcDbEntity
  8
STEMPEL
100
AcDbLine
 10
188.732776877715
 20
401.9749129353992
 30
0.0
 11
189.6264519367696
 21
384.9225769791563
 31
0.0
  0
LINE
  5
92D
330
1E
100
AcDbEntity
  8
STEMPEL
100
AcDbLine
 10
220.732776877715
 20
401.9749129353992
 30
0.0
 11
219.8391018186604
 21
384.9225769791563
 31
0.0
  0
LINE
  5
92E
330
1E
100
AcDbEntity
  8
STEMPEL
100
AcDbLine
 10
209.732776877715
 20
401.9749129353992
 30
0.0
 11
210.6264519367697
 21
384.9225769791563
 31
0.0
  0
ARC
  5
92F
330
1E
100
AcDbEntity
  8
STEMPEL
100
AcDbCircle
 10
176.8404722839055
 20
384.9749129353993
 30
0.0
 40
1.0
100
AcDbArc
 50
270.0
 51
357.0000000000009
  0
ARC
  5
930
330
1E
100
AcDbEntity
  8
STEMPEL
100
AcDbCircle
 10
169.6250814715245
 20
384.9749129353993
 30
0.0
 40
1.0
100
AcDbArc
 50
182.9999999999991
 51
270.0
  0
ARC
  5
931
330
1E
100
AcDbEntity
  8
STEMPEL
100
AcDbCircle
 10
155.8404722839053
 20
384.9749129353993
 30
0.0
 40
1.0
100
AcDbArc
 50
270.0
 51
357.0000000000009
  0
POINT
  5
932
330
1E
100
AcDbEntity
  8
DEFPOINTS
  6
ByBlock
 62
     0
100
AcDbPoint
 10
156.8391018186599
 20
384.9225769791563
 30
0.0
  0
LINE
  5
933
330
1E
100
AcDbEntity
  8
STEMPEL
100
AcDbLine
 10
157.732776877715
 20
401.9749129353992
 30
0.0
 11
156.8391018186599
 21
384.9225769791563
 31
0.0
  0
LINE
  5
934
330
1E
100
AcDbEntity
  8
STEMPEL
100
AcDbLine
 10
167.732776877715
 20
401.9749129353992
 30
0.0
 11
168.6264519367697
 21
384.9225769791563
 31
0.0
  0
LINE
  5
935
330
1E
100
AcDbEntity
  8
STEMPEL
100
AcDbLine
 10
178.732776877715
 20
401.9749129353992
 30
0.0
 11
177.8391018186603
 21
384.9225769791563
 31
0.0
  0
LINE
  5
936
330
1E
100
AcDbEntity
  8
STEMPEL
100
AcDbLine
 10
142.732776877715
 20
401.9749129353992
 30
0.0
 11
142.9975585853736
 21
396.9225769791563
 31
0.0
  0
POINT
  5
937
330
1E
100
AcDbEntity
  8
DEFPOINTS
  6
ByBlock
 62
     0
100
AcDbPoint
 10
142.9975585853736
 20
396.9225769791563
 30
0.0
  0
ARC
  5
938
330
1E
100
AcDbEntity
  8
STEMPEL
100
AcDbCircle
 10
145.8106347958265
 20
384.9749129353993
 30
0.0
 40
1.0
100
AcDbArc
 50
182.9999999999991
 51
270.0
  0
POINT
  5
939
330
1E
100
AcDbEntity
  8
DEFPOINTS
  6
ByBlock
 62
     0
100
AcDbPoint
 10
144.8120052610718
 20
384.9225769791563
 30
0.0
  0
LINE
  5
93A
330
1E
100
AcDbEntity
  8
STEMPEL
100
AcDbLine
 10
144.23130770168
 20
396.0029464841428
 30
0.0
 11
144.8120052610718
 21
384.9225769791563
 31
0.0
  0
ARC
  5
93B
330
1E
100
AcDbEntity
  8
STEMPEL
100
AcDbCircle
 10
143.9961881201282
 20
396.9749129353992
 30
0.0
 40
1.0
100
AcDbArc
 50
182.9999999999991
 51
283.5986717994572
  0
LINE
  5
93C
330
1E
100
AcDbEntity
  8
STEMPEL
  6
Continuous
100
AcDbLine
 10
328.732776877715
 20
383.9749129354004
 30
0.0
 11
143.732776877715
 21
383.9749129353982
 31
0.0
  0
HATCH
  5
97D
330
1E
100
AcDbEntity
  8
SCHRAFF
100
AcDbHatch
 10
0.0
 20
0.0
 30
0.0
210
0.0
220
0.0
230
1.0
  2
_USER
 70
     0
 71
     0
 91
       10
 92
        7
 72
     1
 73
     1
 93
        8
 10
157.732776877715
 20
401.9749129353993
 42
0.0
 10
142.732776877715
 20
401.9749129353993
 42
0.0
 10
142.9975585853736
 20
396.9225769791563
 42
0.469491746249005
 10
144.2313077016801
 20
396.0029464841412
 42
0.0
 10
144.8120052610718
 20
384.9225769791563
 42
0.3989595459740209
 10
145.8106347958264
 20
383.9749129353982
 42
0.0
 10
155.8404722839053
 20
383.9749129353983
 42
0.3989595459740062
 10
156.8391018186599
 20
384.9225769791563
 42
0.0
 97
        0
 92
        7
 72
     1
 73
     1
 93
        6
 10
178.732776877715
 20
401.9749129353993
 42
0.0
 10
167.732776877715
 20
401.9749129353993
 42
0.0
 10
168.6264519367697
 20
384.9225769791563
 42
0.3989595459739429
 10
169.6250814715242
 20
383.9749129353984
 42
0.0
 10
176.8404722839055
 20
383.9749129353986
 42
0.3989595459739939
 10
177.8391018186603
 20
384.9225769791563
 42
0.0
 97
        0
 92
        7
 72
     1
 73
     1
 93
        6
 10
199.732776877715
 20
401.9749129353993
 42
0.0
 10
188.732776877715
 20
401.9749129353993
 42
0.0
 10
189.6264519367696
 20
384.9225769791563
 42
0.3989595459738647
 10
190.6250814715242
 20
383.9749129353987
 42
0.0
 10
197.8404722839055
 20
383.9749129353988
 42
0.3989595459739157
 10
198.8391018186604
 20
384.9225769791563
 42
0.0
 97
        0
 92
        7
 72
     1
 73
     1
 93
        6
 10
220.7327768777151
 20
401.9749129353993
 42
0.0
 10
209.732776877715
 20
401.9749129353993
 42
0.0
 10
210.6264519367697
 20
384.9225769791563
 42
0.3989595459738021
 10
211.6250814715243
 20
383.974912935399
 42
0.0
 10
218.8404722839055
 20
383.974912935399
 42
0.3989595459738533
 10
219.8391018186604
 20
384.9225769791563
 42
0.0
 97
        0
 92
        7
 72
     1
 73
     1
 93
        5
 10
236.232776877715
 20
401.9749129353993
 42
0.0
 10
230.732776877715
 20
401.9749129353993
 42
0.0
 10
231.6264519367697
 20
384.9225769791563
 42
0.398959545973724
 10
232.6250814715243
 20
383.9749129353992
 42
0.0
 10
236.232776877715
 20
383.9749129353992
 42
0.0
 97
        0
 92
        7
 72
     1
 73
     1
 93
        5
 10
241.732776877715
 20
401.9749129353993
 42
0.0
 10
236.232776877715
 20
401.9749129353993
 42
0.0
 10
236.232776877715
 20
383.9749129353992
 42
0.0
 10
239.8404722839055
 20
383.9749129353993
 42
0.3989595459737906
 10
240.8391018186604
 20
384.9225769791563
 42
0.0
 97
        0
 92
        7
 72
     1
 73
     1
 93
        6
 10
262.732776877715
 20
401.9749129353993
 42
0.0
 10
251.7327768777151
 20
401.9749129353993
 42
0.0
 10
252.6264519367697
 20
384.9225769791563
 42
0.3989595459736614
 10
253.6250814715243
 20
383.9749129353995
 42
0.0
 10
260.8404722839055
 20
383.9749129353996
 42
0.3989595459737125
 10
261.8391018186604
 20
384.9225769791563
 42
0.0
 97
        0
 92
        7
 72
     1
 73
     1
 93
        6
 10
283.732776877715
 20
401.9749129353993
 42
0.0
 10
272.732776877715
 20
401.9749129353993
 42
0.0
 10
273.6264519367697
 20
384.9225769791563
 42
0.3989595459735833
 10
274.6250814715243
 20
383.9749129353998
 42
0.0
 10
281.8404722839055
 20
383.9749129353998
 42
0.3989595459736499
 10
282.8391018186603
 20
384.9225769791563
 42
0.0
 97
        0
 92
        7
 72
     1
 73
     1
 93
        6
 10
304.732776877715
 20
401.9749129353993
 42
0.0
 10
293.7327768777149
 20
401.9749129353992
 42
0.0
 10
294.6264519367696
 20
384.9225769791563
 42
0.3989595459735207
 10
295.6250814715242
 20
383.9749129354
 42
0.0
 10
302.8404722839054
 20
383.9749129354001
 42
0.3989595459735718
 10
303.8391018186603
 20
384.9225769791563
 42
0.0
 97
        0
 92
        7
 72
     1
 73
     1
 93
        9
 10
328.232776877715
 20
395.9749129353992
 42
0.0
 10
328.469365635302
 20
395.9749129353992
 42
0.3989595459736745
 10
329.4679951700564
 20
396.9225769791563
 42
0.0
 10
329.732776877715
 20
401.9749129353992
 42
0.0
 10
314.732776877715
 20
401.9749129353992
 42
0.0
 10
315.6264519367701
 20
384.9225769791563
 42
0.3989595459734582
 10
316.6250814715247
 20
383.9749129354002
 42
0.0
 10
326.6549189596035
 20
383.9749129354003
 42
0.3989595459734434
 10
327.6535484943581
 20
384.9225769791563
 42
0.0
 97
        0
 75
     0
 76
     0
 52
45.0
 41
5.0
 77
     0
 78
     1
 53
45.0
 43
14.29520768188195
 44
30.94977948772316
 45
-3.535533905932737
 46
3.535533905932737
 79
     0
 47
0.3352239651448677
 98
       10
 10
153.3645011758567
 20
396.2507135625196
 10
172.1510966654987
 20
396.2507135625196
 10
192.2795912522051
 20
395.915489919089
 10
214.0854617429263
 20
396.2507135625196
 10
234.2139590398779
 20
396.2507135625196
 10
238.9106072347272
 20
396.2507135625196
 10
255.3488786269445
 20
395.915489919089
 10
275.1418991169458
 20
393.5689216159681
 10
296.6122955109622
 20
393.2336979725371
 10
318.0826919049782
 20
393.5689216159681
  0
DIMENSION
  5
97E
330
1E
100
AcDbEntity
  8
BEM
100
AcDbDimension
  2
*D2
 10
336.732776877715
 20
413.7274226109175
 30
0.0
 11
236.7005408533732
 21
413.7274226109175
 31
0.0
 70
   160
 71
     5
 42
200.9999999999999
  3
Standard
100
AcDbAlignedDimension
 13
135.732776877715
 23
401.9749129353993
 33
0.0
 14
336.732776877715
 24
401.9749129353993
 34
0.0
100
AcDbRotatedDimension
1001
ACAD
1000
DSTYLE
1002
{
1070
    40
1040
2.0
1070
    41
1040
3.5
1070
    42
1040
1.0
1070
    43
1040
7.0
1070
    44
1040
1.0
1070
    73
1070
     0
1070
    74
1070
     0
1070
    77
1070
     1
1070
    78
1070
     8
1070
    79
1070
     2
1070
   140
1040
3.5
1070
   141
1040
1.5
1070
   146
1040
0.5142857142857144
1070
   147
1040
1.5
1070
   172
1070
     1
1070
   178
1070
     1
1070
   179
1070
     2
1070
   271
1070
     2
1070
   272
1070
     2
1070
   284
1070
     8
1070
   285
1070
     8
1070
   286
1070
     8
1002
}
  0
LINE
  5
993
330
1E
100
AcDbEntity
  8
BEM
 62
     1
100
AcDbLine
 10
221.3740094526547
 20
423.7470550272403
 30
0.0
 11
228.3740094526546
 21
423.7470550272403
 31
0.0
  0
LINE
  5
994
330
1E
100
AcDbEntity
  8
BEM
 62
     1
100
AcDbLine
 10
228.3740094526546
 20
416.7470550272403
 30
0.0
 11
221.3740094526547
 21
416.7470550272403
 31
0.0
  0
LINE
  5
995
330
1E
100
AcDbEntity
  8
BEM
 62
     1
100
AcDbLine
 10
221.3740094526547
 20
416.7470550272403
 30
0.0
 11
221.3740094526547
 21
423.7470550272403
 31
0.0
  0
LINE
  5
996
330
1E
100
AcDbEntity
  8
BEM
 62
     1
100
AcDbLine
 10
228.3740094526546
 20
423.7470550272403
 30
0.0
 11
228.3740094526546
 21
416.7470550272403
 31
0.0
  0
DIMENSION
  5
9B2
330
1E
100
AcDbEntity
  8
BEM
100
AcDbDimension
  2
*D3
 10
122.6191105760258
 20
368.9749129353994
 30
0.0
 11
116.1191105760257
 21
308.9749129353993
 31
0.0
 70
    32
 71
     5
 42
120.0000000000001
  3
Standard
100
AcDbAlignedDimension
 13
186.5451068306038
 23
248.9749129353992
 33
0.0
 14
165.8930309155593
 24
368.9749129353993
 34
0.0
 50
90.0
100
AcDbRotatedDimension
1001
ACAD
1000
DSTYLE
1002
{
1070
    40
1040
2.0
1070
    41
1040
3.5
1070
    42
1040
1.0
1070
    43
1040
7.0
1070
    44
1040
1.0
1070
    73
1070
     0
1070
    74
1070
     0
1070
    77
1070
     1
1070
    78
1070
     8
1070
    79
1070
     2
1070
   140
1040
3.5
1070
   141
1040
1.5
1070
   146
1040
0.5142857142857144
1070
   147
1040
1.5
1070
   172
1070
     1
1070
   178
1070
     1
1070
   179
1070
     2
1070
   271
1070
     2
1070
   272
1070
     2
1070
   284
1070
     8
1070
   285
1070
     8
1070
   286
1070
     8
1002
}
  0
DIMENSION
  5
9BF
330
1E
100
AcDbEntity
  8
BEM
100
AcDbDimension
  2
*D4
 10
122.6191105760258
 20
401.9749129353993
 30
0.0
 11
116.1191105760258
 21
385.4749129353994
 31
0.0
 70
    32
 71
     5
 42
33.0
  3
Standard
100
AcDbAlignedDimension
 13
165.8930309155593
 23
368.9749129353993
 33
0.0
 14
135.732776877715
 24
401.9749129353993
 34
0.0
 50
90.0
100
AcDbRotatedDimension
1001
ACAD
1000
DSTYLE
1002
{
1070
   279
1070
     1
1070
    40
1040
2.0
1070
    41
1040
3.5
1070
    42
1040
1.0
1070
    43
1040
7.0
1070
    44
1040
1.0
1070
    73
1070
     0
1070
    74
1070
     0
1070
    77
1070
     1
1070
    78
1070
     8
1070
    79
1070
     2
1070
   140
1040
3.5
1070
   141
1040
1.5
1070
   146
1040
0.5142857142857144
1070
   147
1040
1.5
1070
   172
1070
     1
1070
   178
1070
     1
1070
   179
1070
     2
1070
   271
1070
     2
1070
   272
1070
     2
1070
   284
1070
     8
1070
   285
1070
     8
1070
   286
1070
     8
1002
}
  0
DIMENSION
  5
9CC
330
1E
100
AcDbEntity
  8
BEM
100
AcDbDimension
  2
*D5
 10
108.1163171170478
 20
401.9749129353993
 30
0.0
 11
101.6163171170478
 21
325.4749129353993
 31
0.0
 70
    32
 71
     5
 42
153.0000000000001
  3
Standard
100
AcDbAlignedDimension
 13
186.5451068306038
 23
248.9749129353992
 33
0.0
 14
135.732776877715
 24
401.9749129353993
 34
0.0
 50
90.0
100
AcDbRotatedDimension
1001
ACAD
1000
DSTYLE
1002
{
1070
    40
1040
2.0
1070
    41
1040
3.5
1070
    42
1040
1.0
1070
    43
1040
7.0
1070
    44
1040
1.0
1070
    73
1070
     0
1070
    74
1070
     0
1070
    77
1070
     1
1070
    78
1070
     8
1070
    79
1070
     2
1070
   140
1040
3.5
1070
   141
1040
1.5
1070
   146
1040
0.5142857142857144
1070
   147
1040
1.5
1070
   172
1070
     1
1070
   178
1070
     1
1070
   179
1070
     2
1070
   271
1070
     2
1070
   272
1070
     2
1070
   284
1070
     8
1070
   285
1070
     8
1070
   286
1070
     8
1002
}
  0
LINE
  5
9E5
330
1E
100
AcDbEntity
  8
TEXT
 62
     2
100
AcDbLine
 10
199.2856440743339
 20
461.8975013611591
 30
0.0
 11
180.9712969853951
 21
417.0703529872244
 31
0.0
  0
LINE
  5
9E6
330
1E
100
AcDbEntity
  8
TEXT
 62
     2
100
AcDbLine
 10
199.2856440743339
 20
461.8975013611591
 30
0.0
 11
302.4151897591735
 21
461.8975013611591
 31
0.0
  0
TEXT
  5
9E7
330
1E
100
AcDbEntity
  8
TEXT
 62
     1
100
AcDbText
 10
199.8716189883563
 20
465.2774067780556
 30
0.0
 40
7.0
  1
Sieb
 41
0.8
  7
GREEKS
100
AcDbText
  0
TEXT
  5
9E8
330
1E
100
AcDbEntity
  8
TEXT
 62
     1
100
AcDbText
 10
199.8716189883563
 20
452.4110973840964
 30
0.0
 40
7.0
  1
EDV-Art.Nr. 18615.000X
 41
0.8
  7
GREEKS
100
AcDbText
  0
TEXT
  5
9E9
330
1E
100
AcDbEntity
  8
TEXT
 62
     1
100
AcDbText
 10
179.7380237210069
 20
188.1432376511926
 30
0.0
 40
7.0
  1
EDV-Art.Nr. 18610.100X
 41
0.8
  7
GREEKS
100
AcDbText
  0
TEXT
  5
9EA
330
1E
100
AcDbEntity
  8
TEXT
 62
     1
100
AcDbText
 10
179.7380237210069
 20
201.0095470451519
 30
0.0
 40
7.0
  1
Siebaufnahme DN100
 41
0.8
  7
GREEKS
100
AcDbText
  0
LINE
  5
9EB
330
1E
100
AcDbEntity
  8
TEXT
 62
     2
100
AcDbLine
 10
172.832432871728
 20
197.6296416282554
 30
0.0
 11
282.9468159380511
 21
197.6296416282554
 31
0.0
  0
LINE
  5
9EC
330
1E
100
AcDbEntity
  8
TEXT
 62
     2
100
AcDbLine
 10
172.832432871728
 20
197.6296416282554
 30
0.0
 11
186.2233518261476
 21
267.930066819702
 31
0.0
  0
LINE
  5
A1A
330
1E
100
AcDbEntity
  8
TEXT
 62
     2
100
AcDbLine
 10
178.063955781617
 20
409.9541934603511
 30
0.0
 11
172.2206665606444
 21
395.6518548823872
 31
0.0
  0
ENDSEC
  0
SECTION
  2
OBJECTS
  0
DICTIONARY
  5
C
330
0
100
AcDbDictionary
281
     1
  3
ACAD_COLOR
350
DF
  3
ACAD_GROUP
350
D
  3
ACAD_LAYOUT
350
19
  3
ACAD_MATERIAL
350
DE
  3
ACAD_MLINESTYLE
350
16
  3
ACAD_PLOTSETTINGS
350
18
  3
ACAD_PLOTSTYLENAME
350
E
  3
AcDbVariableDictionary
350
EA
  0
DICTIONARY
  5
A0
330
1E
100
AcDbDictionary
280
     1
281
     1
  3
ACAD_LAYOUTSELFREF
360
D4
  0
DICTIONARY
  5
A2
330
1A
100
AcDbDictionary
280
     1
281
     1
  3
ACAD_LAYOUTSELFREF
360
D3
  0
DICTIONARY
  5
DF
102
{ACAD_REACTORS
330
C
102
}
330
C
100
AcDbDictionary
281
     1
  0
DICTIONARY
  5
D
102
{ACAD_REACTORS
330
C
102
}
330
C
100
AcDbDictionary
281
     1
  0
DICTIONARY
  5
19
102
{ACAD_REACTORS
330
C
102
}
330
C
100
AcDbDictionary
281
     1
  3
Layout1
350
1D
  3
Model
350
21
  0
DICTIONARY
  5
DE
102
{ACAD_REACTORS
330
C
102
}
330
C
100
AcDbDictionary
281
     1
  0
DICTIONARY
  5
16
102
{ACAD_REACTORS
330
C
102
}
330
C
100
AcDbDictionary
281
     1
  3
Standard
350
17
  0
DICTIONARY
  5
18
102
{ACAD_REACTORS
330
C
102
}
330
C
100
AcDbDictionary
281
     1
  0
ACDBDICTIONARYWDFLT
  5
E
102
{ACAD_REACTORS
330
C
102
}
330
C
100
AcDbDictionary
281
     1
  3
Normal
350
F
100
AcDbDictionaryWithDefault
340
F
  0
DICTIONARY
  5
EA
102
{ACAD_REACTORS
330
C
102
}
330
C
100
AcDbDictionary
281
     1
  3
DIMASSOC
350
EB
  3
PROJECTNAME
350
EC
  0
XRECORD
  5
D4
102
{ACAD_REACTORS
330
A0
102
}
330
A0
100
AcDbXrecord
280
     1
340
1E
  0
XRECORD
  5
D3
102
{ACAD_REACTORS
330
A2
102
}
330
A2
100
AcDbXrecord
280
     1
340
1A
  0
LAYOUT
  5
1D
102
{ACAD_REACTORS
330
19
102
}
330
19
100
AcDbPlotSettings
  1

  2
\\NT_WORK01\HP LaserJet 5000 PCL 6
  4

  6

 40
0.0
 41
0.0
 42
0.0
 43
0.0
 44
0.0
 45
0.0
 46
0.0
 47
0.0
 48
0.0
 49
0.0
140
0.0
141
0.0
142
1.0
143
1.0
 70
   688
 72
     0
 73
     0
 74
     5
  7

 75
    16
147
1.0
 76
     0
 77
     2
 78
   300
148
0.0
149
0.0
100
AcDbLayout
  1
Layout1
 70
     0
 71
     1
 10
0.0
 20
0.0
 11
12.0
 21
9.0
 12
0.0
 22
0.0
 32
0.0
 14
1.000000000000000E+20
 24
1.000000000000000E+20
 34
1.000000000000000E+20
 15
-1.000000000000000E+20
 25
-1.000000000000000E+20
 35
-1.000000000000000E+20
146
0.0
 13
0.0
 23
0.0
 33
0.0
 16
1.0
 26
0.0
 36
0.0
 17
0.0
 27
1.0
 37
0.0
 76
     0
330
1A
  0
LAYOUT
  5
21
102
{ACAD_REACTORS
330
19
102
}
330
19
100
AcDbPlotSettings
  1

  2
none_device
  4
Letter_(8.50_x_11.00_Inches)
  6

 40
6.349999904632568
 41
6.349999904632568
 42
6.350006103515625
 43
6.350006103515625
 44
215.8999938964844
 45
279.3999938964844
 46
0.0
 47
0.0
 48
0.0
 49
0.0
140
0.0
141
0.0
142
1.0
143
1.0
 70
 11952
 72
     0
 73
     1
 74
     0
  7

 75
     0
147
1.0
 76
     0
 77
     2
 78
   300
148
2308.834842883197
149
99.06852033336205
100
AcDbLayout
  1
Model
 70
     1
 71
     0
 10
0.0
 20
0.0
 11
12.0
 21
9.0
 12
0.0
 22
0.0
 32
0.0
 14
0.0
 24
0.0
 34
0.0
 15
0.0
 25
0.0
 35
0.0
146
0.0
 13
0.0
 23
0.0
 33
0.0
 16
1.0
 26
0.0
 36
0.0
 17
0.0
 27
1.0
 37
0.0
 76
     0
330
1E
  0
MLINESTYLE
  5
17
102
{ACAD_REACTORS
330
16
102
}
330
16
100
AcDbMlineStyle
  2
STANDARD
 70
     0
  3

 62
   256
 51
90.0
 52
90.0
 71
     2
 49
0.5
 62
   256
  6
BYLAYER
 49
-0.5
 62
   256
  6
BYLAYER
  0
ACDBPLACEHOLDER
  5
F
102
{ACAD_REACTORS
330
E
102
}
330
E
  0
DICTIONARYVAR
  5
EB
102
{ACAD_REACTORS
330
EA
102
}
330
EA
100
DictionaryVariables
280
     0
  1
1
  0
DICTIONARYVAR
  5
EC
102
{ACAD_REACTORS
330
EA
102
}
330
EA
100
DictionaryVariables
280
     0
  1

  0
ENDSEC
  0
EOF
