  0
SECTION
  2
HEADER
  9
$ACADVER
  1
AC1018
  9
$ACADMAINTVER
 70
     2
  9
$DWGCODEPAGE
  3
ANSI_1252
  9
$INSBASE
 10
0.0
 20
0.0
 30
0.0
  9
$EXTMIN
 10
-0.032032210177249
 20
-0.0453026972511452
 30
-0.0000000000000053
  9
$EXTMAX
 10
420.0000048900107
 20
594.000006915872
 30
0.0000000000000099
  9
$LIMMIN
 10
0.0
 20
0.0
  9
$LIMMAX
 10
419.9999999999999
 20
594.0
  9
$ORTHOMODE
 70
     1
  9
$REGENMODE
 70
     1
  9
$FILLMODE
 70
     1
  9
$QTEXTMODE
 70
     0
  9
$MIRRTEXT
 70
     1
  9
$LTSCALE
 40
20.0
  9
$ATTMODE
 70
     1
  9
$TEXTSIZE
 40
3.5
  9
$TRACEWID
 40
0.5
  9
$TEXTSTYLE
  7
STANDARD
  9
$CLAYER
  8
BEM
  9
$CELTYPE
  6
ByLayer
  9
$CECOLOR
 62
   256
  9
$CELTSCALE
 40
1.0
  9
$DISPSILH
 70
     0
  9
$DIMSCALE
 40
2.0
  9
$DIMASZ
 40
3.5
  9
$DIMEXO
 40
1.0
  9
$DIMDLI
 40
7.0
  9
$DIMRND
 40
0.0
  9
$DIMDLE
 40
0.0
  9
$DIMEXE
 40
1.0
  9
$DIMTP
 40
0.0
  9
$DIMTM
 40
0.0
  9
$DIMTXT
 40
3.5
  9
$DIMCEN
 40
1.5
  9
$DIMTSZ
 40
0.0
  9
$DIMTOL
 70
     0
  9
$DIMLIM
 70
     0
  9
$DIMTIH
 70
     0
  9
$DIMTOH
 70
     0
  9
$DIMSE1
 70
     0
  9
$DIMSE2
 70
     0
  9
$DIMTAD
 70
     1
  9
$DIMZIN
 70
     8
  9
$DIMBLK
  1

  9
$DIMASO
 70
     1
  9
$DIMSHO
 70
     0
  9
$DIMPOST
  1

  9
$DIMAPOST
  1

  9
$DIMALT
 70
     0
  9
$DIMALTD
 70
     2
  9
$DIMALTF
 40
25.4
  9
$DIMLFAC
 40
1.0
  9
$DIMTOFL
 70
     1
  9
$DIMTVP
 40
0.0
  9
$DIMTIX
 70
     0
  9
$DIMSOXD
 70
     0
  9
$DIMSAH
 70
     0
  9
$DIMBLK1
  1

  9
$DIMBLK2
  1

  9
$DIMSTYLE
  2
Standard
  9
$DIMCLRD
 70
     0
  9
$DIMCLRE
 70
     0
  9
$DIMCLRT
 70
     1
  9
$DIMTFAC
 40
0.5142857142857144
  9
$DIMGAP
 40
1.5
  9
$DIMJUST
 70
     0
  9
$DIMSD1
 70
     0
  9
$DIMSD2
 70
     0
  9
$DIMTOLJ
 70
     1
  9
$DIMTZIN
 70
     8
  9
$DIMALTZ
 70
     8
  9
$DIMALTTZ
 70
     8
  9
$DIMUPT
 70
     0
  9
$DIMDEC
 70
     2
  9
$DIMTDEC
 70
     2
  9
$DIMALTU
 70
     2
  9
$DIMALTTD
 70
     2
  9
$DIMTXSTY
  7
STANDARD
  9
$DIMAUNIT
 70
     0
  9
$DIMADEC
 70
     2
  9
$DIMALTRND
 40
0.0
  9
$DIMAZIN
 70
     2
  9
$DIMDSEP
 70
    46
  9
$DIMATFIT
 70
     3
  9
$DIMFRAC
 70
     0
  9
$DIMLDRBLK
  1

  9
$DIMLUNIT
 70
     2
  9
$DIMLWD
 70
    -2
  9
$DIMLWE
 70
    -2
  9
$DIMTMOVE
 70
     0
  9
$LUNITS
 70
     2
  9
$LUPREC
 70
     2
  9
$SKETCHINC
 40
1.0
  9
$FILLETRAD
 40
0.0
  9
$AUNITS
 70
     0
  9
$AUPREC
 70
     0
  9
$MENU
  1
ACAD
  9
$ELEVATION
 40
0.0
  9
$PELEVATION
 40
0.0
  9
$THICKNESS
 40
0.0
  9
$LIMCHECK
 70
     0
  9
$CHAMFERA
 40
0.0
  9
$CHAMFERB
 40
0.0
  9
$CHAMFERC
 40
0.0
  9
$CHAMFERD
 40
0.0
  9
$SKPOLY
 70
     0
  9
$TDCREATE
 40
2455397.864709028
  9
$TDUCREATE
 40
2455397.781375695
  9
$TDUPDATE
 40
2455469.433253715
  9
$TDUUPDATE
 40
2455469.349920382
  9
$TDINDWG
 40
0.0926567361
  9
$TDUSRTIMER
 40
0.0926567361
  9
$USRTIMER
 70
     1
  9
$ANGBASE
 50
0.0
  9
$ANGDIR
 70
     0
  9
$PDMODE
 70
     0
  9
$PDSIZE
 40
0.0
  9
$PLINEWID
 40
0.0
  9
$SPLFRAME
 70
     0
  9
$SPLINETYPE
 70
     6
  9
$SPLINESEGS
 70
     8
  9
$HANDSEED
  5
1822
  9
$SURFTAB1
 70
     6
  9
$SURFTAB2
 70
     6
  9
$SURFTYPE
 70
     6
  9
$SURFU
 70
     6
  9
$SURFV
 70
     6
  9
$UCSBASE
  2

  9
$UCSNAME
  2

  9
$UCSORG
 10
0.0
 20
0.0
 30
0.0
  9
$UCSXDIR
 10
1.0
 20
0.0
 30
0.0
  9
$UCSYDIR
 10
0.0
 20
1.0
 30
0.0
  9
$UCSORTHOREF
  2

  9
$UCSORTHOVIEW
 70
     0
  9
$UCSORGTOP
 10
0.0
 20
0.0
 30
0.0
  9
$UCSORGBOTTOM
 10
0.0
 20
0.0
 30
0.0
  9
$UCSORGLEFT
 10
0.0
 20
0.0
 30
0.0
  9
$UCSORGRIGHT
 10
0.0
 20
0.0
 30
0.0
  9
$UCSORGFRONT
 10
0.0
 20
0.0
 30
0.0
  9
$UCSORGBACK
 10
0.0
 20
0.0
 30
0.0
  9
$PUCSBASE
  2

  9
$PUCSNAME
  2

  9
$PUCSORG
 10
0.0
 20
0.0
 30
0.0
  9
$PUCSXDIR
 10
1.0
 20
0.0
 30
0.0
  9
$PUCSYDIR
 10
0.0
 20
1.0
 30
0.0
  9
$PUCSORTHOREF
  2

  9
$PUCSORTHOVIEW
 70
     0
  9
$PUCSORGTOP
 10
0.0
 20
0.0
 30
0.0
  9
$PUCSORGBOTTOM
 10
0.0
 20
0.0
 30
0.0
  9
$PUCSORGLEFT
 10
0.0
 20
0.0
 30
0.0
  9
$PUCSORGRIGHT
 10
0.0
 20
0.0
 30
0.0
  9
$PUCSORGFRONT
 10
0.0
 20
0.0
 30
0.0
  9
$PUCSORGBACK
 10
0.0
 20
0.0
 30
0.0
  9
$USERI1
 70
     0
  9
$USERI2
 70
     0
  9
$USERI3
 70
     0
  9
$USERI4
 70
     0
  9
$USERI5
 70
     0
  9
$USERR1
 40
0.0
  9
$USERR2
 40
0.0
  9
$USERR3
 40
0.0
  9
$USERR4
 40
0.0
  9
$USERR5
 40
0.0
  9
$WORLDVIEW
 70
     1
  9
$SHADEDGE
 70
     3
  9
$SHADEDIF
 70
    70
  9
$TILEMODE
 70
     1
  9
$MAXACTVP
 70
    16
  9
$PINSBASE
 10
0.0
 20
0.0
 30
0.0
  9
$PLIMCHECK
 70
     0
  9
$PEXTMIN
 10
1.000000000000000E+20
 20
1.000000000000000E+20
 30
1.000000000000000E+20
  9
$PEXTMAX
 10
-1.000000000000000E+20
 20
-1.000000000000000E+20
 30
-1.000000000000000E+20
  9
$PLIMMIN
 10
0.0
 20
0.0
  9
$PLIMMAX
 10
12.0
 20
9.0
  9
$UNITMODE
 70
     0
  9
$VISRETAIN
 70
     0
  9
$PLINEGEN
 70
     0
  9
$PSLTSCALE
 70
     0
  9
$TREEDEPTH
 70
  3020
  9
$CMLSTYLE
  2
Standard
  9
$CMLJUST
 70
     0
  9
$CMLSCALE
 40
1.0
  9
$PROXYGRAPHICS
 70
     1
  9
$MEASUREMENT
 70
     0
  9
$CELWEIGHT
370
    -1
  9
$ENDCAPS
280
     0
  9
$JOINSTYLE
280
     0
  9
$LWDISPLAY
290
     0
  9
$INSUNITS
 70
     0
  9
$HYPERLINKBASE
  1

  9
$STYLESHEET
  1
monochrome 1.ctb
  9
$XEDIT
290
     1
  9
$CEPSNTYPE
380
     0
  9
$PSTYLEMODE
290
     1
  9
$FINGERPRINTGUID
  2
{D68B0D02-A558-11D7-B632-000102183313}
  9
$VERSIONGUID
  2
{E2F46B44-B228-42BE-8540-82E29680BD5C}
  9
$EXTNAMES
290
     1
  9
$PSVPSCALE
 40
0.0
  9
$OLESTARTUP
290
     0
  9
$SORTENTS
280
   127
  9
$INDEXCTL
280
     0
  9
$HIDETEXT
280
     0
  9
$XCLIPFRAME
290
     0
  9
$HALOGAP
280
     0
  9
$OBSCOLOR
 70
   257
  9
$OBSLTYPE
280
     0
  9
$INTERSECTIONDISPLAY
280
     0
  9
$INTERSECTIONCOLOR
 70
   257
  9
$DIMASSOC
280
     1
  9
$PROJECTNAME
  1

  0
ENDSEC
  0
SECTION
  2
CLASSES
  0
CLASS
  1
ACDBDICTIONARYWDFLT
  2
AcDbDictionaryWithDefault
  3
ObjectDBX Classes
 90
        0
 91
        1
280
     0
281
     0
  0
CLASS
  1
DICTIONARYVAR
  2
AcDbDictionaryVar
  3
ObjectDBX Classes
 90
        0
 91
        2
280
     0
281
     0
  0
ENDSEC
  0
SECTION
  2
TABLES
  0
TABLE
  2
VPORT
  5
8
330
0
100
AcDbSymbolTable
 70
     2
  0
VPORT
  5
1821
330
8
100
AcDbSymbolTableRecord
100
AcDbViewportTableRecord
  2
*Active
 70
     0
 10
0.0
 20
0.0
 11
1.0
 21
1.0
 12
209.9839863399167
 22
296.9773521093105
 13
0.0
 23
0.0
 14
1.0
 24
1.0
 15
10.0
 25
10.0
 16
0.0
 26
0.0
 36
1.0
 17
0.0
 27
0.0
 37
0.0
 40
598.8424453569707
 41
1.336927223719676
 42
50.0
 43
0.0
 44
0.0
 50
0.0
 51
0.0
 71
     0
 72
  1500
 73
     1
 74
     0
 75
     0
 76
     0
 77
     0
 78
     0
281
     0
 65
     1
110
0.0
120
0.0
130
0.0
111
1.0
121
0.0
131
0.0
112
0.0
122
1.0
132
0.0
 79
     0
146
0.0
  0
ENDTAB
  0
TABLE
  2
LTYPE
  5
5
330
0
100
AcDbSymbolTable
 70
     2
  0
LTYPE
  5
13
330
5
100
AcDbSymbolTableRecord
100
AcDbLinetypeTableRecord
  2
ByBlock
 70
     0
  3

 72
    65
 73
     0
 40
0.0
  0
LTYPE
  5
14
330
5
100
AcDbSymbolTableRecord
100
AcDbLinetypeTableRecord
  2
ByLayer
 70
     0
  3

 72
    65
 73
     0
 40
0.0
  0
LTYPE
  5
15
330
5
100
AcDbSymbolTableRecord
100
AcDbLinetypeTableRecord
  2
Continuous
 70
     0
  3
Solid line
 72
    65
 73
     0
 40
0.0
  0
LTYPE
  5
25
330
5
100
AcDbSymbolTableRecord
100
AcDbLinetypeTableRecord
  2
STRICHPUNKT
 70
     0
  3
__ . __ . __ . __ . __ . __ . __ . __ . __ . __
 72
    65
 73
     4
 40
1.0
 49
0.5
 74
     0
 49
-0.25
 74
     0
 49
0.0
 74
     0
 49
-0.25
 74
     0
  0
ENDTAB
  0
TABLE
  2
LAYER
  5
2
330
0
100
AcDbSymbolTable
 70
     9
  0
LAYER
  5
10
330
2
100
AcDbSymbolTableRecord
100
AcDbLayerTableRecord
  2
0
 70
     0
 62
     7
  6
Continuous
370
    -3
390
F
  0
LAYER
  5
2A
330
2
100
AcDbSymbolTableRecord
100
AcDbLayerTableRecord
  2
VOLL
 70
     0
 62
     1
  6
Continuous
370
    -3
390
F
  0
LAYER
  5
2B
330
2
100
AcDbSymbolTableRecord
100
AcDbLayerTableRecord
  2
HILF
 70
     0
 62
     2
  6
Continuous
370
    -3
390
F
  0
LAYER
  5
2C
330
2
100
AcDbSymbolTableRecord
100
AcDbLayerTableRecord
  2
MITTEL
 70
     0
 62
     2
  6
STRICHPUNKT
370
    -3
390
F
  0
LAYER
  5
2F
330
2
100
AcDbSymbolTableRecord
100
AcDbLayerTableRecord
  2
BEM
 70
     0
 62
     7
  6
Continuous
370
    -3
390
F
  0
LAYER
  5
30
330
2
100
AcDbSymbolTableRecord
100
AcDbLayerTableRecord
  2
STEMPEL
 70
     0
 62
     3
  6
Continuous
370
    -3
390
F
  0
LAYER
  5
31
330
2
100
AcDbSymbolTableRecord
100
AcDbLayerTableRecord
  2
TEXT
 70
     0
 62
     7
  6
Continuous
370
    -3
390
F
  0
LAYER
  5
7D5
330
2
100
AcDbSymbolTableRecord
100
AcDbLayerTableRecord
  2
DEFPOINTS
 70
     0
 62
     7
  6
Continuous
290
     0
370
    -3
390
F
  0
LAYER
  5
9C4
330
2
100
AcDbSymbolTableRecord
100
AcDbLayerTableRecord
  2
SCHRAFF
 70
     0
 62
     7
  6
Continuous
370
    -3
390
F
  0
ENDTAB
  0
TABLE
  2
STYLE
  5
3
330
0
100
AcDbSymbolTable
 70
     2
  0
STYLE
  5
11
330
3
100
AcDbSymbolTableRecord
100
AcDbTextStyleTableRecord
  2
STANDARD
 70
     0
 40
0.0
 41
0.8
 50
0.0
 71
     0
 42
3.5
  3
simplex.shx
  4

  0
STYLE
  5
24
330
3
100
AcDbSymbolTableRecord
100
AcDbTextStyleTableRecord
  2
GREEKS
 70
     0
 40
0.0
 41
0.8
 50
0.0
 71
     0
 42
2.5
  3
SIMPLEX.shx
  4

  0
ENDTAB
  0
TABLE
  2
VIEW
  5
6
330
0
100
AcDbSymbolTable
 70
     0
  0
ENDTAB
  0
TABLE
  2
UCS
  5
7
330
0
100
AcDbSymbolTable
 70
     0
  0
ENDTAB
  0
TABLE
  2
APPID
  5
9
330
0
100
AcDbSymbolTable
 70
     1
  0
APPID
  5
12
330
9
100
AcDbSymbolTableRecord
100
AcDbRegAppTableRecord
  2
ACAD
 70
     0
  0
ENDTAB
  0
TABLE
  2
DIMSTYLE
  5
A
330
0
100
AcDbSymbolTable
 70
     1
100
AcDbDimStyleTable
 71
     1
340
9D
  0
DIMSTYLE
105
9D
102
{ACAD_REACTORS
330
15BB
330
15BA
330
1599
330
1598
330
17E2
330
17EF
102
}
330
A
100
AcDbSymbolTableRecord
100
AcDbDimStyleTableRecord
  2
Standard
 70
     0
340
11
  0
ENDTAB
  0
TABLE
  2
BLOCK_RECORD
  5
1
330
0
100
AcDbSymbolTable
 70
     7
  0
BLOCK_RECORD
  5
1E
102
{ACAD_XDICTIONARY
360
A0
102
}
330
1
100
AcDbSymbolTableRecord
100
AcDbBlockTableRecord
  2
*Model_Space
340
21
  0
BLOCK_RECORD
  5
1A
102
{ACAD_XDICTIONARY
360
A2
102
}
330
1
100
AcDbSymbolTableRecord
100
AcDbBlockTableRecord
  2
*Paper_Space
340
1D
  0
BLOCK_RECORD
  5
22
330
1
100
AcDbSymbolTableRecord
100
AcDbBlockTableRecord
  2
LOGO
340
0
102
{BLKREFS
331
9B
102
}
  0
BLOCK_RECORD
  5
15D1
330
1
100
AcDbSymbolTableRecord
100
AcDbBlockTableRecord
  2
*D1
340
0
  0
BLOCK_RECORD
  5
15DE
330
1
100
AcDbSymbolTableRecord
100
AcDbBlockTableRecord
  2
*D2
340
0
  0
BLOCK_RECORD
  5
15F8
330
1
100
AcDbSymbolTableRecord
100
AcDbBlockTableRecord
  2
*D3
340
0
  0
BLOCK_RECORD
  5
1605
330
1
100
AcDbSymbolTableRecord
100
AcDbBlockTableRecord
  2
*D4
340
0
  0
BLOCK_RECORD
  5
17E3
330
1
100
AcDbSymbolTableRecord
100
AcDbBlockTableRecord
  2
*D5
340
0
  0
BLOCK_RECORD
  5
17F0
330
1
100
AcDbSymbolTableRecord
100
AcDbBlockTableRecord
  2
*D6
340
0
  0
ENDTAB
  0
ENDSEC
  0
SECTION
  2
BLOCKS
  0
BLOCK
  5
35
330
1E
100
AcDbEntity
  8
0
100
AcDbBlockBegin
  2
*Model_Space
 70
     0
 10
0.0
 20
0.0
 30
0.0
  3
*Model_Space
  1

  0
ENDBLK
  5
36
330
1E
100
AcDbEntity
  8
0
100
AcDbBlockEnd
  0
BLOCK
  5
33
330
1A
100
AcDbEntity
 67
     1
  8
0
100
AcDbBlockBegin
  2
*Paper_Space
 70
     0
 10
0.0
 20
0.0
 30
0.0
  3
*Paper_Space
  1

  0
ENDBLK
  5
34
330
1A
100
AcDbEntity
 67
     1
  8
0
100
AcDbBlockEnd
  0
BLOCK
  5
37
330
22
100
AcDbEntity
  8
0
100
AcDbBlockBegin
  2
LOGO
 70
     0
 10
0.0
 20
0.0
 30
0.0
  3
LOGO
  1

  0
ARC
  5
38
330
22
100
AcDbEntity
  8
0
100
AcDbCircle
 10
11.59973089678112
 20
-9.271599258481501
 30
0.0
 40
4.5
100
AcDbArc
 50
270.0
 51
231.0575587310159
  0
LINE
  5
39
330
22
100
AcDbEntity
  8
0
100
AcDbLine
 10
3.599730896781125
 20
-4.771599258481529
 30
0.0
 11
3.599730896781153
 21
-11.77159925848133
 31
0.0
  0
LINE
  5
3A
330
22
100
AcDbEntity
  8
0
100
AcDbLine
 10
2.599730896781125
 20
-4.771599258481529
 30
0.0
 11
2.599730896781153
 21
-11.77159925848133
 31
0.0
  0
CIRCLE
  5
3B
330
22
100
AcDbEntity
  8
0
100
AcDbCircle
 10
11.59973089678112
 20
-9.271599258481501
 30
0.0
 40
3.5
  0
ARC
  5
3C
330
22
100
AcDbEntity
  8
0
100
AcDbCircle
 10
31.59973089678115
 20
-9.271599258481472
 30
0.0
 40
4.5
100
AcDbArc
 50
270.0
 51
231.0575587310182
  0
LINE
  5
3D
330
22
100
AcDbEntity
  8
0
100
AcDbLine
 10
17.59973089678112
 20
-4.771599258481472
 30
0.0
 11
17.59973089678115
 21
-13.77159925848147
 31
0.0
  0
ARC
  5
3E
330
22
100
AcDbEntity
  8
0
100
AcDbCircle
 10
22.59973089678116
 20
-7.271599258481472
 30
0.0
 40
2.5
100
AcDbArc
 50
293.1161887722295
 51
90.0
  0
CIRCLE
  5
3F
330
22
100
AcDbEntity
  8
0
100
AcDbCircle
 10
31.59973089678115
 20
-9.271599258481472
 30
0.0
 40
3.5
  0
ARC
  5
40
330
22
100
AcDbEntity
  8
0
100
AcDbCircle
 10
4.599730896781153
 20
-11.77159925848133
 30
0.0
 40
1.0
100
AcDbArc
 50
180.0
 51
270.0
  0
ARC
  5
41
330
22
100
AcDbEntity
  8
0
100
AcDbCircle
 10
4.599730896781153
 20
-11.77159925848133
 30
0.0
 40
2.0
100
AcDbArc
 50
179.9999999999992
 51
270.0
  0
LINE
  5
42
330
22
100
AcDbEntity
  8
0
100
AcDbLine
 10
11.59973089678115
 20
-13.77159925848144
 30
0.0
 11
4.599730896781153
 21
-13.77159925848147
 31
0.0
  0
LINE
  5
43
330
22
100
AcDbEntity
  8
0
100
AcDbLine
 10
8.771303772034769
 20
-12.77159925848136
 30
0.0
 11
4.599730896781153
 21
-12.77159925848133
 31
0.0
  0
LINE
  5
44
330
22
100
AcDbEntity
  8
0
100
AcDbLine
 10
31.59973089678115
 20
-13.77159925848147
 30
0.0
 11
23.6715276665056
 21
-13.77159925848144
 31
0.0
  0
LINE
  5
45
330
22
100
AcDbEntity
  8
0
100
AcDbLine
 10
23.56565672307022
 20
-9.51278021337896
 30
0.0
 11
24.4388546544846
 21
-12.77159925848144
 31
0.0
  0
LINE
  5
46
330
22
100
AcDbEntity
  8
0
100
AcDbLine
 10
22.59973089678116
 20
-9.771599258481472
 30
0.0
 11
18.59973089678112
 21
-9.771599258481472
 31
0.0
  0
LINE
  5
47
330
22
100
AcDbEntity
  8
0
100
AcDbLine
 10
18.59973089678115
 20
-13.77159925848144
 30
0.0
 11
17.59973089678115
 21
-13.77159925848144
 31
0.0
  0
LINE
  5
48
330
22
100
AcDbEntity
  8
0
100
AcDbLine
 10
18.59973089678115
 20
-9.771599258481472
 30
0.0
 11
18.59973089678115
 21
-13.77159925848144
 31
0.0
  0
LINE
  5
49
330
22
100
AcDbEntity
  8
0
100
AcDbLine
 10
22.59973089678116
 20
-9.771599258481472
 30
0.0
 11
23.67152766650562
 21
-13.77159925848147
 31
0.0
  0
ARC
  5
4A
330
22
100
AcDbEntity
  8
0
100
AcDbCircle
 10
22.59973089678116
 20
-7.271599258481472
 30
0.0
 40
2.5
100
AcDbArc
 50
270.0
 51
270.0000000000007
  0
LINE
  5
4B
330
22
100
AcDbEntity
  8
0
100
AcDbLine
 10
28.77130377203494
 20
-12.77159925848147
 30
0.0
 11
24.43885465448463
 21
-12.77159925848144
 31
0.0
  0
LINE
  5
4C
330
22
100
AcDbEntity
  8
0
100
AcDbLine
 10
3.599730896781125
 20
-4.771599258481472
 30
0.0
 11
2.599730896781125
 21
-4.771599258481472
 31
0.0
  0
LINE
  5
4D
330
22
100
AcDbEntity
  8
0
100
AcDbLine
 10
22.59973089678116
 20
-8.771599258481472
 30
0.0
 11
18.59973089678115
 21
-8.771599258481472
 31
0.0
  0
LINE
  5
4E
330
22
100
AcDbEntity
  8
0
100
AcDbLine
 10
22.59973089678116
 20
-5.771599258481472
 30
0.0
 11
18.59973089678115
 21
-5.771599258481472
 31
0.0
  0
LINE
  5
4F
330
22
100
AcDbEntity
  8
0
100
AcDbLine
 10
22.59973089678116
 20
-4.771599258481472
 30
0.0
 11
17.59973089678115
 21
-4.771599258481472
 31
0.0
  0
LINE
  5
50
330
22
100
AcDbEntity
  8
0
100
AcDbLine
 10
18.59973089678115
 20
-5.771599258481472
 30
0.0
 11
18.59973089678115
 21
-8.771599258481472
 31
0.0
  0
ARC
  5
51
330
22
100
AcDbEntity
  8
0
100
AcDbCircle
 10
22.59973089678116
 20
-7.271599258481472
 30
0.0
 40
1.5
100
AcDbArc
 50
270.0
 51
90.0
  0
ENDBLK
  5
52
330
22
100
AcDbEntity
  8
0
100
AcDbBlockEnd
  0
BLOCK
  5
15DC
330
15D1
100
AcDbEntity
  8
0
100
AcDbBlockBegin
  2
*D1
 70
     1
 10
0.0
 20
0.0
 30
0.0
  3
*D1
  1

  0
LINE
  5
177D
330
15D1
100
AcDbEntity
  8
BEM
 62
     0
370
    -2
100
AcDbLine
 10
284.2081986770665
 20
545.0881759042702
 30
0.0
 11
404.9888608643014
 21
545.0881759042702
 31
0.0
  0
LINE
  5
177E
330
15D1
100
AcDbEntity
  8
BEM
 62
     0
370
    -2
100
AcDbLine
 10
277.0844168382595
 20
145.0881759042702
 30
0.0
 11
404.9888608643014
 21
145.0881759042701
 31
0.0
  0
LINE
  5
177F
330
15D1
100
AcDbEntity
  8
BEM
 62
     0
370
    -2
100
AcDbLine
 10
402.9888608643014
 20
538.0881759042702
 30
0.0
 11
402.9888608643013
 21
152.0881759042701
 31
0.0
  0
SOLID
  5
1780
330
15D1
100
AcDbEntity
  8
BEM
 62
     0
100
AcDbTrace
 10
401.8221941976348
 20
538.0881759042702
 30
0.0
 11
404.1555275309681
 21
538.0881759042702
 31
0.0
 12
402.9888608643014
 22
545.0881759042702
 32
0.0
 13
402.9888608643014
 23
545.0881759042702
 33
0.0
  0
SOLID
  5
1781
330
15D1
100
AcDbEntity
  8
BEM
 62
     0
100
AcDbTrace
 10
401.8221941976347
 20
152.0881759042701
 30
0.0
 11
404.155527530968
 21
152.0881759042701
 31
0.0
 12
402.9888608643013
 22
145.0881759042701
 32
0.0
 13
402.9888608643013
 23
145.0881759042701
 33
0.0
  0
MTEXT
  5
1782
330
15D1
100
AcDbEntity
  8
BEM
 62
     1
100
AcDbMText
 10
396.4888608643013
 20
345.0881759042703
 30
0.0
 40
7.0
 41
0.0
 71
     5
 72
     1
  1
\A1;400
 11
0.0000000000000001
 21
1.0
 31
0.0
 73
     1
 44
1.0
  0
POINT
  5
1783
330
15D1
100
AcDbEntity
  8
DEFPOINTS
 62
     0
100
AcDbPoint
 10
282.2081986770665
 20
545.0881759042702
 30
0.0
  0
POINT
  5
1784
330
15D1
100
AcDbEntity
  8
DEFPOINTS
 62
     0
100
AcDbPoint
 10
275.0844168382595
 20
145.0881759042702
 30
0.0
  0
POINT
  5
1785
330
15D1
100
AcDbEntity
  8
DEFPOINTS
 62
     0
100
AcDbPoint
 10
402.9888608643013
 20
145.0881759042701
 30
0.0
  0
ENDBLK
  5
15DD
330
15D1
100
AcDbEntity
  8
0
100
AcDbBlockEnd
  0
BLOCK
  5
15E9
330
15DE
100
AcDbEntity
  8
0
100
AcDbBlockBegin
  2
*D2
 70
     1
 10
0.0
 20
0.0
 30
0.0
  3
*D2
  1

  0
LINE
  5
1763
330
15DE
100
AcDbEntity
  8
BEM
 62
     0
370
    -2
100
AcDbLine
 10
284.2081986770665
 20
545.0881759042702
 30
0.0
 11
391.3100701919544
 21
545.0881759042702
 31
0.0
  0
LINE
  5
1764
330
15DE
100
AcDbEntity
  8
BEM
 62
     0
370
    -2
100
AcDbLine
 10
376.4497538796604
 20
465.0881759042702
 30
0.0
 11
391.3100701919544
 21
465.0881759042702
 31
0.0
  0
LINE
  5
1765
330
15DE
100
AcDbEntity
  8
BEM
 62
     0
370
    -2
100
AcDbLine
 10
389.3100701919544
 20
538.0881759042702
 30
0.0
 11
389.3100701919544
 21
472.0881759042701
 31
0.0
  0
SOLID
  5
1766
330
15DE
100
AcDbEntity
  8
BEM
 62
     0
100
AcDbTrace
 10
388.1434035252878
 20
538.0881759042702
 30
0.0
 11
390.4767368586211
 21
538.0881759042702
 31
0.0
 12
389.3100701919544
 22
545.0881759042702
 32
0.0
 13
389.3100701919544
 23
545.0881759042702
 33
0.0
  0
SOLID
  5
1767
330
15DE
100
AcDbEntity
  8
BEM
 62
     0
100
AcDbTrace
 10
388.1434035252878
 20
472.0881759042701
 30
0.0
 11
390.4767368586211
 21
472.0881759042701
 31
0.0
 12
389.3100701919544
 22
465.0881759042702
 32
0.0
 13
389.3100701919544
 23
465.0881759042702
 33
0.0
  0
MTEXT
  5
1768
330
15DE
100
AcDbEntity
  8
BEM
 62
     1
100
AcDbMText
 10
382.8100701919544
 20
505.0881759042702
 30
0.0
 40
7.0
 41
0.0
 71
     5
 72
     1
  1
\A1;80
 11
0.0000000000000001
 21
1.0
 31
0.0
 73
     1
 44
1.0
  0
POINT
  5
1769
330
15DE
100
AcDbEntity
  8
DEFPOINTS
 62
     0
100
AcDbPoint
 10
282.2081986770665
 20
545.0881759042702
 30
0.0
  0
POINT
  5
176A
330
15DE
100
AcDbEntity
  8
DEFPOINTS
 62
     0
100
AcDbPoint
 10
374.4497538796604
 20
465.0881759042702
 30
0.0
  0
POINT
  5
176B
330
15DE
100
AcDbEntity
  8
DEFPOINTS
 62
     0
100
AcDbPoint
 10
389.3100701919544
 20
465.0881759042702
 30
0.0
  0
ENDBLK
  5
15EA
330
15DE
100
AcDbEntity
  8
0
100
AcDbBlockEnd
  0
BLOCK
  5
1603
330
15F8
100
AcDbEntity
  8
0
100
AcDbBlockBegin
  2
*D3
 70
     1
 10
0.0
 20
0.0
 30
0.0
  3
*D3
  1

  0
LINE
  5
1659
330
15F8
100
AcDbEntity
  8
BEM
 62
     0
370
    -2
100
AcDbLine
 10
44.44975387966036
 20
461.0881759042704
 30
0.0
 11
44.44975387966036
 21
418.8001960256172
 31
0.0
  0
LINE
  5
165A
330
15F8
100
AcDbEntity
  8
BEM
 62
     0
370
    -2
100
AcDbLine
 10
374.4497538796604
 20
461.0881759042703
 30
0.0
 11
374.4497538796604
 21
418.8001960256172
 31
0.0
  0
LINE
  5
165B
330
15F8
100
AcDbEntity
  8
BEM
 62
     0
370
    -2
100
AcDbLine
 10
51.44975387966036
 20
420.8001960256171
 30
0.0
 11
367.4497538796604
 21
420.8001960256171
 31
0.0
  0
SOLID
  5
165C
330
15F8
100
AcDbEntity
  8
BEM
 62
     0
100
AcDbTrace
 10
51.44975387966036
 20
421.9668626922838
 30
0.0
 11
51.44975387966036
 21
419.6335293589505
 31
0.0
 12
44.44975387966036
 22
420.8001960256171
 32
0.0
 13
44.44975387966036
 23
420.8001960256171
 33
0.0
  0
SOLID
  5
165D
330
15F8
100
AcDbEntity
  8
BEM
 62
     0
100
AcDbTrace
 10
367.4497538796604
 20
421.9668626922838
 30
0.0
 11
367.4497538796604
 21
419.6335293589505
 31
0.0
 12
374.4497538796604
 22
420.8001960256171
 32
0.0
 13
374.4497538796604
 23
420.8001960256171
 33
0.0
  0
MTEXT
  5
165E
330
15F8
100
AcDbEntity
  8
BEM
 62
     1
100
AcDbMText
 10
209.4497538796604
 20
427.3001960256172
 30
0.0
 40
7.0
 41
0.0
 71
     5
 72
     1
  1
\A1;%%C330
 73
     1
 44
1.0
  0
POINT
  5
165F
330
15F8
100
AcDbEntity
  8
DEFPOINTS
 62
     0
100
AcDbPoint
 10
44.44975387966036
 20
463.0881759042703
 30
0.0
  0
POINT
  5
1660
330
15F8
100
AcDbEntity
  8
DEFPOINTS
 62
     0
100
AcDbPoint
 10
374.4497538796604
 20
463.0881759042702
 30
0.0
  0
POINT
  5
1661
330
15F8
100
AcDbEntity
  8
DEFPOINTS
 62
     0
100
AcDbPoint
 10
374.4497538796604
 20
420.8001960256171
 30
0.0
  0
ENDBLK
  5
1604
330
15F8
100
AcDbEntity
  8
0
100
AcDbBlockEnd
  0
BLOCK
  5
1610
330
1605
100
AcDbEntity
  8
0
100
AcDbBlockBegin
  2
*D4
 70
     1
 10
0.0
 20
0.0
 30
0.0
  3
*D4
  1

  0
LINE
  5
164E
330
1605
100
AcDbEntity
  8
BEM
 62
     0
370
    -2
100
AcDbLine
 10
376.4497538796604
 20
465.0881759042702
 30
0.0
 11
391.2232308934282
 21
465.0881759042702
 31
0.0
  0
LINE
  5
164F
330
1605
100
AcDbEntity
  8
BEM
 62
     0
370
    -2
100
AcDbLine
 10
376.4497538796604
 20
463.0881759042702
 30
0.0
 11
391.2232308934282
 21
463.0881759042702
 31
0.0
  0
LINE
  5
1650
330
1605
100
AcDbEntity
  8
BEM
 62
     0
370
    -2
100
AcDbLine
 10
389.2232308934282
 20
472.0881759042701
 30
0.0
 11
389.2232308934282
 21
479.0881759042702
 31
0.0
  0
LINE
  5
1651
330
1605
100
AcDbEntity
  8
BEM
 62
     0
370
    -2
100
AcDbLine
 10
389.2232308934282
 20
456.0881759042702
 30
0.0
 11
389.2232308934282
 21
439.3548425709369
 31
0.0
  0
LINE
  5
1652
330
1605
100
AcDbEntity
  8
BEM
 62
     0
370
    -2
100
AcDbLine
 10
389.2232308934282
 20
465.0881759042702
 30
0.0
 11
389.2232308934282
 21
463.0881759042702
 31
0.0
  0
SOLID
  5
1653
330
1605
100
AcDbEntity
  8
BEM
 62
     0
100
AcDbTrace
 10
388.0565642267614
 20
472.0881759042701
 30
0.0
 11
390.3898975600948
 21
472.0881759042701
 31
0.0
 12
389.2232308934282
 22
465.0881759042702
 32
0.0
 13
389.2232308934282
 23
465.0881759042702
 33
0.0
  0
SOLID
  5
1654
330
1605
100
AcDbEntity
  8
BEM
 62
     0
100
AcDbTrace
 10
388.0565642267614
 20
456.0881759042702
 30
0.0
 11
390.3898975600948
 21
456.0881759042702
 31
0.0
 12
389.2232308934282
 22
463.0881759042702
 32
0.0
 13
389.2232308934282
 23
463.0881759042702
 33
0.0
  0
MTEXT
  5
1655
330
1605
100
AcDbEntity
  8
BEM
 62
     1
100
AcDbMText
 10
382.723230893428
 20
444.2215092376037
 30
0.0
 40
7.0
 41
0.0
 71
     5
 72
     1
  1
\A1;2
 11
0.0000000000000001
 21
1.0
 31
0.0
 73
     1
 44
1.0
  0
POINT
  5
1656
330
1605
100
AcDbEntity
  8
DEFPOINTS
 62
     0
100
AcDbPoint
 10
374.4497538796604
 20
465.0881759042702
 30
0.0
  0
POINT
  5
1657
330
1605
100
AcDbEntity
  8
DEFPOINTS
 62
     0
100
AcDbPoint
 10
374.4497538796604
 20
463.0881759042702
 30
0.0
  0
POINT
  5
1658
330
1605
100
AcDbEntity
  8
DEFPOINTS
 62
     0
100
AcDbPoint
 10
389.2232308934282
 20
463.0881759042702
 30
0.0
  0
ENDBLK
  5
1611
330
1605
100
AcDbEntity
  8
0
100
AcDbBlockEnd
  0
BLOCK
  5
17ED
330
17E3
100
AcDbEntity
  8
0
100
AcDbBlockBegin
  2
*D5
 70
     1
 10
0.0
 20
0.0
 30
0.0
  3
*D5
  1

  0
LINE
  5
17E4
330
17E3
100
AcDbEntity
  8
BEM
 62
     0
370
    -2
100
AcDbLine
 10
266.4497538796603
 20
267.0911816951432
 30
0.0
 11
259.4497538796603
 21
267.0911816951432
 31
0.0
  0
LINE
  5
17E5
330
17E3
100
AcDbEntity
  8
BEM
 62
     0
370
    -2
100
AcDbLine
 10
282.9497538796603
 20
267.0911816951432
 30
0.0
 11
307.6830872129936
 21
267.0911816951432
 31
0.0
  0
LINE
  5
17E6
330
17E3
100
AcDbEntity
  8
BEM
 62
     0
370
    -2
100
AcDbLine
 10
273.4497538796603
 20
267.0911816951432
 30
0.0
 11
275.9497538796603
 21
267.0911816951432
 31
0.0
  0
SOLID
  5
17E7
330
17E3
100
AcDbEntity
  8
BEM
 62
     0
100
AcDbTrace
 10
266.4497538796603
 20
268.2578483618099
 30
0.0
 11
266.4497538796603
 21
265.9245150284765
 31
0.0
 12
273.4497538796603
 22
267.0911816951432
 32
0.0
 13
273.4497538796603
 23
267.0911816951432
 33
0.0
  0
SOLID
  5
17E8
330
17E3
100
AcDbEntity
  8
BEM
 62
     0
100
AcDbTrace
 10
282.9497538796603
 20
268.2578483618099
 30
0.0
 11
282.9497538796603
 21
265.9245150284765
 31
0.0
 12
275.9497538796603
 22
267.0911816951432
 32
0.0
 13
275.9497538796603
 23
267.0911816951432
 33
0.0
  0
MTEXT
  5
17E9
330
17E3
100
AcDbEntity
  8
BEM
 62
     1
100
AcDbMText
 10
298.816420546327
 20
273.5911816951432
 30
0.0
 40
7.0
 41
0.0
 71
     5
 72
     1
  1
\A1;2.5
 73
     1
 44
1.0
  0
POINT
  5
17EA
330
17E3
100
AcDbEntity
  8
DEFPOINTS
 62
     0
100
AcDbPoint
 10
273.4497538796603
 20
267.0911816951432
 30
0.0
  0
POINT
  5
17EB
330
17E3
100
AcDbEntity
  8
DEFPOINTS
 62
     0
100
AcDbPoint
 10
275.9497538796603
 20
267.0911816951432
 30
0.0
  0
POINT
  5
17EC
330
17E3
100
AcDbEntity
  8
DEFPOINTS
 62
     0
100
AcDbPoint
 10
275.9497538796603
 20
267.0911816951432
 30
0.0
  0
ENDBLK
  5
17EE
330
17E3
100
AcDbEntity
  8
0
100
AcDbBlockEnd
  0
BLOCK
  5
17FA
330
17F0
100
AcDbEntity
  8
0
100
AcDbBlockBegin
  2
*D6
 70
     1
 10
0.0
 20
0.0
 30
0.0
  3
*D6
  1

  0
LINE
  5
17FC
330
17F0
100
AcDbEntity
  8
BEM
 62
     0
370
    -2
100
AcDbLine
 10
142.9497538796603
 20
152.9790235469991
 30
0.0
 11
142.9497538796603
 21
122.6300416748101
 31
0.0
  0
LINE
  5
17FD
330
17F0
100
AcDbEntity
  8
BEM
 62
     0
370
    -2
100
AcDbLine
 10
275.9497538796603
 20
152.9790235469978
 30
0.0
 11
275.9497538796603
 21
122.6300416748101
 31
0.0
  0
LINE
  5
17FE
330
17F0
100
AcDbEntity
  8
BEM
 62
     0
370
    -2
100
AcDbLine
 10
149.9497538796603
 20
124.6300416748101
 30
0.0
 11
268.9497538796603
 21
124.6300416748101
 31
0.0
  0
SOLID
  5
17FF
330
17F0
100
AcDbEntity
  8
BEM
 62
     0
100
AcDbTrace
 10
149.9497538796603
 20
125.7967083414768
 30
0.0
 11
149.9497538796603
 21
123.4633750081435
 31
0.0
 12
142.9497538796603
 22
124.6300416748101
 32
0.0
 13
142.9497538796603
 23
124.6300416748101
 33
0.0
  0
SOLID
  5
1800
330
17F0
100
AcDbEntity
  8
BEM
 62
     0
100
AcDbTrace
 10
268.9497538796603
 20
125.7967083414768
 30
0.0
 11
268.9497538796603
 21
123.4633750081435
 31
0.0
 12
275.9497538796603
 22
124.6300416748101
 32
0.0
 13
275.9497538796603
 23
124.6300416748101
 33
0.0
  0
MTEXT
  5
1801
330
17F0
100
AcDbEntity
  8
BEM
 62
     1
100
AcDbMText
 10
209.4497538796603
 20
131.1300416748101
 30
0.0
 40
7.0
 41
0.0
 71
     5
 72
     1
  1
\A1;%%c133
 73
     1
 44
1.0
  0
POINT
  5
1802
330
17F0
100
AcDbEntity
  8
DEFPOINTS
 62
     0
100
AcDbPoint
 10
142.9497538796603
 20
154.9790235469991
 30
0.0
  0
POINT
  5
1803
330
17F0
100
AcDbEntity
  8
DEFPOINTS
 62
     0
100
AcDbPoint
 10
275.9497538796603
 20
154.9790235469977
 30
0.0
  0
POINT
  5
1804
330
17F0
100
AcDbEntity
  8
DEFPOINTS
 62
     0
100
AcDbPoint
 10
275.9497538796603
 20
124.6300416748101
 30
0.0
  0
ENDBLK
  5
17FB
330
17F0
100
AcDbEntity
  8
0
100
AcDbBlockEnd
  0
ENDSEC
  0
SECTION
  2
ENTITIES
  0
LINE
  5
57
330
1E
100
AcDbEntity
  8
STEMPEL
100
AcDbLine
 10
410.0
 20
110.0
 30
0.0
 11
29.99999999999997
 21
110.0
 31
0.0
  0
LINE
  5
58
330
1E
100
AcDbEntity
  8
STEMPEL
100
AcDbLine
 10
136.0000000000001
 20
109.9999999999999
 30
0.0
 11
136.0
 21
9.999999999999971
 31
0.0
  0
LINE
  5
59
330
1E
100
AcDbEntity
  8
STEMPEL
100
AcDbLine
 10
220.0
 20
110.0
 30
0.0
 11
220.0
 21
9.999999999999971
 31
0.0
  0
LINE
  5
5A
330
1E
100
AcDbEntity
  8
STEMPEL
100
AcDbLine
 10
332.0
 20
109.9999999999997
 30
0.0
 11
332.0
 21
40.0
 31
0.0
  0
LINE
  5
5B
330
1E
100
AcDbEntity
  8
STEMPEL
100
AcDbLine
 10
135.9999999999999
 20
29.99999999999997
 30
0.0
 11
29.99999999999997
 21
29.99999999999997
 31
0.0
  0
LINE
  5
5C
330
1E
100
AcDbEntity
  8
STEMPEL
100
AcDbLine
 10
410.0
 20
40.0
 30
0.0
 11
136.0000000000001
 21
39.99999999999997
 31
0.0
  0
LINE
  5
5D
330
1E
100
AcDbEntity
  8
STEMPEL
100
AcDbLine
 10
410.0
 20
80.0
 30
0.0
 11
136.0000000000001
 21
79.99999999999994
 31
0.0
  0
LINE
  5
5E
330
1E
100
AcDbEntity
  8
VOLL
100
AcDbLine
 10
44.00000000000008
 20
110.0
 30
0.0
 11
43.99999999999997
 21
9.999999999999971
 31
0.0
  0
LINE
  5
5F
330
1E
100
AcDbEntity
  8
VOLL
100
AcDbLine
 10
94.00000000000011
 20
109.9999999999999
 30
0.0
 11
94.0
 21
9.999999999999971
 31
0.0
  0
LINE
  5
60
330
1E
100
AcDbEntity
  8
VOLL
100
AcDbLine
 10
114.0000000000001
 20
109.9999999999999
 30
0.0
 11
114.0
 21
9.999999999999971
 31
0.0
  0
LINE
  5
61
330
1E
100
AcDbEntity
  8
VOLL
100
AcDbLine
 10
154.0000000000001
 20
79.99999999999994
 30
0.0
 11
154.0000000000001
 21
39.99999999999997
 31
0.0
  0
LINE
  5
62
330
1E
100
AcDbEntity
  8
VOLL
100
AcDbLine
 10
180.0000000000001
 20
109.9999999999998
 30
0.0
 11
180.0
 21
39.99999999999997
 31
0.0
  0
LINE
  5
63
330
1E
100
AcDbEntity
  8
HILF
100
AcDbLine
 10
30.00000000000009
 20
100.0
 30
0.0
 11
136.0000000000001
 21
100.0
 31
0.0
  0
LINE
  5
64
330
1E
100
AcDbEntity
  8
HILF
100
AcDbLine
 10
30.00000000000009
 20
90.00000000000005
 30
0.0
 11
136.0000000000001
 21
90.00000000000005
 31
0.0
  0
LINE
  5
65
330
1E
100
AcDbEntity
  8
HILF
100
AcDbLine
 10
30.00000000000009
 20
79.99999999999994
 30
0.0
 11
136.0000000000001
 21
79.99999999999994
 31
0.0
  0
LINE
  5
66
330
1E
100
AcDbEntity
  8
HILF
100
AcDbLine
 10
30.00000000000009
 20
69.99999999999994
 30
0.0
 11
136.0000000000001
 21
69.99999999999994
 31
0.0
  0
LINE
  5
67
330
1E
100
AcDbEntity
  8
HILF
100
AcDbLine
 10
30.00000000000009
 20
59.99999999999997
 30
0.0
 11
136.0000000000001
 21
59.99999999999997
 31
0.0
  0
LINE
  5
68
330
1E
100
AcDbEntity
  8
HILF
100
AcDbLine
 10
30.00000000000009
 20
49.99999999999997
 30
0.0
 11
136.0000000000001
 21
49.99999999999997
 31
0.0
  0
LINE
  5
69
330
1E
100
AcDbEntity
  8
HILF
100
AcDbLine
 10
30.00000000000009
 20
39.99999999999997
 30
0.0
 11
136.0000000000001
 21
39.99999999999997
 31
0.0
  0
LINE
  5
6A
330
1E
100
AcDbEntity
  8
HILF
100
AcDbLine
 10
136.0000000000001
 20
69.99999999999994
 30
0.0
 11
220.0
 21
69.99999999999994
 31
0.0
  0
LINE
  5
6B
330
1E
100
AcDbEntity
  8
HILF
100
AcDbLine
 10
136.0000000000001
 20
59.99999999999997
 30
0.0
 11
220.0
 21
59.99999999999997
 31
0.0
  0
LINE
  5
6C
330
1E
100
AcDbEntity
  8
HILF
100
AcDbLine
 10
136.0000000000001
 20
49.99999999999997
 30
0.0
 11
220.0
 21
49.99999999999997
 31
0.0
  0
LINE
  5
6D
330
1E
100
AcDbEntity
  8
HILF
100
AcDbLine
 10
224.7736801096948
 20
84.03758247564139
 30
0.0
 11
324.8353916556311
 21
84.03758247564139
 31
0.0
  0
LINE
  5
6E
330
1E
100
AcDbEntity
  8
HILF
100
AcDbLine
 10
224.7736801096948
 20
69.99999999999994
 30
0.0
 11
324.835391655631
 21
69.99999999999994
 31
0.0
  0
LINE
  5
6F
330
1E
100
AcDbEntity
  8
HILF
100
AcDbLine
 10
224.7736801096948
 20
59.99999999999997
 30
0.0
 11
324.835391655631
 21
59.99999999999997
 31
0.0
  0
LINE
  5
70
330
1E
100
AcDbEntity
  8
HILF
100
AcDbLine
 10
224.7736801096948
 20
49.99999999999997
 30
0.0
 11
324.835391655631
 21
49.99999999999997
 31
0.0
  0
LINE
  5
71
330
1E
100
AcDbEntity
  8
VOLL
100
AcDbLine
 10
332.0
 20
60.0
 30
0.0
 11
410.0
 21
60.0
 31
0.0
  0
LINE
  5
72
330
1E
100
AcDbEntity
  8
HILF
100
AcDbLine
 10
336.7238616296993
 20
83.77983636955827
 30
0.0
 11
404.8588839326728
 21
83.77983636955827
 31
0.0
  0
LINE
  5
73
330
1E
100
AcDbEntity
  8
HILF
100
AcDbLine
 10
223.4909699289885
 20
14.89398258028314
 30
0.0
 11
404.8588839326728
 21
14.89398258028314
 31
0.0
  0
TEXT
  5
74
330
1E
100
AcDbEntity
  8
TEXT
100
AcDbText
 10
59.34071736793199
 20
18.67381894984132
 30
0.0
 40
4.0
  1
Änderung
 41
0.8
  7
GREEKS
 72
     1
 11
70.08357451078913
 21
18.67381894984132
 31
0.0
100
AcDbText
  0
TEXT
  5
75
330
1E
100
AcDbEntity
  8
TEXT
100
AcDbText
 10
143.5163572150377
 20
102.4620895087088
 30
0.0
 40
5.0
  1
Maßstab
 41
0.8
  7
GREEKS
100
AcDbText
  0
TEXT
  5
76
330
1E
100
AcDbEntity
  8
TEXT
100
AcDbText
 10
184.2858954734051
 20
102.4184168434819
 30
0.0
 40
5.0
  1
Zul. Abw.
 41
0.8
  7
GREEKS
100
AcDbText
  0
TEXT
  5
77
330
1E
100
AcDbEntity
  8
TEXT
100
AcDbText
 10
224.877940380901
 20
102.5489328011779
 30
0.0
 40
5.0
  1
Benennung
 41
0.8
  7
GREEKS
100
AcDbText
  0
TEXT
  5
78
330
1E
100
AcDbEntity
  8
TEXT
100
AcDbText
 10
336.178754957634
 20
102.3132034537136
 30
0.0
 40
5.0
  1
Zeichnungs Nr.
 41
0.8
  7
GREEKS
100
AcDbText
  0
TEXT
  5
79
330
1E
100
AcDbEntity
  8
TEXT
100
AcDbText
 10
224.742238391136
 20
30.84560570193057
 30
0.0
 40
5.0
  1
Bauvorhaben
 41
0.8
  7
GREEKS
100
AcDbText
  0
TEXT
  5
7A
330
1E
100
AcDbEntity
  8
TEXT
100
AcDbText
 10
336.7238616296993
 20
73.1811823709997
 30
0.0
 40
5.0
  1
Ersatz für:
 41
0.8
  7
GREEKS
100
AcDbText
  0
TEXT
  5
7B
330
1E
100
AcDbEntity
  8
TEXT
100
AcDbText
 10
38.26641107045757
 20
13.65465846027192
 30
0.0
 40
4.0
  1
Index
 50
90.0
 41
0.8
  7
GREEKS
100
AcDbText
  0
TEXT
  5
7C
330
1E
100
AcDbEntity
  8
TEXT
100
AcDbText
 10
100.0934676075481
 20
18.6715626933981
 30
0.0
 40
4.0
  1
Tag
 41
0.8
  7
GREEKS
 72
     1
 11
103.8268009408814
 21
18.6715626933981
 31
0.0
100
AcDbText
  0
TEXT
  5
7D
330
1E
100
AcDbEntity
  8
TEXT
100
AcDbText
 10
119.0122744386592
 20
18.59324216966408
 30
0.0
 40
4.0
  1
Name
 41
0.8
  7
GREEKS
 72
     1
 11
125.3360839624688
 21
18.59324216966408
 31
0.0
100
AcDbText
  0
TEXT
  5
7E
330
1E
100
AcDbEntity
  8
TEXT
100
AcDbText
 10
162.3311673153651
 20
73.31880501229926
 30
0.0
 40
4.0
  1
Tag
 41
0.8
  7
GREEKS
100
AcDbText
  0
TEXT
  5
7F
330
1E
100
AcDbEntity
  8
TEXT
100
AcDbText
 10
192.4626584226295
 20
73.30961091915225
 30
0.0
 40
4.0
  1
Name
 41
0.8
  7
GREEKS
100
AcDbText
  0
TEXT
  5
80
330
1E
100
AcDbEntity
  8
TEXT
100
AcDbText
 10
137.5836127167615
 20
63.62990369617964
 30
0.0
 40
4.0
  1
Gez.
 41
0.8
  7
GREEKS
100
AcDbText
  0
TEXT
  5
81
330
1E
100
AcDbEntity
  8
TEXT
100
AcDbText
 10
137.5515086571672
 20
53.68926291428377
 30
0.0
 40
4.0
  1
Gepr.
 41
0.8
  7
GREEKS
100
AcDbText
  0
TEXT
  5
82
330
1E
100
AcDbEntity
  8
TEXT
100
AcDbText
 10
137.6006777387304
 20
43.52946389649807
 30
0.0
 40
4.0
  1
Norm.
 41
0.8
  7
GREEKS
100
AcDbText
  0
LINE
  5
83
330
1E
100
AcDbEntity
  8
STEMPEL
100
AcDbLine
 10
39.99999999999989
 20
10.0
 30
0.0
 11
410.0
 21
10.0
 31
0.0
  0
TEXT
  5
84
330
1E
100
AcDbEntity
  8
TEXT
100
AcDbText
 10
337.2400861497006
 20
52.07416177878602
 30
0.0
 40
5.0
  1
ersetzt durch:
 41
0.8
  7
GREEKS
100
AcDbText
  0
LINE
  5
85
330
1E
100
AcDbEntity
  8
STEMPEL
100
AcDbLine
 10
410.0
 20
10.0
 30
0.0
 11
29.99999999999989
 21
10.0
 31
0.0
  0
LINE
  5
86
330
1E
100
AcDbEntity
  8
STEMPEL
100
AcDbLine
 10
410.0
 20
10.0
 30
0.0
 11
410.0
 21
584.0
 31
0.0
  0
LINE
  5
87
330
1E
100
AcDbEntity
  8
STEMPEL
100
AcDbLine
 10
30.0
 20
10.0
 30
0.0
 11
29.99999999999989
 21
584.0
 31
0.0
  0
LINE
  5
88
330
1E
100
AcDbEntity
  8
STEMPEL
100
AcDbLine
 10
410.0
 20
584.0
 30
0.0
 11
29.99999999999989
 21
584.0
 31
0.0
  0
LINE
  5
89
330
1E
100
AcDbEntity
  8
HILF
100
AcDbLine
 10
0.0
 20
0.0
 30
0.0
 11
-0.0000000000001137
 21
594.0
 31
0.0
  0
LINE
  5
8A
330
1E
100
AcDbEntity
  8
HILF
100
AcDbLine
 10
419.9999999999999
 20
594.0000000000002
 30
0.0
 11
0.0
 21
594.0
 31
0.0
  0
LINE
  5
8B
330
1E
100
AcDbEntity
  8
HILF
100
AcDbLine
 10
420.0
 20
0.0
 30
0.0
 11
0.0
 21
0.0
 31
0.0
  0
LINE
  5
8C
330
1E
100
AcDbEntity
  8
HILF
100
AcDbLine
 10
31.08767135713856
 20
297.0
 30
0.0
 11
0.0000000000001137
 21
297.0
 31
0.0
  0
TEXT
  5
8D
330
1E
100
AcDbEntity
  8
TEXT
100
AcDbText
 10
138.622109822104
 20
73.14025471151666
 30
0.0
 40
4.0
  1
2008
 41
0.8
  7
GREEKS
100
AcDbText
  0
LINE
  5
8E
330
1E
100
AcDbEntity
  8
HILF
100
AcDbLine
 10
420.0
 20
-0.0000000000001137
 30
0.0
 11
419.9999999999999
 21
594.0
 31
0.0
  0
TEXT
  5
8F
330
1E
100
AcDbEntity
  8
VOLL
100
AcDbText
 10
78.07675471698113
 20
31.02594776470585
 30
0.0
 40
1.8
  1

  7
GREEKS
100
AcDbText
  0
TEXT
  5
90
330
1E
100
AcDbEntity
  8
TEXT
100
AcDbText
 10
31.85509950977675
 20
111.6719999999999
 30
0.0
 40
5.0
  1
Erstellt mit AUTOCAD 2004
 41
0.8
  7
GREEKS
100
AcDbText
  0
TEXT
  5
91
330
1E
100
AcDbEntity
  8
TEXT
100
AcDbText
 10
194.4216048581257
 20
63.0896391972351
 30
0.0
 40
4.0
  1
Koeh
 41
0.8
  7
GREEKS
 72
     1
 11
199.6787477152685
 21
63.0896391972351
 31
0.0
100
AcDbText
  0
TEXT
  5
92
330
1E
100
AcDbEntity
  8
TEXT
 62
     1
100
AcDbText
 10
344.847717454267
 20
88.14901428913959
 30
0.0
 40
7.0
  1
18130125W
 41
0.8
  7
GREEKS
 72
     1
 11
367.247717454267
 21
88.14901428913959
 31
0.0
100
AcDbText
  0
TEXT
  5
93
330
1E
100
AcDbEntity
  8
TEXT
 62
     1
100
AcDbText
 10
150.5006306481887
 20
88.14901428913959
 30
0.0
 40
7.0
  1
1:2
 41
0.8
  7
GREEKS
100
AcDbText
  0
TEXT
  5
94
330
1E
100
AcDbEntity
  8
TEXT
100
AcDbText
 10
161.0085209177598
 20
63.10765040825732
 30
0.0
 40
4.0
  1
11.06.
 41
0.8
  7
GREEKS
 72
     1
 11
167.4085209177598
 21
63.10765040825732
 31
0.0
100
AcDbText
  0
TEXT
  5
95
330
1E
100
AcDbEntity
  8
TEXT
 62
     1
100
AcDbText
 10
224.9022698906435
 20
87.41748789253779
 30
0.0
 40
7.0
  1
Wanddurchführung DN125
 41
0.75
  7
GREEKS
100
AcDbText
  0
TEXT
  5
96
330
1E
100
AcDbEntity
  8
TEXT
100
AcDbText
 10
225.1296391125315
 20
71.50334417585288
 30
0.0
 40
5.0
  1
mit Sperrflansch
 41
0.8
  7
GREEKS
100
AcDbText
  0
TEXT
  5
98
330
1E
100
AcDbEntity
  8
TEXT
100
AcDbText
 10
225.1296391125315
 20
51.64011943042158
 30
0.0
 40
5.0
  1
EDV-Art.Nr. 18130.125X
 41
0.8
  7
GREEKS
100
AcDbText
  0
TEXT
  5
99
330
1E
100
AcDbEntity
  8
TEXT
100
AcDbText
 10
224.9837501577827
 20
42.62974153022632
 30
0.0
 40
4.0
  1
18130125W.DWG
 41
0.8
  7
GREEKS
100
AcDbText
  0
TEXT
  5
9A
330
1E
100
AcDbEntity
  8
TEXT
100
AcDbText
 10
182.626132208084
 20
90.76363841023022
 30
0.0
 40
4.0
  1
DIN EN1123-2
 41
0.8
  7
GREEKS
 72
     1
 11
199.6166083985602
 21
90.76363841023022
 31
0.0
100
AcDbText
  0
INSERT
  5
9B
330
1E
100
AcDbEntity
  8
STEMPEL
100
AcDbBlockReference
  2
LOGO
 10
140.9955485457794
 20
45.02105276448322
 30
0.0
 41
2.0
 42
2.0
 43
2.0
  0
TEXT
  5
118
330
1E
100
AcDbEntity
  8
BEM
100
AcDbText
 10
417.3022923857165
 20
10.16790107998849
 30
0.0
 40
4.0
  1
Diese Zeichnung ist urheberrechtlich geschützt und bleibt unser Eigentum. Sie darf weder ganz noch teilweise verfielfältigt und nicht an Dritte weitergegeben werden.
 50
90.0
 41
0.8
  7
GREEKS
100
AcDbText
  0
TEXT
  5
96F
330
1E
100
AcDbEntity
  8
TEXT
 62
     1
100
AcDbText
 10
200.0860232734597
 20
352.9169482618017
 30
0.0
 40
7.0
  1
DN125
 50
90.0
 41
0.8
  7
GREEKS
100
AcDbText
  0
DIMENSION
  5
1598
330
1E
100
AcDbEntity
  8
BEM
100
AcDbDimension
  2
*D1
 10
402.9888608643013
 20
145.0881759042701
 30
0.0
 11
396.4888608643013
 21
345.0881759042703
 31
0.0
 70
    32
 71
     5
 42
400.0
  3
Standard
100
AcDbAlignedDimension
 13
282.2081986770665
 23
545.0881759042702
 33
0.0
 14
275.0844168382595
 24
145.0881759042702
 34
0.0
 50
90.0
100
AcDbRotatedDimension
1001
ACAD
1000
DSTYLE
1002
{
1070
    40
1040
2.0
1070
    41
1040
3.5
1070
    42
1040
1.0
1070
    43
1040
7.0
1070
    44
1040
1.0
1070
    73
1070
     0
1070
    74
1070
     0
1070
    77
1070
     1
1070
    78
1070
     8
1070
    79
1070
     2
1070
   140
1040
3.5
1070
   141
1040
1.5
1070
   146
1040
0.5142857142857144
1070
   147
1040
1.5
1070
   172
1070
     1
1070
   178
1070
     1
1070
   179
1070
     2
1070
   271
1070
     2
1070
   272
1070
     2
1070
   284
1070
     8
1070
   285
1070
     8
1070
   286
1070
     8
1002
}
  0
DIMENSION
  5
1599
330
1E
100
AcDbEntity
  8
BEM
100
AcDbDimension
  2
*D2
 10
389.3100701919544
 20
465.0881759042702
 30
0.0
 11
382.8100701919544
 21
505.0881759042702
 31
0.0
 70
    32
 71
     5
 42
80.0
  3
Standard
100
AcDbAlignedDimension
 13
282.2081986770665
 23
545.0881759042702
 33
0.0
 14
374.4497538796604
 24
465.0881759042702
 34
0.0
 50
90.0
100
AcDbRotatedDimension
1001
ACAD
1000
DSTYLE
1002
{
1070
    40
1040
2.0
1070
    41
1040
3.5
1070
    42
1040
1.0
1070
    43
1040
7.0
1070
    44
1040
1.0
1070
    73
1070
     0
1070
    74
1070
     0
1070
    77
1070
     1
1070
    78
1070
     8
1070
    79
1070
     2
1070
   140
1040
3.5
1070
   141
1040
1.5
1070
   146
1040
0.5142857142857144
1070
   147
1040
1.5
1070
   172
1070
     1
1070
   178
1070
     1
1070
   179
1070
     2
1070
   271
1070
     2
1070
   272
1070
     2
1070
   284
1070
     8
1070
   285
1070
     8
1070
   286
1070
     8
1002
}
  0
LINE
  5
159A
102
{ACAD_REACTORS
330
17CB
102
}
330
1E
100
AcDbEntity
  8
STEMPEL
100
AcDbLine
 10
142.9497538796603
 20
454.2432402704859
 30
0.0
 11
64.25879279863472
 21
465.0881759042702
 31
0.0
  0
LINE
  5
159B
102
{ACAD_REACTORS
330
17CB
102
}
330
1E
100
AcDbEntity
  8
STEMPEL
100
AcDbLine
 10
275.9497538796604
 20
454.2432402704859
 30
0.0
 11
354.6407149606859
 21
465.0881759042702
 31
0.0
  0
LINE
  5
15B7
102
{ACAD_REACTORS
330
17CB
330
17D5
102
}
330
1E
100
AcDbEntity
  8
STEMPEL
100
AcDbLine
 10
275.9497538796604
 20
452.2243361444606
 30
0.0
 11
354.7778834875961
 21
463.0881759042702
 31
0.0
  0
LINE
  5
15B8
102
{ACAD_REACTORS
330
17CB
330
17D5
102
}
330
1E
100
AcDbEntity
  8
STEMPEL
100
AcDbLine
 10
142.9497538796603
 20
452.2243361444607
 30
0.0
 11
64.12162427172461
 21
463.0881759042702
 31
0.0
  0
LINE
  5
15B9
330
1E
100
AcDbEntity
  8
MITTEL
100
AcDbLine
 10
209.4497538796603
 20
550.0881759042702
 30
0.0
 11
209.4497538796603
 21
436.3798369128231
 31
0.0
  0
DIMENSION
  5
15BA
330
1E
100
AcDbEntity
  8
BEM
100
AcDbDimension
  2
*D3
 10
374.4497538796604
 20
420.8001960256171
 30
0.0
 11
209.4497538796604
 21
427.3001960256172
 31
0.0
 70
    32
  1
%%C<>
 71
     5
 42
330.0
  3
Standard
100
AcDbAlignedDimension
 13
44.44975387966036
 23
463.0881759042703
 33
0.0
 14
374.4497538796604
 24
463.0881759042702
 34
0.0
100
AcDbRotatedDimension
1001
ACAD
1000
DSTYLE
1002
{
1070
    40
1040
2.0
1070
    41
1040
3.5
1070
    42
1040
1.0
1070
    43
1040
7.0
1070
    44
1040
1.0
1070
    73
1070
     0
1070
    74
1070
     0
1070
    77
1070
     1
1070
    78
1070
     8
1070
    79
1070
     2
1070
   140
1040
3.5
1070
   141
1040
1.5
1070
   146
1040
0.5142857142857144
1070
   147
1040
1.5
1070
   172
1070
     1
1070
   178
1070
     1
1070
   179
1070
     2
1070
   271
1070
     2
1070
   272
1070
     2
1070
   284
1070
     8
1070
   285
1070
     8
1070
   286
1070
     8
1002
}
  0
DIMENSION
  5
15BB
330
1E
100
AcDbEntity
  8
BEM
100
AcDbDimension
  2
*D4
 10
389.2232308934282
 20
463.0881759042702
 30
0.0
 11
382.723230893428
 21
444.2215092376037
 31
0.0
 70
    32
 71
     5
 42
1.999999999999943
  3
Standard
100
AcDbAlignedDimension
 13
374.4497538796604
 23
465.0881759042702
 33
0.0
 14
374.4497538796604
 24
463.0881759042702
 34
0.0
 50
90.0
100
AcDbRotatedDimension
1001
ACAD
1000
DSTYLE
1002
{
1070
    40
1040
2.0
1070
    41
1040
3.5
1070
    42
1040
1.0
1070
    43
1040
7.0
1070
    44
1040
1.0
1070
    73
1070
     0
1070
    74
1070
     0
1070
    77
1070
     1
1070
    78
1070
     8
1070
    79
1070
     2
1070
   140
1040
3.5
1070
   141
1040
1.5
1070
   146
1040
0.5142857142857144
1070
   147
1040
1.5
1070
   172
1070
     1
1070
   178
1070
     1
1070
   179
1070
     2
1070
   271
1070
     2
1070
   272
1070
     2
1070
   284
1070
     8
1070
   285
1070
     8
1070
   286
1070
     8
1002
}
  0
LINE
  5
15BC
330
1E
100
AcDbEntity
  8
STEMPEL
100
AcDbLine
 10
374.4497538796604
 20
465.0881759042703
 30
0.0
 11
374.4497538796604
 21
463.0881759042702
 31
0.0
  0
LINE
  5
15BD
102
{ACAD_REACTORS
330
17CB
102
}
330
1E
100
AcDbEntity
  8
STEMPEL
100
AcDbLine
 10
354.7778834875961
 20
463.0881759042702
 30
0.0
 11
374.4497538796604
 21
463.0881759042702
 31
0.0
  0
LINE
  5
15BE
102
{ACAD_REACTORS
330
17CB
102
}
330
1E
100
AcDbEntity
  8
STEMPEL
100
AcDbLine
 10
276.2672955141418
 20
465.0881759042702
 30
0.0
 11
374.4497538796604
 21
465.0881759042702
 31
0.0
  0
LINE
  5
15BF
102
{ACAD_REACTORS
330
17CB
102
}
330
1E
100
AcDbEntity
  8
STEMPEL
100
AcDbLine
 10
64.12162427172461
 20
463.0881759042702
 30
0.0
 11
44.44975387966036
 21
463.0881759042703
 31
0.0
  0
LINE
  5
15C0
102
{ACAD_REACTORS
330
17CB
102
}
330
1E
100
AcDbEntity
  8
STEMPEL
100
AcDbLine
 10
374.4497538796604
 20
465.0881759042703
 30
0.0
 11
374.4497538796604
 21
463.0881759042703
 31
0.0
  0
LINE
  5
15C1
102
{ACAD_REACTORS
330
17CB
102
}
330
1E
100
AcDbEntity
  8
STEMPEL
100
AcDbLine
 10
44.44975387966036
 20
465.0881759042703
 30
0.0
 11
44.44975387966036
 21
463.0881759042703
 31
0.0
  0
LINE
  5
15C2
102
{ACAD_REACTORS
330
17CB
102
}
330
1E
100
AcDbEntity
  8
STEMPEL
100
AcDbLine
 10
142.6322122451788
 20
465.0881759042702
 30
0.0
 11
44.44975387966036
 21
465.0881759042703
 31
0.0
  0
TEXT
  5
16E4
330
1E
100
AcDbEntity
  8
TEXT
 62
     1
100
AcDbText
 10
94.26293870295562
 20
185.9660440724476
 30
0.0
 40
7.0
  1
Werkstoff: E195 EN10305 feuerverzinkt
 50
90.0
 41
0.8
  7
GREEKS
100
AcDbText
  0
TEXT
  5
16E5
330
1E
100
AcDbEntity
  8
TEXT
 62
     1
100
AcDbText
 10
104.9850505179591
 20
233.9157615098454
 30
0.0
 40
7.0
  1
außen und innen beschichtet
 50
90.0
 41
0.8
  7
GREEKS
100
AcDbText
  0
LINE
  5
172C
102
{ACAD_REACTORS
330
17BA
102
}
330
1E
100
AcDbEntity
  8
STEMPEL
100
AcDbLine
 10
143.8150909210612
 20
145.0881759042701
 30
0.0
 11
275.0844168382595
 21
145.0881759042702
 31
0.0
  0
LINE
  5
172D
102
{ACAD_REACTORS
330
17BA
102
}
330
1E
100
AcDbEntity
  8
STEMPEL
100
AcDbLine
 10
282.2081986770665
 20
545.0881759042702
 30
0.0
 11
136.691309082254
 21
545.0881759042702
 31
0.0
  0
ARC
  5
172E
102
{ACAD_REACTORS
330
17BA
102
}
330
1E
100
AcDbEntity
  8
STEMPEL
100
AcDbCircle
 10
163.4497538796603
 20
522.3791759042701
 30
0.0
 40
29.99973625969209
100
AcDbArc
 50
180.0
 51
205.0071583365539
  0
ARC
  5
172F
102
{ACAD_REACTORS
330
17BA
102
}
330
1E
100
AcDbEntity
  8
STEMPEL
100
AcDbCircle
 10
163.4497538796603
 20
522.3791759042701
 30
0.0
 40
27.5
100
AcDbArc
 50
180.0
 51
205.1711477430661
  0
LINE
  5
1731
102
{ACAD_REACTORS
330
17BA
330
17CB
330
17D5
102
}
330
1E
100
AcDbEntity
  8
STEMPEL
100
AcDbLine
 10
142.9497538796603
 20
462.5881759042702
 30
0.0
 11
142.9497538796603
 21
154.9790235469991
 31
0.0
  0
LINE
  5
1732
102
{ACAD_REACTORS
330
17BA
102
}
330
1E
100
AcDbEntity
  8
STEMPEL
100
AcDbLine
 10
145.4497538796603
 20
462.5881759042702
 30
0.0
 11
145.4497538796603
 21
155.0881759042702
 31
0.0
  0
LINE
  5
1733
102
{ACAD_REACTORS
330
17BA
102
}
330
1E
100
AcDbEntity
  8
STEMPEL
100
AcDbLine
 10
137.9497538796603
 20
502.0881759042701
 30
0.0
 11
137.9497538796603
 21
478.5568953269413
 31
0.0
  0
LINE
  5
1734
102
{ACAD_REACTORS
330
17BA
102
}
330
1E
100
AcDbEntity
  8
STEMPEL
100
AcDbLine
 10
140.4497538796603
 20
502.0881759042701
 30
0.0
 11
140.4497538796603
 21
478.5568953269414
 31
0.0
  0
ARC
  5
1735
102
{ACAD_REACTORS
330
17BA
102
}
330
1E
100
AcDbEntity
  8
STEMPEL
100
AcDbCircle
 10
155.9497538796603
 20
478.5568953269413
 30
0.0
 40
18.0
100
AcDbArc
 50
180.0
 51
214.7719440319491
  0
ARC
  5
1736
102
{ACAD_REACTORS
330
17BA
102
}
330
1E
100
AcDbEntity
  8
STEMPEL
100
AcDbCircle
 10
155.9497538796603
 20
478.5568953269414
 30
0.0
 40
15.5
100
AcDbArc
 50
180.0
 51
214.7719440319491
  0
ARC
  5
1737
102
{ACAD_REACTORS
330
17BA
102
}
330
1E
100
AcDbEntity
  8
STEMPEL
100
AcDbCircle
 10
132.9497538796603
 20
462.5881759042702
 30
0.0
 40
10.0
100
AcDbArc
 50
0.0
 51
34.77194403194904
  0
ARC
  5
1738
102
{ACAD_REACTORS
330
17BA
102
}
330
1E
100
AcDbEntity
  8
STEMPEL
100
AcDbCircle
 10
132.9497538796603
 20
462.5881759042702
 30
0.0
 40
12.5
100
AcDbArc
 50
0.0
 51
34.77194403194904
  0
ARC
  5
1739
102
{ACAD_REACTORS
330
17BA
102
}
330
1E
100
AcDbEntity
  8
STEMPEL
100
AcDbCircle
 10
119.9497538796603
 20
502.0881759042701
 30
0.0
 40
18.0
100
AcDbArc
 50
0.0
 51
25.00715833655394
  0
ARC
  5
173A
102
{ACAD_REACTORS
330
17BA
102
}
330
1E
100
AcDbEntity
  8
STEMPEL
100
AcDbCircle
 10
119.9497538796603
 20
502.0881759042701
 30
0.0
 40
20.5
100
AcDbArc
 50
0.0
 51
24.78717230718845
  0
ARC
  5
173B
102
{ACAD_REACTORS
330
17BA
102
}
330
1E
100
AcDbEntity
  8
STEMPEL
100
AcDbCircle
 10
163.4497538796603
 20
531.4857984598059
 30
0.0
 40
27.5
100
AcDbArc
 50
155.0000000000006
 51
180.0
  0
ARC
  5
173C
102
{ACAD_REACTORS
330
17BA
102
}
330
1E
100
AcDbEntity
  8
STEMPEL
100
AcDbCircle
 10
163.4497538796603
 20
531.4857984598059
 30
0.0
 40
30.0
100
AcDbArc
 50
154.9999999999963
 51
180.0
  0
LINE
  5
173D
102
{ACAD_REACTORS
330
17BA
102
}
330
1E
100
AcDbEntity
  8
STEMPEL
100
AcDbLine
 10
135.9497538796603
 20
531.4857984598059
 30
0.0
 11
135.9497538796603
 21
522.3791759042702
 31
0.0
  0
LINE
  5
173E
102
{ACAD_REACTORS
330
17BA
102
}
330
1E
100
AcDbEntity
  8
STEMPEL
100
AcDbLine
 10
133.4497538796603
 20
531.4857984598059
 30
0.0
 11
133.4497538796603
 21
522.3791759042701
 31
0.0
  0
LINE
  5
173F
102
{ACAD_REACTORS
330
17BA
102
}
330
1E
100
AcDbEntity
  8
STEMPEL
100
AcDbLine
 10
133.4500176199682
 20
522.3791759042701
 30
0.0
 11
133.4497538796603
 21
522.3791759042701
 31
0.0
  0
LINE
  5
1740
102
{ACAD_REACTORS
330
17BA
102
}
330
1E
100
AcDbEntity
  8
STEMPEL
100
AcDbLine
 10
139.4497538796603
 20
545.0881759042702
 30
0.0
 11
138.5262897361522
 21
543.1078006576747
 31
0.0
  0
LINE
  5
1741
102
{ACAD_REACTORS
330
17BA
102
}
330
1E
100
AcDbEntity
  8
STEMPEL
100
AcDbLine
 10
136.691309082254
 20
545.0881759042702
 30
0.0
 11
136.2605202685616
 21
544.164346312029
 31
0.0
  0
POINT
  5
1742
330
1E
100
AcDbEntity
  8
STEMPEL
100
AcDbPoint
 10
139.4497538796603
 20
545.0881759042702
 30
0.0
  0
POINT
  5
1743
330
1E
100
AcDbEntity
  8
STEMPEL
100
AcDbPoint
 10
279.4497538796603
 20
545.0881759042702
 30
0.0
  0
LINE
  5
1744
102
{ACAD_REACTORS
330
17BA
102
}
330
1E
100
AcDbEntity
  8
STEMPEL
100
AcDbLine
 10
282.2081986770665
 20
545.0881759042702
 30
0.0
 11
282.638987490759
 21
544.164346312029
 31
0.0
  0
LINE
  5
1745
102
{ACAD_REACTORS
330
17BA
102
}
330
1E
100
AcDbEntity
  8
STEMPEL
100
AcDbLine
 10
279.4497538796603
 20
545.0881759042702
 30
0.0
 11
280.3732180231684
 21
543.1078006576747
 31
0.0
  0
LINE
  5
1746
102
{ACAD_REACTORS
330
17BA
102
}
330
1E
100
AcDbEntity
  8
STEMPEL
100
AcDbLine
 10
285.4494901393524
 20
522.3791759042701
 30
0.0
 11
285.4497538796603
 21
522.3791759042701
 31
0.0
  0
LINE
  5
1747
102
{ACAD_REACTORS
330
17BA
102
}
330
1E
100
AcDbEntity
  8
STEMPEL
100
AcDbLine
 10
285.4497538796603
 20
531.4857984598059
 30
0.0
 11
285.4497538796603
 21
522.3791759042701
 31
0.0
  0
LINE
  5
1748
102
{ACAD_REACTORS
330
17BA
102
}
330
1E
100
AcDbEntity
  8
STEMPEL
100
AcDbLine
 10
282.9497538796603
 20
531.4857984598059
 30
0.0
 11
282.9497538796603
 21
522.3791759042702
 31
0.0
  0
ARC
  5
1749
102
{ACAD_REACTORS
330
17BA
102
}
330
1E
100
AcDbEntity
  8
STEMPEL
100
AcDbCircle
 10
255.4497538796603
 20
531.4857984598059
 30
0.0
 40
30.0
100
AcDbArc
 50
0.0
 51
25.00000000000368
  0
ARC
  5
174A
102
{ACAD_REACTORS
330
17BA
102
}
330
1E
100
AcDbEntity
  8
STEMPEL
100
AcDbCircle
 10
255.4497538796603
 20
531.4857984598059
 30
0.0
 40
27.5
100
AcDbArc
 50
0.0
 51
24.99999999999935
  0
ARC
  5
174B
102
{ACAD_REACTORS
330
17BA
102
}
330
1E
100
AcDbEntity
  8
STEMPEL
100
AcDbCircle
 10
298.9497538796603
 20
502.0881759042701
 30
0.0
 40
20.5
100
AcDbArc
 50
155.2128276928115
 51
180.0
  0
ARC
  5
174C
102
{ACAD_REACTORS
330
17BA
102
}
330
1E
100
AcDbEntity
  8
STEMPEL
100
AcDbCircle
 10
298.9497538796603
 20
502.0881759042701
 30
0.0
 40
18.0
100
AcDbArc
 50
154.992841663446
 51
180.0
  0
ARC
  5
174D
102
{ACAD_REACTORS
330
17BA
102
}
330
1E
100
AcDbEntity
  8
STEMPEL
100
AcDbCircle
 10
285.9497538796603
 20
462.5881759042702
 30
0.0
 40
12.5
100
AcDbArc
 50
145.2280559680509
 51
180.0
  0
ARC
  5
174E
102
{ACAD_REACTORS
330
17BA
102
}
330
1E
100
AcDbEntity
  8
STEMPEL
100
AcDbCircle
 10
285.9497538796603
 20
462.5881759042702
 30
0.0
 40
10.0
100
AcDbArc
 50
145.2280559680509
 51
180.0
  0
ARC
  5
174F
102
{ACAD_REACTORS
330
17BA
102
}
330
1E
100
AcDbEntity
  8
STEMPEL
100
AcDbCircle
 10
262.9497538796603
 20
478.5568953269414
 30
0.0
 40
15.5
100
AcDbArc
 50
325.228055968051
 51
0.0
  0
ARC
  5
1750
102
{ACAD_REACTORS
330
17BA
102
}
330
1E
100
AcDbEntity
  8
STEMPEL
100
AcDbCircle
 10
262.9497538796603
 20
478.5568953269413
 30
0.0
 40
18.0
100
AcDbArc
 50
325.228055968051
 51
0.0
  0
LINE
  5
1751
102
{ACAD_REACTORS
330
17BA
102
}
330
1E
100
AcDbEntity
  8
STEMPEL
100
AcDbLine
 10
278.4497538796603
 20
502.0881759042701
 30
0.0
 11
278.4497538796603
 21
478.5568953269414
 31
0.0
  0
LINE
  5
1752
102
{ACAD_REACTORS
330
17BA
102
}
330
1E
100
AcDbEntity
  8
STEMPEL
100
AcDbLine
 10
280.9497538796603
 20
502.0881759042701
 30
0.0
 11
280.9497538796603
 21
478.5568953269413
 31
0.0
  0
LINE
  5
1753
102
{ACAD_REACTORS
330
17BA
102
}
330
1E
100
AcDbEntity
  8
STEMPEL
100
AcDbLine
 10
273.4497538796603
 20
462.5881759042702
 30
0.0
 11
273.4497538796603
 21
155.0881759042684
 31
0.0
  0
LINE
  5
1754
102
{ACAD_REACTORS
330
17BA
330
17CB
330
17D5
102
}
330
1E
100
AcDbEntity
  8
STEMPEL
100
AcDbLine
 10
275.9497538796603
 20
462.5881759042702
 30
0.0
 11
275.9497538796603
 21
154.9790235469977
 31
0.0
  0
ARC
  5
1755
102
{ACAD_REACTORS
330
17BA
102
}
330
1E
100
AcDbEntity
  8
STEMPEL
100
AcDbCircle
 10
255.4497538796603
 20
522.3791759042701
 30
0.0
 40
27.5
100
AcDbArc
 50
334.8288522569339
 51
0.0
  0
ARC
  5
1756
102
{ACAD_REACTORS
330
17BA
102
}
330
1E
100
AcDbEntity
  8
STEMPEL
100
AcDbCircle
 10
255.4497538796603
 20
522.3791759042701
 30
0.0
 40
29.99973625969209
100
AcDbArc
 50
334.9928416634461
 51
0.0
  0
LINE
  5
1757
330
1E
100
AcDbEntity
  8
HILF
  6
Continuous
100
AcDbLine
 10
276.2823035007824
 20
505.9851867229761
 30
0.0
 11
142.6172042585381
 21
505.985186722976
 31
0.0
  0
LINE
  5
1758
330
1E
100
AcDbEntity
  8
HILF
  6
Continuous
100
AcDbLine
 10
274.7849314690093
 20
473.1783665849365
 30
0.0
 11
144.1145762903113
 21
473.1783665849365
 31
0.0
  0
LINE
  5
1759
330
1E
100
AcDbEntity
  8
HILF
  6
Continuous
100
AcDbLine
 10
271.2503855744769
 20
465.5762474276062
 30
0.0
 11
147.6491221848436
 21
465.5762474276061
 31
0.0
  0
LINE
  5
1776
330
1E
100
AcDbEntity
  8
HILF
100
AcDbLine
 10
147.9593034735187
 20
155.0881759042701
 30
0.0
 11
270.940204285802
 21
155.0881759042702
 31
0.0
  0
LINE
  5
1777
102
{ACAD_REACTORS
330
17BA
102
}
330
1E
100
AcDbEntity
  8
STEMPEL
100
AcDbLine
 10
145.4497538796603
 20
155.0881759042702
 30
0.0
 11
146.3246405149195
 21
145.0881759042701
 31
0.0
  0
LINE
  5
1778
102
{ACAD_REACTORS
330
17BA
102
}
330
1E
100
AcDbEntity
  8
STEMPEL
100
AcDbLine
 10
142.9497538796603
 20
154.9790235469991
 30
0.0
 11
143.8150909210612
 21
145.0881759042701
 31
0.0
  0
LINE
  5
177B
102
{ACAD_REACTORS
330
17BA
102
}
330
1E
100
AcDbEntity
  8
STEMPEL
100
AcDbLine
 10
275.9497538796603
 20
154.9790235469977
 30
0.0
 11
275.0844168382595
 21
145.0881759042702
 31
0.0
  0
LINE
  5
177C
102
{ACAD_REACTORS
330
17BA
102
}
330
1E
100
AcDbEntity
  8
STEMPEL
100
AcDbLine
 10
273.4497538796603
 20
155.0881759042684
 30
0.0
 11
272.5748672444012
 21
145.0881759042702
 31
0.0
  0
LINE
  5
1787
330
1E
100
AcDbEntity
  8
MITTEL
100
AcDbLine
 10
209.4497538796603
 20
414.0790637537838
 30
0.0
 11
209.4497538796604
 21
140.0881759042704
 31
0.0
  0
HATCH
  5
17BA
330
1E
100
AcDbEntity
  8
SCHRAFF
100
AcDbHatch
 10
0.0
 20
0.0
 30
0.0
210
0.0
220
0.0
230
1.0
  2
_USER
 70
     0
 71
     1
 91
        2
 92
        7
 72
     1
 73
     1
 93
       23
 10
275.9497538796603
 20
462.5881759042702
 42
-0.1528962216020417
 10
277.7354681653747
 20
468.2912899837956
 42
0.1528962216020364
 10
280.9497538796603
 20
478.5568953269413
 42
0.0
 10
280.9497538796603
 20
502.0881759042701
 42
-0.1095494205537735
 10
282.6371642486728
 20
509.6973427135205
 42
0.1095494205537617
 10
285.4494901393524
 20
522.3791759042701
 42
0.0
 10
285.4497538796603
 20
522.3791759042701
 42
0.0
 10
285.4497538796603
 20
531.4857984598059
 42
0.1095178116832597
 10
282.638987490759
 20
544.164346312029
 42
0.0
 10
282.2081986770665
 20
545.0881759042702
 42
0.0
 10
279.4497538796602
 20
545.0881759042702
 42
0.0
 10
280.3732180231684
 20
543.1078006576747
 42
-0.1095178116832363
 10
282.9497538796603
 20
531.4857984598059
 42
0.0
 10
282.9497538796603
 20
522.3791759042702
 42
-0.1102736034491354
 10
280.3383908969591
 20
510.6827769960103
 42
0.1085781327853511
 10
278.4497538796603
 20
502.0881759042701
 42
0.0
 10
278.4497538796603
 20
478.5568953269414
 42
-0.1528962216020417
 10
275.6818967368031
 20
469.7170685036768
 42
0.1528962216020375
 10
273.4497538796603
 20
462.5881759042701
 42
0.0
 10
273.4497538796603
 20
155.0881759042686
 42
0.0
 10
272.5748672444012
 20
145.0881759042702
 42
0.0
 10
275.0844168382594
 20
145.0881759042702
 42
0.0
 10
275.9497538796604
 20
154.9790235469973
 42
0.0
 97
       23
330
174E
330
1750
330
1752
330
174C
330
1756
330
1746
330
1747
330
1749
330
1744
330
172D
330
1745
330
174A
330
1748
330
1755
330
174B
330
1751
330
174F
330
174D
330
1753
330
177C
330
172C
330
177B
330
1754
 92
        7
 72
     1
 73
     1
 93
       23
 10
145.4497538796603
 20
462.5881759042702
 42
0.1528962216020391
 10
143.2176110225174
 20
469.717068503677
 42
-0.1528962216020384
 10
140.4497538796603
 20
478.5568953269414
 42
0.0
 10
140.4497538796603
 20
502.0881759042701
 42
0.1085781327852814
 10
138.5611168623639
 20
510.6827769960051
 42
-0.1102736034491881
 10
135.9497538796603
 20
522.3791759042702
 42
0.0
 10
135.9497538796603
 20
531.4857984598059
 42
-0.1095178116832373
 10
138.5262897361522
 20
543.1078006576747
 42
0.0
 10
139.4497538796603
 20
545.0881759042703
 42
0.0
 10
136.691309082254
 20
545.0881759042702
 42
0.0
 10
136.2605202685616
 20
544.164346312029
 42
0.1095178116832587
 10
133.4497538796603
 20
531.4857984598061
 42
0.0
 10
133.4497538796603
 20
522.3791759042701
 42
0.0
 10
133.4500176199682
 20
522.3791759042701
 42
0.109549420553766
 10
136.262343510648
 20
509.6973427135201
 42
-0.1095494205537672
 10
137.9497538796603
 20
502.0881759042701
 42
0.0
 10
137.9497538796603
 20
478.5568953269413
 42
0.1528962216020381
 10
141.164039593946
 20
468.2912899837956
 42
-0.1528962216020415
 10
142.9497538796603
 20
462.5881759042701
 42
0.0
 10
142.9497538796603
 20
154.9790235469992
 42
0.0
 10
143.8150909210611
 20
145.0881759042701
 42
0.0
 10
146.3246405149195
 20
145.0881759042702
 42
0.0
 10
145.4497538796603
 20
155.0881759042703
 42
0.0
 97
       23
330
1738
330
1736
330
1734
330
173A
330
172F
330
173D
330
173B
330
1740
330
172D
330
1741
330
173C
330
173E
330
173F
330
172E
330
1739
330
1733
330
1735
330
1737
330
1731
330
1778
330
172C
330
1777
330
1732
 75
     0
 76
     0
 52
45.0
 41
2.0
 77
     0
 78
     1
 53
45.0
 43
0.0
 44
0.0
 45
-1.414213562373094
 46
1.414213562373095
 79
     0
 47
0.7140219677713067
 98
        2
 10
274.6578229918146
 20
434.1376032688081
 10
144.6277381741642
 20
429.8534709711653
  0
HATCH
  5
17CB
330
1E
100
AcDbEntity
  8
SCHRAFF
100
AcDbHatch
 10
0.0
 20
0.0
 30
0.0
210
0.0
220
0.0
230
1.0
  2
_USER
 70
     0
 71
     1
 91
        2
 92
        7
 72
     0
 73
     1
 93
        6
 10
64.2587927986347
 20
465.0881759042703
 10
44.44975387966036
 20
465.0881759042702
 10
44.44975387966035
 20
463.0881759042703
 10
64.12162427172494
 20
463.0881759042703
 10
142.9497538796603
 20
452.2243361444608
 10
142.9497538796603
 20
454.2432402704859
 97
        6
330
15C2
330
15C1
330
15BF
330
15B8
330
1731
330
159A
 92
        7
 72
     0
 73
     1
 93
        6
 10
354.7778834875968
 20
463.0881759042702
 10
374.4497538796604
 20
463.0881759042702
 10
374.4497538796604
 20
465.0881759042702
 10
354.6407149606857
 20
465.0881759042702
 10
275.9497538796603
 20
454.2432402704859
 10
275.9497538796603
 20
452.2243361444605
 97
        6
330
15BD
330
15C0
330
15BE
330
159B
330
1754
330
15B7
 75
     0
 76
     0
 52
135.0
 41
2.0
 77
     0
 78
     1
 53
135.0
 43
0.0
 44
0.0
 45
-1.414213562373095
 46
-1.414213562373094
 79
     0
 47
0.6327249719148986
 98
        2
 10
130.0471616417326
 20
454.533006925441
 10
325.6766561927102
 20
459.5948068647337
  0
ARC
  5
17CC
102
{ACAD_REACTORS
330
17D5
102
}
330
1E
100
AcDbEntity
  8
SCHRAFF
100
AcDbCircle
 10
275.9497538796603
 20
452.2243361444606
 30
0.0
 40
4.0
100
AcDbArc
 50
270.0
 51
7.846889665796784
  0
ARC
  5
17CD
102
{ACAD_REACTORS
330
17D5
102
}
330
1E
100
AcDbEntity
  8
SCHRAFF
100
AcDbCircle
 10
142.9497538796603
 20
452.2243361444606
 30
0.0
 40
4.0
100
AcDbArc
 50
172.1531103342032
 51
270.0
  0
HATCH
  5
17D5
330
1E
100
AcDbEntity
  8
SCHRAFF
100
AcDbHatch
 10
0.0
 20
0.0
 30
0.0
210
0.0
220
0.0
230
1.0
  2
_USER
 70
     0
 71
     1
 91
        2
 92
        7
 72
     1
 73
     1
 93
        3
 10
279.9122996473736
 20
452.7704414811654
 42
0.0
 10
275.9497538796603
 20
452.2243361444606
 42
0.0
 10
275.9497538796603
 20
448.2243361444606
 42
0.4549196820787599
 97
        3
330
15B7
330
1754
330
17CC
 92
        7
 72
     1
 73
     1
 93
        3
 10
142.9497538796603
 20
452.2243361444607
 42
0.0
 10
138.987208111947
 20
452.7704414811655
 42
0.45491968207877
 10
142.9497538796603
 20
448.2243361444606
 42
0.0
 97
        3
330
15B8
330
17CD
330
1731
 75
     0
 76
     0
 52
0.0
 41
0.1
 77
     0
 78
     1
 53
0.0
 43
0.0
 44
0.0
 45
0.0
 46
0.1
 79
     0
 47
0.1799874161914853
 98
        2
 10
278.4600781543249
 20
450.5662687439723
 10
141.7675396209533
 20
450.2062940790643
  0
DIMENSION
  5
17E2
330
1E
100
AcDbEntity
  8
BEM
100
AcDbDimension
  2
*D5
 10
275.9497538796603
 20
267.0911816951432
 30
0.0
 11
298.816420546327
 21
273.5911816951432
 31
0.0
 70
    32
 71
     5
 42
2.5
  3
Standard
100
AcDbAlignedDimension
 13
273.4497538796603
 23
267.0911816951432
 33
0.0
 14
275.9497538796603
 24
267.0911816951432
 34
0.0
100
AcDbRotatedDimension
1001
ACAD
1000
DSTYLE
1002
{
1070
    40
1040
2.0
1070
    41
1040
3.5
1070
    42
1040
1.0
1070
    43
1040
7.0
1070
    44
1040
1.0
1070
    73
1070
     0
1070
    74
1070
     0
1070
    77
1070
     1
1070
    78
1070
     8
1070
    79
1070
     2
1070
   140
1040
3.5
1070
   141
1040
1.5
1070
   146
1040
0.5142857142857144
1070
   147
1040
1.5
1070
   172
1070
     1
1070
   178
1070
     1
1070
   179
1070
     2
1070
   271
1070
     2
1070
   272
1070
     2
1070
   284
1070
     8
1070
   285
1070
     8
1070
   286
1070
     8
1002
}
  0
DIMENSION
  5
17EF
330
1E
100
AcDbEntity
  8
BEM
100
AcDbDimension
  2
*D6
 10
275.9497538796603
 20
124.6300416748101
 30
0.0
 11
209.4497538796603
 21
131.1300416748101
 31
0.0
 70
    32
  1
%%c<>
 71
     5
 42
133.0
  3
Standard
100
AcDbAlignedDimension
 13
142.9497538796603
 23
154.9790235469991
 33
0.0
 14
275.9497538796603
 24
154.9790235469977
 34
0.0
100
AcDbRotatedDimension
1001
ACAD
1000
DSTYLE
1002
{
1070
    40
1040
2.0
1070
    41
1040
3.5
1070
    42
1040
1.0
1070
    43
1040
7.0
1070
    44
1040
1.0
1070
    73
1070
     0
1070
    74
1070
     0
1070
    77
1070
     1
1070
    78
1070
     8
1070
    79
1070
     2
1070
   140
1040
3.5
1070
   141
1040
1.5
1070
   146
1040
0.5142857142857144
1070
   147
1040
1.5
1070
   172
1070
     1
1070
   178
1070
     1
1070
   179
1070
     2
1070
   271
1070
     2
1070
   272
1070
     2
1070
   284
1070
     8
1070
   285
1070
     8
1070
   286
1070
     8
1002
}
  0
ENDSEC
  0
SECTION
  2
OBJECTS
  0
DICTIONARY
  5
C
330
0
100
AcDbDictionary
281
     1
  3
ACAD_COLOR
350
DF
  3
ACAD_GROUP
350
D
  3
ACAD_LAYOUT
350
19
  3
ACAD_MATERIAL
350
DE
  3
ACAD_MLINESTYLE
350
16
  3
ACAD_PLOTSETTINGS
350
18
  3
ACAD_PLOTSTYLENAME
350
E
  3
AcDbVariableDictionary
350
EA
  0
DICTIONARY
  5
A0
330
1E
100
AcDbDictionary
280
     1
281
     1
  3
ACAD_LAYOUTSELFREF
360
D4
  0
DICTIONARY
  5
A2
330
1A
100
AcDbDictionary
280
     1
281
     1
  3
ACAD_LAYOUTSELFREF
360
D3
  0
DICTIONARY
  5
DF
102
{ACAD_REACTORS
330
C
102
}
330
C
100
AcDbDictionary
281
     1
  0
DICTIONARY
  5
D
102
{ACAD_REACTORS
330
C
102
}
330
C
100
AcDbDictionary
281
     1
  0
DICTIONARY
  5
19
102
{ACAD_REACTORS
330
C
102
}
330
C
100
AcDbDictionary
281
     1
  3
Layout1
350
1D
  3
Model
350
21
  0
DICTIONARY
  5
DE
102
{ACAD_REACTORS
330
C
102
}
330
C
100
AcDbDictionary
281
     1
  0
DICTIONARY
  5
16
102
{ACAD_REACTORS
330
C
102
}
330
C
100
AcDbDictionary
281
     1
  3
Standard
350
17
  0
DICTIONARY
  5
18
102
{ACAD_REACTORS
330
C
102
}
330
C
100
AcDbDictionary
281
     1
  0
ACDBDICTIONARYWDFLT
  5
E
102
{ACAD_REACTORS
330
C
102
}
330
C
100
AcDbDictionary
281
     1
  3
Normal
350
F
100
AcDbDictionaryWithDefault
340
F
  0
DICTIONARY
  5
EA
102
{ACAD_REACTORS
330
C
102
}
330
C
100
AcDbDictionary
281
     1
  3
DIMASSOC
350
EB
  3
PROJECTNAME
350
EC
  0
XRECORD
  5
D4
102
{ACAD_REACTORS
330
A0
102
}
330
A0
100
AcDbXrecord
280
     1
340
1E
  0
XRECORD
  5
D3
102
{ACAD_REACTORS
330
A2
102
}
330
A2
100
AcDbXrecord
280
     1
340
1A
  0
LAYOUT
  5
1D
102
{ACAD_REACTORS
330
19
102
}
330
19
100
AcDbPlotSettings
  1

  2
\\NT_WORK01\HP LaserJet 5000 PCL 6
  4

  6

 40
0.0
 41
0.0
 42
0.0
 43
0.0
 44
0.0
 45
0.0
 46
0.0
 47
0.0
 48
0.0
 49
0.0
140
0.0
141
0.0
142
1.0
143
1.0
 70
   688
 72
     0
 73
     0
 74
     5
  7

 75
    16
147
1.0
 76
     0
 77
     2
 78
   300
148
0.0
149
0.0
100
AcDbLayout
  1
Layout1
 70
     0
 71
     1
 10
0.0
 20
0.0
 11
12.0
 21
9.0
 12
0.0
 22
0.0
 32
0.0
 14
1.000000000000000E+20
 24
1.000000000000000E+20
 34
1.000000000000000E+20
 15
-1.000000000000000E+20
 25
-1.000000000000000E+20
 35
-1.000000000000000E+20
146
0.0
 13
0.0
 23
0.0
 33
0.0
 16
1.0
 26
0.0
 36
0.0
 17
0.0
 27
1.0
 37
0.0
 76
     0
330
1A
  0
LAYOUT
  5
21
102
{ACAD_REACTORS
330
19
102
}
330
19
100
AcDbPlotSettings
  1

  2
none_device
  4
Letter_(8.50_x_11.00_Inches)
  6

 40
6.349999904632568
 41
6.349999904632568
 42
6.350006103515625
 43
6.350006103515625
 44
215.8999938964844
 45
279.3999938964844
 46
0.0
 47
0.0
 48
0.0
 49
0.0
140
0.0
141
0.0
142
1.0
143
1.0
 70
 11952
 72
     0
 73
     1
 74
     0
  7

 75
     0
147
1.0
 76
     0
 77
     2
 78
   300
148
2287.245623665237
149
77.61418200606462
100
AcDbLayout
  1
Model
 70
     1
 71
     0
 10
0.0
 20
0.0
 11
12.0
 21
9.0
 12
0.0
 22
0.0
 32
0.0
 14
0.0
 24
0.0
 34
0.0
 15
0.0
 25
0.0
 35
0.0
146
0.0
 13
0.0
 23
0.0
 33
0.0
 16
1.0
 26
0.0
 36
0.0
 17
0.0
 27
1.0
 37
0.0
 76
     0
330
1E
  0
MLINESTYLE
  5
17
102
{ACAD_REACTORS
330
16
102
}
330
16
100
AcDbMlineStyle
  2
STANDARD
 70
     0
  3

 62
   256
 51
90.0
 52
90.0
 71
     2
 49
0.5
 62
   256
  6
BYLAYER
 49
-0.5
 62
   256
  6
BYLAYER
  0
ACDBPLACEHOLDER
  5
F
102
{ACAD_REACTORS
330
E
102
}
330
E
  0
DICTIONARYVAR
  5
EB
102
{ACAD_REACTORS
330
EA
102
}
330
EA
100
DictionaryVariables
280
     0
  1
1
  0
DICTIONARYVAR
  5
EC
102
{ACAD_REACTORS
330
EA
102
}
330
EA
100
DictionaryVariables
280
     0
  1

  0
ENDSEC
  0
EOF
