  0
SECTION
  2
HEADER
  9
$ACADVER
  1
AC1018
  9
$ACADMAINTVER
 70
     2
  9
$DWGCODEPAGE
  3
ANSI_1252
  9
$INSBASE
 10
0.0
 20
0.0
 30
0.0
  9
$EXTMIN
 10
-0.02563359212877
 20
-0.0362532231533805
 30
-0.0000000349181948
  9
$EXTMAX
 10
420.0256375038029
 20
594.0362587553789
 30
0.0000000814935746
  9
$LIMMIN
 10
0.0
 20
0.0
  9
$LIMMAX
 10
419.9999999999999
 20
594.0
  9
$ORTHOMODE
 70
     0
  9
$REGENMODE
 70
     1
  9
$FILLMODE
 70
     1
  9
$QTEXTMODE
 70
     0
  9
$MIRRTEXT
 70
     1
  9
$LTSCALE
 40
20.0
  9
$ATTMODE
 70
     1
  9
$TEXTSIZE
 40
3.5
  9
$TRACEWID
 40
0.5
  9
$TEXTSTYLE
  7
STANDARD
  9
$CLAYER
  8
SCHRAFF
  9
$CELTYPE
  6
ByLayer
  9
$CECOLOR
 62
   256
  9
$CELTSCALE
 40
1.0
  9
$DISPSILH
 70
     0
  9
$DIMSCALE
 40
2.0
  9
$DIMASZ
 40
3.5
  9
$DIMEXO
 40
1.0
  9
$DIMDLI
 40
7.0
  9
$DIMRND
 40
0.0
  9
$DIMDLE
 40
0.0
  9
$DIMEXE
 40
1.0
  9
$DIMTP
 40
0.0
  9
$DIMTM
 40
0.0
  9
$DIMTXT
 40
3.5
  9
$DIMCEN
 40
1.5
  9
$DIMTSZ
 40
0.0
  9
$DIMTOL
 70
     0
  9
$DIMLIM
 70
     0
  9
$DIMTIH
 70
     0
  9
$DIMTOH
 70
     0
  9
$DIMSE1
 70
     0
  9
$DIMSE2
 70
     0
  9
$DIMTAD
 70
     1
  9
$DIMZIN
 70
     8
  9
$DIMBLK
  1

  9
$DIMASO
 70
     1
  9
$DIMSHO
 70
     0
  9
$DIMPOST
  1

  9
$DIMAPOST
  1

  9
$DIMALT
 70
     0
  9
$DIMALTD
 70
     2
  9
$DIMALTF
 40
25.4
  9
$DIMLFAC
 40
1.0
  9
$DIMTOFL
 70
     1
  9
$DIMTVP
 40
0.0
  9
$DIMTIX
 70
     0
  9
$DIMSOXD
 70
     0
  9
$DIMSAH
 70
     0
  9
$DIMBLK1
  1

  9
$DIMBLK2
  1

  9
$DIMSTYLE
  2
Standard
  9
$DIMCLRD
 70
     0
  9
$DIMCLRE
 70
     0
  9
$DIMCLRT
 70
     1
  9
$DIMTFAC
 40
0.5142857142857144
  9
$DIMGAP
 40
1.5
  9
$DIMJUST
 70
     0
  9
$DIMSD1
 70
     0
  9
$DIMSD2
 70
     0
  9
$DIMTOLJ
 70
     1
  9
$DIMTZIN
 70
     8
  9
$DIMALTZ
 70
     8
  9
$DIMALTTZ
 70
     8
  9
$DIMUPT
 70
     0
  9
$DIMDEC
 70
     2
  9
$DIMTDEC
 70
     2
  9
$DIMALTU
 70
     2
  9
$DIMALTTD
 70
     2
  9
$DIMTXSTY
  7
STANDARD
  9
$DIMAUNIT
 70
     0
  9
$DIMADEC
 70
     2
  9
$DIMALTRND
 40
0.0
  9
$DIMAZIN
 70
     2
  9
$DIMDSEP
 70
    46
  9
$DIMATFIT
 70
     3
  9
$DIMFRAC
 70
     0
  9
$DIMLDRBLK
  1

  9
$DIMLUNIT
 70
     2
  9
$DIMLWD
 70
    -2
  9
$DIMLWE
 70
    -2
  9
$DIMTMOVE
 70
     0
  9
$LUNITS
 70
     2
  9
$LUPREC
 70
     2
  9
$SKETCHINC
 40
1.0
  9
$FILLETRAD
 40
0.0
  9
$AUNITS
 70
     0
  9
$AUPREC
 70
     0
  9
$MENU
  1
ACAD
  9
$ELEVATION
 40
0.0
  9
$PELEVATION
 40
0.0
  9
$THICKNESS
 40
0.0
  9
$LIMCHECK
 70
     0
  9
$CHAMFERA
 40
0.0
  9
$CHAMFERB
 40
0.0
  9
$CHAMFERC
 40
0.0
  9
$CHAMFERD
 40
0.0
  9
$SKPOLY
 70
     0
  9
$TDCREATE
 40
2455397.864709028
  9
$TDUCREATE
 40
2455397.781375695
  9
$TDUPDATE
 40
2455469.432963854
  9
$TDUUPDATE
 40
2455469.349630521
  9
$TDINDWG
 40
0.0837689583
  9
$TDUSRTIMER
 40
0.0837689583
  9
$USRTIMER
 70
     1
  9
$ANGBASE
 50
0.0
  9
$ANGDIR
 70
     0
  9
$PDMODE
 70
     0
  9
$PDSIZE
 40
0.0
  9
$PLINEWID
 40
0.0
  9
$SPLFRAME
 70
     0
  9
$SPLINETYPE
 70
     6
  9
$SPLINESEGS
 70
     8
  9
$HANDSEED
  5
1705
  9
$SURFTAB1
 70
     6
  9
$SURFTAB2
 70
     6
  9
$SURFTYPE
 70
     6
  9
$SURFU
 70
     6
  9
$SURFV
 70
     6
  9
$UCSBASE
  2

  9
$UCSNAME
  2

  9
$UCSORG
 10
0.0
 20
0.0
 30
0.0
  9
$UCSXDIR
 10
1.0
 20
0.0
 30
0.0
  9
$UCSYDIR
 10
0.0
 20
1.0
 30
0.0
  9
$UCSORTHOREF
  2

  9
$UCSORTHOVIEW
 70
     0
  9
$UCSORGTOP
 10
0.0
 20
0.0
 30
0.0
  9
$UCSORGBOTTOM
 10
0.0
 20
0.0
 30
0.0
  9
$UCSORGLEFT
 10
0.0
 20
0.0
 30
0.0
  9
$UCSORGRIGHT
 10
0.0
 20
0.0
 30
0.0
  9
$UCSORGFRONT
 10
0.0
 20
0.0
 30
0.0
  9
$UCSORGBACK
 10
0.0
 20
0.0
 30
0.0
  9
$PUCSBASE
  2

  9
$PUCSNAME
  2

  9
$PUCSORG
 10
0.0
 20
0.0
 30
0.0
  9
$PUCSXDIR
 10
1.0
 20
0.0
 30
0.0
  9
$PUCSYDIR
 10
0.0
 20
1.0
 30
0.0
  9
$PUCSORTHOREF
  2

  9
$PUCSORTHOVIEW
 70
     0
  9
$PUCSORGTOP
 10
0.0
 20
0.0
 30
0.0
  9
$PUCSORGBOTTOM
 10
0.0
 20
0.0
 30
0.0
  9
$PUCSORGLEFT
 10
0.0
 20
0.0
 30
0.0
  9
$PUCSORGRIGHT
 10
0.0
 20
0.0
 30
0.0
  9
$PUCSORGFRONT
 10
0.0
 20
0.0
 30
0.0
  9
$PUCSORGBACK
 10
0.0
 20
0.0
 30
0.0
  9
$USERI1
 70
     0
  9
$USERI2
 70
     0
  9
$USERI3
 70
     0
  9
$USERI4
 70
     0
  9
$USERI5
 70
     0
  9
$USERR1
 40
0.0
  9
$USERR2
 40
0.0
  9
$USERR3
 40
0.0
  9
$USERR4
 40
0.0
  9
$USERR5
 40
0.0
  9
$WORLDVIEW
 70
     1
  9
$SHADEDGE
 70
     3
  9
$SHADEDIF
 70
    70
  9
$TILEMODE
 70
     1
  9
$MAXACTVP
 70
    16
  9
$PINSBASE
 10
0.0
 20
0.0
 30
0.0
  9
$PLIMCHECK
 70
     0
  9
$PEXTMIN
 10
1.000000000000000E+20
 20
1.000000000000000E+20
 30
1.000000000000000E+20
  9
$PEXTMAX
 10
-1.000000000000000E+20
 20
-1.000000000000000E+20
 30
-1.000000000000000E+20
  9
$PLIMMIN
 10
0.0
 20
0.0
  9
$PLIMMAX
 10
12.0
 20
9.0
  9
$UNITMODE
 70
     0
  9
$VISRETAIN
 70
     0
  9
$PLINEGEN
 70
     0
  9
$PSLTSCALE
 70
     0
  9
$TREEDEPTH
 70
  3020
  9
$CMLSTYLE
  2
Standard
  9
$CMLJUST
 70
     0
  9
$CMLSCALE
 40
1.0
  9
$PROXYGRAPHICS
 70
     1
  9
$MEASUREMENT
 70
     0
  9
$CELWEIGHT
370
    -1
  9
$ENDCAPS
280
     0
  9
$JOINSTYLE
280
     0
  9
$LWDISPLAY
290
     0
  9
$INSUNITS
 70
     0
  9
$HYPERLINKBASE
  1

  9
$STYLESHEET
  1
monochrome 1.ctb
  9
$XEDIT
290
     1
  9
$CEPSNTYPE
380
     0
  9
$PSTYLEMODE
290
     1
  9
$FINGERPRINTGUID
  2
{D68B0D02-A558-11D7-B632-000102183313}
  9
$VERSIONGUID
  2
{93388CDC-B2DB-4273-81BF-99637C1D4810}
  9
$EXTNAMES
290
     1
  9
$PSVPSCALE
 40
0.0
  9
$OLESTARTUP
290
     0
  9
$SORTENTS
280
   127
  9
$INDEXCTL
280
     0
  9
$HIDETEXT
280
     0
  9
$XCLIPFRAME
290
     0
  9
$HALOGAP
280
     0
  9
$OBSCOLOR
 70
   257
  9
$OBSLTYPE
280
     0
  9
$INTERSECTIONDISPLAY
280
     0
  9
$INTERSECTIONCOLOR
 70
   257
  9
$DIMASSOC
280
     1
  9
$PROJECTNAME
  1

  0
ENDSEC
  0
SECTION
  2
CLASSES
  0
CLASS
  1
ACDBDICTIONARYWDFLT
  2
AcDbDictionaryWithDefault
  3
ObjectDBX Classes
 90
        0
 91
        1
280
     0
281
     0
  0
CLASS
  1
DICTIONARYVAR
  2
AcDbDictionaryVar
  3
ObjectDBX Classes
 90
        0
 91
        2
280
     0
281
     0
  0
ENDSEC
  0
SECTION
  2
TABLES
  0
TABLE
  2
VPORT
  5
8
330
0
100
AcDbSymbolTable
 70
     2
  0
VPORT
  5
1704
330
8
100
AcDbSymbolTableRecord
100
AcDbViewportTableRecord
  2
*Active
 70
     0
 10
0.0
 20
0.0
 11
1.0
 21
1.0
 12
210.0000019558371
 22
297.0000027661128
 13
0.0
 23
0.0
 14
1.0
 24
1.0
 15
10.0
 25
10.0
 16
0.0
 26
0.0
 36
1.0
 17
0.0
 27
0.0
 37
0.0
 40
598.8698673915487
 41
1.336927223719676
 42
50.0
 43
0.0
 44
0.0
 50
0.0
 51
0.0
 71
     0
 72
  1500
 73
     1
 74
     0
 75
     0
 76
     0
 77
     0
 78
     0
281
     0
 65
     1
110
0.0
120
0.0
130
0.0
111
1.0
121
0.0
131
0.0
112
0.0
122
1.0
132
0.0
 79
     0
146
0.0
  0
ENDTAB
  0
TABLE
  2
LTYPE
  5
5
330
0
100
AcDbSymbolTable
 70
     2
  0
LTYPE
  5
13
330
5
100
AcDbSymbolTableRecord
100
AcDbLinetypeTableRecord
  2
ByBlock
 70
     0
  3

 72
    65
 73
     0
 40
0.0
  0
LTYPE
  5
14
330
5
100
AcDbSymbolTableRecord
100
AcDbLinetypeTableRecord
  2
ByLayer
 70
     0
  3

 72
    65
 73
     0
 40
0.0
  0
LTYPE
  5
15
330
5
100
AcDbSymbolTableRecord
100
AcDbLinetypeTableRecord
  2
Continuous
 70
     0
  3
Solid line
 72
    65
 73
     0
 40
0.0
  0
LTYPE
  5
25
330
5
100
AcDbSymbolTableRecord
100
AcDbLinetypeTableRecord
  2
STRICHPUNKT
 70
     0
  3
__ . __ . __ . __ . __ . __ . __ . __ . __ . __
 72
    65
 73
     4
 40
1.0
 49
0.5
 74
     0
 49
-0.25
 74
     0
 49
0.0
 74
     0
 49
-0.25
 74
     0
  0
ENDTAB
  0
TABLE
  2
LAYER
  5
2
330
0
100
AcDbSymbolTable
 70
     9
  0
LAYER
  5
10
330
2
100
AcDbSymbolTableRecord
100
AcDbLayerTableRecord
  2
0
 70
     0
 62
     7
  6
Continuous
370
    -3
390
F
  0
LAYER
  5
2A
330
2
100
AcDbSymbolTableRecord
100
AcDbLayerTableRecord
  2
VOLL
 70
     0
 62
     1
  6
Continuous
370
    -3
390
F
  0
LAYER
  5
2B
330
2
100
AcDbSymbolTableRecord
100
AcDbLayerTableRecord
  2
HILF
 70
     0
 62
     2
  6
Continuous
370
    -3
390
F
  0
LAYER
  5
2C
330
2
100
AcDbSymbolTableRecord
100
AcDbLayerTableRecord
  2
MITTEL
 70
     0
 62
     2
  6
STRICHPUNKT
370
    -3
390
F
  0
LAYER
  5
2F
330
2
100
AcDbSymbolTableRecord
100
AcDbLayerTableRecord
  2
BEM
 70
     0
 62
     7
  6
Continuous
370
    -3
390
F
  0
LAYER
  5
30
330
2
100
AcDbSymbolTableRecord
100
AcDbLayerTableRecord
  2
STEMPEL
 70
     0
 62
     3
  6
Continuous
370
    -3
390
F
  0
LAYER
  5
31
330
2
100
AcDbSymbolTableRecord
100
AcDbLayerTableRecord
  2
TEXT
 70
     0
 62
     7
  6
Continuous
370
    -3
390
F
  0
LAYER
  5
7D5
330
2
100
AcDbSymbolTableRecord
100
AcDbLayerTableRecord
  2
DEFPOINTS
 70
     0
 62
     7
  6
Continuous
290
     0
370
    -3
390
F
  0
LAYER
  5
9C4
330
2
100
AcDbSymbolTableRecord
100
AcDbLayerTableRecord
  2
SCHRAFF
 70
     0
 62
     7
  6
Continuous
370
    -3
390
F
  0
ENDTAB
  0
TABLE
  2
STYLE
  5
3
330
0
100
AcDbSymbolTable
 70
     2
  0
STYLE
  5
11
330
3
100
AcDbSymbolTableRecord
100
AcDbTextStyleTableRecord
  2
STANDARD
 70
     0
 40
0.0
 41
0.8
 50
0.0
 71
     0
 42
3.5
  3
simplex.shx
  4

  0
STYLE
  5
24
330
3
100
AcDbSymbolTableRecord
100
AcDbTextStyleTableRecord
  2
GREEKS
 70
     0
 40
0.0
 41
0.8
 50
0.0
 71
     0
 42
2.5
  3
SIMPLEX.shx
  4

  0
ENDTAB
  0
TABLE
  2
VIEW
  5
6
330
0
100
AcDbSymbolTable
 70
     0
  0
ENDTAB
  0
TABLE
  2
UCS
  5
7
330
0
100
AcDbSymbolTable
 70
     0
  0
ENDTAB
  0
TABLE
  2
APPID
  5
9
330
0
100
AcDbSymbolTable
 70
     1
  0
APPID
  5
12
330
9
100
AcDbSymbolTableRecord
100
AcDbRegAppTableRecord
  2
ACAD
 70
     0
  0
ENDTAB
  0
TABLE
  2
DIMSTYLE
  5
A
330
0
100
AcDbSymbolTable
 70
     1
100
AcDbDimStyleTable
 71
     1
340
9D
  0
DIMSTYLE
105
9D
102
{ACAD_REACTORS
330
15BB
330
15BA
330
159C
330
1599
330
1598
330
157E
102
}
330
A
100
AcDbSymbolTableRecord
100
AcDbDimStyleTableRecord
  2
Standard
 70
     0
340
11
  0
ENDTAB
  0
TABLE
  2
BLOCK_RECORD
  5
1
330
0
100
AcDbSymbolTable
 70
     7
  0
BLOCK_RECORD
  5
1E
102
{ACAD_XDICTIONARY
360
A0
102
}
330
1
100
AcDbSymbolTableRecord
100
AcDbBlockTableRecord
  2
*Model_Space
340
21
  0
BLOCK_RECORD
  5
1A
102
{ACAD_XDICTIONARY
360
A2
102
}
330
1
100
AcDbSymbolTableRecord
100
AcDbBlockTableRecord
  2
*Paper_Space
340
1D
  0
BLOCK_RECORD
  5
22
330
1
100
AcDbSymbolTableRecord
100
AcDbBlockTableRecord
  2
LOGO
340
0
102
{BLKREFS
331
9B
102
}
  0
BLOCK_RECORD
  5
15C4
330
1
100
AcDbSymbolTableRecord
100
AcDbBlockTableRecord
  2
*D1
340
0
  0
BLOCK_RECORD
  5
15D1
330
1
100
AcDbSymbolTableRecord
100
AcDbBlockTableRecord
  2
*D2
340
0
  0
BLOCK_RECORD
  5
15DE
330
1
100
AcDbSymbolTableRecord
100
AcDbBlockTableRecord
  2
*D3
340
0
  0
BLOCK_RECORD
  5
15EB
330
1
100
AcDbSymbolTableRecord
100
AcDbBlockTableRecord
  2
*D4
340
0
  0
BLOCK_RECORD
  5
15F8
330
1
100
AcDbSymbolTableRecord
100
AcDbBlockTableRecord
  2
*D5
340
0
  0
BLOCK_RECORD
  5
1605
330
1
100
AcDbSymbolTableRecord
100
AcDbBlockTableRecord
  2
*D6
340
0
  0
ENDTAB
  0
ENDSEC
  0
SECTION
  2
BLOCKS
  0
BLOCK
  5
35
330
1E
100
AcDbEntity
  8
0
100
AcDbBlockBegin
  2
*Model_Space
 70
     0
 10
0.0
 20
0.0
 30
0.0
  3
*Model_Space
  1

  0
ENDBLK
  5
36
330
1E
100
AcDbEntity
  8
0
100
AcDbBlockEnd
  0
BLOCK
  5
33
330
1A
100
AcDbEntity
 67
     1
  8
0
100
AcDbBlockBegin
  2
*Paper_Space
 70
     0
 10
0.0
 20
0.0
 30
0.0
  3
*Paper_Space
  1

  0
ENDBLK
  5
34
330
1A
100
AcDbEntity
 67
     1
  8
0
100
AcDbBlockEnd
  0
BLOCK
  5
37
330
22
100
AcDbEntity
  8
0
100
AcDbBlockBegin
  2
LOGO
 70
     0
 10
0.0
 20
0.0
 30
0.0
  3
LOGO
  1

  0
ARC
  5
38
330
22
100
AcDbEntity
  8
0
100
AcDbCircle
 10
11.59973089678112
 20
-9.271599258481501
 30
0.0
 40
4.5
100
AcDbArc
 50
270.0
 51
231.0575587310159
  0
LINE
  5
39
330
22
100
AcDbEntity
  8
0
100
AcDbLine
 10
3.599730896781125
 20
-4.771599258481529
 30
0.0
 11
3.599730896781153
 21
-11.77159925848133
 31
0.0
  0
LINE
  5
3A
330
22
100
AcDbEntity
  8
0
100
AcDbLine
 10
2.599730896781125
 20
-4.771599258481529
 30
0.0
 11
2.599730896781153
 21
-11.77159925848133
 31
0.0
  0
CIRCLE
  5
3B
330
22
100
AcDbEntity
  8
0
100
AcDbCircle
 10
11.59973089678112
 20
-9.271599258481501
 30
0.0
 40
3.5
  0
ARC
  5
3C
330
22
100
AcDbEntity
  8
0
100
AcDbCircle
 10
31.59973089678115
 20
-9.271599258481472
 30
0.0
 40
4.5
100
AcDbArc
 50
270.0
 51
231.0575587310182
  0
LINE
  5
3D
330
22
100
AcDbEntity
  8
0
100
AcDbLine
 10
17.59973089678112
 20
-4.771599258481472
 30
0.0
 11
17.59973089678115
 21
-13.77159925848147
 31
0.0
  0
ARC
  5
3E
330
22
100
AcDbEntity
  8
0
100
AcDbCircle
 10
22.59973089678116
 20
-7.271599258481472
 30
0.0
 40
2.5
100
AcDbArc
 50
293.1161887722295
 51
90.0
  0
CIRCLE
  5
3F
330
22
100
AcDbEntity
  8
0
100
AcDbCircle
 10
31.59973089678115
 20
-9.271599258481472
 30
0.0
 40
3.5
  0
ARC
  5
40
330
22
100
AcDbEntity
  8
0
100
AcDbCircle
 10
4.599730896781153
 20
-11.77159925848133
 30
0.0
 40
1.0
100
AcDbArc
 50
180.0
 51
270.0
  0
ARC
  5
41
330
22
100
AcDbEntity
  8
0
100
AcDbCircle
 10
4.599730896781153
 20
-11.77159925848133
 30
0.0
 40
2.0
100
AcDbArc
 50
179.9999999999992
 51
270.0
  0
LINE
  5
42
330
22
100
AcDbEntity
  8
0
100
AcDbLine
 10
11.59973089678115
 20
-13.77159925848144
 30
0.0
 11
4.599730896781153
 21
-13.77159925848147
 31
0.0
  0
LINE
  5
43
330
22
100
AcDbEntity
  8
0
100
AcDbLine
 10
8.771303772034769
 20
-12.77159925848136
 30
0.0
 11
4.599730896781153
 21
-12.77159925848133
 31
0.0
  0
LINE
  5
44
330
22
100
AcDbEntity
  8
0
100
AcDbLine
 10
31.59973089678115
 20
-13.77159925848147
 30
0.0
 11
23.6715276665056
 21
-13.77159925848144
 31
0.0
  0
LINE
  5
45
330
22
100
AcDbEntity
  8
0
100
AcDbLine
 10
23.56565672307022
 20
-9.51278021337896
 30
0.0
 11
24.4388546544846
 21
-12.77159925848144
 31
0.0
  0
LINE
  5
46
330
22
100
AcDbEntity
  8
0
100
AcDbLine
 10
22.59973089678116
 20
-9.771599258481472
 30
0.0
 11
18.59973089678112
 21
-9.771599258481472
 31
0.0
  0
LINE
  5
47
330
22
100
AcDbEntity
  8
0
100
AcDbLine
 10
18.59973089678115
 20
-13.77159925848144
 30
0.0
 11
17.59973089678115
 21
-13.77159925848144
 31
0.0
  0
LINE
  5
48
330
22
100
AcDbEntity
  8
0
100
AcDbLine
 10
18.59973089678115
 20
-9.771599258481472
 30
0.0
 11
18.59973089678115
 21
-13.77159925848144
 31
0.0
  0
LINE
  5
49
330
22
100
AcDbEntity
  8
0
100
AcDbLine
 10
22.59973089678116
 20
-9.771599258481472
 30
0.0
 11
23.67152766650562
 21
-13.77159925848147
 31
0.0
  0
ARC
  5
4A
330
22
100
AcDbEntity
  8
0
100
AcDbCircle
 10
22.59973089678116
 20
-7.271599258481472
 30
0.0
 40
2.5
100
AcDbArc
 50
270.0
 51
270.0000000000007
  0
LINE
  5
4B
330
22
100
AcDbEntity
  8
0
100
AcDbLine
 10
28.77130377203494
 20
-12.77159925848147
 30
0.0
 11
24.43885465448463
 21
-12.77159925848144
 31
0.0
  0
LINE
  5
4C
330
22
100
AcDbEntity
  8
0
100
AcDbLine
 10
3.599730896781125
 20
-4.771599258481472
 30
0.0
 11
2.599730896781125
 21
-4.771599258481472
 31
0.0
  0
LINE
  5
4D
330
22
100
AcDbEntity
  8
0
100
AcDbLine
 10
22.59973089678116
 20
-8.771599258481472
 30
0.0
 11
18.59973089678115
 21
-8.771599258481472
 31
0.0
  0
LINE
  5
4E
330
22
100
AcDbEntity
  8
0
100
AcDbLine
 10
22.59973089678116
 20
-5.771599258481472
 30
0.0
 11
18.59973089678115
 21
-5.771599258481472
 31
0.0
  0
LINE
  5
4F
330
22
100
AcDbEntity
  8
0
100
AcDbLine
 10
22.59973089678116
 20
-4.771599258481472
 30
0.0
 11
17.59973089678115
 21
-4.771599258481472
 31
0.0
  0
LINE
  5
50
330
22
100
AcDbEntity
  8
0
100
AcDbLine
 10
18.59973089678115
 20
-5.771599258481472
 30
0.0
 11
18.59973089678115
 21
-8.771599258481472
 31
0.0
  0
ARC
  5
51
330
22
100
AcDbEntity
  8
0
100
AcDbCircle
 10
22.59973089678116
 20
-7.271599258481472
 30
0.0
 40
1.5
100
AcDbArc
 50
270.0
 51
90.0
  0
ENDBLK
  5
52
330
22
100
AcDbEntity
  8
0
100
AcDbBlockEnd
  0
BLOCK
  5
15CF
330
15C4
100
AcDbEntity
  8
0
100
AcDbBlockBegin
  2
*D1
 70
     1
 10
0.0
 20
0.0
 30
0.0
  3
*D1
  1

  0
LINE
  5
167D
330
15C4
100
AcDbEntity
  8
BEM
 62
     0
370
    -2
100
AcDbLine
 10
258.4497538796604
 20
311.1148405872447
 30
0.0
 11
258.4497538796604
 21
311.0711796443359
 31
0.0
  0
LINE
  5
167E
330
15C4
100
AcDbEntity
  8
BEM
 62
     0
370
    -2
100
AcDbLine
 10
251.4497538796604
 20
313.0711796443359
 30
0.0
 11
244.4497538796604
 21
313.0711796443359
 31
0.0
  0
LINE
  5
167F
330
15C4
100
AcDbEntity
  8
BEM
 62
     0
370
    -2
100
AcDbLine
 10
267.4497538796604
 20
313.0711796443359
 30
0.0
 11
284.1830872129938
 21
313.0711796443359
 31
0.0
  0
LINE
  5
1680
330
15C4
100
AcDbEntity
  8
BEM
 62
     0
370
    -2
100
AcDbLine
 10
258.4497538796604
 20
313.0711796443359
 30
0.0
 11
260.4497538796604
 21
313.0711796443359
 31
0.0
  0
SOLID
  5
1681
330
15C4
100
AcDbEntity
  8
BEM
 62
     0
100
AcDbTrace
 10
251.4497538796604
 20
314.2378463110026
 30
0.0
 11
251.4497538796604
 21
311.9045129776692
 31
0.0
 12
258.4497538796604
 22
313.0711796443359
 32
0.0
 13
258.4497538796604
 23
313.0711796443359
 33
0.0
  0
SOLID
  5
1682
330
15C4
100
AcDbEntity
  8
BEM
 62
     0
100
AcDbTrace
 10
267.4497538796604
 20
314.2378463110026
 30
0.0
 11
267.4497538796604
 21
311.9045129776692
 31
0.0
 12
260.4497538796604
 22
313.0711796443359
 32
0.0
 13
260.4497538796604
 23
313.0711796443359
 33
0.0
  0
MTEXT
  5
1683
330
15C4
100
AcDbEntity
  8
BEM
 62
     1
100
AcDbMText
 10
279.3164205463271
 20
319.5711796443359
 30
0.0
 40
7.0
 41
0.0
 71
     5
 72
     1
  1
\A1;2
 73
     1
 44
1.0
  0
POINT
  5
1684
330
15C4
100
AcDbEntity
  8
DEFPOINTS
 62
     0
100
AcDbPoint
 10
258.4497538796604
 20
313.1148405872447
 30
0.0
  0
POINT
  5
1685
330
15C4
100
AcDbEntity
  8
DEFPOINTS
 62
     0
100
AcDbPoint
 10
260.4497538796604
 20
313.0711796443359
 30
0.0
  0
POINT
  5
1686
330
15C4
100
AcDbEntity
  8
DEFPOINTS
 62
     0
100
AcDbPoint
 10
260.4497538796604
 20
313.0711796443359
 30
0.0
  0
ENDBLK
  5
15D0
330
15C4
100
AcDbEntity
  8
0
100
AcDbBlockEnd
  0
BLOCK
  5
15DC
330
15D1
100
AcDbEntity
  8
0
100
AcDbBlockBegin
  2
*D2
 70
     1
 10
0.0
 20
0.0
 30
0.0
  3
*D2
  1

  0
LINE
  5
1674
330
15D1
100
AcDbEntity
  8
BEM
 62
     0
370
    -2
100
AcDbLine
 10
267.1565097175853
 20
545.0881759042702
 30
0.0
 11
404.9888608643014
 21
545.0881759042702
 31
0.0
  0
LINE
  5
1675
330
15D1
100
AcDbEntity
  8
BEM
 62
     0
370
    -2
100
AcDbLine
 10
261.3998899173493
 20
145.0881759042702
 30
0.0
 11
404.9888608643014
 21
145.0881759042701
 31
0.0
  0
LINE
  5
1676
330
15D1
100
AcDbEntity
  8
BEM
 62
     0
370
    -2
100
AcDbLine
 10
402.9888608643014
 20
538.0881759042702
 30
0.0
 11
402.9888608643013
 21
152.0881759042701
 31
0.0
  0
SOLID
  5
1677
330
15D1
100
AcDbEntity
  8
BEM
 62
     0
100
AcDbTrace
 10
401.8221941976348
 20
538.0881759042702
 30
0.0
 11
404.1555275309681
 21
538.0881759042702
 31
0.0
 12
402.9888608643014
 22
545.0881759042702
 32
0.0
 13
402.9888608643014
 23
545.0881759042702
 33
0.0
  0
SOLID
  5
1678
330
15D1
100
AcDbEntity
  8
BEM
 62
     0
100
AcDbTrace
 10
401.8221941976347
 20
152.0881759042701
 30
0.0
 11
404.155527530968
 21
152.0881759042701
 31
0.0
 12
402.9888608643013
 22
145.0881759042701
 32
0.0
 13
402.9888608643013
 23
145.0881759042701
 33
0.0
  0
MTEXT
  5
1679
330
15D1
100
AcDbEntity
  8
BEM
 62
     1
100
AcDbMText
 10
396.4888608643013
 20
345.0881759042703
 30
0.0
 40
7.0
 41
0.0
 71
     5
 72
     1
  1
\A1;400
 11
0.0000000000000001
 21
1.0
 31
0.0
 73
     1
 44
1.0
  0
POINT
  5
167A
330
15D1
100
AcDbEntity
  8
DEFPOINTS
 62
     0
100
AcDbPoint
 10
265.1565097175853
 20
545.0881759042702
 30
0.0
  0
POINT
  5
167B
330
15D1
100
AcDbEntity
  8
DEFPOINTS
 62
     0
100
AcDbPoint
 10
259.3998899173493
 20
145.0881759042702
 30
0.0
  0
POINT
  5
167C
330
15D1
100
AcDbEntity
  8
DEFPOINTS
 62
     0
100
AcDbPoint
 10
402.9888608643013
 20
145.0881759042701
 30
0.0
  0
ENDBLK
  5
15DD
330
15D1
100
AcDbEntity
  8
0
100
AcDbBlockEnd
  0
BLOCK
  5
15E9
330
15DE
100
AcDbEntity
  8
0
100
AcDbBlockBegin
  2
*D3
 70
     1
 10
0.0
 20
0.0
 30
0.0
  3
*D3
  1

  0
LINE
  5
166B
330
15DE
100
AcDbEntity
  8
BEM
 62
     0
370
    -2
100
AcDbLine
 10
267.1565097175853
 20
545.0881759042702
 30
0.0
 11
391.3100701919544
 21
545.0881759042702
 31
0.0
  0
LINE
  5
166C
330
15DE
100
AcDbEntity
  8
BEM
 62
     0
370
    -2
100
AcDbLine
 10
376.4497538796604
 20
465.0881759042702
 30
0.0
 11
391.3100701919544
 21
465.0881759042702
 31
0.0
  0
LINE
  5
166D
330
15DE
100
AcDbEntity
  8
BEM
 62
     0
370
    -2
100
AcDbLine
 10
389.3100701919544
 20
538.0881759042702
 30
0.0
 11
389.3100701919544
 21
472.0881759042701
 31
0.0
  0
SOLID
  5
166E
330
15DE
100
AcDbEntity
  8
BEM
 62
     0
100
AcDbTrace
 10
388.1434035252878
 20
538.0881759042702
 30
0.0
 11
390.4767368586211
 21
538.0881759042702
 31
0.0
 12
389.3100701919544
 22
545.0881759042702
 32
0.0
 13
389.3100701919544
 23
545.0881759042702
 33
0.0
  0
SOLID
  5
166F
330
15DE
100
AcDbEntity
  8
BEM
 62
     0
100
AcDbTrace
 10
388.1434035252878
 20
472.0881759042701
 30
0.0
 11
390.4767368586211
 21
472.0881759042701
 31
0.0
 12
389.3100701919544
 22
465.0881759042702
 32
0.0
 13
389.3100701919544
 23
465.0881759042702
 33
0.0
  0
MTEXT
  5
1670
330
15DE
100
AcDbEntity
  8
BEM
 62
     1
100
AcDbMText
 10
382.8100701919544
 20
505.0881759042702
 30
0.0
 40
7.0
 41
0.0
 71
     5
 72
     1
  1
\A1;80
 11
0.0000000000000001
 21
1.0
 31
0.0
 73
     1
 44
1.0
  0
POINT
  5
1671
330
15DE
100
AcDbEntity
  8
DEFPOINTS
 62
     0
100
AcDbPoint
 10
265.1565097175853
 20
545.0881759042702
 30
0.0
  0
POINT
  5
1672
330
15DE
100
AcDbEntity
  8
DEFPOINTS
 62
     0
100
AcDbPoint
 10
374.4497538796604
 20
465.0881759042702
 30
0.0
  0
POINT
  5
1673
330
15DE
100
AcDbEntity
  8
DEFPOINTS
 62
     0
100
AcDbPoint
 10
389.3100701919544
 20
465.0881759042702
 30
0.0
  0
ENDBLK
  5
15EA
330
15DE
100
AcDbEntity
  8
0
100
AcDbBlockEnd
  0
BLOCK
  5
15F6
330
15EB
100
AcDbEntity
  8
0
100
AcDbBlockBegin
  2
*D4
 70
     1
 10
0.0
 20
0.0
 30
0.0
  3
*D4
  1

  0
LINE
  5
1662
330
15EB
100
AcDbEntity
  8
BEM
 62
     0
370
    -2
100
AcDbLine
 10
158.4497538796604
 20
155.08817590427
 30
0.0
 11
158.4497538796604
 21
120.7408975557348
 31
0.0
  0
LINE
  5
1663
330
15EB
100
AcDbEntity
  8
BEM
 62
     0
370
    -2
100
AcDbLine
 10
260.4497538796604
 20
155.0881759042687
 30
0.0
 11
260.4497538796604
 21
120.7408975557348
 31
0.0
  0
LINE
  5
1664
330
15EB
100
AcDbEntity
  8
BEM
 62
     0
370
    -2
100
AcDbLine
 10
165.4497538796604
 20
122.7408975557348
 30
0.0
 11
253.4497538796604
 21
122.7408975557348
 31
0.0
  0
SOLID
  5
1665
330
15EB
100
AcDbEntity
  8
BEM
 62
     0
100
AcDbTrace
 10
165.4497538796604
 20
123.9075642224015
 30
0.0
 11
165.4497538796604
 21
121.5742308890681
 31
0.0
 12
158.4497538796604
 22
122.7408975557348
 32
0.0
 13
158.4497538796604
 23
122.7408975557348
 33
0.0
  0
SOLID
  5
1666
330
15EB
100
AcDbEntity
  8
BEM
 62
     0
100
AcDbTrace
 10
253.4497538796604
 20
123.9075642224015
 30
0.0
 11
253.4497538796604
 21
121.5742308890681
 31
0.0
 12
260.4497538796604
 22
122.7408975557348
 32
0.0
 13
260.4497538796604
 23
122.7408975557348
 33
0.0
  0
MTEXT
  5
1667
330
15EB
100
AcDbEntity
  8
BEM
 62
     1
100
AcDbMText
 10
209.4497538796604
 20
129.2408975557348
 30
0.0
 40
7.0
 41
0.0
 71
     5
 72
     1
  1
\A1;%%C102
 73
     1
 44
1.0
  0
POINT
  5
1668
330
15EB
100
AcDbEntity
  8
DEFPOINTS
 62
     0
100
AcDbPoint
 10
158.4497538796604
 20
157.0881759042699
 30
0.0
  0
POINT
  5
1669
330
15EB
100
AcDbEntity
  8
DEFPOINTS
 62
     0
100
AcDbPoint
 10
260.4497538796604
 20
157.0881759042687
 30
0.0
  0
POINT
  5
166A
330
15EB
100
AcDbEntity
  8
DEFPOINTS
 62
     0
100
AcDbPoint
 10
260.4497538796604
 20
122.7408975557348
 30
0.0
  0
ENDBLK
  5
15F7
330
15EB
100
AcDbEntity
  8
0
100
AcDbBlockEnd
  0
BLOCK
  5
1603
330
15F8
100
AcDbEntity
  8
0
100
AcDbBlockBegin
  2
*D5
 70
     1
 10
0.0
 20
0.0
 30
0.0
  3
*D5
  1

  0
LINE
  5
1659
330
15F8
100
AcDbEntity
  8
BEM
 62
     0
370
    -2
100
AcDbLine
 10
44.44975387966036
 20
461.0881759042704
 30
0.0
 11
44.44975387966036
 21
418.8001960256172
 31
0.0
  0
LINE
  5
165A
330
15F8
100
AcDbEntity
  8
BEM
 62
     0
370
    -2
100
AcDbLine
 10
374.4497538796604
 20
461.0881759042703
 30
0.0
 11
374.4497538796604
 21
418.8001960256172
 31
0.0
  0
LINE
  5
165B
330
15F8
100
AcDbEntity
  8
BEM
 62
     0
370
    -2
100
AcDbLine
 10
51.44975387966036
 20
420.8001960256171
 30
0.0
 11
367.4497538796604
 21
420.8001960256171
 31
0.0
  0
SOLID
  5
165C
330
15F8
100
AcDbEntity
  8
BEM
 62
     0
100
AcDbTrace
 10
51.44975387966036
 20
421.9668626922838
 30
0.0
 11
51.44975387966036
 21
419.6335293589505
 31
0.0
 12
44.44975387966036
 22
420.8001960256171
 32
0.0
 13
44.44975387966036
 23
420.8001960256171
 33
0.0
  0
SOLID
  5
165D
330
15F8
100
AcDbEntity
  8
BEM
 62
     0
100
AcDbTrace
 10
367.4497538796604
 20
421.9668626922838
 30
0.0
 11
367.4497538796604
 21
419.6335293589505
 31
0.0
 12
374.4497538796604
 22
420.8001960256171
 32
0.0
 13
374.4497538796604
 23
420.8001960256171
 33
0.0
  0
MTEXT
  5
165E
330
15F8
100
AcDbEntity
  8
BEM
 62
     1
100
AcDbMText
 10
209.4497538796604
 20
427.3001960256172
 30
0.0
 40
7.0
 41
0.0
 71
     5
 72
     1
  1
\A1;%%C330
 73
     1
 44
1.0
  0
POINT
  5
165F
330
15F8
100
AcDbEntity
  8
DEFPOINTS
 62
     0
100
AcDbPoint
 10
44.44975387966036
 20
463.0881759042703
 30
0.0
  0
POINT
  5
1660
330
15F8
100
AcDbEntity
  8
DEFPOINTS
 62
     0
100
AcDbPoint
 10
374.4497538796604
 20
463.0881759042702
 30
0.0
  0
POINT
  5
1661
330
15F8
100
AcDbEntity
  8
DEFPOINTS
 62
     0
100
AcDbPoint
 10
374.4497538796604
 20
420.8001960256171
 30
0.0
  0
ENDBLK
  5
1604
330
15F8
100
AcDbEntity
  8
0
100
AcDbBlockEnd
  0
BLOCK
  5
1610
330
1605
100
AcDbEntity
  8
0
100
AcDbBlockBegin
  2
*D6
 70
     1
 10
0.0
 20
0.0
 30
0.0
  3
*D6
  1

  0
LINE
  5
164E
330
1605
100
AcDbEntity
  8
BEM
 62
     0
370
    -2
100
AcDbLine
 10
376.4497538796604
 20
465.0881759042702
 30
0.0
 11
391.2232308934282
 21
465.0881759042702
 31
0.0
  0
LINE
  5
164F
330
1605
100
AcDbEntity
  8
BEM
 62
     0
370
    -2
100
AcDbLine
 10
376.4497538796604
 20
463.0881759042702
 30
0.0
 11
391.2232308934282
 21
463.0881759042702
 31
0.0
  0
LINE
  5
1650
330
1605
100
AcDbEntity
  8
BEM
 62
     0
370
    -2
100
AcDbLine
 10
389.2232308934282
 20
472.0881759042701
 30
0.0
 11
389.2232308934282
 21
479.0881759042702
 31
0.0
  0
LINE
  5
1651
330
1605
100
AcDbEntity
  8
BEM
 62
     0
370
    -2
100
AcDbLine
 10
389.2232308934282
 20
456.0881759042702
 30
0.0
 11
389.2232308934282
 21
439.3548425709369
 31
0.0
  0
LINE
  5
1652
330
1605
100
AcDbEntity
  8
BEM
 62
     0
370
    -2
100
AcDbLine
 10
389.2232308934282
 20
465.0881759042702
 30
0.0
 11
389.2232308934282
 21
463.0881759042702
 31
0.0
  0
SOLID
  5
1653
330
1605
100
AcDbEntity
  8
BEM
 62
     0
100
AcDbTrace
 10
388.0565642267614
 20
472.0881759042701
 30
0.0
 11
390.3898975600948
 21
472.0881759042701
 31
0.0
 12
389.2232308934282
 22
465.0881759042702
 32
0.0
 13
389.2232308934282
 23
465.0881759042702
 33
0.0
  0
SOLID
  5
1654
330
1605
100
AcDbEntity
  8
BEM
 62
     0
100
AcDbTrace
 10
388.0565642267614
 20
456.0881759042702
 30
0.0
 11
390.3898975600948
 21
456.0881759042702
 31
0.0
 12
389.2232308934282
 22
463.0881759042702
 32
0.0
 13
389.2232308934282
 23
463.0881759042702
 33
0.0
  0
MTEXT
  5
1655
330
1605
100
AcDbEntity
  8
BEM
 62
     1
100
AcDbMText
 10
382.723230893428
 20
444.2215092376037
 30
0.0
 40
7.0
 41
0.0
 71
     5
 72
     1
  1
\A1;2
 11
0.0000000000000001
 21
1.0
 31
0.0
 73
     1
 44
1.0
  0
POINT
  5
1656
330
1605
100
AcDbEntity
  8
DEFPOINTS
 62
     0
100
AcDbPoint
 10
374.4497538796604
 20
465.0881759042702
 30
0.0
  0
POINT
  5
1657
330
1605
100
AcDbEntity
  8
DEFPOINTS
 62
     0
100
AcDbPoint
 10
374.4497538796604
 20
463.0881759042702
 30
0.0
  0
POINT
  5
1658
330
1605
100
AcDbEntity
  8
DEFPOINTS
 62
     0
100
AcDbPoint
 10
389.2232308934282
 20
463.0881759042702
 30
0.0
  0
ENDBLK
  5
1611
330
1605
100
AcDbEntity
  8
0
100
AcDbBlockEnd
  0
ENDSEC
  0
SECTION
  2
ENTITIES
  0
LINE
  5
57
330
1E
100
AcDbEntity
  8
STEMPEL
100
AcDbLine
 10
410.0
 20
110.0
 30
0.0
 11
29.99999999999997
 21
110.0
 31
0.0
  0
LINE
  5
58
330
1E
100
AcDbEntity
  8
STEMPEL
100
AcDbLine
 10
136.0000000000001
 20
109.9999999999999
 30
0.0
 11
136.0
 21
9.999999999999971
 31
0.0
  0
LINE
  5
59
330
1E
100
AcDbEntity
  8
STEMPEL
100
AcDbLine
 10
220.0
 20
110.0
 30
0.0
 11
220.0
 21
9.999999999999971
 31
0.0
  0
LINE
  5
5A
330
1E
100
AcDbEntity
  8
STEMPEL
100
AcDbLine
 10
332.0
 20
109.9999999999997
 30
0.0
 11
332.0
 21
40.0
 31
0.0
  0
LINE
  5
5B
330
1E
100
AcDbEntity
  8
STEMPEL
100
AcDbLine
 10
135.9999999999999
 20
29.99999999999997
 30
0.0
 11
29.99999999999997
 21
29.99999999999997
 31
0.0
  0
LINE
  5
5C
330
1E
100
AcDbEntity
  8
STEMPEL
100
AcDbLine
 10
410.0
 20
40.0
 30
0.0
 11
136.0000000000001
 21
39.99999999999997
 31
0.0
  0
LINE
  5
5D
330
1E
100
AcDbEntity
  8
STEMPEL
100
AcDbLine
 10
410.0
 20
80.0
 30
0.0
 11
136.0000000000001
 21
79.99999999999994
 31
0.0
  0
LINE
  5
5E
330
1E
100
AcDbEntity
  8
VOLL
100
AcDbLine
 10
44.00000000000008
 20
110.0
 30
0.0
 11
43.99999999999997
 21
9.999999999999971
 31
0.0
  0
LINE
  5
5F
330
1E
100
AcDbEntity
  8
VOLL
100
AcDbLine
 10
94.00000000000011
 20
109.9999999999999
 30
0.0
 11
94.0
 21
9.999999999999971
 31
0.0
  0
LINE
  5
60
330
1E
100
AcDbEntity
  8
VOLL
100
AcDbLine
 10
114.0000000000001
 20
109.9999999999999
 30
0.0
 11
114.0
 21
9.999999999999971
 31
0.0
  0
LINE
  5
61
330
1E
100
AcDbEntity
  8
VOLL
100
AcDbLine
 10
154.0000000000001
 20
79.99999999999994
 30
0.0
 11
154.0000000000001
 21
39.99999999999997
 31
0.0
  0
LINE
  5
62
330
1E
100
AcDbEntity
  8
VOLL
100
AcDbLine
 10
180.0000000000001
 20
109.9999999999998
 30
0.0
 11
180.0
 21
39.99999999999997
 31
0.0
  0
LINE
  5
63
330
1E
100
AcDbEntity
  8
HILF
100
AcDbLine
 10
30.00000000000009
 20
100.0
 30
0.0
 11
136.0000000000001
 21
100.0
 31
0.0
  0
LINE
  5
64
330
1E
100
AcDbEntity
  8
HILF
100
AcDbLine
 10
30.00000000000009
 20
90.00000000000005
 30
0.0
 11
136.0000000000001
 21
90.00000000000005
 31
0.0
  0
LINE
  5
65
330
1E
100
AcDbEntity
  8
HILF
100
AcDbLine
 10
30.00000000000009
 20
79.99999999999994
 30
0.0
 11
136.0000000000001
 21
79.99999999999994
 31
0.0
  0
LINE
  5
66
330
1E
100
AcDbEntity
  8
HILF
100
AcDbLine
 10
30.00000000000009
 20
69.99999999999994
 30
0.0
 11
136.0000000000001
 21
69.99999999999994
 31
0.0
  0
LINE
  5
67
330
1E
100
AcDbEntity
  8
HILF
100
AcDbLine
 10
30.00000000000009
 20
59.99999999999997
 30
0.0
 11
136.0000000000001
 21
59.99999999999997
 31
0.0
  0
LINE
  5
68
330
1E
100
AcDbEntity
  8
HILF
100
AcDbLine
 10
30.00000000000009
 20
49.99999999999997
 30
0.0
 11
136.0000000000001
 21
49.99999999999997
 31
0.0
  0
LINE
  5
69
330
1E
100
AcDbEntity
  8
HILF
100
AcDbLine
 10
30.00000000000009
 20
39.99999999999997
 30
0.0
 11
136.0000000000001
 21
39.99999999999997
 31
0.0
  0
LINE
  5
6A
330
1E
100
AcDbEntity
  8
HILF
100
AcDbLine
 10
136.0000000000001
 20
69.99999999999994
 30
0.0
 11
220.0
 21
69.99999999999994
 31
0.0
  0
LINE
  5
6B
330
1E
100
AcDbEntity
  8
HILF
100
AcDbLine
 10
136.0000000000001
 20
59.99999999999997
 30
0.0
 11
220.0
 21
59.99999999999997
 31
0.0
  0
LINE
  5
6C
330
1E
100
AcDbEntity
  8
HILF
100
AcDbLine
 10
136.0000000000001
 20
49.99999999999997
 30
0.0
 11
220.0
 21
49.99999999999997
 31
0.0
  0
LINE
  5
6D
330
1E
100
AcDbEntity
  8
HILF
100
AcDbLine
 10
224.7736801096948
 20
84.03758247564139
 30
0.0
 11
324.8353916556311
 21
84.03758247564139
 31
0.0
  0
LINE
  5
6E
330
1E
100
AcDbEntity
  8
HILF
100
AcDbLine
 10
224.7736801096948
 20
69.99999999999994
 30
0.0
 11
324.835391655631
 21
69.99999999999994
 31
0.0
  0
LINE
  5
6F
330
1E
100
AcDbEntity
  8
HILF
100
AcDbLine
 10
224.7736801096948
 20
59.99999999999997
 30
0.0
 11
324.835391655631
 21
59.99999999999997
 31
0.0
  0
LINE
  5
70
330
1E
100
AcDbEntity
  8
HILF
100
AcDbLine
 10
224.7736801096948
 20
49.99999999999997
 30
0.0
 11
324.835391655631
 21
49.99999999999997
 31
0.0
  0
LINE
  5
71
330
1E
100
AcDbEntity
  8
VOLL
100
AcDbLine
 10
332.0
 20
60.0
 30
0.0
 11
410.0
 21
60.0
 31
0.0
  0
LINE
  5
72
330
1E
100
AcDbEntity
  8
HILF
100
AcDbLine
 10
336.7238616296993
 20
83.77983636955827
 30
0.0
 11
404.8588839326728
 21
83.77983636955827
 31
0.0
  0
LINE
  5
73
330
1E
100
AcDbEntity
  8
HILF
100
AcDbLine
 10
223.4909699289885
 20
14.89398258028314
 30
0.0
 11
404.8588839326728
 21
14.89398258028314
 31
0.0
  0
TEXT
  5
74
330
1E
100
AcDbEntity
  8
TEXT
100
AcDbText
 10
59.34071736793199
 20
18.67381894984132
 30
0.0
 40
4.0
  1
Änderung
 41
0.8
  7
GREEKS
 72
     1
 11
70.08357451078913
 21
18.67381894984132
 31
0.0
100
AcDbText
  0
TEXT
  5
75
330
1E
100
AcDbEntity
  8
TEXT
100
AcDbText
 10
143.5163572150377
 20
102.4620895087088
 30
0.0
 40
5.0
  1
Maßstab
 41
0.8
  7
GREEKS
100
AcDbText
  0
TEXT
  5
76
330
1E
100
AcDbEntity
  8
TEXT
100
AcDbText
 10
184.2858954734051
 20
102.4184168434819
 30
0.0
 40
5.0
  1
Zul. Abw.
 41
0.8
  7
GREEKS
100
AcDbText
  0
TEXT
  5
77
330
1E
100
AcDbEntity
  8
TEXT
100
AcDbText
 10
224.877940380901
 20
102.5489328011779
 30
0.0
 40
5.0
  1
Benennung
 41
0.8
  7
GREEKS
100
AcDbText
  0
TEXT
  5
78
330
1E
100
AcDbEntity
  8
TEXT
100
AcDbText
 10
336.178754957634
 20
102.3132034537136
 30
0.0
 40
5.0
  1
Zeichnungs Nr.
 41
0.8
  7
GREEKS
100
AcDbText
  0
TEXT
  5
79
330
1E
100
AcDbEntity
  8
TEXT
100
AcDbText
 10
224.742238391136
 20
30.84560570193057
 30
0.0
 40
5.0
  1
Bauvorhaben
 41
0.8
  7
GREEKS
100
AcDbText
  0
TEXT
  5
7A
330
1E
100
AcDbEntity
  8
TEXT
100
AcDbText
 10
336.7238616296993
 20
73.1811823709997
 30
0.0
 40
5.0
  1
Ersatz für:
 41
0.8
  7
GREEKS
100
AcDbText
  0
TEXT
  5
7B
330
1E
100
AcDbEntity
  8
TEXT
100
AcDbText
 10
38.26641107045757
 20
13.65465846027192
 30
0.0
 40
4.0
  1
Index
 50
90.0
 41
0.8
  7
GREEKS
100
AcDbText
  0
TEXT
  5
7C
330
1E
100
AcDbEntity
  8
TEXT
100
AcDbText
 10
100.0934676075481
 20
18.6715626933981
 30
0.0
 40
4.0
  1
Tag
 41
0.8
  7
GREEKS
 72
     1
 11
103.8268009408814
 21
18.6715626933981
 31
0.0
100
AcDbText
  0
TEXT
  5
7D
330
1E
100
AcDbEntity
  8
TEXT
100
AcDbText
 10
119.0122744386592
 20
18.59324216966408
 30
0.0
 40
4.0
  1
Name
 41
0.8
  7
GREEKS
 72
     1
 11
125.3360839624688
 21
18.59324216966408
 31
0.0
100
AcDbText
  0
TEXT
  5
7E
330
1E
100
AcDbEntity
  8
TEXT
100
AcDbText
 10
162.3311673153651
 20
73.31880501229926
 30
0.0
 40
4.0
  1
Tag
 41
0.8
  7
GREEKS
100
AcDbText
  0
TEXT
  5
7F
330
1E
100
AcDbEntity
  8
TEXT
100
AcDbText
 10
192.4626584226295
 20
73.30961091915225
 30
0.0
 40
4.0
  1
Name
 41
0.8
  7
GREEKS
100
AcDbText
  0
TEXT
  5
80
330
1E
100
AcDbEntity
  8
TEXT
100
AcDbText
 10
137.5836127167615
 20
63.62990369617964
 30
0.0
 40
4.0
  1
Gez.
 41
0.8
  7
GREEKS
100
AcDbText
  0
TEXT
  5
81
330
1E
100
AcDbEntity
  8
TEXT
100
AcDbText
 10
137.5515086571672
 20
53.68926291428377
 30
0.0
 40
4.0
  1
Gepr.
 41
0.8
  7
GREEKS
100
AcDbText
  0
TEXT
  5
82
330
1E
100
AcDbEntity
  8
TEXT
100
AcDbText
 10
137.6006777387304
 20
43.52946389649807
 30
0.0
 40
4.0
  1
Norm.
 41
0.8
  7
GREEKS
100
AcDbText
  0
LINE
  5
83
330
1E
100
AcDbEntity
  8
STEMPEL
100
AcDbLine
 10
39.99999999999989
 20
10.0
 30
0.0
 11
410.0
 21
10.0
 31
0.0
  0
TEXT
  5
84
330
1E
100
AcDbEntity
  8
TEXT
100
AcDbText
 10
337.2400861497006
 20
52.07416177878602
 30
0.0
 40
5.0
  1
ersetzt durch:
 41
0.8
  7
GREEKS
100
AcDbText
  0
LINE
  5
85
330
1E
100
AcDbEntity
  8
STEMPEL
100
AcDbLine
 10
410.0
 20
10.0
 30
0.0
 11
29.99999999999989
 21
10.0
 31
0.0
  0
LINE
  5
86
330
1E
100
AcDbEntity
  8
STEMPEL
100
AcDbLine
 10
410.0
 20
10.0
 30
0.0
 11
410.0
 21
584.0
 31
0.0
  0
LINE
  5
87
330
1E
100
AcDbEntity
  8
STEMPEL
100
AcDbLine
 10
30.0
 20
10.0
 30
0.0
 11
29.99999999999989
 21
584.0
 31
0.0
  0
LINE
  5
88
330
1E
100
AcDbEntity
  8
STEMPEL
100
AcDbLine
 10
410.0
 20
584.0
 30
0.0
 11
29.99999999999989
 21
584.0
 31
0.0
  0
LINE
  5
89
330
1E
100
AcDbEntity
  8
HILF
100
AcDbLine
 10
0.0
 20
0.0
 30
0.0
 11
-0.0000000000001137
 21
594.0
 31
0.0
  0
LINE
  5
8A
330
1E
100
AcDbEntity
  8
HILF
100
AcDbLine
 10
419.9999999999999
 20
594.0000000000002
 30
0.0
 11
0.0
 21
594.0
 31
0.0
  0
LINE
  5
8B
330
1E
100
AcDbEntity
  8
HILF
100
AcDbLine
 10
420.0
 20
0.0
 30
0.0
 11
0.0
 21
0.0
 31
0.0
  0
LINE
  5
8C
330
1E
100
AcDbEntity
  8
HILF
100
AcDbLine
 10
31.08767135713856
 20
297.0
 30
0.0
 11
0.0000000000001137
 21
297.0
 31
0.0
  0
TEXT
  5
8D
330
1E
100
AcDbEntity
  8
TEXT
100
AcDbText
 10
138.622109822104
 20
73.14025471151666
 30
0.0
 40
4.0
  1
2008
 41
0.8
  7
GREEKS
100
AcDbText
  0
LINE
  5
8E
330
1E
100
AcDbEntity
  8
HILF
100
AcDbLine
 10
420.0
 20
-0.0000000000001137
 30
0.0
 11
419.9999999999999
 21
594.0
 31
0.0
  0
TEXT
  5
8F
330
1E
100
AcDbEntity
  8
VOLL
100
AcDbText
 10
78.07675471698113
 20
31.02594776470585
 30
0.0
 40
1.8
  1

  7
GREEKS
100
AcDbText
  0
TEXT
  5
90
330
1E
100
AcDbEntity
  8
TEXT
100
AcDbText
 10
31.85509950977675
 20
111.6719999999999
 30
0.0
 40
5.0
  1
Erstellt mit AUTOCAD 2004
 41
0.8
  7
GREEKS
100
AcDbText
  0
TEXT
  5
91
330
1E
100
AcDbEntity
  8
TEXT
100
AcDbText
 10
194.4216048581257
 20
63.0896391972351
 30
0.0
 40
4.0
  1
Koeh
 41
0.8
  7
GREEKS
 72
     1
 11
199.6787477152685
 21
63.0896391972351
 31
0.0
100
AcDbText
  0
TEXT
  5
92
330
1E
100
AcDbEntity
  8
TEXT
 62
     1
100
AcDbText
 10
344.847717454267
 20
88.14901428913959
 30
0.0
 40
7.0
  1
18130100W
 41
0.8
  7
GREEKS
 72
     1
 11
367.247717454267
 21
88.14901428913959
 31
0.0
100
AcDbText
  0
TEXT
  5
93
330
1E
100
AcDbEntity
  8
TEXT
 62
     1
100
AcDbText
 10
150.5006306481887
 20
88.14901428913959
 30
0.0
 40
7.0
  1
1:2
 41
0.8
  7
GREEKS
100
AcDbText
  0
TEXT
  5
94
330
1E
100
AcDbEntity
  8
TEXT
100
AcDbText
 10
161.0085209177598
 20
63.10765040825732
 30
0.0
 40
4.0
  1
11.06.
 41
0.8
  7
GREEKS
 72
     1
 11
167.4085209177598
 21
63.10765040825732
 31
0.0
100
AcDbText
  0
TEXT
  5
95
330
1E
100
AcDbEntity
  8
TEXT
 62
     1
100
AcDbText
 10
224.9022698906435
 20
87.41748789253779
 30
0.0
 40
7.0
  1
Wanddurchführung DN100
 41
0.75
  7
GREEKS
100
AcDbText
  0
TEXT
  5
96
330
1E
100
AcDbEntity
  8
TEXT
100
AcDbText
 10
225.1296391125315
 20
71.50334417585288
 30
0.0
 40
5.0
  1
mit Sperrflansch
 41
0.8
  7
GREEKS
100
AcDbText
  0
TEXT
  5
98
330
1E
100
AcDbEntity
  8
TEXT
100
AcDbText
 10
225.1296391125315
 20
51.64011943042158
 30
0.0
 40
5.0
  1
EDV-Art.Nr. 18130.100X
 41
0.8
  7
GREEKS
100
AcDbText
  0
TEXT
  5
99
330
1E
100
AcDbEntity
  8
TEXT
100
AcDbText
 10
224.9837501577827
 20
42.62974153022632
 30
0.0
 40
4.0
  1
18130100W.DWG
 41
0.8
  7
GREEKS
100
AcDbText
  0
TEXT
  5
9A
330
1E
100
AcDbEntity
  8
TEXT
100
AcDbText
 10
182.626132208084
 20
90.76363841023022
 30
0.0
 40
4.0
  1
DIN EN1123-2
 41
0.8
  7
GREEKS
 72
     1
 11
199.6166083985602
 21
90.76363841023022
 31
0.0
100
AcDbText
  0
INSERT
  5
9B
330
1E
100
AcDbEntity
  8
STEMPEL
100
AcDbBlockReference
  2
LOGO
 10
140.9955485457794
 20
45.02105276448322
 30
0.0
 41
2.0
 42
2.0
 43
2.0
  0
TEXT
  5
118
330
1E
100
AcDbEntity
  8
BEM
100
AcDbText
 10
417.3022923857165
 20
10.16790107998849
 30
0.0
 40
4.0
  1
Diese Zeichnung ist urheberrechtlich geschützt und bleibt unser Eigentum. Sie darf weder ganz noch teilweise verfielfältigt und nicht an Dritte weitergegeben werden.
 50
90.0
 41
0.8
  7
GREEKS
100
AcDbText
  0
TEXT
  5
96F
330
1E
100
AcDbEntity
  8
TEXT
 62
     1
100
AcDbText
 10
200.0860232734597
 20
352.9169482618017
 30
0.0
 40
7.0
  1
DN100
 50
90.0
 41
0.8
  7
GREEKS
100
AcDbText
  0
ARC
  5
157C
102
{ACAD_REACTORS
330
16B7
102
}
330
1E
100
AcDbEntity
  8
SCHRAFF
100
AcDbCircle
 10
260.4497538796604
 20
450.0881759042703
 30
0.0
 40
3.0
100
AcDbArc
 50
270.0
 51
7.846889665797813
  0
ARC
  5
157D
102
{ACAD_REACTORS
330
16B7
102
}
330
1E
100
AcDbEntity
  8
SCHRAFF
100
AcDbCircle
 10
158.4497538796604
 20
450.0881759042703
 30
0.0
 40
3.0
100
AcDbArc
 50
172.1531103342021
 51
270.0
  0
DIMENSION
  5
157E
330
1E
100
AcDbEntity
  8
BEM
100
AcDbDimension
  2
*D1
 10
260.4497538796604
 20
313.0711796443359
 30
0.0
 11
279.3164205463271
 21
319.5711796443359
 31
0.0
 70
    32
 71
     5
 42
2.0
  3
Standard
100
AcDbAlignedDimension
 13
258.4497538796604
 23
313.1148405872447
 33
0.0
 14
260.4497538796604
 24
313.0711796443359
 34
0.0
100
AcDbRotatedDimension
1001
ACAD
1000
DSTYLE
1002
{
1070
    40
1040
2.0
1070
    41
1040
3.5
1070
    42
1040
1.0
1070
    43
1040
7.0
1070
    44
1040
1.0
1070
    73
1070
     0
1070
    74
1070
     0
1070
    77
1070
     1
1070
    78
1070
     8
1070
    79
1070
     2
1070
   140
1040
3.5
1070
   141
1040
1.5
1070
   146
1040
0.5142857142857144
1070
   147
1040
1.5
1070
   172
1070
     1
1070
   178
1070
     1
1070
   179
1070
     2
1070
   271
1070
     2
1070
   272
1070
     2
1070
   284
1070
     8
1070
   285
1070
     8
1070
   286
1070
     8
1002
}
  0
LINE
  5
1584
102
{ACAD_REACTORS
330
169C
102
}
330
1E
100
AcDbEntity
  8
STEMPEL
100
AcDbLine
 10
160.4497538796606
 20
157.1754977900858
 30
0.0
 11
161.5072575170581
 21
145.0881759042702
 31
0.0
  0
LINE
  5
1585
102
{ACAD_REACTORS
330
169B
102
}
330
1E
100
AcDbEntity
  8
STEMPEL
100
AcDbLine
 10
258.4497538796604
 20
157.175497790087
 30
0.0
 11
257.3922502422626
 21
145.0881759042702
 31
0.0
  0
LINE
  5
1586
102
{ACAD_REACTORS
330
169B
102
}
330
1E
100
AcDbEntity
  8
STEMPEL
100
AcDbLine
 10
266.4497538796604
 20
532.483424441699
 30
0.0
 11
266.4497538796604
 21
514.3211759042704
 31
0.0
  0
ARC
  5
1587
102
{ACAD_REACTORS
330
169B
102
}
330
1E
100
AcDbEntity
  8
STEMPEL
100
AcDbCircle
 10
243.4497538796604
 20
514.3211759042704
 30
0.0
 40
22.99990931069965
100
AcDbArc
 50
333.1122293409801
 51
0.0
  0
ARC
  5
1588
102
{ACAD_REACTORS
330
169B
102
}
330
1E
100
AcDbEntity
  8
STEMPEL
100
AcDbCircle
 10
276.4497538796604
 20
497.5881759042704
 30
0.0
 40
14.0
100
AcDbArc
 50
153.1122293409801
 51
180.0
  0
LINE
  5
1589
102
{ACAD_REACTORS
330
169B
102
}
330
1E
100
AcDbEntity
  8
STEMPEL
100
AcDbLine
 10
262.4497538796604
 20
497.5881759042705
 30
0.0
 11
262.4497538796604
 21
482.0156647812179
 31
0.0
  0
ARC
  5
158A
102
{ACAD_REACTORS
330
169B
102
}
330
1E
100
AcDbEntity
  8
STEMPEL
100
AcDbCircle
 10
249.4497538796604
 20
482.0156647812179
 30
0.0
 40
13.0
100
AcDbArc
 50
325.6988472432084
 51
0.0
  0
ARC
  5
158B
102
{ACAD_REACTORS
330
169B
102
}
330
1E
100
AcDbEntity
  8
STEMPEL
100
AcDbCircle
 10
268.4497538796604
 20
469.0541833844021
 30
0.0
 40
10.0
100
AcDbArc
 50
145.6988472432083
 51
180.0
  0
LINE
  5
158C
102
{ACAD_REACTORS
330
169B
102
}
330
1E
100
AcDbEntity
  8
STEMPEL
100
AcDbLine
 10
258.4497538796604
 20
469.0541833844021
 30
0.0
 11
258.4497538796604
 21
157.175497790087
 31
0.0
  0
LINE
  5
158D
102
{ACAD_REACTORS
330
169C
102
}
330
1E
100
AcDbEntity
  8
STEMPEL
100
AcDbLine
 10
160.4497538796604
 20
469.0541833844021
 30
0.0
 11
160.4497538796606
 21
157.1754977900858
 31
0.0
  0
ARC
  5
158E
102
{ACAD_REACTORS
330
169C
102
}
330
1E
100
AcDbEntity
  8
STEMPEL
100
AcDbCircle
 10
150.4497538796604
 20
469.0541833844021
 30
0.0
 40
10.0
100
AcDbArc
 50
0.0
 51
34.30115275679169
  0
ARC
  5
158F
102
{ACAD_REACTORS
330
169C
102
}
330
1E
100
AcDbEntity
  8
STEMPEL
100
AcDbCircle
 10
169.4497538796604
 20
482.0156647812179
 30
0.0
 40
13.0
100
AcDbArc
 50
180.0
 51
214.3011527567917
  0
LINE
  5
1590
102
{ACAD_REACTORS
330
169C
102
}
330
1E
100
AcDbEntity
  8
STEMPEL
100
AcDbLine
 10
156.4497538796604
 20
497.5881759042705
 30
0.0
 11
156.4497538796604
 21
482.0156647812179
 31
0.0
  0
ARC
  5
1591
102
{ACAD_REACTORS
330
169C
102
}
330
1E
100
AcDbEntity
  8
STEMPEL
100
AcDbCircle
 10
142.4497538796604
 20
497.5881759042704
 30
0.0
 40
14.0
100
AcDbArc
 50
0.0
 51
26.88777065901979
  0
ARC
  5
1592
102
{ACAD_REACTORS
330
169C
102
}
330
1E
100
AcDbEntity
  8
STEMPEL
100
AcDbCircle
 10
175.4497538796604
 20
514.3211759042704
 30
0.0
 40
22.99990931069965
100
AcDbArc
 50
180.0
 51
206.88777065902
  0
LINE
  5
1593
102
{ACAD_REACTORS
330
169C
102
}
330
1E
100
AcDbEntity
  8
STEMPEL
100
AcDbLine
 10
152.4497538796604
 20
532.483424441699
 30
0.0
 11
152.4497538796604
 21
514.3211759042704
 31
0.0
  0
ARC
  5
1594
102
{ACAD_REACTORS
330
169C
102
}
330
1E
100
AcDbEntity
  8
STEMPEL
100
AcDbCircle
 10
175.4497538796604
 20
532.483424441699
 30
0.0
 40
23.0
100
AcDbArc
 50
154.999999999999
 51
180.0
  0
LINE
  5
1595
102
{ACAD_REACTORS
330
169C
102
}
330
1E
100
AcDbEntity
  8
STEMPEL
100
AcDbLine
 10
155.9497538796605
 20
545.0881759042702
 30
0.0
 11
154.6046747778176
 21
542.2036444617353
 31
0.0
  0
LINE
  5
1596
102
{ACAD_REACTORS
330
169B
102
}
330
1E
100
AcDbEntity
  8
STEMPEL
100
AcDbLine
 10
262.9497538796603
 20
545.0881759042703
 30
0.0
 11
264.2948329815032
 21
542.2036444617356
 31
0.0
  0
ARC
  5
1597
102
{ACAD_REACTORS
330
169B
102
}
330
1E
100
AcDbEntity
  8
STEMPEL
100
AcDbCircle
 10
243.4497538796604
 20
532.483424441699
 30
0.0
 40
23.0
100
AcDbArc
 50
0.0
 51
25.0000000000013
  0
DIMENSION
  5
1598
330
1E
100
AcDbEntity
  8
BEM
100
AcDbDimension
  2
*D2
 10
402.9888608643013
 20
145.0881759042701
 30
0.0
 11
396.4888608643013
 21
345.0881759042703
 31
0.0
 70
    32
 71
     5
 42
400.0
  3
Standard
100
AcDbAlignedDimension
 13
265.1565097175853
 23
545.0881759042702
 33
0.0
 14
259.3998899173493
 24
145.0881759042702
 34
0.0
 50
90.0
100
AcDbRotatedDimension
1001
ACAD
1000
DSTYLE
1002
{
1070
    40
1040
2.0
1070
    41
1040
3.5
1070
    42
1040
1.0
1070
    43
1040
7.0
1070
    44
1040
1.0
1070
    73
1070
     0
1070
    74
1070
     0
1070
    77
1070
     1
1070
    78
1070
     8
1070
    79
1070
     2
1070
   140
1040
3.5
1070
   141
1040
1.5
1070
   146
1040
0.5142857142857144
1070
   147
1040
1.5
1070
   172
1070
     1
1070
   178
1070
     1
1070
   179
1070
     2
1070
   271
1070
     2
1070
   272
1070
     2
1070
   284
1070
     8
1070
   285
1070
     8
1070
   286
1070
     8
1002
}
  0
DIMENSION
  5
1599
330
1E
100
AcDbEntity
  8
BEM
100
AcDbDimension
  2
*D3
 10
389.3100701919544
 20
465.0881759042702
 30
0.0
 11
382.8100701919544
 21
505.0881759042702
 31
0.0
 70
    32
 71
     5
 42
80.0
  3
Standard
100
AcDbAlignedDimension
 13
265.1565097175853
 23
545.0881759042702
 33
0.0
 14
374.4497538796604
 24
465.0881759042702
 34
0.0
 50
90.0
100
AcDbRotatedDimension
1001
ACAD
1000
DSTYLE
1002
{
1070
    40
1040
2.0
1070
    41
1040
3.5
1070
    42
1040
1.0
1070
    43
1040
7.0
1070
    44
1040
1.0
1070
    73
1070
     0
1070
    74
1070
     0
1070
    77
1070
     1
1070
    78
1070
     8
1070
    79
1070
     2
1070
   140
1040
3.5
1070
   141
1040
1.5
1070
   146
1040
0.5142857142857144
1070
   147
1040
1.5
1070
   172
1070
     1
1070
   178
1070
     1
1070
   179
1070
     2
1070
   271
1070
     2
1070
   272
1070
     2
1070
   284
1070
     8
1070
   285
1070
     8
1070
   286
1070
     8
1002
}
  0
LINE
  5
159A
102
{ACAD_REACTORS
330
16AF
102
}
330
1E
100
AcDbEntity
  8
STEMPEL
100
AcDbLine
 10
158.4497538796604
 20
452.1070800302954
 30
0.0
 11
64.25879279863472
 21
465.0881759042702
 31
0.0
  0
LINE
  5
159B
102
{ACAD_REACTORS
330
16AF
102
}
330
1E
100
AcDbEntity
  8
STEMPEL
100
AcDbLine
 10
260.4497538796604
 20
452.1070800302954
 30
0.0
 11
354.6407149606859
 21
465.0881759042702
 31
0.0
  0
DIMENSION
  5
159C
330
1E
100
AcDbEntity
  8
BEM
100
AcDbDimension
  2
*D4
 10
260.4497538796604
 20
122.7408975557348
 30
0.0
 11
209.4497538796604
 21
129.2408975557348
 31
0.0
 70
    32
  1
%%C<>
 71
     5
 42
102.0
  3
Standard
100
AcDbAlignedDimension
 13
158.4497538796604
 23
157.0881759042699
 33
0.0
 14
260.4497538796604
 24
157.0881759042687
 34
0.0
 50
180.0
100
AcDbRotatedDimension
1001
ACAD
1000
DSTYLE
1002
{
1070
    40
1040
2.0
1070
    41
1040
3.5
1070
    42
1040
1.0
1070
    43
1040
7.0
1070
    44
1040
1.0
1070
    73
1070
     0
1070
    74
1070
     0
1070
    77
1070
     1
1070
    78
1070
     8
1070
    79
1070
     2
1070
   140
1040
3.5
1070
   141
1040
1.5
1070
   146
1040
0.5142857142857144
1070
   147
1040
1.5
1070
   172
1070
     1
1070
   178
1070
     1
1070
   179
1070
     2
1070
   271
1070
     2
1070
   272
1070
     2
1070
   284
1070
     8
1070
   285
1070
     8
1070
   286
1070
     8
1002
}
  0
ARC
  5
159D
102
{ACAD_REACTORS
330
169C
102
}
330
1E
100
AcDbEntity
  8
STEMPEL
100
AcDbCircle
 10
175.4497538796604
 20
532.483424441699
 30
0.0
 40
25.0
100
AcDbArc
 50
154.9999999999994
 51
180.0
  0
LINE
  5
159E
102
{ACAD_REACTORS
330
169C
102
}
330
1E
100
AcDbEntity
  8
STEMPEL
100
AcDbLine
 10
153.7429980417355
 20
545.0881759042702
 30
0.0
 11
152.7920592037443
 21
543.0488809852168
 31
0.0
  0
ARC
  5
159F
102
{ACAD_REACTORS
330
169C
102
}
330
1E
100
AcDbEntity
  8
STEMPEL
100
AcDbCircle
 10
142.4497538796604
 20
497.5881759042704
 30
0.0
 40
12.0
100
AcDbArc
 50
0.0
 51
26.88777065901972
  0
ARC
  5
15A0
102
{ACAD_REACTORS
330
169C
102
}
330
1E
100
AcDbEntity
  8
STEMPEL
100
AcDbCircle
 10
175.4497538796604
 20
514.3211759042704
 30
0.0
 40
24.99990931069965
100
AcDbArc
 50
180.0
 51
206.88777065902
  0
LINE
  5
15A1
102
{ACAD_REACTORS
330
169C
102
}
330
1E
100
AcDbEntity
  8
STEMPEL
100
AcDbLine
 10
154.4497538796604
 20
497.5881759042705
 30
0.0
 11
154.4497538796604
 21
482.0156647812179
 31
0.0
  0
LINE
  5
15A2
102
{ACAD_REACTORS
330
169C
102
}
330
1E
100
AcDbEntity
  8
STEMPEL
100
AcDbLine
 10
150.4497538796604
 20
532.483424441699
 30
0.0
 11
150.4497538796604
 21
514.3211759042704
 31
0.0
  0
ARC
  5
15A3
102
{ACAD_REACTORS
330
169B
102
}
330
1E
100
AcDbEntity
  8
STEMPEL
100
AcDbCircle
 10
243.4497538796604
 20
532.483424441699
 30
0.0
 40
25.0
100
AcDbArc
 50
0.0
 51
25.00000000000056
  0
LINE
  5
15A4
102
{ACAD_REACTORS
330
169B
102
}
330
1E
100
AcDbEntity
  8
STEMPEL
100
AcDbLine
 10
265.1565097175853
 20
545.0881759042702
 30
0.0
 11
266.1074485555765
 21
543.0488809852168
 31
0.0
  0
ARC
  5
15A5
102
{ACAD_REACTORS
330
169B
102
}
330
1E
100
AcDbEntity
  8
STEMPEL
100
AcDbCircle
 10
276.4497538796604
 20
497.5881759042704
 30
0.0
 40
12.0
100
AcDbArc
 50
153.1122293409802
 51
180.0
  0
ARC
  5
15A6
102
{ACAD_REACTORS
330
169B
102
}
330
1E
100
AcDbEntity
  8
STEMPEL
100
AcDbCircle
 10
243.4497538796604
 20
514.3211759042704
 30
0.0
 40
24.99990931069965
100
AcDbArc
 50
333.1122293409801
 51
0.0
  0
LINE
  5
15A7
102
{ACAD_REACTORS
330
169B
102
}
330
1E
100
AcDbEntity
  8
STEMPEL
100
AcDbLine
 10
264.4497538796604
 20
497.5881759042705
 30
0.0
 11
264.4497538796604
 21
482.0156647812179
 31
0.0
  0
LINE
  5
15A8
102
{ACAD_REACTORS
330
169B
102
}
330
1E
100
AcDbEntity
  8
STEMPEL
100
AcDbLine
 10
268.4497538796604
 20
532.483424441699
 30
0.0
 11
268.4497538796604
 21
514.3211759042704
 31
0.0
  0
LINE
  5
15A9
330
1E
100
AcDbEntity
  8
STEMPEL
100
AcDbLine
 10
265.1565097175853
 20
545.0881759042702
 30
0.0
 11
153.7429980417355
 21
545.0881759042702
 31
0.0
  0
LINE
  5
15AA
330
1E
100
AcDbEntity
  8
HILF
100
AcDbLine
 10
158.5870566478157
 20
480.2830918825286
 30
0.0
 11
260.3124511115051
 21
480.2830918825286
 31
0.0
  0
LINE
  5
15AB
330
1E
100
AcDbEntity
  8
HILF
100
AcDbLine
 10
158.4053803575896
 20
498.7789671104883
 30
0.0
 11
260.4941274017313
 21
498.7789671104883
 31
0.0
  0
LINE
  5
15AC
102
{ACAD_REACTORS
330
169C
330
16AF
330
16B7
102
}
330
1E
100
AcDbEntity
  8
STEMPEL
100
AcDbLine
 10
158.4497538796604
 20
469.0541833844021
 30
0.0
 11
158.4497538796606
 21
157.0881759042689
 31
0.0
  0
LINE
  5
15AD
102
{ACAD_REACTORS
330
169C
102
}
330
1E
100
AcDbEntity
  8
STEMPEL
100
AcDbLine
 10
158.4497538796606
 20
157.0881759042689
 30
0.0
 11
159.4996178419715
 21
145.0881759042702
 31
0.0
  0
LINE
  5
15AE
102
{ACAD_REACTORS
330
169B
330
16AF
330
16B7
102
}
330
1E
100
AcDbEntity
  8
STEMPEL
100
AcDbLine
 10
260.4497538796604
 20
469.0541833844021
 30
0.0
 11
260.4497538796604
 21
157.0881759042698
 31
0.0
  0
LINE
  5
15AF
102
{ACAD_REACTORS
330
169B
102
}
330
1E
100
AcDbEntity
  8
STEMPEL
100
AcDbLine
 10
260.4497538796604
 20
157.0881759042698
 30
0.0
 11
259.3998899173493
 21
145.0881759042702
 31
0.0
  0
LINE
  5
15B0
330
1E
100
AcDbEntity
  8
HILF
100
AcDbLine
 10
162.3263185742273
 20
470.7709277030955
 30
0.0
 11
256.5731891850935
 21
470.7709277030955
 31
0.0
  0
LINE
  5
15B1
330
1E
100
AcDbEntity
  8
STEMPEL
100
AcDbLine
 10
259.3998899173493
 20
145.0881759042702
 30
0.0
 11
159.4996178419715
 21
145.0881759042702
 31
0.0
  0
LINE
  5
15B2
330
1E
100
AcDbEntity
  8
HILF
  6
Continuous
100
AcDbLine
 10
256.4497538796604
 20
157.0881759042702
 30
0.0
 11
162.4497538796606
 21
157.0881759042702
 31
0.0
  0
ARC
  5
15B3
102
{ACAD_REACTORS
330
169C
102
}
330
1E
100
AcDbEntity
  8
STEMPEL
100
AcDbCircle
 10
169.4497538796604
 20
482.0156647812179
 30
0.0
 40
15.0
100
AcDbArc
 50
180.0
 51
214.3011527567917
  0
ARC
  5
15B4
102
{ACAD_REACTORS
330
169C
102
}
330
1E
100
AcDbEntity
  8
STEMPEL
100
AcDbCircle
 10
150.4497538796604
 20
469.0541833844021
 30
0.0
 40
8.0
100
AcDbArc
 50
0.0
 51
34.30115275679173
  0
ARC
  5
15B5
102
{ACAD_REACTORS
330
169B
102
}
330
1E
100
AcDbEntity
  8
STEMPEL
100
AcDbCircle
 10
249.4497538796604
 20
482.0156647812179
 30
0.0
 40
15.0
100
AcDbArc
 50
325.6988472432083
 51
0.0
  0
ARC
  5
15B6
102
{ACAD_REACTORS
330
169B
102
}
330
1E
100
AcDbEntity
  8
STEMPEL
100
AcDbCircle
 10
268.4497538796604
 20
469.0541833844021
 30
0.0
 40
8.0
100
AcDbArc
 50
145.6988472432081
 51
180.0
  0
LINE
  5
15B7
102
{ACAD_REACTORS
330
16AF
330
16B7
102
}
330
1E
100
AcDbEntity
  8
STEMPEL
100
AcDbLine
 10
260.4497538796604
 20
450.0881759042703
 30
0.0
 11
354.7778834875961
 21
463.0881759042702
 31
0.0
  0
LINE
  5
15B8
102
{ACAD_REACTORS
330
16AF
330
16B7
102
}
330
1E
100
AcDbEntity
  8
STEMPEL
100
AcDbLine
 10
158.4497538796604
 20
450.0881759042703
 30
0.0
 11
64.12162427172461
 21
463.0881759042702
 31
0.0
  0
LINE
  5
15B9
330
1E
100
AcDbEntity
  8
MITTEL
100
AcDbLine
 10
209.4497538796604
 20
417.3124384872147
 30
0.0
 11
209.4497538796604
 21
140.0881759042704
 31
0.0
  0
DIMENSION
  5
15BA
330
1E
100
AcDbEntity
  8
BEM
100
AcDbDimension
  2
*D5
 10
374.4497538796604
 20
420.8001960256171
 30
0.0
 11
209.4497538796604
 21
427.3001960256172
 31
0.0
 70
    32
  1
%%C<>
 71
     5
 42
330.0
  3
Standard
100
AcDbAlignedDimension
 13
44.44975387966036
 23
463.0881759042703
 33
0.0
 14
374.4497538796604
 24
463.0881759042702
 34
0.0
100
AcDbRotatedDimension
1001
ACAD
1000
DSTYLE
1002
{
1070
    40
1040
2.0
1070
    41
1040
3.5
1070
    42
1040
1.0
1070
    43
1040
7.0
1070
    44
1040
1.0
1070
    73
1070
     0
1070
    74
1070
     0
1070
    77
1070
     1
1070
    78
1070
     8
1070
    79
1070
     2
1070
   140
1040
3.5
1070
   141
1040
1.5
1070
   146
1040
0.5142857142857144
1070
   147
1040
1.5
1070
   172
1070
     1
1070
   178
1070
     1
1070
   179
1070
     2
1070
   271
1070
     2
1070
   272
1070
     2
1070
   284
1070
     8
1070
   285
1070
     8
1070
   286
1070
     8
1002
}
  0
DIMENSION
  5
15BB
330
1E
100
AcDbEntity
  8
BEM
100
AcDbDimension
  2
*D6
 10
389.2232308934282
 20
463.0881759042702
 30
0.0
 11
382.723230893428
 21
444.2215092376037
 31
0.0
 70
    32
 71
     5
 42
1.999999999999943
  3
Standard
100
AcDbAlignedDimension
 13
374.4497538796604
 23
465.0881759042702
 33
0.0
 14
374.4497538796604
 24
463.0881759042702
 34
0.0
 50
90.0
100
AcDbRotatedDimension
1001
ACAD
1000
DSTYLE
1002
{
1070
    40
1040
2.0
1070
    41
1040
3.5
1070
    42
1040
1.0
1070
    43
1040
7.0
1070
    44
1040
1.0
1070
    73
1070
     0
1070
    74
1070
     0
1070
    77
1070
     1
1070
    78
1070
     8
1070
    79
1070
     2
1070
   140
1040
3.5
1070
   141
1040
1.5
1070
   146
1040
0.5142857142857144
1070
   147
1040
1.5
1070
   172
1070
     1
1070
   178
1070
     1
1070
   179
1070
     2
1070
   271
1070
     2
1070
   272
1070
     2
1070
   284
1070
     8
1070
   285
1070
     8
1070
   286
1070
     8
1002
}
  0
LINE
  5
15BC
330
1E
100
AcDbEntity
  8
STEMPEL
100
AcDbLine
 10
374.4497538796604
 20
465.0881759042703
 30
0.0
 11
374.4497538796604
 21
463.0881759042702
 31
0.0
  0
LINE
  5
15BD
102
{ACAD_REACTORS
330
16AF
102
}
330
1E
100
AcDbEntity
  8
STEMPEL
100
AcDbLine
 10
354.7778834875961
 20
463.0881759042702
 30
0.0
 11
374.4497538796604
 21
463.0881759042702
 31
0.0
  0
LINE
  5
15BE
102
{ACAD_REACTORS
330
16AF
102
}
330
1E
100
AcDbEntity
  8
STEMPEL
100
AcDbLine
 10
260.4497538796604
 20
465.0881759042702
 30
0.0
 11
374.4497538796604
 21
465.0881759042702
 31
0.0
  0
LINE
  5
15BF
102
{ACAD_REACTORS
330
16AF
102
}
330
1E
100
AcDbEntity
  8
STEMPEL
100
AcDbLine
 10
64.12162427172461
 20
463.0881759042702
 30
0.0
 11
44.44975387966036
 21
463.0881759042703
 31
0.0
  0
LINE
  5
15C0
102
{ACAD_REACTORS
330
16AF
102
}
330
1E
100
AcDbEntity
  8
STEMPEL
100
AcDbLine
 10
374.4497538796604
 20
465.0881759042703
 30
0.0
 11
374.4497538796604
 21
463.0881759042703
 31
0.0
  0
LINE
  5
15C1
102
{ACAD_REACTORS
330
16AF
102
}
330
1E
100
AcDbEntity
  8
STEMPEL
100
AcDbLine
 10
44.44975387966036
 20
465.0881759042703
 30
0.0
 11
44.44975387966036
 21
463.0881759042703
 31
0.0
  0
LINE
  5
15C2
102
{ACAD_REACTORS
330
16AF
102
}
330
1E
100
AcDbEntity
  8
STEMPEL
100
AcDbLine
 10
158.4497538796604
 20
465.0881759042703
 30
0.0
 11
44.44975387966036
 21
465.0881759042703
 31
0.0
  0
LINE
  5
15C3
330
1E
100
AcDbEntity
  8
MITTEL
100
AcDbLine
 10
209.4497538796604
 20
550.0881759042702
 30
0.0
 11
209.4497538796604
 21
433.4565291202428
 31
0.0
  0
HATCH
  5
169B
330
1E
100
AcDbEntity
  8
SCHRAFF
100
AcDbHatch
 10
0.0
 20
0.0
 30
0.0
210
0.0
220
0.0
230
1.0
  2
_USER
 70
     0
 71
     1
 91
        1
 92
       33
 93
       20
 72
     1
 10
260.4497538796604
 20
157.0881759042698
 11
259.3998899173493
 21
145.0881759042702
 72
     1
 10
258.4497538796604
 20
157.175497790087
 11
257.3922502422626
 21
145.0881759042702
 72
     1
 10
260.4497538796604
 20
469.0541833844021
 11
260.4497538796604
 21
157.0881759042698
 72
     1
 10
258.4497538796604
 20
469.0541833844021
 11
258.4497538796604
 21
157.175497790087
 72
     2
 10
268.4497538796604
 20
469.0541833844021
 40
8.0
 50
145.6988472432081
 51
180.0
 73
     1
 72
     2
 10
249.4497538796604
 20
482.0156647812179
 40
15.0
 50
325.6988472432083
 51
360.0
 73
     1
 72
     1
 10
268.4497538796604
 20
532.483424441699
 11
268.4497538796604
 21
514.3211759042704
 72
     1
 10
264.4497538796604
 20
497.5881759042705
 11
264.4497538796604
 21
482.0156647812179
 72
     2
 10
243.4497538796604
 20
514.3211759042704
 40
24.99990931069965
 50
333.1122293409801
 51
360.0
 73
     1
 72
     2
 10
276.4497538796604
 20
497.5881759042704
 40
12.0
 50
153.1122293409802
 51
180.0
 73
     1
 72
     1
 10
265.1565097175853
 20
545.0881759042702
 11
266.1074485555765
 21
543.0488809852168
 72
     2
 10
243.4497538796604
 20
532.483424441699
 40
25.0
 50
0.0
 51
25.00000000000056
 73
     1
 72
     2
 10
243.4497538796604
 20
532.483424441699
 40
23.0
 50
0.0
 51
25.0000000000013
 73
     1
 72
     1
 10
262.9497538796603
 20
545.0881759042703
 11
264.2948329815032
 21
542.2036444617356
 72
     2
 10
268.4497538796604
 20
469.0541833844021
 40
10.0
 50
145.6988472432083
 51
180.0
 73
     1
 72
     2
 10
249.4497538796604
 20
482.0156647812179
 40
13.0
 50
325.6988472432084
 51
360.0
 73
     1
 72
     1
 10
262.4497538796604
 20
497.5881759042705
 11
262.4497538796604
 21
482.0156647812179
 72
     2
 10
276.4497538796604
 20
497.5881759042704
 40
14.0
 50
153.1122293409801
 51
180.0
 73
     1
 72
     2
 10
243.4497538796604
 20
514.3211759042704
 40
22.99990931069965
 50
333.1122293409801
 51
360.0
 73
     1
 72
     1
 10
266.4497538796604
 20
532.483424441699
 11
266.4497538796604
 21
514.3211759042704
 97
       20
330
15AF
330
1585
330
15AE
330
158C
330
15B6
330
15B5
330
15A8
330
15A7
330
15A6
330
15A5
330
15A4
330
15A3
330
1597
330
1596
330
158B
330
158A
330
1589
330
1588
330
1587
330
1586
 75
     0
 76
     0
 52
45.0
 41
2.0
 77
     0
 78
     1
 53
45.0
 43
0.0
 44
0.0
 45
-1.414213562373094
 46
1.414213562373095
 79
     0
 98
        1
 10
0.0
 20
0.0
  0
HATCH
  5
169C
330
1E
100
AcDbEntity
  8
SCHRAFF
100
AcDbHatch
 10
0.0
 20
0.0
 30
0.0
210
0.0
220
0.0
230
1.0
  2
_USER
 70
     0
 71
     1
 91
        1
 92
       33
 93
       20
 72
     2
 10
150.4497538796604
 20
469.0541833844021
 40
8.0
 50
0.0
 51
34.30115275679173
 73
     1
 72
     2
 10
169.4497538796604
 20
482.0156647812179
 40
15.0
 50
180.0
 51
214.3011527567917
 73
     1
 72
     1
 10
150.4497538796604
 20
532.483424441699
 11
150.4497538796604
 21
514.3211759042704
 72
     1
 10
154.4497538796604
 20
497.5881759042705
 11
154.4497538796604
 21
482.0156647812179
 72
     2
 10
175.4497538796604
 20
514.3211759042704
 40
24.99990931069965
 50
180.0
 51
206.88777065902
 73
     1
 72
     2
 10
142.4497538796604
 20
497.5881759042704
 40
12.0
 50
0.0
 51
26.88777065901972
 73
     1
 72
     1
 10
153.7429980417355
 20
545.0881759042702
 11
152.7920592037443
 21
543.0488809852168
 72
     2
 10
175.4497538796604
 20
532.483424441699
 40
25.0
 50
154.9999999999994
 51
180.0
 73
     1
 72
     1
 10
155.9497538796605
 20
545.0881759042702
 11
154.6046747778176
 21
542.2036444617353
 72
     2
 10
175.4497538796604
 20
532.483424441699
 40
23.0
 50
154.999999999999
 51
180.0
 73
     1
 72
     1
 10
152.4497538796604
 20
532.483424441699
 11
152.4497538796604
 21
514.3211759042704
 72
     2
 10
175.4497538796604
 20
514.3211759042704
 40
22.99990931069965
 50
180.0
 51
206.88777065902
 73
     1
 72
     2
 10
142.4497538796604
 20
497.5881759042704
 40
14.0
 50
0.0
 51
26.88777065901979
 73
     1
 72
     1
 10
156.4497538796604
 20
497.5881759042705
 11
156.4497538796604
 21
482.0156647812179
 72
     2
 10
169.4497538796604
 20
482.0156647812179
 40
13.0
 50
180.0
 51
214.3011527567917
 73
     1
 72
     2
 10
150.4497538796604
 20
469.0541833844021
 40
10.0
 50
0.0
 51
34.30115275679169
 73
     1
 72
     1
 10
158.4497538796604
 20
469.0541833844021
 11
158.4497538796606
 21
157.0881759042689
 72
     1
 10
160.4497538796604
 20
469.0541833844021
 11
160.4497538796606
 21
157.1754977900858
 72
     1
 10
158.4497538796606
 20
157.0881759042689
 11
159.4996178419715
 21
145.0881759042702
 72
     1
 10
160.4497538796606
 20
157.1754977900858
 11
161.5072575170581
 21
145.0881759042702
 97
       20
330
15B4
330
15B3
330
15A2
330
15A1
330
15A0
330
159F
330
159E
330
159D
330
1595
330
1594
330
1593
330
1592
330
1591
330
1590
330
158F
330
158E
330
15AC
330
158D
330
15AD
330
1584
 75
     0
 76
     0
 52
45.0
 41
2.0
 77
     0
 78
     1
 53
45.0
 43
0.0
 44
0.0
 45
-1.414213562373094
 46
1.414213562373095
 79
     0
 98
        1
 10
0.0
 20
0.0
  0
HATCH
  5
16AF
330
1E
100
AcDbEntity
  8
SCHRAFF
100
AcDbHatch
 10
0.0
 20
0.0
 30
0.0
210
0.0
220
0.0
230
1.0
  2
_USER
 70
     0
 71
     1
 91
        2
 92
        7
 72
     0
 73
     1
 93
        6
 10
374.4497538796603
 20
465.0881759042702
 10
354.6407149606859
 20
465.0881759042701
 10
260.4497538796604
 20
452.1070800302954
 10
260.4497538796604
 20
450.0881759042702
 10
354.7778834875965
 20
463.0881759042703
 10
374.4497538796604
 20
463.0881759042702
 97
        6
330
15BE
330
159B
330
15AE
330
15B7
330
15BD
330
15C0
 92
        7
 72
     0
 73
     1
 93
        6
 10
64.25879279863462
 20
465.0881759042703
 10
44.44975387966036
 20
465.0881759042702
 10
44.44975387966035
 20
463.0881759042703
 10
64.12162427172464
 20
463.0881759042702
 10
158.4497538796604
 20
450.0881759042703
 10
158.4497538796604
 20
452.1070800302955
 97
        6
330
15C2
330
15C1
330
15BF
330
15B8
330
15AC
330
159A
 75
     0
 76
     0
 52
135.0
 41
2.0
 77
     0
 78
     1
 53
135.0
 43
0.0
 44
0.0
 45
-1.414213562373095
 46
-1.414213562373094
 79
     0
 47
0.7003023339780656
 98
        2
 10
365.0080152438809
 20
463.9690334546603
 10
57.39055788000996
 20
463.9690334546603
  0
HATCH
  5
16B7
330
1E
100
AcDbEntity
  8
SCHRAFF
100
AcDbHatch
 10
0.0
 20
0.0
 30
0.0
210
0.0
220
0.0
230
1.0
  2
_USER
 70
     0
 71
     1
 91
        2
 92
        7
 72
     1
 73
     1
 93
        3
 10
263.4216632054453
 20
450.4977549067988
 42
0.0
 10
260.4497538796604
 20
450.0881759042702
 42
0.0
 10
260.4497538796604
 20
447.0881759042702
 42
0.4549196820787591
 97
        3
330
15B7
330
15AE
330
157C
 92
        7
 72
     1
 73
     1
 93
        3
 10
158.4497538796604
 20
450.0881759042703
 42
0.0
 10
155.4778445538754
 20
450.4977549067988
 42
0.454919682078759
 10
158.4497538796604
 20
447.0881759042702
 42
0.0
 97
        3
330
15B8
330
157D
330
15AC
 75
     0
 76
     0
 52
0.0
 41
0.1
 77
     0
 78
     1
 53
0.0
 43
0.0
 44
0.0
 45
0.0
 46
0.1
 79
     0
 47
0.1702660399373653
 98
        2
 10
261.534078226
 20
448.6055329225455
 10
156.4168053904841
 20
448.9460654413658
  0
TEXT
  5
16E4
330
1E
100
AcDbEntity
  8
TEXT
 62
     1
100
AcDbText
 10
94.26293870295562
 20
185.9660440724476
 30
0.0
 40
7.0
  1
Werkstoff: E195 EN10305 feuerverzinkt
 50
90.0
 41
0.8
  7
GREEKS
100
AcDbText
  0
TEXT
  5
16E5
330
1E
100
AcDbEntity
  8
TEXT
 62
     1
100
AcDbText
 10
104.9850505179591
 20
233.9157615098454
 30
0.0
 40
7.0
  1
außen und innen beschichtet
 50
90.0
 41
0.8
  7
GREEKS
100
AcDbText
  0
ENDSEC
  0
SECTION
  2
OBJECTS
  0
DICTIONARY
  5
C
330
0
100
AcDbDictionary
281
     1
  3
ACAD_COLOR
350
DF
  3
ACAD_GROUP
350
D
  3
ACAD_LAYOUT
350
19
  3
ACAD_MATERIAL
350
DE
  3
ACAD_MLINESTYLE
350
16
  3
ACAD_PLOTSETTINGS
350
18
  3
ACAD_PLOTSTYLENAME
350
E
  3
AcDbVariableDictionary
350
EA
  0
DICTIONARY
  5
A0
330
1E
100
AcDbDictionary
280
     1
281
     1
  3
ACAD_LAYOUTSELFREF
360
D4
  0
DICTIONARY
  5
A2
330
1A
100
AcDbDictionary
280
     1
281
     1
  3
ACAD_LAYOUTSELFREF
360
D3
  0
DICTIONARY
  5
DF
102
{ACAD_REACTORS
330
C
102
}
330
C
100
AcDbDictionary
281
     1
  0
DICTIONARY
  5
D
102
{ACAD_REACTORS
330
C
102
}
330
C
100
AcDbDictionary
281
     1
  0
DICTIONARY
  5
19
102
{ACAD_REACTORS
330
C
102
}
330
C
100
AcDbDictionary
281
     1
  3
Layout1
350
1D
  3
Model
350
21
  0
DICTIONARY
  5
DE
102
{ACAD_REACTORS
330
C
102
}
330
C
100
AcDbDictionary
281
     1
  0
DICTIONARY
  5
16
102
{ACAD_REACTORS
330
C
102
}
330
C
100
AcDbDictionary
281
     1
  3
Standard
350
17
  0
DICTIONARY
  5
18
102
{ACAD_REACTORS
330
C
102
}
330
C
100
AcDbDictionary
281
     1
  0
ACDBDICTIONARYWDFLT
  5
E
102
{ACAD_REACTORS
330
C
102
}
330
C
100
AcDbDictionary
281
     1
  3
Normal
350
F
100
AcDbDictionaryWithDefault
340
F
  0
DICTIONARY
  5
EA
102
{ACAD_REACTORS
330
C
102
}
330
C
100
AcDbDictionary
281
     1
  3
DIMASSOC
350
EB
  3
PROJECTNAME
350
EC
  0
XRECORD
  5
D4
102
{ACAD_REACTORS
330
A0
102
}
330
A0
100
AcDbXrecord
280
     1
340
1E
  0
XRECORD
  5
D3
102
{ACAD_REACTORS
330
A2
102
}
330
A2
100
AcDbXrecord
280
     1
340
1A
  0
LAYOUT
  5
1D
102
{ACAD_REACTORS
330
19
102
}
330
19
100
AcDbPlotSettings
  1

  2
\\NT_WORK01\HP LaserJet 5000 PCL 6
  4

  6

 40
0.0
 41
0.0
 42
0.0
 43
0.0
 44
0.0
 45
0.0
 46
0.0
 47
0.0
 48
0.0
 49
0.0
140
0.0
141
0.0
142
1.0
143
1.0
 70
   688
 72
     0
 73
     0
 74
     5
  7

 75
    16
147
1.0
 76
     0
 77
     2
 78
   300
148
0.0
149
0.0
100
AcDbLayout
  1
Layout1
 70
     0
 71
     1
 10
0.0
 20
0.0
 11
12.0
 21
9.0
 12
0.0
 22
0.0
 32
0.0
 14
1.000000000000000E+20
 24
1.000000000000000E+20
 34
1.000000000000000E+20
 15
-1.000000000000000E+20
 25
-1.000000000000000E+20
 35
-1.000000000000000E+20
146
0.0
 13
0.0
 23
0.0
 33
0.0
 16
1.0
 26
0.0
 36
0.0
 17
0.0
 27
1.0
 37
0.0
 76
     0
330
1A
  0
LAYOUT
  5
21
102
{ACAD_REACTORS
330
19
102
}
330
19
100
AcDbPlotSettings
  1

  2
none_device
  4
Letter_(8.50_x_11.00_Inches)
  6

 40
6.349999904632568
 41
6.349999904632568
 42
6.350006103515625
 43
6.350006103515625
 44
215.8999938964844
 45
279.3999938964844
 46
0.0
 47
0.0
 48
0.0
 49
0.0
140
0.0
141
0.0
142
1.0
143
1.0
 70
 11952
 72
     0
 73
     1
 74
     0
  7

 75
     0
147
1.0
 76
     0
 77
     2
 78
   300
148
2287.245623665237
149
77.61418200606462
100
AcDbLayout
  1
Model
 70
     1
 71
     0
 10
0.0
 20
0.0
 11
12.0
 21
9.0
 12
0.0
 22
0.0
 32
0.0
 14
0.0
 24
0.0
 34
0.0
 15
0.0
 25
0.0
 35
0.0
146
0.0
 13
0.0
 23
0.0
 33
0.0
 16
1.0
 26
0.0
 36
0.0
 17
0.0
 27
1.0
 37
0.0
 76
     0
330
1E
  0
MLINESTYLE
  5
17
102
{ACAD_REACTORS
330
16
102
}
330
16
100
AcDbMlineStyle
  2
STANDARD
 70
     0
  3

 62
   256
 51
90.0
 52
90.0
 71
     2
 49
0.5
 62
   256
  6
BYLAYER
 49
-0.5
 62
   256
  6
BYLAYER
  0
ACDBPLACEHOLDER
  5
F
102
{ACAD_REACTORS
330
E
102
}
330
E
  0
DICTIONARYVAR
  5
EB
102
{ACAD_REACTORS
330
EA
102
}
330
EA
100
DictionaryVariables
280
     0
  1
1
  0
DICTIONARYVAR
  5
EC
102
{ACAD_REACTORS
330
EA
102
}
330
EA
100
DictionaryVariables
280
     0
  1

  0
ENDSEC
  0
EOF
