  0
SECTION
  2
HEADER
  9
$ACADVER
  1
AC1018
  9
$ACADMAINTVER
 70
     2
  9
$DWGCODEPAGE
  3
ANSI_1252
  9
$INSBASE
 10
0.0
 20
0.0
 30
0.0
  9
$EXTMIN
 10
-0.0192209888438129
 20
-0.0271839699362317
 30
-0.0000000000000058
  9
$EXTMAX
 10
420.0192288123713
 20
594.0271950346398
 30
0.0000000000000104
  9
$LIMMIN
 10
0.0
 20
0.0
  9
$LIMMAX
 10
419.9999999999998
 20
594.0
  9
$ORTHOMODE
 70
     1
  9
$REGENMODE
 70
     1
  9
$FILLMODE
 70
     1
  9
$QTEXTMODE
 70
     0
  9
$MIRRTEXT
 70
     1
  9
$LTSCALE
 40
20.0
  9
$ATTMODE
 70
     1
  9
$TEXTSIZE
 40
3.5
  9
$TRACEWID
 40
0.5
  9
$TEXTSTYLE
  7
STANDARD
  9
$CLAYER
  8
BEM
  9
$CELTYPE
  6
ByLayer
  9
$CECOLOR
 62
   256
  9
$CELTSCALE
 40
1.0
  9
$DISPSILH
 70
     0
  9
$DIMSCALE
 40
2.0
  9
$DIMASZ
 40
3.5
  9
$DIMEXO
 40
1.0
  9
$DIMDLI
 40
7.0
  9
$DIMRND
 40
0.0
  9
$DIMDLE
 40
0.0
  9
$DIMEXE
 40
1.0
  9
$DIMTP
 40
0.0
  9
$DIMTM
 40
0.0
  9
$DIMTXT
 40
3.5
  9
$DIMCEN
 40
1.5
  9
$DIMTSZ
 40
0.0
  9
$DIMTOL
 70
     0
  9
$DIMLIM
 70
     0
  9
$DIMTIH
 70
     0
  9
$DIMTOH
 70
     0
  9
$DIMSE1
 70
     0
  9
$DIMSE2
 70
     0
  9
$DIMTAD
 70
     1
  9
$DIMZIN
 70
     8
  9
$DIMBLK
  1

  9
$DIMASO
 70
     1
  9
$DIMSHO
 70
     0
  9
$DIMPOST
  1

  9
$DIMAPOST
  1

  9
$DIMALT
 70
     0
  9
$DIMALTD
 70
     2
  9
$DIMALTF
 40
25.4
  9
$DIMLFAC
 40
1.0
  9
$DIMTOFL
 70
     1
  9
$DIMTVP
 40
0.0
  9
$DIMTIX
 70
     0
  9
$DIMSOXD
 70
     0
  9
$DIMSAH
 70
     0
  9
$DIMBLK1
  1

  9
$DIMBLK2
  1

  9
$DIMSTYLE
  2
Standard
  9
$DIMCLRD
 70
     0
  9
$DIMCLRE
 70
     0
  9
$DIMCLRT
 70
     1
  9
$DIMTFAC
 40
0.5
  9
$DIMGAP
 40
1.5
  9
$DIMJUST
 70
     0
  9
$DIMSD1
 70
     0
  9
$DIMSD2
 70
     0
  9
$DIMTOLJ
 70
     1
  9
$DIMTZIN
 70
     8
  9
$DIMALTZ
 70
     8
  9
$DIMALTTZ
 70
     8
  9
$DIMUPT
 70
     0
  9
$DIMDEC
 70
     2
  9
$DIMTDEC
 70
     2
  9
$DIMALTU
 70
     2
  9
$DIMALTTD
 70
     2
  9
$DIMTXSTY
  7
STANDARD
  9
$DIMAUNIT
 70
     0
  9
$DIMADEC
 70
     2
  9
$DIMALTRND
 40
0.0
  9
$DIMAZIN
 70
     2
  9
$DIMDSEP
 70
    46
  9
$DIMATFIT
 70
     3
  9
$DIMFRAC
 70
     0
  9
$DIMLDRBLK
  1

  9
$DIMLUNIT
 70
     2
  9
$DIMLWD
 70
    -2
  9
$DIMLWE
 70
    -2
  9
$DIMTMOVE
 70
     0
  9
$LUNITS
 70
     2
  9
$LUPREC
 70
     2
  9
$SKETCHINC
 40
1.0
  9
$FILLETRAD
 40
0.0
  9
$AUNITS
 70
     0
  9
$AUPREC
 70
     0
  9
$MENU
  1
ACAD
  9
$ELEVATION
 40
0.0
  9
$PELEVATION
 40
0.0
  9
$THICKNESS
 40
0.0
  9
$LIMCHECK
 70
     0
  9
$CHAMFERA
 40
0.0
  9
$CHAMFERB
 40
0.0
  9
$CHAMFERC
 40
0.0
  9
$CHAMFERD
 40
0.0
  9
$SKPOLY
 70
     0
  9
$TDCREATE
 40
2455397.864709028
  9
$TDUCREATE
 40
2455397.781375695
  9
$TDUPDATE
 40
2455657.365103785
  9
$TDUUPDATE
 40
2455657.281770451
  9
$TDINDWG
 40
0.0418187269
  9
$TDUSRTIMER
 40
0.0418185532
  9
$USRTIMER
 70
     1
  9
$ANGBASE
 50
0.0
  9
$ANGDIR
 70
     0
  9
$PDMODE
 70
     0
  9
$PDSIZE
 40
0.0
  9
$PLINEWID
 40
0.0
  9
$SPLFRAME
 70
     0
  9
$SPLINETYPE
 70
     6
  9
$SPLINESEGS
 70
     8
  9
$HANDSEED
  5
11BA
  9
$SURFTAB1
 70
     6
  9
$SURFTAB2
 70
     6
  9
$SURFTYPE
 70
     6
  9
$SURFU
 70
     6
  9
$SURFV
 70
     6
  9
$UCSBASE
  2

  9
$UCSNAME
  2

  9
$UCSORG
 10
0.0
 20
0.0
 30
0.0
  9
$UCSXDIR
 10
1.0
 20
0.0
 30
0.0
  9
$UCSYDIR
 10
0.0
 20
1.0
 30
0.0
  9
$UCSORTHOREF
  2

  9
$UCSORTHOVIEW
 70
     0
  9
$UCSORGTOP
 10
0.0
 20
0.0
 30
0.0
  9
$UCSORGBOTTOM
 10
0.0
 20
0.0
 30
0.0
  9
$UCSORGLEFT
 10
0.0
 20
0.0
 30
0.0
  9
$UCSORGRIGHT
 10
0.0
 20
0.0
 30
0.0
  9
$UCSORGFRONT
 10
0.0
 20
0.0
 30
0.0
  9
$UCSORGBACK
 10
0.0
 20
0.0
 30
0.0
  9
$PUCSBASE
  2

  9
$PUCSNAME
  2

  9
$PUCSORG
 10
0.0
 20
0.0
 30
0.0
  9
$PUCSXDIR
 10
1.0
 20
0.0
 30
0.0
  9
$PUCSYDIR
 10
0.0
 20
1.0
 30
0.0
  9
$PUCSORTHOREF
  2

  9
$PUCSORTHOVIEW
 70
     0
  9
$PUCSORGTOP
 10
0.0
 20
0.0
 30
0.0
  9
$PUCSORGBOTTOM
 10
0.0
 20
0.0
 30
0.0
  9
$PUCSORGLEFT
 10
0.0
 20
0.0
 30
0.0
  9
$PUCSORGRIGHT
 10
0.0
 20
0.0
 30
0.0
  9
$PUCSORGFRONT
 10
0.0
 20
0.0
 30
0.0
  9
$PUCSORGBACK
 10
0.0
 20
0.0
 30
0.0
  9
$USERI1
 70
     0
  9
$USERI2
 70
     0
  9
$USERI3
 70
     0
  9
$USERI4
 70
     0
  9
$USERI5
 70
     0
  9
$USERR1
 40
0.0
  9
$USERR2
 40
0.0
  9
$USERR3
 40
0.0
  9
$USERR4
 40
0.0
  9
$USERR5
 40
0.0
  9
$WORLDVIEW
 70
     1
  9
$SHADEDGE
 70
     3
  9
$SHADEDIF
 70
    70
  9
$TILEMODE
 70
     1
  9
$MAXACTVP
 70
    16
  9
$PINSBASE
 10
0.0
 20
0.0
 30
0.0
  9
$PLIMCHECK
 70
     0
  9
$PEXTMIN
 10
1.000000000000000E+20
 20
1.000000000000000E+20
 30
1.000000000000000E+20
  9
$PEXTMAX
 10
-1.000000000000000E+20
 20
-1.000000000000000E+20
 30
-1.000000000000000E+20
  9
$PLIMMIN
 10
0.0
 20
0.0
  9
$PLIMMAX
 10
12.0
 20
9.0
  9
$UNITMODE
 70
     0
  9
$VISRETAIN
 70
     0
  9
$PLINEGEN
 70
     0
  9
$PSLTSCALE
 70
     0
  9
$TREEDEPTH
 70
  3020
  9
$CMLSTYLE
  2
Standard
  9
$CMLJUST
 70
     0
  9
$CMLSCALE
 40
1.0
  9
$PROXYGRAPHICS
 70
     1
  9
$MEASUREMENT
 70
     0
  9
$CELWEIGHT
370
    -1
  9
$ENDCAPS
280
     0
  9
$JOINSTYLE
280
     0
  9
$LWDISPLAY
290
     0
  9
$INSUNITS
 70
     0
  9
$HYPERLINKBASE
  1

  9
$STYLESHEET
  1
monochrome 1.ctb
  9
$XEDIT
290
     1
  9
$CEPSNTYPE
380
     0
  9
$PSTYLEMODE
290
     1
  9
$FINGERPRINTGUID
  2
{D68B0D02-A558-11D7-B632-000102183313}
  9
$VERSIONGUID
  2
{70C6FE3D-4692-4EA8-85D4-A8B663FCF26D}
  9
$EXTNAMES
290
     1
  9
$PSVPSCALE
 40
0.0
  9
$OLESTARTUP
290
     0
  9
$SORTENTS
280
   127
  9
$INDEXCTL
280
     0
  9
$HIDETEXT
280
     0
  9
$XCLIPFRAME
290
     0
  9
$HALOGAP
280
     0
  9
$OBSCOLOR
 70
   257
  9
$OBSLTYPE
280
     0
  9
$INTERSECTIONDISPLAY
280
     0
  9
$INTERSECTIONCOLOR
 70
   257
  9
$DIMASSOC
280
     1
  9
$PROJECTNAME
  1

  0
ENDSEC
  0
SECTION
  2
CLASSES
  0
CLASS
  1
ACDBDICTIONARYWDFLT
  2
AcDbDictionaryWithDefault
  3
ObjectDBX Classes
 90
        0
 91
        1
280
     0
281
     0
  0
CLASS
  1
DICTIONARYVAR
  2
AcDbDictionaryVar
  3
ObjectDBX Classes
 90
        0
 91
        2
280
     0
281
     0
  0
ENDSEC
  0
SECTION
  2
TABLES
  0
TABLE
  2
VPORT
  5
8
330
0
100
AcDbSymbolTable
 70
     3
  0
VPORT
  5
11B9
330
8
100
AcDbSymbolTableRecord
100
AcDbViewportTableRecord
  2
*Active
 70
     0
 10
0.0
 20
0.0
 11
1.0
 21
1.0
 12
210.0
 22
297.0
 13
0.0
 23
0.0
 14
1.0
 24
1.0
 15
10.0
 25
10.0
 16
0.0
 26
0.0
 36
1.0
 17
0.0
 27
0.0
 37
0.0
 40
594.0
 41
1.334231805929919
 42
50.0
 43
0.0
 44
0.0
 50
0.0
 51
0.0
 71
     0
 72
  1500
 73
     1
 74
     0
 75
     0
 76
     0
 77
     0
 78
     0
281
     0
 65
     1
110
0.0
120
0.0
130
0.0
111
1.0
121
0.0
131
0.0
112
0.0
122
1.0
132
0.0
 79
     0
146
0.0
  0
ENDTAB
  0
TABLE
  2
LTYPE
  5
5
330
0
100
AcDbSymbolTable
 70
     2
  0
LTYPE
  5
13
330
5
100
AcDbSymbolTableRecord
100
AcDbLinetypeTableRecord
  2
ByBlock
 70
     0
  3

 72
    65
 73
     0
 40
0.0
  0
LTYPE
  5
14
330
5
100
AcDbSymbolTableRecord
100
AcDbLinetypeTableRecord
  2
ByLayer
 70
     0
  3

 72
    65
 73
     0
 40
0.0
  0
LTYPE
  5
15
330
5
100
AcDbSymbolTableRecord
100
AcDbLinetypeTableRecord
  2
Continuous
 70
     0
  3
Solid line
 72
    65
 73
     0
 40
0.0
  0
LTYPE
  5
25
330
5
100
AcDbSymbolTableRecord
100
AcDbLinetypeTableRecord
  2
STRICHPUNKT
 70
     0
  3
__ . __ . __ . __ . __ . __ . __ . __ . __ . __
 72
    65
 73
     4
 40
1.0
 49
0.5
 74
     0
 49
-0.25
 74
     0
 49
0.0
 74
     0
 49
-0.25
 74
     0
  0
ENDTAB
  0
TABLE
  2
LAYER
  5
2
330
0
100
AcDbSymbolTable
 70
     9
  0
LAYER
  5
10
330
2
100
AcDbSymbolTableRecord
100
AcDbLayerTableRecord
  2
0
 70
     0
 62
     7
  6
Continuous
370
    -3
390
F
  0
LAYER
  5
2A
330
2
100
AcDbSymbolTableRecord
100
AcDbLayerTableRecord
  2
VOLL
 70
     0
 62
     1
  6
Continuous
370
    -3
390
F
  0
LAYER
  5
2B
330
2
100
AcDbSymbolTableRecord
100
AcDbLayerTableRecord
  2
HILF
 70
     0
 62
     2
  6
Continuous
370
    -3
390
F
  0
LAYER
  5
2C
330
2
100
AcDbSymbolTableRecord
100
AcDbLayerTableRecord
  2
MITTEL
 70
     0
 62
     2
  6
STRICHPUNKT
370
    -3
390
F
  0
LAYER
  5
2F
330
2
100
AcDbSymbolTableRecord
100
AcDbLayerTableRecord
  2
BEM
 70
     0
 62
     7
  6
Continuous
370
    -3
390
F
  0
LAYER
  5
30
330
2
100
AcDbSymbolTableRecord
100
AcDbLayerTableRecord
  2
STEMPEL
 70
     0
 62
     3
  6
Continuous
370
    -3
390
F
  0
LAYER
  5
31
330
2
100
AcDbSymbolTableRecord
100
AcDbLayerTableRecord
  2
TEXT
 70
     0
 62
     7
  6
Continuous
370
    -3
390
F
  0
LAYER
  5
390
330
2
100
AcDbSymbolTableRecord
100
AcDbLayerTableRecord
  2
DEFPOINTS
 70
     0
 62
     7
  6
Continuous
290
     0
370
    -3
390
F
  0
LAYER
  5
391
330
2
100
AcDbSymbolTableRecord
100
AcDbLayerTableRecord
  2
SCHRAFF
 70
     0
 62
     7
  6
Continuous
370
    -3
390
F
  0
ENDTAB
  0
TABLE
  2
STYLE
  5
3
330
0
100
AcDbSymbolTable
 70
     2
  0
STYLE
  5
11
330
3
100
AcDbSymbolTableRecord
100
AcDbTextStyleTableRecord
  2
STANDARD
 70
     0
 40
0.0
 41
0.8
 50
0.0
 71
     0
 42
3.5
  3
simplex.shx
  4

  0
STYLE
  5
24
330
3
100
AcDbSymbolTableRecord
100
AcDbTextStyleTableRecord
  2
GREEKS
 70
     0
 40
0.0
 41
0.8
 50
0.0
 71
     0
 42
2.5
  3
SIMPLEX.shx
  4

  0
ENDTAB
  0
TABLE
  2
VIEW
  5
6
330
0
100
AcDbSymbolTable
 70
     0
  0
ENDTAB
  0
TABLE
  2
UCS
  5
7
330
0
100
AcDbSymbolTable
 70
     0
  0
ENDTAB
  0
TABLE
  2
APPID
  5
9
330
0
100
AcDbSymbolTable
 70
     1
  0
APPID
  5
12
330
9
100
AcDbSymbolTableRecord
100
AcDbRegAppTableRecord
  2
ACAD
 70
     0
  0
ENDTAB
  0
TABLE
  2
DIMSTYLE
  5
A
330
0
100
AcDbSymbolTable
 70
     1
100
AcDbDimStyleTable
 71
     1
340
9D
  0
DIMSTYLE
105
9D
102
{ACAD_REACTORS
330
1153
330
1160
330
116D
330
117A
330
1187
102
}
330
A
100
AcDbSymbolTableRecord
100
AcDbDimStyleTableRecord
  2
Standard
 70
     0
340
11
  0
ENDTAB
  0
TABLE
  2
BLOCK_RECORD
  5
1
330
0
100
AcDbSymbolTable
 70
    14
  0
BLOCK_RECORD
  5
1E
102
{ACAD_XDICTIONARY
360
A0
102
}
330
1
100
AcDbSymbolTableRecord
100
AcDbBlockTableRecord
  2
*Model_Space
340
21
  0
BLOCK_RECORD
  5
1A
102
{ACAD_XDICTIONARY
360
A2
102
}
330
1
100
AcDbSymbolTableRecord
100
AcDbBlockTableRecord
  2
*Paper_Space
340
1D
  0
BLOCK_RECORD
  5
22
330
1
100
AcDbSymbolTableRecord
100
AcDbBlockTableRecord
  2
LOGO
340
0
102
{BLKREFS
331
9B
102
}
  0
BLOCK_RECORD
  5
D89
330
1
100
AcDbSymbolTableRecord
100
AcDbBlockTableRecord
  2
*X7
340
0
102
{BLKREFS
331
1000
331
10AB
102
}
  0
BLOCK_RECORD
  5
1154
330
1
100
AcDbSymbolTableRecord
100
AcDbBlockTableRecord
  2
*D9
340
0
  0
BLOCK_RECORD
  5
1161
330
1
100
AcDbSymbolTableRecord
100
AcDbBlockTableRecord
  2
*D10
340
0
  0
BLOCK_RECORD
  5
116E
330
1
100
AcDbSymbolTableRecord
100
AcDbBlockTableRecord
  2
*D11
340
0
  0
BLOCK_RECORD
  5
117B
330
1
100
AcDbSymbolTableRecord
100
AcDbBlockTableRecord
  2
*D12
340
0
  0
BLOCK_RECORD
  5
1188
330
1
100
AcDbSymbolTableRecord
100
AcDbBlockTableRecord
  2
*D13
340
0
  0
ENDTAB
  0
ENDSEC
  0
SECTION
  2
BLOCKS
  0
BLOCK
  5
35
330
1E
100
AcDbEntity
  8
0
100
AcDbBlockBegin
  2
*Model_Space
 70
     0
 10
0.0
 20
0.0
 30
0.0
  3
*Model_Space
  1

  0
ENDBLK
  5
36
330
1E
100
AcDbEntity
  8
0
100
AcDbBlockEnd
  0
BLOCK
  5
33
330
1A
100
AcDbEntity
 67
     1
  8
0
100
AcDbBlockBegin
  2
*Paper_Space
 70
     0
 10
0.0
 20
0.0
 30
0.0
  3
*Paper_Space
  1

  0
ENDBLK
  5
34
330
1A
100
AcDbEntity
 67
     1
  8
0
100
AcDbBlockEnd
  0
BLOCK
  5
37
330
22
100
AcDbEntity
  8
0
100
AcDbBlockBegin
  2
LOGO
 70
     0
 10
0.0
 20
0.0
 30
0.0
  3
LOGO
  1

  0
ARC
  5
38
330
22
100
AcDbEntity
  8
0
100
AcDbCircle
 10
11.59973089678112
 20
-9.271599258481499
 30
0.0
 40
4.5
100
AcDbArc
 50
270.0
 51
231.0575587310159
  0
LINE
  5
39
330
22
100
AcDbEntity
  8
0
100
AcDbLine
 10
3.599730896781125
 20
-4.771599258481527
 30
0.0
 11
3.599730896781152
 21
-11.77159925848133
 31
0.0
  0
LINE
  5
3A
330
22
100
AcDbEntity
  8
0
100
AcDbLine
 10
2.599730896781125
 20
-4.771599258481527
 30
0.0
 11
2.599730896781153
 21
-11.77159925848133
 31
0.0
  0
CIRCLE
  5
3B
330
22
100
AcDbEntity
  8
0
100
AcDbCircle
 10
11.59973089678112
 20
-9.271599258481499
 30
0.0
 40
3.5
  0
ARC
  5
3C
330
22
100
AcDbEntity
  8
0
100
AcDbCircle
 10
31.59973089678115
 20
-9.271599258481472
 30
0.0
 40
4.5
100
AcDbArc
 50
270.0
 51
231.0575587310182
  0
LINE
  5
3D
330
22
100
AcDbEntity
  8
0
100
AcDbLine
 10
17.59973089678112
 20
-4.771599258481471
 30
0.0
 11
17.59973089678115
 21
-13.77159925848147
 31
0.0
  0
ARC
  5
3E
330
22
100
AcDbEntity
  8
0
100
AcDbCircle
 10
22.59973089678116
 20
-7.271599258481472
 30
0.0
 40
2.5
100
AcDbArc
 50
293.1161887722295
 51
90.0
  0
CIRCLE
  5
3F
330
22
100
AcDbEntity
  8
0
100
AcDbCircle
 10
31.59973089678115
 20
-9.271599258481472
 30
0.0
 40
3.5
  0
ARC
  5
40
330
22
100
AcDbEntity
  8
0
100
AcDbCircle
 10
4.599730896781153
 20
-11.77159925848133
 30
0.0
 40
1.0
100
AcDbArc
 50
180.0
 51
270.0
  0
ARC
  5
41
330
22
100
AcDbEntity
  8
0
100
AcDbCircle
 10
4.599730896781153
 20
-11.77159925848133
 30
0.0
 40
2.0
100
AcDbArc
 50
179.9999999999992
 51
270.0
  0
LINE
  5
42
330
22
100
AcDbEntity
  8
0
100
AcDbLine
 10
11.59973089678115
 20
-13.77159925848144
 30
0.0
 11
4.599730896781153
 21
-13.77159925848147
 31
0.0
  0
LINE
  5
43
330
22
100
AcDbEntity
  8
0
100
AcDbLine
 10
8.771303772034768
 20
-12.77159925848136
 30
0.0
 11
4.599730896781153
 21
-12.77159925848133
 31
0.0
  0
LINE
  5
44
330
22
100
AcDbEntity
  8
0
100
AcDbLine
 10
31.59973089678115
 20
-13.77159925848147
 30
0.0
 11
23.6715276665056
 21
-13.77159925848144
 31
0.0
  0
LINE
  5
45
330
22
100
AcDbEntity
  8
0
100
AcDbLine
 10
23.56565672307022
 20
-9.512780213378961
 30
0.0
 11
24.4388546544846
 21
-12.77159925848144
 31
0.0
  0
LINE
  5
46
330
22
100
AcDbEntity
  8
0
100
AcDbLine
 10
22.59973089678116
 20
-9.771599258481472
 30
0.0
 11
18.59973089678112
 21
-9.771599258481472
 31
0.0
  0
LINE
  5
47
330
22
100
AcDbEntity
  8
0
100
AcDbLine
 10
18.59973089678115
 20
-13.77159925848144
 30
0.0
 11
17.59973089678115
 21
-13.77159925848144
 31
0.0
  0
LINE
  5
48
330
22
100
AcDbEntity
  8
0
100
AcDbLine
 10
18.59973089678115
 20
-9.771599258481472
 30
0.0
 11
18.59973089678115
 21
-13.77159925848144
 31
0.0
  0
LINE
  5
49
330
22
100
AcDbEntity
  8
0
100
AcDbLine
 10
22.59973089678116
 20
-9.771599258481472
 30
0.0
 11
23.67152766650562
 21
-13.77159925848147
 31
0.0
  0
ARC
  5
4A
330
22
100
AcDbEntity
  8
0
100
AcDbCircle
 10
22.59973089678116
 20
-7.271599258481472
 30
0.0
 40
2.5
100
AcDbArc
 50
270.0
 51
270.0000000000007
  0
LINE
  5
4B
330
22
100
AcDbEntity
  8
0
100
AcDbLine
 10
28.77130377203494
 20
-12.77159925848147
 30
0.0
 11
24.43885465448463
 21
-12.77159925848144
 31
0.0
  0
LINE
  5
4C
330
22
100
AcDbEntity
  8
0
100
AcDbLine
 10
3.599730896781125
 20
-4.771599258481471
 30
0.0
 11
2.599730896781125
 21
-4.771599258481471
 31
0.0
  0
LINE
  5
4D
330
22
100
AcDbEntity
  8
0
100
AcDbLine
 10
22.59973089678116
 20
-8.771599258481472
 30
0.0
 11
18.59973089678115
 21
-8.771599258481472
 31
0.0
  0
LINE
  5
4E
330
22
100
AcDbEntity
  8
0
100
AcDbLine
 10
22.59973089678116
 20
-5.771599258481472
 30
0.0
 11
18.59973089678115
 21
-5.771599258481472
 31
0.0
  0
LINE
  5
4F
330
22
100
AcDbEntity
  8
0
100
AcDbLine
 10
22.59973089678116
 20
-4.771599258481471
 30
0.0
 11
17.59973089678115
 21
-4.771599258481471
 31
0.0
  0
LINE
  5
50
330
22
100
AcDbEntity
  8
0
100
AcDbLine
 10
18.59973089678115
 20
-5.771599258481472
 30
0.0
 11
18.59973089678115
 21
-8.771599258481472
 31
0.0
  0
ARC
  5
51
330
22
100
AcDbEntity
  8
0
100
AcDbCircle
 10
22.59973089678116
 20
-7.271599258481472
 30
0.0
 40
1.5
100
AcDbArc
 50
270.0
 51
90.0
  0
ENDBLK
  5
52
330
22
100
AcDbEntity
  8
0
100
AcDbBlockEnd
  0
BLOCK
  5
D8A
330
D89
100
AcDbEntity
  8
0
100
AcDbBlockBegin
  2
*X7
 70
     1
 10
0.0
 20
0.0
 30
0.0
  3
*X7
  1

  0
LINE
  5
D8B
330
D89
100
AcDbEntity
  8
0
 62
     0
100
AcDbLine
 10
91.94346563483174
 20
169.7252115653519
 30
0.0
 11
94.73848139960066
 21
172.5202273301209
 31
0.0
  0
LINE
  5
D8C
330
D89
100
AcDbEntity
  8
0
 62
     0
100
AcDbLine
 10
132.7078747547854
 20
210.4896206853057
 30
0.0
 11
136.7078747547854
 21
214.4896206853056
 31
0.0
  0
LINE
  5
D8D
330
D89
100
AcDbEntity
  8
0
 62
     0
100
AcDbLine
 10
99.25208276001248
 20
177.0338286905326
 30
0.0
 11
102.4401568694043
 21
180.2219027999245
 31
0.0
  0
LINE
  5
D8E
330
D89
100
AcDbEntity
  8
0
 62
     0
100
AcDbLine
 10
90.22080805806124
 20
169.7703209415478
 30
0.0
 11
92.92317908253528
 21
172.4726919660218
 31
0.0
  0
LINE
  5
D8F
330
D89
100
AcDbEntity
  8
0
 62
     0
100
AcDbLine
 10
132.7078747547854
 20
212.257387638272
 30
0.0
 11
136.7078747547854
 21
216.257387638272
 31
0.0
  0
LINE
  5
D90
330
D89
100
AcDbEntity
  8
0
 62
     0
100
AcDbLine
 10
97.52942518324198
 20
177.0789380667285
 30
0.0
 11
100.6248545523389
 21
180.1743674358255
 31
0.0
  0
LINE
  5
D91
330
D89
100
AcDbEntity
  8
0
 62
     0
100
AcDbLine
 10
88.49815048129077
 20
169.8154303177437
 30
0.0
 11
91.10787676546985
 21
172.4251566019228
 31
0.0
  0
LINE
  5
D92
330
D89
100
AcDbEntity
  8
0
 62
     0
100
AcDbLine
 10
132.7078747547854
 20
214.0251545912384
 30
0.0
 11
136.7078747547854
 21
218.0251545912383
 31
0.0
  0
LINE
  5
D93
330
D89
100
AcDbEntity
  8
0
 62
     0
100
AcDbLine
 10
95.80676760647149
 20
177.1240474429244
 30
0.0
 11
98.80955223527351
 21
180.1268320717264
 31
0.0
  0
LINE
  5
D94
330
D89
100
AcDbEntity
  8
0
 62
     0
100
AcDbLine
 10
87.70787475478542
 20
170.7929215442047
 30
0.0
 11
89.29257444840445
 21
172.3776212378238
 31
0.0
  0
LINE
  5
D95
330
D89
100
AcDbEntity
  8
0
 62
     0
100
AcDbLine
 10
132.7078747547854
 20
215.7929215442048
 30
0.0
 11
136.7078747547854
 21
219.7929215442047
 31
0.0
  0
LINE
  5
D96
330
D89
100
AcDbEntity
  8
0
 62
     0
100
AcDbLine
 10
94.08411002970101
 20
177.1691568191203
 30
0.0
 11
96.9942499182081
 21
180.0792967076274
 31
0.0
  0
LINE
  5
D97
330
D89
100
AcDbEntity
  8
0
 62
     0
100
AcDbLine
 10
92.36145245293052
 20
177.2142661953162
 30
0.0
 11
95.17894760114268
 21
180.0317613435284
 31
0.0
  0
LINE
  5
D98
330
D89
100
AcDbEntity
  8
0
 62
     0
100
AcDbLine
 10
133.1486095907456
 20
218.0014233331313
 30
0.0
 11
136.7078747547854
 21
221.5606884971711
 31
0.0
  0
LINE
  5
D99
330
D89
100
AcDbEntity
  8
0
 62
     0
100
AcDbLine
 10
90.63879487616004
 20
177.2593755715121
 30
0.0
 11
93.36364528407729
 21
179.9842259794293
 31
0.0
  0
LINE
  5
D9A
330
D89
100
AcDbEntity
  8
0
 62
     0
100
AcDbLine
 10
134.2078747547854
 20
220.8284554501374
 30
0.0
 11
136.7078747547854
 21
223.3284554501374
 31
0.0
  0
LINE
  5
D9B
330
D89
100
AcDbEntity
  8
0
 62
     0
100
AcDbLine
 10
88.91613729938955
 20
177.304484947708
 30
0.0
 11
91.54834296701187
 21
179.9366906153303
 31
0.0
  0
LINE
  5
D9C
330
D89
100
AcDbEntity
  8
0
 62
     0
100
AcDbLine
 10
134.2078747547854
 20
222.5962224031039
 30
0.0
 11
136.7078747547854
 21
225.0962224031038
 31
0.0
  0
LINE
  5
D9D
330
D89
100
AcDbEntity
  8
0
 62
     0
100
AcDbLine
 10
87.7078747547854
 20
177.8639893560702
 30
0.0
 11
89.73304064994648
 21
179.8891552512313
 31
0.0
  0
LINE
  5
D9E
330
D89
100
AcDbEntity
  8
0
 62
     0
100
AcDbLine
 10
134.2078747547854
 20
224.3639893560702
 30
0.0
 11
136.7078747547854
 21
226.8639893560702
 31
0.0
  0
LINE
  5
D9F
330
D89
100
AcDbEntity
  8
0
 62
     0
100
AcDbLine
 10
87.7078747547854
 20
179.6317563090365
 30
0.0
 11
87.91773833288107
 21
179.8416198871322
 31
0.0
  0
LINE
  5
DA0
330
D89
100
AcDbEntity
  8
0
 62
     0
100
AcDbLine
 10
134.2078747547854
 20
226.1317563090366
 30
0.0
 11
136.7078747547854
 21
228.6317563090365
 31
0.0
  0
LINE
  5
DA1
330
D89
100
AcDbEntity
  8
0
 62
     0
100
AcDbLine
 10
133.1627191673571
 20
226.8543676745746
 30
0.0
 11
135.6202044227734
 21
229.3118529299909
 31
0.0
  0
LINE
  5
DA2
330
D89
100
AcDbEntity
  8
0
 62
     0
100
AcDbLine
 10
131.4252793393966
 20
226.8846947995806
 30
0.0
 11
133.8827645948129
 21
229.3421800549968
 31
0.0
  0
LINE
  5
DA3
330
D89
100
AcDbEntity
  8
0
 62
     0
100
AcDbLine
 10
129.6878395114362
 20
226.9150219245865
 30
0.0
 11
132.1453247668525
 21
229.3725071800028
 31
0.0
  0
LINE
  5
DA4
330
D89
100
AcDbEntity
  8
0
 62
     0
100
AcDbLine
 10
127.9503996834757
 20
226.9453490495924
 30
0.0
 11
130.407884938892
 21
229.4028343050087
 31
0.0
  0
LINE
  5
DA5
330
D89
100
AcDbEntity
  8
0
 62
     0
100
AcDbLine
 10
126.2129598555153
 20
226.9756761745983
 30
0.0
 11
128.6704451109316
 21
229.4331614300146
 31
0.0
  0
LINE
  5
DA6
330
D89
100
AcDbEntity
  8
0
 62
     0
100
AcDbLine
 10
124.4755200275548
 20
227.0060032996042
 30
0.0
 11
126.9330052829712
 21
229.4634885550205
 31
0.0
  0
LINE
  5
DA7
330
D89
100
AcDbEntity
  8
0
 62
     0
100
AcDbLine
 10
122.7380801995944
 20
227.0363304246102
 30
0.0
 11
125.1955654550107
 21
229.4938156800265
 31
0.0
  0
LINE
  5
DA8
330
D89
100
AcDbEntity
  8
0
 62
     0
100
AcDbLine
 10
121.0006403716339
 20
227.0666575496161
 30
0.0
 11
123.4581256270502
 21
229.5241428050324
 31
0.0
  0
LINE
  5
DA9
330
D89
100
AcDbEntity
  8
0
 62
     0
100
AcDbLine
 10
119.2632005436735
 20
227.096984674622
 30
0.0
 11
121.7206857990898
 21
229.5544699300383
 31
0.0
  0
LINE
  5
DAA
330
D89
100
AcDbEntity
  8
0
 62
     0
100
AcDbLine
 10
117.525760715713
 20
227.1273117996279
 30
0.0
 11
119.9832459711293
 21
229.5847970550442
 31
0.0
  0
LINE
  5
DAB
330
D89
100
AcDbEntity
  8
0
 62
     0
100
AcDbLine
 10
115.7883208877526
 20
227.1576389246338
 30
0.0
 11
118.2458061431689
 21
229.6151241800501
 31
0.0
  0
LINE
  5
DAC
330
D89
100
AcDbEntity
  8
0
 62
     0
100
AcDbLine
 10
114.0508810597921
 20
227.1879660496398
 30
0.0
 11
116.5083663152085
 21
229.6454513050561
 31
0.0
  0
LINE
  5
DAD
330
D89
100
AcDbEntity
  8
0
 62
     0
100
AcDbLine
 10
112.3134412318317
 20
227.2182931746457
 30
0.0
 11
114.770926487248
 21
229.675778430062
 31
0.0
  0
LINE
  5
DAE
330
D89
100
AcDbEntity
  8
0
 62
     0
100
AcDbLine
 10
110.5760014038712
 20
227.2486202996516
 30
0.0
 11
113.0334866592876
 21
229.7061055550679
 31
0.0
  0
LINE
  5
DAF
330
D89
100
AcDbEntity
  8
0
 62
     0
100
AcDbLine
 10
135.9501428252064
 20
252.6227617209868
 30
0.0
 11
137.7078747547854
 21
254.3804936505658
 31
0.0
  0
LINE
  5
DB0
330
D89
100
AcDbEntity
  8
0
 62
     0
100
AcDbLine
 10
108.8385615759108
 20
227.2789474246575
 30
0.0
 11
111.2960468313271
 21
229.7364326800738
 31
0.0
  0
LINE
  5
DB1
330
D89
100
AcDbEntity
  8
0
 62
     0
100
AcDbLine
 10
133.8039429235914
 20
252.2443287723382
 30
0.0
 11
137.7078747547854
 21
256.1482606035321
 31
0.0
  0
LINE
  5
DB2
330
D89
100
AcDbEntity
  8
0
 62
     0
100
AcDbLine
 10
107.1011217479503
 20
227.3092745496635
 30
0.0
 11
109.5586070033667
 21
229.7667598050798
 31
0.0
  0
LINE
  5
DB3
330
D89
100
AcDbEntity
  8
0
 62
     0
100
AcDbLine
 10
135.2078747547854
 20
255.4160275564985
 30
0.0
 11
137.7078747547854
 21
257.9160275564985
 31
0.0
  0
LINE
  5
DB4
330
D89
100
AcDbEntity
  8
0
 62
     0
100
AcDbLine
 10
131.6577430219765
 20
251.8658958236896
 30
0.0
 11
134.7397506515306
 21
254.9479034532437
 31
0.0
  0
LINE
  5
DB5
330
D89
100
AcDbEntity
  8
0
 62
     0
100
AcDbLine
 10
105.3636819199899
 20
227.3396016746694
 30
0.0
 11
107.8211671754062
 21
229.7970869300857
 31
0.0
  0
LINE
  5
DB6
330
D89
100
AcDbEntity
  8
0
 62
     0
100
AcDbLine
 10
135.2078747547854
 20
257.1837945094648
 30
0.0
 11
137.3695511152673
 21
259.3454708699467
 31
0.0
  0
LINE
  5
DB7
330
D89
100
AcDbEntity
  8
0
 62
     0
100
AcDbLine
 10
129.5115431203615
 20
251.487462875041
 30
0.0
 11
132.5935507499156
 21
254.5694705045951
 31
0.0
  0
LINE
  5
DB8
330
D89
100
AcDbEntity
  8
0
 62
     0
100
AcDbLine
 10
103.6262420920294
 20
227.3699287996753
 30
0.0
 11
106.0837273474458
 21
229.8274140550916
 31
0.0
  0
LINE
  5
DB9
330
D89
100
AcDbEntity
  8
0
 62
     0
100
AcDbLine
 10
127.3653432187466
 20
251.1090299263925
 30
0.0
 11
130.4473508483007
 21
254.1910375559465
 31
0.0
  0
LINE
  5
DBA
330
D89
100
AcDbEntity
  8
0
 62
     0
100
AcDbLine
 10
101.888802264069
 20
227.4002559246812
 30
0.0
 11
104.3462875194853
 21
229.8577411800975
 31
0.0
  0
LINE
  5
DBB
330
D89
100
AcDbEntity
  8
0
 62
     0
100
AcDbLine
 10
125.2191433171317
 20
250.7305969777439
 30
0.0
 11
128.3011509466858
 21
253.812604607298
 31
0.0
  0
LINE
  5
DBC
330
D89
100
AcDbEntity
  8
0
 62
     0
100
AcDbLine
 10
100.1513624361086
 20
227.4305830496871
 30
0.0
 11
102.6088476915249
 21
229.8880683051034
 31
0.0
  0
LINE
  5
DBD
330
D89
100
AcDbEntity
  8
0
 62
     0
100
AcDbLine
 10
123.0729434155168
 20
250.3521640290953
 30
0.0
 11
126.1549510450708
 21
253.4341716586494
 31
0.0
  0
LINE
  5
DBE
330
D89
100
AcDbEntity
  8
0
 62
     0
100
AcDbLine
 10
98.41392260814814
 20
227.4609101746931
 30
0.0
 11
100.8714078635644
 21
229.9183954301094
 31
0.0
  0
LINE
  5
DBF
330
D89
100
AcDbEntity
  8
0
 62
     0
100
AcDbLine
 10
120.9267435139018
 20
249.9737310804468
 30
0.0
 11
124.0087511434559
 21
253.0557387100008
 31
0.0
  0
LINE
  5
DC0
330
D89
100
AcDbEntity
  8
0
 62
     0
100
AcDbLine
 10
96.67648278018768
 20
227.491237299699
 30
0.0
 11
99.13396803560402
 21
229.9487225551153
 31
0.0
  0
LINE
  5
DC1
330
D89
100
AcDbEntity
  8
0
 62
     0
100
AcDbLine
 10
118.7805436122869
 20
249.5952981317982
 30
0.0
 11
121.8625512418409
 21
252.6773057613522
 31
0.0
  0
LINE
  5
DC2
330
D89
100
AcDbEntity
  8
0
 62
     0
100
AcDbLine
 10
94.93904295222725
 20
227.5215644247049
 30
0.0
 11
97.39652820764357
 21
229.9790496801212
 31
0.0
  0
LINE
  5
DC3
330
D89
100
AcDbEntity
  8
0
 62
     0
100
AcDbLine
 10
116.634343710672
 20
249.2168651831496
 30
0.0
 11
119.716351340226
 21
252.2988728127037
 31
0.0
  0
LINE
  5
DC4
330
D89
100
AcDbEntity
  8
0
 62
     0
100
AcDbLine
 10
93.20160312426677
 20
227.5518915497108
 30
0.0
 11
95.65908837968313
 21
230.0093768051271
 31
0.0
  0
LINE
  5
DC5
330
D89
100
AcDbEntity
  8
0
 62
     0
100
AcDbLine
 10
114.488143809057
 20
248.8384322345011
 30
0.0
 11
117.5701514386111
 21
251.9204398640551
 31
0.0
  0
LINE
  5
DC6
330
D89
100
AcDbEntity
  8
0
 62
     0
100
AcDbLine
 10
91.46416329630634
 20
227.5822186747167
 30
0.0
 11
93.92164855172268
 21
230.0397039301331
 31
0.0
  0
LINE
  5
DC7
330
D89
100
AcDbEntity
  8
0
 62
     0
100
AcDbLine
 10
112.3419439074421
 20
248.4599992858525
 30
0.0
 11
115.4239515369961
 21
251.5420069154065
 31
0.0
  0
LINE
  5
DC8
330
D89
100
AcDbEntity
  8
0
 62
     0
100
AcDbLine
 10
89.7267234683459
 20
227.6125457997227
 30
0.0
 11
92.18420872376224
 21
230.070031055139
 31
0.0
  0
LINE
  5
DC9
330
D89
100
AcDbEntity
  8
0
 62
     0
100
AcDbLine
 10
110.1957440058271
 20
248.0815663372039
 30
0.0
 11
113.2777516353812
 21
251.163573966758
 31
0.0
  0
LINE
  5
DCA
330
D89
100
AcDbEntity
  8
0
 62
     0
100
AcDbLine
 10
87.98928364038545
 20
227.6428729247286
 30
0.0
 11
90.44676889580179
 21
230.1003581801449
 31
0.0
  0
LINE
  5
DCB
330
D89
100
AcDbEntity
  8
0
 62
     0
100
AcDbLine
 10
108.0495441042122
 20
247.7031333885554
 30
0.0
 11
111.1315517337663
 21
250.7851410181094
 31
0.0
  0
LINE
  5
DCC
330
D89
100
AcDbEntity
  8
0
 62
     0
100
AcDbLine
 10
86.25184381242499
 20
227.6732000497345
 30
0.0
 11
88.70932906784133
 21
230.1306853051508
 31
0.0
  0
LINE
  5
DCD
330
D89
100
AcDbEntity
  8
0
 62
     0
100
AcDbLine
 10
105.9033442025973
 20
247.3247004399068
 30
0.0
 11
108.9853518321513
 21
250.4067080694608
 31
0.0
  0
LINE
  5
DCE
330
D89
100
AcDbEntity
  8
0
 62
     0
100
AcDbLine
 10
84.51440398446456
 20
227.7035271747404
 30
0.0
 11
86.9718892398809
 21
230.1610124301567
 31
0.0
  0
LINE
  5
DCF
330
D89
100
AcDbEntity
  8
0
 62
     0
100
AcDbLine
 10
103.7571443009823
 20
246.9462674912582
 30
0.0
 11
106.8391519305364
 21
250.0282751208123
 31
0.0
  0
LINE
  5
DD0
330
D89
100
AcDbEntity
  8
0
 62
     0
100
AcDbLine
 10
82.7769641565041
 20
227.7338542997464
 30
0.0
 11
85.23444941192044
 21
230.1913395551627
 31
0.0
  0
LINE
  5
DD1
330
D89
100
AcDbEntity
  8
0
 62
     0
100
AcDbLine
 10
101.6109443993674
 20
246.5678345426097
 30
0.0
 11
104.6929520289214
 21
249.6498421721637
 31
0.0
  0
LINE
  5
DD2
330
D89
100
AcDbEntity
  8
0
 62
     0
100
AcDbLine
 10
81.03952432854365
 20
227.7641814247523
 30
0.0
 11
83.49700958396001
 21
230.2216666801686
 31
0.0
  0
LINE
  5
DD3
330
D89
100
AcDbEntity
  8
0
 62
     0
100
AcDbLine
 10
99.4647444977525
 20
246.1894015939611
 30
0.0
 11
102.5467521273065
 21
249.2714092235151
 31
0.0
  0
LINE
  5
DD4
330
D89
100
AcDbEntity
  8
0
 62
     0
100
AcDbLine
 10
79.3020845005832
 20
227.7945085497582
 30
0.0
 11
81.75956975599955
 21
230.2519938051745
 31
0.0
  0
LINE
  5
DD5
330
D89
100
AcDbEntity
  8
0
 62
     0
100
AcDbLine
 10
97.31854459613757
 20
245.8109686453125
 30
0.0
 11
100.4005522256916
 21
248.8929762748666
 31
0.0
  0
LINE
  5
DD6
330
D89
100
AcDbEntity
  8
0
 62
     0
100
AcDbLine
 10
77.56464467262276
 20
227.8248356747641
 30
0.0
 11
80.0221299280391
 21
230.2823209301804
 31
0.0
  0
LINE
  5
DD7
330
D89
100
AcDbEntity
  8
0
 62
     0
100
AcDbLine
 10
95.17234469452262
 20
245.432535696664
 30
0.0
 11
98.25435232407667
 21
248.514543326218
 31
0.0
  0
LINE
  5
DD8
330
D89
100
AcDbEntity
  8
0
 62
     0
100
AcDbLine
 10
75.8272048446623
 20
227.85516279977
 30
0.0
 11
78.28469010007866
 21
230.3126480551864
 31
0.0
  0
LINE
  5
DD9
330
D89
100
AcDbEntity
  8
0
 62
     0
100
AcDbLine
 10
93.02614479290769
 20
245.0541027480154
 30
0.0
 11
96.10815242246173
 21
248.1361103775694
 31
0.0
  0
LINE
  5
DDA
330
D89
100
AcDbEntity
  8
0
 62
     0
100
AcDbLine
 10
74.08976501670186
 20
227.885489924776
 30
0.0
 11
76.54725027211822
 21
230.3429751801923
 31
0.0
  0
LINE
  5
DDB
330
D89
100
AcDbEntity
  8
0
 62
     0
100
AcDbLine
 10
90.87994489129275
 20
244.6756697993668
 30
0.0
 11
93.96195252084678
 21
247.7576774289209
 31
0.0
  0
LINE
  5
DDC
330
D89
100
AcDbEntity
  8
0
 62
     0
100
AcDbLine
 10
72.35232518874141
 20
227.9158170497819
 30
0.0
 11
74.80981044415776
 21
230.3733023051982
 31
0.0
  0
LINE
  5
DDD
330
D89
100
AcDbEntity
  8
0
 62
     0
100
AcDbLine
 10
88.73374498967782
 20
244.2972368507183
 30
0.0
 11
91.81575261923184
 21
247.3792444802723
 31
0.0
  0
LINE
  5
DDE
330
D89
100
AcDbEntity
  8
0
 62
     0
100
AcDbLine
 10
70.61488536078096
 20
227.9461441747878
 30
0.0
 11
73.07237061619732
 21
230.4036294302041
 31
0.0
  0
LINE
  5
DDF
330
D89
100
AcDbEntity
  8
0
 62
     0
100
AcDbLine
 10
86.58754508806287
 20
243.9188039020697
 30
0.0
 11
89.6695527176169
 21
247.0008115316237
 31
0.0
  0
LINE
  5
DE0
330
D89
100
AcDbEntity
  8
0
 62
     0
100
AcDbLine
 10
68.87744553282051
 20
227.9764712997937
 30
0.0
 11
71.33493078823687
 21
230.43395655521
 31
0.0
  0
LINE
  5
DE1
330
D89
100
AcDbEntity
  8
0
 62
     0
100
AcDbLine
 10
84.44134518644792
 20
243.5403709534211
 30
0.0
 11
87.52335281600197
 21
246.6223785829752
 31
0.0
  0
LINE
  5
DE2
330
D89
100
AcDbEntity
  8
0
 62
     0
100
AcDbLine
 10
67.14000570486007
 20
228.0067984247996
 30
0.0
 11
69.59749096027643
 21
230.464283680216
 31
0.0
  0
LINE
  5
DE3
330
D89
100
AcDbEntity
  8
0
 62
     0
100
AcDbLine
 10
82.29514528483299
 20
243.1619380047726
 30
0.0
 11
85.37715291438704
 21
246.2439456343266
 31
0.0
  0
LINE
  5
DE4
330
D89
100
AcDbEntity
  8
0
 62
     0
100
AcDbLine
 10
65.40256587689963
 20
228.0371255498056
 30
0.0
 11
67.86005113231597
 21
230.4946108052219
 31
0.0
  0
LINE
  5
DE5
330
D89
100
AcDbEntity
  8
0
 62
     0
100
AcDbLine
 10
80.14894538321806
 20
242.783505056124
 30
0.0
 11
83.23095301277211
 21
245.865512685678
 31
0.0
  0
LINE
  5
DE6
330
D89
100
AcDbEntity
  8
0
 62
     0
100
AcDbLine
 10
63.66512604893917
 20
228.0674526748115
 30
0.0
 11
66.12261130435553
 21
230.5249379302278
 31
0.0
  0
LINE
  5
DE7
330
D89
100
AcDbEntity
  8
0
 62
     0
100
AcDbLine
 10
78.00274548160313
 20
242.4050721074754
 30
0.0
 11
81.08475311115716
 21
245.4870797370295
 31
0.0
  0
LINE
  5
DE8
330
D89
100
AcDbEntity
  8
0
 62
     0
100
AcDbLine
 10
61.92768622097872
 20
228.0977797998174
 30
0.0
 11
64.38517147639508
 21
230.5552650552337
 31
0.0
  0
LINE
  5
DE9
330
D89
100
AcDbEntity
  8
0
 62
     0
100
AcDbLine
 10
75.85654557998819
 20
242.0266391588269
 30
0.0
 11
78.93855320954223
 21
245.1086467883809
 31
0.0
  0
LINE
  5
DEA
330
D89
100
AcDbEntity
  8
0
 62
     0
100
AcDbLine
 10
60.19024639301828
 20
228.1281069248233
 30
0.0
 11
62.64773164843464
 21
230.5855921802397
 31
0.0
  0
LINE
  5
DEB
330
D89
100
AcDbEntity
  8
0
 62
     0
100
AcDbLine
 10
73.71034567837326
 20
241.6482062101783
 30
0.0
 11
76.79235330792728
 21
244.7302138397323
 31
0.0
  0
LINE
  5
DEC
330
D89
100
AcDbEntity
  8
0
 62
     0
100
AcDbLine
 10
55.13049693116457
 20
224.8361244159359
 30
0.0
 11
55.50787475478546
 21
225.2135022395569
 31
0.0
  0
LINE
  5
DED
330
D89
100
AcDbEntity
  8
0
 62
     0
100
AcDbLine
 10
71.56414577675832
 20
241.2697732615297
 30
0.0
 11
74.64615340631235
 21
244.3517808910838
 31
0.0
  0
LINE
  5
DEE
330
D89
100
AcDbEntity
  8
0
 62
     0
100
AcDbLine
 10
58.45280656505783
 20
228.1584340498293
 30
0.0
 11
60.91029182047419
 21
230.6159193052456
 31
0.0
  0
LINE
  5
DEF
330
D89
100
AcDbEntity
  8
0
 62
     0
100
AcDbLine
 10
54.70787475478545
 20
226.1812691925232
 30
0.0
 11
59.21330253349833
 21
230.6866969712361
 31
0.0
  0
LINE
  5
DF0
330
D89
100
AcDbEntity
  8
0
 62
     0
100
AcDbLine
 10
69.41794587514341
 20
240.8913403128812
 30
0.0
 11
72.49995350469744
 21
243.9733479424352
 31
0.0
  0
LINE
  5
DF1
330
D89
100
AcDbEntity
  8
0
 62
     0
100
AcDbLine
 10
54.70787475478545
 20
227.9490361454896
 30
0.0
 11
58.03674161365783
 21
231.277903004362
 31
0.0
  0
LINE
  5
DF2
330
D89
100
AcDbEntity
  8
0
 62
     0
100
AcDbLine
 10
67.27174597352848
 20
240.5129073642326
 30
0.0
 11
70.3537536030825
 21
243.5949149937866
 31
0.0
  0
LINE
  5
DF3
330
D89
100
AcDbEntity
  8
0
 62
     0
100
AcDbLine
 10
54.70787475478545
 20
229.7168030984559
 30
0.0
 11
57.33657280149494
 21
232.3455011451654
 31
0.0
  0
LINE
  5
DF4
330
D89
100
AcDbEntity
  8
0
 62
     0
100
AcDbLine
 10
65.12554607191354
 20
240.134474415584
 30
0.0
 11
68.20755370146756
 21
243.2164820451381
 31
0.0
  0
LINE
  5
DF5
330
D89
100
AcDbEntity
  8
0
 62
     0
100
AcDbLine
 10
54.70787475478545
 20
231.4845700514224
 30
0.0
 11
57.20787475478545
 21
233.9845700514223
 31
0.0
  0
LINE
  5
DF6
330
D89
100
AcDbEntity
  8
0
 62
     0
100
AcDbLine
 10
62.9793461702986
 20
239.7560414669355
 30
0.0
 11
66.06135379985262
 21
242.8380490964895
 31
0.0
  0
LINE
  5
DF7
330
D89
100
AcDbEntity
  8
0
 62
     0
100
AcDbLine
 10
54.70787475478545
 20
233.2523370043887
 30
0.0
 11
57.20787475478545
 21
235.7523370043887
 31
0.0
  0
LINE
  5
DF8
330
D89
100
AcDbEntity
  8
0
 62
     0
100
AcDbLine
 10
60.83314626868367
 20
239.3776085182869
 30
0.0
 11
63.91515389823769
 21
242.4596161478409
 31
0.0
  0
LINE
  5
DF9
330
D89
100
AcDbEntity
  8
0
 62
     0
100
AcDbLine
 10
54.70787475478545
 20
235.0201039573551
 30
0.0
 11
57.49872987675627
 21
237.8109590793259
 31
0.0
  0
LINE
  5
DFA
330
D89
100
AcDbEntity
  8
0
 62
     0
100
AcDbLine
 10
58.53754193550918
 20
238.8497711380788
 30
0.0
 11
61.76895399662275
 21
242.0811831991923
 31
0.0
  0
LINE
  5
DFB
330
D89
100
AcDbEntity
  8
0
 62
     0
100
AcDbLine
 10
54.70787475478545
 20
236.7878709103214
 30
0.0
 11
59.62275409500782
 21
241.7027502505438
 31
0.0
  0
LINE
  5
DFC
330
D89
100
AcDbEntity
  8
0
 62
     0
100
AcDbLine
 10
54.70787475478545
 20
238.5556378632878
 30
0.0
 11
57.47655419339288
 21
241.3243173018952
 31
0.0
  0
LINE
  5
DFD
330
D89
100
AcDbEntity
  8
0
 62
     0
100
AcDbLine
 10
93.66612321160223
 20
169.6801021891561
 30
0.0
 11
96.55378371666607
 21
172.5677626942199
 31
0.0
  0
LINE
  5
DFE
330
D89
100
AcDbEntity
  8
0
 62
     0
100
AcDbLine
 10
132.7078747547854
 20
208.7218537323393
 30
0.0
 11
136.7078747547854
 21
212.7218537323392
 31
0.0
  0
LINE
  5
DFF
330
D89
100
AcDbEntity
  8
0
 62
     0
100
AcDbLine
 10
100.9747403367829
 20
176.9887193143368
 30
0.0
 11
104.2554591864697
 21
180.2694381640235
 31
0.0
  0
LINE
  5
E00
330
D89
100
AcDbEntity
  8
0
 62
     0
100
AcDbLine
 10
95.38878078837271
 20
169.6349928129602
 30
0.0
 11
98.36908603373149
 21
172.6152980583189
 31
0.0
  0
LINE
  5
E01
330
D89
100
AcDbEntity
  8
0
 62
     0
100
AcDbLine
 10
132.7078747547854
 20
206.9540867793729
 30
0.0
 11
136.7078747547854
 21
210.9540867793729
 31
0.0
  0
LINE
  5
E02
330
D89
100
AcDbEntity
  8
0
 62
     0
100
AcDbLine
 10
102.6973979135534
 20
176.9436099381409
 30
0.0
 11
106.0707615035351
 21
180.3169735281226
 31
0.0
  0
LINE
  5
E03
330
D89
100
AcDbEntity
  8
0
 62
     0
100
AcDbLine
 10
97.11143836514322
 20
169.5898834367643
 30
0.0
 11
100.1843883507969
 21
172.662833422418
 31
0.0
  0
LINE
  5
E04
330
D89
100
AcDbEntity
  8
0
 62
     0
100
AcDbLine
 10
132.7078747547854
 20
205.1863198264066
 30
0.0
 11
136.7078747547854
 21
209.1863198264065
 31
0.0
  0
LINE
  5
E05
330
D89
100
AcDbEntity
  8
0
 62
     0
100
AcDbLine
 10
104.4200554903239
 20
176.898500561945
 30
0.0
 11
107.8860638206005
 21
180.3645088922216
 31
0.0
  0
LINE
  5
E06
330
D89
100
AcDbEntity
  8
0
 62
     0
100
AcDbLine
 10
98.8340959419137
 20
169.5447740605684
 30
0.0
 11
101.9996906678623
 21
172.710368786517
 31
0.0
  0
LINE
  5
E07
330
D89
100
AcDbEntity
  8
0
 62
     0
100
AcDbLine
 10
132.7078747547854
 20
203.4185528734402
 30
0.0
 11
136.7078747547854
 21
207.4185528734401
 31
0.0
  0
LINE
  5
E08
330
D89
100
AcDbEntity
  8
0
 62
     0
100
AcDbLine
 10
106.1427130670944
 20
176.8533911857492
 30
0.0
 11
109.7013661376659
 21
180.4120442563207
 31
0.0
  0
LINE
  5
E09
330
D89
100
AcDbEntity
  8
0
 62
     0
100
AcDbLine
 10
54.70787475478545
 20
123.6507859204738
 30
0.0
 11
55.50787475478546
 21
124.4507859204738
 31
0.0
  0
LINE
  5
E0A
330
D89
100
AcDbEntity
  8
0
 62
     0
100
AcDbLine
 10
132.7078747547854
 20
201.6507859204738
 30
0.0
 11
136.7078747547854
 21
205.6507859204738
 31
0.0
  0
LINE
  5
E0B
330
D89
100
AcDbEntity
  8
0
 62
     0
100
AcDbLine
 10
100.5567535186842
 20
169.4996646843725
 30
0.0
 11
103.8149929849277
 21
172.757904150616
 31
0.0
  0
LINE
  5
E0C
330
D89
100
AcDbEntity
  8
0
 62
     0
100
AcDbLine
 10
107.8653706438649
 20
176.8082818095533
 30
0.0
 11
111.5166684547313
 21
180.4595796204197
 31
0.0
  0
LINE
  5
E0D
330
D89
100
AcDbEntity
  8
0
 62
     0
100
AcDbLine
 10
54.70787475478545
 20
121.8830189675074
 30
0.0
 11
55.75257386196426
 21
122.9277180746862
 31
0.0
  0
LINE
  5
E0E
330
D89
100
AcDbEntity
  8
0
 62
     0
100
AcDbLine
 10
132.7078747547854
 20
199.8830189675074
 30
0.0
 11
136.7078747547854
 21
203.8830189675074
 31
0.0
  0
LINE
  5
E0F
330
D89
100
AcDbEntity
  8
0
 62
     0
100
AcDbLine
 10
102.2794110954547
 20
169.4545553081766
 30
0.0
 11
105.6302953019931
 21
172.8054395147151
 31
0.0
  0
LINE
  5
E10
330
D89
100
AcDbEntity
  8
0
 62
     0
100
AcDbLine
 10
109.5880282206354
 20
176.7631724333574
 30
0.0
 11
113.3319707717967
 21
180.5071149845188
 31
0.0
  0
LINE
  5
E11
330
D89
100
AcDbEntity
  8
0
 62
     0
100
AcDbLine
 10
54.70787475478545
 20
120.1152520145411
 30
0.0
 11
56.56058434901482
 21
121.9679616087704
 31
0.0
  0
LINE
  5
E12
330
D89
100
AcDbEntity
  8
0
 62
     0
100
AcDbLine
 10
132.7078747547854
 20
198.1152520145411
 30
0.0
 11
136.7078747547854
 21
202.115252014541
 31
0.0
  0
LINE
  5
E13
330
D89
100
AcDbEntity
  8
0
 62
     0
100
AcDbLine
 10
104.0020686722251
 20
169.4094459319808
 30
0.0
 11
107.4455976190585
 21
172.8529748788141
 31
0.0
  0
LINE
  5
E14
330
D89
100
AcDbEntity
  8
0
 62
     0
100
AcDbLine
 10
111.3106857974059
 20
176.7180630571615
 30
0.0
 11
115.1472730888621
 21
180.5546503486178
 31
0.0
  0
LINE
  5
E15
330
D89
100
AcDbEntity
  8
0
 62
     0
100
AcDbLine
 10
54.70787475478545
 20
118.3474850615747
 30
0.0
 11
57.87059118342054
 21
121.5102014902098
 31
0.0
  0
LINE
  5
E16
330
D89
100
AcDbEntity
  8
0
 62
     0
100
AcDbLine
 10
132.7078747547854
 20
196.3474850615747
 30
0.0
 11
136.7078747547854
 21
200.3474850615747
 31
0.0
  0
LINE
  5
E17
330
D89
100
AcDbEntity
  8
0
 62
     0
100
AcDbLine
 10
105.7247262489956
 20
169.3643365557849
 30
0.0
 11
109.2608999361239
 21
172.9005102429132
 31
0.0
  0
LINE
  5
E18
330
D89
100
AcDbEntity
  8
0
 62
     0
100
AcDbLine
 10
113.0333433741764
 20
176.6729536809656
 30
0.0
 11
116.9625754059275
 21
180.6021857127168
 31
0.0
  0
LINE
  5
E19
330
D89
100
AcDbEntity
  8
0
 62
     0
100
AcDbLine
 10
54.70787475478545
 20
116.5797181086083
 30
0.0
 11
59.66309712858827
 21
121.5349404824112
 31
0.0
  0
LINE
  5
E1A
330
D89
100
AcDbEntity
  8
0
 62
     0
100
AcDbLine
 10
132.7078747547854
 20
194.5797181086083
 30
0.0
 11
136.7078747547854
 21
198.5797181086083
 31
0.0
  0
LINE
  5
E1B
330
D89
100
AcDbEntity
  8
0
 62
     0
100
AcDbLine
 10
107.4473838257661
 20
169.319227179589
 30
0.0
 11
111.0762022531893
 21
172.9480456070122
 31
0.0
  0
LINE
  5
E1C
330
D89
100
AcDbEntity
  8
0
 62
     0
100
AcDbLine
 10
114.7560009509469
 20
176.6278443047698
 30
0.0
 11
118.7778777229929
 21
180.6497210768159
 31
0.0
  0
LINE
  5
E1D
330
D89
100
AcDbEntity
  8
0
 62
     0
100
AcDbLine
 10
54.70787475478545
 20
114.811951155642
 30
0.0
 11
57.40580350755966
 21
117.5098799084162
 31
0.0
  0
LINE
  5
E1E
330
D89
100
AcDbEntity
  8
0
 62
     0
100
AcDbLine
 10
132.7078747547854
 20
192.8119511556419
 30
0.0
 11
136.7078747547854
 21
196.8119511556419
 31
0.0
  0
LINE
  5
E1F
330
D89
100
AcDbEntity
  8
0
 62
     0
100
AcDbLine
 10
58.73295528493353
 20
118.83703168579
 30
0.0
 11
61.46226873882839
 21
121.5663451396849
 31
0.0
  0
LINE
  5
E20
330
D89
100
AcDbEntity
  8
0
 62
     0
100
AcDbLine
 10
116.4786585277173
 20
176.5827349285739
 30
0.0
 11
120.5931800400584
 21
180.6972564409149
 31
0.0
  0
LINE
  5
E21
330
D89
100
AcDbEntity
  8
0
 62
     0
100
AcDbLine
 10
109.1700414025366
 20
169.2741178033932
 30
0.0
 11
112.8915045702547
 21
172.9955809711112
 31
0.0
  0
LINE
  5
E22
330
D89
100
AcDbEntity
  8
0
 62
     0
100
AcDbLine
 10
54.70787475478545
 20
113.0441842026756
 30
0.0
 11
57.20787475478545
 21
115.5441842026756
 31
0.0
  0
LINE
  5
E23
330
D89
100
AcDbEntity
  8
0
 62
     0
100
AcDbLine
 10
132.7078747547854
 20
191.0441842026756
 30
0.0
 11
136.7078747547854
 21
195.0441842026755
 31
0.0
  0
LINE
  5
E24
330
D89
100
AcDbEntity
  8
0
 62
     0
100
AcDbLine
 10
60.71663987139156
 20
119.0529493192817
 30
0.0
 11
63.2614403490685
 21
121.5977497969586
 31
0.0
  0
LINE
  5
E25
330
D89
100
AcDbEntity
  8
0
 62
     0
100
AcDbLine
 10
118.2013161044878
 20
176.537625552378
 30
0.0
 11
122.4084823571238
 21
180.7447918050139
 31
0.0
  0
LINE
  5
E26
330
D89
100
AcDbEntity
  8
0
 62
     0
100
AcDbLine
 10
110.8926989793071
 20
169.2290084271973
 30
0.0
 11
114.7068068873201
 21
173.0431163352103
 31
0.0
  0
LINE
  5
E27
330
D89
100
AcDbEntity
  8
0
 62
     0
100
AcDbLine
 10
54.70787475478545
 20
111.2764172497092
 30
0.0
 11
57.20787475478545
 21
113.7764172497092
 31
0.0
  0
LINE
  5
E28
330
D89
100
AcDbEntity
  8
0
 62
     0
100
AcDbLine
 10
132.7078747547854
 20
189.2764172497092
 30
0.0
 11
134.3093259508238
 21
190.8778684457476
 31
0.0
  0
LINE
  5
E29
330
D89
100
AcDbEntity
  8
0
 62
     0
100
AcDbLine
 10
62.51581148163167
 20
119.0843539765555
 30
0.0
 11
65.06061195930863
 21
121.6291544542324
 31
0.0
  0
LINE
  5
E2A
330
D89
100
AcDbEntity
  8
0
 62
     0
100
AcDbLine
 10
119.9239736812583
 20
176.4925161761821
 30
0.0
 11
124.2237846741892
 21
180.792327169113
 31
0.0
  0
LINE
  5
E2B
330
D89
100
AcDbEntity
  8
0
 62
     0
100
AcDbLine
 10
112.6153565560776
 20
169.1838990510014
 30
0.0
 11
116.5221092043855
 21
173.0906516993093
 31
0.0
  0
LINE
  5
E2C
330
D89
100
AcDbEntity
  8
0
 62
     0
100
AcDbLine
 10
54.8114892744459
 20
109.6122648164033
 30
0.0
 11
57.36324841962773
 21
112.1640239615851
 31
0.0
  0
LINE
  5
E2D
330
D89
100
AcDbEntity
  8
0
 62
     0
100
AcDbLine
 10
132.7078747547854
 20
187.5086502967429
 30
0.0
 11
133.7078747547854
 21
188.5086502967428
 31
0.0
  0
LINE
  5
E2E
330
D89
100
AcDbEntity
  8
0
 62
     0
100
AcDbLine
 10
64.3149830918718
 20
119.1157586338292
 30
0.0
 11
66.85978356954874
 21
121.6605591115061
 31
0.0
  0
LINE
  5
E2F
330
D89
100
AcDbEntity
  8
0
 62
     0
100
AcDbLine
 10
121.6466312580288
 20
176.4474067999862
 30
0.0
 11
126.0390869912546
 21
180.839862533212
 31
0.0
  0
LINE
  5
E30
330
D89
100
AcDbEntity
  8
0
 62
     0
100
AcDbLine
 10
114.3380141328481
 20
169.1387896748055
 30
0.0
 11
118.3374115214509
 21
173.1381870634084
 31
0.0
  0
LINE
  5
E31
330
D89
100
AcDbEntity
  8
0
 62
     0
100
AcDbLine
 10
55.67581229995542
 20
108.7088208889465
 30
0.0
 11
58.091464679029
 21
111.12447326802
 31
0.0
  0
LINE
  5
E32
330
D89
100
AcDbEntity
  8
0
 62
     0
100
AcDbLine
 10
132.7078747547854
 20
185.7408833437765
 30
0.0
 11
133.7078747547854
 21
186.7408833437764
 31
0.0
  0
LINE
  5
E33
330
D89
100
AcDbEntity
  8
0
 62
     0
100
AcDbLine
 10
66.1141547021119
 20
119.1471632911029
 30
0.0
 11
68.65895517978886
 21
121.6919637687799
 31
0.0
  0
LINE
  5
E34
330
D89
100
AcDbEntity
  8
0
 62
     0
100
AcDbLine
 10
123.3692888347993
 20
176.4022974237903
 30
0.0
 11
127.85438930832
 21
180.887397897311
 31
0.0
  0
LINE
  5
E35
330
D89
100
AcDbEntity
  8
0
 62
     0
100
AcDbLine
 10
116.0606717096186
 20
169.0936802986096
 30
0.0
 11
120.1527138385163
 21
173.1857224275074
 31
0.0
  0
LINE
  5
E36
330
D89
100
AcDbEntity
  8
0
 62
     0
100
AcDbLine
 10
57.14172866792237
 20
108.406970303947
 30
0.0
 11
59.29977364295599
 21
110.5650152789807
 31
0.0
  0
LINE
  5
E37
330
D89
100
AcDbEntity
  8
0
 62
     0
100
AcDbLine
 10
132.7078747547854
 20
183.9731163908101
 30
0.0
 11
133.7078747547854
 21
184.9731163908101
 31
0.0
  0
LINE
  5
E38
330
D89
100
AcDbEntity
  8
0
 62
     0
100
AcDbLine
 10
67.91332631235201
 20
119.1785679483767
 30
0.0
 11
70.45812679002897
 21
121.7233684260536
 31
0.0
  0
LINE
  5
E39
330
D89
100
AcDbEntity
  8
0
 62
     0
100
AcDbLine
 10
125.0919464115698
 20
176.3571880475945
 30
0.0
 11
129.6696916253854
 21
180.9349332614101
 31
0.0
  0
LINE
  5
E3A
330
D89
100
AcDbEntity
  8
0
 62
     0
100
AcDbLine
 10
117.7833292863891
 20
169.0485709224138
 30
0.0
 11
121.9680161555817
 21
173.2332577916064
 31
0.0
  0
LINE
  5
E3B
330
D89
100
AcDbEntity
  8
0
 62
     0
100
AcDbLine
 10
58.64451401753809
 20
108.1419887005964
 30
0.0
 11
60.80255899257171
 21
110.30003367563
 31
0.0
  0
LINE
  5
E3C
330
D89
100
AcDbEntity
  8
0
 62
     0
100
AcDbLine
 10
132.6502942306521
 20
182.1477689137105
 30
0.0
 11
133.7078747547854
 21
183.2053494378437
 31
0.0
  0
LINE
  5
E3D
330
D89
100
AcDbEntity
  8
0
 62
     0
100
AcDbLine
 10
69.71249792259214
 20
119.2099726056504
 30
0.0
 11
72.25729840026909
 21
121.7547730833274
 31
0.0
  0
LINE
  5
E3E
330
D89
100
AcDbEntity
  8
0
 62
     0
100
AcDbLine
 10
126.8146039883403
 20
176.3120786713986
 30
0.0
 11
131.533247721099
 21
181.0307224041573
 31
0.0
  0
LINE
  5
E3F
330
D89
100
AcDbEntity
  8
0
 62
     0
100
AcDbLine
 10
119.5059868631596
 20
169.0034615462179
 30
0.0
 11
123.7833184726472
 21
173.2807931557055
 31
0.0
  0
LINE
  5
E40
330
D89
100
AcDbEntity
  8
0
 62
     0
100
AcDbLine
 10
60.1472993671538
 20
107.8770070972457
 30
0.0
 11
62.30534434218743
 21
110.0350520722794
 31
0.0
  0
LINE
  5
E41
330
D89
100
AcDbEntity
  8
0
 62
     0
100
AcDbLine
 10
128.5372615651108
 20
176.2669692952027
 30
0.0
 11
133.9301198338383
 21
181.6598275639302
 31
0.0
  0
LINE
  5
E42
330
D89
100
AcDbEntity
  8
0
 62
     0
100
AcDbLine
 10
71.51166953283224
 20
119.2413772629242
 30
0.0
 11
74.0564700105092
 21
121.7861777406011
 31
0.0
  0
LINE
  5
E43
330
D89
100
AcDbEntity
  8
0
 62
     0
100
AcDbLine
 10
121.22864443993
 20
168.958352170022
 30
0.0
 11
125.5986207897126
 21
173.3283285198045
 31
0.0
  0
LINE
  5
E44
330
D89
100
AcDbEntity
  8
0
 62
     0
100
AcDbLine
 10
61.65008471676951
 20
107.6120254938951
 30
0.0
 11
63.80812969180314
 21
109.7700704689287
 31
0.0
  0
LINE
  5
E45
330
D89
100
AcDbEntity
  8
0
 62
     0
100
AcDbLine
 10
130.2599191418813
 20
176.2218599190068
 30
0.0
 11
134.9515697360408
 21
180.9135105131664
 31
0.0
  0
LINE
  5
E46
330
D89
100
AcDbEntity
  8
0
 62
     0
100
AcDbLine
 10
73.31084114307237
 20
119.2727819201979
 30
0.0
 11
75.85564162074932
 21
121.8175823978749
 31
0.0
  0
LINE
  5
E47
330
D89
100
AcDbEntity
  8
0
 62
     0
100
AcDbLine
 10
122.9513020167005
 20
168.9132427938261
 30
0.0
 11
127.413923106778
 21
173.3758638839035
 31
0.0
  0
LINE
  5
E48
330
D89
100
AcDbEntity
  8
0
 62
     0
100
AcDbLine
 10
63.15287006638524
 20
107.3470438905444
 30
0.0
 11
65.31091504141885
 21
109.5050888655781
 31
0.0
  0
LINE
  5
E49
330
D89
100
AcDbEntity
  8
0
 62
     0
100
AcDbLine
 10
131.9825767186518
 20
176.176750542811
 30
0.0
 11
136.6436328258883
 21
180.8378066500475
 31
0.0
  0
LINE
  5
E4A
330
D89
100
AcDbEntity
  8
0
 62
     0
100
AcDbLine
 10
75.11001275331247
 20
119.3041865774717
 30
0.0
 11
77.65481323098943
 21
121.8489870551486
 31
0.0
  0
LINE
  5
E4B
330
D89
100
AcDbEntity
  8
0
 62
     0
100
AcDbLine
 10
124.673959593471
 20
168.8681334176302
 30
0.0
 11
129.2292254238434
 21
173.4233992480026
 31
0.0
  0
LINE
  5
E4C
330
D89
100
AcDbEntity
  8
0
 62
     0
100
AcDbLine
 10
64.65565541600094
 20
107.0820622871938
 30
0.0
 11
66.81370039103457
 21
109.2401072622274
 31
0.0
  0
LINE
  5
E4D
330
D89
100
AcDbEntity
  8
0
 62
     0
100
AcDbLine
 10
133.7052342954222
 20
176.1316411666151
 30
0.0
 11
136.7078747547854
 21
179.1342816259782
 31
0.0
  0
LINE
  5
E4E
330
D89
100
AcDbEntity
  8
0
 62
     0
100
AcDbLine
 10
76.90918436355258
 20
119.3355912347454
 30
0.0
 11
79.45398484122954
 21
121.8803917124224
 31
0.0
  0
LINE
  5
E4F
330
D89
100
AcDbEntity
  8
0
 62
     0
100
AcDbLine
 10
126.3966171702415
 20
168.8230240414344
 30
0.0
 11
131.0445277409088
 21
173.4709346121016
 31
0.0
  0
LINE
  5
E50
330
D89
100
AcDbEntity
  8
0
 62
     0
100
AcDbLine
 10
66.15844076561666
 20
106.8170806838431
 30
0.0
 11
68.31648574065027
 21
108.9751256588767
 31
0.0
  0
LINE
  5
E51
330
D89
100
AcDbEntity
  8
0
 62
     0
100
AcDbLine
 10
135.4278918721927
 20
176.0865317904192
 30
0.0
 11
136.7078747547854
 21
177.3665146730118
 31
0.0
  0
LINE
  5
E52
330
D89
100
AcDbEntity
  8
0
 62
     0
100
AcDbLine
 10
78.7083559737927
 20
119.3669958920192
 30
0.0
 11
81.25315645146967
 21
121.9117963696961
 31
0.0
  0
LINE
  5
E53
330
D89
100
AcDbEntity
  8
0
 62
     0
100
AcDbLine
 10
128.119274747012
 20
168.7779146652385
 30
0.0
 11
132.8598300579742
 21
173.5184699762007
 31
0.0
  0
LINE
  5
E54
330
D89
100
AcDbEntity
  8
0
 62
     0
100
AcDbLine
 10
67.66122611523238
 20
106.5520990804925
 30
0.0
 11
69.81927109026599
 21
108.7101440555261
 31
0.0
  0
LINE
  5
E55
330
D89
100
AcDbEntity
  8
0
 62
     0
100
AcDbLine
 10
129.8419323237825
 20
168.7328052890426
 30
0.0
 11
134.6751323750396
 21
173.5660053402997
 31
0.0
  0
LINE
  5
E56
330
D89
100
AcDbEntity
  8
0
 62
     0
100
AcDbLine
 10
80.50752758403282
 20
119.3984005492929
 30
0.0
 11
83.05232806170977
 21
121.9432010269699
 31
0.0
  0
LINE
  5
E57
330
D89
100
AcDbEntity
  8
0
 62
     0
100
AcDbLine
 10
69.16401146484808
 20
106.2871174771418
 30
0.0
 11
71.32205643988171
 21
108.4451624521754
 31
0.0
  0
LINE
  5
E58
330
D89
100
AcDbEntity
  8
0
 62
     0
100
AcDbLine
 10
131.5215885076594
 20
168.6446945199531
 30
0.0
 11
136.490434692105
 21
173.6135407043987
 31
0.0
  0
LINE
  5
E59
330
D89
100
AcDbEntity
  8
0
 62
     0
100
AcDbLine
 10
82.30669919427292
 20
119.4298052065666
 30
0.0
 11
84.8514996719499
 21
121.9746056842436
 31
0.0
  0
LINE
  5
E5A
330
D89
100
AcDbEntity
  8
0
 62
     0
100
AcDbLine
 10
70.6667968144638
 20
106.0221358737912
 30
0.0
 11
72.82484178949743
 21
108.1801808488248
 31
0.0
  0
LINE
  5
E5B
330
D89
100
AcDbEntity
  8
0
 62
     0
100
AcDbLine
 10
132.5115975341792
 20
167.8669365935065
 30
0.0
 11
136.7078747547854
 21
172.0632138141128
 31
0.0
  0
LINE
  5
E5C
330
D89
100
AcDbEntity
  8
0
 62
     0
100
AcDbLine
 10
84.10587080451305
 20
119.4612098638404
 30
0.0
 11
86.65067128219
 21
122.0060103415174
 31
0.0
  0
LINE
  5
E5D
330
D89
100
AcDbEntity
  8
0
 62
     0
100
AcDbLine
 10
72.16958216407952
 20
105.7571542704405
 30
0.0
 11
74.32762713911315
 21
107.9151992454741
 31
0.0
  0
LINE
  5
E5E
330
D89
100
AcDbEntity
  8
0
 62
     0
100
AcDbLine
 10
135.2082382127556
 20
168.7958103191166
 30
0.0
 11
136.7078747547854
 21
170.2954468611464
 31
0.0
  0
LINE
  5
E5F
330
D89
100
AcDbEntity
  8
0
 62
     0
100
AcDbLine
 10
85.90504241475315
 20
119.4926145211141
 30
0.0
 11
88.44984289243013
 21
122.0374149987911
 31
0.0
  0
LINE
  5
E60
330
D89
100
AcDbEntity
  8
0
 62
     0
100
AcDbLine
 10
132.7078747547854
 20
166.2954468611464
 30
0.0
 11
133.7109800934225
 21
167.2985521997834
 31
0.0
  0
LINE
  5
E61
330
D89
100
AcDbEntity
  8
0
 62
     0
100
AcDbLine
 10
73.67236751369524
 20
105.4921726670899
 30
0.0
 11
75.83041248872885
 21
107.6502176421235
 31
0.0
  0
LINE
  5
E62
330
D89
100
AcDbEntity
  8
0
 62
     0
100
AcDbLine
 10
132.7078747547854
 20
164.52767990818
 30
0.0
 11
133.7078747547854
 21
165.52767990818
 31
0.0
  0
LINE
  5
E63
330
D89
100
AcDbEntity
  8
0
 62
     0
100
AcDbLine
 10
87.70421402499328
 20
119.5240191783879
 30
0.0
 11
90.24901450267023
 21
122.0688196560649
 31
0.0
  0
LINE
  5
E64
330
D89
100
AcDbEntity
  8
0
 62
     0
100
AcDbLine
 10
75.17515286331096
 20
105.2271910637392
 30
0.0
 11
77.33319783834457
 21
107.3852360387728
 31
0.0
  0
LINE
  5
E65
330
D89
100
AcDbEntity
  8
0
 62
     0
100
AcDbLine
 10
132.7078747547854
 20
162.7599129552137
 30
0.0
 11
133.7078747547854
 21
163.7599129552136
 31
0.0
  0
LINE
  5
E66
330
D89
100
AcDbEntity
  8
0
 62
     0
100
AcDbLine
 10
89.50338563523338
 20
119.5554238356616
 30
0.0
 11
92.04818611291036
 21
122.1002243133386
 31
0.0
  0
LINE
  5
E67
330
D89
100
AcDbEntity
  8
0
 62
     0
100
AcDbLine
 10
76.67793821292668
 20
104.9622094603885
 30
0.0
 11
78.83598318796029
 21
107.1202544354222
 31
0.0
  0
LINE
  5
E68
330
D89
100
AcDbEntity
  8
0
 62
     0
100
AcDbLine
 10
132.7078747547854
 20
160.9921460022473
 30
0.0
 11
133.7078747547854
 21
161.9921460022472
 31
0.0
  0
LINE
  5
E69
330
D89
100
AcDbEntity
  8
0
 62
     0
100
AcDbLine
 10
91.30255724547351
 20
119.5868284929354
 30
0.0
 11
93.84735772315046
 21
122.1316289706123
 31
0.0
  0
LINE
  5
E6A
330
D89
100
AcDbEntity
  8
0
 62
     0
100
AcDbLine
 10
78.18072356254238
 20
104.6972278570379
 30
0.0
 11
80.338768537576
 21
106.8552728320715
 31
0.0
  0
LINE
  5
E6B
330
D89
100
AcDbEntity
  8
0
 62
     0
100
AcDbLine
 10
132.7078747547854
 20
159.2243790492809
 30
0.0
 11
133.7078747547854
 21
160.2243790492809
 31
0.0
  0
LINE
  5
E6C
330
D89
100
AcDbEntity
  8
0
 62
     0
100
AcDbLine
 10
93.10172885571361
 20
119.6182331502091
 30
0.0
 11
95.64652933339059
 21
122.1630336278861
 31
0.0
  0
LINE
  5
E6D
330
D89
100
AcDbEntity
  8
0
 62
     0
100
AcDbLine
 10
79.6835089121581
 20
104.4322462536872
 30
0.0
 11
81.84155388719172
 21
106.5902912287209
 31
0.0
  0
LINE
  5
E6E
330
D89
100
AcDbEntity
  8
0
 62
     0
100
AcDbLine
 10
132.7078747547854
 20
157.4566120963146
 30
0.0
 11
134.2128113086004
 21
158.9615486501296
 31
0.0
  0
LINE
  5
E6F
330
D89
100
AcDbEntity
  8
0
 62
     0
100
AcDbLine
 10
94.90090046595373
 20
119.6496378074829
 30
0.0
 11
97.44570094363069
 21
122.1944382851598
 31
0.0
  0
LINE
  5
E70
330
D89
100
AcDbEntity
  8
0
 62
     0
100
AcDbLine
 10
81.18629426177381
 20
104.1672646503366
 30
0.0
 11
83.34433923680743
 21
106.3253096253702
 31
0.0
  0
LINE
  5
E71
330
D89
100
AcDbEntity
  8
0
 62
     0
100
AcDbLine
 10
132.7078747547854
 20
155.6888451433482
 30
0.0
 11
134.8598589213567
 21
157.8408293099195
 31
0.0
  0
LINE
  5
E72
330
D89
100
AcDbEntity
  8
0
 62
     0
100
AcDbLine
 10
96.70007207619384
 20
119.6810424647566
 30
0.0
 11
99.24487255387083
 21
122.2258429424336
 31
0.0
  0
LINE
  5
E73
330
D89
100
AcDbEntity
  8
0
 62
     0
100
AcDbLine
 10
82.68907961138953
 20
103.9022830469859
 30
0.0
 11
84.84712458642315
 21
106.0603280220195
 31
0.0
  0
LINE
  5
E74
330
D89
100
AcDbEntity
  8
0
 62
     0
100
AcDbLine
 10
132.7078747547854
 20
153.9210781903818
 30
0.0
 11
135.506906534113
 21
156.7201099697094
 31
0.0
  0
LINE
  5
E75
330
D89
100
AcDbEntity
  8
0
 62
     0
100
AcDbLine
 10
98.49924368643396
 20
119.7124471220304
 30
0.0
 11
101.0440441641109
 21
122.2572475997073
 31
0.0
  0
LINE
  5
E76
330
D89
100
AcDbEntity
  8
0
 62
     0
100
AcDbLine
 10
84.19186496100525
 20
103.6373014436353
 30
0.0
 11
86.34990993603885
 21
105.7953464186689
 31
0.0
  0
LINE
  5
E77
330
D89
100
AcDbEntity
  8
0
 62
     0
100
AcDbLine
 10
132.7078747547854
 20
152.1533112374154
 30
0.0
 11
136.1539541468693
 21
155.5993906294993
 31
0.0
  0
LINE
  5
E78
330
D89
100
AcDbEntity
  8
0
 62
     0
100
AcDbLine
 10
100.298415296674
 20
119.7438517793041
 30
0.0
 11
102.843215774351
 21
122.2886522569811
 31
0.0
  0
LINE
  5
E79
330
D89
100
AcDbEntity
  8
0
 62
     0
100
AcDbLine
 10
85.69465031062096
 20
103.3723198402846
 30
0.0
 11
87.85269528565457
 21
105.5303648153182
 31
0.0
  0
LINE
  5
E7A
330
D89
100
AcDbEntity
  8
0
 62
     0
100
AcDbLine
 10
132.7078747547854
 20
150.3855442844491
 30
0.0
 11
136.7078747547854
 21
154.3855442844491
 31
0.0
  0
LINE
  5
E7B
330
D89
100
AcDbEntity
  8
0
 62
     0
100
AcDbLine
 10
102.0975869069142
 20
119.7752564365778
 30
0.0
 11
104.6423873845911
 21
122.3200569142548
 31
0.0
  0
LINE
  5
E7C
330
D89
100
AcDbEntity
  8
0
 62
     0
100
AcDbLine
 10
87.19743566023668
 20
103.107338236934
 30
0.0
 11
89.35548063527029
 21
105.2653832119676
 31
0.0
  0
LINE
  5
E7D
330
D89
100
AcDbEntity
  8
0
 62
     0
100
AcDbLine
 10
132.7078747547854
 20
148.6177773314827
 30
0.0
 11
136.7078747547854
 21
152.6177773314827
 31
0.0
  0
LINE
  5
E7E
330
D89
100
AcDbEntity
  8
0
 62
     0
100
AcDbLine
 10
103.8967585171543
 20
119.8066610938516
 30
0.0
 11
106.4415589948312
 21
122.3514615715286
 31
0.0
  0
LINE
  5
E7F
330
D89
100
AcDbEntity
  8
0
 62
     0
100
AcDbLine
 10
88.70022100985238
 20
102.8423566335833
 30
0.0
 11
90.85826598488599
 21
105.0004016086169
 31
0.0
  0
LINE
  5
E80
330
D89
100
AcDbEntity
  8
0
 62
     0
100
AcDbLine
 10
132.7078747547854
 20
146.8500103785163
 30
0.0
 11
136.7078747547854
 21
150.8500103785163
 31
0.0
  0
LINE
  5
E81
330
D89
100
AcDbEntity
  8
0
 62
     0
100
AcDbLine
 10
105.6959301273944
 20
119.8380657511253
 30
0.0
 11
108.2407306050714
 21
122.3828662288023
 31
0.0
  0
LINE
  5
E82
330
D89
100
AcDbEntity
  8
0
 62
     0
100
AcDbLine
 10
90.2030063594681
 20
102.5773750302327
 30
0.0
 11
92.36105133450172
 21
104.7354200052663
 31
0.0
  0
LINE
  5
E83
330
D89
100
AcDbEntity
  8
0
 62
     0
100
AcDbLine
 10
132.7078747547854
 20
145.08224342555
 30
0.0
 11
136.7078747547854
 21
149.0822434255499
 31
0.0
  0
LINE
  5
E84
330
D89
100
AcDbEntity
  8
0
 62
     0
100
AcDbLine
 10
107.4951017376345
 20
119.8694704083991
 30
0.0
 11
110.0399022153115
 21
122.4142708860761
 31
0.0
  0
LINE
  5
E85
330
D89
100
AcDbEntity
  8
0
 62
     0
100
AcDbLine
 10
91.70579170908382
 20
102.312393426882
 30
0.0
 11
93.86383668411744
 21
104.4704384019156
 31
0.0
  0
LINE
  5
E86
330
D89
100
AcDbEntity
  8
0
 62
     0
100
AcDbLine
 10
132.7078747547854
 20
143.3144764725836
 30
0.0
 11
136.7078747547854
 21
147.3144764725836
 31
0.0
  0
LINE
  5
E87
330
D89
100
AcDbEntity
  8
0
 62
     0
100
AcDbLine
 10
109.2942733478746
 20
119.9008750656728
 30
0.0
 11
111.8390738255516
 21
122.4456755433498
 31
0.0
  0
LINE
  5
E88
330
D89
100
AcDbEntity
  8
0
 62
     0
100
AcDbLine
 10
93.20857705869952
 20
102.0474118235314
 30
0.0
 11
95.36662203373316
 21
104.205456798565
 31
0.0
  0
LINE
  5
E89
330
D89
100
AcDbEntity
  8
0
 62
     0
100
AcDbLine
 10
132.7078747547854
 20
141.5467095196172
 30
0.0
 11
136.7078747547854
 21
145.5467095196172
 31
0.0
  0
LINE
  5
E8A
330
D89
100
AcDbEntity
  8
0
 62
     0
100
AcDbLine
 10
111.0934449581147
 20
119.9322797229466
 30
0.0
 11
113.6382454357917
 21
122.4770802006236
 31
0.0
  0
LINE
  5
E8B
330
D89
100
AcDbEntity
  8
0
 62
     0
100
AcDbLine
 10
94.71136240831524
 20
101.7824302201807
 30
0.0
 11
96.86940738334888
 21
103.9404751952143
 31
0.0
  0
LINE
  5
E8C
330
D89
100
AcDbEntity
  8
0
 62
     0
100
AcDbLine
 10
132.7078747547854
 20
139.7789425666508
 30
0.0
 11
136.7078747547854
 21
143.7789425666508
 31
0.0
  0
LINE
  5
E8D
330
D89
100
AcDbEntity
  8
0
 62
     0
100
AcDbLine
 10
112.8926165683548
 20
119.9636843802203
 30
0.0
 11
115.4374170460318
 21
122.5084848578973
 31
0.0
  0
LINE
  5
E8E
330
D89
100
AcDbEntity
  8
0
 62
     0
100
AcDbLine
 10
96.21414775793097
 20
101.51744861683
 30
0.0
 11
98.37219273296458
 21
103.6754935918636
 31
0.0
  0
LINE
  5
E8F
330
D89
100
AcDbEntity
  8
0
 62
     0
100
AcDbLine
 10
132.7078747547854
 20
138.0111756136845
 30
0.0
 11
136.7078747547854
 21
142.0111756136845
 31
0.0
  0
LINE
  5
E90
330
D89
100
AcDbEntity
  8
0
 62
     0
100
AcDbLine
 10
114.691788178595
 20
119.9950890374941
 30
0.0
 11
117.236588656272
 21
122.5398895151711
 31
0.0
  0
LINE
  5
E91
330
D89
100
AcDbEntity
  8
0
 62
     0
100
AcDbLine
 10
97.71693310754669
 20
101.2524670134794
 30
0.0
 11
99.8749780825803
 21
103.410511988513
 31
0.0
  0
LINE
  5
E92
330
D89
100
AcDbEntity
  8
0
 62
     0
100
AcDbLine
 10
132.7078747547854
 20
136.2434086607181
 30
0.0
 11
136.7078747547854
 21
140.2434086607181
 31
0.0
  0
LINE
  5
E93
330
D89
100
AcDbEntity
  8
0
 62
     0
100
AcDbLine
 10
116.4909597888351
 20
120.0264936947678
 30
0.0
 11
119.0357602665121
 21
122.5712941724448
 31
0.0
  0
LINE
  5
E94
330
D89
100
AcDbEntity
  8
0
 62
     0
100
AcDbLine
 10
99.21971845716241
 20
100.9874854101287
 30
0.0
 11
101.377763432196
 21
103.1455303851624
 31
0.0
  0
LINE
  5
E95
330
D89
100
AcDbEntity
  8
0
 62
     0
100
AcDbLine
 10
132.7078747547854
 20
134.4756417077517
 30
0.0
 11
136.7078747547854
 21
138.4756417077517
 31
0.0
  0
LINE
  5
E96
330
D89
100
AcDbEntity
  8
0
 62
     0
100
AcDbLine
 10
118.2901313990752
 20
120.0578983520416
 30
0.0
 11
120.8349318767522
 21
122.6026988297185
 31
0.0
  0
LINE
  5
E97
330
D89
100
AcDbEntity
  8
0
 62
     0
100
AcDbLine
 10
100.7225038067781
 20
100.7225038067781
 30
0.0
 11
102.8805487818117
 21
102.8805487818117
 31
0.0
  0
LINE
  5
E98
330
D89
100
AcDbEntity
  8
0
 62
     0
100
AcDbLine
 10
132.7078747547854
 20
132.7078747547854
 30
0.0
 11
136.7078747547854
 21
136.7078747547854
 31
0.0
  0
LINE
  5
E99
330
D89
100
AcDbEntity
  8
0
 62
     0
100
AcDbLine
 10
120.0893030093153
 20
120.0893030093153
 30
0.0
 11
122.6341034869923
 21
122.6341034869923
 31
0.0
  0
LINE
  5
E9A
330
D89
100
AcDbEntity
  8
0
 62
     0
100
AcDbLine
 10
102.2252891563938
 20
100.4575222034274
 30
0.0
 11
104.3833341314274
 21
102.615567178461
 31
0.0
  0
LINE
  5
E9B
330
D89
100
AcDbEntity
  8
0
 62
     0
100
AcDbLine
 10
133.2547506845196
 20
131.4869837315532
 30
0.0
 11
136.7078747547854
 21
134.940107801819
 31
0.0
  0
LINE
  5
E9C
330
D89
100
AcDbEntity
  8
0
 62
     0
100
AcDbLine
 10
121.8884746195554
 20
120.1207076665891
 30
0.0
 11
124.4332750972324
 21
122.665508144266
 31
0.0
  0
LINE
  5
E9D
330
D89
100
AcDbEntity
  8
0
 62
     0
100
AcDbLine
 10
103.7280745060095
 20
100.1925406000768
 30
0.0
 11
105.8861194810431
 21
102.3505855751104
 31
0.0
  0
LINE
  5
E9E
330
D89
100
AcDbEntity
  8
0
 62
     0
100
AcDbLine
 10
133.9017982972759
 20
130.3662643913431
 30
0.0
 11
136.7078747547854
 21
133.1723408488526
 31
0.0
  0
LINE
  5
E9F
330
D89
100
AcDbEntity
  8
0
 62
     0
100
AcDbLine
 10
123.6876462297955
 20
120.1521123238628
 30
0.0
 11
126.2324467074725
 21
122.6969128015398
 31
0.0
  0
LINE
  5
EA0
330
D89
100
AcDbEntity
  8
0
 62
     0
100
AcDbLine
 10
105.2308598556252
 20
99.92755899672616
 30
0.0
 11
107.3889048306589
 21
102.0856039717597
 31
0.0
  0
LINE
  5
EA1
330
D89
100
AcDbEntity
  8
0
 62
     0
100
AcDbLine
 10
134.2078747547854
 20
128.9045738958862
 30
0.0
 11
136.7078747547854
 21
131.4045738958862
 31
0.0
  0
LINE
  5
EA2
330
D89
100
AcDbEntity
  8
0
 62
     0
100
AcDbLine
 10
125.4868178400357
 20
120.1835169811365
 30
0.0
 11
128.0316183177126
 21
122.7283174588135
 31
0.0
  0
LINE
  5
EA3
330
D89
100
AcDbEntity
  8
0
 62
     0
100
AcDbLine
 10
106.733645205241
 20
99.66257739337549
 30
0.0
 11
108.8916901802746
 21
101.8206223684091
 31
0.0
  0
LINE
  5
EA4
330
D89
100
AcDbEntity
  8
0
 62
     0
100
AcDbLine
 10
134.2078747547854
 20
127.1368069429199
 30
0.0
 11
136.7078747547854
 21
129.6368069429199
 31
0.0
  0
LINE
  5
EA5
330
D89
100
AcDbEntity
  8
0
 62
     0
100
AcDbLine
 10
127.2859894502758
 20
120.2149216384103
 30
0.0
 11
129.8307899279528
 21
122.7597221160873
 31
0.0
  0
LINE
  5
EA6
330
D89
100
AcDbEntity
  8
0
 62
     0
100
AcDbLine
 10
108.2364305548566
 20
99.39759579002483
 30
0.0
 11
110.3944755298903
 21
101.5556407650584
 31
0.0
  0
LINE
  5
EA7
330
D89
100
AcDbEntity
  8
0
 62
     0
100
AcDbLine
 10
134.2078747547854
 20
125.3690399899535
 30
0.0
 11
136.7078747547854
 21
127.8690399899535
 31
0.0
  0
LINE
  5
EA8
330
D89
100
AcDbEntity
  8
0
 62
     0
100
AcDbLine
 10
129.0851610605159
 20
120.246326295684
 30
0.0
 11
131.6299615381929
 21
122.791126773361
 31
0.0
  0
LINE
  5
EA9
330
D89
100
AcDbEntity
  8
0
 62
     0
100
AcDbLine
 10
109.7392159044724
 20
99.13261418667419
 30
0.0
 11
111.897260879506
 21
101.2906591617078
 31
0.0
  0
LINE
  5
EAA
330
D89
100
AcDbEntity
  8
0
 62
     0
100
AcDbLine
 10
134.2078747547854
 20
123.6012730369872
 30
0.0
 11
136.7078747547854
 21
126.1012730369872
 31
0.0
  0
LINE
  5
EAB
330
D89
100
AcDbEntity
  8
0
 62
     0
100
AcDbLine
 10
130.884332670756
 20
120.2777309529578
 30
0.0
 11
133.429133148433
 21
122.8225314306348
 31
0.0
  0
LINE
  5
EAC
330
D89
100
AcDbEntity
  8
0
 62
     0
100
AcDbLine
 10
111.2420012540881
 20
98.86763258332354
 30
0.0
 11
113.4000462291217
 21
101.0256775583571
 31
0.0
  0
LINE
  5
EAD
330
D89
100
AcDbEntity
  8
0
 62
     0
100
AcDbLine
 10
132.6835042809961
 20
120.3091356102315
 30
0.0
 11
136.7078747547854
 21
124.3335060840208
 31
0.0
  0
LINE
  5
EAE
330
D89
100
AcDbEntity
  8
0
 62
     0
100
AcDbLine
 10
112.7447866037038
 20
98.60265097997288
 30
0.0
 11
114.9028315787374
 21
100.7606959550065
 31
0.0
  0
LINE
  5
EAF
330
D89
100
AcDbEntity
  8
0
 62
     0
100
AcDbLine
 10
134.4826758912362
 20
120.3405402675053
 30
0.0
 11
136.7078747547854
 21
122.5657391310544
 31
0.0
  0
LINE
  5
EB0
330
D89
100
AcDbEntity
  8
0
 62
     0
100
AcDbLine
 10
114.2475719533195
 20
98.33766937662224
 30
0.0
 11
116.4056169283531
 21
100.4957143516558
 31
0.0
  0
LINE
  5
EB1
330
D89
100
AcDbEntity
  8
0
 62
     0
100
AcDbLine
 10
136.2818475014763
 20
120.371944924779
 30
0.0
 11
136.7078747547854
 21
120.797972178088
 31
0.0
  0
LINE
  5
EB2
330
D89
100
AcDbEntity
  8
0
 62
     0
100
AcDbLine
 10
115.7503573029352
 20
98.07268777327157
 30
0.0
 11
117.9084022779689
 21
100.2307327483052
 31
0.0
  0
LINE
  5
EB3
330
D89
100
AcDbEntity
  8
0
 62
     0
100
AcDbLine
 10
117.253142652551
 20
97.80770616992093
 30
0.0
 11
119.4111876275846
 21
99.96575114495454
 31
0.0
  0
LINE
  5
EB4
330
D89
100
AcDbEntity
  8
0
 62
     0
100
AcDbLine
 10
118.7559280021667
 20
97.54272456657027
 30
0.0
 11
120.9139729772003
 21
99.7007695416039
 31
0.0
  0
LINE
  5
EB5
330
D89
100
AcDbEntity
  8
0
 62
     0
100
AcDbLine
 10
120.2587133517824
 20
97.2777429632196
 30
0.0
 11
122.416758326816
 21
99.43578793825324
 31
0.0
  0
LINE
  5
EB6
330
D89
100
AcDbEntity
  8
0
 62
     0
100
AcDbLine
 10
121.7614987013981
 20
97.01276135986896
 30
0.0
 11
123.9195436764317
 21
99.17080633490257
 31
0.0
  0
LINE
  5
EB7
330
D89
100
AcDbEntity
  8
0
 62
     0
100
AcDbLine
 10
123.2642840510138
 20
96.74777975651831
 30
0.0
 11
125.4223290260474
 21
98.90582473155191
 31
0.0
  0
LINE
  5
EB8
330
D89
100
AcDbEntity
  8
0
 62
     0
100
AcDbLine
 10
124.7670694006295
 20
96.48279815316765
 30
0.0
 11
126.9251143756632
 21
98.64084312820127
 31
0.0
  0
LINE
  5
EB9
330
D89
100
AcDbEntity
  8
0
 62
     0
100
AcDbLine
 10
126.2698547502453
 20
96.21781654981701
 30
0.0
 11
128.4278997252789
 21
98.37586152485062
 31
0.0
  0
LINE
  5
EBA
330
D89
100
AcDbEntity
  8
0
 62
     0
100
AcDbLine
 10
127.772640099861
 20
95.95283494646634
 30
0.0
 11
129.9306850748946
 21
98.11087992149996
 31
0.0
  0
LINE
  5
EBB
330
D89
100
AcDbEntity
  8
0
 62
     0
100
AcDbLine
 10
129.2754254494767
 20
95.68785334311568
 30
0.0
 11
131.4334704245103
 21
97.84589831814932
 31
0.0
  0
LINE
  5
EBC
330
D89
100
AcDbEntity
  8
0
 62
     0
100
AcDbLine
 10
130.7782107990924
 20
95.42287173976504
 30
0.0
 11
132.936255774126
 21
97.58091671479865
 31
0.0
  0
LINE
  5
EBD
330
D89
100
AcDbEntity
  8
0
 62
     0
100
AcDbLine
 10
132.2809961487081
 20
95.15789013641438
 30
0.0
 11
134.4390411237417
 21
97.31593511144801
 31
0.0
  0
LINE
  5
EBE
330
D89
100
AcDbEntity
  8
0
 62
     0
100
AcDbLine
 10
133.7837814983238
 20
94.89290853306373
 30
0.0
 11
135.9418264733574
 21
97.05095350809735
 31
0.0
  0
LINE
  5
EBF
330
D89
100
AcDbEntity
  8
0
 62
     0
100
AcDbLine
 10
135.2078747547854
 20
94.54923483655896
 30
0.0
 11
137.4446118229732
 21
96.78597190474668
 31
0.0
  0
LINE
  5
EC0
330
D89
100
AcDbEntity
  8
0
 62
     0
100
AcDbLine
 10
135.2078747547854
 20
92.7814678835926
 30
0.0
 11
137.7078747547854
 21
95.28146788359256
 31
0.0
  0
LINE
  5
EC1
330
D89
100
AcDbEntity
  8
0
 62
     0
100
AcDbLine
 10
135.2078747547854
 20
91.01370093062623
 30
0.0
 11
137.7078747547854
 21
93.51370093062618
 31
0.0
  0
LINE
  5
EC2
330
D89
100
AcDbEntity
  8
0
 62
     0
100
AcDbLine
 10
136.5171254954803
 20
90.55518471835474
 30
0.0
 11
137.7078747547854
 21
91.74593397765981
 31
0.0
  0
LINE
  5
EC3
330
D89
100
AcDbEntity
  8
0
 62
     0
100
AcDbLine
 10
136.7078747547854
 20
133.760469049069
 30
0.0
 11
132.7078747547854
 21
137.760469049069
 31
0.0
  0
LINE
  5
EC4
330
D89
100
AcDbEntity
  8
0
 62
     0
100
AcDbLine
 10
93.27808035488697
 20
177.1902634489674
 30
0.0
 11
90.55759679020495
 21
179.9107470136495
 31
0.0
  0
LINE
  5
EC5
330
D89
100
AcDbEntity
  8
0
 62
     0
100
AcDbLine
 10
100.9797558246905
 20
169.4885879791639
 30
0.0
 11
97.86621391538576
 21
172.6021298884686
 31
0.0
  0
LINE
  5
EC6
330
D89
100
AcDbEntity
  8
0
 62
     0
100
AcDbLine
 10
136.7078747547854
 20
131.9927020961026
 30
0.0
 11
132.7078747547854
 21
135.9927020961026
 31
0.0
  0
LINE
  5
EC7
330
D89
100
AcDbEntity
  8
0
 62
     0
100
AcDbLine
 10
91.46277803782155
 20
177.2377988130665
 30
0.0
 11
88.83493921343445
 21
179.8656376374536
 31
0.0
  0
LINE
  5
EC8
330
D89
100
AcDbEntity
  8
0
 62
     0
100
AcDbLine
 10
99.16445350762511
 20
169.5361233432629
 30
0.0
 11
96.14355633861528
 21
172.5570205122727
 31
0.0
  0
LINE
  5
EC9
330
D89
100
AcDbEntity
  8
0
 62
     0
100
AcDbLine
 10
136.7078747547854
 20
130.2249351431363
 30
0.0
 11
132.7078747547854
 21
134.2249351431363
 31
0.0
  0
LINE
  5
ECA
330
D89
100
AcDbEntity
  8
0
 62
     0
100
AcDbLine
 10
89.64747572075614
 20
177.2853341771655
 30
0.0
 11
87.7078747547854
 21
179.2249351431363
 31
0.0
  0
LINE
  5
ECB
330
D89
100
AcDbEntity
  8
0
 62
     0
100
AcDbLine
 10
97.34915119055969
 20
169.583658707362
 30
0.0
 11
94.42089876184478
 21
172.5119111360769
 31
0.0
  0
LINE
  5
ECC
330
D89
100
AcDbEntity
  8
0
 62
     0
100
AcDbLine
 10
136.7078747547854
 20
128.4571681901699
 30
0.0
 11
132.7078747547854
 21
132.4571681901699
 31
0.0
  0
LINE
  5
ECD
330
D89
100
AcDbEntity
  8
0
 62
     0
100
AcDbLine
 10
87.83217340369073
 20
177.3328695412646
 30
0.0
 11
87.7078747547854
 21
177.4571681901699
 31
0.0
  0
LINE
  5
ECE
330
D89
100
AcDbEntity
  8
0
 62
     0
100
AcDbLine
 10
95.53384887349428
 20
169.631194071461
 30
0.0
 11
92.69824118507429
 21
172.466801759881
 31
0.0
  0
LINE
  5
ECF
330
D89
100
AcDbEntity
  8
0
 62
     0
100
AcDbLine
 10
136.7078747547854
 20
126.6894012372035
 30
0.0
 11
134.2078747547853
 21
129.1894012372035
 31
0.0
  0
LINE
  5
ED0
330
D89
100
AcDbEntity
  8
0
 62
     0
100
AcDbLine
 10
93.71854655642888
 20
169.67872943556
 30
0.0
 11
90.9755836083038
 21
172.4216923836851
 31
0.0
  0
LINE
  5
ED1
330
D89
100
AcDbEntity
  8
0
 62
     0
100
AcDbLine
 10
136.7078747547854
 20
124.9216342842371
 30
0.0
 11
134.2078747547854
 21
127.4216342842372
 31
0.0
  0
LINE
  5
ED2
330
D89
100
AcDbEntity
  8
0
 62
     0
100
AcDbLine
 10
91.90324423936347
 20
169.7262647996591
 30
0.0
 11
89.2529260315333
 21
172.3765830074893
 31
0.0
  0
LINE
  5
ED3
330
D89
100
AcDbEntity
  8
0
 62
     0
100
AcDbLine
 10
136.7078747547854
 20
123.1538673312708
 30
0.0
 11
134.2078747547854
 21
125.6538673312708
 31
0.0
  0
LINE
  5
ED4
330
D89
100
AcDbEntity
  8
0
 62
     0
100
AcDbLine
 10
90.08794192229805
 20
169.7738001637581
 30
0.0
 11
87.70787475478542
 21
172.1538673312708
 31
0.0
  0
LINE
  5
ED5
330
D89
100
AcDbEntity
  8
0
 62
     0
100
AcDbLine
 10
136.7078747547854
 20
121.3861003783044
 30
0.0
 11
134.2078747547854
 21
123.8861003783044
 31
0.0
  0
LINE
  5
ED6
330
D89
100
AcDbEntity
  8
0
 62
     0
100
AcDbLine
 10
88.27263960523266
 20
169.8213355278572
 30
0.0
 11
87.70787475478542
 21
170.3861003783044
 31
0.0
  0
LINE
  5
ED7
330
D89
100
AcDbEntity
  8
0
 62
     0
100
AcDbLine
 10
135.9598831637637
 20
120.3663250163597
 30
0.0
 11
133.5023979083474
 21
122.823810271776
 31
0.0
  0
LINE
  5
ED8
330
D89
100
AcDbEntity
  8
0
 62
     0
100
AcDbLine
 10
134.2224433358033
 20
120.3359978913538
 30
0.0
 11
131.7649580803869
 21
122.7934831467701
 31
0.0
  0
LINE
  5
ED9
330
D89
100
AcDbEntity
  8
0
 62
     0
100
AcDbLine
 10
132.4850035078428
 20
120.3056707663478
 30
0.0
 11
130.0275182524265
 21
122.7631560217642
 31
0.0
  0
LINE
  5
EDA
330
D89
100
AcDbEntity
  8
0
 62
     0
100
AcDbLine
 10
130.7475636798824
 20
120.2753436413419
 30
0.0
 11
128.290078424466
 21
122.7328288967582
 31
0.0
  0
LINE
  5
EDB
330
D89
100
AcDbEntity
  8
0
 62
     0
100
AcDbLine
 10
129.010123851922
 20
120.245016516336
 30
0.0
 11
126.5526385965056
 21
122.7025017717523
 31
0.0
  0
LINE
  5
EDC
330
D89
100
AcDbEntity
  8
0
 62
     0
100
AcDbLine
 10
127.2726840239615
 20
120.2146893913301
 30
0.0
 11
124.8151987685451
 21
122.6721746467464
 31
0.0
  0
LINE
  5
EDD
330
D89
100
AcDbEntity
  8
0
 62
     0
100
AcDbLine
 10
125.5352441960011
 20
120.1843622663242
 30
0.0
 11
123.0777589405847
 21
122.6418475217405
 31
0.0
  0
LINE
  5
EDE
330
D89
100
AcDbEntity
  8
0
 62
     0
100
AcDbLine
 10
123.7978043680406
 20
120.1540351413182
 30
0.0
 11
121.3403191126243
 21
122.6115203967346
 31
0.0
  0
LINE
  5
EDF
330
D89
100
AcDbEntity
  8
0
 62
     0
100
AcDbLine
 10
122.0603645400802
 20
120.1237080163123
 30
0.0
 11
119.6028792846638
 21
122.5811932717286
 31
0.0
  0
LINE
  5
EE0
330
D89
100
AcDbEntity
  8
0
 62
     0
100
AcDbLine
 10
120.3229247121197
 20
120.0933808913064
 30
0.0
 11
117.8654394567034
 21
122.5508661467227
 31
0.0
  0
LINE
  5
EE1
330
D89
100
AcDbEntity
  8
0
 62
     0
100
AcDbLine
 10
118.5854848841592
 20
120.0630537663005
 30
0.0
 11
116.1279996287429
 21
122.5205390217168
 31
0.0
  0
LINE
  5
EE2
330
D89
100
AcDbEntity
  8
0
 62
     0
100
AcDbLine
 10
116.8480450561988
 20
120.0327266412946
 30
0.0
 11
114.3905598007824
 21
122.4902118967109
 31
0.0
  0
LINE
  5
EE3
330
D89
100
AcDbEntity
  8
0
 62
     0
100
AcDbLine
 10
115.1106052282383
 20
120.0023995162886
 30
0.0
 11
112.653119972822
 21
122.459884771705
 31
0.0
  0
LINE
  5
EE4
330
D89
100
AcDbEntity
  8
0
 62
     0
100
AcDbLine
 10
137.7078747547854
 20
95.63736303677528
 30
0.0
 11
136.3697363378921
 21
96.97550145366859
 31
0.0
  0
LINE
  5
EE5
330
D89
100
AcDbEntity
  8
0
 62
     0
100
AcDbLine
 10
113.3731654002779
 20
119.9720723912827
 30
0.0
 11
110.9156801448615
 21
122.4295576466991
 31
0.0
  0
LINE
  5
EE6
330
D89
100
AcDbEntity
  8
0
 62
     0
100
AcDbLine
 10
137.7078747547854
 20
93.86959608380889
 30
0.0
 11
134.2235364362771
 21
97.35393440231716
 31
0.0
  0
LINE
  5
EE7
330
D89
100
AcDbEntity
  8
0
 62
     0
100
AcDbLine
 10
111.6357255723175
 20
119.9417452662768
 30
0.0
 11
109.1782403169011
 21
122.3992305216931
 31
0.0
  0
LINE
  5
EE8
330
D89
100
AcDbEntity
  8
0
 62
     0
100
AcDbLine
 10
137.7078747547854
 20
92.10182913084253
 30
0.0
 11
135.2078747547854
 21
94.60182913084247
 31
0.0
  0
LINE
  5
EE9
330
D89
100
AcDbEntity
  8
0
 62
     0
100
AcDbLine
 10
109.898285744357
 20
119.9114181412709
 30
0.0
 11
107.4408004889407
 21
122.3689033966872
 31
0.0
  0
LINE
  5
EEA
330
D89
100
AcDbEntity
  8
0
 62
     0
100
AcDbLine
 10
135.1593441642163
 20
94.65035972141162
 30
0.0
 11
132.0773365346622
 21
97.73236735096572
 31
0.0
  0
LINE
  5
EEB
330
D89
100
AcDbEntity
  8
0
 62
     0
100
AcDbLine
 10
137.7078747547854
 20
90.33406217787616
 30
0.0
 11
135.2078747547854
 21
92.83406217787611
 31
0.0
  0
LINE
  5
EEC
330
D89
100
AcDbEntity
  8
0
 62
     0
100
AcDbLine
 10
108.1608459163966
 20
119.881091016265
 30
0.0
 11
105.7033606609802
 21
122.3385762716813
 31
0.0
  0
LINE
  5
EED
330
D89
100
AcDbEntity
  8
0
 62
     0
100
AcDbLine
 10
133.0131442626014
 20
95.02879267006019
 30
0.0
 11
129.9311366330473
 21
98.11080029961429
 31
0.0
  0
LINE
  5
EEE
330
D89
100
AcDbEntity
  8
0
 62
     0
100
AcDbLine
 10
135.4268456598628
 20
90.84732431983239
 30
0.0
 11
135.2078747547854
 21
91.06629522490974
 31
0.0
  0
LINE
  5
EEF
330
D89
100
AcDbEntity
  8
0
 62
     0
100
AcDbLine
 10
106.4234060884361
 20
119.850763891259
 30
0.0
 11
103.9659208330198
 21
122.3082491466754
 31
0.0
  0
LINE
  5
EF0
330
D89
100
AcDbEntity
  8
0
 62
     0
100
AcDbLine
 10
130.8669443609864
 20
95.40722561870875
 30
0.0
 11
127.7849367314323
 21
98.48923324826285
 31
0.0
  0
LINE
  5
EF1
330
D89
100
AcDbEntity
  8
0
 62
     0
100
AcDbLine
 10
128.7207444593715
 20
95.78565856735732
 30
0.0
 11
125.6387368298174
 21
98.86766619691142
 31
0.0
  0
LINE
  5
EF2
330
D89
100
AcDbEntity
  8
0
 62
     0
100
AcDbLine
 10
104.6859662604757
 20
119.8204367662531
 30
0.0
 11
102.2284810050593
 21
122.2779220216695
 31
0.0
  0
LINE
  5
EF3
330
D89
100
AcDbEntity
  8
0
 62
     0
100
AcDbLine
 10
126.5745445577565
 20
96.16409151600588
 30
0.0
 11
123.4925369282025
 21
99.24609914555999
 31
0.0
  0
LINE
  5
EF4
330
D89
100
AcDbEntity
  8
0
 62
     0
100
AcDbLine
 10
102.9485264325152
 20
119.7901096412472
 30
0.0
 11
100.4910411770989
 21
122.2475948966635
 31
0.0
  0
LINE
  5
EF5
330
D89
100
AcDbEntity
  8
0
 62
     0
100
AcDbLine
 10
124.4283446561416
 20
96.54252446465445
 30
0.0
 11
121.3463370265875
 21
99.62453209420855
 31
0.0
  0
LINE
  5
EF6
330
D89
100
AcDbEntity
  8
0
 62
     0
100
AcDbLine
 10
101.2110866045548
 20
119.7597825162413
 30
0.0
 11
98.75360134913844
 21
122.2172677716576
 31
0.0
  0
LINE
  5
EF7
330
D89
100
AcDbEntity
  8
0
 62
     0
100
AcDbLine
 10
122.2821447545267
 20
96.92095741330302
 30
0.0
 11
119.2001371249726
 21
100.0029650428571
 31
0.0
  0
LINE
  5
EF8
330
D89
100
AcDbEntity
  8
0
 62
     0
100
AcDbLine
 10
99.47364677659434
 20
119.7294553912354
 30
0.0
 11
97.016161521178
 21
122.1869406466517
 31
0.0
  0
LINE
  5
EF9
330
D89
100
AcDbEntity
  8
0
 62
     0
100
AcDbLine
 10
120.1359448529117
 20
97.29939036195158
 30
0.0
 11
117.0539372233577
 21
100.3813979915056
 31
0.0
  0
LINE
  5
EFA
330
D89
100
AcDbEntity
  8
0
 62
     0
100
AcDbLine
 10
97.73620694863389
 20
119.6991282662294
 30
0.0
 11
95.27872169321753
 21
122.1566135216458
 31
0.0
  0
LINE
  5
EFB
330
D89
100
AcDbEntity
  8
0
 62
     0
100
AcDbLine
 10
117.9897449512968
 20
97.67782331060015
 30
0.0
 11
114.9077373217427
 21
100.7598309401542
 31
0.0
  0
LINE
  5
EFC
330
D89
100
AcDbEntity
  8
0
 62
     0
100
AcDbLine
 10
95.99876712067343
 20
119.6688011412235
 30
0.0
 11
93.54128186525709
 21
122.1262863966398
 31
0.0
  0
LINE
  5
EFD
330
D89
100
AcDbEntity
  8
0
 62
     0
100
AcDbLine
 10
115.8435450496819
 20
98.05625625924871
 30
0.0
 11
112.7615374201278
 21
101.1382638888028
 31
0.0
  0
LINE
  5
EFE
330
D89
100
AcDbEntity
  8
0
 62
     0
100
AcDbLine
 10
94.26132729271298
 20
119.6384740162176
 30
0.0
 11
91.80384203729664
 21
122.0959592716339
 31
0.0
  0
LINE
  5
EFF
330
D89
100
AcDbEntity
  8
0
 62
     0
100
AcDbLine
 10
113.6973451480669
 20
98.43468920789728
 30
0.0
 11
110.6153375185128
 21
101.5166968374513
 31
0.0
  0
LINE
  5
F00
330
D89
100
AcDbEntity
  8
0
 62
     0
100
AcDbLine
 10
92.52388746475253
 20
119.6081468912117
 30
0.0
 11
90.06640220933618
 21
122.065632146628
 31
0.0
  0
LINE
  5
F01
330
D89
100
AcDbEntity
  8
0
 62
     0
100
AcDbLine
 10
111.551145246452
 20
98.81312215654585
 30
0.0
 11
108.4691376168979
 21
101.8951297860999
 31
0.0
  0
LINE
  5
F02
330
D89
100
AcDbEntity
  8
0
 62
     0
100
AcDbLine
 10
90.78644763679209
 20
119.5778197662058
 30
0.0
 11
88.32896238137575
 21
122.0353050216221
 31
0.0
  0
LINE
  5
F03
330
D89
100
AcDbEntity
  8
0
 62
     0
100
AcDbLine
 10
109.4049453448371
 20
99.19155510519441
 30
0.0
 11
106.322937715283
 21
102.2735627347485
 31
0.0
  0
LINE
  5
F04
330
D89
100
AcDbEntity
  8
0
 62
     0
100
AcDbLine
 10
89.04900780883163
 20
119.5474926411998
 30
0.0
 11
86.59152255341529
 21
122.0049778966162
 31
0.0
  0
LINE
  5
F05
330
D89
100
AcDbEntity
  8
0
 62
     0
100
AcDbLine
 10
107.2587454432221
 20
99.56998805384296
 30
0.0
 11
104.176737813668
 21
102.651995683397
 31
0.0
  0
LINE
  5
F06
330
D89
100
AcDbEntity
  8
0
 62
     0
100
AcDbLine
 10
87.31156798087118
 20
119.5171655161939
 30
0.0
 11
84.85408272545484
 21
121.9746507716102
 31
0.0
  0
LINE
  5
F07
330
D89
100
AcDbEntity
  8
0
 62
     0
100
AcDbLine
 10
105.1125455416072
 20
99.94842100249153
 30
0.0
 11
102.0305379120531
 21
103.0304286320456
 31
0.0
  0
LINE
  5
F08
330
D89
100
AcDbEntity
  8
0
 62
     0
100
AcDbLine
 10
85.57412815291073
 20
119.486838391188
 30
0.0
 11
83.1166428974944
 21
121.9443236466043
 31
0.0
  0
LINE
  5
F09
330
D89
100
AcDbEntity
  8
0
 62
     0
100
AcDbLine
 10
102.9663456399923
 20
100.3268539511401
 30
0.0
 11
99.8843380104382
 21
103.4088615806942
 31
0.0
  0
LINE
  5
F0A
330
D89
100
AcDbEntity
  8
0
 62
     0
100
AcDbLine
 10
83.83668832495029
 20
119.4565112661821
 30
0.0
 11
81.37920306953395
 21
121.9139965215984
 31
0.0
  0
LINE
  5
F0B
330
D89
100
AcDbEntity
  8
0
 62
     0
100
AcDbLine
 10
100.8201457383773
 20
100.7052868997886
 30
0.0
 11
97.73813810882327
 21
103.7872945293427
 31
0.0
  0
LINE
  5
F0C
330
D89
100
AcDbEntity
  8
0
 62
     0
100
AcDbLine
 10
82.09924849698984
 20
119.4261841411762
 30
0.0
 11
79.64176324157349
 21
121.8836693965925
 31
0.0
  0
LINE
  5
F0D
330
D89
100
AcDbEntity
  8
0
 62
     0
100
AcDbLine
 10
98.67394583676242
 20
101.0837198484372
 30
0.0
 11
95.59193820720834
 21
104.1657274779913
 31
0.0
  0
LINE
  5
F0E
330
D89
100
AcDbEntity
  8
0
 62
     0
100
AcDbLine
 10
80.36180866902938
 20
119.3958570161703
 30
0.0
 11
77.90432341361306
 21
121.8533422715866
 31
0.0
  0
LINE
  5
F0F
330
D89
100
AcDbEntity
  8
0
 62
     0
100
AcDbLine
 10
96.52774593514749
 20
101.4621527970858
 30
0.0
 11
93.44573830559339
 21
104.5441604266399
 31
0.0
  0
LINE
  5
F10
330
D89
100
AcDbEntity
  8
0
 62
     0
100
AcDbLine
 10
78.62436884106895
 20
119.3655298911643
 30
0.0
 11
76.16688358565261
 21
121.8230151465806
 31
0.0
  0
LINE
  5
F11
330
D89
100
AcDbEntity
  8
0
 62
     0
100
AcDbLine
 10
94.38154603353254
 20
101.8405857457343
 30
0.0
 11
91.29953840397845
 21
104.9225933752884
 31
0.0
  0
LINE
  5
F12
330
D89
100
AcDbEntity
  8
0
 62
     0
100
AcDbLine
 10
76.88692901310848
 20
119.3352027661584
 30
0.0
 11
74.42944375769215
 21
121.7926880215747
 31
0.0
  0
LINE
  5
F13
330
D89
100
AcDbEntity
  8
0
 62
     0
100
AcDbLine
 10
92.23534613191761
 20
102.2190186943829
 30
0.0
 11
89.15333850236352
 21
105.301026323937
 31
0.0
  0
LINE
  5
F14
330
D89
100
AcDbEntity
  8
0
 62
     0
100
AcDbLine
 10
75.14948918514804
 20
119.3048756411525
 30
0.0
 11
72.69200392973171
 21
121.7623608965688
 31
0.0
  0
LINE
  5
F15
330
D89
100
AcDbEntity
  8
0
 62
     0
100
AcDbLine
 10
90.08914623030268
 20
102.5974516430315
 30
0.0
 11
87.00713860074859
 21
105.6794592725856
 31
0.0
  0
LINE
  5
F16
330
D89
100
AcDbEntity
  8
0
 62
     0
100
AcDbLine
 10
73.41204935718758
 20
119.2745485161466
 30
0.0
 11
70.95456410177127
 21
121.7320337715629
 31
0.0
  0
LINE
  5
F17
330
D89
100
AcDbEntity
  8
0
 62
     0
100
AcDbLine
 10
87.94294632868774
 20
102.97588459168
 30
0.0
 11
84.86093869913366
 21
106.0578922212341
 31
0.0
  0
LINE
  5
F18
330
D89
100
AcDbEntity
  8
0
 62
     0
100
AcDbLine
 10
71.67460952922714
 20
119.2442213911407
 30
0.0
 11
69.21712427381081
 21
121.701706646557
 31
0.0
  0
LINE
  5
F19
330
D89
100
AcDbEntity
  8
0
 62
     0
100
AcDbLine
 10
85.7967464270728
 20
103.3543175403286
 30
0.0
 11
82.71473879751871
 21
106.4363251698827
 31
0.0
  0
LINE
  5
F1A
330
D89
100
AcDbEntity
  8
0
 62
     0
100
AcDbLine
 10
69.93716970126668
 20
119.2138942661347
 30
0.0
 11
67.47968444585037
 21
121.671379521551
 31
0.0
  0
LINE
  5
F1B
330
D89
100
AcDbEntity
  8
0
 62
     0
100
AcDbLine
 10
83.65054652545786
 20
103.7327504889772
 30
0.0
 11
80.56853889590378
 21
106.8147581185313
 31
0.0
  0
LINE
  5
F1C
330
D89
100
AcDbEntity
  8
0
 62
     0
100
AcDbLine
 10
68.19972987330624
 20
119.1835671411288
 30
0.0
 11
65.74224461788992
 21
121.6410523965451
 31
0.0
  0
LINE
  5
F1D
330
D89
100
AcDbEntity
  8
0
 62
     0
100
AcDbLine
 10
81.50434662384293
 20
104.1111834376257
 30
0.0
 11
78.42233899428885
 21
107.1931910671798
 31
0.0
  0
LINE
  5
F1E
330
D89
100
AcDbEntity
  8
0
 62
     0
100
AcDbLine
 10
66.46229004534579
 20
119.1532400161229
 30
0.0
 11
64.00480478992946
 21
121.6107252715392
 31
0.0
  0
LINE
  5
F1F
330
D89
100
AcDbEntity
  8
0
 62
     0
100
AcDbLine
 10
79.358146722228
 20
104.4896163862743
 30
0.0
 11
76.27613909267392
 21
107.5716240158284
 31
0.0
  0
LINE
  5
F20
330
D89
100
AcDbEntity
  8
0
 62
     0
100
AcDbLine
 10
64.72485021738534
 20
119.122912891117
 30
0.0
 11
62.26736496196902
 21
121.5803981465333
 31
0.0
  0
LINE
  5
F21
330
D89
100
AcDbEntity
  8
0
 62
     0
100
AcDbLine
 10
77.21194682061306
 20
104.8680493349229
 30
0.0
 11
74.12993919105898
 21
107.950056964477
 31
0.0
  0
LINE
  5
F22
330
D89
100
AcDbEntity
  8
0
 62
     0
100
AcDbLine
 10
62.98741038942488
 20
119.0925857661111
 30
0.0
 11
60.52992513400857
 21
121.5500710215274
 31
0.0
  0
LINE
  5
F23
330
D89
100
AcDbEntity
  8
0
 62
     0
100
AcDbLine
 10
75.06574691899813
 20
105.2464822835714
 30
0.0
 11
71.98373928944405
 21
108.3284899131255
 31
0.0
  0
LINE
  5
F24
330
D89
100
AcDbEntity
  8
0
 62
     0
100
AcDbLine
 10
55.50787475478546
 20
124.8043544477841
 30
0.0
 11
55.47610478663361
 21
124.836124415936
 31
0.0
  0
LINE
  5
F25
330
D89
100
AcDbEntity
  8
0
 62
     0
100
AcDbLine
 10
61.24997056146444
 20
119.0622586411051
 30
0.0
 11
58.79248530604812
 21
121.5197438965214
 31
0.0
  0
LINE
  5
F26
330
D89
100
AcDbEntity
  8
0
 62
     0
100
AcDbLine
 10
72.91954701738321
 20
105.62491523222
 30
0.0
 11
69.83753938782911
 21
108.7069228617741
 31
0.0
  0
LINE
  5
F27
330
D89
100
AcDbEntity
  8
0
 62
     0
100
AcDbLine
 10
55.93376440987313
 20
122.6106978397301
 30
0.0
 11
54.70787475478545
 21
123.8365874948178
 31
0.0
  0
LINE
  5
F28
330
D89
100
AcDbEntity
  8
0
 62
     0
100
AcDbLine
 10
59.51681339176904
 20
119.0276488578342
 30
0.0
 11
56.61214330599996
 21
121.9323189436032
 31
0.0
  0
LINE
  5
F29
330
D89
100
AcDbEntity
  8
0
 62
     0
100
AcDbLine
 10
70.77334711576828
 20
106.0033481808686
 30
0.0
 11
67.69133948621417
 21
109.0853558104227
 31
0.0
  0
LINE
  5
F2A
330
D89
100
AcDbEntity
  8
0
 62
     0
100
AcDbLine
 10
58.22730706750927
 20
118.5493882291275
 30
0.0
 11
54.70787475478545
 21
122.0688205418514
 31
0.0
  0
LINE
  5
F2B
330
D89
100
AcDbEntity
  8
0
 62
     0
100
AcDbLine
 10
68.62714721415334
 20
106.3817811295171
 30
0.0
 11
65.54513958459924
 21
109.4637887590712
 31
0.0
  0
LINE
  5
F2C
330
D89
100
AcDbEntity
  8
0
 62
     0
100
AcDbLine
 10
57.43430777465338
 20
117.5746205690171
 30
0.0
 11
54.70787475478545
 21
120.301053588885
 31
0.0
  0
LINE
  5
F2D
330
D89
100
AcDbEntity
  8
0
 62
     0
100
AcDbLine
 10
66.4809473125384
 20
106.7602140781657
 30
0.0
 11
63.3989396829843
 21
109.8422217077198
 31
0.0
  0
LINE
  5
F2E
330
D89
100
AcDbEntity
  8
0
 62
     0
100
AcDbLine
 10
57.20787475478545
 20
116.0332866359186
 30
0.0
 11
54.70787475478545
 21
118.5332866359186
 31
0.0
  0
LINE
  5
F2F
330
D89
100
AcDbEntity
  8
0
 62
     0
100
AcDbLine
 10
64.33474741092346
 20
107.1386470268143
 30
0.0
 11
61.25273978136937
 21
110.2206546563684
 31
0.0
  0
LINE
  5
F30
330
D89
100
AcDbEntity
  8
0
 62
     0
100
AcDbLine
 10
57.20787475478545
 20
114.2655196829523
 30
0.0
 11
54.70787475478545
 21
116.7655196829523
 31
0.0
  0
LINE
  5
F31
330
D89
100
AcDbEntity
  8
0
 62
     0
100
AcDbLine
 10
62.18854750930855
 20
107.5170799754628
 30
0.0
 11
59.09863386034266
 21
110.6069936244287
 31
0.0
  0
LINE
  5
F32
330
D89
100
AcDbEntity
  8
0
 62
     0
100
AcDbLine
 10
57.2832458073918
 20
112.4223816773796
 30
0.0
 11
54.70787475478545
 21
114.9977527299859
 31
0.0
  0
LINE
  5
F33
330
D89
100
AcDbEntity
  8
0
 62
     0
100
AcDbLine
 10
60.04234760769362
 20
107.8955129241114
 30
0.0
 11
54.70787475478545
 21
113.2299857770196
 31
0.0
  0
LINE
  5
F34
330
D89
100
AcDbEntity
  8
0
 62
     0
100
AcDbLine
 10
57.89614770607869
 20
108.27394587276
 30
0.0
 11
54.70787475478545
 21
111.4622188240532
 31
0.0
  0
LINE
  5
F35
330
D89
100
AcDbEntity
  8
0
 62
     0
100
AcDbLine
 10
55.7062066060177
 20
108.6961200198546
 30
0.0
 11
54.82531094882041
 21
109.5770156770518
 31
0.0
  0
LINE
  5
F36
330
D89
100
AcDbEntity
  8
0
 62
     0
100
AcDbLine
 10
136.7078747547854
 20
135.5282360020354
 30
0.0
 11
132.7078747547854
 21
139.5282360020354
 31
0.0
  0
LINE
  5
F37
330
D89
100
AcDbEntity
  8
0
 62
     0
100
AcDbLine
 10
95.09338267195238
 20
177.1427280848684
 30
0.0
 11
92.28025436697542
 21
179.9558563898453
 31
0.0
  0
LINE
  5
F38
330
D89
100
AcDbEntity
  8
0
 62
     0
100
AcDbLine
 10
102.7950581417559
 20
169.4410526150648
 30
0.0
 11
99.58887149215627
 21
172.6472392646645
 31
0.0
  0
LINE
  5
F39
330
D89
100
AcDbEntity
  8
0
 62
     0
100
AcDbLine
 10
136.7078747547854
 20
137.2960029550017
 30
0.0
 11
132.7078747547854
 21
141.2960029550017
 31
0.0
  0
LINE
  5
F3A
330
D89
100
AcDbEntity
  8
0
 62
     0
100
AcDbLine
 10
96.90868498901778
 20
177.0951927207694
 30
0.0
 11
94.00291194374593
 21
180.0009657660412
 31
0.0
  0
LINE
  5
F3B
330
D89
100
AcDbEntity
  8
0
 62
     0
100
AcDbLine
 10
104.6103604588213
 20
169.3935172509658
 30
0.0
 11
101.3115290689267
 21
172.6923486408604
 31
0.0
  0
LINE
  5
F3C
330
D89
100
AcDbEntity
  8
0
 62
     0
100
AcDbLine
 10
136.7078747547854
 20
139.0637699079681
 30
0.0
 11
132.7078747547854
 21
143.0637699079681
 31
0.0
  0
LINE
  5
F3D
330
D89
100
AcDbEntity
  8
0
 62
     0
100
AcDbLine
 10
98.72398730608319
 20
177.0476573566703
 30
0.0
 11
95.72556952051641
 21
180.0460751422371
 31
0.0
  0
LINE
  5
F3E
330
D89
100
AcDbEntity
  8
0
 62
     0
100
AcDbLine
 10
106.4256627758867
 20
169.3459818868667
 30
0.0
 11
103.0341866456972
 21
172.7374580170562
 31
0.0
  0
LINE
  5
F3F
330
D89
100
AcDbEntity
  8
0
 62
     0
100
AcDbLine
 10
136.7078747547854
 20
140.8315368609345
 30
0.0
 11
132.7078747547854
 21
144.8315368609345
 31
0.0
  0
LINE
  5
F40
330
D89
100
AcDbEntity
  8
0
 62
     0
100
AcDbLine
 10
100.5392896231486
 20
177.0001219925713
 30
0.0
 11
97.44822709728691
 21
180.0911845184329
 31
0.0
  0
LINE
  5
F41
330
D89
100
AcDbEntity
  8
0
 62
     0
100
AcDbLine
 10
108.2409650929521
 20
169.2984465227677
 30
0.0
 11
104.7568442224677
 21
172.7825673932521
 31
0.0
  0
LINE
  5
F42
330
D89
100
AcDbEntity
  8
0
 62
     0
100
AcDbLine
 10
136.7078747547854
 20
142.5993038139008
 30
0.0
 11
132.7078747547854
 21
146.5993038139008
 31
0.0
  0
LINE
  5
F43
330
D89
100
AcDbEntity
  8
0
 62
     0
100
AcDbLine
 10
102.354591940214
 20
176.9525866284722
 30
0.0
 11
99.1708846740574
 21
180.1362938946288
 31
0.0
  0
LINE
  5
F44
330
D89
100
AcDbEntity
  8
0
 62
     0
100
AcDbLine
 10
110.0562674100175
 20
169.2509111586687
 30
0.0
 11
106.4795017992382
 21
172.827676769448
 31
0.0
  0
LINE
  5
F45
330
D89
100
AcDbEntity
  8
0
 62
     0
100
AcDbLine
 10
136.7078747547854
 20
144.3670707668672
 30
0.0
 11
132.7078747547854
 21
148.3670707668672
 31
0.0
  0
LINE
  5
F46
330
D89
100
AcDbEntity
  8
0
 62
     0
100
AcDbLine
 10
55.50787475478546
 20
225.5670707668672
 30
0.0
 11
54.70787475478545
 21
226.3670707668672
 31
0.0
  0
LINE
  5
F47
330
D89
100
AcDbEntity
  8
0
 62
     0
100
AcDbLine
 10
111.8715697270829
 20
169.2033757945696
 30
0.0
 11
108.2021593760087
 21
172.8727861456439
 31
0.0
  0
LINE
  5
F48
330
D89
100
AcDbEntity
  8
0
 62
     0
100
AcDbLine
 10
104.1698942572794
 20
176.9050512643732
 30
0.0
 11
100.8935422508279
 21
180.1814032708247
 31
0.0
  0
LINE
  5
F49
330
D89
100
AcDbEntity
  8
0
 62
     0
100
AcDbLine
 10
136.7078747547854
 20
146.1348377198336
 30
0.0
 11
132.7078747547854
 21
150.1348377198336
 31
0.0
  0
LINE
  5
F4A
330
D89
100
AcDbEntity
  8
0
 62
     0
100
AcDbLine
 10
55.87413842916642
 20
226.9685740454526
 30
0.0
 11
54.70787475478545
 21
228.1348377198336
 31
0.0
  0
LINE
  5
F4B
330
D89
100
AcDbEntity
  8
0
 62
     0
100
AcDbLine
 10
113.6868720441484
 20
169.1558404304706
 30
0.0
 11
109.9248169527792
 21
172.9178955218398
 31
0.0
  0
LINE
  5
F4C
330
D89
100
AcDbEntity
  8
0
 62
     0
100
AcDbLine
 10
105.9851965743448
 20
176.8575159002742
 30
0.0
 11
102.6161998275983
 21
180.2265126470206
 31
0.0
  0
LINE
  5
F4D
330
D89
100
AcDbEntity
  8
0
 62
     0
100
AcDbLine
 10
136.7078747547854
 20
147.9026046728
 30
0.0
 11
132.7078747547854
 21
151.9026046727999
 31
0.0
  0
LINE
  5
F4E
330
D89
100
AcDbEntity
  8
0
 62
     0
100
AcDbLine
 10
56.77168279379063
 20
227.8387966337947
 30
0.0
 11
54.70787475478545
 21
229.9026046727999
 31
0.0
  0
LINE
  5
F4F
330
D89
100
AcDbEntity
  8
0
 62
     0
100
AcDbLine
 10
115.5021743612137
 20
169.1083050663716
 30
0.0
 11
111.6474745295497
 21
172.9630048980357
 31
0.0
  0
LINE
  5
F50
330
D89
100
AcDbEntity
  8
0
 62
     0
100
AcDbLine
 10
107.8004988914102
 20
176.8099805361751
 30
0.0
 11
104.3388574043689
 21
180.2716220232165
 31
0.0
  0
LINE
  5
F51
330
D89
100
AcDbEntity
  8
0
 62
     0
100
AcDbLine
 10
136.7078747547854
 20
149.6703716257663
 30
0.0
 11
132.7078747547854
 21
153.6703716257663
 31
0.0
  0
LINE
  5
F52
330
D89
100
AcDbEntity
  8
0
 62
     0
100
AcDbLine
 10
58.21567315159383
 20
228.1625732289579
 30
0.0
 11
54.70787475478545
 21
231.6703716257663
 31
0.0
  0
LINE
  5
F53
330
D89
100
AcDbEntity
  8
0
 62
     0
100
AcDbLine
 10
117.3174766782792
 20
169.0607697022725
 30
0.0
 11
113.3701321063202
 21
173.0081142742315
 31
0.0
  0
LINE
  5
F54
330
D89
100
AcDbEntity
  8
0
 62
     0
100
AcDbLine
 10
109.6158012084756
 20
176.7624451720761
 30
0.0
 11
106.0615149811393
 21
180.3167313994124
 31
0.0
  0
LINE
  5
F55
330
D89
100
AcDbEntity
  8
0
 62
     0
100
AcDbLine
 10
136.7078747547854
 20
151.4381385787327
 30
0.0
 11
132.7078747547854
 21
155.4381385787327
 31
0.0
  0
LINE
  5
F56
330
D89
100
AcDbEntity
  8
0
 62
     0
100
AcDbLine
 10
60.01484476183396
 20
228.1311685716841
 30
0.0
 11
54.70787475478545
 21
233.4381385787327
 31
0.0
  0
LINE
  5
F57
330
D89
100
AcDbEntity
  8
0
 62
     0
100
AcDbLine
 10
119.1327789953446
 20
169.0132343381735
 30
0.0
 11
115.0927896830906
 21
173.0532236504274
 31
0.0
  0
LINE
  5
F58
330
D89
100
AcDbEntity
  8
0
 62
     0
100
AcDbLine
 10
111.431103525541
 20
176.714909807977
 30
0.0
 11
107.7841725579098
 21
180.3618407756083
 31
0.0
  0
LINE
  5
F59
330
D89
100
AcDbEntity
  8
0
 62
     0
100
AcDbLine
 10
136.7078747547854
 20
153.2059055316991
 30
0.0
 11
132.7078747547854
 21
157.2059055316991
 31
0.0
  0
LINE
  5
F5A
330
D89
100
AcDbEntity
  8
0
 62
     0
100
AcDbLine
 10
57.25387738467549
 20
232.659902901809
 30
0.0
 11
54.70787475478545
 21
235.2059055316991
 31
0.0
  0
LINE
  5
F5B
330
D89
100
AcDbEntity
  8
0
 62
     0
100
AcDbLine
 10
120.94808131241
 20
168.9656989740744
 30
0.0
 11
116.8154472598611
 21
173.0983330266233
 31
0.0
  0
LINE
  5
F5C
330
D89
100
AcDbEntity
  8
0
 62
     0
100
AcDbLine
 10
61.81401637207407
 20
228.0997639144104
 30
0.0
 11
59.23048926328668
 21
230.6832910231978
 31
0.0
  0
LINE
  5
F5D
330
D89
100
AcDbEntity
  8
0
 62
     0
100
AcDbLine
 10
113.2464058426064
 20
176.667374443878
 30
0.0
 11
109.5068301346803
 21
180.4069501518041
 31
0.0
  0
LINE
  5
F5E
330
D89
100
AcDbEntity
  8
0
 62
     0
100
AcDbLine
 10
136.2520314062283
 20
155.4295158332225
 30
0.0
 11
132.7078747547854
 21
158.9736724846654
 31
0.0
  0
LINE
  5
F5F
330
D89
100
AcDbEntity
  8
0
 62
     0
100
AcDbLine
 10
57.20787475478545
 20
234.4736724846654
 30
0.0
 11
54.70787475478545
 21
236.9736724846654
 31
0.0
  0
LINE
  5
F60
330
D89
100
AcDbEntity
  8
0
 62
     0
100
AcDbLine
 10
122.7633836294754
 20
168.9181636099754
 30
0.0
 11
118.5381048366316
 21
173.1434424028192
 31
0.0
  0
LINE
  5
F61
330
D89
100
AcDbEntity
  8
0
 62
     0
100
AcDbLine
 10
63.61318798231419
 20
228.0683592571366
 30
0.0
 11
61.06838750463718
 21
230.6131597348136
 31
0.0
  0
LINE
  5
F62
330
D89
100
AcDbEntity
  8
0
 62
     0
100
AcDbLine
 10
115.0617081596719
 20
176.619839079779
 30
0.0
 11
111.2294877114508
 21
180.452059528
 31
0.0
  0
LINE
  5
F63
330
D89
100
AcDbEntity
  8
0
 62
     0
100
AcDbLine
 10
133.8372168405056
 20
159.6120973519115
 30
0.0
 11
132.7078747547854
 21
160.7414394376318
 31
0.0
  0
LINE
  5
F64
330
D89
100
AcDbEntity
  8
0
 62
     0
100
AcDbLine
 10
57.20787475478545
 20
236.2414394376318
 30
0.0
 11
54.70787475478545
 21
238.7414394376318
 31
0.0
  0
LINE
  5
F65
330
D89
100
AcDbEntity
  8
0
 62
     0
100
AcDbLine
 10
124.5786859465408
 20
168.8706282458764
 30
0.0
 11
120.2607624134021
 21
173.188551779015
 31
0.0
  0
LINE
  5
F66
330
D89
100
AcDbEntity
  8
0
 62
     0
100
AcDbLine
 10
65.4123595925543
 20
228.0369545998629
 30
0.0
 11
62.8675591148773
 21
230.5817550775399
 31
0.0
  0
LINE
  5
F67
330
D89
100
AcDbEntity
  8
0
 62
     0
100
AcDbLine
 10
116.8770104767373
 20
176.5723037156799
 30
0.0
 11
112.9521452882213
 21
180.4971689041959
 31
0.0
  0
LINE
  5
F68
330
D89
100
AcDbEntity
  8
0
 62
     0
100
AcDbLine
 10
133.7078747547854
 20
161.5092063905981
 30
0.0
 11
132.7078747547854
 21
162.5092063905981
 31
0.0
  0
LINE
  5
F69
330
D89
100
AcDbEntity
  8
0
 62
     0
100
AcDbLine
 10
57.46735967624403
 20
237.7497214691395
 30
0.0
 11
54.92270356596464
 21
240.2943775794189
 31
0.0
  0
LINE
  5
F6A
330
D89
100
AcDbEntity
  8
0
 62
     0
100
AcDbLine
 10
126.3939882636062
 20
168.8230928817773
 30
0.0
 11
121.9834199901726
 21
173.2336611552109
 31
0.0
  0
LINE
  5
F6B
330
D89
100
AcDbEntity
  8
0
 62
     0
100
AcDbLine
 10
67.21153120279442
 20
228.0055499425891
 30
0.0
 11
64.66673072511742
 21
230.5503504202662
 31
0.0
  0
LINE
  5
F6C
330
D89
100
AcDbEntity
  8
0
 62
     0
100
AcDbLine
 10
118.6923127938027
 20
176.5247683515809
 30
0.0
 11
114.6748028649918
 21
180.5422782803917
 31
0.0
  0
LINE
  5
F6D
330
D89
100
AcDbEntity
  8
0
 62
     0
100
AcDbLine
 10
133.7078747547854
 20
163.2769733435645
 30
0.0
 11
132.7078747547854
 21
164.2769733435645
 31
0.0
  0
LINE
  5
F6E
330
D89
100
AcDbEntity
  8
0
 62
     0
100
AcDbLine
 10
58.28715048547856
 20
238.6976976128714
 30
0.0
 11
55.93527286389175
 21
241.0495752344582
 31
0.0
  0
LINE
  5
F6F
330
D89
100
AcDbEntity
  8
0
 62
     0
100
AcDbLine
 10
128.2092905806716
 20
168.7755575176783
 30
0.0
 11
123.7060775669431
 21
173.2787705314068
 31
0.0
  0
LINE
  5
F70
330
D89
100
AcDbEntity
  8
0
 62
     0
100
AcDbLine
 10
69.01070281303454
 20
227.9741452853154
 30
0.0
 11
66.46590233535753
 21
230.5189457629924
 31
0.0
  0
LINE
  5
F71
330
D89
100
AcDbEntity
  8
0
 62
     0
100
AcDbLine
 10
120.5076151108681
 20
176.4772329874818
 30
0.0
 11
116.3974604417623
 21
180.5873876565876
 31
0.0
  0
LINE
  5
F72
330
D89
100
AcDbEntity
  8
0
 62
     0
100
AcDbLine
 10
133.7078747547854
 20
165.0447402965309
 30
0.0
 11
132.7078747547854
 21
166.0447402965309
 31
0.0
  0
LINE
  5
F73
330
D89
100
AcDbEntity
  8
0
 62
     0
100
AcDbLine
 10
59.59357618352243
 20
239.1590388677939
 30
0.0
 11
57.43553120848887
 21
241.3170838428274
 31
0.0
  0
LINE
  5
F74
330
D89
100
AcDbEntity
  8
0
 62
     0
100
AcDbLine
 10
130.024592897737
 20
168.7280221535792
 30
0.0
 11
125.4287351437136
 21
173.3238799076027
 31
0.0
  0
LINE
  5
F75
330
D89
100
AcDbEntity
  8
0
 62
     0
100
AcDbLine
 10
70.80987442327465
 20
227.9427406280416
 30
0.0
 11
68.26507394559765
 21
230.4875411057186
 31
0.0
  0
LINE
  5
F76
330
D89
100
AcDbEntity
  8
0
 62
     0
100
AcDbLine
 10
122.3229174279335
 20
176.4296976233828
 30
0.0
 11
118.1201180185328
 21
180.6324970327835
 31
0.0
  0
LINE
  5
F77
330
D89
100
AcDbEntity
  8
0
 62
     0
100
AcDbLine
 10
133.7078747547854
 20
166.8125072494973
 30
0.0
 11
127.1513927204841
 21
173.3689892837985
 31
0.0
  0
LINE
  5
F78
330
D89
100
AcDbEntity
  8
0
 62
     0
100
AcDbLine
 10
61.09636153313815
 20
239.4240204711445
 30
0.0
 11
58.93831655810458
 21
241.5820654461781
 31
0.0
  0
LINE
  5
F79
330
D89
100
AcDbEntity
  8
0
 62
     0
100
AcDbLine
 10
124.1382197449989
 20
176.3821622592837
 30
0.0
 11
119.8427755953033
 21
180.6776064089794
 31
0.0
  0
LINE
  5
F7A
330
D89
100
AcDbEntity
  8
0
 62
     0
100
AcDbLine
 10
72.60904603351477
 20
227.9113359707679
 30
0.0
 11
70.06424555583777
 21
230.4561364484449
 31
0.0
  0
LINE
  5
F7B
330
D89
100
AcDbEntity
  8
0
 62
     0
100
AcDbLine
 10
134.0724772187007
 20
168.2156717385483
 30
0.0
 11
128.8740502972546
 21
173.4140986599944
 31
0.0
  0
LINE
  5
F7C
330
D89
100
AcDbEntity
  8
0
 62
     0
100
AcDbLine
 10
62.59914688275387
 20
239.6890020744952
 30
0.0
 11
60.4411019077203
 21
241.8470470495288
 31
0.0
  0
LINE
  5
F7D
330
D89
100
AcDbEntity
  8
0
 62
     0
100
AcDbLine
 10
125.9535220620643
 20
176.3346268951847
 30
0.0
 11
121.5654331720738
 21
180.7227157851752
 31
0.0
  0
LINE
  5
F7E
330
D89
100
AcDbEntity
  8
0
 62
     0
100
AcDbLine
 10
74.40821764375488
 20
227.8799313134942
 30
0.0
 11
71.86341716607788
 21
230.4247317911712
 31
0.0
  0
LINE
  5
F7F
330
D89
100
AcDbEntity
  8
0
 62
     0
100
AcDbLine
 10
135.2577845171432
 20
168.7981313930721
 30
0.0
 11
130.5967078740251
 21
173.4592080361903
 31
0.0
  0
LINE
  5
F80
330
D89
100
AcDbEntity
  8
0
 62
     0
100
AcDbLine
 10
64.10193223236958
 20
239.9539836778458
 30
0.0
 11
61.94388725733602
 21
242.1120286528794
 31
0.0
  0
LINE
  5
F81
330
D89
100
AcDbEntity
  8
0
 62
     0
100
AcDbLine
 10
127.7688243791297
 20
176.2870915310857
 30
0.0
 11
123.2880907488443
 21
180.7678251613711
 31
0.0
  0
LINE
  5
F82
330
D89
100
AcDbEntity
  8
0
 62
     0
100
AcDbLine
 10
76.207389253995
 20
227.8485266562204
 30
0.0
 11
73.662588776318
 21
230.3933271338974
 31
0.0
  0
LINE
  5
F83
330
D89
100
AcDbEntity
  8
0
 62
     0
100
AcDbLine
 10
136.7078747547854
 20
169.1158081083964
 30
0.0
 11
132.3193654507956
 21
173.5043174123862
 31
0.0
  0
LINE
  5
F84
330
D89
100
AcDbEntity
  8
0
 62
     0
100
AcDbLine
 10
65.6047175819853
 20
240.2189652811965
 30
0.0
 11
63.44667260695173
 21
242.3770102562301
 31
0.0
  0
LINE
  5
F85
330
D89
100
AcDbEntity
  8
0
 62
     0
100
AcDbLine
 10
129.5841266961951
 20
176.2395561669866
 30
0.0
 11
125.0107483256147
 21
180.812934537567
 31
0.0
  0
LINE
  5
F86
330
D89
100
AcDbEntity
  8
0
 62
     0
100
AcDbLine
 10
78.00656086423511
 20
227.8171219989467
 30
0.0
 11
75.46176038655811
 21
230.3619224766237
 31
0.0
  0
LINE
  5
F87
330
D89
100
AcDbEntity
  8
0
 62
     0
100
AcDbLine
 10
136.7078747547854
 20
170.8835750613627
 30
0.0
 11
134.042023027566
 21
173.5494267885821
 31
0.0
  0
LINE
  5
F88
330
D89
100
AcDbEntity
  8
0
 62
     0
100
AcDbLine
 10
67.107502931601
 20
240.4839468845472
 30
0.0
 11
64.94945795656744
 21
242.6419918595807
 31
0.0
  0
LINE
  5
F89
330
D89
100
AcDbEntity
  8
0
 62
     0
100
AcDbLine
 10
131.3994290132605
 20
176.1920208028876
 30
0.0
 11
126.7334059023852
 21
180.8580439137629
 31
0.0
  0
LINE
  5
F8A
330
D89
100
AcDbEntity
  8
0
 62
     0
100
AcDbLine
 10
79.80573247447523
 20
227.7857173416729
 30
0.0
 11
77.26093199679823
 21
230.3305178193499
 31
0.0
  0
LINE
  5
F8B
330
D89
100
AcDbEntity
  8
0
 62
     0
100
AcDbLine
 10
136.7078747547854
 20
172.6513420143291
 30
0.0
 11
135.7646806043365
 21
173.5945361647779
 31
0.0
  0
LINE
  5
F8C
330
D89
100
AcDbEntity
  8
0
 62
     0
100
AcDbLine
 10
68.61028828121672
 20
240.7489284878978
 30
0.0
 11
66.45224330618316
 21
242.9069734629314
 31
0.0
  0
LINE
  5
F8D
330
D89
100
AcDbEntity
  8
0
 62
     0
100
AcDbLine
 10
133.2147313303259
 20
176.1444854387886
 30
0.0
 11
128.4560634791557
 21
180.9031532899588
 31
0.0
  0
LINE
  5
F8E
330
D89
100
AcDbEntity
  8
0
 62
     0
100
AcDbLine
 10
81.60490408471535
 20
227.7543126843992
 30
0.0
 11
79.06010360703835
 21
230.2991131620762
 31
0.0
  0
LINE
  5
F8F
330
D89
100
AcDbEntity
  8
0
 62
     0
100
AcDbLine
 10
135.0300336473914
 20
176.0969500746895
 30
0.0
 11
130.1787210559262
 21
180.9482626661546
 31
0.0
  0
LINE
  5
F90
330
D89
100
AcDbEntity
  8
0
 62
     0
100
AcDbLine
 10
70.11307363083243
 20
241.0139100912485
 30
0.0
 11
67.95502865579887
 21
243.171955066282
 31
0.0
  0
LINE
  5
F91
330
D89
100
AcDbEntity
  8
0
 62
     0
100
AcDbLine
 10
83.40407569495546
 20
227.7229080271254
 30
0.0
 11
80.85927521727846
 21
230.2677085048024
 31
0.0
  0
LINE
  5
F92
330
D89
100
AcDbEntity
  8
0
 62
     0
100
AcDbLine
 10
136.7078747547854
 20
176.1868759202618
 30
0.0
 11
131.7756123891318
 21
181.1191382859154
 31
0.0
  0
LINE
  5
F93
330
D89
100
AcDbEntity
  8
0
 62
     0
100
AcDbLine
 10
71.61585898044815
 20
241.2788916945991
 30
0.0
 11
69.45781400541459
 21
243.4369366696327
 31
0.0
  0
LINE
  5
F94
330
D89
100
AcDbEntity
  8
0
 62
     0
100
AcDbLine
 10
85.20324730519558
 20
227.6915033698517
 30
0.0
 11
82.65844682751859
 21
230.2363038475287
 31
0.0
  0
LINE
  5
F95
330
D89
100
AcDbEntity
  8
0
 62
     0
100
AcDbLine
 10
136.7078747547854
 20
177.9546428732282
 30
0.0
 11
132.6180191644979
 21
182.0444984635157
 31
0.0
  0
LINE
  5
F96
330
D89
100
AcDbEntity
  8
0
 62
     0
100
AcDbLine
 10
73.11864433006386
 20
241.5438732979498
 30
0.0
 11
70.9605993550303
 21
243.7019182729833
 31
0.0
  0
LINE
  5
F97
330
D89
100
AcDbEntity
  8
0
 62
     0
100
AcDbLine
 10
87.00241891543569
 20
227.6600987125779
 30
0.0
 11
84.45761843775871
 21
230.2048991902549
 31
0.0
  0
LINE
  5
F98
330
D89
100
AcDbEntity
  8
0
 62
     0
100
AcDbLine
 10
136.7078747547854
 20
179.7224098261946
 30
0.0
 11
135.5642123099622
 21
180.8660722710177
 31
0.0
  0
LINE
  5
F99
330
D89
100
AcDbEntity
  8
0
 62
     0
100
AcDbLine
 10
74.62142967967958
 20
241.8088549013004
 30
0.0
 11
72.46338470464602
 21
243.966899876334
 31
0.0
  0
LINE
  5
F9A
330
D89
100
AcDbEntity
  8
0
 62
     0
100
AcDbLine
 10
133.7078747547854
 20
182.7224098261946
 30
0.0
 11
132.7078747547854
 21
183.7224098261946
 31
0.0
  0
LINE
  5
F9B
330
D89
100
AcDbEntity
  8
0
 62
     0
100
AcDbLine
 10
88.80159052567581
 20
227.6286940553042
 30
0.0
 11
86.25679004799883
 21
230.1734945329812
 31
0.0
  0
LINE
  5
F9C
330
D89
100
AcDbEntity
  8
0
 62
     0
100
AcDbLine
 10
133.7078747547854
 20
184.4901767791609
 30
0.0
 11
132.7078747547854
 21
185.4901767791609
 31
0.0
  0
LINE
  5
F9D
330
D89
100
AcDbEntity
  8
0
 62
     0
100
AcDbLine
 10
76.1242150292953
 20
242.0738365046511
 30
0.0
 11
73.96617005426172
 21
244.2318814796846
 31
0.0
  0
LINE
  5
F9E
330
D89
100
AcDbEntity
  8
0
 62
     0
100
AcDbLine
 10
90.60076213591592
 20
227.5972893980304
 30
0.0
 11
88.05596165823894
 21
230.1420898757074
 31
0.0
  0
LINE
  5
F9F
330
D89
100
AcDbEntity
  8
0
 62
     0
100
AcDbLine
 10
133.7078747547854
 20
186.2579437321273
 30
0.0
 11
132.7078747547854
 21
187.2579437321273
 31
0.0
  0
LINE
  5
FA0
330
D89
100
AcDbEntity
  8
0
 62
     0
100
AcDbLine
 10
77.627000378911
 20
242.3388181080017
 30
0.0
 11
75.46895540387744
 21
244.4968630830353
 31
0.0
  0
LINE
  5
FA1
330
D89
100
AcDbEntity
  8
0
 62
     0
100
AcDbLine
 10
92.39993374615606
 20
227.5658847407567
 30
0.0
 11
89.85513326847906
 21
230.1106852184337
 31
0.0
  0
LINE
  5
FA2
330
D89
100
AcDbEntity
  8
0
 62
     0
100
AcDbLine
 10
133.7078747547854
 20
188.0257106850937
 30
0.0
 11
132.7078747547854
 21
189.0257106850937
 31
0.0
  0
LINE
  5
FA3
330
D89
100
AcDbEntity
  8
0
 62
     0
100
AcDbLine
 10
79.12978572852672
 20
242.6037997113524
 30
0.0
 11
76.97174075349315
 21
244.7618446863859
 31
0.0
  0
LINE
  5
FA4
330
D89
100
AcDbEntity
  8
0
 62
     0
100
AcDbLine
 10
94.19910535639616
 20
227.5344800834829
 30
0.0
 11
91.65430487871917
 21
230.07928056116
 31
0.0
  0
LINE
  5
FA5
330
D89
100
AcDbEntity
  8
0
 62
     0
100
AcDbLine
 10
133.7078747547854
 20
189.7934776380601
 30
0.0
 11
132.7078747547854
 21
190.79347763806
 31
0.0
  0
LINE
  5
FA6
330
D89
100
AcDbEntity
  8
0
 62
     0
100
AcDbLine
 10
80.63257107814242
 20
242.868781314703
 30
0.0
 11
78.47452610310887
 21
245.0268262897366
 31
0.0
  0
LINE
  5
FA7
330
D89
100
AcDbEntity
  8
0
 62
     0
100
AcDbLine
 10
95.99827696663629
 20
227.5030754262092
 30
0.0
 11
93.45347648895929
 21
230.0478759038862
 31
0.0
  0
LINE
  5
FA8
330
D89
100
AcDbEntity
  8
0
 62
     0
100
AcDbLine
 10
134.3393125634495
 20
190.9298067823623
 30
0.0
 11
132.7078747547854
 21
192.5612445910264
 31
0.0
  0
LINE
  5
FA9
330
D89
100
AcDbEntity
  8
0
 62
     0
100
AcDbLine
 10
82.13535642775815
 20
243.1337629180537
 30
0.0
 11
79.97731145272457
 21
245.2918078930872
 31
0.0
  0
LINE
  5
FAA
330
D89
100
AcDbEntity
  8
0
 62
     0
100
AcDbLine
 10
97.79744857687639
 20
227.4716707689354
 30
0.0
 11
95.2526480991994
 21
230.0164712466124
 31
0.0
  0
LINE
  5
FAB
330
D89
100
AcDbEntity
  8
0
 62
     0
100
AcDbLine
 10
134.9863601762059
 20
192.0505261225723
 30
0.0
 11
132.7078747547854
 21
194.3290115439928
 31
0.0
  0
LINE
  5
FAC
330
D89
100
AcDbEntity
  8
0
 62
     0
100
AcDbLine
 10
83.63814177737387
 20
243.3987445214043
 30
0.0
 11
81.4800968023403
 21
245.5567894964379
 31
0.0
  0
LINE
  5
FAD
330
D89
100
AcDbEntity
  8
0
 62
     0
100
AcDbLine
 10
99.59662018711652
 20
227.4402661116617
 30
0.0
 11
97.05181970943954
 21
229.9850665893387
 31
0.0
  0
LINE
  5
FAE
330
D89
100
AcDbEntity
  8
0
 62
     0
100
AcDbLine
 10
135.6334077889622
 20
193.1712454627824
 30
0.0
 11
132.7078747547854
 21
196.0967784969592
 31
0.0
  0
LINE
  5
FAF
330
D89
100
AcDbEntity
  8
0
 62
     0
100
AcDbLine
 10
85.14092712698959
 20
243.663726124755
 30
0.0
 11
82.98288215195601
 21
245.8217710997886
 31
0.0
  0
LINE
  5
FB0
330
D89
100
AcDbEntity
  8
0
 62
     0
100
AcDbLine
 10
101.3957917973566
 20
227.4088614543879
 30
0.0
 11
98.85099131967963
 21
229.9536619320649
 31
0.0
  0
LINE
  5
FB1
330
D89
100
AcDbEntity
  8
0
 62
     0
100
AcDbLine
 10
136.2804554017185
 20
194.2919648029925
 30
0.0
 11
132.7078747547854
 21
197.8645454499255
 31
0.0
  0
LINE
  5
FB2
330
D89
100
AcDbEntity
  8
0
 62
     0
100
AcDbLine
 10
86.64371247660531
 20
243.9287077281056
 30
0.0
 11
84.48566750157173
 21
246.0867527031392
 31
0.0
  0
LINE
  5
FB3
330
D89
100
AcDbEntity
  8
0
 62
     0
100
AcDbLine
 10
103.1949634075967
 20
227.3774567971142
 30
0.0
 11
100.6501629299197
 21
229.9222572747912
 31
0.0
  0
LINE
  5
FB4
330
D89
100
AcDbEntity
  8
0
 62
     0
100
AcDbLine
 10
136.7078747547854
 20
195.6323124028919
 30
0.0
 11
132.7078747547854
 21
199.6323124028919
 31
0.0
  0
LINE
  5
FB5
330
D89
100
AcDbEntity
  8
0
 62
     0
100
AcDbLine
 10
88.14649782622101
 20
244.1936893314563
 30
0.0
 11
85.98845285118743
 21
246.3517343064899
 31
0.0
  0
LINE
  5
FB6
330
D89
100
AcDbEntity
  8
0
 62
     0
100
AcDbLine
 10
104.9941350178368
 20
227.3460521398404
 30
0.0
 11
102.4493345401598
 21
229.8908526175174
 31
0.0
  0
LINE
  5
FB7
330
D89
100
AcDbEntity
  8
0
 62
     0
100
AcDbLine
 10
136.7078747547854
 20
197.4000793558583
 30
0.0
 11
132.7078747547854
 21
201.4000793558583
 31
0.0
  0
LINE
  5
FB8
330
D89
100
AcDbEntity
  8
0
 62
     0
100
AcDbLine
 10
89.64928317583673
 20
244.4586709348069
 30
0.0
 11
87.49123820080315
 21
246.6167159098406
 31
0.0
  0
LINE
  5
FB9
330
D89
100
AcDbEntity
  8
0
 62
     0
100
AcDbLine
 10
106.793306628077
 20
227.3146474825667
 30
0.0
 11
104.2485061504
 21
229.8594479602437
 31
0.0
  0
LINE
  5
FBA
330
D89
100
AcDbEntity
  8
0
 62
     0
100
AcDbLine
 10
136.7078747547854
 20
199.1678463088246
 30
0.0
 11
132.7078747547854
 21
203.1678463088247
 31
0.0
  0
LINE
  5
FBB
330
D89
100
AcDbEntity
  8
0
 62
     0
100
AcDbLine
 10
91.15206852545243
 20
244.7236525381576
 30
0.0
 11
88.99402355041885
 21
246.8816975131912
 31
0.0
  0
LINE
  5
FBC
330
D89
100
AcDbEntity
  8
0
 62
     0
100
AcDbLine
 10
108.5924782383171
 20
227.2832428252929
 30
0.0
 11
106.0476777606401
 21
229.8280433029699
 31
0.0
  0
LINE
  5
FBD
330
D89
100
AcDbEntity
  8
0
 62
     0
100
AcDbLine
 10
136.7078747547854
 20
200.935613261791
 30
0.0
 11
132.7078747547854
 21
204.935613261791
 31
0.0
  0
LINE
  5
FBE
330
D89
100
AcDbEntity
  8
0
 62
     0
100
AcDbLine
 10
92.65485387506815
 20
244.9886341415083
 30
0.0
 11
90.49680890003457
 21
247.1466791165418
 31
0.0
  0
LINE
  5
FBF
330
D89
100
AcDbEntity
  8
0
 62
     0
100
AcDbLine
 10
110.3916498485572
 20
227.2518381680192
 30
0.0
 11
107.8468493708802
 21
229.7966386456962
 31
0.0
  0
LINE
  5
FC0
330
D89
100
AcDbEntity
  8
0
 62
     0
100
AcDbLine
 10
136.7078747547854
 20
202.7033802147574
 30
0.0
 11
132.7078747547854
 21
206.7033802147574
 31
0.0
  0
LINE
  5
FC1
330
D89
100
AcDbEntity
  8
0
 62
     0
100
AcDbLine
 10
94.15763922468388
 20
245.2536157448589
 30
0.0
 11
91.9995942496503
 21
247.4116607198925
 31
0.0
  0
LINE
  5
FC2
330
D89
100
AcDbEntity
  8
0
 62
     0
100
AcDbLine
 10
112.1908214587973
 20
227.2204335107455
 30
0.0
 11
109.6460209811203
 21
229.7652339884225
 31
0.0
  0
LINE
  5
FC3
330
D89
100
AcDbEntity
  8
0
 62
     0
100
AcDbLine
 10
136.7078747547854
 20
204.4711471677237
 30
0.0
 11
132.7078747547854
 21
208.4711471677237
 31
0.0
  0
LINE
  5
FC4
330
D89
100
AcDbEntity
  8
0
 62
     0
100
AcDbLine
 10
95.66042457429956
 20
245.5185973482095
 30
0.0
 11
93.50237959926598
 21
247.6766423232432
 31
0.0
  0
LINE
  5
FC5
330
D89
100
AcDbEntity
  8
0
 62
     0
100
AcDbLine
 10
113.9899930690374
 20
227.1890288534717
 30
0.0
 11
111.4451925913604
 21
229.7338293311487
 31
0.0
  0
LINE
  5
FC6
330
D89
100
AcDbEntity
  8
0
 62
     0
100
AcDbLine
 10
136.7078747547854
 20
206.2389141206901
 30
0.0
 11
132.7078747547854
 21
210.2389141206901
 31
0.0
  0
LINE
  5
FC7
330
D89
100
AcDbEntity
  8
0
 62
     0
100
AcDbLine
 10
97.16320992391526
 20
245.7835789515602
 30
0.0
 11
95.00516494888168
 21
247.9416239265938
 31
0.0
  0
LINE
  5
FC8
330
D89
100
AcDbEntity
  8
0
 62
     0
100
AcDbLine
 10
115.7891646792775
 20
227.157624196198
 30
0.0
 11
113.2443642016005
 21
229.702424673875
 31
0.0
  0
LINE
  5
FC9
330
D89
100
AcDbEntity
  8
0
 62
     0
100
AcDbLine
 10
136.7078747547854
 20
208.0066810736564
 30
0.0
 11
132.7078747547854
 21
212.0066810736564
 31
0.0
  0
LINE
  5
FCA
330
D89
100
AcDbEntity
  8
0
 62
     0
100
AcDbLine
 10
98.66599527353098
 20
246.0485605549109
 30
0.0
 11
96.5079502984974
 21
248.2066055299445
 31
0.0
  0
LINE
  5
FCB
330
D89
100
AcDbEntity
  8
0
 62
     0
100
AcDbLine
 10
117.5883362895176
 20
227.1262195389242
 30
0.0
 11
115.0435358118406
 21
229.6710200166012
 31
0.0
  0
LINE
  5
FCC
330
D89
100
AcDbEntity
  8
0
 62
     0
100
AcDbLine
 10
136.7078747547854
 20
209.7744480266229
 30
0.0
 11
132.7078747547854
 21
213.7744480266228
 31
0.0
  0
LINE
  5
FCD
330
D89
100
AcDbEntity
  8
0
 62
     0
100
AcDbLine
 10
100.1687806231467
 20
246.3135421582615
 30
0.0
 11
98.01073564811311
 21
248.4715871332951
 31
0.0
  0
LINE
  5
FCE
330
D89
100
AcDbEntity
  8
0
 62
     0
100
AcDbLine
 10
119.3875078997577
 20
227.0948148816505
 30
0.0
 11
116.8427074220808
 21
229.6396153593275
 31
0.0
  0
LINE
  5
FCF
330
D89
100
AcDbEntity
  8
0
 62
     0
100
AcDbLine
 10
136.7078747547854
 20
211.5422149795892
 30
0.0
 11
132.7078747547854
 21
215.5422149795892
 31
0.0
  0
LINE
  5
FD0
330
D89
100
AcDbEntity
  8
0
 62
     0
100
AcDbLine
 10
101.6715659727624
 20
246.5785237616122
 30
0.0
 11
99.51352099772883
 21
248.7365687366458
 31
0.0
  0
LINE
  5
FD1
330
D89
100
AcDbEntity
  8
0
 62
     0
100
AcDbLine
 10
121.1866795099978
 20
227.0634102243767
 30
0.0
 11
118.6418790323209
 21
229.6082107020537
 31
0.0
  0
LINE
  5
FD2
330
D89
100
AcDbEntity
  8
0
 62
     0
100
AcDbLine
 10
136.7078747547854
 20
213.3099819325556
 30
0.0
 11
132.7342043266124
 21
217.2836523607286
 31
0.0
  0
LINE
  5
FD3
330
D89
100
AcDbEntity
  8
0
 62
     0
100
AcDbLine
 10
103.1743513223781
 20
246.8435053649629
 30
0.0
 11
101.0163063473445
 21
249.0015503399964
 31
0.0
  0
LINE
  5
FD4
330
D89
100
AcDbEntity
  8
0
 62
     0
100
AcDbLine
 10
122.985851120238
 20
227.032005567103
 30
0.0
 11
120.441050642561
 21
229.57680604478
 31
0.0
  0
LINE
  5
FD5
330
D89
100
AcDbEntity
  8
0
 62
     0
100
AcDbLine
 10
136.7078747547854
 20
215.077748885522
 30
0.0
 11
133.3812519393687
 21
218.4043717009386
 31
0.0
  0
LINE
  5
FD6
330
D89
100
AcDbEntity
  8
0
 62
     0
100
AcDbLine
 10
104.6771366719938
 20
247.1084869683135
 30
0.0
 11
102.5190916969602
 21
249.2665319433471
 31
0.0
  0
LINE
  5
FD7
330
D89
100
AcDbEntity
  8
0
 62
     0
100
AcDbLine
 10
124.7850227304781
 20
227.0006009098292
 30
0.0
 11
122.2402222528011
 21
229.5454013875062
 31
0.0
  0
LINE
  5
FD8
330
D89
100
AcDbEntity
  8
0
 62
     0
100
AcDbLine
 10
136.7078747547854
 20
216.8455158384883
 30
0.0
 11
134.028299552125
 21
219.5250910411487
 31
0.0
  0
LINE
  5
FD9
330
D89
100
AcDbEntity
  8
0
 62
     0
100
AcDbLine
 10
106.1799220216095
 20
247.3734685716642
 30
0.0
 11
104.0218770465759
 21
249.5315135466977
 31
0.0
  0
LINE
  5
FDA
330
D89
100
AcDbEntity
  8
0
 62
     0
100
AcDbLine
 10
126.5841943407182
 20
226.9691962525555
 30
0.0
 11
124.0393938630412
 21
229.5139967302325
 31
0.0
  0
LINE
  5
FDB
330
D89
100
AcDbEntity
  8
0
 62
     0
100
AcDbLine
 10
136.7078747547854
 20
218.6132827914547
 30
0.0
 11
134.2078747547854
 21
221.1132827914547
 31
0.0
  0
LINE
  5
FDC
330
D89
100
AcDbEntity
  8
0
 62
     0
100
AcDbLine
 10
107.6827073712252
 20
247.6384501750148
 30
0.0
 11
105.5246623961917
 21
249.7964951500484
 31
0.0
  0
LINE
  5
FDD
330
D89
100
AcDbEntity
  8
0
 62
     0
100
AcDbLine
 10
128.3833659509583
 20
226.9377915952818
 30
0.0
 11
125.8385654732813
 21
229.4825920729587
 31
0.0
  0
LINE
  5
FDE
330
D89
100
AcDbEntity
  8
0
 62
     0
100
AcDbLine
 10
136.7078747547854
 20
220.381049744421
 30
0.0
 11
134.2078747547854
 21
222.8810497444211
 31
0.0
  0
LINE
  5
FDF
330
D89
100
AcDbEntity
  8
0
 62
     0
100
AcDbLine
 10
109.185492720841
 20
247.9034317783654
 30
0.0
 11
107.0274477458074
 21
250.061476753399
 31
0.0
  0
LINE
  5
FE0
330
D89
100
AcDbEntity
  8
0
 62
     0
100
AcDbLine
 10
130.1825375611984
 20
226.906386938008
 30
0.0
 11
127.6377370835215
 21
229.451187415685
 31
0.0
  0
LINE
  5
FE1
330
D89
100
AcDbEntity
  8
0
 62
     0
100
AcDbLine
 10
136.7078747547854
 20
222.1488166973874
 30
0.0
 11
134.2078747547854
 21
224.6488166973874
 31
0.0
  0
LINE
  5
FE2
330
D89
100
AcDbEntity
  8
0
 62
     0
100
AcDbLine
 10
110.6882780704567
 20
248.1684133817161
 30
0.0
 11
108.5302330954231
 21
250.3264583567497
 31
0.0
  0
LINE
  5
FE3
330
D89
100
AcDbEntity
  8
0
 62
     0
100
AcDbLine
 10
131.9817091714385
 20
226.8749822807342
 30
0.0
 11
129.4369086937616
 21
229.4197827584112
 31
0.0
  0
LINE
  5
FE4
330
D89
100
AcDbEntity
  8
0
 62
     0
100
AcDbLine
 10
136.7078747547854
 20
223.9165836503538
 30
0.0
 11
134.2078747547854
 21
226.4165836503538
 31
0.0
  0
LINE
  5
FE5
330
D89
100
AcDbEntity
  8
0
 62
     0
100
AcDbLine
 10
112.1910634200724
 20
248.4333949850668
 30
0.0
 11
110.0330184450388
 21
250.5914399601004
 31
0.0
  0
LINE
  5
FE6
330
D89
100
AcDbEntity
  8
0
 62
     0
100
AcDbLine
 10
133.7808807816787
 20
226.8435776234605
 30
0.0
 11
131.2360803040017
 21
229.3883781011375
 31
0.0
  0
LINE
  5
FE7
330
D89
100
AcDbEntity
  8
0
 62
     0
100
AcDbLine
 10
136.7078747547854
 20
225.6843506033202
 30
0.0
 11
133.0352519142418
 21
229.3569734438637
 31
0.0
  0
LINE
  5
FE8
330
D89
100
AcDbEntity
  8
0
 62
     0
100
AcDbLine
 10
113.6938487696881
 20
248.6983765884174
 30
0.0
 11
111.5358037946545
 21
250.856421563451
 31
0.0
  0
LINE
  5
FE9
330
D89
100
AcDbEntity
  8
0
 62
     0
100
AcDbLine
 10
136.7078747547854
 20
227.4521175562866
 30
0.0
 11
134.8344235244819
 21
229.32556878659
 31
0.0
  0
LINE
  5
FEA
330
D89
100
AcDbEntity
  8
0
 62
     0
100
AcDbLine
 10
115.1966341193038
 20
248.9633581917681
 30
0.0
 11
113.0385891442702
 21
251.1214031668016
 31
0.0
  0
LINE
  5
FEB
330
D89
100
AcDbEntity
  8
0
 62
     0
100
AcDbLine
 10
136.7078747547854
 20
229.2198845092529
 30
0.0
 11
136.633595134722
 21
229.2941641293162
 31
0.0
  0
LINE
  5
FEC
330
D89
100
AcDbEntity
  8
0
 62
     0
100
AcDbLine
 10
116.6994194689195
 20
249.2283397951187
 30
0.0
 11
114.5413744938859
 21
251.3863847701523
 31
0.0
  0
LINE
  5
FED
330
D89
100
AcDbEntity
  8
0
 62
     0
100
AcDbLine
 10
118.2022048185352
 20
249.4933213984694
 30
0.0
 11
116.0441598435017
 21
251.651366373503
 31
0.0
  0
LINE
  5
FEE
330
D89
100
AcDbEntity
  8
0
 62
     0
100
AcDbLine
 10
119.704990168151
 20
249.75830300182
 30
0.0
 11
117.5469451931174
 21
251.9163479768536
 31
0.0
  0
LINE
  5
FEF
330
D89
100
AcDbEntity
  8
0
 62
     0
100
AcDbLine
 10
121.2077755177667
 20
250.0232846051707
 30
0.0
 11
119.0497305427331
 21
252.1813295802043
 31
0.0
  0
LINE
  5
FF0
330
D89
100
AcDbEntity
  8
0
 62
     0
100
AcDbLine
 10
122.7105608673824
 20
250.2882662085213
 30
0.0
 11
120.5525158923488
 21
252.446311183555
 31
0.0
  0
LINE
  5
FF1
330
D89
100
AcDbEntity
  8
0
 62
     0
100
AcDbLine
 10
124.2133462169981
 20
250.553247811872
 30
0.0
 11
122.0553012419645
 21
252.7112927869056
 31
0.0
  0
LINE
  5
FF2
330
D89
100
AcDbEntity
  8
0
 62
     0
100
AcDbLine
 10
125.7161315666138
 20
250.8182294152227
 30
0.0
 11
123.5580865915802
 21
252.9762743902562
 31
0.0
  0
LINE
  5
FF3
330
D89
100
AcDbEntity
  8
0
 62
     0
100
AcDbLine
 10
127.2189169162295
 20
251.0832110185733
 30
0.0
 11
125.0608719411959
 21
253.2412559936069
 31
0.0
  0
LINE
  5
FF4
330
D89
100
AcDbEntity
  8
0
 62
     0
100
AcDbLine
 10
128.7217022658452
 20
251.348192621924
 30
0.0
 11
126.5636572908116
 21
253.5062375969576
 31
0.0
  0
LINE
  5
FF5
330
D89
100
AcDbEntity
  8
0
 62
     0
100
AcDbLine
 10
130.224487615461
 20
251.6131742252746
 30
0.0
 11
128.0664426404274
 21
253.7712192003082
 31
0.0
  0
LINE
  5
FF6
330
D89
100
AcDbEntity
  8
0
 62
     0
100
AcDbLine
 10
131.7272729650767
 20
251.8781558286253
 30
0.0
 11
129.5692279900431
 21
254.0362008036589
 31
0.0
  0
LINE
  5
FF7
330
D89
100
AcDbEntity
  8
0
 62
     0
100
AcDbLine
 10
133.2300583146924
 20
252.1431374319759
 30
0.0
 11
131.0720133396588
 21
254.3011824070095
 31
0.0
  0
LINE
  5
FF8
330
D89
100
AcDbEntity
  8
0
 62
     0
100
AcDbLine
 10
134.7328436643081
 20
252.4081190353266
 30
0.0
 11
132.5747986892745
 21
254.5661640103602
 31
0.0
  0
LINE
  5
FF9
330
D89
100
AcDbEntity
  8
0
 62
     0
100
AcDbLine
 10
136.2356290139238
 20
252.6731006386772
 30
0.0
 11
134.0775840388902
 21
254.8311456137108
 31
0.0
  0
LINE
  5
FFA
330
D89
100
AcDbEntity
  8
0
 62
     0
100
AcDbLine
 10
137.7078747547854
 20
252.9686218507821
 30
0.0
 11
135.2078747547854
 21
255.468621850782
 31
0.0
  0
LINE
  5
FFB
330
D89
100
AcDbEntity
  8
0
 62
     0
100
AcDbLine
 10
137.7078747547854
 20
254.7363888037484
 30
0.0
 11
135.2078747547854
 21
257.2363888037484
 31
0.0
  0
LINE
  5
FFC
330
D89
100
AcDbEntity
  8
0
 62
     0
100
AcDbLine
 10
137.7078747547854
 20
256.5041557567148
 30
0.0
 11
135.3955039778464
 21
258.8165265336538
 31
0.0
  0
LINE
  5
FFD
330
D89
100
AcDbEntity
  8
0
 62
     0
100
AcDbLine
 10
137.7078747547854
 20
258.2719227096812
 30
0.0
 11
136.7896978174094
 21
259.1900996470572
 31
0.0
  0
ENDBLK
  5
FFE
330
D89
100
AcDbEntity
  8
0
100
AcDbBlockEnd
  0
BLOCK
  5
115E
330
1154
100
AcDbEntity
  8
0
100
AcDbBlockBegin
  2
*D9
 70
     1
 10
0.0
 20
0.0
 30
0.0
  3
*D9
  1

  0
LINE
  5
119D
330
1154
100
AcDbEntity
  8
BEM
 62
     0
370
    -2
100
AcDbLine
 10
171.6703048725795
 20
294.2387755738124
 30
0.0
 11
171.6703048725795
 21
307.9147661722989
 31
0.0
  0
LINE
  5
119E
330
1154
100
AcDbEntity
  8
BEM
 62
     0
370
    -2
100
AcDbLine
 10
278.3296951274203
 20
294.2387755738124
 30
0.0
 11
278.3296951274203
 21
307.9147661722989
 31
0.0
  0
LINE
  5
119F
330
1154
100
AcDbEntity
  8
BEM
 62
     0
370
    -2
100
AcDbLine
 10
178.6703048725795
 20
305.9147661722989
 30
0.0
 11
271.3296951274204
 21
305.9147661722989
 31
0.0
  0
SOLID
  5
11A0
330
1154
100
AcDbEntity
  8
BEM
 62
     0
100
AcDbTrace
 10
178.6703048725795
 20
307.0814328389655
 30
0.0
 11
178.6703048725795
 21
304.7480995056322
 31
0.0
 12
171.6703048725795
 22
305.9147661722989
 32
0.0
 13
171.6703048725795
 23
305.9147661722989
 33
0.0
  0
SOLID
  5
11A1
330
1154
100
AcDbEntity
  8
BEM
 62
     0
100
AcDbTrace
 10
271.3296951274204
 20
307.0814328389655
 30
0.0
 11
271.3296951274204
 21
304.7480995056322
 31
0.0
 12
278.3296951274203
 22
305.9147661722989
 32
0.0
 13
278.3296951274203
 23
305.9147661722989
 33
0.0
  0
MTEXT
  5
11A2
330
1154
100
AcDbEntity
  8
BEM
 62
     1
100
AcDbMText
 10
225.0
 20
312.4147661722989
 30
0.0
 40
7.0
 41
0.0
 71
     5
 72
     1
  1
\A1;%%c107
 73
     1
 44
1.0
  0
POINT
  5
11A3
330
1154
100
AcDbEntity
  8
DEFPOINTS
 62
     0
100
AcDbPoint
 10
171.6703048725795
 20
292.2387755738125
 30
0.0
  0
POINT
  5
11A4
330
1154
100
AcDbEntity
  8
DEFPOINTS
 62
     0
100
AcDbPoint
 10
278.3296951274203
 20
292.2387755738125
 30
0.0
  0
POINT
  5
11A5
330
1154
100
AcDbEntity
  8
DEFPOINTS
 62
     0
100
AcDbPoint
 10
278.3296951274203
 20
305.9147661722989
 30
0.0
  0
ENDBLK
  5
115F
330
1154
100
AcDbEntity
  8
0
100
AcDbBlockEnd
  0
BLOCK
  5
116B
330
1161
100
AcDbEntity
  8
0
100
AcDbBlockBegin
  2
*D10
 70
     1
 10
0.0
 20
0.0
 30
0.0
  3
*D10
  1

  0
LINE
  5
1194
330
1161
100
AcDbEntity
  8
BEM
 62
     0
370
    -2
100
AcDbLine
 10
291.0
 20
297.5387755738125
 30
0.0
 11
291.0
 21
323.122949187137
 31
0.0
  0
LINE
  5
1195
330
1161
100
AcDbEntity
  8
BEM
 62
     0
370
    -2
100
AcDbLine
 10
158.9999999999999
 20
297.5387755738125
 30
0.0
 11
158.9999999999999
 21
323.122949187137
 31
0.0
  0
LINE
  5
1196
330
1161
100
AcDbEntity
  8
BEM
 62
     0
370
    -2
100
AcDbLine
 10
283.9999999999999
 20
321.122949187137
 30
0.0
 11
165.9999999999999
 21
321.122949187137
 31
0.0
  0
SOLID
  5
1197
330
1161
100
AcDbEntity
  8
BEM
 62
     0
100
AcDbTrace
 10
283.9999999999999
 20
322.2896158538037
 30
0.0
 11
283.9999999999999
 21
319.9562825204703
 31
0.0
 12
291.0
 22
321.122949187137
 32
0.0
 13
291.0
 23
321.122949187137
 33
0.0
  0
SOLID
  5
1198
330
1161
100
AcDbEntity
  8
BEM
 62
     0
100
AcDbTrace
 10
165.9999999999999
 20
322.2896158538037
 30
0.0
 11
165.9999999999999
 21
319.9562825204703
 31
0.0
 12
158.9999999999999
 22
321.122949187137
 32
0.0
 13
158.9999999999999
 23
321.122949187137
 33
0.0
  0
MTEXT
  5
1199
330
1161
100
AcDbEntity
  8
BEM
 62
     1
100
AcDbMText
 10
225.0
 20
327.622949187137
 30
0.0
 40
7.0
 41
0.0
 71
     5
 72
     1
  1
\A1;%%c132
 73
     1
 44
1.0
  0
POINT
  5
119A
330
1161
100
AcDbEntity
  8
DEFPOINTS
 62
     0
100
AcDbPoint
 10
291.0
 20
295.5387755738125
 30
0.0
  0
POINT
  5
119B
330
1161
100
AcDbEntity
  8
DEFPOINTS
 62
     0
100
AcDbPoint
 10
158.9999999999999
 20
295.5387755738125
 30
0.0
  0
POINT
  5
119C
330
1161
100
AcDbEntity
  8
DEFPOINTS
 62
     0
100
AcDbPoint
 10
158.9999999999999
 20
321.122949187137
 30
0.0
  0
ENDBLK
  5
116C
330
1161
100
AcDbEntity
  8
0
100
AcDbBlockEnd
  0
BLOCK
  5
1178
330
116E
100
AcDbEntity
  8
0
100
AcDbBlockBegin
  2
*D11
 70
     1
 10
0.0
 20
0.0
 30
0.0
  3
*D11
  1

  0
LINE
  5
11A6
330
116E
100
AcDbEntity
  8
BEM
 62
     0
370
    -2
100
AcDbLine
 10
144.8056780529686
 20
213.0387755738125
 30
0.0
 11
144.8056780529686
 21
189.6989698017664
 31
0.0
  0
LINE
  5
11A7
330
116E
100
AcDbEntity
  8
BEM
 62
     0
370
    -2
100
AcDbLine
 10
305.1943219470314
 20
213.0387755738125
 30
0.0
 11
305.1943219470314
 21
189.6989698017664
 31
0.0
  0
LINE
  5
11A8
330
116E
100
AcDbEntity
  8
BEM
 62
     0
370
    -2
100
AcDbLine
 10
151.8056780529686
 20
191.6989698017664
 30
0.0
 11
298.1943219470314
 21
191.6989698017664
 31
0.0
  0
SOLID
  5
11A9
330
116E
100
AcDbEntity
  8
BEM
 62
     0
100
AcDbTrace
 10
151.8056780529686
 20
192.8656364684331
 30
0.0
 11
151.8056780529686
 21
190.5323031350998
 31
0.0
 12
144.8056780529686
 22
191.6989698017664
 32
0.0
 13
144.8056780529686
 23
191.6989698017664
 33
0.0
  0
SOLID
  5
11AA
330
116E
100
AcDbEntity
  8
BEM
 62
     0
100
AcDbTrace
 10
298.1943219470314
 20
192.8656364684331
 30
0.0
 11
298.1943219470314
 21
190.5323031350998
 31
0.0
 12
305.1943219470314
 22
191.6989698017664
 32
0.0
 13
305.1943219470314
 23
191.6989698017664
 33
0.0
  0
MTEXT
  5
11AB
330
116E
100
AcDbEntity
  8
BEM
 62
     1
100
AcDbMText
 10
225.0
 20
198.1989698017664
 30
0.0
 40
7.0
 41
0.0
 71
     5
 72
     1
  1
\A1;%%c161
 73
     1
 44
1.0
  0
POINT
  5
11AC
330
116E
100
AcDbEntity
  8
DEFPOINTS
 62
     0
100
AcDbPoint
 10
144.8056780529686
 20
215.0387755738125
 30
0.0
  0
POINT
  5
11AD
330
116E
100
AcDbEntity
  8
DEFPOINTS
 62
     0
100
AcDbPoint
 10
305.1943219470314
 20
215.0387755738125
 30
0.0
  0
POINT
  5
11AE
330
116E
100
AcDbEntity
  8
DEFPOINTS
 62
     0
100
AcDbPoint
 10
305.1943219470314
 20
191.6989698017664
 30
0.0
  0
ENDBLK
  5
1179
330
116E
100
AcDbEntity
  8
0
100
AcDbBlockEnd
  0
BLOCK
  5
1185
330
117B
100
AcDbEntity
  8
0
100
AcDbBlockBegin
  2
*D12
 70
     1
 10
0.0
 20
0.0
 30
0.0
  3
*D12
  1

  0
LINE
  5
11AF
330
117B
100
AcDbEntity
  8
BEM
 62
     0
370
    -2
100
AcDbLine
 10
309.5999999999999
 20
210.5387755738125
 30
0.0
 11
309.5999999999999
 21
174.4907881699846
 31
0.0
  0
LINE
  5
11B0
330
117B
100
AcDbEntity
  8
BEM
 62
     0
370
    -2
100
AcDbLine
 10
140.3999999999999
 20
210.5387755738125
 30
0.0
 11
140.3999999999999
 21
174.4907881699846
 31
0.0
  0
LINE
  5
11B1
330
117B
100
AcDbEntity
  8
BEM
 62
     0
370
    -2
100
AcDbLine
 10
302.5999999999999
 20
176.4907881699846
 30
0.0
 11
147.4
 21
176.4907881699846
 31
0.0
  0
SOLID
  5
11B2
330
117B
100
AcDbEntity
  8
BEM
 62
     0
100
AcDbTrace
 10
302.5999999999999
 20
177.6574548366513
 30
0.0
 11
302.5999999999999
 21
175.3241215033179
 31
0.0
 12
309.5999999999999
 22
176.4907881699846
 32
0.0
 13
309.5999999999999
 23
176.4907881699846
 33
0.0
  0
SOLID
  5
11B3
330
117B
100
AcDbEntity
  8
BEM
 62
     0
100
AcDbTrace
 10
147.4
 20
177.6574548366513
 30
0.0
 11
147.4
 21
175.3241215033179
 31
0.0
 12
140.3999999999999
 22
176.4907881699846
 32
0.0
 13
140.3999999999999
 23
176.4907881699846
 33
0.0
  0
MTEXT
  5
11B4
330
117B
100
AcDbEntity
  8
BEM
 62
     1
100
AcDbMText
 10
225.0
 20
182.9907881699846
 30
0.0
 40
7.0
 41
0.0
 71
     5
 72
     1
  1
\A1;%%c169
 73
     1
 44
1.0
  0
POINT
  5
11B5
330
117B
100
AcDbEntity
  8
DEFPOINTS
 62
     0
100
AcDbPoint
 10
309.5999999999999
 20
212.5387755738125
 30
0.0
  0
POINT
  5
11B6
330
117B
100
AcDbEntity
  8
DEFPOINTS
 62
     0
100
AcDbPoint
 10
140.3999999999999
 20
212.5387755738125
 30
0.0
  0
POINT
  5
11B7
330
117B
100
AcDbEntity
  8
DEFPOINTS
 62
     0
100
AcDbPoint
 10
140.3999999999999
 20
176.4907881699846
 30
0.0
  0
ENDBLK
  5
1186
330
117B
100
AcDbEntity
  8
0
100
AcDbBlockEnd
  0
BLOCK
  5
1192
330
1188
100
AcDbEntity
  8
0
100
AcDbBlockBegin
  2
*D13
 70
     1
 10
0.0
 20
0.0
 30
0.0
  3
*D13
  1

  0
LINE
  5
1189
330
1188
100
AcDbEntity
  8
BEM
 62
     0
370
    -2
100
AcDbLine
 10
158.3425594098835
 20
295.5387755738125
 30
0.0
 11
123.3462553713277
 21
295.5387755738126
 31
0.0
  0
LINE
  5
118A
330
1188
100
AcDbEntity
  8
BEM
 62
     0
370
    -2
100
AcDbLine
 10
138.4
 20
212.5387755738125
 30
0.0
 11
123.3462553713277
 21
212.5387755738125
 31
0.0
  0
LINE
  5
118B
330
1188
100
AcDbEntity
  8
BEM
 62
     0
370
    -2
100
AcDbLine
 10
125.3462553713277
 20
288.5387755738126
 30
0.0
 11
125.3462553713277
 21
219.5387755738125
 31
0.0
  0
SOLID
  5
118C
330
1188
100
AcDbEntity
  8
BEM
 62
     0
100
AcDbTrace
 10
124.1795887046611
 20
288.5387755738126
 30
0.0
 11
126.5129220379944
 21
288.5387755738126
 31
0.0
 12
125.3462553713277
 22
295.5387755738126
 32
0.0
 13
125.3462553713277
 23
295.5387755738126
 33
0.0
  0
SOLID
  5
118D
330
1188
100
AcDbEntity
  8
BEM
 62
     0
100
AcDbTrace
 10
124.1795887046611
 20
219.5387755738125
 30
0.0
 11
126.5129220379944
 21
219.5387755738125
 31
0.0
 12
125.3462553713277
 22
212.5387755738125
 32
0.0
 13
125.3462553713277
 23
212.5387755738125
 33
0.0
  0
MTEXT
  5
118E
330
1188
100
AcDbEntity
  8
BEM
 62
     1
100
AcDbMText
 10
118.8462553713277
 20
254.0387755738126
 30
0.0
 40
7.0
 41
0.0
 71
     5
 72
     1
  1
\A1;83
 11
0.0000000000000001
 21
1.0
 31
0.0
 73
     1
 44
1.0
  0
POINT
  5
118F
330
1188
100
AcDbEntity
  8
DEFPOINTS
 62
     0
100
AcDbPoint
 10
160.3425594098835
 20
295.5387755738125
 30
0.0
  0
POINT
  5
1190
330
1188
100
AcDbEntity
  8
DEFPOINTS
 62
     0
100
AcDbPoint
 10
140.3999999999999
 20
212.5387755738125
 30
0.0
  0
POINT
  5
1191
330
1188
100
AcDbEntity
  8
DEFPOINTS
 62
     0
100
AcDbPoint
 10
125.3462553713277
 20
212.5387755738125
 30
0.0
  0
ENDBLK
  5
1193
330
1188
100
AcDbEntity
  8
0
100
AcDbBlockEnd
  0
ENDSEC
  0
SECTION
  2
ENTITIES
  0
LINE
  5
57
330
1E
100
AcDbEntity
  8
STEMPEL
100
AcDbLine
 10
410.0
 20
110.0
 30
0.0
 11
39.99999999999996
 21
110.0
 31
0.0
  0
LINE
  5
58
330
1E
100
AcDbEntity
  8
STEMPEL
100
AcDbLine
 10
136.0000000000001
 20
109.9999999999999
 30
0.0
 11
136.0
 21
9.999999999999973
 31
0.0
  0
LINE
  5
59
330
1E
100
AcDbEntity
  8
STEMPEL
100
AcDbLine
 10
220.0
 20
110.0
 30
0.0
 11
220.0
 21
9.999999999999973
 31
0.0
  0
LINE
  5
5A
330
1E
100
AcDbEntity
  8
STEMPEL
100
AcDbLine
 10
332.0
 20
109.9999999999997
 30
0.0
 11
332.0
 21
40.0
 31
0.0
  0
LINE
  5
5B
330
1E
100
AcDbEntity
  8
STEMPEL
100
AcDbLine
 10
135.9999999999999
 20
29.99999999999997
 30
0.0
 11
39.99999999999996
 21
29.99999999999997
 31
0.0
  0
LINE
  5
5C
330
1E
100
AcDbEntity
  8
STEMPEL
100
AcDbLine
 10
410.0
 20
40.0
 30
0.0
 11
136.0000000000001
 21
39.99999999999996
 31
0.0
  0
LINE
  5
5D
330
1E
100
AcDbEntity
  8
STEMPEL
100
AcDbLine
 10
410.0
 20
80.0
 30
0.0
 11
136.0000000000001
 21
79.99999999999992
 31
0.0
  0
LINE
  5
5E
330
1E
100
AcDbEntity
  8
VOLL
100
AcDbLine
 10
54.00000000000009
 20
110.0
 30
0.0
 11
53.99999999999997
 21
9.999999999999973
 31
0.0
  0
LINE
  5
5F
330
1E
100
AcDbEntity
  8
VOLL
100
AcDbLine
 10
94.00000000000012
 20
109.9999999999999
 30
0.0
 11
94.0
 21
9.999999999999973
 31
0.0
  0
LINE
  5
60
330
1E
100
AcDbEntity
  8
VOLL
100
AcDbLine
 10
114.0000000000001
 20
109.9999999999999
 30
0.0
 11
114.0
 21
9.999999999999973
 31
0.0
  0
LINE
  5
61
330
1E
100
AcDbEntity
  8
VOLL
100
AcDbLine
 10
154.0000000000001
 20
79.99999999999992
 30
0.0
 11
154.0000000000001
 21
39.99999999999996
 31
0.0
  0
LINE
  5
62
330
1E
100
AcDbEntity
  8
VOLL
100
AcDbLine
 10
180.0000000000001
 20
109.9999999999998
 30
0.0
 11
180.0
 21
39.99999999999996
 31
0.0
  0
LINE
  5
63
330
1E
100
AcDbEntity
  8
HILF
100
AcDbLine
 10
40.00000000000007
 20
100.0
 30
0.0
 11
136.0000000000001
 21
100.0
 31
0.0
  0
LINE
  5
64
330
1E
100
AcDbEntity
  8
HILF
100
AcDbLine
 10
40.00000000000007
 20
90.00000000000005
 30
0.0
 11
136.0000000000001
 21
90.00000000000005
 31
0.0
  0
LINE
  5
65
330
1E
100
AcDbEntity
  8
HILF
100
AcDbLine
 10
40.00000000000007
 20
79.99999999999992
 30
0.0
 11
136.0000000000001
 21
79.99999999999992
 31
0.0
  0
LINE
  5
66
330
1E
100
AcDbEntity
  8
HILF
100
AcDbLine
 10
40.00000000000007
 20
69.99999999999992
 30
0.0
 11
136.0000000000001
 21
69.99999999999992
 31
0.0
  0
LINE
  5
67
330
1E
100
AcDbEntity
  8
HILF
100
AcDbLine
 10
40.00000000000007
 20
59.99999999999997
 30
0.0
 11
136.0000000000001
 21
59.99999999999997
 31
0.0
  0
LINE
  5
68
330
1E
100
AcDbEntity
  8
HILF
100
AcDbLine
 10
40.00000000000007
 20
49.99999999999997
 30
0.0
 11
136.0000000000001
 21
49.99999999999997
 31
0.0
  0
LINE
  5
69
330
1E
100
AcDbEntity
  8
HILF
100
AcDbLine
 10
40.00000000000007
 20
39.99999999999996
 30
0.0
 11
136.0000000000001
 21
39.99999999999996
 31
0.0
  0
LINE
  5
6A
330
1E
100
AcDbEntity
  8
HILF
100
AcDbLine
 10
136.0000000000001
 20
69.99999999999992
 30
0.0
 11
220.0
 21
69.99999999999992
 31
0.0
  0
LINE
  5
6B
330
1E
100
AcDbEntity
  8
HILF
100
AcDbLine
 10
136.0000000000001
 20
59.99999999999997
 30
0.0
 11
220.0
 21
59.99999999999997
 31
0.0
  0
LINE
  5
6C
330
1E
100
AcDbEntity
  8
HILF
100
AcDbLine
 10
136.0000000000001
 20
49.99999999999997
 30
0.0
 11
220.0
 21
49.99999999999997
 31
0.0
  0
LINE
  5
6D
330
1E
100
AcDbEntity
  8
HILF
100
AcDbLine
 10
224.7736801096948
 20
84.03758247564139
 30
0.0
 11
324.8353916556312
 21
84.03758247564139
 31
0.0
  0
LINE
  5
6E
330
1E
100
AcDbEntity
  8
HILF
100
AcDbLine
 10
224.7736801096948
 20
69.99999999999992
 30
0.0
 11
324.835391655631
 21
69.99999999999992
 31
0.0
  0
LINE
  5
6F
330
1E
100
AcDbEntity
  8
HILF
100
AcDbLine
 10
224.7736801096948
 20
59.99999999999997
 30
0.0
 11
324.835391655631
 21
59.99999999999997
 31
0.0
  0
LINE
  5
70
330
1E
100
AcDbEntity
  8
HILF
100
AcDbLine
 10
224.7736801096948
 20
49.99999999999997
 30
0.0
 11
324.835391655631
 21
49.99999999999997
 31
0.0
  0
LINE
  5
71
330
1E
100
AcDbEntity
  8
VOLL
100
AcDbLine
 10
332.0
 20
60.0
 30
0.0
 11
410.0
 21
60.0
 31
0.0
  0
LINE
  5
72
330
1E
100
AcDbEntity
  8
HILF
100
AcDbLine
 10
336.7238616296993
 20
83.77983636955827
 30
0.0
 11
404.8588839326728
 21
83.77983636955827
 31
0.0
  0
LINE
  5
73
330
1E
100
AcDbEntity
  8
HILF
100
AcDbLine
 10
223.4909699289885
 20
14.89398258028314
 30
0.0
 11
404.8588839326728
 21
14.89398258028314
 31
0.0
  0
TEXT
  5
74
330
1E
100
AcDbEntity
  8
TEXT
100
AcDbText
 10
63.86165979631821
 20
18.67381894984132
 30
0.0
 40
4.0
  1
Änderung
 41
0.8
  7
GREEKS
 72
     1
 11
74.60451693917535
 21
18.67381894984132
 31
0.0
100
AcDbText
  0
TEXT
  5
75
330
1E
100
AcDbEntity
  8
TEXT
100
AcDbText
 10
143.5163572150377
 20
102.4620895087088
 30
0.0
 40
5.0
  1
Maßstab
 41
0.8
  7
GREEKS
100
AcDbText
  0
TEXT
  5
76
330
1E
100
AcDbEntity
  8
TEXT
100
AcDbText
 10
184.2858954734051
 20
102.4184168434819
 30
0.0
 40
5.0
  1
Zul. Abw.
 41
0.8
  7
GREEKS
100
AcDbText
  0
TEXT
  5
77
330
1E
100
AcDbEntity
  8
TEXT
100
AcDbText
 10
224.877940380901
 20
102.5489328011779
 30
0.0
 40
5.0
  1
Benennung
 41
0.8
  7
GREEKS
100
AcDbText
  0
TEXT
  5
78
330
1E
100
AcDbEntity
  8
TEXT
100
AcDbText
 10
336.178754957634
 20
102.3132034537135
 30
0.0
 40
5.0
  1
Zeichnungs Nr.
 41
0.8
  7
GREEKS
100
AcDbText
  0
TEXT
  5
79
330
1E
100
AcDbEntity
  8
TEXT
100
AcDbText
 10
224.742238391136
 20
30.84560570193057
 30
0.0
 40
5.0
  1
Bauvorhaben
 41
0.8
  7
GREEKS
100
AcDbText
  0
TEXT
  5
7A
330
1E
100
AcDbEntity
  8
TEXT
100
AcDbText
 10
336.7238616296993
 20
73.1811823709997
 30
0.0
 40
5.0
  1
Ersatz für:
 41
0.8
  7
GREEKS
100
AcDbText
  0
TEXT
  5
7B
330
1E
100
AcDbEntity
  8
TEXT
100
AcDbText
 10
48.26641107045756
 20
13.65465846027192
 30
0.0
 40
4.0
  1
Index
 50
90.0
 41
0.8
  7
GREEKS
100
AcDbText
  0
TEXT
  5
7C
330
1E
100
AcDbEntity
  8
TEXT
100
AcDbText
 10
100.093467607548
 20
18.6715626933981
 30
0.0
 40
4.0
  1
Tag
 41
0.8
  7
GREEKS
 72
     1
 11
103.8268009408814
 21
18.6715626933981
 31
0.0
100
AcDbText
  0
TEXT
  5
7D
330
1E
100
AcDbEntity
  8
TEXT
100
AcDbText
 10
119.0122744386592
 20
18.59324216966408
 30
0.0
 40
4.0
  1
Name
 41
0.8
  7
GREEKS
 72
     1
 11
125.3360839624688
 21
18.59324216966408
 31
0.0
100
AcDbText
  0
TEXT
  5
7E
330
1E
100
AcDbEntity
  8
TEXT
100
AcDbText
 10
162.3311673153651
 20
73.31880501229926
 30
0.0
 40
4.0
  1
Tag
 41
0.8
  7
GREEKS
100
AcDbText
  0
TEXT
  5
7F
330
1E
100
AcDbEntity
  8
TEXT
100
AcDbText
 10
192.4626584226295
 20
73.30961091915225
 30
0.0
 40
4.0
  1
Name
 41
0.8
  7
GREEKS
100
AcDbText
  0
TEXT
  5
80
330
1E
100
AcDbEntity
  8
TEXT
100
AcDbText
 10
137.5836127167615
 20
63.62990369617964
 30
0.0
 40
4.0
  1
Gez.
 41
0.8
  7
GREEKS
100
AcDbText
  0
TEXT
  5
81
330
1E
100
AcDbEntity
  8
TEXT
100
AcDbText
 10
137.5515086571672
 20
53.68926291428377
 30
0.0
 40
4.0
  1
Gepr.
 41
0.8
  7
GREEKS
100
AcDbText
  0
TEXT
  5
82
330
1E
100
AcDbEntity
  8
TEXT
100
AcDbText
 10
137.6006777387304
 20
43.52946389649807
 30
0.0
 40
4.0
  1
Norm.
 41
0.8
  7
GREEKS
100
AcDbText
  0
LINE
  5
83
330
1E
100
AcDbEntity
  8
STEMPEL
100
AcDbLine
 10
49.99999999999989
 20
10.0
 30
0.0
 11
410.0
 21
10.0
 31
0.0
  0
TEXT
  5
84
330
1E
100
AcDbEntity
  8
TEXT
100
AcDbText
 10
337.2400861497006
 20
52.07416177878602
 30
0.0
 40
5.0
  1
ersetzt durch:
 41
0.8
  7
GREEKS
100
AcDbText
  0
LINE
  5
85
330
1E
100
AcDbEntity
  8
STEMPEL
100
AcDbLine
 10
410.0
 20
10.0
 30
0.0
 11
39.99999999999989
 21
10.0
 31
0.0
  0
LINE
  5
86
330
1E
100
AcDbEntity
  8
STEMPEL
100
AcDbLine
 10
410.0
 20
10.0
 30
0.0
 11
410.0
 21
584.0
 31
0.0
  0
LINE
  5
87
330
1E
100
AcDbEntity
  8
STEMPEL
100
AcDbLine
 10
40.0
 20
10.0
 30
0.0
 11
39.99999999999989
 21
584.0
 31
0.0
  0
LINE
  5
88
330
1E
100
AcDbEntity
  8
STEMPEL
100
AcDbLine
 10
410.0
 20
584.0
 30
0.0
 11
39.99999999999989
 21
584.0
 31
0.0
  0
LINE
  5
89
330
1E
100
AcDbEntity
  8
HILF
100
AcDbLine
 10
0.0
 20
0.0
 30
0.0
 11
-0.0000000000001137
 21
594.0
 31
0.0
  0
LINE
  5
8A
330
1E
100
AcDbEntity
  8
HILF
100
AcDbLine
 10
419.9999999999998
 20
594.0000000000002
 30
0.0
 11
0.0
 21
594.0
 31
0.0
  0
LINE
  5
8B
330
1E
100
AcDbEntity
  8
HILF
100
AcDbLine
 10
420.0
 20
0.0
 30
0.0
 11
0.0
 21
0.0
 31
0.0
  0
LINE
  5
8C
330
1E
100
AcDbEntity
  8
HILF
100
AcDbLine
 10
31.08767135713856
 20
297.0
 30
0.0
 11
0.0000000000001137
 21
297.0
 31
0.0
  0
TEXT
  5
8D
330
1E
100
AcDbEntity
  8
TEXT
100
AcDbText
 10
138.622109822104
 20
73.14025471151666
 30
0.0
 40
4.0
  1
2011
 41
0.8
  7
GREEKS
100
AcDbText
  0
LINE
  5
8E
330
1E
100
AcDbEntity
  8
HILF
100
AcDbLine
 10
420.0
 20
-0.0000000000001137
 30
0.0
 11
419.9999999999998
 21
594.0
 31
0.0
  0
TEXT
  5
8F
330
1E
100
AcDbEntity
  8
VOLL
100
AcDbText
 10
78.07675471698113
 20
31.02594776470585
 30
0.0
 40
1.8
  1

  7
GREEKS
100
AcDbText
  0
TEXT
  5
90
330
1E
100
AcDbEntity
  8
TEXT
100
AcDbText
 10
41.85509950977674
 20
111.6719999999999
 30
0.0
 40
5.0
  1
Erstellt mit AUTOCAD 2004
 41
0.8
  7
GREEKS
100
AcDbText
  0
TEXT
  5
91
330
1E
100
AcDbEntity
  8
TEXT
100
AcDbText
 10
194.4216048581256
 20
63.0896391972351
 30
0.0
 40
4.0
  1
Koeh
 41
0.8
  7
GREEKS
 72
     1
 11
199.6787477152685
 21
63.0896391972351
 31
0.0
100
AcDbText
  0
TEXT
  5
92
330
1E
100
AcDbEntity
  8
TEXT
 62
     1
100
AcDbText
 10
348.153957364814
 20
88.14901428913961
 30
0.0
 40
7.0
  1
18100100W
 41
0.8
  7
GREEKS
 72
     1
 11
370.553957364814
 21
88.14901428913961
 31
0.0
100
AcDbText
  0
TEXT
  5
93
330
1E
100
AcDbEntity
  8
TEXT
 62
     1
100
AcDbText
 10
150.5006306481887
 20
88.14901428913961
 30
0.0
 40
7.0
  1
1:2
 41
0.8
  7
GREEKS
100
AcDbText
  0
TEXT
  5
94
330
1E
100
AcDbEntity
  8
TEXT
100
AcDbText
 10
160.398997108236
 20
63.10765040825732
 30
0.0
 40
4.0
  1
05.04.
 41
0.8
  7
GREEKS
 72
     1
 11
167.4085209177598
 21
63.10765040825732
 31
0.0
100
AcDbText
  0
TEXT
  5
95
330
1E
100
AcDbEntity
  8
TEXT
 62
     1
100
AcDbText
 10
226.8935731057402
 20
87.41748789253781
 30
0.0
 40
7.0
  1
Schalungsglocke DN100
 41
0.8
  7
GREEKS
100
AcDbText
  0
TEXT
  5
96
330
1E
100
AcDbEntity
  8
TEXT
100
AcDbText
 10
225.1296391125315
 20
71.50334417585288
 30
0.0
 40
5.0
  1
aufschiebbar
 41
0.8
  7
GREEKS
100
AcDbText
  0
TEXT
  5
97
330
1E
100
AcDbEntity
  8
TEXT
100
AcDbText
 10
225.1296391125315
 20
62.11580706774856
 30
0.0
 40
5.0
  1
XXX
 41
0.8
  7
GREEKS
100
AcDbText
  0
TEXT
  5
98
330
1E
100
AcDbEntity
  8
TEXT
100
AcDbText
 10
225.1296391125315
 20
51.64011943042158
 30
0.0
 40
5.0
  1
EDV-Art.Nr. 18100.100X
 41
0.8
  7
GREEKS
100
AcDbText
  0
TEXT
  5
99
330
1E
100
AcDbEntity
  8
TEXT
100
AcDbText
 10
224.9837501577827
 20
42.62974153022631
 30
0.0
 40
4.0
  1
18100100W.DWG
 41
0.8
  7
GREEKS
100
AcDbText
  0
TEXT
  5
9A
330
1E
100
AcDbEntity
  8
TEXT
100
AcDbText
 10
188.1118464937983
 20
90.76363841023022
 30
0.0
 40
4.0
  1
DIN 16901
 41
0.8
  7
GREEKS
 72
     1
 11
199.6166083985601
 21
90.76363841023022
 31
0.0
100
AcDbText
  0
INSERT
  5
9B
330
1E
100
AcDbEntity
  8
STEMPEL
100
AcDbBlockReference
  2
LOGO
 10
140.9955485457794
 20
45.02105276448322
 30
0.0
 41
2.0
 42
2.0
 43
2.0
  0
TEXT
  5
118
330
1E
100
AcDbEntity
  8
BEM
100
AcDbText
 10
417.3022923857165
 20
10.16790107998849
 30
0.0
 40
4.0
  1
Diese Zeichnung ist urheberrechtlich geschützt und bleibt unser Eigentum. Sie darf weder ganz noch teilweise verfielfältigt und nicht an Dritte weitergegeben werden.
 50
90.0
 41
0.8
  7
GREEKS
100
AcDbText
  0
TEXT
  5
9E7
330
1E
100
AcDbEntity
  8
TEXT
 62
     1
100
AcDbText
 10
226.8935731057402
 20
124.2612023489425
 30
0.0
 40
7.0
  1
Werkstoff: PE
 41
0.8
  7
GREEKS
100
AcDbText
  0
INSERT
  5
10AB
330
1E
100
AcDbEntity
  8
SCHRAFF
100
AcDbBlockReference
  2
*X7
 10
50.16387558406393
 20
350.2466503285979
 30
0.0
 50
270.0
1001
ACAD
1000
HATCH
1002
{
1070
    16
1000
NET,I
1040
10.0
1040
0.7853981633974483
1002
}
  0
ARC
  5
10AC
330
1E
100
AcDbEntity
  8
STEMPEL
100
AcDbCircle
 10
160.3425594098835
 20
293.9387755738125
 30
0.0
 40
1.6
100
AcDbArc
 50
89.99999999999998
 51
170.0000000000014
  0
ARC
  5
10AD
330
1E
100
AcDbEntity
  8
STEMPEL
100
AcDbCircle
 10
289.6574405901163
 20
293.9387755738125
 30
0.0
 40
1.6
100
AcDbArc
 50
9.999999999998589
 51
89.99999999999998
  0
ARC
  5
10AE
330
1E
100
AcDbEntity
  8
STEMPEL
100
AcDbCircle
 10
247.8367262851824
 20
375.0317165927112
 30
0.0
 40
1.0
100
AcDbArc
 50
195.0000000000007
 51
287.2300698886079
  0
ARC
  5
10AF
330
1E
100
AcDbEntity
  8
STEMPEL
100
AcDbCircle
 10
242.0411713274481
 20
373.4788023220961
 30
0.0
 40
1.0
100
AcDbArc
 50
282.7699301113915
 51
15.00000000000071
  0
ARC
  5
10B0
330
1E
100
AcDbEntity
  8
STEMPEL
100
AcDbCircle
 10
281.5955415319281
 20
396.3155286072788
 30
0.0
 40
1.0
100
AcDbArc
 50
225.0
 51
317.2300698886076
  0
ARC
  5
10B1
330
1E
100
AcDbEntity
  8
STEMPEL
100
AcDbCircle
 10
277.3529008448088
 20
392.0728879201595
 30
0.0
 40
1.0
100
AcDbArc
 50
312.7699301113925
 51
45.00000000000227
  0
ARC
  5
10B2
330
1E
100
AcDbEntity
  8
STEMPEL
100
AcDbCircle
 10
262.0350990641759
 20
407.3906897007923
 30
0.0
 40
1.0
100
AcDbArc
 50
44.99999999999999
 51
131.8990013739653
  0
ARC
  5
10B3
330
1E
100
AcDbEntity
  8
STEMPEL
100
AcDbCircle
 10
236.4344667456019
 20
394.4033086845752
 30
0.0
 40
1.0
100
AcDbArc
 50
15.00000000000071
 51
101.8990013739634
  0
ARC
  5
10B4
330
1E
100
AcDbEntity
  8
STEMPEL
100
AcDbCircle
 10
242.2300217033363
 20
395.9562229551903
 30
0.0
 40
1.0
100
AcDbArc
 50
108.1009986260324
 51
195.0000000000007
  0
ARC
  5
10B5
330
1E
100
AcDbEntity
  8
STEMPEL
100
AcDbCircle
 10
225.0
 20
448.6684294520877
 30
0.0
 40
54.45674315778927
100
AcDbArc
 50
288.1009986260325
 51
311.8990013739654
  0
LINE
  5
10B6
330
1E
100
AcDbEntity
  8
STEMPEL
100
AcDbLine
 10
278.0600076259954
 20
392.7799947013462
 30
0.0
 11
262.7422058453625
 21
408.0977964819788
 31
0.0
  0
LINE
  5
10B7
330
1E
100
AcDbEntity
  8
STEMPEL
100
AcDbLine
 10
243.0070971537372
 20
373.7376213671985
 30
0.0
 11
237.4003925718911
 21
394.6621277296777
 31
0.0
  0
LINE
  5
10B8
330
1E
100
AcDbEntity
  8
STEMPEL
100
AcDbLine
 10
246.8708004588935
 20
374.7728975476087
 30
0.0
 11
241.2640958770472
 21
395.6974039100879
 31
0.0
  0
ARC
  5
10B9
330
1E
100
AcDbEntity
  8
STEMPEL
100
AcDbCircle
 10
225.0
 20
448.6684294520877
 30
0.0
 40
78.09657286908822
100
AcDbArc
 50
287.2300698886079
 51
312.7699301113925
  0
LINE
  5
10BA
330
1E
100
AcDbEntity
  8
MITTEL
100
AcDbLine
 10
248.1901864411858
 20
362.1214754165874
 30
0.0
 11
237.9409522551258
 21
400.3721381376342
 31
0.0
  0
ARC
  5
10BB
330
1E
100
AcDbEntity
  8
STEMPEL
100
AcDbCircle
 10
207.9588286725515
 20
373.4788023220961
 30
0.0
 40
1.0
100
AcDbArc
 50
164.9999999999993
 51
257.2300698886085
  0
ARC
  5
10BC
330
1E
100
AcDbEntity
  8
STEMPEL
100
AcDbCircle
 10
202.163273714817
 20
375.0317165927111
 30
0.0
 40
1.0
100
AcDbArc
 50
252.7699301113901
 51
344.9999999999993
  0
ARC
  5
10BD
330
1E
100
AcDbEntity
  8
STEMPEL
100
AcDbCircle
 10
207.7699782966632
 20
395.9562229551903
 30
0.0
 40
1.0
100
AcDbArc
 50
344.9999999999993
 51
71.89900137396441
  0
ARC
  5
10BE
330
1E
100
AcDbEntity
  8
STEMPEL
100
AcDbCircle
 10
213.5655332543977
 20
394.4033086845752
 30
0.0
 40
1.0
100
AcDbArc
 50
78.10099862603337
 51
164.9999999999984
  0
ARC
  5
10BF
330
1E
100
AcDbEntity
  8
STEMPEL
100
AcDbCircle
 10
187.9649009358236
 20
407.3906897007923
 30
0.0
 40
1.0
100
AcDbArc
 50
48.10099862603703
 51
135.0
  0
LINE
  5
10C0
330
1E
100
AcDbEntity
  8
STEMPEL
100
AcDbLine
 10
171.9399923740042
 20
392.779994701346
 30
0.0
 11
187.257794154637
 21
408.0977964819791
 31
0.0
  0
ARC
  5
10C1
330
1E
100
AcDbEntity
  8
STEMPEL
100
AcDbCircle
 10
168.4044584680713
 20
396.3155286072788
 30
0.0
 40
1.0
100
AcDbArc
 50
222.7699301113902
 51
315.0
  0
ARC
  5
10C2
330
1E
100
AcDbEntity
  8
STEMPEL
100
AcDbCircle
 10
172.6470991551906
 20
392.0728879201594
 30
0.0
 40
1.0
100
AcDbArc
 50
135.0
 51
227.2300698886076
  0
ARC
  5
10C3
330
1E
100
AcDbEntity
  8
STEMPEL
100
AcDbCircle
 10
224.9999999999998
 20
448.6684294520877
 30
0.0
 40
54.45674315778927
100
AcDbArc
 50
228.1009986260346
 51
251.8990013739675
  0
LINE
  5
10C4
330
1E
100
AcDbEntity
  8
MITTEL
100
AcDbLine
 10
201.8098135588139
 20
362.1214754165874
 30
0.0
 11
212.0590477448739
 21
400.3721381376342
 31
0.0
  0
ARC
  5
10C5
330
1E
100
AcDbEntity
  8
STEMPEL
100
AcDbCircle
 10
224.9999999999998
 20
448.6684294520877
 30
0.0
 40
78.09657286908822
100
AcDbArc
 50
227.2300698886076
 51
252.7699301113921
  0
LINE
  5
10C6
330
1E
100
AcDbEntity
  8
STEMPEL
100
AcDbLine
 10
203.1291995411062
 20
374.7728975476087
 30
0.0
 11
208.7359041229523
 21
395.6974039100876
 31
0.0
  0
LINE
  5
10C7
330
1E
100
AcDbEntity
  8
STEMPEL
100
AcDbLine
 10
206.9929028462624
 20
373.7376213671985
 30
0.0
 11
212.5996074281086
 21
394.6621277296777
 31
0.0
  0
ARC
  5
10C8
330
1E
100
AcDbEntity
  8
STEMPEL
100
AcDbCircle
 10
224.9999999999998
 20
448.6684294520877
 30
0.0
 40
54.45674315778927
100
AcDbArc
 50
258.1009986260333
 51
281.8990013739666
  0
ARC
  5
10C9
330
1E
100
AcDbEntity
  8
STEMPEL
100
AcDbCircle
 10
224.9999999999998
 20
448.6684294520877
 30
0.0
 40
78.09657286908822
100
AcDbArc
 50
257.2300698886085
 51
282.7699301113915
  0
ARC
  5
10CA
330
1E
100
AcDbEntity
  8
STEMPEL
100
AcDbCircle
 10
298.6367128593764
 20
425.8317031669052
 30
0.0
 40
1.0
100
AcDbArc
 50
342.769930111391
 51
75.0000000000024
  0
ARC
  5
10CB
330
1E
100
AcDbEntity
  8
STEMPEL
100
AcDbCircle
 10
300.1896271299916
 20
431.6272581246395
 30
0.0
 40
1.0
100
AcDbArc
 50
254.9999999999993
 51
347.2300698886117
  0
ARC
  5
10CC
330
1E
100
AcDbEntity
  8
STEMPEL
100
AcDbCircle
 10
277.7122064968974
 20
431.4384077487514
 30
0.0
 40
1.0
100
AcDbArc
 50
74.99999999999925
 51
161.8990013739634
  0
ARC
  5
10CD
330
1E
100
AcDbEntity
  8
STEMPEL
100
AcDbCircle
 10
279.2651207675126
 20
437.2339627064856
 30
0.0
 40
1.0
100
AcDbArc
 50
168.100998626034
 51
254.9999999999993
  0
LINE
  5
10CE
330
1E
100
AcDbEntity
  8
STEMPEL
100
AcDbLine
 10
298.8955319044791
 20
426.7976289931942
 30
0.0
 11
277.9710255419999
 21
432.4043335750403
 31
0.0
  0
LINE
  5
10CF
330
1E
100
AcDbEntity
  8
STEMPEL
100
AcDbLine
 10
299.930808084889
 20
430.6613322983506
 30
0.0
 11
279.0063017224101
 21
436.2680368801966
 31
0.0
  0
ARC
  5
10D0
330
1E
100
AcDbEntity
  8
STEMPEL
100
AcDbCircle
 10
266.2777397512952
 20
411.6333303879117
 30
0.0
 40
1.0
100
AcDbArc
 50
138.1009986260324
 51
225.0
  0
LINE
  5
10D1
330
1E
100
AcDbEntity
  8
MITTEL
100
AcDbLine
 10
311.5469540355003
 20
425.478243010902
 30
0.0
 11
273.2962913144532
 21
435.7274771969617
 31
0.0
  0
ARC
  5
10D2
330
1E
100
AcDbEntity
  8
STEMPEL
100
AcDbCircle
 10
225.0
 20
448.6684294520877
 30
0.0
 40
54.45674315778927
100
AcDbArc
 50
318.1009986260324
 51
341.8990013739634
  0
ARC
  5
10D3
330
1E
100
AcDbEntity
  8
STEMPEL
100
AcDbCircle
 10
298.6367128593765
 20
471.5051557372704
 30
0.0
 40
1.0
100
AcDbArc
 50
285.0000000000008
 51
17.23006988860889
  0
ARC
  5
10D4
330
1E
100
AcDbEntity
  8
STEMPEL
100
AcDbCircle
 10
300.1896271299916
 20
465.709600779536
 30
0.0
 40
1.0
100
AcDbArc
 50
12.76993011138829
 51
105.0000000000007
  0
ARC
  5
10D5
330
1E
100
AcDbEntity
  8
STEMPEL
100
AcDbCircle
 10
279.2651207675126
 20
460.1028961976899
 30
0.0
 40
1.0
100
AcDbArc
 50
105.0000000000007
 51
191.8990013739659
  0
ARC
  5
10D6
330
1E
100
AcDbEntity
  8
STEMPEL
100
AcDbCircle
 10
277.7122064968974
 20
465.8984511554243
 30
0.0
 40
1.0
100
AcDbArc
 50
198.1009986260365
 51
285.0000000000008
  0
LINE
  5
10D7
330
1E
100
AcDbEntity
  8
STEMPEL
100
AcDbLine
 10
298.8955319044791
 20
470.5392299109814
 30
0.0
 11
277.9710255419999
 21
464.9325253291352
 31
0.0
  0
LINE
  5
10D8
330
1E
100
AcDbEntity
  8
STEMPEL
100
AcDbLine
 10
299.930808084889
 20
466.6755266058252
 30
0.0
 11
279.0063017224101
 21
461.068822023979
 31
0.0
  0
LINE
  5
10D9
330
1E
100
AcDbEntity
  8
MITTEL
100
AcDbLine
 10
311.5469540355003
 20
471.8586158932735
 30
0.0
 11
273.2962913144532
 21
461.6093817072138
 31
0.0
  0
ARC
  5
10DA
330
1E
100
AcDbEntity
  8
STEMPEL
100
AcDbCircle
 10
225.0
 20
448.6684294520877
 30
0.0
 40
54.45674315778927
100
AcDbArc
 50
348.100998626034
 51
11.89900137396594
  0
ARC
  5
10DB
330
1E
100
AcDbEntity
  8
STEMPEL
100
AcDbCircle
 10
225.0
 20
448.6684294520877
 30
0.0
 40
78.09657286908822
100
AcDbArc
 50
347.2300698886117
 51
12.76993011138829
  0
ARC
  5
10DC
330
1E
100
AcDbEntity
  8
STEMPEL
100
AcDbCircle
 10
183.7222602487044
 20
411.6333303879117
 30
0.0
 40
1.0
100
AcDbArc
 50
315.0
 51
41.89900137396753
  0
ARC
  5
10DD
330
1E
100
AcDbEntity
  8
STEMPEL
100
AcDbCircle
 10
172.2877935031023
 20
431.4384077487511
 30
0.0
 40
1.0
100
AcDbArc
 50
18.10099862603656
 51
105.0000000000007
  0
LINE
  5
10DE
330
1E
100
AcDbEntity
  8
STEMPEL
100
AcDbLine
 10
151.1044680955207
 20
426.7976289931942
 30
0.0
 11
172.0289744579998
 21
432.4043335750403
 31
0.0
  0
ARC
  5
10DF
330
1E
100
AcDbEntity
  8
STEMPEL
100
AcDbCircle
 10
170.7348792324872
 20
437.2339627064858
 30
0.0
 40
1.0
100
AcDbArc
 50
285.0000000000008
 51
11.89900137396594
  0
ARC
  5
10E0
330
1E
100
AcDbEntity
  8
STEMPEL
100
AcDbCircle
 10
224.9999999999998
 20
448.6684294520877
 30
0.0
 40
54.45674315778927
100
AcDbArc
 50
198.1009986260365
 51
221.8990013739675
  0
CIRCLE
  5
10E1
330
1E
100
AcDbEntity
  8
STEMPEL
100
AcDbCircle
 10
224.9999999999999
 20
448.6684294520879
 30
0.0
 40
1.216889843109782
  0
CIRCLE
  5
10E2
330
1E
100
AcDbEntity
  8
STEMPEL
100
AcDbCircle
 10
225.0
 20
448.6684294520877
 30
0.0
 40
6.078557764707511
  0
CIRCLE
  5
10E3
330
1E
100
AcDbEntity
  8
STEMPEL
100
AcDbCircle
 10
224.9999999999999
 20
448.6684294520877
 30
0.0
 40
6.0
  0
ARC
  5
10E4
330
1E
100
AcDbEntity
  8
STEMPEL
100
AcDbCircle
 10
172.2877935031023
 20
465.8984511554243
 30
0.0
 40
1.0
100
AcDbArc
 50
254.9999999999993
 51
341.8990013739634
  0
LINE
  5
10E5
330
1E
100
AcDbEntity
  8
STEMPEL
100
AcDbLine
 10
151.1044680955206
 20
470.5392299109815
 30
0.0
 11
172.0289744579996
 21
464.9325253291352
 31
0.0
  0
ARC
  5
10E6
330
1E
100
AcDbEntity
  8
STEMPEL
100
AcDbCircle
 10
170.7348792324872
 20
460.10289619769
 30
0.0
 40
1.0
100
AcDbArc
 50
348.100998626034
 51
75.0000000000024
  0
ARC
  5
10E7
330
1E
100
AcDbEntity
  8
STEMPEL
100
AcDbCircle
 10
224.9999999999998
 20
448.6684294520879
 30
0.0
 40
54.45674315778927
100
AcDbArc
 50
168.100998626034
 51
191.8990013739659
  0
CIRCLE
  5
10E8
330
1E
100
AcDbEntity
  8
STEMPEL
100
AcDbCircle
 10
225.0
 20
448.6684294520879
 30
0.0
 40
20.19615242270652
  0
CIRCLE
  5
10E9
330
1E
100
AcDbEntity
  8
STEMPEL
100
AcDbCircle
 10
224.9999999999999
 20
448.6684294520877
 30
0.0
 40
15.0
  0
ARC
  5
10EA
330
1E
100
AcDbEntity
  8
STEMPEL
100
AcDbCircle
 10
281.5955415319282
 20
501.0213302968968
 30
0.0
 40
1.0
100
AcDbArc
 50
42.76993011139241
 51
135.0
  0
ARC
  5
10EB
330
1E
100
AcDbEntity
  8
STEMPEL
100
AcDbCircle
 10
277.352900844809
 20
505.2639709840162
 30
0.0
 40
1.0
100
AcDbArc
 50
315.0
 51
47.23006988860992
  0
ARC
  5
10EC
330
1E
100
AcDbEntity
  8
STEMPEL
100
AcDbCircle
 10
266.2777397512954
 20
485.703528516264
 30
0.0
 40
1.0
100
AcDbArc
 50
135.0
 51
221.8990013739675
  0
ARC
  5
10ED
330
1E
100
AcDbEntity
  8
STEMPEL
100
AcDbCircle
 10
262.0350990641762
 20
489.9461692033832
 30
0.0
 40
1.0
100
AcDbArc
 50
228.1009986260371
 51
315.0
  0
ARC
  5
10EE
330
1E
100
AcDbEntity
  8
STEMPEL
100
AcDbCircle
 10
236.4344667456021
 20
502.9335502196006
 30
0.0
 40
1.0
100
AcDbArc
 50
258.1009986260333
 51
344.9999999999993
  0
ARC
  5
10EF
330
1E
100
AcDbEntity
  8
STEMPEL
100
AcDbCircle
 10
242.2300217033364
 20
501.3806359489853
 30
0.0
 40
1.0
100
AcDbArc
 50
164.9999999999993
 51
251.8990013739645
  0
ARC
  5
10F0
330
1E
100
AcDbEntity
  8
STEMPEL
100
AcDbCircle
 10
224.9999999999999
 20
448.6684294520879
 30
0.0
 40
54.45674315778927
100
AcDbArc
 50
48.10099862603461
 51
71.89900137396752
  0
LINE
  5
10F1
330
1E
100
AcDbEntity
  8
STEMPEL
100
AcDbLine
 10
280.8884347507416
 20
501.7284370780834
 30
0.0
 11
265.5706329701087
 21
486.4106352974505
 31
0.0
  0
LINE
  5
10F2
330
1E
100
AcDbEntity
  8
STEMPEL
100
AcDbLine
 10
278.0600076259956
 20
504.5568642028295
 30
0.0
 11
262.7422058453625
 21
489.2390624221967
 31
0.0
  0
ARC
  5
10F3
330
1E
100
AcDbEntity
  8
STEMPEL
100
AcDbCircle
 10
247.8367262851826
 20
522.3051423114643
 30
0.0
 40
1.0
100
AcDbArc
 50
72.76993011139203
 51
164.9999999999984
  0
ARC
  5
10F4
330
1E
100
AcDbEntity
  8
STEMPEL
100
AcDbCircle
 10
242.0411713274482
 20
523.8580565820796
 30
0.0
 40
1.0
100
AcDbArc
 50
344.9999999999993
 51
77.23006988860849
  0
LINE
  5
10F5
330
1E
100
AcDbEntity
  8
MITTEL
100
AcDbLine
 10
237.940952255126
 20
496.9647207665412
 30
0.0
 11
248.1901864411859
 21
535.2153834875882
 31
0.0
  0
LINE
  5
10F6
330
1E
100
AcDbEntity
  8
STEMPEL
100
AcDbLine
 10
243.0070971537373
 20
523.5992375369769
 30
0.0
 11
237.4003925718911
 21
502.674731174498
 31
0.0
  0
LINE
  5
10F7
330
1E
100
AcDbEntity
  8
MITTEL
100
AcDbLine
 10
288.3567675943145
 20
512.0251970464023
 30
0.0
 11
260.3553390593273
 21
484.0237685114152
 31
0.0
  0
ARC
  5
10F8
330
1E
100
AcDbEntity
  8
STEMPEL
100
AcDbCircle
 10
224.9999999999999
 20
448.6684294520879
 30
0.0
 40
78.09657286908822
100
AcDbArc
 50
47.23006988860753
 51
72.76993011139203
  0
LINE
  5
10F9
330
1E
100
AcDbEntity
  8
STEMPEL
100
AcDbLine
 10
246.8708004588935
 20
522.563961356567
 30
0.0
 11
241.2640958770472
 21
501.6394549940878
 31
0.0
  0
ARC
  5
10FA
330
1E
100
AcDbEntity
  8
STEMPEL
100
AcDbCircle
 10
207.7699782966633
 20
501.3806359489853
 30
0.0
 40
1.0
100
AcDbArc
 50
288.1009986260356
 51
15.00000000000071
  0
ARC
  5
10FB
330
1E
100
AcDbEntity
  8
STEMPEL
100
AcDbCircle
 10
213.5655332543978
 20
502.9335502196004
 30
0.0
 40
1.0
100
AcDbArc
 50
195.0000000000007
 51
281.8990013739634
  0
ARC
  5
10FC
330
1E
100
AcDbEntity
  8
STEMPEL
100
AcDbCircle
 10
183.7222602487044
 20
485.7035285162639
 30
0.0
 40
1.0
100
AcDbArc
 50
318.1009986260346
 51
44.99999999999999
  0
ARC
  5
10FD
330
1E
100
AcDbEntity
  8
STEMPEL
100
AcDbCircle
 10
187.9649009358237
 20
489.9461692033832
 30
0.0
 40
1.0
100
AcDbArc
 50
225.0
 51
311.8990013739654
  0
ARC
  5
10FE
330
1E
100
AcDbEntity
  8
STEMPEL
100
AcDbCircle
 10
172.6470991551907
 20
505.2639709840162
 30
0.0
 40
1.0
100
AcDbArc
 50
132.7699301113924
 51
225.0
  0
ARC
  5
10FF
330
1E
100
AcDbEntity
  8
STEMPEL
100
AcDbCircle
 10
168.4044584680714
 20
501.0213302968969
 30
0.0
 40
1.0
100
AcDbArc
 50
44.99999999999999
 51
137.2300698886075
  0
LINE
  5
1100
330
1E
100
AcDbEntity
  8
STEMPEL
100
AcDbLine
 10
171.9399923740042
 20
504.5568642028296
 30
0.0
 11
187.257794154637
 21
489.2390624221967
 31
0.0
  0
LINE
  5
1101
330
1E
100
AcDbEntity
  8
STEMPEL
100
AcDbLine
 10
169.111565249258
 20
501.7284370780834
 30
0.0
 11
184.4293670298908
 21
486.4106352974505
 31
0.0
  0
ARC
  5
1102
330
1E
100
AcDbEntity
  8
STEMPEL
100
AcDbCircle
 10
224.9999999999998
 20
448.6684294520879
 30
0.0
 40
54.45674315778927
100
AcDbArc
 50
108.1009986260324
 51
131.8990013739653
  0
ARC
  5
1103
330
1E
100
AcDbEntity
  8
STEMPEL
100
AcDbCircle
 10
202.1632737148171
 20
522.3051423114646
 30
0.0
 40
1.0
100
AcDbArc
 50
15.00000000000071
 51
107.2300698886079
  0
ARC
  5
1104
330
1E
100
AcDbEntity
  8
STEMPEL
100
AcDbCircle
 10
207.9588286725516
 20
523.8580565820796
 30
0.0
 40
1.0
100
AcDbArc
 50
102.7699301113915
 51
195.0000000000007
  0
ARC
  5
1105
330
1E
100
AcDbEntity
  8
STEMPEL
100
AcDbCircle
 10
224.9999999999998
 20
448.6684294520879
 30
0.0
 40
78.09657286908822
100
AcDbArc
 50
107.2300698886079
 51
132.7699301113924
  0
LINE
  5
1106
330
1E
100
AcDbEntity
  8
MITTEL
100
AcDbLine
 10
189.6446609406724
 20
484.0237685114153
 30
0.0
 11
161.6432324056852
 21
512.0251970464026
 31
0.0
  0
LINE
  5
1107
330
1E
100
AcDbEntity
  8
STEMPEL
100
AcDbLine
 10
206.9929028462626
 20
523.5992375369769
 30
0.0
 11
212.5996074281087
 21
502.674731174498
 31
0.0
  0
LINE
  5
1108
330
1E
100
AcDbEntity
  8
STEMPEL
100
AcDbLine
 10
203.1291995411062
 20
522.563961356567
 30
0.0
 11
208.7359041229523
 21
501.6394549940878
 31
0.0
  0
LINE
  5
1109
330
1E
100
AcDbEntity
  8
MITTEL
100
AcDbLine
 10
212.0590477448737
 20
496.9647207665412
 30
0.0
 11
201.8098135588139
 21
535.2153834875882
 31
0.0
  0
ARC
  5
110A
330
1E
100
AcDbEntity
  8
STEMPEL
100
AcDbCircle
 10
224.9999999999999
 20
448.6684294520879
 30
0.0
 40
78.09657286908822
100
AcDbArc
 50
77.23006988860849
 51
102.7699301113915
  0
ARC
  5
110B
330
1E
100
AcDbEntity
  8
STEMPEL
100
AcDbCircle
 10
224.9999999999999
 20
448.6684294520879
 30
0.0
 40
54.45674315778927
100
AcDbArc
 50
78.10099862603337
 51
101.8990013739666
  0
ARC
  5
110C
330
1E
100
AcDbEntity
  8
STEMPEL
100
AcDbCircle
 10
224.9999999999998
 20
448.6684294520879
 30
0.0
 40
54.45674315778927
100
AcDbArc
 50
138.1009986260324
 51
161.8990013739634
  0
ARC
  5
110D
330
1E
100
AcDbEntity
  8
STEMPEL
100
AcDbCircle
 10
224.9999999999999
 20
448.6684294520879
 30
0.0
 40
54.45674315778927
100
AcDbArc
 50
18.10099862603656
 51
41.89900137396753
  0
ARC
  5
110E
330
1E
100
AcDbEntity
  8
STEMPEL
100
AcDbCircle
 10
224.9999999999999
 20
448.6684294520879
 30
0.0
 40
78.09657286908822
100
AcDbArc
 50
17.23006988860889
 51
42.76993011139241
  0
ARC
  5
110F
330
1E
100
AcDbEntity
  8
STEMPEL
100
AcDbCircle
 10
149.8103728700079
 20
431.6272581246395
 30
0.0
 40
1.0
100
AcDbArc
 50
192.7699301113883
 51
285.0000000000008
  0
ARC
  5
1110
330
1E
100
AcDbEntity
  8
STEMPEL
100
AcDbCircle
 10
149.810372870008
 20
465.7096007795361
 30
0.0
 40
1.0
100
AcDbArc
 50
74.99999999999925
 51
167.2300698886117
  0
ARC
  5
1111
330
1E
100
AcDbEntity
  8
STEMPEL
100
AcDbCircle
 10
224.9999999999998
 20
448.6684294520879
 30
0.0
 40
78.09657286908822
100
AcDbArc
 50
167.2300698886117
 51
192.7699301113883
  0
LINE
  5
1112
330
1E
100
AcDbEntity
  8
MITTEL
100
AcDbLine
 10
314.5999999999999
 20
448.6684294520879
 30
0.0
 11
135.3999999999998
 21
448.6684294520879
 31
0.0
  0
LINE
  5
1113
330
1E
100
AcDbEntity
  8
MITTEL
100
AcDbLine
 10
176.7037086855464
 20
461.6093817072139
 30
0.0
 11
138.4530459644994
 21
471.8586158932738
 31
0.0
  0
LINE
  5
1114
330
1E
100
AcDbEntity
  8
STEMPEL
100
AcDbLine
 10
150.0691919151105
 20
430.6613322983506
 30
0.0
 11
170.9936982775897
 21
436.2680368801966
 31
0.0
  0
ARC
  5
1115
330
1E
100
AcDbEntity
  8
STEMPEL
100
AcDbCircle
 10
224.9999999999998
 20
448.6684294520879
 30
0.0
 40
78.09657286908822
100
AcDbArc
 50
137.2300698886075
 51
162.7699301113911
  0
LINE
  5
1116
330
1E
100
AcDbEntity
  8
STEMPEL
100
AcDbLine
 10
150.0691919151105
 20
466.6755266058252
 30
0.0
 11
170.9936982775897
 21
461.068822023979
 31
0.0
  0
LINE
  5
1117
330
1E
100
AcDbEntity
  8
MITTEL
100
AcDbLine
 10
176.7037086855464
 20
435.7274771969617
 30
0.0
 11
138.4530459644994
 21
425.478243010902
 31
0.0
  0
ARC
  5
1118
330
1E
100
AcDbEntity
  8
STEMPEL
100
AcDbCircle
 10
151.3632871406231
 20
471.5051557372705
 30
0.0
 40
1.0
100
AcDbArc
 50
162.7699301113911
 51
254.9999999999993
  0
ARC
  5
1119
330
1E
100
AcDbEntity
  8
STEMPEL
100
AcDbCircle
 10
151.3632871406231
 20
425.8317031669051
 30
0.0
 40
1.0
100
AcDbArc
 50
105.0000000000007
 51
197.2300698886089
  0
ARC
  5
111A
330
1E
100
AcDbEntity
  8
STEMPEL
100
AcDbCircle
 10
224.9999999999998
 20
448.6684294520877
 30
0.0
 40
78.09657286908822
100
AcDbArc
 50
197.2300698886089
 51
222.7699301113924
  0
CIRCLE
  5
111B
330
1E
100
AcDbEntity
  8
STEMPEL
100
AcDbCircle
 10
224.9999999999999
 20
448.6684294520879
 30
0.0
 40
84.59999999999999
  0
LINE
  5
111C
330
1E
100
AcDbEntity
  8
MITTEL
100
AcDbLine
 10
224.9999999999999
 20
359.0684294520877
 30
0.0
 11
224.9999999999999
 21
538.2684294520877
 31
0.0
  0
LINE
  5
111D
330
1E
100
AcDbEntity
  8
MITTEL
100
AcDbLine
 10
189.6446609406724
 20
413.3130903927604
 30
0.0
 11
161.6432324056851
 21
385.3116618577731
 31
0.0
  0
LINE
  5
111E
330
1E
100
AcDbEntity
  8
MITTEL
100
AcDbLine
 10
288.3567675943144
 20
385.3116618577731
 30
0.0
 11
260.3553390593273
 21
413.3130903927604
 31
0.0
  0
LINE
  5
111F
330
1E
100
AcDbEntity
  8
STEMPEL
100
AcDbLine
 10
169.111565249258
 20
395.6084218260922
 30
0.0
 11
184.4293670298909
 21
410.926223606725
 31
0.0
  0
ARC
  5
1120
330
1E
100
AcDbEntity
  8
STEMPEL
100
AcDbCircle
 10
225.0
 20
448.6684294520877
 30
0.0
 40
78.09657286908822
100
AcDbArc
 50
317.2300698886076
 51
342.769930111391
  0
LINE
  5
1121
330
1E
100
AcDbEntity
  8
STEMPEL
100
AcDbLine
 10
280.8884347507416
 20
395.6084218260922
 30
0.0
 11
265.5706329701087
 21
410.926223606725
 31
0.0
  0
LINE
  5
1122
330
1E
100
AcDbEntity
  8
STEMPEL
100
AcDbLine
 10
230.9999999999999
 20
213.5387755738126
 30
0.0
 11
218.9999999999999
 21
213.5387755738126
 31
0.0
  0
LINE
  5
1123
330
1E
100
AcDbEntity
  8
STEMPEL
100
AcDbLine
 10
308.930127018922
 20
215.0387755738125
 30
0.0
 11
305.1943219470313
 21
215.0387755738125
 31
0.0
  0
LINE
  5
1124
330
1E
100
AcDbEntity
  8
STEMPEL
100
AcDbLine
 10
267.4019237886466
 20
217.5387755738125
 30
0.0
 11
269.9999999999999
 21
216.0387755738125
 31
0.0
  0
LINE
  5
1125
330
1E
100
AcDbEntity
  8
STEMPEL
100
AcDbLine
 10
276.9999999999999
 20
216.0387755738125
 30
0.0
 11
269.9999999999999
 21
216.0387755738125
 31
0.0
  0
ARC
  5
1126
330
1E
100
AcDbEntity
  8
STEMPEL
100
AcDbCircle
 10
232.6372087581822
 20
214.9387755738125
 30
0.0
 40
1.6
100
AcDbArc
 50
89.99999999999998
 51
178.5000000000037
  0
ARC
  5
1127
330
1E
100
AcDbEntity
  8
STEMPEL
100
AcDbCircle
 10
232.737017464088
 20
219.1387755738124
 30
0.0
 40
1.6
100
AcDbArc
 50
181.5000000000027
 51
270.0
  0
ARC
  5
1128
330
1E
100
AcDbEntity
  8
STEMPEL
100
AcDbCircle
 10
217.3627912418176
 20
214.9387755738125
 30
0.0
 40
1.6
100
AcDbArc
 50
1.500000000002718
 51
89.99999999999998
  0
ARC
  5
1129
330
1E
100
AcDbEntity
  8
STEMPEL
100
AcDbCircle
 10
217.2629825359118
 20
219.1387755738124
 30
0.0
 40
1.6
100
AcDbArc
 50
270.0
 51
358.4999999999972
  0
LINE
  5
112A
330
1E
100
AcDbEntity
  8
STEMPEL
100
AcDbLine
 10
217.3627912418177
 20
216.5387755738125
 30
0.0
 11
209.9999999999999
 21
216.5387755738125
 31
0.0
  0
LINE
  5
112B
330
1E
100
AcDbEntity
  8
STEMPEL
100
AcDbLine
 10
179.9999999999999
 20
216.0387755738125
 30
0.0
 11
172.9999999999999
 21
216.0387755738125
 31
0.0
  0
LINE
  5
112C
330
1E
100
AcDbEntity
  8
STEMPEL
100
AcDbLine
 10
182.5980762113532
 20
217.5387755738125
 30
0.0
 11
179.9999999999999
 21
216.0387755738125
 31
0.0
  0
LINE
  5
112D
330
1E
100
AcDbEntity
  8
STEMPEL
100
AcDbLine
 10
217.2629825359119
 20
217.5387755738125
 30
0.0
 11
182.5980762113532
 21
217.5387755738125
 31
0.0
  0
LINE
  5
112E
330
1E
100
AcDbEntity
  8
STEMPEL
100
AcDbLine
 10
229.9999999999999
 20
262.5387755738125
 30
0.0
 11
219.9999999999999
 21
262.5387755738125
 31
0.0
  0
LINE
  5
112F
330
1E
100
AcDbEntity
  8
STEMPEL
100
AcDbLine
 10
219.9999999999999
 20
262.5387755738125
 30
0.0
 11
218.8624342558727
 21
219.0968924565199
 31
0.0
  0
LINE
  5
1130
330
1E
100
AcDbEntity
  8
STEMPEL
100
AcDbLine
 10
229.9999999999999
 20
262.5387755738125
 30
0.0
 11
231.1375657441271
 21
219.0968924565199
 31
0.0
  0
LINE
  5
1131
330
1E
100
AcDbEntity
  8
STEMPEL
100
AcDbLine
 10
239.9999999999999
 20
216.5387755738125
 30
0.0
 11
232.6372087581822
 21
216.5387755738125
 31
0.0
  0
LINE
  5
1132
330
1E
100
AcDbEntity
  8
STEMPEL
100
AcDbLine
 10
267.4019237886466
 20
217.5387755738125
 30
0.0
 11
232.737017464088
 21
217.5387755738125
 31
0.0
  0
LINE
  5
1133
330
1E
100
AcDbEntity
  8
STEMPEL
100
AcDbLine
 10
222.4999999999999
 20
262.5387755738125
 30
0.0
 11
223.7831101568901
 21
213.5387755738126
 31
0.0
  0
LINE
  5
1134
330
1E
100
AcDbEntity
  8
STEMPEL
100
AcDbLine
 10
218.9622429617785
 20
214.9806586911051
 30
0.0
 11
218.9999999999999
 21
213.5387755738126
 31
0.0
  0
LINE
  5
1135
330
1E
100
AcDbEntity
  8
STEMPEL
100
AcDbLine
 10
209.9999999999999
 20
216.5387755738125
 30
0.0
 11
204.8038475772933
 21
213.5387755738126
 31
0.0
  0
LINE
  5
1136
330
1E
100
AcDbEntity
  8
STEMPEL
100
AcDbLine
 10
239.9999999999999
 20
216.5387755738125
 30
0.0
 11
245.1961524227065
 21
213.5387755738126
 31
0.0
  0
LINE
  5
1137
330
1E
100
AcDbEntity
  8
STEMPEL
100
AcDbLine
 10
231.0377570382212
 20
214.9806586911051
 30
0.0
 11
230.9999999999999
 21
213.5387755738126
 31
0.0
  0
LINE
  5
1138
330
1E
100
AcDbEntity
  8
STEMPEL
100
AcDbLine
 10
227.4999999999999
 20
262.5387755738125
 30
0.0
 11
226.2168898431097
 21
213.5387755738126
 31
0.0
  0
LINE
  5
1139
330
1E
100
AcDbEntity
  8
STEMPEL
100
AcDbLine
 10
308.930127018922
 20
215.0387755738125
 30
0.0
 11
309.5999999999999
 21
212.5387755738125
 31
0.0
  0
LINE
  5
113A
330
1E
100
AcDbEntity
  8
STEMPEL
100
AcDbLine
 10
144.8056780529686
 20
215.0387755738125
 30
0.0
 11
141.0698729810777
 21
215.0387755738125
 31
0.0
  0
LINE
  5
113B
330
1E
100
AcDbEntity
  8
STEMPEL
100
AcDbLine
 10
141.0698729810777
 20
215.0387755738125
 30
0.0
 11
140.3999999999999
 21
212.5387755738125
 31
0.0
  0
LINE
  5
113C
330
1E
100
AcDbEntity
  8
STEMPEL
100
AcDbLine
 10
302.9202458883798
 20
213.5387755738126
 30
0.0
 11
147.0797541116202
 21
213.5387755738126
 31
0.0
  0
LINE
  5
113D
330
1E
100
AcDbEntity
  8
STEMPEL
100
AcDbLine
 10
309.5999999999999
 20
212.5387755738125
 30
0.0
 11
140.3999999999999
 21
212.5387755738125
 31
0.0
  0
ARC
  5
113E
330
1E
100
AcDbEntity
  8
STEMPEL
100
AcDbCircle
 10
286.8045018441135
 20
290.5387755738124
 30
0.0
 40
2.5
100
AcDbArc
 50
9.999999999998589
 51
89.99999999999998
  0
ARC
  5
113F
330
1E
100
AcDbEntity
  8
STEMPEL
100
AcDbCircle
 10
275.8296951274203
 20
292.2387755738125
 30
0.0
 40
2.5
100
AcDbArc
 50
358.9999999999982
 51
89.99999999999998
  0
ARC
  5
1140
330
1E
100
AcDbEntity
  8
STEMPEL
100
AcDbCircle
 10
283.3011639773717
 20
290.5387755738125
 30
0.0
 40
2.5
100
AcDbArc
 50
89.99999999999998
 51
178.9999999999982
  0
LINE
  5
1141
330
1E
100
AcDbEntity
  8
STEMPEL
100
AcDbLine
 10
286.8045018441136
 20
293.0387755738125
 30
0.0
 11
283.3011639773716
 21
293.0387755738125
 31
0.0
  0
LINE
  5
1142
330
1E
100
AcDbEntity
  8
STEMPEL
100
AcDbLine
 10
274.9999999999999
 20
295.5387755738125
 30
0.0
 11
274.9999999999999
 21
294.7387755738125
 31
0.0
  0
LINE
  5
1143
330
1E
100
AcDbEntity
  8
STEMPEL
100
AcDbLine
 10
174.9999999999999
 20
295.5387755738125
 30
0.0
 11
174.9999999999999
 21
294.7387755738125
 31
0.0
  0
LINE
  5
1144
330
1E
100
AcDbEntity
  8
STEMPEL
100
AcDbLine
 10
166.6988360226281
 20
293.0387755738125
 30
0.0
 11
163.1954981558863
 21
293.0387755738125
 31
0.0
  0
ARC
  5
1145
330
1E
100
AcDbEntity
  8
STEMPEL
100
AcDbCircle
 10
166.6988360226282
 20
290.5387755738125
 30
0.0
 40
2.5
100
AcDbArc
 50
1.000000000001744
 51
89.99999999999998
  0
ARC
  5
1146
330
1E
100
AcDbEntity
  8
STEMPEL
100
AcDbCircle
 10
163.1954981558863
 20
290.5387755738125
 30
0.0
 40
2.5
100
AcDbArc
 50
89.99999999999998
 51
170.0000000000014
  0
ARC
  5
1147
330
1E
100
AcDbEntity
  8
STEMPEL
100
AcDbCircle
 10
174.1703048725795
 20
292.2387755738125
 30
0.0
 40
2.5
100
AcDbArc
 50
89.99999999999998
 51
181.0000000000017
  0
LINE
  5
1148
330
1E
100
AcDbEntity
  8
STEMPEL
100
AcDbLine
 10
275.8296951274203
 20
294.7387755738125
 30
0.0
 11
174.1703048725795
 21
294.7387755738125
 31
0.0
  0
LINE
  5
1149
330
1E
100
AcDbEntity
  8
STEMPEL
100
AcDbLine
 10
289.6574405901163
 20
295.5387755738125
 30
0.0
 11
160.3425594098835
 21
295.5387755738125
 31
0.0
  0
LINE
  5
114A
330
1E
100
AcDbEntity
  8
MITTEL
100
AcDbLine
 10
224.9999999999999
 20
300.5387755738125
 30
0.0
 11
224.9999999999999
 21
207.5387755738125
 31
0.0
  0
LINE
  5
114B
330
1E
100
AcDbEntity
  8
STEMPEL
100
AcDbLine
 10
169.1984552605191
 20
290.5824065899057
 30
0.0
 11
170.5432568422106
 21
213.5387755738126
 31
0.0
  0
LINE
  5
114C
330
1E
100
AcDbEntity
  8
STEMPEL
100
AcDbLine
 10
160.7334787733558
 20
290.9728960179799
 30
0.0
 11
146.9034271309117
 21
212.5387755738125
 31
0.0
  0
LINE
  5
114D
330
1E
100
AcDbEntity
  8
STEMPEL
100
AcDbLine
 10
158.766867005064
 20
294.2166126580795
 30
0.0
 11
144.8056780529686
 21
215.0387755738125
 31
0.0
  0
LINE
  5
114E
330
1E
100
AcDbEntity
  8
STEMPEL
100
AcDbLine
 10
171.6706856346885
 20
292.1951445577193
 30
0.0
 11
172.9999999999999
 21
216.0387755738125
 31
0.0
  0
LINE
  5
114F
330
1E
100
AcDbEntity
  8
STEMPEL
100
AcDbLine
 10
278.3293143653112
 20
292.1951445577193
 30
0.0
 11
276.9999999999999
 21
216.0387755738125
 31
0.0
  0
LINE
  5
1150
330
1E
100
AcDbEntity
  8
STEMPEL
100
AcDbLine
 10
291.2331329949358
 20
294.2166126580796
 30
0.0
 11
305.1943219470314
 21
215.0387755738125
 31
0.0
  0
LINE
  5
1151
330
1E
100
AcDbEntity
  8
STEMPEL
100
AcDbLine
 10
289.266521226644
 20
290.9728960179797
 30
0.0
 11
303.0965728690881
 21
212.5387755738125
 31
0.0
  0
LINE
  5
1152
330
1E
100
AcDbEntity
  8
STEMPEL
100
AcDbLine
 10
280.8015447394808
 20
290.5824065899057
 30
0.0
 11
279.4567431577891
 21
213.5387755738126
 31
0.0
  0
DIMENSION
  5
1153
330
1E
100
AcDbEntity
  8
BEM
100
AcDbDimension
  2
*D9
 10
278.3296951274203
 20
305.9147661722989
 30
0.0
 11
225.0
 21
312.4147661722989
 31
0.0
 70
    32
  1
%%c107
 71
     5
 42
106.6593902548408
  3
Standard
100
AcDbAlignedDimension
 13
171.6703048725795
 23
292.2387755738125
 33
0.0
 14
278.3296951274203
 24
292.2387755738125
 34
0.0
100
AcDbRotatedDimension
1001
ACAD
1000
DSTYLE
1002
{
1070
    40
1040
2.0
1070
    41
1040
3.5
1070
    42
1040
1.0
1070
    43
1040
7.0
1070
    44
1040
1.0
1070
    73
1070
     0
1070
    74
1070
     0
1070
    77
1070
     1
1070
    78
1070
     8
1070
    79
1070
     2
1070
   140
1040
3.5
1070
   141
1040
1.5
1070
   146
1040
0.5
1070
   147
1040
1.5
1070
   172
1070
     1
1070
   178
1070
     1
1070
   179
1070
     2
1070
   271
1070
     2
1070
   272
1070
     2
1070
   284
1070
     8
1070
   285
1070
     8
1070
   286
1070
     8
1002
}
  0
DIMENSION
  5
1160
330
1E
100
AcDbEntity
  8
BEM
100
AcDbDimension
  2
*D10
 10
158.9999999999999
 20
321.122949187137
 30
0.0
 11
225.0
 21
327.622949187137
 31
0.0
 70
    32
  1
%%c<>
 71
     5
 42
132.0
  3
Standard
100
AcDbAlignedDimension
 13
291.0
 23
295.5387755738125
 33
0.0
 14
158.9999999999999
 24
295.5387755738125
 34
0.0
100
AcDbRotatedDimension
1001
ACAD
1000
DSTYLE
1002
{
1070
    40
1040
2.0
1070
    41
1040
3.5
1070
    42
1040
1.0
1070
    43
1040
7.0
1070
    44
1040
1.0
1070
    73
1070
     0
1070
    74
1070
     0
1070
    77
1070
     1
1070
    78
1070
     8
1070
    79
1070
     2
1070
   140
1040
3.5
1070
   141
1040
1.5
1070
   146
1040
0.5
1070
   147
1040
1.5
1070
   172
1070
     1
1070
   178
1070
     1
1070
   179
1070
     2
1070
   271
1070
     2
1070
   272
1070
     2
1070
   284
1070
     8
1070
   285
1070
     8
1070
   286
1070
     8
1002
}
  0
DIMENSION
  5
116D
330
1E
100
AcDbEntity
  8
BEM
100
AcDbDimension
  2
*D11
 10
305.1943219470314
 20
191.6989698017664
 30
0.0
 11
225.0
 21
198.1989698017664
 31
0.0
 70
    32
  1
%%c161
 71
     5
 42
160.3886438940628
  3
Standard
100
AcDbAlignedDimension
 13
144.8056780529686
 23
215.0387755738125
 33
0.0
 14
305.1943219470314
 24
215.0387755738125
 34
0.0
100
AcDbRotatedDimension
1001
ACAD
1000
DSTYLE
1002
{
1070
    40
1040
2.0
1070
    41
1040
3.5
1070
    42
1040
1.0
1070
    43
1040
7.0
1070
    44
1040
1.0
1070
    73
1070
     0
1070
    74
1070
     0
1070
    77
1070
     1
1070
    78
1070
     8
1070
    79
1070
     2
1070
   140
1040
3.5
1070
   141
1040
1.5
1070
   146
1040
0.5
1070
   147
1040
1.5
1070
   172
1070
     1
1070
   178
1070
     1
1070
   179
1070
     2
1070
   271
1070
     2
1070
   272
1070
     2
1070
   284
1070
     8
1070
   285
1070
     8
1070
   286
1070
     8
1002
}
  0
DIMENSION
  5
117A
330
1E
100
AcDbEntity
  8
BEM
100
AcDbDimension
  2
*D12
 10
140.3999999999999
 20
176.4907881699846
 30
0.0
 11
225.0
 21
182.9907881699846
 31
0.0
 70
    32
  1
%%c169
 71
     5
 42
169.1999999999999
  3
Standard
100
AcDbAlignedDimension
 13
309.5999999999999
 23
212.5387755738125
 33
0.0
 14
140.3999999999999
 24
212.5387755738125
 34
0.0
100
AcDbRotatedDimension
1001
ACAD
1000
DSTYLE
1002
{
1070
    40
1040
2.0
1070
    41
1040
3.5
1070
    42
1040
1.0
1070
    43
1040
7.0
1070
    44
1040
1.0
1070
    73
1070
     0
1070
    74
1070
     0
1070
    77
1070
     1
1070
    78
1070
     8
1070
    79
1070
     2
1070
   140
1040
3.5
1070
   141
1040
1.5
1070
   146
1040
0.5
1070
   147
1040
1.5
1070
   172
1070
     1
1070
   178
1070
     1
1070
   179
1070
     2
1070
   271
1070
     2
1070
   272
1070
     2
1070
   284
1070
     8
1070
   285
1070
     8
1070
   286
1070
     8
1002
}
  0
DIMENSION
  5
1187
330
1E
100
AcDbEntity
  8
BEM
100
AcDbDimension
  2
*D13
 10
125.3462553713277
 20
212.5387755738125
 30
0.0
 11
118.8462553713277
 21
254.0387755738126
 31
0.0
 70
    32
 71
     5
 42
83.00000000000002
  3
Standard
100
AcDbAlignedDimension
 13
160.3425594098835
 23
295.5387755738125
 33
0.0
 14
140.3999999999999
 24
212.5387755738125
 34
0.0
 50
90.0
100
AcDbRotatedDimension
1001
ACAD
1000
DSTYLE
1002
{
1070
    40
1040
2.0
1070
    41
1040
3.5
1070
    42
1040
1.0
1070
    43
1040
7.0
1070
    44
1040
1.0
1070
    73
1070
     0
1070
    74
1070
     0
1070
    77
1070
     1
1070
    78
1070
     8
1070
    79
1070
     2
1070
   140
1040
3.5
1070
   141
1040
1.5
1070
   146
1040
0.5
1070
   147
1040
1.5
1070
   172
1070
     1
1070
   178
1070
     1
1070
   179
1070
     2
1070
   271
1070
     2
1070
   272
1070
     2
1070
   284
1070
     8
1070
   285
1070
     8
1070
   286
1070
     8
1002
}
  0
ENDSEC
  0
SECTION
  2
OBJECTS
  0
DICTIONARY
  5
C
330
0
100
AcDbDictionary
281
     1
  3
ACAD_COLOR
350
DF
  3
ACAD_GROUP
350
D
  3
ACAD_LAYOUT
350
19
  3
ACAD_MATERIAL
350
DE
  3
ACAD_MLINESTYLE
350
16
  3
ACAD_PLOTSETTINGS
350
18
  3
ACAD_PLOTSTYLENAME
350
E
  3
AcDbVariableDictionary
350
EA
  0
DICTIONARY
  5
A0
330
1E
100
AcDbDictionary
280
     1
281
     1
  3
ACAD_LAYOUTSELFREF
360
D4
  0
DICTIONARY
  5
A2
330
1A
100
AcDbDictionary
280
     1
281
     1
  3
ACAD_LAYOUTSELFREF
360
D3
  0
DICTIONARY
  5
DF
102
{ACAD_REACTORS
330
C
102
}
330
C
100
AcDbDictionary
281
     1
  0
DICTIONARY
  5
D
102
{ACAD_REACTORS
330
C
102
}
330
C
100
AcDbDictionary
281
     1
  0
DICTIONARY
  5
19
102
{ACAD_REACTORS
330
C
102
}
330
C
100
AcDbDictionary
281
     1
  3
Layout1
350
1D
  3
Model
350
21
  0
DICTIONARY
  5
DE
102
{ACAD_REACTORS
330
C
102
}
330
C
100
AcDbDictionary
281
     1
  0
DICTIONARY
  5
16
102
{ACAD_REACTORS
330
C
102
}
330
C
100
AcDbDictionary
281
     1
  3
Standard
350
17
  0
DICTIONARY
  5
18
102
{ACAD_REACTORS
330
C
102
}
330
C
100
AcDbDictionary
281
     1
  0
ACDBDICTIONARYWDFLT
  5
E
102
{ACAD_REACTORS
330
C
102
}
330
C
100
AcDbDictionary
281
     1
  3
Normal
350
F
100
AcDbDictionaryWithDefault
340
F
  0
DICTIONARY
  5
EA
102
{ACAD_REACTORS
330
C
102
}
330
C
100
AcDbDictionary
281
     1
  3
DIMASSOC
350
EB
  3
PROJECTNAME
350
EC
  0
XRECORD
  5
D4
102
{ACAD_REACTORS
330
A0
102
}
330
A0
100
AcDbXrecord
280
     1
340
1E
  0
XRECORD
  5
D3
102
{ACAD_REACTORS
330
A2
102
}
330
A2
100
AcDbXrecord
280
     1
340
1A
  0
LAYOUT
  5
1D
102
{ACAD_REACTORS
330
19
102
}
330
19
100
AcDbPlotSettings
  1

  2
\\NT_WORK01\HP LaserJet 5000 PCL 6
  4

  6

 40
0.0
 41
0.0
 42
0.0
 43
0.0
 44
0.0
 45
0.0
 46
0.0
 47
0.0
 48
0.0
 49
0.0
140
0.0
141
0.0
142
1.0
143
1.0
 70
   688
 72
     0
 73
     0
 74
     5
  7

 75
    16
147
1.0
 76
     0
 77
     2
 78
   300
148
0.0
149
0.0
100
AcDbLayout
  1
Layout1
 70
     0
 71
     1
 10
0.0
 20
0.0
 11
12.0
 21
9.0
 12
0.0
 22
0.0
 32
0.0
 14
1.000000000000000E+20
 24
1.000000000000000E+20
 34
1.000000000000000E+20
 15
-1.000000000000000E+20
 25
-1.000000000000000E+20
 35
-1.000000000000000E+20
146
0.0
 13
0.0
 23
0.0
 33
0.0
 16
1.0
 26
0.0
 36
0.0
 17
0.0
 27
1.0
 37
0.0
 76
     0
330
1A
  0
LAYOUT
  5
21
102
{ACAD_REACTORS
330
19
102
}
330
19
100
AcDbPlotSettings
  1

  2
none_device
  4
Letter_(8.50_x_11.00_Inches)
  6

 40
6.349999904632567
 41
6.349999904632567
 42
6.350006103515625
 43
6.350006103515625
 44
215.8999938964844
 45
279.3999938964844
 46
0.0
 47
0.0
 48
0.0
 49
0.0
140
0.0
141
0.0
142
1.0
143
1.0
 70
 11952
 72
     0
 73
     1
 74
     0
  7

 75
     0
147
1.0
 76
     0
 77
     2
 78
   300
148
2209.800000000004
149
0.0
100
AcDbLayout
  1
Model
 70
     1
 71
     0
 10
0.0
 20
0.0
 11
12.0
 21
9.0
 12
0.0
 22
0.0
 32
0.0
 14
0.0
 24
0.0
 34
0.0
 15
0.0
 25
0.0
 35
0.0
146
0.0
 13
0.0
 23
0.0
 33
0.0
 16
1.0
 26
0.0
 36
0.0
 17
0.0
 27
1.0
 37
0.0
 76
     0
330
1E
  0
MLINESTYLE
  5
17
102
{ACAD_REACTORS
330
16
102
}
330
16
100
AcDbMlineStyle
  2
STANDARD
 70
     0
  3

 62
   256
 51
90.0
 52
90.0
 71
     2
 49
0.5
 62
   256
  6
BYLAYER
 49
-0.5
 62
   256
  6
BYLAYER
  0
ACDBPLACEHOLDER
  5
F
102
{ACAD_REACTORS
330
E
102
}
330
E
  0
DICTIONARYVAR
  5
EB
102
{ACAD_REACTORS
330
EA
102
}
330
EA
100
DictionaryVariables
280
     0
  1
1
  0
DICTIONARYVAR
  5
EC
102
{ACAD_REACTORS
330
EA
102
}
330
EA
100
DictionaryVariables
280
     0
  1

  0
ENDSEC
  0
EOF
